<?xml version="1.0" encoding="UTF-8"?>
<svg xmlns="http://www.w3.org/2000/svg" xmlns:xlink="http://www.w3.org/1999/xlink" version="1.2" >
<font id="Seirra Serif">
<font-face  font-family="Seirra Serif" units-per-em="1000" ascent="750" descent="-250" font-style="normal" font-weight="400" font-stretch="normal" cap-height="700" x-height="500" underline-position="-75" underline-thickness="50" />
<missing-glyph  horiz-adv-x="425" d="" />
<glyph glyph-name="NULL" d="" />
<glyph glyph-name="nonmarkingreturn" unicode="&#xd;" horiz-adv-x="425" d="" />
<glyph glyph-name="space" unicode="&#x20;" horiz-adv-x="425" d="" />
<glyph glyph-name="percent" unicode="&#x25;" horiz-adv-x="805" d="M326 377 Q326 323 313 283 Q300 243 278 216.5 Q256 190 226.5 177 Q197 164 164 164 Q132 164 104 176.5 Q76 189 54.5 214.5 Q33 240 20 278 Q7 316 7 367 Q7 418 20 457 Q33 496 55 523 Q77 550 106.5 564 Q136 578 169 578 Q241 578 283.5 526 Q326 474 326 377 Z M79 370 Q78 338 83.5 310 Q89 282 100.5 262 Q112 242 128.5 230.5 Q145 219 166 219 Q212 219 233 262 Q254 305 254 373 Q254 403 249 430.5 Q244 458 233.5 478.5 Q223 499 206.5 511 Q190 523 166 523 Q145 523 128.5 511 Q112 499 101 478.5 Q90 458 84.5 430 Q79 402 79 370 Z M158 -119 L497 578 L574 578 L242 -119 L158 -119 Z M765 97 Q765 44 752 4 Q739 -36 717 -62.5 Q695 -89 666 -102 Q637 -115 605 -115 Q573 -115 544.5 -102.5 Q516 -90 494.5 -64.5 Q473 -39 460 -1.5 Q447 36 447 87 Q447 138 460 177.5 Q473 217 495 244 Q517 271 546.5 285 Q576 299 610 299 Q681 299 723 246.5 Q765 194 765 97 Z M518 91 Q518 59 523.5 31 Q529 3 540.5 -17 Q552 -37 569 -48.5 Q586 -60 607 -60 Q652 -60 673 -17 Q694 26 694 93 Q694 124 689.5 151.5 Q685 179 674.5 199.5 Q664 220 647.5 232 Q631 244 607 244 Q585 244 568.5 232 Q552 220 540.5 199.5 Q529 179 523.5 151 Q518 123 518 91 Z " />
<glyph glyph-name="ampersand" unicode="&#x26;" horiz-adv-x="658" d="M609 -115 L501 -115 L415 2 Q411 -2 408.5 -4 Q406 -6 403 -9 L393 -20 Q348 -63 300 -87.5 Q252 -112 203 -112 Q184 -112 168.5 -109 Q153 -106 134 -98 Q114 -90 97.5 -80 Q81 -70 67 -56 Q37 -29 18 8 Q10 28 5.5 47.5 Q1 67 2 90 Q2 160 39 206 Q57 229 90 259 Q123 289 177 324 Q145 369 122.5 409 Q100 449 100 486 Q100 540 144 586 Q187 631 254 631 Q284 631 310.5 623 Q337 615 360 598 Q383 580 392.5 558 Q402 536 402 510 Q402 468 371.5 427 Q341 386 262 346 L457 89 L564 205 L601 205 L602 204 L473 66 L609 -115 Z M398 26 L193 301 Q164 284 145.5 263.5 Q127 243 111 220 Q81 174 81 129 Q81 95 90 62.5 Q99 30 125 0 Q153 -29 184.5 -43 Q216 -57 251 -57 Q285 -57 320.5 -38.5 Q356 -20 386 12 L398 26 Z M169 513 Q169 487 191.5 450.5 Q214 414 247 368 Q302 400 323 434.5 Q344 469 344 506 Q344 530 337 545 Q333 564 320 578 Q314 584 307 589 Q300 594 291 598 Q276 604 256 604 Q215 604 193 579 Q169 552 169 513 Z " />
<glyph glyph-name="quotesingle" unicode="&#x27;" horiz-adv-x="277" d="M222 667 Q216 634 207.5 597 Q199 560 190.5 525.5 Q182 491 173 461.5 Q164 432 157 414 L67 414 Q75 437 84 469 Q93 501 101.5 535.5 Q110 570 117 604.5 Q124 639 129 667 L222 667 Z " />
<glyph glyph-name="parenleft" unicode="&#x28;" horiz-adv-x="265" d="M239 680 Q210 640 185.5 594 Q161 548 143 494.5 Q125 441 114.5 379 Q104 317 104 245 Q104 173 114.5 110 Q125 47 143 -7 Q161 -61 185.5 -107 Q210 -153 239 -193 L153 -193 Q127 -159 104 -116 Q81 -73 64 -19 Q47 35 36.5 100 Q26 165 26 244 Q26 323 39 388.5 Q52 454 72.5 508 Q93 562 119 604.5 Q145 647 171 680 L239 680 Z " />
<glyph glyph-name="parenright" unicode="&#x29;" horiz-adv-x="250" d="M78 680 Q103 647 129 604.5 Q155 562 176 508 Q197 454 210.5 388.5 Q224 323 224 244 Q224 165 214 100 Q204 35 187 -19 Q170 -73 147.5 -116 Q125 -159 99 -193 L11 -193 Q39 -153 64 -107 Q89 -61 107 -7 Q125 47 135.5 110 Q146 173 146 245 Q146 317 135.5 379 Q125 441 107 494.5 Q89 548 64.5 594 Q40 640 11 680 L78 680 L78 680 Z " />
<glyph glyph-name="asterisk" unicode="&#x2a;" horiz-adv-x="408" d="M326 594 L227 462 L384 483 L384 412 L227 431 L327 304 L262 267 L199 449 L130 266 L71 303 L169 432 L15 412 L15 483 L168 463 L71 592 L134 628 L199 449 L264 629 L326 594 L326 594 Z " />
<glyph glyph-name="plus" unicode="&#x2b;" horiz-adv-x="597" d="M329 470 L329 226 L564 226 L564 164 L329 164 L329 -82 L263 -82 L263 164 L28 164 L28 226 L263 226 L263 470 L329 470 L329 470 Z " />
<glyph glyph-name="comma" unicode="&#x2c;" horiz-adv-x="262" d="M209 9 Q203 -24 194.5 -61.5 Q186 -99 177.5 -133.5 Q169 -168 160.5 -197.5 Q152 -227 145 -245 L54 -245 Q63 -222 72 -190 Q81 -158 89 -123 Q97 -88 104 -53.5 Q111 -19 116 9 L209 9 Z " />
<glyph glyph-name="hyphen" unicode="&#x2d;" horiz-adv-x="304" d="M277 232 L277 165 L21 165 L21 232 L277 232 L277 232 Z " />
<glyph glyph-name="period" unicode="&#x2e;" horiz-adv-x="224" d="M59 -102 Q59 -73 76.5 -54.5 Q94 -36 122 -36 Q149 -36 166 -54.5 Q183 -73 183 -102 Q183 -130 166.5 -148.5 Q150 -167 121 -167 Q93 -167 76 -148.5 Q59 -130 59 -102 Z " />
<glyph glyph-name="slash" unicode="&#x2f;" horiz-adv-x="454" d="M56 -148 L345 604 L416 604 L125 -148 L56 -148 L56 -148 Z " />
<glyph glyph-name="zero" unicode="0" horiz-adv-x="632" d="M22 298 Q22 360 43 413 Q64 463 103 501 Q142 537 196 558 Q251 578 316 578 Q382 578 437 558 Q489 538 529 501 Q568 462 588 413 Q610 362 610 298 Q610 234 588 183 Q568 134 529 95 Q489 58 437 38 Q382 18 316 18 Q251 18 196 38 Q142 59 103 95 Q64 133 43 183 Q22 235 22 298 Z M139 298 Q139 239 152 193 Q163 147 188 112 Q213 78 244 61 Q276 42 316 42 Q356 42 388 61 Q422 79 444 112 Q469 147 480 193 Q486 217 489.5 243 Q493 269 493 298 Q493 327 489.5 353.5 Q486 380 480 403 Q468 449 444 483 Q422 516 388 535 Q356 554 316 554 Q276 554 244 535 Q212 518 188 483 Q164 449 152 403 Q139 358 139 298 Z " />
<glyph glyph-name="one" unicode="1" horiz-adv-x="307" d="M227 576 Q237 577 245 577.5 Q253 578 259 578 L272 578 L272 573 L272 493 L272 -18 L168 -18 L168 484 Q147 474 128.5 461 Q110 448 96 436 Q82 424 72.5 414 Q63 404 61 400 L27 437 L15 450 L9 457 L35 483 Q72 516 112.5 538.5 Q153 561 199 572 Q202 573 204.5 573 Q207 573 210 574 Q215 575 218.5 575 Q222 575 227 576 Z " />
<glyph glyph-name="two" unicode="2" horiz-adv-x="561" d="M524 127 L514 22 L27 22 L27 45 Q46 56 63 66.5 Q80 77 97 87 Q125 105 158.5 127.5 Q192 150 226.5 175.5 Q261 201 292.5 228 Q324 255 347 281 Q357 293 368 309 Q379 325 386.5 344 Q394 363 397 385 Q400 407 394 431 Q391 442 385.5 452.5 Q380 463 371 472 Q360 483 342.5 489.5 Q325 496 299 498 Q267 500 237 483 Q207 466 182.5 444 Q158 422 142.5 401 Q127 380 124 374 L64 423 Q103 475 147 512 Q155 519 166 527 Q184 541 218 556 Q236 564 259 570 Q259 571 260 571 Q290 579 328.5 577.5 Q367 576 410 554 Q410 553 411 553 Q429 543 446.5 527 Q464 511 475 486 Q476 485 476 484 L477 483 Q487 457 488 426 Q487 402 480.5 380.5 Q474 359 463 339 Q461 337 459 333 Q455 327 452 321.5 Q449 316 444 311 Q432 294 416 278 Q400 262 385 248.5 Q370 235 359 226 Q348 217 345 215 L232 127 L524 127 Z " />
<glyph glyph-name="three" unicode="3" horiz-adv-x="511" d="M472 144 Q486 111 486 75 Q486 46 478 20.5 Q470 -5 453 -33 Q422 -86 381 -121 Q340 -156 287.5 -176.5 Q235 -197 170.5 -205.5 Q106 -214 28 -214 L27 -140 Q67 -140 115.5 -135.5 Q164 -131 209.5 -119 Q255 -107 292.5 -86 Q330 -65 350 -32 Q364 -10 369.5 15 Q375 40 375 67 Q375 137 327 176 Q280 217 202 217 Q193 216 184 215 Q176 213 166.5 211.5 Q157 210 147 208 Q145 208 144 207.5 Q143 207 142 207 L142 224 Q149 227 155.5 229 Q162 231 168 233 Q174 235 179.5 237 Q185 239 190 241 Q226 256 253 275.5 Q280 295 303 315 Q314 324 321.5 337.5 Q329 351 334.5 365 Q340 379 342.5 391.5 Q345 404 345 412 Q345 425 342.5 443 Q340 461 329.5 476.5 Q319 492 298.5 502.5 Q278 513 243 512 Q219 512 194 501.5 Q169 491 145.5 473.5 Q122 456 101 434 Q80 412 64 389 L12 435 Q21 447 36 462.5 Q51 478 67.5 494 Q84 510 101 523 Q118 536 131 544 Q148 555 165.5 561.5 Q183 568 201 573 Q235 583 272 583 Q317 583 353 571 Q380 560 401 544 Q449 505 449 441 Q449 431 445 418 Q441 405 434.5 392 Q428 379 420 367 Q412 355 404 347 Q379 322 349 300.5 Q319 279 279 259 Q327 254 364 240 Q383 232 399.5 222.5 Q416 213 430 201 Q457 177 472 144 Z " />
<glyph glyph-name="four" unicode="4" horiz-adv-x="624" d="M30 44 Q83 116 130.5 181 Q178 246 221 304 Q247 339 267.5 367 Q288 395 303 415 Q319 435 333.5 454.5 Q348 474 362 491 Q376 508 387.5 523 Q399 538 410 550 Q432 575 437 577 L454 577 L454 71 L590 71 L590 24 L454 24 L454 -140 L349 -140 L349 24 L30 24 L30 44 Z M91 71 L348 73 L348 409 L348 419 Q332 397 315.5 375 Q299 353 281 328 Q263 304 245 280 Q227 256 210 232 Q193 209 176.5 186.5 Q160 164 144 143 Q128 121 115 103 Q102 85 91 71 Z " />
<glyph glyph-name="five" unicode="5" horiz-adv-x="540" d="M492 184 Q504 151 504 113 Q504 84 497 48 Q490 12 471.5 -25 Q453 -62 420 -97 Q387 -132 335.5 -159 Q284 -186 211.5 -202.5 Q139 -219 40 -219 L36 -142 Q120 -142 179.5 -129.5 Q239 -117 279.5 -96.5 Q320 -76 343.5 -50 Q367 -24 379.5 2.5 Q392 29 395.5 53.5 Q399 78 399 96 Q399 108 395 123 Q391 138 382 153.5 Q373 169 358.5 183 Q344 197 322 206 Q308 213 280 218 Q256 223 214.5 226.5 Q173 230 109 230 Q113 264 116 296.5 Q119 329 122 361 Q123 380 124 395.5 Q125 411 127 424 Q128 437 128.5 449.5 Q129 462 130 476 Q131 490 131.5 502 Q132 514 133 527 Q134 539 134 550 Q134 561 134 571 L495 571 L459 461 L158 461 Q156 444 155 428.5 Q154 413 152 396 Q149 363 146 333 L226 333 Q291 333 340 317 Q390 302 427 273 Q463 243 484 203 Q486 198 488 193.5 Q490 189 492 184 Z " />
<glyph glyph-name="six" unicode="6" horiz-adv-x="596" d="M563 164 Q566 110 548 65 Q529 20 494 -11 Q461 -42 408 -61 Q357 -78 293 -78 Q234 -78 185 -54 Q136 -29 102 13 Q67 57 48 117 Q30 177 30 251 Q30 352 70 440.5 Q110 529 178.5 594.5 Q247 660 339 698 Q431 736 535 737 L539 659 Q504 664 468.5 659.5 Q433 655 398.5 642 Q364 629 332 609.5 Q300 590 272 566 Q249 545 228 518 Q207 491 190.5 456 Q174 421 164.5 377.5 Q155 334 154 282 Q178 339 222 369 Q267 399 329 399 Q384 399 425 382 Q469 365 498 334 Q529 304 546 260 Q563 215 563 164 Z M446 74 Q455 110 453 159 Q453 208 443 245 Q432 285 415 312 Q395 339 370 354 Q344 369 313 369 L312 370 Q237 370 195 310 Q152 249 151 151 Q151 108 162 70 Q175 31 194 7 Q215 -20 242 -33 Q270 -48 306 -48 Q341 -48 370 -33 Q399 -18 417 9 Q437 37 446 74 Z " />
<glyph glyph-name="seven" unicode="7" horiz-adv-x="546" d="M511 573 L501 545 Q472 462 444 380.5 Q416 299 387 217 Q357 131 327 45 Q297 -41 266 -129 L210 -129 L345 248 L423 465 L31 465 Q33 479 33.5 492.5 Q34 506 35 519 L39 573 L511 573 Z " />
<glyph glyph-name="nine" unicode="9" horiz-adv-x="586" d="M25 337 Q22 391 40 436 Q59 481 94 512 Q127 544 180 561 Q231 579 295 579 Q353 579 403 555 Q450 531 486 488 Q521 444 539 384 Q558 326 558 250 Q558 242 558 234.5 Q558 227 557 219 Q557 217 554.5 188.5 Q552 160 540.5 117.5 Q529 75 504.5 23 Q480 -29 436 -77.5 Q392 -126 324 -166 Q256 -206 158 -226 Q155 -227 139.5 -229 Q124 -231 106.5 -232.5 Q89 -234 73 -235 Q57 -236 53 -236 L49 -159 Q82 -165 118.5 -160 Q155 -155 190.5 -141.5 Q226 -128 258.5 -108 Q291 -88 317 -65 Q363 -24 397.5 45 Q432 114 434 219 Q410 163 366 132 Q343 117 317 109 Q291 101 259 101 Q206 101 164 119 Q120 135 90 166 Q75 182 63 200 Q51 218 42 241 Q25 286 25 337 Z M143 427 Q138 407 136 386 Q134 365 135 342 Q135 292 145 256 Q155 216 174 189 Q192 162 218 147 Q231 139 245 135.5 Q259 132 275 132 L276 130 Q351 130 393 191 Q436 252 437 349 Q437 392 426 431 Q420 449 412.5 464.5 Q405 480 394 494 Q375 519 346 534 Q317 549 282 549 Q248 549 218 534 Q190 517 171 492 Q152 464 143 427 Z " />
<glyph glyph-name="eight" unicode="8" horiz-adv-x="548" d="M480 304 Q527 251 527 202 Q527 157 509 120 Q491 82 457 57 Q440 44 420.5 34 Q401 24 377 16 Q329 2 273 2 Q215 2 170 15 Q146 21 126 30.5 Q106 40 89 52 Q56 76 38 109 Q21 142 20 180 Q18 222 29.5 253.5 Q41 285 58 307.5 Q75 330 94.5 344.5 Q114 359 128 367 Q141 374 148 376 Q109 405 87 439 Q51 490 51 546 Q51 588 66 624 Q82 658 111 684 Q139 709 181 723 Q223 737 271 737 Q320 737 361 725 Q399 715 430 693 Q437 688 446.5 677.5 Q456 667 465 653 Q474 639 481 621.5 Q488 604 490 585 Q491 564 489.5 535.5 Q488 507 478 477.5 Q468 448 448 421 Q428 394 393 375 L392 375 Q406 366 419 357 Q432 348 444 339 Q454 331 463 322 Q472 313 480 304 Z M143 585 Q143 537 182 492 Q223 448 287 424 L288 424 Q292 422 300.5 419 Q309 416 317 413 Q344 420 361 435.5 Q378 451 388 469.5 Q398 488 402.5 507 Q407 526 408 541 Q409 546 409 549.5 Q409 553 409 558 Q409 566 409 572.5 Q409 579 407 585 Q401 636 371 671 Q333 713 271 713 Q213 713 178 678 Q143 644 143 585 Z M392 65 Q433 104 433 167 Q433 209 383 251 Q332 294 250 324 Q242 326 235.5 328.5 Q229 331 223 334 L222 334 L220 334 Q193 328 175.5 314 Q158 300 146.5 282.5 Q135 265 129.5 247 Q124 229 122 214 L122 201 Q122 170 133.5 133.5 Q145 97 168 74 Q191 51 219 38.5 Q247 26 283 26 Q351 26 392 65 Z " />
<glyph glyph-name="colon" unicode="&#x3a;" horiz-adv-x="239" d="M73 376 Q73 405 91 423 Q109 441 136 441 Q163 441 179.5 423 Q196 405 197 376 Q197 348 180.5 329.5 Q164 311 135 311 Q107 311 90 329.5 Q73 348 73 376 Z M73 9 Q73 38 91 56.5 Q109 75 136 75 Q163 75 179.5 56.5 Q196 38 197 9 Q197 -18 180.5 -36.5 Q164 -55 135 -55 Q107 -55 90 -36.5 Q73 -18 73 9 Z " />
<glyph glyph-name="semicolon" unicode="&#x3b;" horiz-adv-x="254" d="M206 85 Q199 52 191 14.5 Q183 -23 174 -57.5 Q165 -92 156.5 -121.5 Q148 -151 141 -169 L50 -169 Q59 -146 68 -114 Q77 -82 85.5 -47 Q94 -12 101 22.5 Q108 57 112 85 L206 85 Z M128 311 Q101 311 84 329.5 Q67 348 67 376 Q67 405 84.5 423 Q102 441 128 441 Q156 441 172.5 423 Q189 405 189 376 Q189 348 172.5 329.5 Q156 311 128 311 Z " />
<glyph glyph-name="less" unicode="&#x3c;" horiz-adv-x="562" d="M29 203 L29 262 L511 509 L511 444 L100 233 L511 22 L511 -43 L29 203 L29 203 Z " />
<glyph glyph-name="equal" unicode="&#x3d;" horiz-adv-x="601" d="M32 306 L32 369 L568 369 L568 306 L32 306 L32 306 Z M32 103 L32 165 L568 165 L568 103 L32 103 L32 103 Z " />
<glyph glyph-name="greater" unicode="&#x3e;" horiz-adv-x="585" d="M539 203 L57 -43 L57 22 L468 233 L57 444 L57 509 L539 262 L539 203 L539 203 Z " />
<glyph glyph-name="question" unicode="&#x3f;" horiz-adv-x="393" d="M129 82 L127 109 Q122 151 137 196 Q152 241 191 288 Q226 330 245 362.5 Q264 395 264 430 Q264 470 239.5 494.5 Q215 519 165 520 Q137 520 108.5 511 Q80 502 61 488 L36 553 Q62 572 102 583 Q142 594 184 594 Q229 594 261.5 581.5 Q294 569 315 548 Q336 527 346.5 499.5 Q357 472 357 442 Q357 415 350 392 Q343 369 331 347.5 Q319 326 303 304.5 Q287 283 268 261 Q233 220 220 184.5 Q207 149 209 109 L210 82 L129 82 Z M106 -64 Q106 -35 123.5 -16.5 Q141 2 169 2 Q196 2 213 -16.5 Q230 -35 230 -64 Q230 -91 213 -109.5 Q196 -128 167 -128 Q140 -128 123 -109.5 Q106 -91 106 -64 Z " />
<glyph glyph-name="at" unicode="&#x40;" horiz-adv-x="731" d="M520 -76 Q477 -99 432.5 -108 Q388 -117 335 -117 Q271 -117 214 -94.5 Q157 -72 114 -30 Q71 12 46 72 Q21 132 21 207 Q21 287 47.5 359.5 Q74 432 123.5 486.5 Q173 541 243 573 Q313 605 400 605 Q467 605 523 582.5 Q579 560 618.5 520 Q658 480 680 425 Q702 370 702 305 Q702 247 686.5 201 Q671 155 645.5 123.5 Q620 92 586.5 75.5 Q553 59 517 59 Q485 59 461.5 80.5 Q438 102 440 150 L436 150 Q383 59 289 59 Q266 59 246 68 Q226 77 210.5 93.5 Q195 110 186 134 Q177 158 177 189 Q177 237 195 281.5 Q213 326 246 360 Q279 394 324 414.5 Q369 435 423 435 Q457 435 485.5 429 Q514 423 534 413 L499 225 Q488 166 496 138 Q504 110 530 109 Q550 109 570 121.5 Q590 134 606 158.5 Q622 183 632 218.5 Q642 254 642 299 Q642 356 625.5 403.5 Q609 451 577 485.5 Q545 520 498 539 Q451 558 391 558 Q328 558 271.5 534 Q215 510 172.5 465 Q130 420 105 356 Q80 292 80 213 Q80 148 100 96 Q120 44 155.5 8 Q191 -28 240 -47.5 Q289 -67 347 -67 Q392 -67 431.5 -58 Q471 -49 503 -31 L520 -76 Z M463 373 Q455 375 442 377.5 Q429 380 411 380 Q377 380 347 365 Q317 350 294.5 324.5 Q272 299 259 265 Q246 231 246 193 Q246 159 263 137 Q280 115 314 115 Q337 115 358 128 Q379 141 396 161 Q413 181 424.5 206.5 Q436 232 441 256 L463 373 Z " />
<glyph glyph-name="A" unicode="A" horiz-adv-x="680" d="M668 -133 L534 -133 L424 128 Q422 133 418 133 L151 133 Q146 133 144 128 L49 -133 L9 -133 L302 638 L330 638 L668 -133 Z M409 163 L275 481 Q246 404 226.5 351 Q207 298 194.5 263.5 Q182 229 175 209.5 Q168 190 164.5 180.5 Q161 171 160 168 Q159 165 158 163 L409 163 Z " />
<glyph glyph-name="B" unicode="B" horiz-adv-x="653" d="M561 202 Q628 149 628 72 Q628 25 607 -14 Q596 -34 581.5 -50 Q567 -66 547 -80 Q509 -107 453 -122 Q426 -130 395.5 -134 Q365 -138 332 -138 L25 -138 L25 616 L303 615 Q362 615 410 603 Q457 592 493 568 Q529 543 547 512 Q566 479 566 440 Q566 377 516 333 Q491 310 457.5 295 Q424 280 380 270 Q493 255 561 202 Z M143 276 L272 276 Q350 276 398 321 Q446 364 446 439 Q446 504 407 545 Q366 584 303 584 L143 584 L143 276 Z M452 -57 Q502 -9 502 72 Q502 111 484 144 Q468 177 435 200 Q404 224 358 236 Q335 242 310.5 245.5 Q286 249 258 249 L144 249 L144 -107 L321 -105 Q404 -105 452 -57 Z " />
<glyph glyph-name="C" unicode="C" horiz-adv-x="787" d="M615 603 Q655 594 689 582 Q726 568 749 554 L749 498 Q742 510 723 521.5 Q704 533 679.5 543 Q655 553 628.5 561 Q602 569 580 575 Q544 583 507 587 Q475 590 438 589.5 Q401 589 366 578 Q357 576 348.5 572.5 Q340 569 332 565 Q278 539 242 494 Q205 449 184 383 Q173 351 168.5 315 Q164 279 164 240 Q164 201 168.5 165 Q173 129 184 97 Q205 32 242 -14 Q278 -59 332 -85 Q374 -105 430 -109 Q486 -113 544.5 -104 Q603 -95 657 -76 Q711 -57 749 -30 L749 -74 Q702 -101 643 -118 Q584 -135 521.5 -140.5 Q459 -146 396 -140 Q333 -134 278 -114 Q201 -87 146 -37 Q91 12 61 84 Q31 154 31 240 Q31 326 61 397 Q76 432 97 462 Q118 492 146 517 Q201 567 278 594 Q354 621 449 621 Q469 621 490 620 Q511 619 533 617 Q554 614 574.5 611 Q595 608 615 603 Z " />
<glyph glyph-name="D" unicode="D" horiz-adv-x="756" d="M600 512 Q655 463 685 393 Q716 325 716 239 Q716 154 689 85 Q675 50 656 20.5 Q637 -9 613 -34 Q566 -83 496 -110 Q461 -124 423 -131 Q385 -138 343 -138 L41 -138 Q41 -116 41 -73 Q41 -30 41 26 Q41 82 40.5 146.5 Q40 211 40 275.5 Q40 340 40 400 Q40 460 40 507 Q40 554 40.5 583.5 Q41 613 41 616 L297 615 Q390 615 468 588 Q545 561 600 512 Z M578 98 Q596 161 596 239 Q596 278 590.5 313.5 Q585 349 574 381 Q554 443 513 490 Q493 513 469.5 530.5 Q446 548 419 561 Q363 585 297 585 L158 585 L158 -107 L344 -107 Q400 -107 447 -82 Q494 -56 526 -11 Q560 33 578 98 Z " />
<glyph glyph-name="E" unicode="E" horiz-adv-x="584" d="M50 -139 L50 615 L532 615 L532 584 L169 584 L169 278 L455 278 L455 249 L168 249 L168 -107 L530 -107 L530 -139 L50 -139 L50 -139 Z " />
<glyph glyph-name="F" unicode="F" horiz-adv-x="574" d="M29 -138 L29 615 L542 615 L542 584 L148 584 L148 273 L421 273 L421 244 L148 244 L148 -138 L29 -138 L29 -138 Z " />
<glyph glyph-name="G" unicode="G" horiz-adv-x="818" d="M289 593 Q344 612 403 618 Q462 624 522 618.5 Q582 613 642.5 596.5 Q703 580 760 553 L760 497 Q732 517 693 536 Q654 555 609 568 Q564 581 515 586 Q466 591 419 584 Q372 577 329 555 Q286 533 253 493 Q216 448 195 382 Q184 350 179.5 314 Q175 278 175 239 Q175 200 179.5 164 Q184 128 195 96 Q216 31 253 -15 Q289 -60 343 -86 Q377 -103 415 -108.5 Q453 -114 492.5 -112 Q532 -110 572.5 -101.5 Q613 -93 652 -82 L652 217 L760 217 L760 -75 Q747 -83 732 -90 Q717 -97 700 -103 Q683 -109 665 -114 Q647 -119 627 -124 Q546 -143 459.5 -143.5 Q373 -144 289 -115 Q212 -88 157 -38 Q103 10 72 83 Q42 153 42 239 Q42 325 72 396 Q102 467 157 516 Q212 566 289 593 Z " />
<glyph glyph-name="H" unicode="H" horiz-adv-x="747" d="M163 245 L163 -138 L45 -138 L45 617 L163 617 L163 273 L579 274 L579 617 L697 617 L697 -138 L579 -138 L579 244 L163 245 L163 245 Z " />
<glyph glyph-name="I" unicode="I" horiz-adv-x="218" d="M168 617 L168 -138 L50 -138 L50 617 L168 617 L168 617 Z " />
<glyph glyph-name="J" unicode="J" horiz-adv-x="460" d="M400 98 Q400 48 394.5 3 Q389 -42 376 -66 Q358 -98 329 -117.5 Q300 -137 265 -146 Q230 -155 191 -154.5 Q152 -154 115 -146 Q99 -142 82 -136 Q65 -130 54 -124 L72 -111 Q101 -122 121 -125 Q141 -128 168 -123 Q185 -120 204.5 -112 Q224 -104 237 -91 Q265 -63 270 -26 Q275 11 275 45 L275 638 L401 638 L400 98 Z " />
<glyph glyph-name="K" unicode="K" horiz-adv-x="775" d="M55 617 L171 617 L171 -138 L55 -138 L55 617 Z M238 273 Q283 194 327 136.5 Q371 79 413 39 Q455 -1 493 -25.5 Q531 -50 564 -64 Q641 -97 711 -86 L711 -143 Q653 -152 599 -139 Q545 -126 496.5 -98.5 Q448 -71 405 -33.5 Q362 4 326.5 44.5 Q291 85 262.5 125 Q234 165 214 196.5 Q194 228 183.5 248 Q173 268 173 269 L455 545 L527 617 L581 617 L499 538 L238 273 Z " />
<glyph glyph-name="L" unicode="L" horiz-adv-x="580" d="M160 615 L160 -106 L532 -106 L532 -139 L49 -139 L49 615 L160 615 L160 615 Z " />
<glyph glyph-name="M" unicode="M" horiz-adv-x="841" d="M791 617 L791 -137 L675 -137 L684 524 L399 -143 L368 -143 L76 467 L83 -146 L50 -146 L50 617 L139 617 L422 1 L424 -2 L678 617 L791 617 L791 617 Z " />
<glyph glyph-name="N" unicode="N" horiz-adv-x="673" d="M598 617 L633 617 L633 -160 L596 -160 Q575 -132 534.5 -79 Q494 -26 444.5 39 Q395 104 341 175.5 Q287 247 237 312 Q187 377 146.5 430 Q106 483 85 511 L85 -138 L50 -138 L50 617 L158 617 L598 38 L598 617 Z " />
<glyph glyph-name="O" unicode="O" horiz-adv-x="736" d="M705 229 Q702 151 678 87 Q669 64 657.5 43 Q646 22 632 3 Q625 -7 617.5 -15.5 Q610 -24 602 -32 Q596 -38 590 -44.5 Q584 -51 576 -56 Q530 -93 474.5 -111.5 Q419 -130 362 -129 Q305 -128 249 -107.5 Q193 -87 147 -46 Q143 -43 139.5 -39.5 Q136 -36 132 -32 Q83 17 56 87 Q45 118 38.5 151.5 Q32 185 29 229 L29 239 L29 248 Q32 325 56 390 Q83 460 132 509 Q136 513 139.5 516.5 Q143 520 147 523 Q178 550 218 570.5 Q258 591 301 602 Q338 611 376.5 609.5 Q415 608 452 598 Q489 588 523.5 569 Q558 550 587 523 Q591 520 594.5 516.5 Q598 513 602 509 Q626 484 645 454.5 Q664 425 678 390 Q702 325 705 248 L705 229 Z M567 100 Q576 132 580 166.5 Q584 201 585 239 Q584 277 580 311.5 Q576 346 567 377 Q549 440 516 487 Q481 532 436 557 Q434 558 427 561 Q420 564 410.5 567.5 Q401 571 389.5 573.5 Q378 576 366 576 Q341 575 320.5 567 Q300 559 298 557 Q253 532 218 487 Q185 440 167 377 Q149 315 149 239 Q149 163 167 100 Q185 36 218 -9 Q222 -15 232.5 -27 Q243 -39 261 -52 Q279 -65 303.5 -74.5 Q328 -84 361 -84 Q397 -84 424 -74.5 Q451 -65 470 -52 Q489 -39 500.5 -27 Q512 -15 516 -9 Q527 6 536 22.5 Q545 39 553 59 Q557 69 560.5 79 Q564 89 567 100 Z " />
<glyph glyph-name="P" unicode="P" horiz-adv-x="633" d="M526 558 Q562 530 581 492 Q600 455 600 407 Q600 360 578 322 Q555 283 515 256 Q495 242 471 231.5 Q447 221 419 213 Q362 198 294 198 L162 198 L162 -138 L45 -138 L45 616 L327 615 Q389 615 439 600 Q465 592 486 582 Q507 572 526 558 Z M424 278 Q472 327 472 408 Q472 489 432 536 Q391 584 326 584 L162 584 L162 229 L295 229 Q376 229 424 278 Z " />
<glyph glyph-name="Q" unicode="Q" horiz-adv-x="741" d="M708 241 Q707 164 681 98 Q662 50 635 14 Q620 -6 605 -21 Q602 -25 598 -28 Q594 -31 590 -35 Q588 -37 585 -40 Q582 -43 579 -45 Q543 -74 498 -93 Q496 -94 493 -95 Q490 -96 488 -97 Q480 -100 454 -108 Q428 -116 395 -119 Q418 -124 442.5 -128.5 Q467 -133 495 -138 Q531 -144 561.5 -147 Q592 -150 618 -151 Q670 -151 680 -141 L690 -179 Q634 -200 578.5 -205.5 Q523 -211 472 -205.5 Q421 -200 375.5 -186.5 Q330 -173 294 -156 Q286 -153 274.5 -146.5 Q263 -140 251 -132.5 Q239 -125 228.5 -118.5 Q218 -112 213 -108 Q203 -100 192 -89 Q183 -80 171.5 -66.5 Q160 -53 150 -35 Q146 -31 142.5 -28 Q139 -25 135 -21 Q86 30 59 98 Q47 131 40.5 166.5 Q34 202 33 241 Q32 244 32 250 Q32 256 33 259 Q34 335 59 401 Q73 436 92 465.5 Q111 495 135 520 L150 535 Q170 552 193.5 567 Q217 582 243 593 Q249 595 252 597 Q257 599 270.5 603.5 Q284 608 303 613 Q309 615 319 617 Q341 621 363 621 Q385 621 402 619 Q419 617 430.5 614.5 Q442 612 444 612 Q460 607 471.5 603 Q483 599 488 597 Q490 595 493 594.5 Q496 594 498 593 Q549 571 590 535 Q594 531 598 527.5 Q602 524 605 520 Q654 471 681 401 Q707 336 708 259 L708 241 Z M570 111 Q588 174 588 250 Q588 326 570 388 Q552 451 519 498 Q484 543 439 568 Q437 569 430 572.5 Q423 576 413.5 579 Q404 582 392.5 584.5 Q381 587 369 587 Q344 587 323.5 578.5 Q303 570 301 568 Q255 543 222 498 Q188 452 170 388 Q161 357 157 322.5 Q153 288 152 250 Q153 212 157 177.5 Q161 143 170 111 Q179 79 192 52 Q205 25 222 2 Q226 -4 236.5 -16 Q247 -28 264.5 -40.5 Q282 -53 306.5 -62.5 Q331 -72 364 -72 Q400 -72 427 -62.5 Q454 -53 473 -40.5 Q492 -28 503.5 -16 Q515 -4 519 2 Q540 30 556 70 Q560 80 563.5 90 Q567 100 570 111 Z " />
<glyph glyph-name="R" unicode="R" horiz-adv-x="763" d="M702 -138 L704 -140 L554 -140 L494 -62 L380 88 Q372 98 365.5 107 Q359 116 352 125 Q329 156 311.5 179 Q294 202 281 218 L178 218 L178 -140 L60 -140 L60 616 L336 616 Q395 616 446 602 Q496 588 530 562 Q565 537 585 501 Q604 466 604 421 Q604 349 554 301 Q503 251 416 232 L572 31 L572 30 Q585 13 598 -4 Q611 -21 625 -39 Q646 -66 658 -81 Q659 -83 659.5 -83.5 Q660 -84 661 -86 L702 -138 Z M304 250 Q382 250 429 297 Q476 343 476 421 Q476 495 438 541 Q399 585 336 585 L176 585 L176 250 L304 250 Z " />
<glyph glyph-name="S" unicode="S" horiz-adv-x="550" d="M472 202 Q500 174 515 141 Q530 108 530 72 Q530 23 512 -16 Q493 -55 460 -83 Q426 -111 379 -126 Q334 -142 275 -142 Q257 -142 238.5 -141 Q220 -140 201 -138 Q182 -136 164.5 -133.5 Q147 -131 130 -127 Q98 -121 67 -110 Q35 -99 16 -88 L16 -25 Q47 -51 79.5 -67.5 Q112 -84 143.5 -93.5 Q175 -103 204.5 -106.5 Q234 -110 258 -110 Q261 -111 267 -111 L274 -111 Q305 -111 331 -105 L332 -105 Q367 -96 398 -74 Q444 -37 444 23 Q444 50 428 73 Q414 95 384 119 Q354 143 315 160 Q274 179 225 193 Q209 198 194 203 Q179 208 165 215 L141 227 Q102 248 75 275 Q47 303 34 333 Q19 364 19 397 Q19 447 37 489 Q57 533 89 561 Q106 576 125.5 587.5 Q145 599 169 607 Q214 623 273 623 Q300 623 327 620 Q354 617 383 609 Q442 594 483 569 L483 529 Q471 541 447 553.5 Q423 566 392.5 575 Q362 584 327.5 589 Q293 594 260.5 592.5 Q228 591 198.5 581.5 Q169 572 149 552 Q128 530 116 504 Q104 478 104 445 Q104 423 120 401 Q128 390 138.5 379.5 Q149 369 163 358 Q177 348 194.5 338.5 Q212 329 232 320 Q252 311 274 303 Q296 295 321 288 Q344 281 365.5 272.5 Q387 264 406 253 Q436 237 459 215 Q466 209 472 202 Z " />
<glyph glyph-name="T" unicode="T" horiz-adv-x="750" d="M22 617 L725 617 L725 586 L435 586 L435 -137 L315 -137 L315 586 L22 586 L22 617 L22 617 Z " />
<glyph glyph-name="U" unicode="U" horiz-adv-x="673" d="M585 612 L623 612 L623 73 Q623 23 607 -18 Q599 -38 587 -55.5 Q575 -73 558 -87 Q527 -114 471 -131 Q445 -139 412.5 -143 Q380 -147 342 -147 Q262 -147 208 -128 Q152 -110 118 -77 Q83 -45 66 3 Q58 26 54 52 Q50 78 50 107 L50 612 L170 612 L170 84 Q170 -1 214 -54 Q258 -106 359 -106 Q419 -106 464 -92 Q506 -77 533 -53 Q559 -28 573 7 Q585 43 585 86 L585 612 Z " />
<glyph glyph-name="V" unicode="V" horiz-adv-x="701" d="M645 625 L682 625 L620 456 L399 -144 L368 -144 L113 422 L79 497 L55 548 L18 626 L158 626 L196 539 L234 452 L239 441 L428 15 L581 441 L598 489 Q600 494 601 498.5 Q602 503 604 508 L645 625 Z " />
<glyph glyph-name="W" unicode="W" horiz-adv-x="1077" d="M1056 617 L990 409 L990 408 L811 -153 L780 -153 L780 -154 L780 -153 L779 -153 L779 -152 L537 434 L346 -154 L317 -154 L88 439 L88 440 L21 616 L155 616 L185 532 Q185 530 187 526 L230 407 L371 18 L568 626 L600 627 L837 31 L971 461 L1020 617 L1056 617 Z " />
<glyph glyph-name="X" unicode="X" horiz-adv-x="715" d="M504 117 L670 -136 L534 -136 L331 170 L317 192 L179 -18 Q171 -31 167 -40 L103 -138 L55 -138 L116 -48 Q118 -44 124 -36 L296 220 L297 222 L291 231 L35 618 L176 618 L225 543 Q227 539 229.5 534.5 Q232 530 235 525 L374 317 L565 617 L616 617 L560 534 Q556 529 552.5 524.5 Q549 520 546 515 L391 288 Q417 246 443.5 206.5 Q470 167 497 126 L503 117 L504 117 Z " />
<glyph glyph-name="Y" unicode="Y" horiz-adv-x="686" d="M639 616 L670 616 Q654 593 642.5 575.5 Q631 558 618 539 Q605 520 588.5 496 Q572 472 548 436 Q524 400 489 348 Q454 296 404 222 L404 -138 L286 -138 L286 -63 Q286 -24 285.5 36.5 Q285 97 285 185 L22 617 L168 617 L392 247 L639 616 Z " />
<glyph glyph-name="Z" unicode="Z" horiz-adv-x="637" d="M85 615 L612 615 L179 -107 L583 -107 Q583 -111 582 -115 Q581 -122 579 -138 L20 -138 L453 584 L77 584 L85 615 Z " />
<glyph glyph-name="bracketleft" unicode="&#x5b;" horiz-adv-x="284" d="M36 -170 L36 658 L226 658 L226 630 L107 630 L107 -143 L226 -143 L226 -170 L36 -170 L36 -170 Z " />
<glyph glyph-name="backslash" unicode="&#x5c;" horiz-adv-x="429" d="M315 -137 L33 615 L103 615 L386 -137 L315 -137 L315 -137 Z " />
<glyph glyph-name="bracketright" unicode="&#x5d;" horiz-adv-x="300" d="M55 657 L245 657 L245 -171 L55 -171 L55 -144 L175 -144 L175 629 L55 629 L55 657 L55 657 Z " />
<glyph glyph-name="asciicircum" unicode="&#x5e;" horiz-adv-x="544" d="M441 152 L268 555 L266 555 L77 144 L12 144 L235 631 L299 631 L514 152 L441 152 L441 152 Z " />
<glyph glyph-name="underscore" unicode="&#x5f;" horiz-adv-x="607" d="M540 -91 L540 -143 L21 -143 L21 -91 L540 -91 L540 -91 Z " />
<glyph glyph-name="grave" unicode="&#x60;" horiz-adv-x="249" d="M128 637 L219 489 L123 489 L28 637 L128 637 L128 637 Z " />
<glyph glyph-name="braceleft" unicode="&#x7b;" horiz-adv-x="300" d="M65 531 Q65 603 108 635 Q151 667 217 667 L238 667 L238 645 L219 645 Q196 645 180.5 633.5 Q165 622 155.5 604 Q146 586 141.5 564 Q137 542 137 521 Q137 503 139.5 484.5 Q142 466 144 447 Q148 428 150.5 409 Q153 390 153 369 Q153 343 140.5 322.5 Q128 302 114 287 Q97 269 76 255 Q97 241 114 223 Q128 208 140.5 187 Q153 166 153 141 Q153 120 150.5 100.5 Q148 81 144 62 Q142 42 139.5 24.5 Q137 7 137 -13 Q137 -35 142 -58 Q147 -81 157 -100 Q167 -119 182.5 -131.5 Q198 -144 220 -144 L238 -144 L238 -160 L216 -160 Q184 -160 156.5 -152.5 Q129 -145 108.5 -128 Q88 -111 76.5 -84 Q65 -57 65 -18 Q65 3 68 24.5 Q71 46 74 67 Q77 88 79.5 109 Q82 130 82 151 Q82 163 79.5 177 Q77 191 68 202 Q59 213 42.5 220.5 Q26 228 -2 228 L-2 281 Q26 281 42.5 288 Q59 295 68 306 Q77 317 79.5 330.5 Q82 344 82 358 Q82 380 79.5 401.5 Q77 423 74 445 Q71 467 68 488 Q65 509 65 531 Z " />
<glyph glyph-name="bar" unicode="&#x7c;" horiz-adv-x="169" d="M115 735 L115 -233 L46 -233 L46 735 L115 735 L115 735 Z " />
<glyph glyph-name="braceright" unicode="&#x7d;" horiz-adv-x="331" d="M221 358 Q221 344 223.5 330.5 Q226 317 235 306 Q244 295 260.5 288 Q277 281 305 281 L305 228 Q277 228 260.5 220.5 Q244 213 235 202 Q226 191 223.5 177 Q221 163 221 151 Q221 130 223.5 109 Q226 88 229 67 Q232 46 234.5 24.5 Q237 3 237 -18 Q237 -57 225.5 -84 Q214 -111 194 -128 Q174 -145 146.5 -152.5 Q119 -160 87 -160 L65 -160 L65 -143 L83 -143 Q105 -143 120.5 -131 Q136 -119 146 -100 Q156 -81 161 -58 Q166 -35 166 -13 Q166 7 163 24.5 Q160 42 158 62 Q155 81 152.5 100.5 Q150 120 150 141 Q150 166 162 187 Q174 208 188 223 Q205 241 227 255 Q205 269 188 287 Q174 302 162 322.5 Q150 343 150 369 Q150 390 152.5 409 Q155 428 158 447 Q160 466 163 484.5 Q166 503 166 521 Q166 542 161.5 564 Q157 586 147.5 604 Q138 622 122 633.5 Q106 645 84 645 L65 645 L65 667 L86 667 Q152 667 194.5 635 Q237 603 237 531 Q237 509 234.5 488 Q232 467 229 445 Q226 423 223.5 401.5 Q221 380 221 358 Z " />
<glyph glyph-name="asciitilde" unicode="&#x7e;" horiz-adv-x="582" d="M31 136 Q28 214 64.5 253.5 Q101 293 155 293 Q166 293 188 286.5 Q210 280 237 269.5 Q264 259 294.5 247.5 Q325 236 352 225.5 Q379 215 400 208.5 Q421 202 431 202 Q485 202 487 290 L549 290 Q551 246 541.5 216 Q532 186 515.5 167.5 Q499 149 476.5 141 Q454 133 430 133 Q419 133 397.5 139.5 Q376 146 348.5 156.5 Q321 167 290.5 178.5 Q260 190 233 200.5 Q206 211 185 217.5 Q164 224 155 224 Q126 224 110 203.5 Q94 183 92 136 L31 136 Z " />
<glyph glyph-name="dollar" unicode="&#x24;" horiz-adv-x="435" d="M413 95 Q413 64 400 35.5 Q387 7 363 -17 Q339 -41 306 -57.5 Q273 -74 233 -81 L232 -162 L232 -189 L204 -189 L204 -84 Q181 -84 155.5 -80.5 Q130 -77 105.5 -71 Q81 -65 59.5 -57 Q38 -49 25 -39 L49 31 Q78 12 116.5 -1 Q155 -14 199 -14 L206 -14 L208 210 Q207 210 206.5 210.5 Q206 211 205 211 Q165 227 133.5 244.5 Q102 262 80 283 Q58 304 46 330.5 Q34 357 34 391 Q34 456 79 502 Q124 548 212 558 L212 586 L212 663 L239 663 L239 562 Q286 560 326.5 550 Q367 540 390 526 L364 457 Q348 466 317 478.5 Q286 491 238 493 L236 292 Q240 290 244 288.5 Q248 287 252 285 Q333 252 373 208.5 Q413 165 413 95 Z M123 403 Q123 370 143.5 348 Q164 326 209 304 L211 491 Q163 485 143 458.5 Q123 432 123 403 Z M233 -11 Q275 -2 298.5 24 Q322 50 322 88 Q322 125 300 151 Q278 177 235 198 L233 -11 Z " />
<glyph glyph-name="a" unicode="a" horiz-adv-x="616" d="M634 -133 L500 -133 L390 128 Q388 133 384 133 L117 133 Q112 133 110 128 L15 -133 L-25 -133 L268 638 L296 638 L634 -133 Z M375 163 L241 481 Q212 404 192.5 351 Q173 298 160.5 263.5 Q148 229 141 209.5 Q134 190 130.5 180.5 Q127 171 126 168 Q125 165 124 163 L375 163 Z " />
<glyph glyph-name="b" unicode="b" horiz-adv-x="653" d="M561 202 Q628 149 628 72 Q628 25 607 -14 Q596 -34 581.5 -50 Q567 -66 547 -80 Q509 -107 453 -122 Q426 -130 395.5 -134 Q365 -138 332 -138 L25 -138 L25 616 L303 615 Q362 615 410 603 Q457 592 493 568 Q529 543 547 512 Q566 479 566 440 Q566 377 516 333 Q491 310 457.5 295 Q424 280 380 270 Q493 255 561 202 Z M143 276 L272 276 Q350 276 398 321 Q446 364 446 439 Q446 504 407 545 Q366 584 303 584 L143 584 L143 276 Z M452 -57 Q502 -9 502 72 Q502 111 484 144 Q468 177 435 200 Q404 224 358 236 Q335 242 310.5 245.5 Q286 249 258 249 L144 249 L144 -107 L321 -105 Q404 -105 452 -57 Z " />
<glyph glyph-name="c" unicode="c" horiz-adv-x="787" d="M615 603 Q655 594 689 582 Q726 568 749 554 L749 498 Q742 510 723 521.5 Q704 533 679.5 543 Q655 553 628.5 561 Q602 569 580 575 Q544 583 507 587 Q475 590 438 589.5 Q401 589 366 578 Q357 576 348.5 572.5 Q340 569 332 565 Q278 539 242 494 Q205 449 184 383 Q173 351 168.5 315 Q164 279 164 240 Q164 201 168.5 165 Q173 129 184 97 Q205 32 242 -14 Q278 -59 332 -85 Q374 -105 430 -109 Q486 -113 544.5 -104 Q603 -95 657 -76 Q711 -57 749 -30 L749 -74 Q702 -101 643 -118 Q584 -135 521.5 -140.5 Q459 -146 396 -140 Q333 -134 278 -114 Q201 -87 146 -37 Q91 12 61 84 Q31 154 31 240 Q31 326 61 397 Q76 432 97 462 Q118 492 146 517 Q201 567 278 594 Q354 621 449 621 Q469 621 490 620 Q511 619 533 617 Q554 614 574.5 611 Q595 608 615 603 Z " />
<glyph glyph-name="d" unicode="d" horiz-adv-x="730" d="M600 512 Q655 463 685 393 Q716 325 716 239 Q716 154 689 85 Q675 50 656 20.5 Q637 -9 613 -34 Q566 -83 496 -110 Q461 -124 423 -131 Q385 -138 343 -138 L41 -138 Q41 -116 41 -73 Q41 -30 41 26 Q41 82 40.5 146.5 Q40 211 40 275.5 Q40 340 40 400 Q40 460 40 507 Q40 554 40.5 583.5 Q41 613 41 616 L297 615 Q390 615 468 588 Q545 561 600 512 Z M578 98 Q596 161 596 239 Q596 278 590.5 313.5 Q585 349 574 381 Q554 443 513 490 Q493 513 469.5 530.5 Q446 548 419 561 Q363 585 297 585 L158 585 L158 -107 L344 -107 Q400 -107 447 -82 Q494 -56 526 -11 Q560 33 578 98 Z " />
<glyph glyph-name="e" unicode="e" horiz-adv-x="595" d="M61 -139 L61 615 L543 615 L543 584 L180 584 L180 278 L466 278 L466 249 L179 249 L179 -107 L541 -107 L541 -139 L61 -139 L61 -139 Z " />
<glyph glyph-name="f" unicode="f" horiz-adv-x="538" d="M29 -138 L29 615 L542 615 L542 584 L148 584 L148 273 L421 273 L421 244 L148 244 L148 -138 L29 -138 L29 -138 Z " />
<glyph glyph-name="g" unicode="g" horiz-adv-x="777" d="M266 593 Q321 612 380 618 Q439 624 499 618.5 Q559 613 619.5 596.5 Q680 580 737 553 L737 497 Q709 517 670 536 Q631 555 586 568 Q541 581 492 586 Q443 591 396 584 Q349 577 306 555 Q263 533 230 493 Q193 448 172 382 Q161 350 156.5 314 Q152 278 152 239 Q152 200 156.5 164 Q161 128 172 96 Q193 31 230 -15 Q266 -60 320 -86 Q354 -103 392 -108.5 Q430 -114 469.5 -112 Q509 -110 549.5 -101.5 Q590 -93 629 -82 L629 217 L737 217 L737 -75 Q724 -83 709 -90 Q694 -97 677 -103 Q660 -109 642 -114 Q624 -119 604 -124 Q523 -143 436.5 -143.5 Q350 -144 266 -115 Q189 -88 134 -38 Q80 10 49 83 Q19 153 19 239 Q19 325 49 396 Q79 467 134 516 Q189 566 266 593 Z " />
<glyph glyph-name="h" unicode="h" horiz-adv-x="747" d="M163 245 L163 -138 L45 -138 L45 617 L163 617 L163 273 L579 274 L579 617 L697 617 L697 -138 L579 -138 L579 244 L163 245 L163 245 Z " />
<glyph glyph-name="i" unicode="i" horiz-adv-x="203" d="M153 617 L153 -138 L35 -138 L35 617 L153 617 L153 617 Z " />
<glyph glyph-name="j" unicode="j" horiz-adv-x="460" d="M400 98 Q400 48 394.5 3 Q389 -42 376 -66 Q358 -98 329 -117.5 Q300 -137 265 -146 Q230 -155 191 -154.5 Q152 -154 115 -146 Q99 -142 82 -136 Q65 -130 54 -124 L72 -111 Q101 -122 121 -125 Q141 -128 168 -123 Q185 -120 204.5 -112 Q224 -104 237 -91 Q265 -63 270 -26 Q275 11 275 45 L275 638 L401 638 L400 98 Z " />
<glyph glyph-name="k" unicode="k" horiz-adv-x="755" d="M55 617 L171 617 L171 -138 L55 -138 L55 617 Z M238 273 Q283 194 327 136.5 Q371 79 413 39 Q455 -1 493 -25.5 Q531 -50 564 -64 Q641 -97 711 -86 L711 -143 Q653 -152 599 -139 Q545 -126 496.5 -98.5 Q448 -71 405 -33.5 Q362 4 326.5 44.5 Q291 85 262.5 125 Q234 165 214 196.5 Q194 228 183.5 248 Q173 268 173 269 L455 545 L527 617 L581 617 L499 538 L238 273 Z " />
<glyph glyph-name="l" unicode="l" horiz-adv-x="580" d="M160 615 L160 -106 L532 -106 L532 -139 L49 -139 L49 615 L160 615 L160 615 Z " />
<glyph glyph-name="m" unicode="m" horiz-adv-x="841" d="M791 617 L791 -137 L675 -137 L684 524 L399 -143 L368 -143 L76 467 L83 -146 L50 -146 L50 617 L139 617 L422 1 L424 -2 L678 617 L791 617 L791 617 Z " />
<glyph glyph-name="n" unicode="n" horiz-adv-x="673" d="M598 617 L633 617 L633 -160 L596 -160 Q575 -132 534.5 -79 Q494 -26 444.5 39 Q395 104 341 175.5 Q287 247 237 312 Q187 377 146.5 430 Q106 483 85 511 L85 -138 L50 -138 L50 617 L158 617 L598 38 L598 617 Z " />
<glyph glyph-name="o" unicode="o" horiz-adv-x="736" d="M705 229 Q702 151 678 87 Q669 64 657.5 43 Q646 22 632 3 Q625 -7 617.5 -15.5 Q610 -24 602 -32 Q596 -38 590 -44.5 Q584 -51 576 -56 Q530 -93 474.5 -111.5 Q419 -130 362 -129 Q305 -128 249 -107.5 Q193 -87 147 -46 Q143 -43 139.5 -39.5 Q136 -36 132 -32 Q83 17 56 87 Q45 118 38.5 151.5 Q32 185 29 229 L29 239 L29 248 Q32 325 56 390 Q83 460 132 509 Q136 513 139.5 516.5 Q143 520 147 523 Q178 550 218 570.5 Q258 591 301 602 Q338 611 376.5 609.5 Q415 608 452 598 Q489 588 523.5 569 Q558 550 587 523 Q591 520 594.5 516.5 Q598 513 602 509 Q626 484 645 454.5 Q664 425 678 390 Q702 325 705 248 L705 229 Z M567 100 Q576 132 580 166.5 Q584 201 585 239 Q584 277 580 311.5 Q576 346 567 377 Q549 440 516 487 Q481 532 436 557 Q434 558 427 561 Q420 564 410.5 567.5 Q401 571 389.5 573.5 Q378 576 366 576 Q341 575 320.5 567 Q300 559 298 557 Q253 532 218 487 Q185 440 167 377 Q149 315 149 239 Q149 163 167 100 Q185 36 218 -9 Q222 -15 232.5 -27 Q243 -39 261 -52 Q279 -65 303.5 -74.5 Q328 -84 361 -84 Q397 -84 424 -74.5 Q451 -65 470 -52 Q489 -39 500.5 -27 Q512 -15 516 -9 Q527 6 536 22.5 Q545 39 553 59 Q557 69 560.5 79 Q564 89 567 100 Z " />
<glyph glyph-name="p" unicode="p" horiz-adv-x="633" d="M526 558 Q562 530 581 492 Q600 455 600 407 Q600 360 578 322 Q555 283 515 256 Q495 242 471 231.5 Q447 221 419 213 Q362 198 294 198 L162 198 L162 -138 L45 -138 L45 616 L327 615 Q389 615 439 600 Q465 592 486 582 Q507 572 526 558 Z M424 278 Q472 327 472 408 Q472 489 432 536 Q391 584 326 584 L162 584 L162 229 L295 229 Q376 229 424 278 Z " />
<glyph glyph-name="q" unicode="q" horiz-adv-x="741" d="M708 241 Q707 164 681 98 Q662 50 635 14 Q620 -6 605 -21 Q602 -25 598 -28 Q594 -31 590 -35 Q588 -37 585 -40 Q582 -43 579 -45 Q543 -74 498 -93 Q496 -94 493 -95 Q490 -96 488 -97 Q480 -100 454 -108 Q428 -116 395 -119 Q418 -124 442.5 -128.5 Q467 -133 495 -138 Q531 -144 561.5 -147 Q592 -150 618 -151 Q670 -151 680 -141 L690 -179 Q634 -200 578.5 -205.5 Q523 -211 472 -205.5 Q421 -200 375.5 -186.5 Q330 -173 294 -156 Q286 -153 274.5 -146.5 Q263 -140 251 -132.5 Q239 -125 228.5 -118.5 Q218 -112 213 -108 Q203 -100 192 -89 Q183 -80 171.5 -66.5 Q160 -53 150 -35 Q146 -31 142.5 -28 Q139 -25 135 -21 Q86 30 59 98 Q47 131 40.5 166.5 Q34 202 33 241 Q32 244 32 250 Q32 256 33 259 Q34 335 59 401 Q73 436 92 465.5 Q111 495 135 520 L150 535 Q170 552 193.5 567 Q217 582 243 593 Q249 595 252 597 Q257 599 270.5 603.5 Q284 608 303 613 Q309 615 319 617 Q341 621 363 621 Q385 621 402 619 Q419 617 430.5 614.5 Q442 612 444 612 Q460 607 471.5 603 Q483 599 488 597 Q490 595 493 594.5 Q496 594 498 593 Q549 571 590 535 Q594 531 598 527.5 Q602 524 605 520 Q654 471 681 401 Q707 336 708 259 L708 241 Z M570 111 Q588 174 588 250 Q588 326 570 388 Q552 451 519 498 Q484 543 439 568 Q437 569 430 572.5 Q423 576 413.5 579 Q404 582 392.5 584.5 Q381 587 369 587 Q344 587 323.5 578.5 Q303 570 301 568 Q255 543 222 498 Q188 452 170 388 Q161 357 157 322.5 Q153 288 152 250 Q153 212 157 177.5 Q161 143 170 111 Q179 79 192 52 Q205 25 222 2 Q226 -4 236.5 -16 Q247 -28 264.5 -40.5 Q282 -53 306.5 -62.5 Q331 -72 364 -72 Q400 -72 427 -62.5 Q454 -53 473 -40.5 Q492 -28 503.5 -16 Q515 -4 519 2 Q540 30 556 70 Q560 80 563.5 90 Q567 100 570 111 Z " />
<glyph glyph-name="r" unicode="r" horiz-adv-x="723" d="M702 -138 L704 -140 L554 -140 L494 -62 L380 88 Q372 98 365.5 107 Q359 116 352 125 Q329 156 311.5 179 Q294 202 281 218 L178 218 L178 -140 L60 -140 L60 616 L336 616 Q395 616 446 602 Q496 588 530 562 Q565 537 585 501 Q604 466 604 421 Q604 349 554 301 Q503 251 416 232 L572 31 L572 30 Q585 13 598 -4 Q611 -21 625 -39 Q646 -66 658 -81 Q659 -83 659.5 -83.5 Q660 -84 661 -86 L702 -138 Z M304 250 Q382 250 429 297 Q476 343 476 421 Q476 495 438 541 Q399 585 336 585 L176 585 L176 250 L304 250 Z " />
<glyph glyph-name="s" unicode="s" horiz-adv-x="550" d="M472 202 Q500 174 515 141 Q530 108 530 72 Q530 23 512 -16 Q493 -55 460 -83 Q426 -111 379 -126 Q334 -142 275 -142 Q257 -142 238.5 -141 Q220 -140 201 -138 Q182 -136 164.5 -133.5 Q147 -131 130 -127 Q98 -121 67 -110 Q35 -99 16 -88 L16 -25 Q47 -51 79.5 -67.5 Q112 -84 143.5 -93.5 Q175 -103 204.5 -106.5 Q234 -110 258 -110 Q261 -111 267 -111 L274 -111 Q305 -111 331 -105 L332 -105 Q367 -96 398 -74 Q444 -37 444 23 Q444 50 428 73 Q414 95 384 119 Q354 143 315 160 Q274 179 225 193 Q209 198 194 203 Q179 208 165 215 L141 227 Q102 248 75 275 Q47 303 34 333 Q19 364 19 397 Q19 447 37 489 Q57 533 89 561 Q106 576 125.5 587.5 Q145 599 169 607 Q214 623 273 623 Q300 623 327 620 Q354 617 383 609 Q442 594 483 569 L483 529 Q471 541 447 553.5 Q423 566 392.5 575 Q362 584 327.5 589 Q293 594 260.5 592.5 Q228 591 198.5 581.5 Q169 572 149 552 Q128 530 116 504 Q104 478 104 445 Q104 423 120 401 Q128 390 138.5 379.5 Q149 369 163 358 Q177 348 194.5 338.5 Q212 329 232 320 Q252 311 274 303 Q296 295 321 288 Q344 281 365.5 272.5 Q387 264 406 253 Q436 237 459 215 Q466 209 472 202 Z " />
<glyph glyph-name="t" unicode="t" horiz-adv-x="647" d="M-47 617 L656 617 L656 586 L366 586 L366 -137 L246 -137 L246 586 L-47 586 L-47 617 L-47 617 Z " />
<glyph glyph-name="u" unicode="u" horiz-adv-x="654" d="M585 612 L623 612 L623 73 Q623 23 607 -18 Q599 -38 587 -55.5 Q575 -73 558 -87 Q527 -114 471 -131 Q445 -139 412.5 -143 Q380 -147 342 -147 Q262 -147 208 -128 Q152 -110 118 -77 Q83 -45 66 3 Q58 26 54 52 Q50 78 50 107 L50 612 L170 612 L170 84 Q170 -1 214 -54 Q258 -106 359 -106 Q419 -106 464 -92 Q506 -77 533 -53 Q559 -28 573 7 Q585 43 585 86 L585 612 Z " />
<glyph glyph-name="v" unicode="v" horiz-adv-x="669" d="M645 625 L682 625 L620 456 L399 -144 L368 -144 L113 422 L79 497 L55 548 L18 626 L158 626 L196 539 L234 452 L239 441 L428 15 L581 441 L598 489 Q600 494 601 498.5 Q602 503 604 508 L645 625 Z " />
<glyph glyph-name="w" unicode="w" horiz-adv-x="892" d="M940 617 L874 409 L874 408 L695 -153 L664 -153 L664 -154 L664 -153 L663 -153 L663 -152 L421 434 L230 -154 L201 -154 L-28 439 L-28 440 L-95 616 L39 616 L69 532 Q69 530 71 526 L114 407 L255 18 L452 626 L484 627 L721 31 L855 461 L904 617 L940 617 Z " />
<glyph glyph-name="x" unicode="x" horiz-adv-x="654" d="M504 117 L670 -136 L534 -136 L331 170 L317 192 L179 -18 Q171 -31 167 -40 L103 -138 L55 -138 L116 -48 Q118 -44 124 -36 L296 220 L297 222 L291 231 L35 618 L176 618 L225 543 Q227 539 229.5 534.5 Q232 530 235 525 L374 317 L565 617 L616 617 L560 534 Q556 529 552.5 524.5 Q549 520 546 515 L391 288 Q417 246 443.5 206.5 Q470 167 497 126 L503 117 L504 117 Z " />
<glyph glyph-name="y" unicode="y" horiz-adv-x="592" d="M586 616 L617 616 Q601 593 589.5 575.5 Q578 558 565 539 Q552 520 535.5 496 Q519 472 495 436 Q471 400 436 348 Q401 296 351 222 L351 -138 L233 -138 L233 -63 Q233 -24 232.5 36.5 Q232 97 232 185 L-31 617 L115 617 L339 247 L586 616 Z " />
<glyph glyph-name="z" unicode="z" horiz-adv-x="637" d="M85 615 L612 615 L179 -107 L583 -107 Q583 -111 582 -115 Q581 -122 579 -138 L20 -138 L453 584 L77 584 L85 615 Z " />
<glyph glyph-name="quotedblleft" unicode="&#x201c;" horiz-adv-x="402" d="M203 667 Q189 598 174 531 Q159 464 141 414 L48 414 Q56 437 65 469 Q74 501 82.5 535.5 Q91 570 98 604.5 Q105 639 109 667 L203 667 Z M356 667 Q350 634 342 597.5 Q334 561 326 527.5 Q318 494 311 465 Q304 436 298 418 L202 414 Q211 437 220 469 Q229 501 237 535.5 Q245 570 252 604.5 Q259 639 263 667 L356 667 Z " />
<glyph glyph-name="quotedblright" unicode="&#x201d;" horiz-adv-x="394" d="M203 667 Q189 598 174 531 Q159 464 141 414 L48 414 Q56 437 65 469 Q74 501 82.5 535.5 Q91 570 98 604.5 Q105 639 109 667 L203 667 Z M356 667 Q350 634 342 597.5 Q334 561 326 527.5 Q318 494 311 465 Q304 436 298 418 L202 414 Q211 437 220 469 Q229 501 237 535.5 Q245 570 252 604.5 Q259 639 263 667 L356 667 Z " />
<glyph glyph-name="quoteright" unicode="&#x2019;" horiz-adv-x="263" d="M222 667 Q216 634 207.5 597 Q199 560 190.5 525.5 Q182 491 173 461.5 Q164 432 157 414 L67 414 Q75 437 84 469 Q93 501 101.5 535.5 Q110 570 117 604.5 Q124 639 129 667 L222 667 Z " />
<glyph glyph-name="quoteleft" unicode="&#x2018;" horiz-adv-x="268" d="M222 667 Q216 634 207.5 597 Q199 560 190.5 525.5 Q182 491 173 461.5 Q164 432 157 414 L67 414 Q75 437 84 469 Q93 501 101.5 535.5 Q110 570 117 604.5 Q124 639 129 667 L222 667 Z " />
<glyph glyph-name="quotedbl" unicode="&#x22;" horiz-adv-x="397" d="M203 667 Q189 598 174 531 Q159 464 141 414 L48 414 Q56 437 65 469 Q74 501 82.5 535.5 Q91 570 98 604.5 Q105 639 109 667 L203 667 Z M356 667 Q350 634 342 597.5 Q334 561 326 527.5 Q318 494 311 465 Q304 436 298 418 L202 414 Q211 437 220 469 Q229 501 237 535.5 Q245 570 252 604.5 Q259 639 263 667 L356 667 Z " />
<glyph glyph-name="numbersign" unicode="&#x23;" horiz-adv-x="493" d="M81 -113 L108 91 L23 91 L23 152 L117 152 L137 302 L47 302 L47 363 L146 363 L173 562 L233 562 L207 363 L315 363 L342 562 L403 562 L377 363 L463 363 L463 302 L368 302 L349 152 L439 152 L439 91 L340 91 L313 -113 L251 -113 L278 91 L170 91 L143 -113 L81 -113 L81 -113 Z M287 152 L307 302 L199 302 L179 152 L287 152 L287 152 Z " />
<glyph glyph-name="exclam" unicode="&#x21;" horiz-adv-x="215" d="M30 -123 Q30 -95 47.5 -77 Q65 -59 92 -59 Q120 -59 136.5 -77 Q153 -95 153 -123 Q153 -150 136.5 -168.5 Q120 -187 92 -187 Q64 -187 47 -168.5 Q30 -150 30 -123 Z M42 25 L42 625 L142 625 L142 25 L42 25 Z " />
</font>
</svg>
