<?xml version="1.0" encoding="UTF-8"?>
<svg xmlns="http://www.w3.org/2000/svg" xmlns:xlink="http://www.w3.org/1999/xlink" version="1.2" >
<font id="Serrona Sans Outline">
<font-face  font-family="Serrona Sans" units-per-em="1000" ascent="750" descent="-250" font-style="normal" font-weight="400" font-stretch="normal" cap-height="716" x-height="716" underline-position="-75" underline-thickness="50" />
<missing-glyph  horiz-adv-x="191" d="" />
<glyph glyph-name="NULL" d="" />
<glyph glyph-name="nonmarkingreturn" unicode="&#xd;" horiz-adv-x="191" d="" />
<glyph glyph-name="space" unicode="&#x20;" horiz-adv-x="191" d="" />
<glyph glyph-name="E" unicode="E" horiz-adv-x="363" d="M60 -198 L60 716 L312 716 L312 608 L191 608 L191 313 L263 313 L263 205 L191 205 L191 -90 L312 -90 L312 -198 L60 -198 Z M70 706 L70 -188 L303 -188 L303 -99 L182 -99 L182 214 L254 214 L254 303 L182 303 L182 617 L303 617 L303 706 L70 706 Z " />
<glyph glyph-name="F" unicode="F" horiz-adv-x="332" d="M65 -198 L65 716 L317 716 L317 608 L196 608 L196 313 L267 313 L267 205 L196 205 L196 -198 L65 -198 Z M74 706 L74 -188 L186 -188 L186 214 L258 214 L258 303 L186 303 L186 617 L307 617 L307 706 L74 706 Z " />
<glyph glyph-name="G" unicode="G" horiz-adv-x="468" d="M352 688 Q403 647 403 590 L403 349 L269 349 L269 602 Q269 614 259 621 Q248 630 233 630 Q218 630 208 621 Q197 613 197 602 L197 -86 Q197 -97 208 -106 Q219 -114 233 -114 Q248 -114 259 -106 Q269 -97 269 -86 L269 204 L251 204 L252 312 L403 313 L403 -75 Q403 -132 352 -172 Q305 -212 233 -212 Q163 -212 114 -172 Q65 -132 65 -75 L65 590 Q65 648 114 688 Q165 728 233 728 Q303 728 352 688 Z M393 590 Q393 642 346 681 Q300 718 233 718 Q167 718 120 681 Q74 643 74 590 L74 -75 Q74 -127 120 -165 Q169 -203 233 -203 Q299 -203 346 -165 Q393 -127 393 -75 L393 303 L261 303 L261 214 L279 214 L279 -86 Q279 -102 265 -113 Q251 -124 233 -124 Q216 -124 202 -113 Q188 -102 188 -86 L188 602 Q188 618 202 629 Q215 640 233 640 Q251 640 265 629 Q279 618 279 602 L279 358 L393 358 L393 590 Z " />
<glyph glyph-name="H" unicode="H" horiz-adv-x="435" d="M254 313 L254 716 L385 716 L385 -198 L254 -198 L254 205 L177 205 L177 -198 L45 -198 L45 716 L177 716 L177 313 L254 313 Z M264 706 L264 303 L167 303 L167 706 L55 706 L55 -188 L167 -188 L167 215 L264 215 L264 -188 L376 -188 L376 706 L264 706 Z " />
<glyph glyph-name="I" unicode="I" horiz-adv-x="281" d="M75 -198 L75 716 L206 716 L206 -198 L75 -198 Z M84 706 L84 -188 L197 -188 L197 706 L84 706 Z " />
<glyph glyph-name="J" unicode="J" horiz-adv-x="346" d="M140 716 L271 716 L271 -73 Q271 -101 264.5 -129.5 Q258 -158 232 -178 Q220 -188 209 -194.5 Q198 -201 185 -204.5 Q172 -208 155.5 -209.5 Q139 -211 116 -211 L106 -211 Q86 -210 68.5 -207.5 Q51 -205 36 -200 L33 -199 L33 -99 L39 -102 Q62 -113 95 -113 Q112 -112 126 -103 Q140 -94 140 -60 L140 716 Z M149 -60 Q149 -80 144 -92 Q139 -104 131.5 -110.5 Q124 -117 114.5 -119.5 Q105 -122 95 -122 Q67 -123 42 -114 L42 -192 Q69 -201 106 -201 Q131 -201 148 -200 Q165 -199 178.5 -195.5 Q192 -192 203 -186 Q214 -180 226 -171 Q249 -152 255 -126 Q261 -100 261 -73 L261 706 L149 706 L149 -60 Z " />
<glyph glyph-name="K" unicode="K" horiz-adv-x="476" d="M306 716 L437 716 L315 259 L437 -198 L306 -198 L207 164 L207 -198 L75 -198 L75 716 L207 716 L207 355 L306 716 Z M425 -188 L305 259 L305 260 L425 706 L314 706 L197 284 L197 706 L85 706 L85 -188 L197 -188 L197 234 L314 -188 L425 -188 Z " />
<glyph glyph-name="L" unicode="L" horiz-adv-x="327" d="M197 716 L197 -90 L318 -90 L318 -198 L65 -198 L65 716 L197 716 Z M308 -99 L187 -99 L187 706 L75 706 L75 -188 L308 -188 L308 -99 Z " />
<glyph glyph-name="M" unicode="M" horiz-adv-x="588" d="M294 213 L396 716 L528 716 L528 -198 L396 -198 L396 147 L349 -198 L236 -198 L191 139 L191 -198 L60 -198 L60 716 L190 716 L191 712 L294 213 Z M518 706 L403 706 L294 170 L183 706 L69 706 L69 -188 L182 -188 L182 203 L191 204 L244 -188 L341 -188 L396 211 L406 211 L406 -188 L518 -188 L518 706 Z " />
<glyph glyph-name="N" unicode="N" horiz-adv-x="463" d="M267 366 L267 716 L398 716 L398 -198 L268 -198 L267 -194 L196 156 L196 -198 L65 -198 L65 716 L195 716 L267 366 Z M277 706 L277 272 L187 706 L74 706 L74 -188 L187 -188 L187 250 L276 -188 L389 -188 L389 706 L277 706 Z " />
<glyph glyph-name="O" unicode="O" horiz-adv-x="438" d="M338 688 Q388 647 388 590 L388 -75 Q388 -131 338 -172 Q289 -212 219 -212 Q149 -212 100 -172 Q50 -131 50 -75 L50 590 Q50 647 100 688 Q151 728 219 728 Q287 728 338 688 Z M378 590 Q378 642 332 681 Q286 718 219 718 Q152 718 106 681 Q59 643 59 590 L59 -75 Q59 -127 106 -165 Q153 -203 219 -203 Q285 -203 332 -165 Q378 -128 378 -75 L378 590 Z M251 629 Q264 618 264 602 L264 -86 Q264 -102 251 -113 Q235 -124 219 -124 Q201 -124 187 -113 Q173 -102 173 -86 L173 602 Q173 618 188 629 Q201 640 219 640 Q235 640 251 629 Z M254 602 Q254 613 245 621 Q233 630 219 630 Q203 630 193 621 Q183 614 183 602 L183 -86 Q183 -97 193 -106 Q204 -114 219 -114 Q232 -114 245 -106 Q254 -97 254 -86 L254 602 Z " />
<glyph glyph-name="P" unicode="P" horiz-adv-x="437" d="M218 630 Q237 630 250 620 Q264 609 264 591 L264 455 Q263 422 263 390 Q263 358 263 318 Q263 295 253 285 Q243 275 225 273 Q207 271 178 271 L173 271 L173 630 L218 630 Z M254 591 Q254 604 244 612 Q235 620 218 620 L182 620 L182 281 Q207 281 222.5 282.5 Q238 284 246 292 Q254 300 254 318 L254 455 L254 591 Z M340 680 Q387 644 387 582 L387 302 Q387 260 364 237 Q341 214 309 202.5 Q277 191 242 189 Q207 187 182 187 L182 -197 L50 -197 L50 716 L218 716 Q260 716 287.5 708 Q315 700 340 680 Z M378 582 Q378 638 334 673 Q311 691 284.5 698.5 Q258 706 218 706 L59 706 L59 -188 L173 -188 L173 197 L178 197 Q213 197 248.5 200.5 Q284 204 313 215 Q342 226 360 246.5 Q378 267 378 302 L378 582 Z " />
<glyph glyph-name="Q" unicode="Q" horiz-adv-x="468" d="M403 -75 Q403 -111 381 -142 L420 -195 L326 -264 L263 -208 Q239 -210 212 -208.5 Q185 -207 168 -204 Q129 -195 92 -150 Q65 -116 65 -75 L65 590 Q65 647 115 688 Q166 728 234 728 Q302 728 353 688 Q403 647 403 590 L403 -75 Z M369 -142 L371 -140 Q393 -111 393 -75 L393 590 Q393 644 347 681 Q301 718 234 718 Q167 718 121 681 Q75 644 75 590 L75 -75 Q75 -113 100 -144 Q133 -186 170 -194 Q187 -198 214 -199 Q241 -200 265 -198 L267 -198 L327 -252 L406 -193 L369 -142 Z M266 629 Q279 618 279 602 L279 -86 Q279 -102 266 -113 L265 -113 Q251 -124 234 -124 Q216 -124 202 -113 Q189 -103 189 -86 L189 602 Q189 619 202 629 Q216 640 234 640 Q250 640 266 629 Z M269 602 Q269 613 260 621 Q248 630 234 630 Q218 630 208 621 Q198 613 198 602 L198 -86 Q198 -96 208 -106 Q219 -114 234 -114 Q247 -114 260 -106 Q269 -97 269 -86 L269 602 Z " />
<glyph glyph-name="R" unicode="R" horiz-adv-x="458" d="M352 680 Q398 643 398 583 L398 302 Q398 285 394 272.5 Q390 260 384.5 251.5 Q379 243 372.5 237.5 Q366 232 361 229 Q371 222 384.5 204 Q398 186 398 153 L398 -197 L265 -197 L265 136 Q265 154 256 163 Q248 170 233.5 173.5 Q219 177 194 177 L193 177 L193 -197 L60 -197 L60 716 L229 716 Q270 716 298.5 708 Q327 700 352 680 Z M389 583 Q389 638 346 673 Q323 691 295.5 699 Q268 707 229 707 L70 707 L70 -187 L183 -187 L183 186 L188 186 Q218 186 235.5 182.5 Q253 179 263 170 Q274 157 274 136 L274 -187 L389 -187 L389 153 Q389 173 383 187 Q377 201 369.5 209.5 Q362 218 355.5 222 Q349 226 349 226 L336 231 L349 235 Q350 235 356 237.5 Q362 240 369.5 247.5 Q377 255 383 268 Q389 281 389 302 L389 583 Z M261 620 Q274 610 274 594 L274 319 Q274 296 263 285 Q253 275 235 273.5 Q217 272 189 272 L188 272 L183 272 L183 630 L229 630 Q248 630 261 620 Z M264 319 Q264 347 264 393 Q264 439 264.5 483.5 Q265 528 265 560.5 Q265 593 265 594 Q265 606 255 613 Q242 621 229 621 L193 621 L193 281 Q218 281 233.5 282.5 Q249 284 257 292 Q265 302 264 319 Z " />
<glyph glyph-name="S" unicode="S" horiz-adv-x="446" d="M257 405 L257 601 Q257 613 248 621 Q237 629 222 629 Q205 629 196 621 Q187 613 187 601 L187 349 Q187 336 194 329 Q205 321 218 321 L241 321 Q293 321 330 298 Q359 278 374 247 Q392 210 391 174 L391 -85 Q385 -140 336 -175 Q288 -211 222 -211 Q156 -211 108 -175 Q59 -140 53 -87 L53 148 L187 149 L187 -85 Q187 -96 196 -105 Q207 -113 222 -113 Q235 -113 248 -105 Q257 -96 257 -85 L257 173 Q257 201 226 201 L218 201 Q146 201 97 247 Q53 286 53 339 L53 590 Q53 648 103 687 Q153 728 222 728 Q291 728 341 687 Q391 648 391 590 L391 405 L257 405 Z M253 629 Q267 617 267 601 L267 415 L382 415 L381 590 Q381 643 335 680 Q288 718 222 718 Q156 718 109 680 Q63 643 63 590 L63 339 Q63 290 103 253 Q149 211 218 211 L226 211 Q252 211 259.5 198.5 Q267 186 267 173 L267 -85 Q267 -101 254 -112 Q238 -123 222 -123 Q204 -123 190 -112 Q177 -102 177 -85 L177 139 L63 138 L63 -87 Q68 -135 113 -168 Q161 -202 222 -202 Q284 -202 330 -168 Q376 -135 381 -85 L381 174 Q382 208 366 243 Q351 272 325 290 Q292 311 241 311 L218 311 Q201 311 188 322 Q177 333 177 349 L177 601 Q177 617 190 629 Q205 639 222 639 Q240 639 253 629 Z " />
<glyph glyph-name="T" unicode="T" horiz-adv-x="370" d="M39 608 L39 716 L331 716 L331 608 L250 608 L250 -198 L120 -198 L120 608 L39 608 Z M48 706 L48 617 L129 617 L129 -188 L241 -188 L241 617 L322 617 L322 706 L48 706 Z " />
<glyph glyph-name="U" unicode="U" horiz-adv-x="468" d="M270 716 L403 716 L403 -74 Q403 -130 353 -171 Q304 -211 234 -211 Q164 -211 115 -171 Q65 -130 65 -74 L65 716 L198 716 L198 -85 Q198 -96 208 -105 Q219 -113 234 -113 Q247 -113 260 -105 Q270 -95 270 -85 L270 716 Z M279 -85 Q279 -102 266 -112 Q252 -123 234 -123 Q216 -123 203 -112 Q188 -102 188 -85 L188 706 L75 706 L75 -74 Q75 -127 121 -164 Q168 -202 234 -202 Q300 -202 347 -164 Q393 -127 393 -74 L393 706 L279 706 L279 -85 Z " />
<glyph glyph-name="V" unicode="V" horiz-adv-x="414" d="M207 295 L263 716 L394 716 L394 710 L272 -198 L142 -198 L19 716 L150 716 L207 295 Z M384 706 L272 706 L207 223 L142 706 L30 706 L150 -188 L263 -188 L384 706 Z " />
<glyph glyph-name="W" unicode="W" horiz-adv-x="629" d="M429 305 L466 716 L597 716 L596 710 L502 -198 L372 -198 L314 217 L257 -198 L127 -198 L127 -193 L32 716 L163 716 L200 305 L249 716 L380 716 L429 305 Z M586 706 L474 706 L431 213 L372 706 L257 706 L199 213 L155 706 L43 706 L136 -188 L249 -188 L314 287 L380 -188 L493 -188 L586 706 Z " />
<glyph glyph-name="X" unicode="X" horiz-adv-x="411" d="M256 716 L387 716 L271 259 L387 -198 L256 -198 L205 29 L156 -198 L24 -198 L140 259 L24 716 L156 716 L205 489 L256 716 Z M375 -188 L261 259 L262 261 L375 706 L264 706 L205 445 L148 706 L36 706 L149 259 L149 258 L36 -188 L148 -188 L205 73 L264 -188 L375 -188 Z " />
<glyph glyph-name="Y" unicode="Y" horiz-adv-x="456" d="M228 379 L299 716 L431 716 L429 710 L294 113 L294 -198 L163 -198 L163 114 L162 116 L26 716 L158 716 L228 379 Z M419 706 L307 706 L228 332 L150 706 L38 706 L171 122 L172 122 L172 117 L172 -188 L285 -188 L285 122 L286 122 L419 706 Z " />
<glyph glyph-name="Z" unicode="Z" horiz-adv-x="372" d="M323 611 L163 -90 L323 -90 L323 -198 L30 -198 L30 -94 L191 608 L30 608 L30 716 L323 716 L323 611 Z M314 -99 L151 -99 L152 -93 L314 613 L314 706 L40 706 L40 617 L203 617 L40 -95 L40 -188 L314 -188 L314 -99 Z " />
<glyph glyph-name="exclam" unicode="&#x21;" horiz-adv-x="220" d="M45 -10 L45 723 L175 723 L175 -10 L45 -10 Z M54 714 L54 0 L166 0 L166 714 L54 714 Z M45 -198 L45 -89 L175 -89 L175 -198 L45 -198 Z M54 -99 L54 -189 L166 -189 L166 -99 L54 -99 Z " />
<glyph glyph-name="quotedbl" unicode="&#x22;" horiz-adv-x="315" d="M23 606 L23 728 L154 728 L153 609 L107 506 L53 506 L60 606 L23 606 Z M32 718 L32 615 L70 615 L63 516 L101 516 L144 612 L144 718 L32 718 Z M160 606 L160 728 L291 728 L290 609 L245 506 L190 506 L197 606 L160 606 Z M170 718 L170 615 L208 615 L200 516 L238 516 L281 612 L281 718 L170 718 Z " />
<glyph glyph-name="numbersign" unicode="&#x23;" horiz-adv-x="465" d="M376 505 L366 414 L426 414 L417 335 L358 335 L350 260 L409 260 L401 181 L342 181 L330 77 L236 77 L247 181 L192 181 L181 77 L88 77 L99 181 L34 181 L43 260 L107 260 L115 335 L50 335 L59 414 L124 414 L133 505 L227 505 L218 414 L273 414 L282 505 L376 505 Z M415 404 L356 404 L365 495 L291 495 L282 404 L207 404 L216 495 L142 495 L132 404 L67 404 L61 345 L125 345 L116 250 L52 250 L45 191 L110 191 L98 87 L172 87 L184 191 L258 191 L247 87 L322 87 L333 191 L393 191 L398 250 L340 250 L350 345 L408 345 L415 404 Z M190 250 L200 345 L275 345 L265 250 L190 250 Z M209 335 L201 260 L256 260 L264 335 L209 335 Z " />
<glyph glyph-name="dollar" unicode="&#x24;" horiz-adv-x="417" d="M330 632 Q380 591 380 534 L380 349 L247 349 L247 546 Q247 557 237 566 Q226 574 211 574 Q197 574 186 566 Q176 556 176 546 L176 350 Q176 340 184 330 Q195 322 208 322 L231 322 Q284 322 319 299 Q349 279 363 247 Q381 210 380 173 L380 -30 Q374 -83 325 -120 Q304 -136 277 -145 L277 -201 L147 -201 L147 -145 Q120 -136 98 -120 Q49 -83 43 -31 L43 167 L176 167 L176 -29 Q176 -40 186 -48 Q196 -57 211 -57 Q226 -57 237 -48 Q247 -41 247 -29 L247 173 Q247 201 216 201 L208 201 Q136 201 87 247 Q43 286 43 340 L43 534 Q43 591 93 632 Q116 652 147 663 L147 720 L277 720 L277 662 Q306 651 330 632 Z M370 534 Q370 588 324 625 Q299 645 271 654 L268 655 L268 711 L156 711 L156 656 L153 655 Q123 644 99 625 Q53 587 53 534 L53 340 Q53 292 93 254 Q139 211 208 211 L216 211 Q241 211 249 198.5 Q257 186 257 173 L257 -29 Q257 -45 243 -56 Q230 -66 211 -66 Q193 -66 180 -56 Q167 -46 167 -29 L167 157 L53 157 L53 -30 Q59 -79 104 -112 Q128 -130 153 -138 L156 -139 L156 -191 L268 -191 L268 -138 L271 -137 Q297 -129 319 -112 Q365 -79 370 -29 L370 173 Q371 209 355 243 Q340 272 314 291 Q281 312 231 312 L208 312 Q191 312 178 323 Q167 333 167 350 L167 546 Q167 563 180 573 Q194 584 211 584 Q229 584 243 573 Q257 562 257 546 L257 359 L370 359 L370 534 Z " />
<glyph glyph-name="percent" unicode="&#x25;" horiz-adv-x="613" d="M497 713 L189 -201 L101 -201 L103 -194 L411 719 L499 719 L497 713 Z M486 710 L418 710 L115 -191 L182 -191 L486 710 Z M537 131 Q574 109 574 77 L574 -126 Q574 -157 537 -179 Q502 -201 453 -201 Q401 -201 366 -179 Q330 -158 330 -126 L330 77 Q330 110 366 131 Q404 153 453 153 Q499 153 537 131 Z M564 77 Q564 103 532 123 Q498 143 453 143 Q406 143 371 123 Q340 104 340 77 L340 -126 Q340 -153 371 -171 Q406 -191 453 -191 Q498 -191 532 -171 Q564 -153 564 -126 L564 77 Z M475 100 Q485 93 485 83 L485 -132 Q485 -142 475 -149 Q463 -154 453 -154 Q441 -154 429 -149 Q418 -141 418 -132 L418 83 Q418 94 429 100 Q439 105 451.5 105.5 Q464 106 475 100 Z M476 83 Q476 87 470 92 Q460 96 453 96 Q441 96 434 92 Q429 89 428.5 86.5 Q428 84 428 83 L428 -132 Q428 -133 428.5 -135.5 Q429 -138 434 -140 Q441 -144 451.5 -144.5 Q462 -145 471 -140 Q475 -138 475.5 -136 Q476 -134 476 -132 L476 83 Z M179 418 Q168 412 157 412 Q143 412 133 418 Q122 424 122 434 L122 649 Q122 660 133 666 Q143 672 155.5 672 Q168 672 179 667 Q190 659 190 649 L190 434 Q190 424 179 418 Z M138 426 Q145 422 155.5 421.5 Q166 421 175 426 Q179 429 179.5 431 Q180 433 180 434 L180 649 Q180 654 174 659 Q166 662 157 662 Q145 662 138 658 Q133 655 132.5 653 Q132 651 132 649 L132 434 Q132 433 132.5 431 Q133 429 138 426 Z M241 387 Q205 366 157 366 Q105 366 71 387 Q34 408 34 440 L34 643 Q34 676 71 697 Q105 719 157 719 Q206 719 241 697 Q278 675 278 643 L278 440 Q278 409 241 387 Z M44 440 Q44 414 75 395 Q110 375 157 375 Q202 375 236 395 Q268 415 268 440 L268 643 Q268 669 236 689 Q203 710 157 710 Q109 710 76 689 Q44 670 44 643 L44 440 Z " />
<glyph glyph-name="ampersand" unicode="&#x26;" horiz-adv-x="458" d="M154 171 Q154 208 203 214 L246 214 L246 -63 Q246 -82 232 -94 Q219 -107 200 -107 Q180 -107 167 -94 Q154 -82 154 -63 L154 171 Z M203 205 Q163 199 163 171 L163 -63 Q163 -77 173 -87 Q186 -98 200 -98 Q214 -98 225 -87 Q236 -78 236 -63 L236 205 L203 205 Z M362 313 L413 313 L413 205 L362 205 L362 -53 Q361 -118 302 -171 Q256 -206 200 -206 Q131 -206 84 -160 Q37 -115 37 -49 L37 157 Q37 216 76 260 Q37 303 37 362 L37 568 Q37 632 84 679 Q133 725 200 725 Q266 725 315 679 Q362 632 362 568 L362 391 L236 391 L236 582 Q236 595 225 606 Q214 617 200 617 Q186 617 173 606 Q163 596 163 582 L163 349 Q163 335 174 324 Q188 313 220 313 L236 313 L236 324 L362 324 L362 313 Z M353 303 L353 314 L246 314 L246 303 L220 303 Q185 303 168 317 Q154 328 154 349 L154 582 Q154 601 167 613 Q180 626 200 626 Q219 626 232 613 Q246 601 246 582 L246 401 L353 401 L353 568 Q353 628 308 672 Q264 715 200 715 Q135 715 91 672 Q47 629 47 568 L47 362 Q47 306 86 264 L89 260 L86 257 Q47 215 47 157 L47 -49 Q47 -79 57.5 -105.5 Q68 -132 91 -153 Q135 -196 200 -196 Q253 -196 296 -164 Q352 -114 352 -53 L353 214 L403 214 L403 303 L353 303 Z " />
<glyph glyph-name="quotesingle" unicode="&#x27;" horiz-adv-x="156" d="M42 506 L49 606 L12 606 L12 728 L143 728 L142 609 L96 506 L42 506 Z M22 615 L60 615 L52 516 L90 516 L133 612 L133 718 L22 718 L22 615 Z " />
<glyph glyph-name="parenleft" unicode="&#x28;" horiz-adv-x="252" d="M216 733 L227 732 L227 629 L216 634 Q214 634 212 634.5 Q210 635 208 635 Q192 635 182 626 Q172 617 172 606 L172 -89 Q172 -101 182 -108 Q191 -116 208 -116 L215 -116 L217 -115 L227 -113 L227 -214 L208 -215 Q138 -215 89 -175 Q40 -135 40 -77 L40 594 Q40 651 89 693 Q138 733 208 733 L216 733 Z M217 723 L216 723 L208 723 Q140 723 95 685 Q50 647 50 594 L50 -77 Q50 -129 95 -168 Q142 -206 208 -206 L217 -205 L217 -125 Q213 -126 208 -126 Q190 -126 176 -115 Q162 -104 162 -89 L162 606 Q162 622 176 633 Q188 644 208 644 Q214 644 217 643 L217 723 Z " />
<glyph glyph-name="parenright" unicode="&#x29;" horiz-adv-x="253" d="M163 692 Q213 650 213 593 L213 -78 Q213 -135 163 -176 Q116 -216 45 -216 L25 -215 L25 -114 L37 -117 Q39 -117 41 -117.5 Q43 -118 45 -118 Q59 -118 71 -109 Q80 -102 80 -90 L80 605 Q80 616 71 624 Q59 633 45 633 Q40 633 37 632 L32 631 L25 628 L25 731 L36 732 L45 732 Q114 732 163 692 Z M203 593 Q203 646 157 684 Q110 722 45 722 L35 722 L35 642 Q38 643 45 643 Q63 643 77 632 Q90 621 90 605 L90 -90 Q90 -105 77 -116 Q63 -127 45 -127 L36 -127 L35 -127 L35 -206 L45 -207 Q110 -207 157 -169 Q203 -131 203 -78 L203 593 Z " />
<glyph glyph-name="asterisk" unicode="&#x2a;" horiz-adv-x="299" d="M282 665 L207 601 L282 538 L225 487 L191 524 L192 474 L112 474 L112 524 L78 487 L22 538 L95 601 L22 665 L78 715 L112 680 L112 728 L192 728 L191 680 L226 715 L282 665 Z M269 537 L193 601 L269 665 L226 703 L182 657 L183 719 L121 719 L121 657 L78 703 L35 665 L108 601 L35 538 L78 499 L121 548 L121 483 L183 483 L182 548 L226 499 L269 537 Z " />
<glyph glyph-name="plus" unicode="&#x2b;" horiz-adv-x="325" d="M223 399 L223 315 L316 315 L316 206 L223 206 L223 122 L103 122 L103 206 L10 206 L10 315 L103 315 L103 399 L223 399 Z M306 306 L213 306 L213 390 L113 390 L113 306 L19 306 L19 216 L113 216 L113 132 L213 132 L213 216 L306 216 L306 306 Z " />
<glyph glyph-name="comma" unicode="&#x2c;" horiz-adv-x="158" d="M15 -212 L15 -103 L138 -103 L137 -209 L94 -300 L43 -300 L50 -212 L15 -212 Z M25 -112 L25 -202 L60 -202 L53 -291 L88 -291 L128 -206 L128 -112 L25 -112 Z " />
<glyph glyph-name="hyphen" unicode="&#x2d;" horiz-adv-x="280" d="M14 206 L14 315 L264 315 L264 206 L14 206 Z M24 306 L24 216 L255 216 L255 306 L24 306 Z " />
<glyph glyph-name="period" unicode="&#x2e;" horiz-adv-x="130" d="M3 -212 L3 -103 L126 -103 L126 -212 L3 -212 Z M13 -113 L13 -203 L116 -203 L116 -113 L13 -113 Z " />
<glyph glyph-name="slash" unicode="&#x2f;" horiz-adv-x="334" d="M166 771 L289 771 L289 765 L166 -270 L42 -270 L43 -264 L166 771 Z M157 -260 L279 761 L174 761 L53 -260 L157 -260 Z " />
<glyph glyph-name="zero" unicode="0" horiz-adv-x="458" d="M260 629 Q274 617 274 602 L274 -86 Q274 -102 260 -113 Q246 -124 228 -124 Q211 -124 197 -113 Q183 -102 183 -86 L183 602 Q183 618 197 629 Q211 640 228 640 Q246 640 260 629 Z M264 602 Q264 614 254 621 Q243 630 228 630 Q213 630 203 621 Q193 614 193 602 L193 -86 Q193 -97 203 -106 Q214 -114 228 -114 Q243 -114 254 -106 Q264 -97 264 -86 L264 602 Z M347 688 Q398 647 398 590 L398 -75 Q398 -132 347 -172 Q300 -212 228 -212 Q159 -212 109 -172 Q60 -132 60 -75 L60 590 Q60 648 109 688 Q161 728 228 728 Q298 728 347 688 Z M388 590 Q388 642 341 680 Q294 718 228 718 Q164 718 115 680 Q69 642 69 590 L69 -75 Q69 -127 115 -165 Q164 -203 228 -203 Q294 -203 341 -165 Q388 -127 388 -75 L388 590 Z " />
<glyph glyph-name="one" unicode="1" horiz-adv-x="251" d="M13 608 L70 716 L191 716 L191 -197 L60 -197 L60 608 L13 608 Z M182 707 L75 707 L29 618 L69 618 L69 -187 L182 -187 L182 707 Z " />
<glyph glyph-name="two" unicode="2" horiz-adv-x="451" d="M58 591 Q58 648 108 689 Q157 728 227 728 Q296 728 346 689 Q395 649 395 591 L395 563 L396 507 L395 392 Q395 361 391 338 Q376 249 299 182 Q299 182 289 173.5 Q279 165 266 153 Q253 141 240 129 Q227 117 221 109 Q188 70 188 36 L188 -91 L395 -91 L395 -199 L57 -199 L57 -85 Q57 -28 59.5 8.5 Q62 45 66 69 Q70 93 75.5 107 Q81 121 88 133 Q105 161 129.5 188 Q154 215 191 246 Q260 303 263 377 L263 519 L263 561 L263 603 Q263 614 253 622 Q241 631 227 631 Q212 631 202 622 Q191 615 191 603 L191 350 L58 350 L58 591 Z M227 719 Q161 719 114 681 Q68 644 68 591 L68 359 L181 359 L181 603 Q181 618 196 629 Q207 640 227 640 Q247 640 259 629 Q272 619 272 603 L272 561 L273 519 Q273 465 273 429.5 Q273 394 272 377 Q271 299 197 238 Q161 209 137 182.5 Q113 156 96 128 Q90 117 84.5 103.5 Q79 90 75 66.5 Q71 43 68.5 7 Q66 -29 66 -85 L66 -189 L385 -189 L385 -100 L179 -100 L179 36 Q179 74 214 116 Q220 123 233 135.5 Q246 148 259 159.5 Q272 171 282 179.5 Q292 188 293 189 Q367 252 382 340 Q384 353 385 365.5 Q386 378 386 392 L387 507 L386 591 Q386 643 340 681 Q293 719 227 719 Z " />
<glyph glyph-name="three" unicode="3" horiz-adv-x="445" d="M61 570 Q61 635 109 682 Q159 729 227 729 Q296 729 346 682 Q394 635 394 570 L394 363 Q394 304 353 260 Q394 214 394 156 L394 -52 Q394 -119 346 -165 Q295 -211 227 -211 Q160 -211 109 -165 Q61 -119 61 -52 L61 146 L190 146 L190 -66 Q190 -81 201 -91 Q211 -101 227 -101 Q244 -101 254 -91 Q265 -81 265 -66 L265 170 Q265 181 257.5 187 Q250 193 242 197 Q231 201 219 204 L215 205 L215 311 L219 312 Q224 313 236 316.5 Q248 320 254 325 Q265 334 265 350 L265 584 Q265 599 254 609 Q244 619 227 619 Q211 619 201 609 Q190 599 190 584 L190 349 L62 349 L62 353 Q62 353 61.5 357 Q61 361 61 382 Q61 403 61 446.5 Q61 490 61 570 Z M227 719 Q163 719 116 675 Q70 631 70 570 Q70 477 70 424.5 Q70 372 71 359 L180 359 L180 584 Q180 602 194 616 Q207 629 227 629 Q248 629 261 616 Q275 602 275 584 L275 350 Q275 329 260 317 Q253 312 241.5 308.5 Q230 305 224 304 L224 213 Q229 212 237.5 209.5 Q246 207 254 202 Q262 197 268.5 189.5 Q275 182 275 170 L275 -66 Q275 -84 261 -98 Q246 -111 227 -111 Q209 -111 194 -98 Q180 -84 180 -66 L180 136 L70 136 L70 -52 Q70 -114 116 -158 Q163 -202 227 -202 Q292 -202 339 -158 Q385 -114 385 -52 L385 156 Q385 213 343 257 L340 260 L343 263 Q385 306 385 363 L385 570 Q385 631 339 675 Q292 719 227 719 Z " />
<glyph glyph-name="four" unicode="4" horiz-adv-x="457" d="M191 716 L191 186 L266 186 L266 716 L397 716 L397 186 L430 186 L430 76 L397 76 L397 -197 L266 -197 L266 76 L90 76 Q76 76 68 80.5 Q60 85 60 108 L60 716 L191 716 Z M182 177 L182 707 L69 707 L69 108 Q69 91 73.5 88.5 Q78 86 90 86 L275 86 L276 -187 L388 -187 L388 86 L420 86 L420 177 L388 177 L387 707 L275 707 L275 177 L182 177 Z " />
<glyph glyph-name="five" unicode="5" horiz-adv-x="435" d="M388 608 L189 608 L190 363 L248 363 L258 363 Q307 363 345 330 Q366 310 379 282 Q392 254 392 227 L392 -51 Q392 -118 343 -164 Q294 -210 225 -210 Q157 -210 108 -164 Q58 -117 58 -51 L58 213 L187 213 L187 -65 Q187 -79 198 -90 Q209 -100 225 -100 Q242 -100 252 -90 Q263 -79 263 -65 L263 227 Q261 255 211 255 L60 255 L60 260 L61 716 L388 716 L388 608 Z M378 707 L70 707 L69 265 L211 265 Q249 264 260.5 252 Q272 240 272 227 L272 -65 Q272 -84 258 -97 Q243 -110 225 -110 Q207 -110 192 -97 Q178 -83 178 -65 L178 204 L68 204 L68 -51 Q68 -113 114 -157 Q161 -201 225 -201 Q290 -201 337 -157 Q382 -114 382 -51 L382 227 Q382 253 370 279 Q358 305 338 323 Q304 354 258 354 L248 354 Q227 354 211.5 354 Q196 354 185 353 L180 353 L180 618 L378 618 L378 707 Z " />
<glyph glyph-name="six" unicode="6" horiz-adv-x="465" d="M349 277 Q372 257 385 230 Q398 203 398 172 L398 -73 Q398 -130 348 -171 Q297 -211 230 -211 Q160 -211 111 -171 Q60 -131 60 -73 L60 591 Q60 647 111 688 Q158 728 230 728 Q299 728 348 688 Q398 647 398 591 L398 398 L266 398 L265 603 Q265 613 255 622 Q244 630 230 630 Q216 630 203 622 Q194 613 194 602 L194 421 L194 307 Q212 310 230 310 Q259 310 290 304.5 Q321 299 349 277 Z M389 172 Q389 201 377 226 Q365 251 343 269 Q317 290 287.5 295 Q258 300 230 300 Q207 300 190 296 L184 295 L184 602 Q184 618 198 629 Q211 639 230 639 Q248 639 261 629 Q275 618 275 603 L275 407 L389 407 L389 591 Q389 643 342 681 Q296 718 230 718 Q161 718 117 681 Q70 643 70 591 L70 -73 Q70 -128 117 -163 Q162 -202 230 -202 Q295 -202 342 -163 Q389 -127 389 -73 L389 172 Z M261 211 Q275 200 275 184 L275 71 L275 -85 Q275 -101 261 -112 Q247 -123 230 -123 Q212 -123 198 -112 Q186 -102 185 -89 L185 184 Q185 201 198 211 Q211 221 230 221 Q250 221 261 211 Z M266 184 Q266 195 255 203 Q244 212 230 212 Q214 212 204 203 Q194 196 194 184 L194 -88 Q196 -98 204 -105 Q215 -113 230 -113 Q244 -113 255 -105 Q265 -96 265 -85 L266 96 L266 184 Z " />
<glyph glyph-name="seven" unicode="7" horiz-adv-x="352" d="M213 -197 L82 -197 L176 608 L39 608 L39 716 L322 716 L213 -197 Z M49 618 L187 618 L93 -187 L205 -187 L312 707 L49 707 L49 618 Z " />
<glyph glyph-name="eight" unicode="8" horiz-adv-x="420" d="M206 325 Q189 325 174.5 332 Q160 339 160 355 L160 611 Q160 627 174 638 Q187 650 206 650 Q224 650 238 638 Q252 627 252 611 L252 354 Q252 339 237.5 332 Q223 325 206 325 Z M169 355 Q169 344 180.5 339 Q192 334 206 334 Q220 334 231 339 Q242 344 242 354 L242 611 Q242 622 232 631 Q220 640 206 640 Q190 640 180 631 Q169 622 169 611 L169 355 Z M240 219 Q255 210 255 195 L255 -86 Q255 -101 241 -112 Q227 -123 209 -123 Q192 -123 178 -112 Q164 -101 164 -86 L164 196 Q164 210 178 218 Q191 226 209 226 Q227 226 240 219 Z M235 -105 Q245 -96 245 -86 L245 195 Q245 205 235 211 Q226 216 210 216 Q193 216 183 210 Q173 205 173 196 L173 -86 Q173 -96 184 -105 Q195 -113 209 -113 Q224 -113 235 -105 Z M379 402 Q379 383 374 366 Q369 349 362 335 Q355 321 348 311 Q341 301 337 297 Q352 280 360.5 259.5 Q369 239 373 220.5 Q377 202 377.5 188.5 Q378 175 378 174 L379 -74 Q379 -131 328 -171 Q281 -211 209 -211 Q139 -211 90 -171 Q41 -131 41 -74 L41 174 Q41 175 41.5 188.5 Q42 202 46 220.5 Q50 239 58.5 259.5 Q67 280 83 297 Q79 301 72 311 Q65 321 58 335 Q51 349 46 366 Q41 383 41 402 L41 591 Q41 649 90 689 Q139 728 209 728 Q280 728 328 689 Q379 648 379 591 L379 402 Z M369 591 Q369 643 322 681 Q275 719 209 719 Q145 719 96 681 Q50 643 50 591 L50 402 Q50 381 56.5 363 Q63 345 71 331 Q79 317 86 308.5 Q93 300 93 300 L96 297 L93 294 Q77 278 68.5 257.5 Q60 237 56 218.5 Q52 200 51.5 187 Q51 174 51 174 L50 -74 Q50 -126 96 -164 Q145 -202 209 -202 Q275 -202 322 -164 Q369 -126 369 -74 L369 174 Q369 174 368 187 Q367 200 363 218.5 Q359 237 350.5 257.5 Q342 278 327 294 L323 297 L327 300 Q327 300 333.5 308.5 Q340 317 348 331 Q356 345 362.5 363.5 Q369 382 369 402 L369 591 Z " />
<glyph glyph-name="nine" unicode="9" horiz-adv-x="452" d="M255 640 Q266 630 268 616 L268 340 Q268 323 255 313 Q241 302 222 302 Q205 302 191 313 Q177 323 177 340 L177 612 Q177 628 191 639 Q205 650 223 650 Q242 650 255 640 Z M259 615 Q257 625 249 632 Q240 640 223 640 Q206 640 197 632 Q187 623 187 612 L186 340 Q186 329 197 321 Q207 312 222 312 Q237 312 249 321 Q259 329 259 340 L259 615 Z M341 688 Q392 647 392 590 L392 -74 Q392 -131 341 -171 Q294 -211 222 -211 Q152 -211 103 -171 Q54 -131 54 -74 L53 133 L186 133 L186 -80 Q186 -86 189 -93 Q192 -100 197 -105 Q208 -113 222 -113 Q237 -113 248 -105 Q258 -96 258 -85 L258 210 Q240 207 222 207 Q154 207 103 247 Q80 266 67 287 Q54 308 53 344 L54 590 Q54 648 103 688 Q154 728 222 728 Q292 728 341 688 Z M382 590 Q382 642 335 680 Q290 718 222 718 Q156 718 109 680 Q63 643 63 590 L63 344 Q64 311 75.5 291.5 Q87 272 109 254 Q155 217 222 217 Q232 217 242 218 Q252 219 262 221 L268 222 L268 -85 Q268 -101 254 -112 Q240 -123 222 -123 Q205 -123 191 -112 Q183 -107 179.5 -97.5 Q176 -88 176 -80 L177 124 L63 124 L63 -74 Q63 -126 109 -164 Q158 -202 222 -202 Q288 -202 335 -164 Q382 -126 382 -74 L382 590 Z " />
<glyph glyph-name="colon" unicode="&#x3a;" horiz-adv-x="178" d="M32 -3 L32 106 L149 106 L149 -3 L32 -3 Z M42 96 L42 6 L139 6 L139 96 L42 96 Z M32 410 L32 519 L149 519 L149 410 L32 410 Z M42 509 L42 419 L139 419 L139 509 L42 509 Z " />
<glyph glyph-name="semicolon" unicode="&#x3b;" horiz-adv-x="179" d="M34 411 L34 520 L149 520 L149 411 L34 411 Z M44 510 L44 420 L139 420 L139 510 L44 510 Z M34 -2 L34 107 L149 107 L148 1 L108 -91 L60 -91 L66 -2 L34 -2 Z M44 97 L44 7 L77 7 L70 -81 L102 -81 L139 3 L139 97 L44 97 Z " />
<glyph glyph-name="less" unicode="&#x3c;" horiz-adv-x="446" d="M25 300 Q25 315 34 327 Q43 339 57 342 L407 451 L407 347 L256 300 L407 253 L407 148 L57 258 Q43 261 34 273 Q25 285 25 300 Z M60 333 Q49 330 41.5 321 Q34 312 34 300 Q34 288 41.5 279 Q49 270 60 267 L397 162 L397 246 L223 300 L397 354 L397 438 L60 333 Z " />
<glyph glyph-name="equal" unicode="&#x3d;" horiz-adv-x="294" d="M22 273 L22 382 L272 382 L272 273 L22 273 Z M31 372 L31 283 L262 283 L262 372 L31 372 Z M22 119 L22 228 L272 228 L272 119 L22 119 Z M31 219 L31 129 L262 129 L262 219 L31 219 Z " />
<glyph glyph-name="greater" unicode="&#x3e;" horiz-adv-x="446" d="M388 342 Q402 339 411.5 327 Q421 315 421 300 Q421 285 411.5 273 Q402 261 388 258 L39 148 L39 253 L190 300 L39 347 L39 451 L388 342 Z M385 267 Q397 270 404 279 Q411 288 411 300 Q411 326 386 333 L48 438 L48 354 L222 300 L48 246 L48 162 L385 267 Z " />
<glyph glyph-name="question" unicode="&#x3f;" horiz-adv-x="419" d="M127 -99 L258 -99 L258 -208 L127 -208 L127 -99 Z M137 -199 L249 -199 L249 -109 L137 -109 L137 -199 Z M328 686 Q378 645 378 588 L377 341 Q377 313 373 294 Q365 267 349 251 L270 168 Q258 157 258 145 L258 -20 L127 -20 L127 130 Q127 155 138 182 Q145 202 159 222 Q167 233 175 241.5 Q183 250 191 256 L226 283 Q238 292 241 303 Q245 312 245 340 L245 600 Q245 612 235 619 Q226 627 209 627 Q193 627 184 619 Q175 611 175 600 L175 343 L42 343 L42 588 Q42 646 91 686 Q140 726 209 726 Q279 726 328 686 Z M368 588 Q368 640 322 679 Q275 717 209 717 Q144 717 97 679 Q51 639 51 588 L51 353 L165 353 L165 600 Q165 616 178 626 Q192 637 209 637 Q226 637 241 627 Q255 615 255 600 L255 338 Q254 324 253 315 Q252 306 250 300 Q245 286 232 275 L197 248 Q183 238 167 216 Q152 197 147 179 Q137 156 137 130 L137 -10 L249 -10 L249 145 Q249 163 263 175 L342 257 Q357 272 363 297 Q368 317 368 341 L368 588 Z " />
<glyph glyph-name="at" unicode="&#x40;" horiz-adv-x="785" d="M435 291 L435 74 Q435 58 426 49 Q415 38 394 38 Q368 38 358 53 Q353 59 352.5 65 Q352 71 352 75 L352 210 Q352 222 357 235 Q366 250 377 258 Q392 271 414 280 L421 283 L435 291 Z M419 56 Q424 61 424.5 66.5 Q425 72 425 74 L425 275 L417 272 Q395 262 383 251 Q373 244 366 231 Q362 220 362 211 L362 75 Q362 72 362.5 67.5 Q363 63 366 59 Q373 48 394 48 Q411 48 419 56 Z M641 670 Q745 589 745 474 L745 179 Q745 77 716 22 Q675 -56 572 -56 L457 -56 Q399 -56 364 -52 Q329 -48 309 -41 Q289 -34 280 -26.5 Q271 -19 265 -12 Q240 17 240 54 L240 230 Q240 234 240.5 238.5 Q241 243 242 248 Q251 287 293 320 Q298 323 316.5 333 Q335 343 357 353.5 Q379 364 398.5 374 Q418 384 425 387 L425 454 Q425 463 416 471 Q408 478 393 478 Q380 478 370 471 Q362 463 362 454 L362 439 L240 385 L240 444 Q240 496 286 530 Q330 565 393 565 Q455 565 501 530 Q546 495 546 444 L546 48 L578 48 L584 48 Q592 54 597 63 Q617 92 617 179 L617 474 Q617 545 552 596 Q483 648 392 648 Q302 648 233 596 Q168 545 168 474 L168 26 Q168 -46 233 -97 Q267 -122 306.5 -135 Q346 -148 392 -148 L687 -146 L685 -250 L392 -250 Q247 -250 144 -170 Q40 -89 40 26 L40 474 Q40 589 144 670 Q246 751 392 751 Q537 751 641 670 Z M735 474 Q735 584 635 663 Q534 741 392 741 Q251 741 149 663 Q50 583 50 474 L50 26 Q50 -85 149 -163 Q253 -241 392 -241 L676 -241 L677 -156 L392 -157 Q298 -157 227 -104 Q158 -49 158 26 L158 474 Q158 549 227 603 Q297 657 392 657 Q487 657 558 604 Q627 549 627 474 L627 179 Q627 89 605 57 Q598 46 588 39 L586 39 Q583 38 578 38 L536 38 L536 444 Q536 491 495 522 Q453 555 393 555 Q332 555 292 522 Q249 491 249 444 L249 400 L352 445 L352 454 Q352 468 364 479 Q377 488 393 488 Q410 488 422 479 Q435 468 435 454 L435 381 L432 379 Q420 373 399 363 Q378 353 357 342.5 Q336 332 319.5 323.5 Q303 315 299 312 Q259 282 252 246 Q249 237 249 230 L249 54 Q249 22 272 -6 Q277 -12 285.5 -19.5 Q294 -27 313.5 -33 Q333 -39 367 -42.5 Q401 -46 457 -46 L572 -46 Q669 -46 708 27 Q735 78 735 179 L735 474 Z " />
<glyph glyph-name="bracketleft" unicode="&#x5b;" horiz-adv-x="261" d="M50 -201 L50 720 L224 720 L224 611 L181 611 L181 -92 L224 -92 L224 -201 L50 -201 Z M60 711 L60 -192 L215 -192 L215 -102 L171 -102 L171 621 L215 621 L215 711 L60 711 Z " />
<glyph glyph-name="backslash" unicode="&#x5c;" horiz-adv-x="274" d="M147 771 L148 766 L271 -270 L148 -270 L147 -265 L24 771 L147 771 Z M156 -260 L260 -260 L139 761 L35 761 L156 -260 Z " />
<glyph glyph-name="bracketright" unicode="&#x5d;" horiz-adv-x="261" d="M37 610 L37 719 L211 719 L211 -202 L37 -202 L37 -93 L80 -93 L80 610 L37 610 Z M46 710 L46 620 L89 620 L89 -103 L46 -103 L46 -193 L201 -193 L201 710 L46 710 Z " />
<glyph glyph-name="underscore" unicode="&#x5f;" horiz-adv-x="367" d="M34 -212 L34 -103 L334 -103 L334 -212 L34 -212 Z M44 -112 L44 -202 L324 -202 L324 -112 L44 -112 Z " />
<glyph glyph-name="asciicircum" unicode="&#x5e;" horiz-adv-x="358" d="M329 524 L219 524 L180 608 L141 524 L31 524 L114 704 Q123 726 132 738 Q141 750 167 750 L197 750 Q217 750 226.5 737 Q236 724 244 707 Q245 706 249 698 L329 524 Z M314 534 L240 694 Q238 697 236 703 Q228 719 220.5 730 Q213 741 197 741 L167 741 Q147 741 139.5 731.5 Q132 722 123 700 L120 695 L46 534 L135 534 L180 631 L225 534 L314 534 Z " />
<glyph glyph-name="grave" unicode="&#x60;" horiz-adv-x="185" d="M14 820 L121 820 L170 593 L80 593 L14 820 Z M87 602 L158 602 L113 811 L27 811 L87 602 Z " />
<glyph glyph-name="braceleft" unicode="&#x7b;" horiz-adv-x="319" d="M144 691 Q193 731 262 731 L279 730 L279 629 L272 631 Q269 632 262 632 Q248 632 236 623 Q227 615 227 604 L227 334 Q226 327 225 321.5 Q224 316 222 310 Q214 278 194 256 Q214 233 222 202 Q224 196 225 190 Q226 184 227 178 L227 -91 Q227 -103 236 -110 Q248 -119 262 -119 Q265 -119 273 -117 L279 -116 L279 -217 L262 -217 Q191 -217 144 -177 Q94 -136 94 -79 L94 168 L94 172 Q94 176 92 180 Q91 189 84 194 Q76 201 55 201 L50 201 L50 308 L54 309 Q62 310 71.5 312.5 Q81 315 84 317 Q90 322 92 331 Q94 337 94 338 L94 344 L94 592 Q94 649 144 691 Z M269 721 L262 721 Q196 721 150 683 Q104 646 104 592 L104 344 Q104 340 103 337 Q103 332 101 328 Q98 315 90 310 Q85 306 75.5 303.5 Q66 301 59 300 L59 211 Q81 209 90 202 Q97 196 102 183 Q103 180 103 173 Q104 172 104 168 L104 -79 Q104 -133 150 -170 Q196 -208 262 -208 L269 -208 L269 -128 L262 -128 Q243 -128 230 -118 Q217 -105 217 -91 L217 178 Q216 183 215.5 188.5 Q215 194 213 199 Q206 230 184 253 L181 256 L184 259 Q206 282 213 312 Q215 318 215.5 323.5 Q216 329 217 334 L217 604 Q217 620 230 631 Q247 645 269 641 L269 721 Z " />
<glyph glyph-name="bar" unicode="&#x7c;" horiz-adv-x="221" d="M45 -335 L45 824 L176 824 L176 -335 L45 -335 Z M55 814 L55 -325 L166 -325 L166 814 L55 814 Z " />
<glyph glyph-name="braceright" unicode="&#x7d;" horiz-adv-x="319" d="M273 311 L274 306 L273 202 L268 202 Q246 202 239 195 Q233 190 230 181 Q229 179 228.5 174.5 Q228 170 228 169 L228 -78 Q228 -136 179 -176 Q130 -216 60 -216 L44 -216 L44 -115 L50 -116 Q58 -118 60 -118 Q75 -118 86 -109 Q96 -102 96 -90 L96 179 Q97 185 97.5 191 Q98 197 100 203 Q109 234 128 257 Q109 279 100 311 Q98 316 97.5 322 Q97 328 96 334 L96 605 Q96 617 86 624 Q75 633 60 633 Q54 633 50 632 L44 630 L44 731 L60 732 Q128 732 179 692 Q228 650 228 593 Q228 561 228 518 Q228 475 228.5 436 Q229 397 229 369.5 Q229 342 229 340 Q229 335 230 333 Q233 323 238 318 Q246 311 268 311 L273 311 Z M264 301 Q242 302 232 311 Q224 318 221 330 Q219 336 219 339 L219 593 Q219 646 173 684 Q126 722 60 722 L54 722 L54 642 Q76 647 92 632 Q106 621 106 605 L106 335 Q106 330 107 324 Q108 318 110 313 Q118 282 138 260 L141 257 L138 254 Q118 232 110 200 Q108 195 107 189.5 Q106 184 106 178 L106 -90 Q106 -105 92 -116 Q80 -127 60 -127 L54 -127 L54 -207 L61 -207 Q126 -207 173 -169 Q219 -131 219 -78 L219 169 Q219 171 219.5 176.5 Q220 182 221 184 Q224 197 233 203 Q242 210 263 212 L264 301 Z " />
<glyph glyph-name="asciitilde" unicode="&#x7e;" horiz-adv-x="401" d="M330 246 Q345 230 349.5 223 Q354 216 354 215 L357 209 L291 167 L289 173 Q288 174 283.5 180 Q279 186 277 188 Q269 195 256.5 200.5 Q244 206 223 189 Q197 167 170 163 Q158 160 147 160 Q142 160 138 160 Q134 160 130 162 Q116 165 104 172.5 Q92 180 82.5 189 Q73 198 66 207 Q59 216 55 221 L51 229 L50 232 L116 273 L119 265 Q121 261 122 260 L123 259 Q129 249 135 245.5 Q141 242 145 241 Q158 238 175 252 Q197 271 226 279 Q246 283 267 280 Q284 276 300 268 Q316 260 330 246 Z M345 213 Q343 215 338.5 221.5 Q334 228 323 239 Q297 264 265 270 Q247 273 228 270 Q201 262 181 245 Q161 228 144 231 Q138 233 130.5 237.5 Q123 242 115 254 Q112 257 112 259 L62 229 L63 227 Q67 222 73.5 213.5 Q80 205 89 196 Q98 187 108.5 180 Q119 173 131 171 Q150 168 168 172 Q194 179 217 197 Q230 207 240.5 209.5 Q251 212 259 209.5 Q267 207 273 202.5 Q279 198 283 195 L284 194 Q286 193 289 189 Q292 185 295 181 L345 213 Z " />
<glyph glyph-name="a" unicode="a" horiz-adv-x="391" d="M131 716 L260 716 L383 -198 L252 -198 L238 -108 L153 -108 L139 -198 L8 -198 L9 -192 L131 716 Z M260 -188 L373 -188 L252 706 L139 706 L19 -188 L131 -188 L145 -99 L247 -99 L260 -188 Z M191 366 L200 366 L232 -10 L159 -10 L191 366 Z M169 -1 L222 -1 L196 309 L169 -1 Z " />
<glyph glyph-name="b" unicode="b" horiz-adv-x="423" d="M240 620 Q253 610 253 594 L253 384 Q253 360 242 350 Q233 341 217 337 Q201 333 173 333 L167 333 L163 333 L163 631 L208 631 Q226 631 240 620 Z M244 594 Q244 605 234 612 Q223 621 208 621 L172 621 L172 343 L173 343 Q222 343 235 356 Q244 365 244 384 L244 594 Z M377 366 Q377 333 364 315 Q351 297 340 290 Q345 287 351.5 281.5 Q358 276 363.5 267.5 Q369 259 373 246.5 Q377 234 377 217 L377 -64 Q377 -118 327 -159 Q301 -179 273.5 -188 Q246 -197 208 -197 L40 -197 L40 716 L208 716 Q252 716 277.5 708.5 Q303 701 328 681 Q352 662 364.5 637 Q377 612 377 583 L377 366 Z M328 293 Q329 293 335 297 Q341 301 348.5 309.5 Q356 318 362 332 Q368 346 368 366 L368 583 Q368 609 356.5 633 Q345 657 322 674 Q298 693 274 700 Q250 707 208 707 L49 707 L49 -188 L208 -188 Q250 -188 274.5 -178 Q299 -168 321 -151 Q368 -115 368 -64 L368 217 Q368 238 362 251.5 Q356 265 349 272 Q342 279 335.5 281.5 Q329 284 329 284 L316 288 L328 293 Z M253 -75 Q253 -91 240 -101 Q227 -111 208 -111 L163 -111 L163 248 L167 248 L168 248 Q197 248 215 246 Q233 244 243 234 Q253 223 253 201 L253 -75 Z M234 -93 Q244 -86 244 -75 Q244 -75 244 -59.5 Q244 -44 244 -19.5 Q244 5 244 35.5 Q244 66 244 96.5 Q244 127 244 154.5 Q244 182 244 201 Q244 217 236 227 Q228 235 212.5 236.5 Q197 238 172 238 L172 -102 L208 -102 Q223 -102 234 -93 Z " />
<glyph glyph-name="c" unicode="c" horiz-adv-x="437" d="M342 688 Q392 647 392 590 L392 332 L259 332 L259 602 Q259 614 249 621 Q238 630 223 630 Q208 630 198 621 Q187 613 187 602 L187 -86 Q187 -97 198 -106 Q209 -114 223 -114 Q238 -114 249 -106 Q259 -97 259 -86 L259 184 L392 184 L392 -75 Q392 -131 342 -172 Q293 -212 223 -212 Q153 -212 104 -172 Q55 -132 55 -75 L55 590 Q55 648 104 688 Q155 728 223 728 Q291 728 342 688 Z M383 590 Q383 642 336 681 Q290 718 223 718 Q157 718 110 681 Q64 643 64 590 L64 -75 Q64 -127 110 -165 Q159 -203 223 -203 Q289 -203 336 -165 Q383 -127 383 -75 L383 174 L268 174 L268 -86 Q268 -103 255 -113 Q241 -124 223 -124 Q205 -124 192 -113 Q178 -103 178 -86 L178 602 Q178 619 192 629 Q205 640 223 640 Q241 640 255 629 Q268 619 268 602 L268 342 L383 342 L383 590 Z " />
<glyph glyph-name="d" unicode="d" horiz-adv-x="438" d="M340 681 Q388 643 388 582 L388 -64 Q388 -123 341 -161 Q315 -181 287 -189.5 Q259 -198 219 -198 L50 -198 L50 716 L219 716 Q263 716 289 708.5 Q315 701 340 681 Z M379 582 Q379 602 370.5 627 Q362 652 334 674 Q311 692 286 699 Q261 706 219 706 L60 706 L60 -188 L219 -188 Q257 -188 284 -180 Q311 -172 335 -153 Q379 -118 379 -64 L379 582 Z M251 620 Q264 610 264 594 L264 -75 Q264 -91 251 -101 Q237 -112 219 -112 L173 -112 L173 630 L219 630 Q238 630 251 620 Z M255 594 Q255 604 245 612 Q234 621 219 621 L183 621 L183 -102 L219 -102 Q234 -102 245 -94 Q255 -86 255 -75 L255 594 Z " />
<glyph glyph-name="e" unicode="e" horiz-adv-x="363" d="M60 716 L312 716 L312 608 L191 608 L191 313 L263 313 L263 205 L191 205 L191 -90 L312 -90 L312 -198 L60 -198 L60 716 Z M70 -188 L303 -188 L303 -99 L182 -99 L182 214 L254 214 L254 303 L182 303 L182 617 L303 617 L303 706 L70 706 L70 -188 Z " />
<glyph glyph-name="f" unicode="f" horiz-adv-x="332" d="M65 -198 L65 716 L317 716 L317 608 L196 608 L196 313 L267 313 L267 205 L196 205 L196 -198 L65 -198 Z M74 706 L74 -188 L186 -188 L186 214 L258 214 L258 303 L186 303 L186 617 L307 617 L307 706 L74 706 Z " />
<glyph glyph-name="g" unicode="g" horiz-adv-x="468" d="M352 688 Q403 647 403 590 L403 349 L269 349 L269 602 Q269 614 259 621 Q248 630 233 630 Q218 630 208 621 Q197 613 197 602 L197 -86 Q197 -97 208 -106 Q219 -114 233 -114 Q248 -114 259 -106 Q269 -97 269 -86 L269 204 L251 204 L252 312 L403 313 L403 -75 Q403 -132 352 -172 Q305 -212 233 -212 Q163 -212 114 -172 Q65 -132 65 -75 L65 590 Q65 648 114 688 Q165 728 233 728 Q303 728 352 688 Z M393 590 Q393 642 346 681 Q300 718 233 718 Q167 718 120 681 Q74 643 74 590 L74 -75 Q74 -127 120 -165 Q169 -203 233 -203 Q299 -203 346 -165 Q393 -127 393 -75 L393 303 L261 303 L261 214 L279 214 L279 -86 Q279 -102 265 -113 Q251 -124 233 -124 Q216 -124 202 -113 Q188 -102 188 -86 L188 602 Q188 618 202 629 Q215 640 233 640 Q251 640 265 629 Q279 618 279 602 L279 358 L393 358 L393 590 Z " />
<glyph glyph-name="h" unicode="h" horiz-adv-x="435" d="M254 313 L254 716 L385 716 L385 -198 L254 -198 L254 205 L177 205 L177 -198 L45 -198 L45 716 L177 716 L177 313 L254 313 Z M264 706 L264 303 L167 303 L167 706 L55 706 L55 -188 L167 -188 L167 215 L264 215 L264 -188 L376 -188 L376 706 L264 706 Z " />
<glyph glyph-name="i" unicode="i" horiz-adv-x="281" d="M75 -198 L75 716 L206 716 L206 -198 L75 -198 Z M84 706 L84 -188 L197 -188 L197 706 L84 706 Z " />
<glyph glyph-name="j" unicode="j" horiz-adv-x="346" d="M140 716 L271 716 L271 -73 Q271 -101 264.5 -129.5 Q258 -158 232 -178 Q220 -188 209 -194.5 Q198 -201 185 -204.5 Q172 -208 155.5 -209.5 Q139 -211 116 -211 L106 -211 Q86 -210 68.5 -207.5 Q51 -205 36 -200 L33 -199 L33 -99 L39 -102 Q62 -113 95 -113 Q112 -112 126 -103 Q140 -94 140 -60 L140 716 Z M149 -60 Q149 -80 144 -92 Q139 -104 131.5 -110.5 Q124 -117 114.5 -119.5 Q105 -122 95 -122 Q67 -123 42 -114 L42 -192 Q69 -201 106 -201 Q131 -201 148 -200 Q165 -199 178.5 -195.5 Q192 -192 203 -186 Q214 -180 226 -171 Q249 -152 255 -126 Q261 -100 261 -73 L261 706 L149 706 L149 -60 Z " />
<glyph glyph-name="k" unicode="k" horiz-adv-x="476" d="M306 716 L437 716 L315 259 L437 -198 L306 -198 L207 164 L207 -198 L75 -198 L75 716 L207 716 L207 355 L306 716 Z M425 -188 L305 259 L305 260 L425 706 L314 706 L197 284 L197 706 L85 706 L85 -188 L197 -188 L197 234 L314 -188 L425 -188 Z " />
<glyph glyph-name="l" unicode="l" horiz-adv-x="327" d="M197 716 L197 -90 L318 -90 L318 -198 L65 -198 L65 716 L197 716 Z M308 -99 L187 -99 L187 706 L75 706 L75 -188 L308 -188 L308 -99 Z " />
<glyph glyph-name="n" unicode="n" horiz-adv-x="463" d="M267 366 L267 716 L398 716 L398 -198 L268 -198 L267 -194 L196 156 L196 -198 L65 -198 L65 716 L195 716 L267 366 Z M277 706 L277 272 L187 706 L74 706 L74 -188 L187 -188 L187 250 L276 -188 L389 -188 L389 706 L277 706 Z " />
<glyph glyph-name="o" unicode="o" horiz-adv-x="433" d="M338 688 Q388 647 388 590 L388 -75 Q388 -131 338 -172 Q289 -212 219 -212 Q149 -212 100 -172 Q50 -131 50 -75 L50 590 Q50 647 100 688 Q151 728 219 728 Q287 728 338 688 Z M378 590 Q378 642 332 681 Q286 718 219 718 Q152 718 106 681 Q59 643 59 590 L59 -75 Q59 -127 106 -165 Q153 -203 219 -203 Q285 -203 332 -165 Q378 -128 378 -75 L378 590 Z M251 629 Q264 618 264 602 L264 -86 Q264 -102 251 -113 Q235 -124 219 -124 Q201 -124 187 -113 Q173 -102 173 -86 L173 602 Q173 618 188 629 Q201 640 219 640 Q235 640 251 629 Z M254 602 Q254 613 245 621 Q233 630 219 630 Q203 630 193 621 Q183 614 183 602 L183 -86 Q183 -97 193 -106 Q204 -114 219 -114 Q232 -114 245 -106 Q254 -97 254 -86 L254 602 Z " />
<glyph glyph-name="p" unicode="p" horiz-adv-x="437" d="M218 630 Q237 630 250 620 Q264 609 264 591 L264 455 Q263 422 263 390 Q263 358 263 318 Q263 295 253 285 Q243 275 225 273 Q207 271 178 271 L173 271 L173 630 L218 630 Z M254 591 Q254 604 244 612 Q235 620 218 620 L182 620 L182 281 Q207 281 222.5 282.5 Q238 284 246 292 Q254 300 254 318 L254 455 L254 591 Z M340 680 Q387 644 387 582 L387 302 Q387 260 364 237 Q341 214 309 202.5 Q277 191 242 189 Q207 187 182 187 L182 -197 L50 -197 L50 716 L218 716 Q260 716 287.5 708 Q315 700 340 680 Z M378 582 Q378 638 334 673 Q311 691 284.5 698.5 Q258 706 218 706 L59 706 L59 -188 L173 -188 L173 197 L178 197 Q213 197 248.5 200.5 Q284 204 313 215 Q342 226 360 246.5 Q378 267 378 302 L378 582 Z " />
<glyph glyph-name="q" unicode="q" horiz-adv-x="468" d="M403 -75 Q403 -111 381 -142 L420 -195 L326 -264 L263 -208 Q239 -210 212 -208.5 Q185 -207 168 -204 Q129 -195 92 -150 Q65 -116 65 -75 L65 590 Q65 647 115 688 Q166 728 234 728 Q302 728 353 688 Q403 647 403 590 L403 -75 Z M369 -142 L371 -140 Q393 -111 393 -75 L393 590 Q393 644 347 681 Q301 718 234 718 Q167 718 121 681 Q75 644 75 590 L75 -75 Q75 -113 100 -144 Q133 -186 170 -194 Q187 -198 214 -199 Q241 -200 265 -198 L267 -198 L327 -252 L406 -193 L369 -142 Z M266 629 Q279 618 279 602 L279 -86 Q279 -102 266 -113 L265 -113 Q251 -124 234 -124 Q216 -124 202 -113 Q189 -103 189 -86 L189 602 Q189 619 202 629 Q216 640 234 640 Q250 640 266 629 Z M269 602 Q269 613 260 621 Q248 630 234 630 Q218 630 208 621 Q198 613 198 602 L198 -86 Q198 -96 208 -106 Q219 -114 234 -114 Q247 -114 260 -106 Q269 -97 269 -86 L269 602 Z " />
<glyph glyph-name="r" unicode="r" horiz-adv-x="458" d="M352 680 Q398 643 398 583 L398 302 Q398 285 394 272.5 Q390 260 384.5 251.5 Q379 243 372.5 237.5 Q366 232 361 229 Q371 222 384.5 204 Q398 186 398 153 L398 -197 L265 -197 L265 136 Q265 154 256 163 Q248 170 233.5 173.5 Q219 177 194 177 L193 177 L193 -197 L60 -197 L60 716 L229 716 Q270 716 298.5 708 Q327 700 352 680 Z M389 583 Q389 638 346 673 Q323 691 295.5 699 Q268 707 229 707 L70 707 L70 -187 L183 -187 L183 186 L188 186 Q218 186 235.5 182.5 Q253 179 263 170 Q274 157 274 136 L274 -187 L389 -187 L389 153 Q389 173 383 187 Q377 201 369.5 209.5 Q362 218 355.5 222 Q349 226 349 226 L336 231 L349 235 Q350 235 356 237.5 Q362 240 369.5 247.5 Q377 255 383 268 Q389 281 389 302 L389 583 Z M261 620 Q274 610 274 594 L274 319 Q274 296 263 285 Q253 275 235 273.5 Q217 272 189 272 L188 272 L183 272 L183 630 L229 630 Q248 630 261 620 Z M264 319 Q264 347 264 393 Q264 439 264.5 483.5 Q265 528 265 560.5 Q265 593 265 594 Q265 606 255 613 Q242 621 229 621 L193 621 L193 281 Q218 281 233.5 282.5 Q249 284 257 292 Q265 302 264 319 Z " />
<glyph glyph-name="s" unicode="s" horiz-adv-x="446" d="M257 405 L257 601 Q257 613 248 621 Q237 629 222 629 Q205 629 196 621 Q187 613 187 601 L187 349 Q187 336 194 329 Q205 321 218 321 L241 321 Q293 321 330 298 Q359 278 374 247 Q392 210 391 174 L391 -85 Q385 -140 336 -175 Q288 -211 222 -211 Q156 -211 108 -175 Q59 -140 53 -87 L53 148 L187 149 L187 -85 Q187 -96 196 -105 Q207 -113 222 -113 Q235 -113 248 -105 Q257 -96 257 -85 L257 173 Q257 201 226 201 L218 201 Q146 201 97 247 Q53 286 53 339 L53 590 Q53 648 103 687 Q153 728 222 728 Q291 728 341 687 Q391 648 391 590 L391 405 L257 405 Z M253 629 Q267 617 267 601 L267 415 L382 415 L381 590 Q381 643 335 680 Q288 718 222 718 Q156 718 109 680 Q63 643 63 590 L63 339 Q63 290 103 253 Q149 211 218 211 L226 211 Q252 211 259.5 198.5 Q267 186 267 173 L267 -85 Q267 -101 254 -112 Q238 -123 222 -123 Q204 -123 190 -112 Q177 -102 177 -85 L177 139 L63 138 L63 -87 Q68 -135 113 -168 Q161 -202 222 -202 Q284 -202 330 -168 Q376 -135 381 -85 L381 174 Q382 208 366 243 Q351 272 325 290 Q292 311 241 311 L218 311 Q201 311 188 322 Q177 333 177 349 L177 601 Q177 617 190 629 Q205 639 222 639 Q240 639 253 629 Z " />
<glyph glyph-name="t" unicode="t" horiz-adv-x="370" d="M39 608 L39 716 L331 716 L331 608 L250 608 L250 -198 L120 -198 L120 608 L39 608 Z M48 706 L48 617 L129 617 L129 -188 L241 -188 L241 617 L322 617 L322 706 L48 706 Z " />
<glyph glyph-name="u" unicode="u" horiz-adv-x="468" d="M270 716 L403 716 L403 -74 Q403 -130 353 -171 Q304 -211 234 -211 Q164 -211 115 -171 Q65 -130 65 -74 L65 716 L198 716 L198 -85 Q198 -96 208 -105 Q219 -113 234 -113 Q247 -113 260 -105 Q270 -95 270 -85 L270 716 Z M279 -85 Q279 -102 266 -112 Q252 -123 234 -123 Q216 -123 203 -112 Q188 -102 188 -85 L188 706 L75 706 L75 -74 Q75 -127 121 -164 Q168 -202 234 -202 Q300 -202 347 -164 Q393 -127 393 -74 L393 706 L279 706 L279 -85 Z " />
<glyph glyph-name="v" unicode="v" horiz-adv-x="414" d="M207 295 L263 716 L394 716 L394 710 L272 -198 L142 -198 L19 716 L150 716 L207 295 Z M384 706 L272 706 L207 223 L142 706 L30 706 L150 -188 L263 -188 L384 706 Z " />
<glyph glyph-name="w" unicode="w" horiz-adv-x="629" d="M429 305 L466 716 L597 716 L596 710 L502 -198 L372 -198 L314 217 L257 -198 L127 -198 L127 -193 L32 716 L163 716 L200 305 L249 716 L380 716 L429 305 Z M586 706 L474 706 L431 213 L372 706 L257 706 L199 213 L155 706 L43 706 L136 -188 L249 -188 L314 287 L380 -188 L493 -188 L586 706 Z " />
<glyph glyph-name="x" unicode="x" horiz-adv-x="411" d="M256 716 L387 716 L271 259 L387 -198 L256 -198 L205 29 L156 -198 L24 -198 L140 259 L24 716 L156 716 L205 489 L256 716 Z M375 -188 L261 259 L262 261 L375 706 L264 706 L205 445 L148 706 L36 706 L149 259 L149 258 L36 -188 L148 -188 L205 73 L264 -188 L375 -188 Z " />
<glyph glyph-name="y" unicode="y" horiz-adv-x="456" d="M228 379 L299 716 L431 716 L429 710 L294 113 L294 -198 L163 -198 L163 114 L162 116 L26 716 L158 716 L228 379 Z M419 706 L307 706 L228 332 L150 706 L38 706 L171 122 L172 122 L172 117 L172 -188 L285 -188 L285 122 L286 122 L419 706 Z " />
<glyph glyph-name="z" unicode="z" horiz-adv-x="372" d="M323 611 L163 -90 L323 -90 L323 -198 L30 -198 L30 -94 L191 608 L30 608 L30 716 L323 716 L323 611 Z M314 -99 L151 -99 L152 -93 L314 613 L314 706 L40 706 L40 617 L203 617 L40 -95 L40 -188 L314 -188 L314 -99 Z " />
<glyph glyph-name="m" unicode="m" horiz-adv-x="588" d="M396 716 L528 716 L528 -198 L396 -198 L396 147 L349 -198 L236 -198 L191 139 L191 -198 L60 -198 L60 716 L190 716 L191 712 L294 213 L396 716 Z M403 706 L294 170 L183 706 L69 706 L69 -188 L182 -188 L182 203 L191 204 L244 -188 L341 -188 L396 211 L406 211 L406 -188 L518 -188 L518 706 L403 706 Z " />
<glyph glyph-name="D" unicode="D" horiz-adv-x="438" d="M340 681 Q388 643 388 582 L388 -64 Q388 -123 341 -161 Q315 -181 287 -189.5 Q259 -198 219 -198 L50 -198 L50 716 L219 716 Q263 716 289 708.5 Q315 701 340 681 Z M379 582 Q379 602 370.5 627 Q362 652 334 674 Q311 692 286 699 Q261 706 219 706 L60 706 L60 -188 L219 -188 Q257 -188 284 -180 Q311 -172 335 -153 Q379 -118 379 -64 L379 582 Z M251 620 Q264 610 264 594 L264 -75 Q264 -91 251 -101 Q237 -112 219 -112 L173 -112 L173 630 L219 630 Q238 630 251 620 Z M255 594 Q255 604 245 612 Q234 621 219 621 L183 621 L183 -102 L219 -102 Q234 -102 245 -94 Q255 -86 255 -75 L255 594 Z " />
<glyph glyph-name="quotedblleft" unicode="&#x201c;" horiz-adv-x="310" d="M23 728 L154 728 L153 609 L107 506 L53 506 L60 606 L23 606 L23 728 Z M32 615 L70 615 L63 516 L101 516 L144 612 L144 718 L32 718 L32 615 Z M160 728 L291 728 L290 609 L245 506 L190 506 L197 606 L160 606 L160 728 Z M170 615 L208 615 L200 516 L238 516 L281 612 L281 718 L170 718 L170 615 Z " />
<glyph glyph-name="quotedblright" unicode="&#x201d;" horiz-adv-x="314" d="M23 728 L154 728 L153 609 L107 506 L53 506 L60 606 L23 606 L23 728 Z M32 615 L70 615 L63 516 L101 516 L144 612 L144 718 L32 718 L32 615 Z M160 728 L291 728 L290 609 L245 506 L190 506 L197 606 L160 606 L160 728 Z M170 615 L208 615 L200 516 L238 516 L281 612 L281 718 L170 718 L170 615 Z " />
<glyph glyph-name="quoteright" unicode="&#x2019;" horiz-adv-x="158" d="M49 606 L12 606 L12 728 L143 728 L142 609 L96 506 L42 506 L49 606 Z M60 615 L52 516 L90 516 L133 612 L133 718 L22 718 L22 615 L60 615 Z " />
<glyph glyph-name="quoteleft" unicode="&#x2018;" horiz-adv-x="157" d="M49 606 L12 606 L12 728 L143 728 L142 609 L96 506 L42 506 L49 606 Z M60 615 L52 516 L90 516 L133 612 L133 718 L22 718 L22 615 L60 615 Z " />
<glyph glyph-name="B" unicode="B" horiz-adv-x="423" d="M240 620 Q253 610 253 594 L253 384 Q253 360 242 350 Q233 341 217 337 Q201 333 173 333 L167 333 L163 333 L163 631 L208 631 Q226 631 240 620 Z M244 594 Q244 605 234 612 Q223 621 208 621 L172 621 L172 343 L173 343 Q222 343 235 356 Q244 365 244 384 L244 594 Z M377 366 Q377 333 364 315 Q351 297 340 290 Q345 287 351.5 281.5 Q358 276 363.5 267.5 Q369 259 373 246.5 Q377 234 377 217 L377 -64 Q377 -118 327 -159 Q301 -179 273.5 -188 Q246 -197 208 -197 L40 -197 L40 716 L208 716 Q252 716 277.5 708.5 Q303 701 328 681 Q352 662 364.5 637 Q377 612 377 583 L377 366 Z M328 293 Q329 293 335 297 Q341 301 348.5 309.5 Q356 318 362 332 Q368 346 368 366 L368 583 Q368 609 356.5 633 Q345 657 322 674 Q298 693 274 700 Q250 707 208 707 L49 707 L49 -188 L208 -188 Q250 -188 274.5 -178 Q299 -168 321 -151 Q368 -115 368 -64 L368 217 Q368 238 362 251.5 Q356 265 349 272 Q342 279 335.5 281.5 Q329 284 329 284 L316 288 L328 293 Z M253 -75 Q253 -91 240 -101 Q227 -111 208 -111 L163 -111 L163 248 L167 248 L168 248 Q197 248 215 246 Q233 244 243 234 Q253 223 253 201 L253 -75 Z M234 -93 Q244 -86 244 -75 Q244 -75 244 -59.5 Q244 -44 244 -19.5 Q244 5 244 35.5 Q244 66 244 96.5 Q244 127 244 154.5 Q244 182 244 201 Q244 217 236 227 Q228 235 212.5 236.5 Q197 238 172 238 L172 -102 L208 -102 Q223 -102 234 -93 Z " />
<glyph glyph-name="C" unicode="C" horiz-adv-x="437" d="M342 688 Q392 647 392 590 L392 332 L259 332 L259 602 Q259 614 249 621 Q238 630 223 630 Q208 630 198 621 Q187 613 187 602 L187 -86 Q187 -97 198 -106 Q209 -114 223 -114 Q238 -114 249 -106 Q259 -97 259 -86 L259 184 L392 184 L392 -75 Q392 -131 342 -172 Q293 -212 223 -212 Q153 -212 104 -172 Q55 -132 55 -75 L55 590 Q55 648 104 688 Q155 728 223 728 Q291 728 342 688 Z M383 590 Q383 642 336 681 Q290 718 223 718 Q157 718 110 681 Q64 643 64 590 L64 -75 Q64 -127 110 -165 Q159 -203 223 -203 Q289 -203 336 -165 Q383 -127 383 -75 L383 174 L268 174 L268 -86 Q268 -103 255 -113 Q241 -124 223 -124 Q205 -124 192 -113 Q178 -103 178 -86 L178 602 Q178 619 192 629 Q205 640 223 640 Q241 640 255 629 Q268 619 268 602 L268 342 L383 342 L383 590 Z " />
<glyph glyph-name="A" unicode="A" horiz-adv-x="391" d="M131 716 L260 716 L383 -198 L252 -198 L238 -108 L153 -108 L139 -198 L8 -198 L9 -192 L131 716 Z M260 -188 L373 -188 L252 706 L139 706 L19 -188 L131 -188 L145 -99 L247 -99 L260 -188 Z M191 366 L200 366 L232 -10 L159 -10 L191 366 Z M169 -1 L222 -1 L196 309 L169 -1 Z " />
</font>
</svg>
