<?xml version="1.0" encoding="UTF-8"?>
<svg xmlns="http://www.w3.org/2000/svg" xmlns:xlink="http://www.w3.org/1999/xlink" version="1.2" >
<font id="Serrona Script">
<font-face  font-family="Serrona Script" units-per-em="1000" ascent="750" descent="-250" font-style="normal" font-weight="250" font-stretch="normal" cap-height="714" x-height="311" underline-position="-75" underline-thickness="50" />
<missing-glyph  horiz-adv-x="178" d="" />
<glyph glyph-name="NULL" d="" />
<glyph glyph-name="nonmarkingreturn" unicode="&#xd;" horiz-adv-x="178" d="" />
<glyph glyph-name="space" unicode="&#x20;" horiz-adv-x="178" d="" />
<glyph glyph-name="E" unicode="E" horiz-adv-x="380" d="M260 85 Q260 85 262 89 L263 89 Q263 87 263.5 86.5 Q264 86 264 85 Q263 83 263 82 Q263 81 261 79 Q247 52 231 26.5 Q215 1 197 -24 Q171 -62 143 -98.5 Q115 -135 85 -171 Q80 -177 74 -182.5 Q68 -188 60 -193 Q46 -200 30 -193 Q26 -191 21.5 -188.5 Q17 -186 13 -183 Q5 -177 0 -167.5 Q-5 -158 -7 -148 Q-12 -122 -6 -89 Q-1 -62 8.5 -36.5 Q18 -11 32 13 Q88 115 171 194 Q171 197 173 197 L173 198 Q171 198 170 197 Q150 189 131.5 181.5 Q113 174 92 169 Q77 165 60 163 Q47 161 36 167 Q34 169 32 169 Q20 174 15.5 183.5 Q11 193 12 205 Q14 216 18 227 Q22 238 27 249 Q39 277 52.5 302 Q66 327 81 352 Q126 424 179 488 Q232 552 295 610 Q337 649 385 682 Q399 690 412 696.5 Q425 703 439 707 Q459 712 473 708 Q492 701 491 679 Q489 668 485.5 658 Q482 648 477 639 Q466 619 454.5 600.5 Q443 582 430 565 Q407 530 382.5 495.5 Q358 461 335 426 Q316 397 297.5 367 Q279 337 260 307 Q258 304 256 298 Q255 294 252 296 Q248 298 246 298 Q239 302 242 308 Q244 318 248 325 Q259 344 269.5 362.5 Q280 381 293 400 Q318 438 343.5 476 Q369 514 395 552 Q410 574 424 596 Q438 618 452 641 Q457 650 462 659 Q467 668 469 679 Q470 683 470.5 686.5 Q471 690 470 695 Q466 694 462 693.5 Q458 693 455 692 Q441 688 428.5 681 Q416 674 405 666 Q366 643 329 609 Q264 550 210.5 484.5 Q157 419 109 346 Q94 322 80.5 299.5 Q67 277 56 251 Q51 240 46 228 Q41 216 39 202 Q37 199 37 194.5 Q37 190 37 187 Q39 180 45 180 Q64 182 77 187 Q102 195 124.5 203 Q147 211 170 220 L206 235 Q211 237 216 237 Q221 237 226 235 Q231 233 232.5 227.5 Q234 222 229 218 Q221 208 209 200 Q161 155 123 105 Q85 55 55 -2 Q44 -22 34.5 -43.5 Q25 -65 19 -87 Q17 -99 15.5 -110 Q14 -121 14 -132 Q15 -141 17 -150 Q19 -159 24 -169 Q29 -176 30.5 -176.5 Q32 -177 40 -173 Q48 -168 54.5 -162 Q61 -156 66 -149 Q101 -111 131.5 -71 Q162 -31 193 11 Q206 31 218.5 50.5 Q231 70 245 90 Q247 91 247.5 92.5 Q248 94 250 93 Q252 93 254.5 92.5 Q257 92 259 92 Q262 90 260 88 Q260 86 259 85 L260 85 Z M89 329 Q78 309 67.5 289 Q57 269 48 249 Q59 269 68.5 288.5 Q78 308 89 329 Z M70 39 Q48 3 32 -32 Q42 -15 51 3 Q60 21 70 39 Z " />
<glyph glyph-name="F" unicode="F" horiz-adv-x="473" d="M670 690 Q669 684 664 689 Q659 691 655 690.5 Q651 690 647 689 Q618 682 589 675.5 Q560 669 531 662 Q467 647 403.5 630.5 Q340 614 277 597 Q274 597 271 593 Q241 531 213 469.5 Q185 408 159 343 Q156 337 153.5 330.5 Q151 324 147 317 L147 316 Q150 316 151 317 Q214 337 278 357 Q342 377 406 395 Q415 397 424 399 Q433 401 442 403 Q450 404 460 401 Q469 398 466 389 Q464 384 461 386 Q456 387 452 386 Q435 381 417.5 376.5 Q400 372 383 367 Q329 350 277 333.5 Q225 317 172 300 Q164 297 156 294 Q148 291 140 289 Q135 287 134 282 Q105 211 78.5 139 Q52 67 26 -5 Q10 -46 -4.5 -86.5 Q-19 -127 -34 -168 Q-36 -174 -37 -179 Q-38 -184 -40 -189 Q-40 -192 -41 -192 Q-44 -195 -44 -195 Q-45 -195 -45.5 -194 Q-46 -193 -47 -193 Q-46 -192 -46 -192 Q-49 -192 -49 -192 Q-64 -189 -60 -174 Q-57 -163 -53.5 -152 Q-50 -141 -47 -130 Q-12 -28 24 71 Q60 170 98 270 Q98 272 99 274 Q98 273 96 273 Q85 269 73.5 265 Q62 261 51 256 Q48 254 45 255 Q42 256 40 257 Q35 258 33 261 Q30 265 34 268 Q39 270 42.5 272 Q46 274 50 276 Q64 283 78.5 288.5 Q93 294 107 301 Q111 303 111 305 Q168 449 238 583 Q238 584 238.5 584.5 Q239 585 239 587 Q235 585 235 585 Q211 577 187 570.5 Q163 564 138 556 Q133 554 128 553.5 Q123 553 118 551 Q112 551 110 552 Q108 553 106.5 553.5 Q105 554 103 555 Q100 558 100 560 Q100 562 104 562 Q124 569 144.5 575 Q165 581 185 588 Q201 593 217 597.5 Q233 602 249 607 Q250 608 251 608 Q252 608 252 610 Q264 632 275.5 654 Q287 676 297 700 Q298 702 298.5 704 Q299 706 300 708 Q301 712 306 712 Q309 711 312 710.5 Q315 710 317 707 Q322 704 320 700 Q318 695 317 690.5 Q316 686 314 681 Q300 651 285 620 L285 619 Q285 618 284.5 618 Q284 618 284 617 Q291 619 297 620 Q303 621 310 623 Q355 634 397 645.5 Q439 657 483 668 Q515 676 545 682.5 Q575 689 606 697 Q617 699 627.5 700 Q638 701 649 703 Q659 706 668 698 Q668 697 670 695 L670 690 Z M265 593 Q231 527 202 461 Q173 395 144 326 Q173 394 202.5 460.5 Q232 527 265 593 Z M294 648 Q293 649 293 649 Q289 639 286 635 Q289 638 290.5 641.5 Q292 645 294 648 Z " />
<glyph glyph-name="G" unicode="G" horiz-adv-x="462" d="M-11 -27 Q-10 -22 -10 -16 Q-10 -10 -10 -5 Q-8 21 -4 46.5 Q0 72 6 98 Q39 239 103 369 Q151 466 217 555 Q237 581 257.5 604.5 Q278 628 302 649 Q316 662 332 673 Q348 684 365 692 Q387 700 407 699 Q424 697 435.5 686.5 Q447 676 450 658 Q452 644 450.5 631.5 Q449 619 445 606 Q437 576 426.5 548 Q416 520 402 492 Q390 470 378 449 Q366 428 352 409 Q347 401 343 396 Q339 391 334 386 Q333 385 330 385 L330 388 Q328 386 326 387 Q324 388 321 389 Q316 393 320 398 Q329 412 337.5 425 Q346 438 354 451 Q369 479 382.5 506 Q396 533 408 562 Q414 579 419 595.5 Q424 612 428 629 Q430 638 430.5 648 Q431 658 428 667 Q425 681 420.5 683.5 Q416 686 405 684 Q384 681 364 668 Q328 645 298 611 Q273 585 251.5 557 Q230 529 210 498 Q153 412 113 321 Q73 230 47 131 Q41 108 36.5 86.5 Q32 65 28 44 Q24 18 21 -6.5 Q18 -31 20 -56 Q21 -73 23.5 -89.5 Q26 -106 34 -121 Q36 -124 37.5 -127 Q39 -130 41 -133 Q48 -144 56 -146.5 Q64 -149 76 -147 Q89 -143 99 -136.5 Q109 -130 119 -122 Q136 -110 150 -95.5 Q164 -81 178 -66 Q234 -1 282 68 Q296 88 307.5 109 Q319 130 331 152 Q331 153 331.5 153 Q332 153 332 155 Q330 155 330 154 Q288 140 247 124 Q206 108 166 89 Q146 81 127 70.5 Q108 60 89 51 Q88 50 85 50 Q84 51 84 52 Q82 51 77.5 53.5 Q73 56 72 58 Q70 61 74 63 Q85 68 94 75 Q103 82 113 87 Q136 99 158.5 108.5 Q181 118 205 127 Q239 141 273.5 153 Q308 165 343 179 Q344 180 345 180.5 Q346 181 347 182 Q351 192 357 203 Q360 209 361.5 209 Q363 209 368 208 Q372 206 375 204 Q379 201 378 198.5 Q377 196 376 193 L376 191 Q377 191 377.5 191.5 Q378 192 380 192 Q393 195 405 198.5 Q417 202 429 204 Q441 207 455 204 Q463 202 472 193 Q475 191 473 187 Q472 184 469 185 Q466 187 463.5 188 Q461 189 458 191 Q455 192 452 191 Q430 188 412 182 Q401 179 389 175.5 Q377 172 366 168 Q363 165 363 165 Q342 116 314.5 73 Q287 30 255 -11 Q238 -34 221.5 -54.5 Q205 -75 187 -97 Q174 -112 161 -125.5 Q148 -139 131 -151 Q111 -165 90 -169 Q74 -172 59 -166 Q51 -162 44 -158.5 Q37 -155 30 -150 Q8 -131 1 -108 Q-5 -91 -7.5 -74.5 Q-10 -58 -10 -41 Q-10 -39 -10.5 -38.5 Q-11 -38 -11 -37 L-11 -27 Z M89 279 Q109 331 133.5 379 Q158 427 186 473 Q157 427 132.5 379 Q108 331 89 279 Z M328 107 Q332 113 335 119.5 Q338 126 343 133 Q338 127 334.5 120.5 Q331 114 328 108 L328 107 Z M403 505 L402 505 Q400 502 399 498.5 Q398 495 396 492 Q398 495 399.5 498 Q401 501 403 505 Z " />
<glyph glyph-name="H" unicode="H" horiz-adv-x="448" d="M172 278 Q182 280 191 280.5 Q200 281 209 283 Q220 285 231 285.5 Q242 286 253 288 L298 294 Q305 295 311 295.5 Q317 296 324 296 Q327 296 328 300 Q347 340 365 380 Q383 420 402 460 Q420 497 438.5 533.5 Q457 570 475 607 Q484 625 492.5 643.5 Q501 662 510 681 Q511 684 515 690 Q516 694 520 692 L523 692 Q535 689 530 680 L518 650 Q501 614 484.5 578.5 Q468 543 451 507 Q430 459 408.5 413 Q387 367 366 319 Q364 315 362.5 311 Q361 307 359 303 Q358 302 358 301.5 Q358 301 357 300 Q363 300 368.5 300.5 Q374 301 379 302 Q387 302 393.5 301.5 Q400 301 407 299 Q413 298 420 291 Q423 286 420 283 Q419 282 416 282 Q411 286 405.5 286 Q400 286 395 286 Q384 284 373.5 283.5 Q363 283 352 281 Q348 281 347 278 Q311 194 275 112 Q239 30 203 -54 Q200 -61 197 -68 Q194 -75 191 -83 Q190 -87 189.5 -90 Q189 -93 188 -97 Q186 -104 180 -100 Q176 -98 173 -98 Q163 -93 166 -82 Q169 -73 172 -63.5 Q175 -54 179 -45 Q201 6 222.5 56 Q244 106 266 157 Q279 186 291.5 215.5 Q304 245 317 275 Q318 275 318 277 Q315 277 312 276.5 Q309 276 306 276 L213 264 Q202 262 190 260.5 Q178 259 167 258 Q164 257 161 253 Q149 224 137 194 Q125 164 112 135 Q91 83 70 31.5 Q49 -20 29 -72 Q21 -92 14 -112 Q7 -132 -1 -152 Q-2 -155 -4 -163 Q-4 -166 -8 -164 Q-13 -162 -18 -159 Q-24 -158 -22 -150 Q-20 -144 -18.5 -138 Q-17 -132 -15 -126 Q-4 -96 7 -66 Q18 -36 30 -7 Q55 58 80 121.5 Q105 185 131 250 Q131 251 131.5 251 Q132 251 132 253 Q130 252 128 252 Q126 252 124 251 Q107 248 90 245 Q73 242 56 239 Q54 238 51 238 Q48 238 45 237 Q38 237 33 241 Q28 242 25 246 Q20 251 27 253 Q48 258 69.5 262.5 Q91 267 113 270 Q120 271 126.5 272 Q133 273 139 274 Q142 274 142 277 Q147 290 152.5 302.5 Q158 315 164 328 Q188 385 213.5 439.5 Q239 494 266 549 Q280 576 293 603 Q306 630 320 656 Q322 661 323.5 665 Q325 669 327 674 Q328 678 333 677 L334 676 Q338 677 342 674 Q346 671 344 666 Q343 663 342.5 659.5 Q342 656 341 653 Q333 636 326 620 Q319 604 311 587 Q285 531 259 476 Q233 421 209 364 Q200 343 191 322 Q182 301 173 281 Q173 280 172 278 Z M313 215 Q311 213 311 213 Q305 199 299 185 Q293 171 287 157 Q285 153 284 150 Q283 147 281 143 Q282 144 282 144.5 Q282 145 283 146 Q289 161 295.5 175.5 Q302 190 309 205 Q311 211 313 215 L314 216 Q321 232 327.5 247 Q334 262 341 278 Q341 279 342 279 Q340 278 340 278 Q334 264 328 250 Q322 236 315 222 Q314 220 314 218.5 Q314 217 313 215 Z M429 473 Q428 471 428 471 Q408 428 389 386 Q370 344 351 301 Q350 301 350 299 Q352 301 352 302 Q370 343 388.5 383 Q407 423 425 464 Q427 467 429 473 L438 491 L437 491 Q435 486 433 482 Q431 478 429 473 Z M283 540 L281 538 Q252 476 224 414 Q196 352 169 289 Q168 286 164 278 L166 278 L169 287 Q195 349 222 409.5 Q249 470 278 530 Q280 533 280.5 535.5 Q281 538 283 540 L292 558 L291 558 Q289 553 287 549 Q285 545 283 540 Z M245 62 L246 62 Q248 67 250 71 Q252 75 254 79 Q253 80 253 80 Q251 75 249 71 Q247 67 245 62 Z M236 39 Q238 44 240 48 Q242 52 244 57 L243 57 Q241 52 239.5 48 Q238 44 236 39 Z M300 576 Q295 568 292 560 L293 560 Q295 564 296.5 567.5 Q298 571 300 576 Z M266 108 Q264 105 263 101.5 Q262 98 260 95 L261 95 Q262 98 263 101 Q264 104 266 108 Z M232 29 L232 30 Q230 27 229 23.5 Q228 20 226 17 L227 17 Q229 20 229.5 23 Q230 26 232 29 Z M308 592 L308 593 Q304 585 303 582 Q306 587 308 592 Z " />
<glyph glyph-name="I" unicode="I" horiz-adv-x="205" d="M-47 -133 Q-42 -131 -37.5 -130 Q-33 -129 -28 -127 Q-14 -122 2 -118 Q18 -114 35 -110 Q39 -110 42.5 -110.5 Q46 -111 49 -115 Q51 -118 51 -121 Q52 -126 48 -126 Q23 -131 -0.5 -138.5 Q-24 -146 -48 -156 Q-49 -157 -50 -157 Q-59 -158 -57 -166 Q-58 -171 -63 -168 Q-65 -167 -68 -166 Q-71 -165 -73 -166 Q-84 -172 -95 -177.5 Q-106 -183 -117 -188 Q-121 -189 -123 -193 L-126 -193 Q-133 -192 -136 -190 Q-142 -188 -143 -183.5 Q-144 -179 -139 -175 Q-135 -171 -130 -168.5 Q-125 -166 -120 -164 Q-111 -159 -100.5 -155 Q-90 -151 -81 -145 Q-78 -145 -76 -141 Q-68 -121 -60.5 -99.5 Q-53 -78 -46 -57 Q-13 24 19.5 104.5 Q52 185 85 266 Q116 344 149.5 419 Q183 494 219 569 Q232 597 245.5 623.5 Q259 650 273 678 Q273 681 274 684 Q272 683 268 683 Q245 676 220.5 670 Q196 664 171 659 Q166 657 159 660 Q154 662 153 665 Q149 667 150 669 Q151 671 154 672 Q162 676 166 677 Q186 682 206.5 686.5 Q227 691 249 696 Q266 699 283 701.5 Q300 704 316 707 Q325 709 336 709 Q347 709 358 707 Q363 705 369.5 702.5 Q376 700 381 695 Q383 693 383 690 Q383 684 376 687 Q374 689 371.5 690.5 Q369 692 364 694 Q358 696 352 695 Q338 693 326.5 691.5 Q315 690 301 688 Q300 687 299 687 Q297 681 296.5 675.5 Q296 670 294 664 Q286 644 276 624.5 Q266 605 258 585 Q231 534 208 481.5 Q185 429 160 375 Q125 286 88.5 198.5 Q52 111 16 23 Q0 -16 -14.5 -53 Q-29 -90 -44 -127 Q-45 -129 -45.5 -130 Q-46 -131 -47 -133 Z M251 589 Q247 582 232.5 551 Q218 520 199 477 Q180 434 159 385 Q138 336 120 294 Q102 252 90 223.5 Q78 195 78 192 Q119 292 162.5 391 Q206 490 251 589 Z " />
<glyph glyph-name="J" unicode="J" horiz-adv-x="466" d="M516 622 Q516 617 514 609 Q512 593 507.5 577.5 Q503 562 498 547 Q487 513 474 480.5 Q461 448 447 416 Q418 348 388 281.5 Q358 215 326 149 Q324 147 323.5 144 Q323 141 321 139 L324 139 Q340 143 355.5 146.5 Q371 150 387 155 Q391 156 400 154 Q402 153 402.5 152 Q403 151 405 149 Q405 146 404 145 Q403 142 400 141 Q389 138 377 134.5 Q365 131 353 127 Q342 125 332.5 122.5 Q323 120 313 118 Q310 117 309 114 Q295 87 281 60.5 Q267 34 250 8 Q222 -37 189 -73 Q177 -85 164.5 -95 Q152 -105 138 -113 Q86 -143 31 -120 Q11 -112 -7 -100.5 Q-25 -89 -40 -72 Q-62 -50 -69 -23 Q-80 15 -45 36 Q-41 38 -37.5 40 Q-34 42 -30 44 Q-17 50 -4 54 Q9 58 23 62 Q86 81 149 97 Q212 113 276 127 Q279 128 280 131 Q337 243 388 359 Q405 398 422.5 437.5 Q440 477 457 517 Q467 539 475 561.5 Q483 584 489 607 Q492 618 494 629.5 Q496 641 495 652 Q495 657 494 661 Q493 665 491 670 Q491 676 483 675 Q478 674 473 673 Q468 672 462 670 Q449 665 437 658.5 Q425 652 414 644 Q374 618 337.5 589.5 Q301 561 268 527 Q234 494 209 458 Q208 456 207.5 455.5 Q207 455 206 453 Q202 446 198.5 439 Q195 432 193 424 Q193 421 190 421 Q190 421 188 423 L187 422 Q174 424 179 435 Q181 443 184 450 Q187 457 192 465 Q212 501 245 534 Q285 576 330 610.5 Q375 645 426 674 Q435 679 444.5 683 Q454 687 464 689 Q490 694 505 679 Q510 674 512 667.5 Q514 661 515 654 Q517 646 517 642 Q516 637 516 632 Q516 627 516 622 Z M267 106 Q265 106 264 105.5 Q263 105 262 105 Q205 91 149.5 76 Q94 61 37 44 Q23 40 9.5 36 Q-4 32 -16 25 Q-22 22 -27.5 18.5 Q-33 15 -38 10 Q-51 -2 -48 -19 Q-48 -27 -45 -35 Q-42 -43 -37 -50 Q-12 -88 30 -106 Q62 -119 95 -106 Q109 -101 120.5 -93.5 Q132 -86 143 -76 Q171 -49 194 -16 Q214 11 230.5 40 Q247 69 263 99 Q264 101 264.5 102.5 Q265 104 267 106 Z M311 136 Q348 210 381 284 Q414 358 447 433 Q413 358 380 284 Q347 210 311 136 Z M300 115 Q290 98 281.5 81.5 Q273 65 263 48 Q253 31 243 15 Q233 -1 224 -16 Q228 -11 240.5 8 Q253 27 265.5 48.5 Q278 70 288.5 89.5 Q299 109 300 115 Z M455 453 L455 454 Q453 450 452 447 Q451 444 449 440 Q451 443 452 446 Q453 449 455 452 L455 453 Z " />
<glyph glyph-name="K" unicode="K" horiz-adv-x="480" d="M106 186 Q104 181 102.5 177 Q101 173 99 168 Q81 126 63.5 83.5 Q46 41 29 -1 Q14 -42 -0.5 -82 Q-15 -122 -30 -163 Q-36 -176 -39 -191 Q-41 -195 -45 -193 Q-47 -192 -48.5 -191.5 Q-50 -191 -51 -190 Q-53 -189 -54 -188 Q-55 -187 -57 -185 Q-59 -184 -57 -182 Q-49 -157 -40.5 -132 Q-32 -107 -23 -82 Q-9 -40 5.5 1 Q20 42 35 83 Q45 112 55.5 139 Q66 166 77 192 Q78 193 78 195 Q76 196 75.5 196 Q75 196 73 197 Q62 201 51 206 Q40 211 32 220 Q23 228 21 240 Q18 253 31 254 Q43 254 54 248 Q63 244 71.5 239 Q80 234 89 228 Q90 227 92 226 Q94 234 97 240.5 Q100 247 103 255 Q126 311 149 365.5 Q172 420 197 475 Q220 524 241.5 572.5 Q263 621 285 670 L291 685 Q292 688 291 689 Q290 690 290 694 Q292 698 294 701 Q296 704 298 708 Q299 711 305 711 Q307 710 310 709.5 Q313 709 315 706 Q317 704 317 702 Q317 699 317 695.5 Q317 692 315 689 Q309 675 303.5 661 Q298 647 292 633 Q260 555 227.5 477.5 Q195 400 161 322 Q151 298 141.5 274 Q132 250 122 227 Q122 226 121 225 Q124 225 125 226 Q142 234 158.5 244 Q175 254 190 265 Q223 289 252.5 316 Q282 343 311 371 Q364 423 413 475.5 Q462 528 509 585 Q525 603 540.5 622 Q556 641 571 661 Q573 663 574 665 Q575 667 577 669 Q580 672 584 671 Q586 671 587 670.5 Q588 670 590 670 Q592 668 594 667 L594 666 Q598 666 596 661 Q596 658 594 656 Q591 655 589 650 Q567 621 544.5 592.5 Q522 564 499 536 Q476 508 452 481 Q428 454 403 426 Q377 397 350.5 369.5 Q324 342 295 316 Q272 293 248 272.5 Q224 252 196 235 Q164 212 126 199 L125 199 Q129 195 137 189 Q159 169 180.5 148.5 Q202 128 225 108 Q274 62 323 17 Q372 -28 422 -74 Q430 -80 437 -86.5 Q444 -93 452 -99 Q462 -108 472 -110 Q475 -110 477 -113 Q479 -116 478 -119 Q478 -123 474 -123 Q469 -124 461 -120 Q450 -115 441 -109 Q432 -103 423 -95 Q394 -71 366.5 -46.5 Q339 -22 311 4 Q278 33 245 62.5 Q212 92 178 122 Q161 137 143.5 152.5 Q126 168 109 184 Q108 184 106 186 Z M185 395 Q178 381 174 369 Q172 367 172 366 Q158 331 143 295 Q128 259 114 224 Q113 222 113 222 Q112 222 115 225 Q129 259 143 293.5 Q157 328 171 362 Q173 366 174 369 Q176 373 177.5 377 Q179 381 181 386 Q182 388 183 390.5 Q184 393 185 395 Q186 399 190 407 L189 407 Q188 404 187 401 Q186 398 185 395 Z M73 215 Q67 220 61.5 224 Q56 228 50 232 Q49 233 46 233 Q47 225 55.5 219 Q64 213 73 215 Z M93 172 Q97 180 99 185 L98 185 Q96 182 95.5 178.5 Q95 175 93 172 Z M85 156 Q86 155 86 155 Q88 158 89 161.5 Q90 165 92 168 L91 168 Q89 162 85 156 Z " />
<glyph glyph-name="L" unicode="L" horiz-adv-x="315" d="M442 -104 Q437 -118 428 -123.5 Q419 -129 407 -131 Q380 -134 354 -131 Q332 -129 310 -127 Q288 -125 265 -123 Q246 -121 227.5 -118.5 Q209 -116 189 -113 Q168 -110 146.5 -107 Q125 -104 102 -100 Q83 -98 64.5 -95 Q46 -92 26 -89 Q12 -87 -3 -85 Q-18 -83 -33 -81 Q-35 -81 -37 -83 Q-45 -93 -52.5 -102.5 Q-60 -112 -68 -122 Q-79 -135 -91 -145.5 Q-103 -156 -117 -165 Q-138 -177 -160 -177 Q-168 -177 -175 -176 Q-182 -175 -187 -172 Q-192 -170 -196 -167.5 Q-200 -165 -204 -163 Q-226 -151 -233.5 -125.5 Q-241 -100 -230 -77 Q-219 -57 -193 -49 Q-174 -45 -150 -45 Q-127 -46 -105.5 -48.5 Q-84 -51 -62 -55 Q-56 -55 -54 -51 Q-31 -14 -11 25 Q9 64 28 105 Q52 156 75.5 208 Q99 260 122 312 Q151 379 182 444 Q213 509 245 575 Q257 598 267.5 620.5 Q278 643 289 667 Q290 668 290 671 Q288 672 286 672.5 Q284 673 283 674 Q279 677 282 680 Q286 685 289 690.5 Q292 696 296 702 Q305 711 315 702 Q319 699 319 696 Q319 693 318 690 Q312 668 304 648 Q292 616 277.5 584 Q263 552 249 520 Q217 455 188.5 389.5 Q160 324 132 257 L48 71 Q34 40 18.5 11 Q3 -18 -14 -47 Q-16 -50 -18 -53.5 Q-20 -57 -23 -61 Q-19 -61 -13 -63 Q14 -68 41 -71.5 Q68 -75 95 -80 Q118 -84 142.5 -87 Q167 -90 190 -94 Q208 -96 226.5 -98.5 Q245 -101 264 -104 Q292 -107 319.5 -109.5 Q347 -112 376 -113 Q381 -113 386 -112.5 Q391 -112 396 -111 Q412 -109 420 -97 Q421 -94 426 -94 L428 -96 Q430 -94 431.5 -95 Q433 -96 435 -96 Q439 -98 437.5 -100 Q436 -102 435 -105 Q437 -103 438 -102 Q439 -101 440 -100 Q441 -101 442 -101 L442 -104 Z M-70 -75 L-72 -75 Q-89 -73 -104.5 -71.5 Q-120 -70 -136 -69 Q-148 -68 -159 -68.5 Q-170 -69 -181 -73 Q-203 -80 -210 -97 Q-221 -120 -206 -144 Q-192 -164 -167 -159 Q-156 -157 -147 -152.5 Q-138 -148 -129 -142 Q-101 -118 -78 -86 Q-76 -84 -74.5 -81.5 Q-73 -79 -70 -75 Z M245 529 L245 530 Q243 526 243 526 Q220 472 195.5 419.5 Q171 367 148 313 Q125 262 103 212 Q81 162 58 111 Q38 67 16.5 25 Q-5 -17 -31 -58 L-31 -59 Q-29 -59 -29 -57 Q-15 -36 -3 -14.5 Q9 7 20 29 Q44 77 66 125 Q88 173 109 221 Q142 298 175.5 374.5 Q209 451 244 527 Q245 527 245 529 Z " />
<glyph glyph-name="M" unicode="M" horiz-adv-x="570" d="M11 48 L20 66 Q47 120 77.5 171 Q108 222 141 272 Q180 332 221.5 388.5 Q263 445 308 501 Q321 518 334.5 534 Q348 550 363 565 Q367 568 370 571 Q373 574 377 576 Q383 581 390.5 580 Q398 579 403 573 Q405 571 405.5 567.5 Q406 564 406 561 Q403 541 396 525 Q387 500 377.5 475 Q368 450 358 425 Q334 364 313 303 Q292 242 273 179 Q268 159 263 139.5 Q258 120 254 100 L254 94 Q254 95 256 97 Q267 117 279 136 Q291 155 303 175 Q337 231 374 284.5 Q411 338 450 390 Q482 433 514.5 474 Q547 515 582 556 Q593 568 603.5 580 Q614 592 625 603 Q628 608 633 608 Q640 609 647 604 Q651 600 649 594 Q648 589 644 581 Q634 564 624 546.5 Q614 529 604 512 Q580 469 559 425 Q538 381 518 335 Q494 278 472.5 221 Q451 164 430 106 Q410 50 390.5 -4.5 Q371 -59 354 -116 Q351 -127 348 -138 Q345 -149 343 -160 Q342 -163 342 -167 Q344 -169 344.5 -170.5 Q345 -172 347 -172 Q349 -173 349 -177 Q347 -184 341 -181 Q337 -180 329 -176 Q321 -170 323 -162 Q323 -147 328 -130 Q335 -101 344 -72.5 Q353 -44 362 -15 Q386 57 411 127 Q436 197 462 268 Q480 316 500.5 362.5 Q521 409 544 455 Q553 473 562.5 490.5 Q572 508 582 526 Q582 527 582.5 527 Q583 527 583 529 Q581 527 581 527 Q533 470 488 411 Q443 352 400 291 Q369 246 341 200 Q313 154 285 106 Q280 97 274 88 Q268 79 263 71 Q260 66 255 63 Q252 60 248 62 Q245 64 241 66 Q232 69 232 78 Q233 86 233 93.5 Q233 101 234 109 Q241 151 252 191.5 Q263 232 276 273 Q307 370 348 466 Q356 487 364.5 508 Q373 529 382 550 Q382 552 382.5 553 Q383 554 383 556 Q381 554 380 554 Q368 542 357 529.5 Q346 517 335 504 Q270 424 211.5 341 Q153 258 99 170 Q73 126 50 81 Q27 36 6 -10 Q2 -17 -1.5 -24 Q-5 -31 -9 -39 Q-10 -41 -10.5 -41.5 Q-11 -42 -12 -44 Q-16 -48 -18 -45 Q-22 -43 -25 -42 Q-32 -39 -31 -31 Q-29 -21 -27 -11 Q-25 -1 -22 9 Q-11 54 2 97 Q15 140 30 184 Q43 222 55.5 258.5 Q68 295 82 333 Q111 414 145.5 492.5 Q180 571 218 649 Q225 663 232 676.5 Q239 690 247 704 Q252 712 260 707 Q267 703 263 695 Q258 689 255 682 Q238 647 222 612 Q206 577 190 542 Q151 454 117.5 364.5 Q84 275 54 183 Q43 150 32.5 117 Q22 84 11 51 L11 48 Z M631 570 Q594 511 563.5 449.5 Q533 388 507 324 Q533 388 564 449 Q595 510 631 570 Z " />
<glyph glyph-name="N" unicode="N" horiz-adv-x="458" d="M-38 -45 Q-33 -35 -27 -26 Q-4 12 18 49.5 Q40 87 64 124 Q98 177 134.5 227 Q171 277 209 326 Q244 370 280 412 Q316 454 354 495 Q376 518 398.5 540.5 Q421 563 445 583 Q456 593 467 601.5 Q478 610 491 617 Q495 619 499 621 Q503 623 508 623 Q524 623 530 614 Q535 609 533 600 Q530 583 522 563 Q501 518 479 474 Q459 433 439 393 Q419 353 399 311 Q376 263 353.5 216.5 Q331 170 308 122 Q285 74 263 26.5 Q241 -21 218 -69 Q210 -84 204 -99.5 Q198 -115 192 -131 Q190 -133 190 -136 Q190 -139 189 -141 Q189 -144 186 -144 Q181 -146 183 -141 Q182 -141 181.5 -141.5 Q181 -142 180 -142 Q177 -140 174 -139 Q171 -138 169 -135 Q166 -131 168 -126 Q170 -118 172.5 -111 Q175 -104 178 -96 Q194 -60 210 -24.5 Q226 11 243 47 Q269 104 295.5 161 Q322 218 349 275 Q370 320 391.5 363 Q413 406 435 450 Q449 479 464 508 Q479 537 494 566 Q498 574 501 582.5 Q504 591 508 599 L508 602 Q505 600 502.5 599 Q500 598 497 596 Q473 581 449 558 Q419 532 391.5 504 Q364 476 337 447 Q293 399 252.5 349.5 Q212 300 174 248 Q134 194 98 139 Q62 84 28 27 Q15 5 2.5 -17 Q-10 -39 -24 -61 Q-27 -66 -30.5 -71 Q-34 -76 -37 -81 Q-39 -82 -39.5 -83 Q-40 -84 -42 -85 Q-46 -89 -51 -86 L-57 -83 Q-66 -80 -65 -71 Q-64 -64 -63 -57 Q-62 -50 -60 -43 Q-54 -18 -45.5 6.5 Q-37 31 -28 55 Q-8 109 14 160.5 Q36 212 59 264 Q79 310 100 355.5 Q121 401 144 447 Q164 488 186.5 528 Q209 568 232 607 Q241 623 249.5 638.5 Q258 654 267 669 Q269 671 269.5 672.5 Q270 674 272 675 Q272 676 277 678 Q280 678 282 676 Q291 674 287 666 Q282 658 277.5 649.5 Q273 641 268 632 Q245 590 222 547.5 Q199 505 177 461 Q153 412 130 363 Q107 314 86 263 Q61 206 37 148.5 Q13 91 -11 34 Q-19 15 -25 -4 Q-31 -23 -38 -42 Q-38 -43 -38.5 -43.5 Q-39 -44 -39 -45 L-38 -45 Z M210 -72 Q211 -70 211 -70 Q231 -28 249.5 12 Q268 52 288 93 Q315 150 342 206.5 Q369 263 396 320 Q419 365 441 409.5 Q463 454 485 499 Q493 516 501 533 Q509 550 517 567 Q517 568 517.5 568.5 Q518 569 518 570 Q486 504 453.5 439 Q421 374 389 308 Q344 214 299 120 Q254 26 210 -70 L210 -71 L210 -72 Z M157 434 Q157 433 158 433 Q161 440 164.5 446.5 Q168 453 171 460 L170 461 Q167 454 164 447.5 Q161 441 157 434 Z M178 475 Q180 480 182.5 483.5 Q185 487 187 492 L186 492 Q184 487 182 483.5 Q180 480 178 475 Z M155 429 Q153 426 151.5 422.5 Q150 419 148 416 Q149 416 149 415 Q151 419 152 422 Q153 425 155 429 Z " />
<glyph glyph-name="P" unicode="P" horiz-adv-x="503" d="M225 541 Q226 543 227.5 541.5 Q229 540 230 541 Q231 539 231.5 540 Q232 541 233 541 Q235 541 236.5 538.5 Q238 536 237 534 Q238 534 240 536 Q242 532 241 528 Q240 524 239 520.5 Q238 517 236 513 Q225 488 213 464 Q201 440 190 415 Q169 371 149.5 327 Q130 283 111 238 Q110 236 110 232 Q112 227 113.5 222.5 Q115 218 118 214 Q122 205 133 205 Q143 203 152.5 205 Q162 207 172 210 Q190 215 206 223.5 Q222 232 238 242 Q267 260 292.5 280 Q318 300 343 323 Q406 378 461 446 Q481 469 499 494 Q517 519 531 546 Q539 561 546 577 Q553 593 556 610 Q558 621 558.5 632.5 Q559 644 554 655 Q546 679 523 685 Q496 694 465 692 Q430 690 397.5 682.5 Q365 675 333 662 Q235 625 152 557 Q129 537 107.5 515.5 Q86 494 68 469 Q51 445 42 421 Q40 411 40 407 Q40 403 43 399 Q46 394 43 391 L40 391 Q39 391 38.5 391.5 Q38 392 36 392 Q20 399 23 418 Q24 428 27.5 436.5 Q31 445 36 454 Q56 491 89 524 Q137 575 193.5 612 Q250 649 316 675 Q363 692 408 701 Q428 705 446.5 706.5 Q465 708 485 706 Q519 704 543 690 Q557 681 567 669 Q577 657 580 640 Q583 619 578 595 Q573 573 563.5 553 Q554 533 543 513 Q525 482 503.5 453.5 Q482 425 459 397 Q433 367 404.5 338.5 Q376 310 345 284 Q320 262 293.5 243 Q267 224 238 208 Q222 200 206 194 Q190 188 172 185 Q137 178 105 202 Q101 206 99 207 Q98 207 98 205 Q72 136 47 68 Q22 0 -1 -70 Q-6 -87 -10.5 -104.5 Q-15 -122 -20 -139 Q-22 -145 -22 -147 Q-22 -149 -21.5 -150.5 Q-21 -152 -21 -154 L-19 -152 Q-14 -157 -20 -163 Q-23 -167 -28 -164 Q-30 -163 -31.5 -162.5 Q-33 -162 -35 -161 Q-47 -155 -47 -143 Q-46 -136 -45 -129 Q-44 -122 -42 -115 Q-35 -90 -28 -65.5 Q-21 -41 -13 -16 Q5 42 25 99 Q45 156 65 213 Q70 227 75 240.5 Q80 254 85 268 Q87 273 87.5 278 Q88 283 90 288 Q95 311 103.5 331.5 Q112 352 122 373 Q136 401 151.5 427.5 Q167 454 182 481 L215 538 Q217 543 223 543 Q223 543 225 541 Z M223 502 Q192 442 163.5 380 Q135 318 110 255 Q136 318 164.5 379.5 Q193 441 223 502 Z M560 559 Q553 546 546 532.5 Q539 519 531 505 Q550 534 560 559 Z " />
<glyph glyph-name="Q" unicode="Q" horiz-adv-x="578" d="M295 -15 Q287 -20 279.5 -26 Q272 -32 264 -37 Q221 -66 173 -78 Q153 -83 134.5 -83 Q116 -83 96 -77 Q77 -71 60 -61 Q43 -51 30 -35 Q18 -21 11 -5.5 Q4 10 -1 27 Q-11 68 -8 113 Q-4 197 21 272.5 Q46 348 91 419 Q118 460 151 489 Q176 513 206 524 Q222 530 241 530 Q243 530 245 532 Q268 570 298 601 Q328 632 366 655 Q402 677 444 685 Q460 687 475 687.5 Q490 688 506 684 Q559 670 576 618 Q583 597 585 574 Q587 548 584 522.5 Q581 497 576 471 Q565 420 548 373 Q531 326 508 280 Q485 232 459 187.5 Q433 143 402 101 Q384 76 364.5 53 Q345 30 323 10 Q320 7 319 3 Q317 -11 315.5 -25.5 Q314 -40 312 -54 Q310 -70 307.5 -86 Q305 -102 303 -118 Q301 -126 299 -134.5 Q297 -143 295 -152 Q295 -155 293 -159 Q290 -163 287 -160 Q285 -158 283.5 -158 Q282 -158 280 -156 Q278 -156 276 -154 Q275 -153 275 -148 Q279 -136 281 -124 L293 -37 Q294 -31 294.5 -25.5 Q295 -20 295 -15 Z M324 51 Q325 51 325 50 Q329 55 332.5 58.5 Q336 62 340 67 Q363 93 383 121.5 Q403 150 421 179 Q478 268 516 362 Q533 404 545 447 Q557 490 562 535 Q564 552 563.5 568.5 Q563 585 560 602 Q558 614 554 625 Q550 636 543 646 Q528 666 507 669 Q494 671 482 670.5 Q470 670 457 668 Q437 664 418.5 656.5 Q400 649 382 638 Q352 619 327 594.5 Q302 570 281 541 Q277 536 274.5 532 Q272 528 269 523 Q269 522 271 522 Q290 511 299 492 Q311 466 311 439 Q312 425 310.5 411.5 Q309 398 307 384 Q302 359 295 335.5 Q288 312 276 290 Q275 288 274.5 286 Q274 284 273 282 Q271 280 273 276 L291 234 Q303 204 312.5 173.5 Q322 143 324 111 Q325 100 325 88.5 Q325 77 325 66 Q325 56 324 51 Z M235 515 Q233 514 230.5 514 Q228 514 226 513 Q210 508 197 499.5 Q184 491 172 480 Q152 463 136 443 Q120 423 106 401 Q46 306 24 195 Q19 172 16.5 150 Q14 128 13 105 Q11 71 17 42 Q20 27 24.5 13 Q29 -1 37 -15 Q54 -47 87 -58 Q100 -63 113 -63.5 Q126 -64 140 -62 Q156 -60 171 -55 Q186 -50 200 -43 Q228 -30 252 -13 Q276 4 298 24 Q300 26 300 27 Q300 34 300.5 40.5 Q301 47 302 54 Q304 85 301 115 Q298 145 289 175 Q282 198 273.5 220.5 Q265 243 255 266 Q247 284 239.5 302.5 Q232 321 224 340 Q218 357 214.5 373.5 Q211 390 210 408 Q208 430 212 450 Q216 470 224 490 Q227 496 229.5 502 Q232 508 235 515 Z M262 301 Q263 302 263 302 Q276 334 283.5 366 Q291 398 293 432 Q294 457 287 483 Q284 491 280 498 Q276 505 269 510 Q267 512 266 512.5 Q265 513 264 514 Q263 513 263 512.5 Q263 512 262 511 Q258 502 253.5 493.5 Q249 485 245 475 Q227 428 236 379 Q239 362 244 347 Q249 332 255 316 Q257 312 258.5 308.5 Q260 305 262 301 Z M525 333 Q506 288 483.5 246 Q461 204 435 163 Q461 204 484 246 Q507 288 525 333 Z M257 515 Q253 509 250 502.5 Q247 496 244 490 Q245 490 245 489 Q248 496 251 502 Q254 508 257 515 Z M77 359 Q76 360 76 360 Q74 356 72.5 352.5 Q71 349 69 346 L70 346 Q72 349 73.5 352.5 Q75 356 77 359 Z " />
<glyph glyph-name="O" unicode="O" horiz-adv-x="528" d="M-17 2 Q-17 25 -13 49.5 Q-9 74 -3 99 Q21 197 72 284 Q84 303 97 320.5 Q110 338 127 354 Q136 362 145.5 368.5 Q155 375 166 380 Q169 381 171.5 381.5 Q174 382 177 382 Q179 383 181 385 Q194 408 206.5 430.5 Q219 453 233 476 Q277 551 337 617 Q352 634 368 648.5 Q384 663 404 675 Q414 681 425 686 Q436 691 448 693 Q479 699 505 684.5 Q531 670 541 638 Q548 618 548 595 Q549 564 544 533.5 Q539 503 531 474 Q520 436 506.5 399 Q493 362 477 326 Q444 250 406 177.5 Q368 105 323 35 Q304 6 283.5 -21 Q263 -48 240 -73 Q204 -114 162 -140 Q150 -147 137 -152.5 Q124 -158 110 -160 Q87 -164 62 -155 Q35 -144 18.5 -123.5 Q2 -103 -6 -76 Q-12 -58 -14.5 -39 Q-17 -20 -17 2 Z M344 81 Q345 82 345 82.5 Q345 83 346 84 Q372 126 395 168.5 Q418 211 439 255 Q439 257 440 258 Q438 256 438 255 Q418 213 396 172.5 Q374 132 350 92 Q348 89 344 81 Q339 75 337 70 L338 70 Q340 73 341 75.5 Q342 78 344 81 Z M167 361 Q166 360 165.5 360 Q165 360 164 359 Q159 355 154.5 351.5 Q150 348 145 344 Q129 330 117 313.5 Q105 297 94 280 Q76 251 62.5 220.5 Q49 190 38 158 Q26 123 17.5 87.5 Q9 52 6 14 Q3 -25 10 -60 Q13 -75 18.5 -89.5 Q24 -104 34 -117 Q59 -153 101 -141 Q126 -134 150 -118 Q171 -104 190 -86.5 Q209 -69 226 -49 Q248 -25 267 1 Q286 27 303 54 Q361 143 407 233 Q432 281 453.5 329 Q475 377 493 428 Q505 461 514 494.5 Q523 528 527 563 Q532 595 526 625 Q521 648 510 663 Q498 678 481 678 Q468 679 456 675.5 Q444 672 433 667 Q402 650 373 621 Q353 602 335.5 580.5 Q318 559 301 536 Q278 505 258 473 Q238 441 219 408 Q215 401 211 394 Q207 387 203 379 Q204 378 204 378 Q217 371 225 356 Q228 348 229 341 Q230 334 231 326 Q232 315 231 304.5 Q230 294 228 284 Q223 258 214 234 Q205 210 194 187 Q187 175 180 163.5 Q173 152 164 141 Q161 138 153 132 Q153 131 150 131 Q148 132 146.5 132.5 Q145 133 143 135 Q137 138 142 143 L148 149 Q156 160 163 171.5 Q170 183 176 195 Q189 221 198.5 249 Q208 277 212 307 Q215 328 211 347 Q209 360 201 367 Q198 371 195 367 Q187 352 179.5 337.5 Q172 323 164 309 Q151 286 139.5 263 Q128 240 118 216 Q115 210 113 204.5 Q111 199 109 193 Q109 191 109 190.5 Q109 190 111 188 Q113 186 114 184 Q114 176 106 179 Q104 180 102 181 Q100 182 98 183 Q91 187 92 194 Q92 200 93 203 Q97 213 100 223 Q103 233 108 243 Q121 272 136 300.5 Q151 329 166 358 Q166 359 166.5 359.5 Q167 360 167 361 Z " />
<glyph glyph-name="R" unicode="R" horiz-adv-x="466" d="M120 245 Q119 238 114 230 Q90 166 65.5 102.5 Q41 39 17 -26 Q13 -37 10 -50 Q8 -52 8 -54 Q8 -56 7 -58 Q6 -64 2 -60 Q0 -59 -1.5 -58.5 Q-3 -58 -5 -57 Q-13 -54 -10 -46 Q-8 -40 -6.5 -33.5 Q-5 -27 -2 -21 Q22 47 47.5 114.5 Q73 182 99 250 Q100 253 97 256 Q92 261 90 264 Q84 275 96 275 Q104 275 109 274 Q110 278 111.5 281.5 Q113 285 115 289 Q135 340 155 389.5 Q175 439 197 490 Q201 501 205.5 511 Q210 521 213 532 Q214 537 220 535 L224 535 L225 535 Q227 535 229.5 532.5 Q232 530 232 528 Q231 526 231 524 Q231 522 230 520 Q218 491 206.5 462 Q195 433 184 404 Q170 369 157 335.5 Q144 302 130 267 Q128 265 131 262 Q136 256 142.5 255.5 Q149 255 157 257 Q176 260 193 267.5 Q210 275 227 285 Q247 298 265.5 313.5 Q284 329 301 347 Q341 386 373 429.5 Q405 473 433 522 Q442 541 450.5 560.5 Q459 580 465 601 Q472 624 469 649 Q467 653 466 656.5 Q465 660 463 664 Q458 679 437 682 Q422 684 406.5 680.5 Q391 677 376 672 Q353 664 332.5 654 Q312 644 291 631 Q259 611 229 589 Q199 567 171 540 Q161 529 152 518 Q143 507 135 495 Q132 490 129.5 484.5 Q127 479 125 473 Q125 463 131 459 Q133 457 134.5 455.5 Q136 454 134 452 Q134 450 131 450 Q123 451 117 457.5 Q111 464 110 472 Q109 481 114 493 Q119 504 126 514 Q133 524 140 534 Q173 570 215 600 Q244 622 274 641 Q304 660 336 675 Q367 689 398 696 Q424 701 446 694 Q484 684 492 642 Q494 630 492.5 618 Q491 606 488 594 Q480 565 469 539.5 Q458 514 443 489 Q422 452 397 418 Q372 384 342 352 Q321 329 298.5 309.5 Q276 290 250 273 Q216 252 182 243 Q177 242 172.5 241.5 Q168 241 163 240 L158 240 Q158 239 159 239 Q174 221 190.5 203.5 Q207 186 222 168 Q240 148 258.5 130 Q277 112 296 94 Q325 69 352.5 44.5 Q380 20 409 -4 Q427 -18 444 -31 Q461 -44 480 -55 Q484 -57 487.5 -59 Q491 -61 495 -63 Q502 -66 509 -66 Q517 -66 520 -68 Q522 -68 523 -69.5 Q524 -71 525 -72 Q526 -75 524 -77 Q523 -81 519 -81 Q507 -83 496 -78 Q476 -69 457 -57 Q437 -44 418.5 -30 Q400 -16 381 -1 Q338 34 297 70 Q256 106 218 145 Q202 160 188 176 Q174 192 159 209 Q151 217 144 224.5 Q137 232 129 240 Q128 241 120 245 Z M414 455 Q427 472 437.5 490 Q448 508 457 526 Q446 509 435.5 490.5 Q425 472 414 455 Z " />
<glyph glyph-name="S" unicode="S" horiz-adv-x="438" d="M254 72 Q259 86 262.5 99.5 Q266 113 264 127 Q261 148 241 154 Q218 161 197 162 Q174 165 152 167.5 Q130 170 108 175 Q88 179 69 186 Q50 193 33 204 Q2 223 -7 255 Q-10 267 -10 278.5 Q-10 290 -8 302 Q-3 323 5 342.5 Q13 362 24 381 Q41 409 60 435 Q79 461 100 485 Q130 519 162.5 549.5 Q195 580 232 607 Q279 643 329 666 Q344 672 359 677 Q374 682 390 684 Q418 689 441 682 Q477 670 483 632 Q485 616 483.5 601 Q482 586 479 571 Q474 547 466 524 Q458 501 449 478 Q429 429 406 381.5 Q383 334 356 288 Q349 275 342 263 Q335 251 328 239 Q327 239 326.5 238.5 Q326 238 325 238 Q324 239 324 240 Q322 239 316 243 Q313 244 315 249 Q317 254 319.5 258.5 Q322 263 325 268 Q346 306 366 344.5 Q386 383 404 422 Q417 451 429 480 Q441 509 451 539 Q456 554 459.5 569 Q463 584 465 600 Q468 625 463 645 Q462 648 460 652 Q452 671 432 672 Q416 674 401 671 Q386 668 371 663 Q348 655 326.5 644 Q305 633 284 619 Q245 593 210 563 Q175 533 143 499 Q120 474 99 448.5 Q78 423 59 394 Q32 357 18 316 Q10 295 10 276 Q8 231 47 210 Q71 196 101 191 Q118 188 136 186 Q154 184 171 182 Q189 180 206.5 177.5 Q224 175 241 169 Q266 162 279 144 Q287 133 289 118 Q291 101 286.5 86 Q282 71 277 57 Q276 54 277 52 Q282 43 281 35 L281 31 Q280 30 279 30 L278 30 Q275 32 272.5 33 Q270 34 267 36 Q265 32 263.5 29 Q262 26 260 22 Q240 -12 215.5 -41.5 Q191 -71 160 -96 Q136 -115 110 -124 Q91 -131 77 -127 Q59 -122 48 -110 Q41 -102 39 -92.5 Q37 -83 38 -72 Q42 -39 68 -13 Q88 6 109.5 22.5 Q131 39 155 53 Q169 61 183 66.5 Q197 72 212 75 Q223 77 233 76.5 Q243 76 254 72 Z M250 62 Q250 63 249 63 L233 63 Q211 62 188 50 Q158 36 132 16.5 Q106 -3 83 -26 Q64 -45 58 -73 Q56 -81 56.5 -88.5 Q57 -96 62 -104 Q67 -114 76 -111 Q81 -110 86 -109.5 Q91 -109 96 -107 Q110 -101 122.5 -93 Q135 -85 146 -75 Q199 -28 233 31 Q238 39 241.5 46.5 Q245 54 250 62 Z M265 46 L244 10 Q250 18 255.5 27 Q261 36 265 46 Z M32 360 L31 360 Q27 352 25 347 L26 347 Q30 355 32 360 Z " />
<glyph glyph-name="T" unicode="T" horiz-adv-x="230" d="M293 650 Q300 652 307 653 Q314 654 320 655 Q334 657 346.5 657.5 Q359 658 372 660 Q386 662 399.5 663.5 Q413 665 426 666 Q438 668 450 668.5 Q462 669 476 671 Q488 673 500.5 674 Q513 675 525 676 Q539 678 551 678.5 Q563 679 574 680 Q588 682 600.5 684 Q613 686 627 687 Q649 688 669.5 688.5 Q690 689 711 690 Q725 691 740 687 Q743 684 746 681.5 Q749 679 751 675 Q754 672 752 669 Q752 664 746 666 Q743 668 740.5 669 Q738 670 734 672 L732 672 L690 672 Q665 670 641 668.5 Q617 667 594 665 L498 656 Q474 653 450.5 650 Q427 647 403 645 Q383 642 362.5 639.5 Q342 637 322 635 Q314 634 304.5 633.5 Q295 633 287 631 Q284 631 282 627 Q248 558 216.5 489.5 Q185 421 156 350 Q111 243 69 136.5 Q27 30 -11 -80 Q-19 -102 -25 -123.5 Q-31 -145 -39 -165 Q-39 -170 -39.5 -172.5 Q-40 -175 -40 -178 Q-40 -181 -42 -182 Q-42 -186 -45 -184 Q-47 -183 -50.5 -182.5 Q-54 -182 -56 -180 Q-62 -176 -60 -172 Q-59 -164 -58 -158 Q-57 -152 -56 -145 Q-37 -78 -11 -13 Q21 78 54.5 166.5 Q88 255 125 343 Q151 408 180 470 Q209 532 240 595 Q245 603 248.5 611 Q252 619 257 627 Q252 627 247 626.5 Q242 626 237 625 Q214 623 193 619.5 Q172 616 151 613 Q123 608 93.5 604 Q64 600 35 595 Q-1 588 -36 580.5 Q-71 573 -106 566 Q-109 565 -112 564.5 Q-115 564 -120 564 Q-123 564 -124 565 Q-130 567 -132 569 Q-134 571 -134 574 Q-132 576 -130 576 Q-124 578 -118 579.5 Q-112 581 -107 582 Q-62 593 -15.5 602.5 Q31 612 76 620 Q106 625 134.5 629 Q163 633 192 638 Q209 640 224 642 Q239 644 255 646 Q257 646 259 649 Q267 661 275.5 672.5 Q284 684 292 696 Q293 700 300 698 Q302 698 304.5 697.5 Q307 697 310 693 Q311 690 311.5 688.5 Q312 687 308 682 Q304 676 301.5 669.5 Q299 663 294 655 Q293 654 293 650 Z " />
<glyph glyph-name="U" unicode="U" horiz-adv-x="489" d="M413 360 Q407 349 397 337 Q355 275 313 213.5 Q271 152 228 89 Q215 71 201.5 52.5 Q188 34 173 17 Q164 7 154.5 -1.5 Q145 -10 134 -18 Q127 -22 121 -25 Q115 -28 107 -27 Q99 -27 93 -24 Q63 -14 53 20 Q49 34 47 47.5 Q45 61 43 75 Q41 106 43 136.5 Q45 167 50 199 Q57 248 69 295 Q81 342 97 390 Q111 429 125.5 468 Q140 507 158 545 Q166 560 174.5 575.5 Q183 591 191 606 Q193 614 195 618 Q202 633 211 646.5 Q220 660 229 674 Q230 678 235 676 Q236 675 237 675.5 Q238 676 239 675 Q241 675 243 673 Q244 671 244 671 Q245 668 244 665 Q243 662 242 659.5 Q241 657 240 654 Q202 591 172 524 Q151 476 133.5 428 Q116 380 102 330 Q95 307 89.5 283.5 Q84 260 78 237 Q76 221 73.5 205.5 Q71 190 69 174 Q67 161 66 148 Q65 135 64 122 Q63 98 64 74 Q65 50 71 27 Q74 19 76.5 12 Q79 5 84 -1 Q89 -8 93.5 -9 Q98 -10 106 -7 Q114 -4 120 1 Q126 6 134 11 Q161 38 182 66 Q205 98 228 130 Q251 162 273 194 Q316 254 356.5 313.5 Q397 373 439 433 Q445 441 451 449.5 Q457 458 462 466 Q472 483 479 498 Q510 561 547 623 Q555 634 563 645.5 Q571 657 579 668 Q590 679 600 671 Q609 665 605 657 Q602 650 598.5 643.5 Q595 637 592 630 Q575 602 558.5 575 Q542 548 523 522 Q512 507 504.5 491 Q497 475 489 458 Q465 407 442.5 355.5 Q420 304 399 252 Q368 176 339 100.5 Q310 25 284 -52 Q278 -68 273.5 -84 Q269 -100 265 -116 Q263 -118 263 -123 Q263 -125 263 -126.5 Q263 -128 265 -130 Q267 -132 266.5 -135.5 Q266 -139 264 -141 Q261 -143 258 -141 Q256 -141 255 -140 Q254 -139 253 -139 Q241 -135 243 -121 Q245 -113 246 -106 Q247 -99 249 -91 Q257 -58 268.5 -25.5 Q280 7 292 39 Q316 108 342 175.5 Q368 243 394 311 Q399 323 403.5 334.5 Q408 346 413 357 Q414 358 414 360 L413 360 Z " />
<glyph glyph-name="V" unicode="V" horiz-adv-x="438" d="M17 -147 Q25 -141 29 -137 Q38 -128 45 -119 Q52 -110 60 -99 Q91 -51 120 0 Q153 57 187 113.5 Q221 170 256 226 Q298 295 340 363.5 Q382 432 424 501 Q454 550 483 598 Q512 646 542 695 Q543 697 543 698 Q543 699 544 700 Q545 704 550 703 Q551 702 553 702 Q559 702 562 697 Q564 693 563 692 Q561 684 559 681 Q547 660 535 639.5 Q523 619 511 598 Q454 505 399 413 Q344 321 288 227 Q250 162 211.5 98 Q173 34 135 -32 Q121 -57 107 -80.5 Q93 -104 77 -127 Q70 -136 63 -144.5 Q56 -153 47 -160 Q44 -163 40 -164.5 Q36 -166 32 -168 Q29 -170 25.5 -169.5 Q22 -169 19 -168 Q11 -164 6 -162 Q-8 -153 -11 -137 Q-13 -129 -14 -120.5 Q-15 -112 -15 -104 Q-16 -86 -14.5 -67.5 Q-13 -49 -11 -31 Q0 48 18 124 Q36 200 59 275 Q77 338 99.5 399.5 Q122 461 146 521 Q146 523 146.5 523.5 Q147 524 147 526 Q150 529 147 530 L147 534 Q149 541 152.5 546.5 Q156 552 159 558 Q161 560 163 560 Q166 560 169.5 559 Q173 558 175 555 Q177 550 176 548 Q174 541 172 534 Q170 527 166 520 Q151 477 136 435 Q121 393 107 349 Q87 291 71.5 232.5 Q56 174 42 114 Q35 84 29.5 54 Q24 24 19 -6 Q10 -57 10 -107 Q11 -116 11.5 -125 Q12 -134 15 -143 Q15 -145 16 -146 L17 -147 Z M93 -91 Q94 -89 94 -89 Q102 -76 110 -63.5 Q118 -51 126 -37 Q157 16 188 69 Q219 122 249 176 Q251 178 252 179.5 Q253 181 254 183 Q211 115 172.5 46 Q134 -23 93 -91 Z " />
<glyph glyph-name="W" unicode="W" horiz-adv-x="634" d="M255 -85 Q258 -82 261 -78 Q264 -74 267 -71 Q280 -55 290.5 -38 Q301 -21 311 -4 Q333 33 354 70.5 Q375 108 396 145 Q413 174 430.5 203 Q448 232 467 261 Q492 304 517.5 346.5 Q543 389 568 431 Q608 496 647 560.5 Q686 625 726 690 Q728 695 732 701 Q733 704 738 704 Q739 703 740 703 Q742 704 745 703 Q748 702 750 700 L750 698 L747 689 Q749 691 749.5 694 Q750 697 752 699 Q754 696 753 695 Q753 689 750 685 Q739 667 729 649 Q719 631 708 612 Q665 539 622 466.5 Q579 394 537 321 Q493 248 451 174 Q409 100 367 25 Q354 1 340 -22.5 Q326 -46 310 -68 Q297 -89 282 -104 Q277 -109 269 -112 Q263 -116 258 -113 Q249 -110 240 -105 Q229 -97 227 -84 Q225 -73 224.5 -63.5 Q224 -54 225 -43 Q227 -11 233 21 Q239 53 247 85 Q259 134 274 182.5 Q289 231 306 279 L306 282 Q303 277 300.5 272.5 Q298 268 294 263 Q244 182 195 102.5 Q146 23 97 -58 Q86 -75 75.5 -92 Q65 -109 52 -125 Q48 -130 44 -134.5 Q40 -139 35 -144 Q32 -147 28 -148 Q22 -153 13 -148 Q11 -146 8 -146 Q-2 -142 -6 -135 Q-10 -128 -12 -119 Q-14 -106 -14.5 -93.5 Q-15 -81 -15 -68 Q-11 1 6 70 Q20 131 38 190.5 Q56 250 76 308 Q99 374 123.5 435.5 Q148 497 175 560 Q178 568 180.5 574 Q183 580 186 588 L184 588 Q172 577 159.5 565.5 Q147 554 136 541 Q135 539 132 536 Q132 537 129 534 Q129 535 128 535 Q129 537 129 537 Q124 535 120 539 Q117 542 119 546 Q121 551 126 555 Q135 566 146.5 576 Q158 586 169 596 Q173 599 176.5 602 Q180 605 183 609 Q196 617 206 606 Q211 602 208 595 Q206 587 203.5 578.5 Q201 570 198 562 Q186 531 173.5 501.5 Q161 472 150 441 Q119 363 93 285 Q67 207 46 126 Q38 97 31.5 67 Q25 37 20 7 Q14 -27 11 -58 Q9 -69 8.5 -81.5 Q8 -94 10 -107 Q10 -112 10.5 -117 Q11 -122 12 -127 L13 -127 Q14 -126 18 -124 Q32 -107 46 -87 Q63 -60 80 -33.5 Q97 -7 114 19 Q150 78 187 135 Q224 192 259 251 Q282 287 303.5 323.5 Q325 360 347 397 Q347 399 350 402 Q352 406 358 405 Q361 404 365 404 L366 404 Q368 403 371 399 Q374 395 373 391 Q371 384 369 377 Q367 370 364 363 Q348 318 333.5 274.5 Q319 231 305 186 Q294 149 284.5 113 Q275 77 267 39 Q263 24 260.5 8.5 Q258 -7 256 -23 Q254 -37 253.5 -50 Q253 -63 253 -75 Q253 -78 253.5 -80 Q254 -82 254 -84 L255 -85 Z M707 622 Q711 628 713 633 L712 633 Q710 631 709.5 627.5 Q709 624 707 622 Q705 618 699 612 Q700 611 700 611 Q704 617 707 622 Z M691 597 Q691 596 689 594 Q654 533 617.5 473 Q581 413 546 353 Q503 280 461 208 Q419 136 377 62 Q361 32 344.5 2.5 Q328 -27 309 -56 Q308 -57 308 -57 Q310 -55 310 -55 Q324 -34 336.5 -13.5 Q349 7 361 27 Q397 93 434 157 Q471 221 509 286 Q554 362 598 437 Q642 512 687 588 Q688 591 692 597 Q696 603 698 607 L697 607 Q695 605 694 602 Q693 599 691 597 Z " />
<glyph glyph-name="X" unicode="X" horiz-adv-x="390" d="M199 608 Q196 610 194 611 Q192 612 190 614 Q188 616 188 618 Q188 620 187 622 Q186 630 188.5 637.5 Q191 645 194 653 Q199 660 206 659 Q219 658 219 643 Q221 632 222 621.5 Q223 611 222 600 L222 536 Q223 521 223 505.5 Q223 490 223 475 Q221 441 223 411 Q223 401 222.5 392 Q222 383 223 373 Q224 374 224 374.5 Q224 375 226 376 Q243 399 260.5 422.5 Q278 446 296 469 Q331 513 366 555.5 Q401 598 439 639 Q453 654 466 668 Q479 682 492 696 Q497 700 501 703.5 Q505 707 510 710 Q514 713 518 712.5 Q522 712 524 708 Q528 704 523 699 Q472 644 422 583 Q393 547 366 510.5 Q339 474 310 438 Q293 418 277.5 398 Q262 378 247 358 Q242 351 236.5 345 Q231 339 226 332 Q224 330 224 325 Q225 299 226 273.5 Q227 248 227 222 Q231 123 239 23 Q242 -14 248 -50 Q248 -51 248.5 -52 Q249 -53 247 -55 L251 -59 Q256 -61 257 -65 Q257 -76 247 -72 Q238 -68 232.5 -63 Q227 -58 226 -48 L217 15 Q208 96 205 176 Q203 206 201.5 236 Q200 266 199 295 Q199 296 198 297 L196 293 Q161 248 127 203 Q93 158 58 112 Q6 44 -45.5 -23 Q-97 -90 -148 -158 Q-154 -166 -160 -174.5 Q-166 -183 -173 -191 L-182 -197 Q-184 -201 -188 -197 Q-189 -196 -190.5 -196 Q-192 -196 -194 -195 Q-194 -194 -195 -193.5 Q-196 -193 -197 -191 L-197 -188 Q-191 -181 -186 -175 Q-181 -169 -176 -163 Q-105 -66 -33 30 Q39 126 112 223 Q134 250 154.5 278 Q175 306 195 335 Q197 339 197 341 Q197 368 196.5 395 Q196 422 195 449 Q195 471 196.5 493 Q198 515 198 537 Q199 554 199 572 Q199 590 199 608 Z M223 340 L224 340 Q261 388 297.5 433.5 Q334 479 370 527 L370 528 Q333 480 296.5 434 Q260 388 223 340 Z M372 532 Q373 531 373 531 Q375 534 376.5 536.5 Q378 539 380 541 L380 542 Q378 538 372 532 Z " />
<glyph glyph-name="Y" unicode="Y" horiz-adv-x="440" d="M572 688 Q577 688 575 683 Q575 680 573 674 Q566 663 559.5 653 Q553 643 545 632 Q539 623 532 614.5 Q525 606 519 597 Q506 579 495 556 Q442 462 396 359 Q382 326 367.5 292.5 Q353 259 339 225 Q321 180 303.5 136 Q286 92 269 47 Q259 22 250.5 -3 Q242 -28 234 -53 Q232 -58 231 -64 Q230 -70 228 -76 Q228 -77 228.5 -78 Q229 -79 229 -80 Q228 -82 229 -84 Q230 -86 229 -88 Q227 -92 224 -90 Q219 -87 212 -84 Q206 -81 206 -72 L209 -51 Q214 -31 220.5 -11 Q227 9 234 29 Q260 104 289 177.5 Q318 251 348 325 Q361 354 373.5 384 Q386 414 400 443 L400 445 Q399 443 398.5 443 Q398 443 397 441 Q375 414 353 387 Q331 360 309 334 Q293 315 277 297.5 Q261 280 242 264 Q230 253 217 243.5 Q204 234 189 226 Q178 221 162 219 Q151 218 135 223 Q123 228 113 236 Q103 244 97 256 Q92 262 89.5 268.5 Q87 275 85 283 Q80 299 79 314.5 Q78 330 77 346 Q78 391 86 433.5 Q94 476 106 518 Q117 553 130.5 587 Q144 621 163 653 Q165 656 166.5 659 Q168 662 170 664 Q172 667 177 667 Q183 665 188 662 L188 660 Q188 656 187 654 Q185 646 182.5 638.5 Q180 631 178 623 L178 617 Q177 617 175 615 Q175 616 174.5 616 Q174 616 174 617 L171 617 Q168 619 166 616 Q160 599 153 583.5 Q146 568 140 551 Q126 516 117 478.5 Q108 441 103 403 Q100 383 98.5 362 Q97 341 99 320 Q101 305 103 290.5 Q105 276 113 262 Q115 257 117.5 253.5 Q120 250 123 246 Q128 238 135.5 236 Q143 234 151 236 Q173 240 193 255 Q210 266 225 279.5 Q240 293 254 308 Q282 336 308 366 Q334 396 360 427 Q382 455 404 482 Q426 509 447 537 Q452 544 456.5 552 Q461 560 466 568 Q483 597 500 624 Q517 651 537 677 Q545 685 547 689 Q553 695 561 694 Q563 693 564.5 693 Q566 693 567 692 Q569 691 572 688 Z M482 547 L481 547 Q480 545 479 543.5 Q478 542 477 540 Q459 507 442 474 Q425 441 409 406 Q369 320 333.5 232.5 Q298 145 264 55 L264 53 Q265 55 266 57.5 Q267 60 268 62 Q291 121 313.5 178.5 Q336 236 361 294 Q385 353 412 409.5 Q439 466 468 522 Q474 535 482 547 Z " />
<glyph glyph-name="Z" unicode="Z" horiz-adv-x="525" d="M189 245 Q195 247 201 249 Q207 251 214 254 Q231 259 250 264.5 Q269 270 288 273 Q308 278 327.5 278.5 Q347 279 365 273 Q401 264 418 237 Q429 218 429 194 Q430 171 423.5 150 Q417 129 406 108 Q395 82 378.5 59.5 Q362 37 344 15 Q328 -3 311.5 -20 Q295 -37 275 -53 L274 -54 Q275 -56 275 -57.5 Q275 -59 276 -61 L276 -67 Q275 -72 271 -69 Q269 -67 266.5 -66.5 Q264 -66 262 -65 Q261 -65 260 -66 Q246 -74 234 -83.5 Q222 -93 209 -101 Q174 -123 138.5 -139 Q103 -155 65 -166 Q30 -175 -4 -174 Q-43 -174 -77 -151 Q-88 -143 -94.5 -133 Q-101 -123 -102 -109 Q-106 -80 -83 -54 Q-73 -42 -60 -34.5 Q-47 -27 -32 -22 Q-14 -15 10 -12 Q22 -10 34.5 -9 Q47 -8 60 -7 Q84 -5 108 -4 Q132 -3 156 -5 Q173 -6 188 -7.5 Q203 -9 220 -14 Q229 -17 237.5 -20.5 Q246 -24 254 -29 Q256 -31 258 -29 Q270 -17 282.5 -6 Q295 5 306 18 Q347 59 373 104 Q383 121 390.5 138.5 Q398 156 402 175 Q404 187 404.5 199.5 Q405 212 402 223 Q393 256 360 259 Q343 261 327 260 Q311 259 295 256 Q271 251 248 244 Q225 237 202 229 Q193 225 179 222 Q176 222 172 224 Q168 226 165 227 Q151 234 159 245 Q164 252 167.5 258 Q171 264 176 269 Q193 290 211 310.5 Q229 331 249 351 Q288 391 327.5 430.5 Q367 470 405 510 Q429 534 452.5 558.5 Q476 583 498 609 Q507 620 514.5 630 Q522 640 529 652 Q532 657 535 663.5 Q538 670 539 676 L539 677 Q539 685 530 685 Q521 686 512 684.5 Q503 683 493 681 Q471 675 449.5 666 Q428 657 407 647 Q361 624 318 597 Q275 570 235 537 Q215 520 196.5 502 Q178 484 161 463 Q156 456 151.5 448.5 Q147 441 143 433 Q139 428 143 424 Q143 420 142 418 Q142 418 138 418 Q136 419 135.5 419.5 Q135 420 133 421 Q123 427 127 436 Q130 449 138 460 Q148 476 160.5 490 Q173 504 187 517 Q216 545 246.5 568 Q277 591 310 612 Q341 631 371.5 647.5 Q402 664 435 678 Q451 684 466.5 690 Q482 696 498 698 Q509 700 519 700.5 Q529 701 539 697 Q556 690 556 675 Q558 669 556.5 663 Q555 657 553 651 Q548 639 540.5 628 Q533 617 525 606 Q511 587 496 569.5 Q481 552 466 535 Q415 481 365 428.5 Q315 376 263 324 Q244 305 226.5 286 Q209 267 191 248 Q190 247 190 246.5 Q190 246 189 245 Z M246 -38 Q242 -36 239.5 -34.5 Q237 -33 235 -32 Q230 -30 224.5 -28.5 Q219 -27 214 -26 Q200 -23 186.5 -22 Q173 -21 159 -20 Q140 -19 121 -19.5 Q102 -20 82 -22 Q66 -24 51 -25 Q36 -26 21 -28 Q9 -30 -3.5 -33 Q-16 -36 -27 -41 Q-56 -52 -72 -74 Q-80 -88 -82 -101 Q-84 -114 -77 -128 Q-72 -138 -63.5 -143 Q-55 -148 -46 -151 Q-29 -156 -13.5 -155 Q2 -154 19 -152 Q55 -146 89 -132 Q124 -118 157 -99 Q190 -80 222 -57 Q235 -49 246 -38 Z M403 114 Q395 100 386.5 86 Q378 72 369 58 Q380 71 388 85.5 Q396 100 403 114 Z " />
<glyph glyph-name="a" unicode="a" horiz-adv-x="213" d="M214 277 L192 255 Q186 250 181 245.5 Q176 241 170 235 Q164 229 155.5 221 Q147 213 134 201 Q125 192 116 184 Q107 176 96 169 Q89 164 81 161 Q73 158 65 157 Q57 157 50 161 Q46 163 43 164 Q23 173 24 196 Q25 210 30 227 L30 228 Q31 229 31 230 Q27 226 21 218 Q16 210 10.5 203.5 Q5 197 -3 192 Q-5 190 -8.5 189 Q-12 188 -15 186 Q-18 185 -25 187 Q-27 189 -28.5 189.5 Q-30 190 -32 191 Q-46 197 -46 212 Q-47 220 -45 226.5 Q-43 233 -41 239 Q-29 270 -5 296 Q0 301 4.5 304 Q9 307 16 309 Q31 312 40 302 Q42 299 42.5 295.5 Q43 292 43 289 Q42 286 41.5 283.5 Q41 281 40 278 Q42 280 42.5 281 Q43 282 44 283 Q49 288 52.5 294 Q56 300 61 305 Q65 312 74 310 Q76 309 78.5 308.5 Q81 308 83 305 Q87 303 86.5 300 Q86 297 85 295 L73 265 Q66 249 60.5 233.5 Q55 218 51 202 Q49 197 49 192 Q49 187 49 182 Q49 177 55 178 Q63 180 70.5 184.5 Q78 189 86 194 Q93 199 111.5 214 Q130 229 150.5 246 Q171 263 189 278.5 Q207 294 213 300 Q222 291 219 285 Q216 279 214 277 Z M-22 207 Q-5 221 7.5 237 Q20 253 33 269 L30 272 Q28 273 26.5 273 Q25 273 23 274 Q20 276 21 282 Q23 288 23 291 Q16 287 8 276 Q0 265 -7 252 Q-14 239 -18.5 226.5 Q-23 214 -22 207 Z M-19 243 Q-16 248 -13.5 253 Q-11 258 -8 263 L-9 263 Q-11 258 -14 253 Q-17 248 -19 243 Z M75 283 L74 283 Q72 278 70 274.5 Q68 271 66 266 L67 266 Q69 270 71 274 Q73 278 75 283 Z " />
<glyph glyph-name="b" unicode="b" horiz-adv-x="225" d="M10 267 Q16 273 22 279 Q28 285 34 290 Q39 295 45 298.5 Q51 302 56 305 Q70 313 88 305 Q103 298 103 282 Q104 268 101 256.5 Q98 245 93 233 Q91 229 89 226 Q94 228 98.5 230 Q103 232 108 234 Q118 239 137 249.5 Q156 260 176 271 Q199 284 225 300 Q232 287 231 285 Q230 283 225 279 Q196 259 174 245 Q152 231 121 215 Q107 208 95.5 203 Q84 198 76 194 Q73 193 70 190 Q62 178 54 167 Q46 156 35 147 Q13 126 -14 122 Q-32 119 -50 132 Q-64 141 -56 155 Q-54 158 -51.5 161 Q-49 164 -47 167 L-44 170 Q-49 174 -47 182 Q-42 196 -37 210 Q-32 224 -26 238 Q-6 288 14.5 336.5 Q35 385 55 435 Q70 473 84.5 509.5 Q99 546 115 583 Q125 607 135.5 630 Q146 653 156 676 Q160 682 162 686 Q164 691 169 689 Q170 688 172 688 Q175 687 176 686.5 Q177 686 175 681 Q177 683 177 685 Q180 683 178 679 Q176 675 175 671 Q174 667 172 662 Q161 637 151 613 Q141 589 131 564 Q111 516 92 470 Q73 424 53 376 Q42 350 32 323.5 Q22 297 11 270 Q11 269 10.5 268.5 Q10 268 10 267 Z M80 291 Q77 290 73 288 Q66 286 60.5 282 Q55 278 49 273 Q15 243 -8 202 Q-10 198 -12.5 194.5 Q-15 191 -17 186 L-15 186 Q2 193 19 199.5 Q36 206 53 212 L56 215 Q70 240 77 265 Q79 271 80 277.5 Q81 284 80 291 Z M33 179 Q27 177 21.5 175.5 Q16 174 10 172 Q1 168 -8 164.5 Q-17 161 -25 155 Q-33 149 -37 142 Q-39 136 -33 136 Q-27 136 -20.5 138 Q-14 140 -8 142 Q4 148 13 156 Q22 164 30 175 Q32 177 33 179 Z " />
<glyph glyph-name="c" unicode="c" horiz-adv-x="183" d="M173 265 Q159 254 146 245 Q133 236 113 222 Q87 205 65.5 191 Q44 177 30 172 Q14 164 -2 168 Q-8 170 -13.5 173 Q-19 176 -24 179 Q-31 184 -33 190 Q-35 196 -37 204 Q-40 228 -31 250 Q-20 280 1 301 Q10 310 17 311 Q27 313 36 308 Q45 303 47 294 Q48 283 42 273 Q40 269 37 272 Q37 273 37.5 273.5 Q38 274 38 275 Q36 273 34 273 Q32 275 29 276 Q26 277 26 281 Q26 286 27 289 L27 293 Q25 292 23 290 Q8 276 -2 255 Q-6 246 -8.5 237.5 Q-11 229 -13 219 Q-14 212 -13.5 205 Q-13 198 -11 191 Q-9 187 -8.5 186 Q-8 185 -3 187 Q6 188 15 193 Q23 196 34.5 202.5 Q46 209 58.5 216 Q71 223 82.5 230.5 Q94 238 102 243 Q122 257 137.5 267.5 Q153 278 163 286 Q174 294 183 300 Q191 289 190.5 282.5 Q190 276 173 265 Z M0 271 L0 272 L-9 254 Q-7 259 -4.5 263 Q-2 267 0 271 Z " />
<glyph glyph-name="d" unicode="d" horiz-adv-x="229" d="M239 623 Q242 624 242 620 Q242 614 241 611 Q236 600 232 589.5 Q228 579 223 568 Q202 525 181.5 482.5 Q161 440 139 397 Q125 368 110.5 339.5 Q96 311 80 283 Q72 268 67.5 252.5 Q63 237 58 221 Q55 210 53 199 Q51 188 49 177 Q47 168 47 158.5 Q47 149 50 140 Q50 138 51 137 Q51 136 52 134 Q59 138 66 141 Q77 149 86 157.5 Q95 166 104 175 Q123 193 141 211 Q159 229 177 247 L229 300 Q244 287 233 273 Q231 271 225 264.5 Q219 258 212 250 Q204 241 194 231 Q179 214 163.5 197.5 Q148 181 132 164 Q123 154 113 145 Q103 136 93 127 Q84 118 70 115 Q59 111 51 117 L45 120 Q28 125 23 147 Q21 157 21.5 167 Q22 177 24 187 Q24 191 26 199 Q23 197 20.5 195 Q18 193 16 191 Q7 182 -2 181 Q-5 180 -13 182 Q-17 183 -20.5 184.5 Q-24 186 -27 188 Q-35 193 -37.5 199 Q-40 205 -41 213 Q-41 226 -36 243 Q-31 257 -24 270 Q-17 283 -7 294 Q-2 299 3.5 304 Q9 309 16 311 Q35 317 49 305 L51 303 Q51 303 52 301 Q54 305 54 305 Q76 368 103 427.5 Q130 487 165 545 Q177 565 190 584.5 Q203 604 216 624 Q220 630 224 630 L236 627 Q237 627 237.5 625.5 Q238 624 239 623 Z M1 273 Q-9 258 -13 245 Q-10 252 -6.5 258.5 Q-3 265 1 273 Z M38 264 Q39 266 40 268 Q41 270 38 272 Q37 273 37 276 Q36 278 36.5 279.5 Q37 281 37 283 L37 297 L36 297 Q33 296 29 294 Q25 291 21.5 288 Q18 285 15 281 Q-4 257 -14 224 Q-17 215 -15 203 Q-13 203 -11 205 Q-7 208 -3.5 211.5 Q0 215 4 219 Q14 229 22 240.5 Q30 252 38 264 Z M161 497 Q155 483 148.5 470.5 Q142 458 135 444 L136 444 Q143 457 149 470 Q155 483 162 496 L161 497 Z M84 301 Q105 342 126 382.5 Q147 423 168 465 L167 465 Q146 424 125 383.5 Q104 343 83 301 L84 301 Z M183 497 L182 497 Q178 489 175 482 Q172 475 168 468 L168 467 L183 497 Z M185 500 Q188 508 193 517 L192 518 Q190 513 188 509 Q186 505 184 500 L185 500 Z M200 533 Q198 530 197 527 Q196 524 194 521 L200 533 Z M207 547 L206 548 Q205 544 203.5 541 Q202 538 201 535 L207 547 Z " />
<glyph glyph-name="e" unicode="e" horiz-adv-x="182" d="M182 300 Q197 285 188 278 Q178 270 170.5 263 Q163 256 157 251 Q150 245 145 241 Q131 230 118.5 219 Q106 208 93 197 Q79 186 64.5 174.5 Q50 163 35 153 Q27 148 18.5 144 Q10 140 0 138 Q-14 136 -25 142 Q-27 143 -29 144 Q-31 145 -33 146 Q-53 154 -56 180 Q-57 203 -46 227 Q-39 245 -30 262 Q-21 279 -7 293 Q1 303 9 308 Q22 318 38 310 Q51 303 51 290 Q52 273 41 258 Q30 243 15 240 Q6 238 1 242 Q-1 244 -4 244.5 Q-7 245 -10 247 Q-12 242 -14 238 Q-16 234 -18 229 Q-23 220 -26 210.5 Q-29 201 -31 191 Q-32 184 -32 178 Q-32 172 -30 166 Q-28 160 -25.5 158.5 Q-23 157 -17 159 Q-4 162 6 168 Q20 176 33.5 185.5 Q47 195 61 205 Q81 220 100 235 Q119 250 138 265 L182 300 Z M6 261 Q5 260 5 257 Q16 261 24.5 273 Q33 285 31 296 Q28 293 28 294 Q19 289 15 282 L6 261 Z M-14 252 Q-17 246 -20 240.5 Q-23 235 -25 229 Q-22 234 -19 240 Q-16 246 -13 251 L-14 252 Z " />
<glyph glyph-name="f" unicode="f" horiz-adv-x="174" d="M207 675 Q211 671 210 665 Q208 660 207 656.5 Q206 653 204 649 Q196 632 187.5 616.5 Q179 601 170 585 Q146 541 122 498 Q98 455 76 410 Q49 355 26.5 301.5 Q4 248 -20 186 Q-22 181 -24.5 174.5 Q-27 168 -29.5 161.5 Q-32 155 -34 150 Q-36 145 -36 144 Q-31 147 -19 155 Q-4 164 7 172 Q18 180 28 187.5 Q38 195 48.5 203 Q59 211 71 220 Q79 227 88 234 Q97 241 105 248 L174 300 Q180 294 182.5 287.5 Q185 281 177 274 Q159 258 146.5 247.5 Q134 237 119 225 Q104 212 87 198 Q70 184 45 165 Q30 154 11 142 Q-8 130 -19 122 Q-22 120 -25 117.5 Q-28 115 -31 113 Q-37 108 -34 101 Q-31 95 -28.5 88.5 Q-26 82 -23 75 Q-10 40 -13 6 Q-16 -32 -30 -73 Q-37 -90 -44.5 -106.5 Q-52 -123 -63 -137 Q-71 -146 -78 -152 Q-81 -154 -84.5 -155.5 Q-88 -157 -91 -159 L-95 -159 Q-100 -157 -103.5 -155 Q-107 -153 -112 -151 Q-125 -145 -128 -127 Q-129 -118 -128.5 -109 Q-128 -100 -127 -91 Q-123 -60 -115.5 -30 Q-108 0 -99 30 Q-83 85 -64 138.5 Q-45 192 -24 245 Q-7 285 10 325 Q27 365 46 404 Q68 448 91.5 490.5 Q115 533 140 575 Q153 598 165.5 620.5 Q178 643 191 666 Q191 668 191.5 669 Q192 670 191 672 Q191 672 191 676 Q194 678 199 677.5 Q204 677 207 675 Z M-62 -121 Q-59 -118 -55.5 -111.5 Q-52 -105 -48 -98 Q-44 -91 -41.5 -85 Q-39 -79 -39 -77 Q-44 -88 -50 -99 Q-56 -110 -62 -121 Z M-39 -1 Q-35 19 -36 38 Q-37 57 -45 76 Q-47 81 -49 85.5 Q-51 90 -53 95 Q-53 93 -53.5 92.5 Q-54 92 -54 91 Q-59 74 -64.5 57 Q-70 40 -75 23 Q-84 -9 -92 -42.5 Q-100 -76 -102 -110 L-102 -130 Q-101 -131 -100 -131 Q-97 -127 -94 -124 Q-91 -121 -88 -116 Q-51 -66 -39 -1 Z M99 467 Q100 469 101 471 Q102 473 103 475 L102 474 L48 366 L48 365 Q49 365 49 367 Q62 392 74.5 416.5 Q87 441 99 467 Z M104 476 Q106 480 108 483.5 Q110 487 112 491 L111 492 Q109 488 107.5 484 Q106 480 104 476 Z " />
<glyph glyph-name="g" unicode="g" horiz-adv-x="179" d="M179 300 Q183 299 186 295 Q192 287 185 278 L145 228 Q128 208 116 193.5 Q104 179 85 156 Q68 136 49.5 114.5 Q31 93 11 70 Q9 64 6.5 58 Q4 52 4 51 Q-1 38 -4.5 28.5 Q-8 19 -11 10.5 Q-14 2 -17.5 -7 Q-21 -16 -26 -29 Q-33 -46 -40.5 -63 Q-48 -80 -58 -95 Q-71 -118 -89 -129 Q-103 -138 -114 -135 Q-134 -130 -145 -117.5 Q-156 -105 -154 -82 Q-152 -69 -146.5 -58.5 Q-141 -48 -133 -37 Q-123 -23 -111.5 -11 Q-100 1 -88 13 Q-69 33 -50.5 51.5 Q-32 70 -13 89 Q-11 91 -9 95 Q3 127 15 160 Q27 193 39 226 Q39 226 40 227 Q39 227 39 228 Q36 224 33.5 220.5 Q31 217 28 214 Q23 208 17 202.5 Q11 197 6 192 Q2 188 -6 186 Q-10 184 -13 186 Q-17 188 -20 189.5 Q-23 191 -27 193 Q-34 198 -36 203.5 Q-38 209 -38 217 Q-39 225 -37 233 Q-35 241 -32 249 Q-24 272 -6 295 Q-2 299 1.5 302.5 Q5 306 10 308 Q18 313 27.5 311.5 Q37 310 43 302 Q47 296 47 291 L47 280 Q49 282 49 282 Q53 288 57 293.5 Q61 299 65 304 Q70 311 80 310 Q86 309 92 303 Q94 299 93 295 Q91 287 89 280 Q87 273 84 265 Q78 250 70 229 Q62 208 54.5 188.5 Q47 169 41.5 154 Q36 139 35 136 Q42 144 54 157.5 Q66 171 80 187.5 Q94 204 109 221 Q124 238 137 253 Q138 255 144.5 262.5 Q151 270 159 278 L179 300 Z M-4 268 Q-6 265 -10 257 L-9 257 Q-7 260 -6 262.5 Q-5 265 -3 268 L-4 268 Z M-15 207 Q-1 218 9.5 231 Q20 244 31 258 L30 259 Q24 263 25 270 L28 282 Q28 286 28.5 289 Q29 292 28 296 Q23 294 15 286 Q-7 258 -14 227 Q-17 215 -15 207 Z M-128 -62 Q-129 -64 -130.5 -67 Q-132 -70 -133 -72 L-133 -73 Q-131 -70 -130 -67.5 Q-129 -65 -127 -62 L-128 -62 Z M-62 -90 Q-54 -79 -48.5 -67 Q-43 -55 -38 -43 Q-44 -55 -50 -66.5 Q-56 -78 -62 -90 Z M-43 2 Q-40 9 -37.5 15.5 Q-35 22 -33 29 L-34 29 Q-51 12 -67.5 -5 Q-84 -22 -101 -39 Q-108 -46 -114 -54 Q-120 -62 -125 -70 Q-129 -77 -131.5 -83.5 Q-134 -90 -133 -98 Q-133 -109 -127 -116 Q-123 -120 -120 -118 Q-110 -114 -106 -111 Q-96 -104 -89 -95 Q-82 -86 -76 -75 Q-66 -56 -58.5 -37 Q-51 -18 -43 2 Z " />
<glyph glyph-name="h" unicode="h" horiz-adv-x="193" d="M193 300 Q197 298 200 294 Q205 287 198 279 Q192 271 181 258.5 Q170 246 165 240 Q150 222 135 206 Q122 192 108.5 177.5 Q95 163 85 152 Q78 144 71 137.5 Q64 131 56 124 Q53 121 51 120 Q45 117 39 120 Q36 122 33 123 Q30 124 28 126 Q20 131 21 139 Q22 146 23 152.5 Q24 159 26 165 Q32 185 40 204 Q48 223 56 242 Q60 251 62 257 Q64 263 68 272 Q70 275 70 277 Q70 279 72 284 Q69 282 65.5 278.5 Q62 275 59 273 Q43 259 29.5 243 Q16 227 2 210 Q-3 205 -6.5 200.5 Q-10 196 -14 191 Q-18 187 -19 187 Q-22 184 -23 186 Q-31 189 -36 193 Q-42 196 -40 202 Q-38 208 -35.5 214.5 Q-33 221 -31 227 Q-17 259 -4 291.5 Q9 324 23 357 Q47 416 73.5 474 Q100 532 127 591 Q138 613 147.5 635.5 Q157 658 168 681 Q169 683 170 686 Q171 689 172 691 Q174 696 181 695 Q185 693 188 691 Q188 690 188.5 689.5 Q189 689 189 688 Q188 685 188 682 Q188 679 186 676 Q180 655 172 635 Q164 615 155 595 Q138 556 120.5 517.5 Q103 479 86 441 Q70 403 54.5 366 Q39 329 24 291 Q19 282 15 271.5 Q11 261 6 251 L24 269 Q34 278 40.5 284 Q47 290 56 298 Q60 301 63.5 303.5 Q67 306 72 307 Q85 308 94 298 Q98 294 96 284 Q94 275 91.5 267 Q89 259 86 250 Q78 230 70 211 Q62 192 54 172 L49 157 Q48 155 48 154 Q48 153 47.5 153 Q47 153 47 152 L47 151 Q49 152 50.5 154 Q52 156 55 159 Q68 172 91 196 Q114 220 137 243 Q163 270 193 300 Z " />
<glyph glyph-name="i" unicode="i" horiz-adv-x="139" d="M40 395 Q32 396 32 406 Q35 422 41.5 435.5 Q48 449 56 463 Q56 463 57 464 Q61 472 70 468 Q72 466 71.5 465 Q71 464 71 462 Q72 463 72 463.5 Q72 464 73 465 L74 465 Q74 461 74 461 Q72 455 70 451 Q68 446 65 442 Q62 438 60 433 Q56 425 53.5 418 Q51 411 49 403 Q47 397 46 395 Q46 394 43 394 Q43 393 42.5 394 Q42 395 42 396 Q41 396 41 395.5 Q41 395 40 395 Z M139 300 Q143 296 145 292 Q147 288 146.5 284.5 Q146 281 141 276 Q130 268 122.5 261.5 Q115 255 107.5 248.5 Q100 242 90.5 234.5 Q81 227 67 216 Q56 208 46 200.5 Q36 193 25 185 Q15 178 4 177 Q-2 177 -5 178 Q-10 180 -13.5 182 Q-17 184 -22 187 Q-36 197 -33 216 Q-32 226 -29.5 234.5 Q-27 243 -23 252 Q-13 276 0 301 Q2 307 6 306 Q9 305 12.5 305.5 Q16 306 18 301 Q23 300 21 293 Q19 288 17 282.5 Q15 277 13 272 L-8 218 Q-11 207 -10 199 Q-9 198 -9 195 Q-4 198 0 200 Q4 202 9 205 Q16 210 28 219 Q40 228 52.5 237 Q65 246 74.5 253 Q84 260 87 262 L139 300 Z " />
<glyph glyph-name="j" unicode="j" horiz-adv-x="138" d="M18 388 Q15 390 16 394 Q22 409 28.5 424 Q35 439 43 453 L43 454 Q48 463 58 459 Q60 458 60 457 Q60 456 62 455 Q62 451 61 449 Q53 437 47 424 Q41 411 36 397 L30 385 Q30 383 27 383 L26 385 Q24 384 22 385.5 Q20 387 18 388 Z M138 300 Q142 297 145 293 Q147 289 147 284.5 Q147 280 141 272 Q139 270 129 259 Q119 248 104.5 232 Q90 216 72.5 197 Q55 178 38.5 160 Q22 142 7.5 127 Q-7 112 -15 104 Q-24 95 -33.5 86 Q-43 77 -53 68 Q-54 67 -56 63 Q-65 40 -74 18.5 Q-83 -3 -93 -26 Q-101 -43 -109.5 -59 Q-118 -75 -129 -90 Q-137 -101 -146.5 -109 Q-156 -117 -168 -122 Q-175 -125 -181 -126.5 Q-187 -128 -195 -126 Q-208 -123 -216.5 -114 Q-225 -105 -227 -93 Q-229 -71 -219 -55 Q-212 -40 -197 -25 Q-186 -13 -173 -2 Q-160 9 -147 20 L-78 80 Q-77 81 -74 86 Q-62 121 -49.5 156.5 Q-37 192 -25 228 L-1 297 Q-1 300 1 302 Q2 306 7 305 Q8 304 11 304 Q21 301 19 293 Q18 287 17 281 Q16 275 14 269 Q6 244 -2 219.5 Q-10 195 -18 170 Q-22 158 -26 146 Q-30 134 -34 122 Q-35 122 -35 120 L-34 120 Q-29 125 -25 129.5 Q-21 134 -16 139 Q-11 144 -2 153.5 Q7 163 19 175.5 Q31 188 44.5 202 Q58 216 71 230 Q102 263 138 300 Z M-111 -52 Q-109 -47 -106 -42 L-107 -42 Q-108 -44 -109 -46.5 Q-110 -49 -112 -52 L-111 -52 Z M-109 -7 Q-105 3 -101.5 12.5 Q-98 22 -94 31 L-95 32 Q-95 31 -95.5 31 Q-96 31 -96 30 Q-105 23 -113.5 16 Q-122 9 -131 1 Q-145 -10 -158 -21.5 Q-171 -33 -184 -46 Q-190 -54 -196 -61.5 Q-202 -69 -206 -78 Q-208 -86 -208.5 -93 Q-209 -100 -205 -108 Q-202 -115 -194 -113 Q-184 -111 -176 -106 Q-157 -94 -146 -75 Q-135 -59 -126 -42 Q-117 -25 -109 -7 Z " />
<glyph glyph-name="l" unicode="l" horiz-adv-x="168" d="M180 668 Q182 667 183 665.5 Q184 664 185 663 L186 658 Q183 646 172.5 622.5 Q162 599 151 578 Q142 560 134.5 544 Q127 528 119.5 511.5 Q112 495 103.5 476.5 Q95 458 84 435 Q69 403 56.5 369 Q44 335 30 302 Q15 262 6 222 Q4 214 3 206 Q2 198 4 190 Q4 188 4.5 187 Q5 186 5 184 Q6 180 10 182 Q22 185 34 195 Q54 210 66.5 220 Q79 230 96 244 L168 300 Q171 297 174 293 Q176 290 176.5 286 Q177 282 172 277 Q165 270 149.5 255.5 Q134 241 124 232 Q106 215 93.5 204.5 Q81 194 61 179 Q47 167 33 163 Q18 158 6 165 Q4 167 1 167 Q-19 176 -22 196 Q-24 206 -22.5 215.5 Q-21 225 -19 235 Q-14 257 -7.5 278 Q-1 299 7 319 Q23 358 38 396.5 Q53 435 70 473 Q77 489 82.5 501 Q88 513 93 524 Q98 535 104.5 548.5 Q111 562 121 583 Q131 604 138.5 620 Q146 636 157 660 Q158 662 163 666 Q168 670 170 670 Q171 670 171.5 669.5 Q172 669 173 669 L174 670 Q176 669 177 669 Q178 669 180 668 Z M73 424 Q87 459 103 493 Q119 527 136 561 Q132 555 121.5 534 Q111 513 98.5 484.5 Q86 456 72 423.5 Q58 391 46 362 Q34 333 26 311.5 Q18 290 17 283 Q30 319 44 354 Q58 389 73 424 Z M175 637 L174 637 L156 598 L157 598 L175 637 Z " />
<glyph glyph-name="m" unicode="m" horiz-adv-x="311" d="M311 300 Q316 297 319 293 Q321 290 322 286 Q323 282 319 278 Q316 275 305 263 Q294 251 281 237 Q268 223 255.5 210 Q243 197 239 192 Q227 179 214.5 166 Q202 153 188 139 Q184 134 179.5 130.5 Q175 127 170 124 Q168 122 166.5 121.5 Q165 121 163 120 Q156 116 149 120 Q143 124 139 125 Q128 131 127 144 Q127 152 128.5 159 Q130 166 132 174 Q137 190 143.5 205 Q150 220 157 235 Q158 236 158 239 Q158 238 156 236 Q144 225 132.5 213.5 Q121 202 109 191 Q102 184 95 180 Q87 174 79 180 Q75 182 72 183 Q60 187 60 202 Q60 210 62 217.5 Q64 225 67 233 Q69 237 70 241 Q71 245 73 249 L55 231 Q44 220 32.5 208 Q21 196 9 185 Q4 179 -6 172 Q-14 166 -22 171 Q-24 173 -25 173 Q-26 173 -28 174 Q-41 180 -40 193 Q-40 209 -34 226 Q-18 276 13 322 L14 323 Q17 328 18.5 328.5 Q20 329 25 327 L27 327 Q31 326 30 322 Q30 321 29.5 321 Q29 321 29 320 L30 320 Q30 320 32 324 Q34 322 33.5 320.5 Q33 319 33 318 Q31 312 29 308 Q22 293 15 278.5 Q8 264 1 249 Q-4 236 -9 223.5 Q-14 211 -17 197 Q-17 194 -18 191 Q-12 195 -10 197 Q1 208 13 219.5 Q25 231 36 242 Q52 256 67 271 Q82 286 98 301 Q103 306 107 306 Q111 306 114.5 305.5 Q118 305 122 301 Q127 297 124 291 Q122 286 119.5 280.5 Q117 275 114 270 Q107 256 100 243.5 Q93 231 88 217 Q86 207 84 203 L85 203 Q89 206 92.5 208.5 Q96 211 100 215 Q114 228 127.5 240.5 Q141 253 155 266 Q163 274 170 280.5 Q177 287 185 295 Q193 303 204 299 Q207 298 211 294 Q216 290 215.5 286.5 Q215 283 213 279 Q210 272 206.5 265.5 Q203 259 200 253 Q190 234 181 215.5 Q172 197 164 177 Q162 170 160 163.5 Q158 157 156 150 Q155 149 155 147 Q156 148 156.5 148 Q157 148 158 149 Q171 159 182 170 Q193 181 204 192 Q210 198 227 215.5 Q244 233 263 252 L311 300 Z M117 287 Q109 273 101 259 Q93 245 87 229 Q95 244 102 258.5 Q109 273 117 287 Z M-3 255 Q3 267 9 278.5 Q15 290 21 302 L20 302 L-3 255 Z M206 280 Q195 258 183 236.5 Q171 215 163 192 Q163 193 163.5 193 Q164 193 164 194 Q169 205 174.5 216.5 Q180 228 186 239 Q191 248 195.5 257 Q200 266 205 275 Q206 276 206 277 Q206 278 207 280 L206 280 Z " />
<glyph glyph-name="k" unicode="k" horiz-adv-x="196" d="M196 300 Q199 298 202 294 Q204 291 204.5 287 Q205 283 201 279 Q194 271 187.5 264.5 Q181 258 176 253 L165 242 Q153 230 140 216.5 Q127 203 115 191 Q107 183 99 177 Q91 171 80 166 Q75 164 69.5 162 Q64 160 59 161 Q56 161 55 162 Q40 167 29.5 176.5 Q19 186 15 202 Q13 210 11.5 219 Q10 228 8 236 Q8 236 7 238 Q7 237 6 236 Q-2 227 -6 217 Q-10 207 -15 197 Q-19 189 -22.5 181 Q-26 173 -29 165 Q-31 161 -33 159 Q-35 156 -37 157 Q-37 157 -40 160 Q-41 158 -42 159 Q-43 160 -45 160 Q-46 161 -50 163 Q-54 165 -55 169 Q-57 171 -55 175 Q-53 181 -50.5 187 Q-48 193 -46 198 Q-36 220 -26.5 242 Q-17 264 -7 286 L101 526 Q116 560 131.5 593 Q147 626 162 660 Q163 662 164 663.5 Q165 665 166 667 L166 671 Q166 674 169 676 Q172 678 174 677 Q182 677 188 671 Q190 667 190 663 Q189 655 186.5 648.5 Q184 642 182 635 Q169 602 154.5 569.5 Q140 537 125 505 Q102 454 79 404.5 Q56 355 33 304 Q33 304 31 300 Q36 303 39.5 306 Q43 309 48 312 Q61 322 74 314 Q80 311 82.5 308 Q85 305 82 297 Q81 292 75 286 Q59 264 31 248 Q30 248 28 246 Q32 240 33.5 233.5 Q35 227 37 219 Q38 210 42 199 Q45 189 49 183 Q54 185 59 187.5 Q64 190 69 192 Q81 200 92 208.5 Q103 217 114 226 Q122 234 131 242 Q140 250 149 258 Q154 262 161.5 269 Q169 276 177 283 Q186 291 196 300 Z M18 286 Q19 288 19 289 Q19 290 20 291 Q46 348 72 405 Q98 462 124 519 L172 627 Q133 542 94.5 457 Q56 372 17 287 Q18 287 18 286 Z " />
<glyph glyph-name="n" unicode="n" horiz-adv-x="222" d="M222 300 Q225 297 228 293 Q230 290 230.5 286 Q231 282 227 278 Q219 269 200 248 Q181 227 161 205 Q147 192 136 181 Q126 172 116 164 Q106 156 102 154 L101 153 Q94 151 84.5 156.5 Q75 162 74 163 Q65 169 65 181 Q65 196 70 214 Q75 228 80 242.5 Q85 257 90 271 Q90 273 91 275 Q89 273 88 273 Q71 260 56.5 246.5 Q42 233 28 218 Q20 209 11.5 200.5 Q3 192 -6 183 Q-8 180 -11.5 177.5 Q-15 175 -18 173 Q-23 170 -29 173 Q-32 175 -36 177 Q-49 182 -46 195 Q-44 203 -41.5 211 Q-39 219 -36 227 Q-23 264 -1 298 Q3 306 5.5 306.5 Q8 307 16 305 Q24 301 21 294 Q19 289 18 285.5 Q17 282 15 278 Q7 262 -0.5 246.5 Q-8 231 -14 215 Q-14 214 -14.5 213 Q-15 212 -15 211 L-15 210 Q-13 211 -13 212 Q-13 213 -11 214 Q3 228 16 241 Q29 254 43 267 Q54 277 65.5 285.5 Q77 294 88 302 Q95 309 102 309 Q107 308 111.5 307 Q116 306 120 303 Q126 297 123 288 Q121 280 118 271.5 Q115 263 112 254 Q106 240 101 225.5 Q96 211 92 195 Q91 191 90 186.5 Q89 182 89 178 Q91 177 93.5 179 Q96 181 98 183 Q112 195 126.5 207.5 Q141 220 152 231 Q165 243 178 256 L222 300 Z M14 291 Q8 279 2.5 267 Q-3 255 -9 244 L-9 243 L15 291 L14 291 Z " />
<glyph glyph-name="o" unicode="o" horiz-adv-x="158" d="M158 300 Q162 297 163 294 Q165 287 154 282 Q152 281 141 278 Q130 275 128 274 Q112 270 102.5 267.5 Q93 265 81 263 Q70 261 63.5 261 Q57 261 46 260 L43 260 Q42 260 41 261 Q41 256 41.5 252 Q42 248 42 243 Q41 209 13 189 Q1 180 -11 187 Q-12 188 -16 190 Q-32 197 -33 215 Q-34 231 -28 249 Q-23 264 -15.5 277 Q-8 290 2 303 Q4 307 8 307 Q10 307 18 305 Q21 305 19 301 Q17 297 16 294 Q18 296 18.5 298 Q19 300 21 302 L22 302 Q22 300 22.5 299 Q23 298 22 296 Q18 288 16 283 Q9 270 3 256.5 Q-3 243 -7 229 Q-10 220 -10 209 Q-10 208 -9.5 207.5 Q-9 207 -9 205 Q-5 207 -4 208 Q15 223 20 246 Q22 252 21 257.5 Q20 263 18 268 Q17 270 17 271 Q17 272 16 274 Q16 279 21 280 L27 280 Q41 278 53.5 279.5 Q66 281 80 284 Q85 285 90 285.5 Q95 286 100 288 L158 300 Z M10 285 Q6 278 2.5 271 Q-1 264 -5 257 L-4 257 Q0 264 3.5 270.5 Q7 277 11 285 L10 285 Z " />
<glyph glyph-name="p" unicode="p" horiz-adv-x="191" d="M191 300 Q195 297 198 293 Q204 285 197 280 Q195 277 185 267.5 Q175 258 164 247 Q153 236 143 226 Q133 216 130 213 Q121 205 111 197 Q101 189 90 182 Q76 173 59 171 Q50 169 41.5 171 Q33 173 25 177 Q22 179 19 180 Q16 181 13 183 Q11 183 10 183.5 Q9 184 7 183 Q5 182 4 182 Q3 182 1 181 Q-5 180 -11 183 Q-13 185 -15.5 185.5 Q-18 186 -21 188 Q-24 180 -27 173 Q-30 166 -33 159 Q-50 114 -67 70 Q-84 26 -101 -19 Q-113 -52 -125.5 -84.5 Q-138 -117 -151 -150 Q-151 -150 -152 -152 Q-152 -156 -156 -155 Q-157 -154 -157 -151 L-159 -153 Q-165 -151 -167 -149 Q-172 -144 -169 -140 Q-167 -133 -165 -127 Q-163 -121 -161 -114 Q-143 -63 -125 -13.5 Q-107 36 -88 86 Q-80 110 -70 133.5 Q-60 157 -51 181 Q-51 181 -51 185 Q-51 189 -50 191 Q-46 201 -43 205 Q-37 215 -32.5 225.5 Q-28 236 -23 247 Q-18 260 -12 273 Q-6 286 -1 299 Q2 307 4.5 307.5 Q7 308 14 306 Q16 305 16 304 Q16 303 17 302 Q17 301 17.5 301.5 Q18 302 18 303 Q21 299 19 296 Q17 291 16.5 285.5 Q16 280 14 275 Q13 274 13 271 Q21 277 24 279 Q30 282 35.5 284 Q41 286 47 286 Q64 286 74 276 Q80 268 77 258 Q75 248 70.5 240.5 Q66 233 61 225 Q53 217 45.5 209.5 Q38 202 29 195 Q28 194 27.5 194 Q27 194 26 192 Q28 192 29 191.5 Q30 191 31 191 Q42 190 51 192.5 Q60 195 68 200 Q80 206 90 214 Q100 222 110 230 Q115 235 128 246 Q141 257 155 269 Q172 283 191 300 Z M69 251 Q68 249 67 247 Q66 245 65 243 Q67 245 67.5 247 Q68 249 70 251 L69 251 Z M3 204 Q17 213 27.5 224.5 Q38 236 47 250 Q49 253 50.5 256.5 Q52 260 54 264 L54 267 Q47 265 41 262 Q35 259 30 255 Q10 241 -7 219 Q-9 216 -11 212 Q-13 208 -15 204 Q-6 204 -3 203 Q1 203 3 204 Z " />
<glyph glyph-name="q" unicode="q" horiz-adv-x="194" d="M194 300 Q199 297 203 293 Q205 290 205.5 285 Q206 280 201 274 Q193 265 180 250 Q167 235 150 217 Q145 211 133.5 198 Q122 185 107.5 169.5 Q93 154 78 138.5 Q63 123 53 113 Q45 105 30.5 91 Q16 77 7 70 Q-1 64 2 55 Q4 46 6.5 37 Q9 28 11 20 Q17 -7 15 -37 Q14 -63 7 -87 Q0 -111 -12 -134 Q-18 -147 -30 -157 Q-46 -168 -61 -159 Q-65 -158 -69 -155 Q-88 -147 -89 -129 Q-91 -120 -90.5 -111 Q-90 -102 -89 -94 Q-84 -55 -74 -17.5 Q-64 20 -52 57 Q-41 91 -28 123.5 Q-15 156 -1 189 Q-1 191 0 193 Q-2 191 -3 191 Q-7 189 -10 187.5 Q-13 186 -17 187 Q-32 190 -42 200 Q-50 207 -48 220 Q-47 229 -44.5 237.5 Q-42 246 -38 254 Q-32 265 -25.5 275 Q-19 285 -9 294 Q-4 298 1 301 Q6 304 14 305 Q22 305 29 302 Q36 299 41 291 Q45 297 46 299 Q49 304 55 302 L56 302 Q58 301 60 301 Q64 300 66.5 299.5 Q69 299 70 295 Q73 292 73 293 Q75 289 75 287 Q74 279 71.5 272.5 Q69 266 66 259 Q56 236 46 213 Q36 190 26 167 Q20 153 16 143.5 Q12 134 6 120 Q6 117 2 109 Q4 109 9 114 Q30 134 48.5 153 Q67 172 88 193 Q96 200 105 209 Q113 217 122 226 Q131 235 141 246 Q164 270 194 300 Z M-7 265 Q-17 252 -22 236 L-7 265 Z M-22 213 Q-18 215 -10 222.5 Q-2 230 6 238.5 Q14 247 20.5 255.5 Q27 264 27 267 Q20 269 21 274 Q22 279 20 283 Q14 281 7 272 Q0 263 -6.5 252.5 Q-13 242 -17.5 231 Q-22 220 -22 213 Z M-59 -133 Q-49 -128 -37.5 -108 Q-26 -88 -18 -65 Q-8 -36 -9 -7 Q-10 22 -19 51 Q-19 50 -19.5 50 Q-20 50 -20 49 Q-31 17 -40.5 -16 Q-50 -49 -56 -83 Q-58 -92 -58.5 -101 Q-59 -110 -60 -120 Q-60 -123 -59.5 -126 Q-59 -129 -59 -133 Z M-21 -132 Q-15 -125 -11.5 -117 Q-8 -109 -5 -101 Q-9 -109 -13 -116.5 Q-17 -124 -21 -132 Z M-9 104 Q9 146 27 187.5 Q45 229 64 272 Q62 269 56 256 Q50 243 42 225 Q34 207 25 186.5 Q16 166 8.5 148 Q1 130 -4 117.5 Q-9 105 -9 104 Z " />
<glyph glyph-name="r" unicode="r" horiz-adv-x="223" d="M223 300 Q228 297 232 293 Q234 289 234.5 284 Q235 279 230 272 Q228 269 216.5 252.5 Q205 236 190.5 215.5 Q176 195 162.5 175.5 Q149 156 143 148 Q128 127 112 106.5 Q96 86 80 66 Q74 58 67 52 Q60 46 52 41 Q49 39 43 37 Q34 32 25 38 L19 41 Q2 48 6 66 Q8 77 11.5 86 Q15 95 19 105 Q24 118 29 130 Q34 142 39 155 Q51 189 35 222 L5 282 Q1 290 -3 298 Q-7 306 -9 315 Q-10 317 -10 320 Q-10 323 -11 326 L-11 334 Q-11 335 -10.5 336 Q-10 337 -10 339 Q-4 367 21 381 Q42 394 59 376 Q66 368 64 357 Q62 346 57.5 336.5 Q53 327 46 318 Q37 306 25 297 Q26 294 27 291.5 Q28 289 30 286 Q37 273 44 261 Q51 249 58 236 Q68 217 72 198 Q75 186 74 174 Q73 162 69 150 Q65 133 58.5 118 Q52 103 45 88 Q43 82 40 77 Q37 72 35 67 Q35 66 34.5 65.5 Q34 65 34 63 Q42 69 44 72 Q53 82 61 91 Q69 100 77 111 Q92 129 116.5 160.5 Q141 192 165 223 Q192 259 223 300 Z M14 344 Q18 350 19 354 L18 354 L13 344 L14 344 Z M17 319 Q21 322 26 328.5 Q31 335 34.5 342.5 Q38 350 40.5 357 Q43 364 43 368 Q37 366 32 360.5 Q27 355 23 348 Q19 341 17 333 Q15 325 17 319 Z M30 71 Q36 85 42.5 99 Q49 113 54 127 Q48 113 42 99.5 Q36 86 29 72 L30 71 Z " />
<glyph glyph-name="s" unicode="s" horiz-adv-x="220" d="M220 300 Q225 296 227 292 Q231 282 222 275 Q215 270 200.5 258.5 Q186 247 169 233 Q157 224 147.5 216.5 Q138 209 128 200.5 Q118 192 107.5 182 Q97 172 83 159 Q81 157 80 155 Q79 107 51 64 Q42 51 31.5 40 Q21 29 7 20 Q2 18 -3 15.5 Q-8 13 -13 12 Q-19 11 -26 14 Q-30 16 -33.5 17.5 Q-37 19 -40 21 Q-50 28 -48 41 Q-46 55 -36 69 Q-20 96 5 123 Q16 134 27.5 145 Q39 156 50 167 Q52 169 52 172 Q51 192 44.5 210.5 Q38 229 30 246 Q25 256 18.5 264.5 Q12 273 7 281.5 Q2 290 -0.5 299 Q-3 308 1 319 Q6 333 19.5 341 Q33 349 48 345 Q56 344 64 337 Q82 325 75 304 Q74 300 72.5 297 Q71 294 69 290 Q67 286 62 289 Q63 289 63 291 Q58 289 54 293 Q50 296 51 303 Q53 308 55 318 L55 324 Q55 331 47 330 Q39 329 32 323 Q25 317 23 310 Q22 305 24 297 Q27 292 30 287 Q33 282 36 277 Q47 260 56 243.5 Q65 227 71 209 Q73 204 74 200 Q75 196 77 191 Q88 199 99 208 Q109 216 121.5 225.5 Q134 235 148 246 L220 300 Z M-10 68 Q-15 62 -18.5 56 Q-22 50 -24 42 Q-21 49 -17.5 55 Q-14 61 -10 68 Z M-18 39 Q5 55 20.5 75.5 Q36 96 46 122 Q40 117 29.5 106 Q19 95 9 82 Q-1 69 -9 57 Q-17 45 -18 39 Z M46 72 Q51 76 57 87.5 Q63 99 63 103 Q58 95 54.5 87.5 Q51 80 46 72 Z " />
<glyph glyph-name="t" unicode="t" horiz-adv-x="154" d="M310 498 Q312 496 311.5 492 Q311 488 309 487 Q306 484 304 486 Q301 487 298.5 488 Q296 489 294 490 Q293 491 290 491 Q275 490 260 490 Q245 490 231 489 Q211 487 192 486 Q173 485 154 483 Q141 481 128.5 480.5 Q116 480 103 478 Q99 478 98 475 Q81 437 65.5 398.5 Q50 360 36 320 Q28 294 21 268.5 Q14 243 8 217 Q6 205 4.5 192.5 Q3 180 4 167 Q4 156 9 143 Q11 141 12 139 Q16 141 19 143 Q22 145 25 147 Q32 155 39 162 Q46 169 52 177 Q57 183 73.5 202.5 Q90 222 108 244 Q129 270 154 300 Q158 299 161 295 Q167 287 159 276 Q156 271 142.5 252.5 Q129 234 113 212 Q97 190 82 170 Q67 150 62 143 Q58 138 54 134 Q50 130 45 125 Q42 122 34 118 Q27 114 18 117 Q5 122 -3 128 Q-11 133 -15.5 140.5 Q-20 148 -22 157 Q-25 168 -25.5 180 Q-26 192 -24 203 Q-22 223 -16.5 242.5 Q-11 262 -6 282 Q8 330 26 375.5 Q44 421 65 466 Q66 468 68 474 Q69 474 69 475 Q67 475 65 474.5 Q63 474 61 474 Q44 472 26.5 470 Q9 468 -9 466 L-114 448 Q-124 447 -132 455 Q-138 459 -130 461 Q-104 467 -78.5 472.5 Q-53 478 -27 482 Q-7 485 12 487.5 Q31 490 51 492 Q58 493 64 493.5 Q70 494 76 495 Q79 495 79 497 Q86 511 92 524.5 Q98 538 105 552 Q121 585 138.5 618 Q156 651 175 683 Q176 686 180 690 Q181 693 185 691 Q187 690 188 690.5 Q189 691 190 690 Q198 687 197 680 L191 665 Q180 645 170 625 Q160 605 150 585 Q139 564 129.5 543 Q120 522 110 501 Q109 500 109 498 L121 498 Q144 500 167.5 501.5 Q191 503 214 505 Q228 506 241 506.5 Q254 507 268 507 Q276 508 284 507.5 Q292 507 300 504 Q303 503 305.5 501.5 Q308 500 310 498 Z M58 397 Q66 417 75 437 Q84 457 93 477 L92 477 Q83 457 74.5 437 Q66 417 57 397 L58 397 Z M102 497 Q122 542 144 585.5 Q166 629 189 673 Q166 629 143.5 586 Q121 543 102 497 Z " />
<glyph glyph-name="u" unicode="u" horiz-adv-x="165" d="M165 300 Q170 299 173 295 Q175 292 175 287.5 Q175 283 168 276 Q165 271 158.5 263.5 Q152 256 145 248 Q137 238 129 228 Q121 218 109 204.5 Q97 191 89 183 Q86 178 82.5 174.5 Q79 171 72 167 Q68 163 60.5 159 Q53 155 46 158 Q44 159 42 160 Q40 161 38 163 Q31 167 30.5 172.5 Q30 178 31 184 Q32 198 35.5 210.5 Q39 223 44 236 Q44 238 47 243 Q41 237 35.5 231 Q30 225 25 220 Q17 213 9.5 206 Q2 199 -6 192 Q-8 190 -10 188.5 Q-12 187 -13 186 Q-15 185 -17 185.5 Q-19 186 -21 186 Q-23 187 -25 188 Q-27 189 -29 190 Q-40 195 -38 206 Q-36 214 -33.5 222.5 Q-31 231 -28 239 Q-21 256 -14.5 271.5 Q-8 287 1 303 Q3 308 7 307 Q12 307 13 306 Q18 303 18 302 Q20 298 20 295 Q16 290 13.5 286 Q11 282 9 277 Q3 263 -3 250 Q-9 237 -13 223 Q-13 218 -15 210 L-14 209 Q-13 210 -13 212 Q-1 224 11.5 237 Q24 250 38 264 Q48 277 62 291 Q69 299 72.5 299 Q76 299 87 297 Q95 295 91 284 Q84 268 80 255 Q74 243 68.5 230.5 Q63 218 58 206 Q56 200 55 194 Q54 188 52 182 L165 300 Z M-23 241 L-30 218 L-28 222 L-23 241 Z " />
<glyph glyph-name="x" unicode="x" horiz-adv-x="137" d="M137 300 Q142 298 145 294 Q151 286 141 276 Q135 270 125 259 Q115 248 104.5 236.5 Q94 225 85 215.5 Q76 206 73 203 Q65 195 57.5 188 Q50 181 41 175 Q36 173 32 170.5 Q28 168 23 170 Q14 173 5.5 177 Q-3 181 -8 190 Q-9 191 -9 192 Q-9 193 -10 195 Q-13 192 -15.5 188.5 Q-18 185 -20 182 Q-29 169 -37 156 Q-45 143 -51 129 Q-53 125 -56 126 L-56 129 Q-57 128 -57 127 L-58 127 Q-62 129 -63 129 Q-68 132 -66 137 Q-58 160 -47 176 Q-39 187 -32 196.5 Q-25 206 -17 217 Q-14 220 -14 224 Q-15 238 -12 250 Q-9 262 -6 275 L0 302 Q1 307 7 306 Q8 305 8.5 305.5 Q9 306 10 305 Q20 303 20 294 Q18 286 17.5 278.5 Q17 271 15 263 L15 257 Q18 261 21.5 264.5 Q25 268 28 273 Q36 281 43 289.5 Q50 298 58 307 Q65 314 72 309 Q74 307 74 305 L75 306 Q76 305 76 304 Q77 300 73 296 Q65 287 57.5 278 Q50 269 42 260 L12 224 Q10 222 10 219 Q10 213 10.5 207 Q11 201 13 195 Q13 193 15 189 Q18 191 22 193 Q33 200 41.5 207.5 Q50 215 58 223 Q61 226 74 238 Q87 250 101 264 Q118 280 137 300 Z " />
<glyph glyph-name="w" unicode="w" horiz-adv-x="226" d="M226 300 Q229 296 230 292 Q232 284 220 283 Q211 282 205.5 281 Q200 280 193.5 279.5 Q187 279 178 278 Q169 277 153 275 Q153 274 146.5 272.5 Q140 271 136 263 Q130 251 124.5 238.5 Q119 226 113 213 Q107 200 100.5 187.5 Q94 175 87 162 Q85 157 81.5 153.5 Q78 150 75 147 Q67 137 58 144 Q54 146 53 147 Q45 149 41.5 155 Q38 161 37 169 Q37 188 42 211 Q42 215 44 221 L43 221 Q38 214 33 207.5 Q28 201 23 194 Q19 189 16 184.5 Q13 180 8 175 L1 168 Q-6 163 -11 167 Q-13 169 -14.5 169 Q-16 169 -18 171 Q-26 174 -28 184 Q-29 199 -26 216 Q-22 237 -16 257 Q-10 277 -2 297 Q-2 298 0 300 Q2 304 7 303 Q9 302 9.5 302.5 Q10 303 12 302 Q16 301 16.5 300.5 Q17 300 16 295 Q18 299 18 299 L19 299 Q19 297 19.5 296 Q20 295 19 293 Q17 288 16 282 Q15 276 13 271 Q8 255 3.5 240 Q-1 225 -4 209 Q-6 199 -6 195 Q-5 195 -3 197 Q9 211 19.5 226.5 Q30 242 41 258 Q44 262 47 265.5 Q50 269 52 274 Q58 282 66 279 Q73 277 78 273 Q80 269 80 267 Q78 260 77.5 253.5 Q77 247 75 240 Q72 227 69 214.5 Q66 202 63 188 Q62 185 62 181.5 Q62 178 62 175 L62 174 Q68 182 70 185 Q93 221 108 261 Q110 266 112.5 271.5 Q115 277 118 282 Q122 293 137 295 Q139 295 152.5 296 Q166 297 183 298 Q202 299 226 300 Z M82 167 Q90 179 96.5 191.5 Q103 204 109 218 L82 167 Z M130 263 Q131 266 135 272 Q134 272 134 273 Q132 271 131.5 268 Q131 265 129 263 L130 263 Z " />
<glyph glyph-name="v" unicode="v" horiz-adv-x="181" d="M181 300 Q185 297 186 293 Q188 285 176 281 Q173 280 164 277.5 Q155 275 143 272 Q131 269 118 266.5 Q105 264 93 264 Q88 264 87 262 Q81 254 78 247 Q65 225 51.5 203.5 Q38 182 24 162 Q21 158 17.5 154.5 Q14 151 11 148 Q6 144 1.5 142.5 Q-3 141 -9 145 Q-12 147 -20 151 Q-29 156 -31 170 Q-33 184 -31.5 197 Q-30 210 -27 224 Q-22 244 -15 262.5 Q-8 281 0 300 Q2 305 5 305 Q7 304 9.5 304 Q12 304 14 303 Q19 301 20 298 Q22 294 20 292 Q18 283 15 274 Q12 265 10 256 Q6 243 2.5 231 Q-1 219 -4 206 Q-6 198 -6 191 Q-6 184 -7 176 Q-7 175 -6 175 Q-1 181 4 187.5 Q9 194 14 200 Q25 214 34 229.5 Q43 245 52 261 L64 279 Q69 287 78 285 Q88 283 97 284.5 Q106 286 115 288 Q119 289 124 290 Q129 291 134 292 Q139 293 145 294 L181 300 Z M40 197 Q50 214 60 230.5 Q70 247 80 264 L79 264 Q69 247 59 230.5 Q49 214 39 197 L40 197 Z " />
<glyph glyph-name="y" unicode="y" horiz-adv-x="208" d="M208 300 Q213 297 216 293 Q218 289 217.5 284.5 Q217 280 210 272 Q205 266 195.5 256 Q186 246 177 235 L78 127 Q67 115 55 103 Q43 91 31 79 Q30 77 29.5 76.5 Q29 76 28 74 Q19 51 9.5 29.5 Q0 8 -11 -13 Q-22 -33 -34 -52 Q-46 -71 -63 -88 Q-68 -93 -73.5 -97.5 Q-79 -102 -86 -106 Q-90 -108 -94.5 -110 Q-99 -112 -104 -110 Q-118 -107 -127.5 -99 Q-137 -91 -135 -74 Q-133 -63 -128.5 -53.5 Q-124 -44 -118 -36 Q-110 -26 -102.5 -17 Q-95 -8 -87 0 Q-65 22 -43.5 43 Q-22 64 0 85 Q6 89 7 95 Q17 122 26 148.5 Q35 175 45 202 Q48 210 51 218.5 Q54 227 57 236 Q57 235 56.5 235 Q56 235 56 234 Q48 226 41 218 Q34 210 26 202 Q17 193 8 192 Q2 190 -3 193 L-9 196 Q-23 202 -23 216 Q-24 226 -22 235.5 Q-20 245 -18 254 Q-14 266 -10 277 Q-6 288 -1 299 Q1 304 4 304 Q5 304 5.5 303.5 Q6 303 7 303 L8 303 Q9 303 10 302.5 Q11 302 12 302 Q15 302 15 297 Q15 298 15.5 298 Q16 298 16 299 Q19 297 17 291 Q15 285 13 278.5 Q11 272 9 265 Q6 254 3 244 Q0 234 -1 223 Q-2 220 -1.5 217 Q-1 214 -1 211 Q1 213 2.5 214 Q4 215 6 217 Q16 225 24 233.5 Q32 242 40 252 L76 294 Q79 297 79 297 Q86 304 95 302 Q99 301 101.5 299 Q104 297 107 295 Q110 292 108 288 Q107 280 104 273.5 Q101 267 98 260 Q85 230 74 199.5 Q63 169 52 138 L52 137 L52 136 Q54 138 56 139 Q82 167 107.5 194 Q133 221 159 249 L208 300 Z M98 277 Q93 267 89.5 257 Q86 247 81 236 L82 236 Q86 247 90 256.5 Q94 266 99 277 L98 277 Z M-109 -55 Q-111 -57 -112 -60 Q-113 -63 -115 -65 L-114 -65 Q-112 -63 -111 -60 Q-110 -57 -108 -55 L-109 -55 Z M-71 -63 Q-58 -47 -48 -29.5 Q-38 -12 -29 7 Q-27 12 -24.5 17.5 Q-22 23 -19 28 L-20 29 Q-23 26 -26 23.5 Q-29 21 -31 18 Q-47 4 -62.5 -10.5 Q-78 -25 -92 -42 Q-98 -50 -103 -57.5 Q-108 -65 -112 -74 Q-115 -84 -113 -93 Q-111 -96 -109 -94 Q-103 -93 -97 -88 Q-89 -83 -83 -76.5 Q-77 -70 -71 -63 Z M-29 -34 Q-18 -17 -10 0.5 Q-2 18 5 36 Q1 27 -2.5 18 Q-6 9 -11 1 Q-16 -8 -20 -16.5 Q-24 -25 -29 -34 Z " />
<glyph glyph-name="z" unicode="z" horiz-adv-x="204" d="M204 300 Q210 297 213 293 Q215 289 214.5 283 Q214 277 206 269 Q200 262 192.5 254.5 Q185 247 179 240 Q172 232 165 224 Q153 210 140.5 197 Q128 184 116 170 Q109 162 102 155 Q95 148 88 141 Q82 135 81 128 Q79 109 74.5 90.5 Q70 72 63 55 Q49 19 30.5 -13.5 Q12 -46 -14 -75 Q-28 -91 -43.5 -105 Q-59 -119 -77 -130 Q-84 -134 -90.5 -136.5 Q-97 -139 -105 -140 Q-110 -142 -114 -140 Q-121 -138 -127.5 -135 Q-134 -132 -139 -126 Q-145 -120 -146 -112.5 Q-147 -105 -146 -97 Q-144 -85 -138.5 -74.5 Q-133 -64 -127 -53 Q-116 -36 -104.5 -21.5 Q-93 -7 -79 7 Q-50 40 -19 71.5 Q12 103 44 135 L50 141 Q57 146 55 154 Q55 168 53 180.5 Q51 193 46 204 Q43 212 39 216 Q36 220 30 222 Q16 226 8 232 Q-1 240 6 247 Q10 252 13.5 256 Q17 260 21 265 Q29 274 37.5 283.5 Q46 293 54 302 Q58 308 61 313 Q58 315 49.5 310.5 Q41 306 38 304 Q31 299 22.5 292 Q14 285 7 281 Q6 280 4 280 Q4 280 3 282 Q1 280 -0.5 281.5 Q-2 283 -4 284 Q-11 287 -6 294 Q8 308 20 317 Q32 326 52 332 Q65 335 76.5 329.5 Q88 324 86 309 Q84 303 81 297.5 Q78 292 75 287 Q67 276 58 265.5 Q49 255 39 244 Q38 242 37 241.5 Q36 241 35 239 L34 238 Q54 232 67 213 Q73 204 76.5 194.5 Q80 185 82 174 L83 173 Q83 175 85 177 L148 240 L204 300 Z M-110 -64 Q-114 -70 -117 -76.5 Q-120 -83 -124 -90 L-123 -90 Q-120 -84 -116.5 -77.5 Q-113 -71 -109 -64 L-110 -64 Z M-35 -59 Q-6 -25 13 12.5 Q32 50 45 92 Q45 93 47 97 Q45 96 44 95 Q21 70 -3 45.5 Q-27 21 -50 -3 Q-64 -18 -77.5 -34 Q-91 -50 -103 -67 Q-109 -75 -114 -84 Q-119 -93 -122 -104 Q-123 -108 -123.5 -111.5 Q-124 -115 -122 -120 Q-121 -124 -117 -123 Q-107 -122 -95 -113 Q-77 -102 -62.5 -88 Q-48 -74 -35 -59 Z M16 -25 Q40 13 55 54 Q39 15 16 -25 Z " />
<glyph glyph-name="D" unicode="D" horiz-adv-x="453" d="M-38 -33 Q-41 -32 -40 -30 Q-39 -28 -39 -26 Q-40 -28 -42 -30 Q-45 -28 -47.5 -27.5 Q-50 -27 -53 -25 Q-55 -23 -56.5 -20 Q-58 -17 -56 -14 Q-54 -7 -51.5 0.5 Q-49 8 -47 15 Q-30 68 -11 119.5 Q8 171 28 222 Q66 321 108.5 416 Q151 511 199 605 Q209 623 217.5 640 Q226 657 235 675 Q237 680 240 685 Q242 691 247 688 Q248 687 252 687 Q260 685 259 678 Q259 676 258 674 Q257 672 256 670 Q244 644 232.5 618.5 Q221 593 210 567 Q179 505 152 443 Q125 381 100 317 Q89 290 78 263.5 Q67 237 57 209 L57 207 L58 208 Q99 277 145 341 Q191 405 242 467 Q268 498 295 526.5 Q322 555 351 583 Q364 594 376 603.5 Q388 613 401 621 Q408 624 414.5 626.5 Q421 629 429 629 Q467 632 478 596 Q481 586 481.5 577 Q482 568 481 558 Q479 524 469 492.5 Q459 461 448 429 Q432 387 413 345.5 Q394 304 374 264 Q352 221 329 180 Q306 139 280 100 Q246 47 208 0 Q207 0 207 -1 Q207 -2 205 -3 L209 -3 Q226 -4 242 -4 Q258 -4 275 -5 Q296 -5 319 -11 Q324 -13 327 -17 Q328 -18 326 -24 Q326 -26 323 -26 Q298 -22 273.5 -21.5 Q249 -21 225 -21 L192 -21 Q188 -21 186 -25 Q169 -44 151 -61 Q133 -78 114 -95 Q94 -112 73.5 -126 Q53 -140 29 -151 Q6 -163 -17 -164 Q-25 -165 -33.5 -164 Q-42 -163 -50 -158 Q-52 -157 -54.5 -156 Q-57 -155 -61 -153 Q-75 -145 -82.5 -131 Q-90 -117 -88 -100 Q-85 -78 -73.5 -62.5 Q-62 -47 -43 -36 Q-41 -35 -40.5 -35 Q-40 -35 -38 -33 Z M208 579 Q207 577 207 577 Q197 557 187.5 537.5 Q178 518 170 499 Q168 495 167 492 Q166 489 164 485 Q163 484 161 483 Q156 472 151.5 460.5 Q147 449 142 437 Q140 435 139 432 Q138 429 136 426 Q138 428 138 428 Q144 441 150 454 Q156 467 161 479 Q163 481 163 482.5 Q163 484 164 485 Q164 486 164.5 486 Q165 486 165 487 Q174 507 183 526 Q192 545 201 565 Q203 568 205 572 Q207 576 208 579 Q211 584 213.5 589 Q216 594 219 599 L218 600 Q216 596 216 596 Q214 591 212 587 Q210 583 208 579 Z M404 341 Q404 340 403 339.5 Q402 339 402 338 Q381 291 357 246.5 Q333 202 307 158 Q307 157 306 156 Q308 158 308 159 Q333 199 355 240 Q377 281 396 323 Q398 328 400 332 Q402 336 404 341 Q406 346 408.5 350.5 Q411 355 413 360 L412 360 Q410 356 408.5 352 Q407 348 405 344 Q405 341 404 341 Z M-33 -32 Q-32 -30 -31.5 -30 Q-31 -30 -30 -29 Q-3 -17 25 -14 Q37 -12 49.5 -11 Q62 -10 75 -9 Q98 -7 120.5 -6.5 Q143 -6 166 -5 Q171 -3 173 0 Q196 27 217.5 55.5 Q239 84 257 115 Q305 187 343.5 263 Q382 339 415 418 Q438 471 452 531 Q454 542 456 554.5 Q458 567 458 579 Q457 586 456 593 Q455 600 453 606 Q451 611 449 612 Q447 613 442 612 Q437 610 433.5 609.5 Q430 609 425 607 Q411 602 400 594 Q389 586 378 577 Q358 560 339.5 542 Q321 524 303 505 Q255 452 212.5 398 Q170 344 131 286 Q85 217 46 145.5 Q7 74 -23 -4 Q-28 -14 -33 -32 Z M152 -24 L149 -24 Q123 -26 97.5 -27.5 Q72 -29 46 -32 Q29 -34 14 -37 Q-1 -40 -16 -47 Q-30 -53 -41 -63 Q-52 -73 -60 -87 Q-71 -105 -66 -123 Q-59 -143 -43 -146 Q-33 -149 -20 -145 Q-3 -141 10.5 -134 Q24 -127 38 -119 Q64 -104 87 -85.5 Q110 -67 130 -47 Q135 -41 140.5 -35.5 Q146 -30 152 -24 Z M92 320 Q90 315 87.5 309 Q85 303 83 297 Q86 302 88 308.5 Q90 315 92 320 Z M226 617 L225 617 Q223 610 220 605 Q221 604 221 604 Q222 607 223 610 Q224 613 226 617 Z M125 398 L124 398 Q123 394 122 391 Q121 388 120 385 Q122 387 122.5 390 Q123 393 125 396 L125 398 Z " />
<glyph glyph-name="exclam" unicode="&#x21;" horiz-adv-x="132" d="M162 503 Q160 498 159 492.5 Q158 487 156 482 Q148 464 140.5 446 Q133 428 125 410 Q100 355 76 300.5 Q52 246 29 190 Q27 187 25 179 Q24 177 24 175 Q24 173 23 171 Q23 167 22 166 Q21 166 20 166.5 Q19 167 18 167 Q16 168 14.5 168.5 Q13 169 11 170 Q4 173 6 181 Q10 194 17 210 Q43 274 70 336.5 Q97 399 126 462 Q131 473 135.5 485 Q140 497 145 509 Q147 513 151 511 L155 511 L157 511 Q159 509 161 507.5 Q163 506 161 503 L162 503 Z M-17 82 Q-15 88 -14.5 93.5 Q-14 99 -12 105 Q-10 111 -2 111 Q3 110 7 106 Q9 104 8 102 Q7 100 5 99 Q2 98 2 94 Q0 90 -0.5 86.5 Q-1 83 -2 80 Q-2 78 -2.5 77.5 Q-3 77 -3 75 Q-5 73 -6 74 Q-8 75 -10.5 76 Q-13 77 -15 78 Q-16 79 -16 80 Q-16 81 -17 82 Z " />
<glyph glyph-name="quotedbl" unicode="&#x22;" horiz-adv-x="94" d="M154 688 Q155 689 156 691 Q157 690 157 689 Q156 687 156 685 Q156 683 155 681 Q153 676 151 671 Q149 666 147 661 Q144 653 141 645 Q138 637 135 629 Q134 626 133 623 Q132 620 131 617 Q130 616 128 616 Q128 616 126 618 Q125 617 124 617 Q114 619 117 629 Q124 658 138 687 Q139 688 139 689 Q139 690 140 692 Q144 696 147 694 Q148 693 148.5 693.5 Q149 694 150 693 Q155 692 154 688 Z M120 683 L122 685 Q123 684 123 682 Q123 678 122 676 Q117 665 112.5 654.5 Q108 644 105 633 Q104 630 103 627 Q102 624 101 621 Q100 621 100 619 Q98 619 96 617 Q96 618 95.5 618.5 Q95 619 95 620 L92 620 Q87 622 87 623 Q83 625 85 628 Q89 642 92.5 655 Q96 668 102 680 Q102 681 102.5 682 Q103 683 103 684 Q106 689 108 689.5 Q110 690 115 689 Q116 688 116 688 Q121 687 120 683 Z " />
<glyph glyph-name="numbersign" unicode="&#x23;" horiz-adv-x="250" d="M65 204 Q60 202 55 201 Q50 200 45 199 Q44 198 43 198 Q35 195 28 199 Q26 201 24.5 201.5 Q23 202 21 204 Q16 209 22 211 Q34 217 46 220 Q51 222 56.5 223 Q62 224 68 226 Q71 227 71 229 Q73 235 73 239 Q70 238 67.5 238 Q65 238 62 237 Q55 235 49 234.5 Q43 234 36 232 Q33 232 27 234 Q25 236 22.5 237 Q20 238 18 240 Q15 244 20 246 Q29 248 37.5 249.5 Q46 251 55 253 Q63 255 75 257 Q79 258 79 261 Q84 275 88 289.5 Q92 304 96 319 Q96 321 98 323 Q100 328 105 328 L105 325 Q107 327 107 327 Q108 327 108.5 326.5 Q109 326 110 326 Q115 326 114 321 Q114 320 113 319 Q114 321 116 323 Q118 321 117.5 319.5 Q117 318 117 316 Q115 308 112.5 300.5 Q110 293 108 285 Q106 280 104.5 274.5 Q103 269 101 263 Q113 265 120 267 Q122 267 122 270 Q127 281 131 293 Q135 305 139 317 Q142 321 143 325 Q146 330 150 327 Q151 326 151.5 326.5 Q152 327 154 326 Q158 325 157 320 Q159 322 159 323 L160 323 Q161 321 161 318 Q158 310 155.5 301.5 Q153 293 151 285 Q149 281 145 271 Q150 273 155.5 273.5 Q161 274 166 275 Q172 276 178 276.5 Q184 277 190 275 Q195 274 201 268 Q202 267 202 264.5 Q202 262 201 261 Q200 260 198 260 Q194 262 190 262 Q186 262 182 261 Q171 259 161.5 257 Q152 255 142 253 Q138 253 137 250 Q137 248 135 242 L150 245 Q155 246 159 246.5 Q163 247 168 247 Q173 247 179 245 Q187 243 185 235 Q183 232 180 232 L153 226 Q147 224 141.5 223.5 Q136 223 130 221 Q127 219 127 218 Q122 204 118 191.5 Q114 179 110 165 Q108 162 110 159 Q111 157 109 153 Q109 153 104 153 Q103 154 99 156 Q89 161 91 169 Q94 179 96.5 188 Q99 197 101 206 Q102 208 102.5 210 Q103 212 104 215 Q99 213 95.5 212.5 Q92 212 88 210 Q88 210 86 208 L80 181 Q80 179 80 177.5 Q80 176 82 174 Q83 174 82.5 172 Q82 170 81 168 L79 168 Q77 168 77 168 Q71 170 67 172 Q62 175 62 181 Q62 186 62.5 190.5 Q63 195 64 200 Q64 202 65 204 Z M93 232 Q100 234 110 236 L111 237 Q112 243 115 248 Q110 247 106 246 Q102 245 97 244 L96 243 Q95 240 94.5 237.5 Q94 235 93 232 Z " />
<glyph glyph-name="dollar" unicode="&#x24;" horiz-adv-x="220" d="M49 82 Q48 83 47 82.5 Q46 82 45 83 Q43 83 41 85 Q37 87 36.5 91 Q36 95 38 98 Q40 108 43 117 Q46 126 48 135 L51 144 Q34 144 23 149 Q17 151 11.5 154 Q6 157 0 159 Q-3 161 -5 164 Q-6 165 -6 168 Q-5 169 -2 169 Q1 169 7 167 Q12 165 18 163.5 Q24 162 29 160 Q36 158 42.5 159.5 Q49 161 55 163 Q56 163 58 165 Q63 179 67.5 194 Q72 209 77 224 Q72 226 67 226.5 Q62 227 57 228 Q46 231 32 239 Q17 248 25 265 Q27 271 31 275.5 Q35 280 40 285 Q50 296 61 303.5 Q72 311 83 319 Q91 325 99 330.5 Q107 336 115 341 Q117 342 117.5 343 Q118 344 119 345 Q125 362 131.5 379.5 Q138 397 144 414 Q145 416 146 418.5 Q147 421 148 423 Q150 426 156 425 Q158 424 159 424.5 Q160 425 162 424 L163 424 Q165 424 167 421 Q169 418 169 416 Q168 413 168 409.5 Q168 406 166 403 Q163 394 160 385 Q157 376 154 368 Q154 367 153.5 366.5 Q153 366 153 364 Q157 366 163 370 Q169 374 175 377 Q181 380 187 383 Q196 388 208 383 Q218 380 215 370 Q215 365 212 361 Q200 339 188 317.5 Q176 296 163 274 Q159 268 156 265 Q156 265 152 263 L152 266 L152 267 Q151 265 148 266 Q144 268 143 269 Q140 271 141 277 Q148 290 154.5 302.5 Q161 315 168 329 Q171 335 174.5 341 Q178 347 181 353 Q182 354 182 354.5 Q182 355 183 356 Q181 355 180 355 Q179 355 178 354 Q169 349 160.5 343.5 Q152 338 144 333 Q143 333 140 330 Q132 307 123.5 284.5 Q115 262 107 239 L107 237 Q108 237 108.5 236.5 Q109 236 110 236 Q122 233 130 225 Q139 218 137 205 Q134 193 124 181 Q103 159 78 149 Q76 149 75 146 Q70 130 65 115 Q60 100 55 86 Q55 83 54 82 Q53 81 52.5 81 Q52 81 51 80 Q50 80 50 81 L49 82 Z M83 242 Q89 259 95 275 Q101 291 106 308 L105 308 Q92 299 80 289 Q68 279 57 267 Q54 263 51.5 259.5 Q49 256 47 252 Q44 246 50 246 Q58 244 66.5 243.5 Q75 243 83 242 Z M87 180 Q95 186 101 192.5 Q107 199 112 207 Q113 209 113 212 Q113 215 114 217 Q114 220 111 220 Q109 221 107.5 221 Q106 221 104 222 Q102 222 100 220 Q98 212 96 208 Q94 201 91.5 194 Q89 187 87 180 Z M198 347 Q201 352 203.5 357 Q206 362 209 367 L208 367 Q206 362 203 357 Q200 352 198 347 Z " />
<glyph glyph-name="percent" unicode="&#x25;" horiz-adv-x="201" d="M182 424 Q160 417 138.5 410.5 Q117 404 96 397 Q97 384 85 372 Q76 363 65 369 Q64 370 63.5 370 Q63 370 62 371 Q47 376 52 391 Q54 396 56.5 400.5 Q59 405 61 410 Q63 414 66 417.5 Q69 421 71 425 Q74 429 75 429.5 Q76 430 81 428 Q83 428 85 428 Q87 428 86 425 Q87 425 87 424 Q92 422 87 417 Q84 414 84 413 Q86 413 87 414 Q110 421 132 427.5 Q154 434 177 442 Q184 444 190 444.5 Q196 445 203 443 Q216 437 211 426 Q210 422 204 414 Q193 400 182 386.5 Q171 373 160 359 Q141 333 123 307 Q105 281 88 255 Q62 215 37.5 176 Q13 137 -13 97 Q-14 96 -14 93 L-7 100 Q5 111 17 120.5 Q29 130 40 141 Q43 144 45.5 147 Q48 150 50 153 Q53 157 59 155 L65 155 Q69 155 69 151 Q77 150 85 147.5 Q93 145 99 138 Q104 133 102 122 Q100 114 96 107.5 Q92 101 87 95 Q82 89 76.5 83.5 Q71 78 64 75 Q57 70 52 71 Q40 72 29 82 Q24 87 26 97 Q24 95 24 95 Q10 83 -4 71.5 Q-18 60 -32 48 Q-34 46 -40 42 Q-44 39 -48 43 Q-50 44 -56 46 Q-66 52 -61 61 Q-48 83 -35.5 104.5 Q-23 126 -10 147 Q24 201 58 254 Q92 307 130 358 Q142 374 154.5 389 Q167 404 179 420 Q180 421 180 421.5 Q180 422 182 424 Z M52 99 Q69 111 77 125 Q79 127 79 129 Q79 131 80 133 Q83 136 79 136 Q77 137 76.5 137.5 Q76 138 74 139 Q71 141 68 138 L56 111 Q54 107 52 99 Z M77 394 L77 395 L75 395 Q74 395 73 396 Q72 392 68 384 L69 384 Q75 390 77 394 Z " />
<glyph glyph-name="ampersand" unicode="&#x26;" horiz-adv-x="242" d="M301 560 Q297 544 290 530.5 Q283 517 275 503 Q253 461 230.5 419.5 Q208 378 185 336 Q182 331 179 325.5 Q176 320 172 314 Q171 313 170 312.5 Q169 312 168 311 Q165 307 160 310 Q145 320 125 313 Q102 304 81 285 Q76 281 73 277 Q70 273 65 269 Q66 268 66 268 L68 268 Q74 270 79.5 272.5 Q85 275 90 278 Q99 281 108 278 Q109 278 113 276 Q115 275 115 274.5 Q115 274 116 273 Q121 273 119 268 Q119 260 117 257 Q112 249 107 240.5 Q102 232 97 224 Q96 223 96 221 Q98 222 98 222 L134 249 Q136 251 138.5 252.5 Q141 254 144 253 Q146 253 148.5 252.5 Q151 252 155 251 L156 251 Q161 251 163 245 Q168 245 168 239 Q167 235 166 232 Q165 229 164 226 Q150 197 136 167.5 Q122 138 108 109 Q96 80 84.5 51 Q73 22 62 -8 Q62 -10 61 -13 Q60 -16 59 -19 Q59 -24 53 -21 Q52 -19 50.5 -19 Q49 -19 47 -18 Q38 -14 39 -4 Q42 7 45 17.5 Q48 28 51 39 Q62 69 72.5 99 Q83 129 94 159 Q97 167 100.5 175 Q104 183 109 191 L109 192 Q109 193 110 194 Q105 191 103 190 Q92 185 83 191 Q78 193 70 197 Q58 204 60 217 Q65 233 70 241 Q70 242 70.5 242.5 Q71 243 71 244 Q61 244 53 248 Q51 250 47.5 251 Q44 252 41 254 Q29 262 35 274 Q40 285 52 297 Q77 322 111 332 Q128 337 146 331 Q148 330 150 333 Q158 346 165.5 359 Q173 372 180 386 Q200 421 219.5 456.5 Q239 492 259 527 Q265 537 270 547 Q275 557 280 568 Q282 573 284 573 Q289 572 293 571 Q297 570 300 565 Q300 562 301 560 Z M68 24 Q88 75 109 125.5 Q130 176 155 226 Q129 177 108 126.5 Q87 76 68 24 Z M96 237 Q92 232 89 226.5 Q86 221 85 214 Q89 225 96 237 Z M284 532 Q287 540 292 548 Q289 544 287.5 540.5 Q286 537 284 533 L284 532 Z M195 369 L196 369 Q198 372 202 380 Q197 374 195 369 Z " />
<glyph glyph-name="quotesingle" unicode="&#x27;" horiz-adv-x="70" d="M124 684 Q127 687 127 683 Q127 680 125 678 Q120 669 116 660 Q112 651 108 641 Q107 637 103 629 Q103 630 100 627 Q100 629 99 630 L96 630 Q94 630 93 631 Q89 633 90 639 L99 663 Q101 668 103.5 673.5 Q106 679 109 685 Q111 689 112.5 689.5 Q114 690 119 689 L122 689 Q125 687 124 684 Z " />
<glyph glyph-name="parenleft" unicode="&#x28;" horiz-adv-x="184" d="M15 143 Q13 171 18.5 198 Q24 225 32 252 Q74 384 159 489 Q171 504 184 517.5 Q197 531 212 543 Q217 546 222 549 Q227 552 233 553 Q248 555 258 545 Q260 543 260.5 540.5 Q261 538 259 536 Q258 535 256 535 Q251 536 248 533 Q237 525 229 517 Q192 480 164 437 Q132 387 106.5 334.5 Q81 282 63 225 Q50 182 46 144 Q44 130 44 115 Q44 100 45 86 Q45 84 45.5 81 Q46 78 46 75 Q46 74 48 70 Q50 64 46 60 Q45 59 42 59 Q39 61 35.5 62.5 Q32 64 29 66 Q23 68 21 78 Q20 88 19 98 Q18 108 17 118 Q16 124 16 130 Q16 136 15 143 Z M159 445 Q151 437 136.5 411.5 Q122 386 107 356.5 Q92 327 80 300.5 Q68 274 67 265 Q77 289 87.5 311.5 Q98 334 109 357 Q121 380 133 402 Q145 424 159 445 Z M78 338 L77 338 L53 281 L54 281 L78 338 Z " />
<glyph glyph-name="parenright" unicode="&#x29;" horiz-adv-x="136" d="M135 462 Q135 431 129.5 401.5 Q124 372 115 343 Q104 311 90.5 281.5 Q77 252 60 223 Q46 200 31.5 177.5 Q17 155 1 133 Q-11 115 -24 97 Q-37 79 -50 61 Q-52 58 -55 55.5 Q-58 53 -60 50 Q-64 47 -69 50 Q-71 52 -72.5 52.5 Q-74 53 -76 54 Q-80 55 -85 60 Q-87 64 -84 67 Q-81 70 -78.5 73.5 Q-76 77 -73 80 Q-38 130 -6.5 181 Q25 232 51 287 Q64 314 74.5 341.5 Q85 369 93 398 Q100 427 103 457 Q106 487 106 517 Q105 525 104.5 532 Q104 539 102 547 Q101 548 101 550 Q101 555 106 555 Q117 554 122 542 Q127 534 129 525 Q131 516 133 507 L136 462 L135 462 Z M101 330 Q82 282 57.5 238 Q33 194 4 152 Q24 181 43 210.5 Q62 240 77 272 Q91 302 101 330 Z M71 304 L72 304 Q73 308 77 316 Q75 314 74 311 Q73 308 71 305 L71 304 Z " />
<glyph glyph-name="asterisk" unicode="&#x2a;" horiz-adv-x="270" d="M141 262 Q145 262 148 262.5 Q151 263 155 263 L183 263 Q187 263 191 262 Q195 261 198 260 Q203 259 207 253 Q209 251 209 247.5 Q209 244 207 242 Q206 241 204 241 Q203 241 203 243 Q200 243 198 244 Q193 247 187 247 Q171 245 156 244 Q141 243 125 241 Q124 241 123 240 Q125 238 127 235 Q129 232 131 229 Q136 222 140.5 216 Q145 210 150 203 Q151 201 152 199 Q153 197 154 195 L154 189 Q153 185 148 188 Q147 189 146 189 Q145 189 144 190 Q139 191 136 196 Q129 205 123 213.5 Q117 222 110 231 Q109 231 109 232 Q106 227 105 221 L93 182 Q92 180 92.5 177.5 Q93 175 92 173 Q92 168 88 170 Q86 170 84 172 Q72 178 75 191 Q76 195 77 198.5 Q78 202 79 207 L77 205 Q67 197 57.5 188 Q48 179 40 169 Q38 168 37 167 Q36 166 34 168 Q35 168 35 171 Q33 168 31 169.5 Q29 171 27 172 Q20 175 25 180 Q31 188 37 194.5 Q43 201 49 208 Q61 220 75 231 Q76 232 76 232.5 Q76 233 78 235 Q73 234 68.5 233.5 Q64 233 59 232 Q55 232 51.5 231.5 Q48 231 44 231 Q39 230 36 232 Q33 234 29 236 Q27 237 24 240 Q21 244 26 246 Q33 248 43 250 Q54 252 66 253 Q78 254 89 256 Q90 257 91 257 Q89 259 88.5 260 Q88 261 86 263 Q82 270 78 276 Q74 282 70 289 Q69 290 69 291 Q69 292 68 293 Q65 300 73 300 Q85 299 92 287 Q94 283 96.5 279.5 Q99 276 101 272 Q103 274 103 275 Q108 286 111.5 297 Q115 308 120 319 Q121 321 121.5 323 Q122 325 124 327 Q127 331 134 330 L136 330 Q140 329 138 325 L138 323 Q139 324 139 324.5 Q139 325 140 326 L141 326 Q143 324 142 323 Q141 322 141 320 Q137 310 134 301 Q131 292 128 283 Q127 282 127 279 Q129 281 130 281 Q137 288 143.5 294 Q150 300 157 306 Q165 312 174 309 Q177 307 176 304 Q179 307 179 303 Q179 299 177 297 Q175 294 172.5 291 Q170 288 167 285 Q156 274 144 265 Q144 263 141 262 Z " />
<glyph glyph-name="plus" unicode="&#x2b;" horiz-adv-x="226" d="M149 334 L152 337 Q152 335 152.5 333.5 Q153 332 152 330 Q150 324 148.5 318 Q147 312 144 306 Q139 296 135 286.5 Q131 277 126 268 Q125 267 125 264 L135 264 L157 264 Q160 264 163 263 Q166 262 169 261 Q170 260 170 256 Q172 256 173 257 Q173 255 173.5 254 Q174 253 174 251 Q172 245 170 243.5 Q168 242 161 241 Q150 239 139.5 238 Q129 237 117 235 Q112 234 111 233.5 Q110 233 109 228 Q103 214 98 199.5 Q93 185 87 171 Q86 169 86 163 Q87 161 86 159 Q85 157 84 155 Q82 153 77 156 Q73 158 72 159 Q60 165 64 177 Q66 184 67.5 191 Q69 198 72 205 Q74 211 76 216.5 Q78 222 80 228 L80 230 L63 230 Q60 230 56.5 229.5 Q53 229 49 230 L37 233 Q35 235 33 236 Q31 237 29 238 Q25 241 22 245 Q20 251 27 253 L48 259 Q60 261 70 262 Q80 263 91 263 Q94 263 95 266 Q98 275 101.5 284 Q105 293 109 302 Q112 309 116 315.5 Q120 322 123 329 Q124 331 125 332 Q126 333 127 335 Q131 340 134 341.5 Q137 343 143 341 Q144 341 144.5 340.5 Q145 340 147 340 Q151 340 149 334 Z " />
<glyph glyph-name="comma" unicode="&#x2c;" horiz-adv-x="120" d="M-6 104 Q-5 105 -5 107 L-7 105 Q-9 106 -10.5 106.5 Q-12 107 -14 108 Q-17 111 -16 115 Q-11 133 -4 150 Q3 167 13 184 Q15 188 17 189 Q19 190 24 188 Q30 188 31 184 Q35 184 33 180 Q33 178 31 174 Q13 144 1 111 Q0 109 0 108 Q0 107 -1 105 Q-2 102 -6 104 Z " />
<glyph glyph-name="hyphen" unicode="&#x2d;" horiz-adv-x="198" d="M147 245 Q146 244 146 242.5 Q146 241 145 240 Q145 238 142 237 Q135 237 128.5 237 Q122 237 116 236 Q104 234 92.5 233.5 Q81 233 69 232 Q63 231 56 232 Q51 233 46 235.5 Q41 238 36 241 Q36 241 33 244 Q31 250 36 250 Q46 253 57 253 Q73 255 88.5 255.5 Q104 256 120 257 Q125 258 129 257 Q133 256 138 255 Q140 253 143.5 250 Q147 247 147 245 Z " />
<glyph glyph-name="period" unicode="&#x2e;" horiz-adv-x="102" d="M30 183 Q29 181 28 180.5 Q27 180 27 178 Q25 176 25 174 Q24 170 20 172 Q16 173 12 176 Q11 176 9 178 Q5 182 6 185 Q7 190 12 190 Q20 190 24 189 Q26 188 27 186.5 Q28 185 30 183 Z " />
<glyph glyph-name="slash" unicode="&#x2f;" horiz-adv-x="208" d="M-50 6 Q-52 4 -53 5.5 Q-54 7 -56 8 Q-60 11 -59 18 Q-55 33 -49 46.5 Q-43 60 -37 74 Q-20 109 -2.5 142.5 Q15 176 34 209 Q69 275 105.5 340 Q142 405 179 471 Q197 503 217 532.5 Q237 562 258 591 Q261 597 265 602 Q269 607 272 612 Q274 614 278 614 Q282 614 284 612 Q287 609 287 608 Q287 605 285 601 Q265 569 245.5 537.5 Q226 506 206 474 Q176 423 147.5 372.5 Q119 322 90 271 Q63 221 36 172.5 Q9 124 -17 73 Q-25 57 -32.5 40.5 Q-40 24 -45 7 Q-45 6 -46 5 Q-48 4 -48 4 Q-50 4 -50 6 Z " />
<glyph glyph-name="zero" unicode="0" horiz-adv-x="160" d="M100 331 Q100 332 102 332 Q104 330 103 328 Q102 326 102 324 Q105 324 106 323 Q118 320 123 309 Q129 295 129 281 Q130 275 130 268.5 Q130 262 130 256 Q130 243 126.5 231 Q123 219 118 208 Q113 196 106 185 Q99 174 88 166 Q83 163 78.5 160.5 Q74 158 69 157 Q62 157 60 158 Q51 161 42 166 Q35 170 32.5 176 Q30 182 28 189 Q26 201 27.5 213 Q29 225 32 237 Q46 286 74 326 Q76 329 80 333 Q84 340 94 337 Q95 336 96 336 Q100 336 100 331 Z M91 305 Q89 302 85 294 Q75 272 66.5 250.5 Q58 229 54 205 Q52 191 56 181 Q65 186 73 195 Q110 240 103 298 Q103 300 101 300 Q95 304 91 305 Z M89 314 Q75 292 64 263 Q70 276 76.5 288.5 Q83 301 89 314 Z M103 195 Q108 201 111 208 Q114 215 117 222 Q113 215 109.5 208.5 Q106 202 103 195 Z " />
<glyph glyph-name="one" unicode="1" horiz-adv-x="74" d="M8 155 Q9 157 9 160 Q7 156 7 156 Q5 158 3 158.5 Q1 159 -1 161 Q-5 163 -3 166 Q-3 177 1 185 Q9 208 17 232 Q25 256 33 280 Q37 290 40.5 300 Q44 310 48 321 Q46 321 44 323 Q42 324 41.5 324.5 Q41 325 39 326 Q38 327 40 331 Q48 335 53 340 Q55 340 55.5 340.5 Q56 341 57 341 Q67 341 73 334 Q76 330 74 324 Q72 316 69.5 309 Q67 302 64 294 Q51 262 39 229 Q27 196 16 163 L13 157 Q11 153 8 155 Z " />
<glyph glyph-name="two" unicode="2" horiz-adv-x="160" d="M81 315 Q78 312 74.5 309.5 Q71 307 68 305 Q64 301 61 297.5 Q58 294 54 290 Q53 289 53.5 288 Q54 287 53 286 Q53 281 52 280 Q50 279 46 281 Q43 282 39 284 Q26 289 33 302 Q37 309 42.5 314 Q48 319 53 324 Q58 327 63 330 Q68 333 73 334 Q92 339 103 325 Q107 320 107.5 315.5 Q108 311 108 306 Q106 295 102.5 284 Q99 273 94 263 Q85 244 74.5 226.5 Q64 209 50 192 Q50 191 49 190 L54 190 Q68 192 83 193 Q98 194 113 195 Q117 195 120.5 194 Q124 193 128 192 Q131 191 136 186 Q137 184 137 181 Q137 178 135 176 Q134 175 133 175 L94 172 Q80 170 65 168.5 Q50 167 35 165 Q28 165 24 166 Q19 168 15 170.5 Q11 173 6 175 Q2 177 1.5 181.5 Q1 186 5 188 Q18 199 28 212.5 Q38 226 47 240 Q55 254 63 269 Q71 284 77 299 Q79 302 79.5 305.5 Q80 309 81 312 L81 315 Z M61 219 Q64 223 70 232.5 Q76 242 81 252 Q86 262 90 270 Q94 278 94 280 Q86 265 77.5 249.5 Q69 234 61 219 Z " />
<glyph glyph-name="three" unicode="3" horiz-adv-x="148" d="M79 262 Q81 260 84 258 Q87 256 89 254 Q106 240 104 216 Q101 187 79 168 Q68 158 53 157 Q48 157 46 158 Q28 163 15 173 Q9 179 7 182 Q1 190 8 200 Q15 208 23 211 Q26 213 29 212 Q32 211 35 210 Q36 210 36 209 Q36 208 37 208 L37 207 Q40 207 40 205 Q39 202 37 198 Q35 196 32 193.5 Q29 191 27 188 Q26 187 26 183 Q28 180 31.5 178 Q35 176 38 178 Q44 180 46 182 Q68 197 75 221 Q76 230 75 239 Q73 249 66 253 Q61 255 61 256 Q47 265 56 278 Q59 283 62 287.5 Q65 292 69 297 Q71 299 72.5 302 Q74 305 76 307 Q69 302 63 297.5 Q57 293 52 286 Q50 283 48 285 Q42 287 40 289 Q35 291 34 294.5 Q33 298 37 302 Q43 309 50 315 Q63 327 80 336 Q92 342 104 336 Q114 332 113 320 Q110 307 100 293 Q91 279 83 268 Q81 266 79 262 Z M105 314 L105 315 Q102 310 99.5 306 Q97 302 95 297 Q98 301 100.5 305 Q103 309 105 314 Z M94 201 Q93 202 93 202 L87 190 L88 190 Q92 198 94 201 Z " />
<glyph glyph-name="four" unicode="4" horiz-adv-x="103" d="M81 281 Q83 279 83.5 276.5 Q84 274 82 273 Q82 272 78 272 Q75 272 74 269 Q63 246 52.5 222 Q42 198 31 174 L29 170 Q28 168 28.5 167.5 Q29 167 29 166 Q28 164 28 160 Q25 157 24 159 Q21 161 18 161.5 Q15 162 12 164 Q7 169 8 174 Q10 179 11 185 Q12 191 14 196 Q22 213 29 230 Q36 247 44 264 Q45 265 46 267 Q36 265 32 265 Q29 265 27 264.5 Q25 264 22 264 Q18 264 12 266 Q4 270 0 273 Q-11 277 -5 286 Q-1 295 6 304 Q12 312 18.5 320 Q25 328 32 336 Q35 339 39 337 Q39 337 43 337 Q47 335 48.5 334 Q50 333 49 328 Q47 324 45.5 320 Q44 316 42 314 Q37 306 32.5 299.5 Q28 293 24 287 Q23 286 23 285 Q23 284 21 283 L28 283 Q34 284 40 284.5 Q46 285 51 285 Q53 285 55 288 Q61 300 68 312 Q75 324 84 335 Q85 337 86 338 Q87 339 87 341 Q92 347 98 344 Q102 344 103 341 Q105 338 105.5 337.5 Q106 337 105 334 Q101 326 97.5 317.5 Q94 309 90 300 Q88 295 85.5 290.5 Q83 286 81 281 Z M94 321 L94 322 Q89 312 84.5 303 Q80 294 75 285 Q76 284 76 284 Q81 293 85 302.5 Q89 312 94 321 Z M69 270 L68 270 Q63 259 57.5 247.5 Q52 236 47 225 L48 225 Q57 246 69 270 Z M25 298 Q21 294 18.5 291 Q16 288 14 283 Q14 282 15 282 Q20 291 25 298 Z " />
<glyph glyph-name="five" unicode="5" horiz-adv-x="125" d="M55 259 Q73 262 88 258 Q100 254 107 245.5 Q114 237 112 224 Q106 193 79 170 Q65 159 45 156 Q39 154 33 153.5 Q27 153 22 155 Q9 157 3 164 Q0 168 4 172 Q7 177 12.5 177.5 Q18 178 23 176 Q25 175 25.5 173.5 Q26 172 28 170 Q36 173 43.5 176.5 Q51 180 56 185 Q65 194 72 204 Q79 214 84 226 Q85 230 85.5 233 Q86 236 86 240 Q86 244 82 243 Q69 243 54 238 Q52 237 49.5 236 Q47 235 45 237 Q40 239 36 240.5 Q32 242 27 245 Q25 247 23 250 Q21 253 23 256 Q25 262 26.5 268 Q28 274 30 280 Q35 291 40.5 302 Q46 313 52 324 Q57 332 66 335 Q75 337 84 339 Q93 341 102 341 Q106 341 110 340 Q114 339 118 338 Q123 336 125 333 Q127 330 125 327.5 Q123 325 120 324 Q112 322 104.5 320.5 Q97 319 89 317 Q82 315 80 311 Q74 298 68 286 Q62 274 57 262 Q56 262 55 259 Z M77 317 Q75 316 70.5 308.5 Q66 301 61 291 Q56 281 52 272.5 Q48 264 48 261 Q52 268 55 275 Q58 282 62 289 Q67 303 77 317 Z M102 210 L101 210 Q99 207 96.5 203 Q94 199 92 195 L93 195 L102 210 Z " />
<glyph glyph-name="six" unicode="6" horiz-adv-x="125" d="M92 337 Q94 339 94 340 Q98 336 93 329 Q89 322 85 316 Q81 310 76 304 Q63 284 53 262.5 Q43 241 35 218 Q35 217 34.5 216.5 Q34 216 34 214 Q36 216 36 216 Q53 236 73 249 Q79 253 86.5 252 Q94 251 99 246 Q105 240 105 229 Q99 189 68 164 Q60 157 49 156 Q42 156 39 157 Q32 160 26 162.5 Q20 165 15 169 Q9 174 6.5 180 Q4 186 2 194 Q1 205 3 215 Q5 225 8 235 Q16 261 29 283 Q42 305 58 326 Q61 330 64.5 333.5 Q68 337 71 340 Q76 346 85 345 Q86 344 89 344 Q93 343 92 337 Z M37 178 Q42 179 48.5 184 Q55 189 61.5 196.5 Q68 204 72.5 212 Q77 220 77 226 Q64 216 53.5 205 Q43 194 37 178 Z M67 302 Q64 298 58.5 289 Q53 280 47.5 270 Q42 260 38.5 251.5 Q35 243 35 241 Q50 272 67 302 Z M85 195 Q86 195 86 194 Q88 198 90 202 Q92 206 94 209 L93 210 Q91 206 89 202.5 Q87 199 85 195 Z " />
<glyph glyph-name="seven" unicode="7" horiz-adv-x="132" d="M93 261 L109 261 L119 261 Q121 261 125 257 L125 253 Q125 251 122 251 Q114 251 107 250.5 Q100 250 93 250 Q85 250 83.5 249 Q82 248 78 243 Q64 224 50.5 206 Q37 188 23 170 Q21 168 19.5 166.5 Q18 165 18 161 Q18 157 14 159 Q12 161 10 161 Q8 161 6 163 Q0 167 2 172 Q4 175 5.5 178 Q7 181 9 184 Q20 198 29.5 212.5 Q39 227 50 241 Q50 241 52 245 Q48 244 44 243.5 Q40 243 37 242 Q32 241 27.5 240 Q23 239 17 238 Q15 236 11 238 Q9 241 5 241 Q2 244 2 245 L3 246 Q4 246 4.5 246.5 Q5 247 6 247 Q11 249 16.5 250 Q22 251 28 253 Q36 255 44.5 256 Q53 257 61 259 Q61 259 63 261 Q75 275 86 291 Q97 307 108 323 Q110 325 111.5 328.5 Q113 332 115 335 Q114 336 114 336 Q106 336 102 334 Q89 332 76.5 328.5 Q64 325 51 323 Q51 322 50 322 L48 322 Q46 324 43.5 324 Q41 324 39 326 Q33 330 40 333 Q46 335 51.5 336.5 Q57 338 62 340 Q72 341 81.5 343 Q91 345 102 347 Q107 348 112.5 347.5 Q118 347 123 345 Q130 341 132.5 337 Q135 333 133 325 Q131 317 127.5 310 Q124 303 119 295 Q104 279 95 264 Q95 263 93 261 Z M125 317 Q120 310 116.5 304 Q113 298 108 292 Q120 306 125 317 Z " />
<glyph glyph-name="eight" unicode="8" horiz-adv-x="121" d="M32 245 Q31 245 31 247 Q17 261 24 278 Q29 292 39 302 Q61 329 88 343 Q100 350 114 344 Q120 340 123 336.5 Q126 333 125 325 Q123 315 119 308 Q110 289 101 272 Q92 255 83 237 Q81 232 83 228 Q92 218 87 202 Q85 196 82.5 192 Q80 188 76 183 Q58 165 34 162 Q29 162 27 163 Q19 166 10 171 Q-3 179 2 196 Q7 218 20 232 Q24 235 26.5 238.5 Q29 242 32 245 Z M63 248 Q74 267 82.5 285 Q91 303 98 323 Q97 323 96.5 322.5 Q96 322 95 322 Q85 315 77 306.5 Q69 298 61 289 Q56 283 51.5 277.5 Q47 272 45 264 Q44 260 45 256 Q46 253 49 253 Q54 253 57.5 252.5 Q61 252 63 248 Z M24 180 Q43 185 55 197 Q62 204 65 215 Q68 224 61 229 Q58 232 54 232 Q52 234 50 232 Q47 228 44.5 225.5 Q42 223 39 218 Q34 210 30.5 203 Q27 196 25 188 Q24 185 24 180 Z M80 241 Q90 258 98.5 276 Q107 294 116 313 Q106 295 97.5 277 Q89 259 80 241 Z M31 217 Q29 212 26.5 207.5 Q24 203 22 198 Q28 207 31 217 Z M41 272 Q42 272 42 271 Q44 277 49 283 Q48 284 48 284 Q46 280 44.5 277.5 Q43 275 41 272 Z " />
<glyph glyph-name="nine" unicode="9" horiz-adv-x="144" d="M90 302 Q98 312 106 321.5 Q114 331 123 341 Q127 347 129 347.5 Q131 348 138 346 Q144 345 147 340 Q150 339 148 333 Q146 324 143.5 315 Q141 306 138 298 Q130 278 121 259 Q112 240 101 222 Q93 209 83.5 197.5 Q74 186 61 176 Q53 170 44.5 165.5 Q36 161 25 161 Q16 161 12 163 Q9 165 5 167 Q-7 172 -12 189 Q-13 196 -7 201 Q1 206 9 203 Q15 201 13 195 Q13 193 12 193 Q11 192 11 192 Q-1 187 9 178 Q10 177 12 177 Q18 179 23.5 181.5 Q29 184 35 188 Q46 196 54.5 205.5 Q63 215 71 226 Q82 240 90 256.5 Q98 273 106 290 Q107 290 106 291 Q106 290 104 288 Q96 281 89.5 273.5 Q83 266 75 258 Q67 250 57 249 L49 249 Q39 252 34 256 Q22 263 22 279 Q21 288 24 296.5 Q27 305 32 313 Q37 325 50 336 Q62 345 76 339 Q88 334 90 320 Q91 315 89 305 L89 302 L90 302 Z M81 294 Q77 294 74 297 Q70 300 71 304 Q73 314 73 318 Q73 321 72.5 323 Q72 325 72 328 Q66 324 63 321 Q58 316 54 309 Q50 302 47 295 Q42 283 43 272 Q43 271 45 265 Q56 270 64.5 278 Q73 286 81 294 Z M130 293 Q122 275 113 256.5 Q104 238 93 221 Q104 238 113 256 Q122 274 130 293 Z M50 313 Q46 305 43 301 L44 301 Q46 303 47.5 306 Q49 309 50 313 Z " />
<glyph glyph-name="colon" unicode="&#x3a;" horiz-adv-x="108" d="M54 300 Q57 299 60 299 Q63 299 65 298 Q67 296 67 295 Q67 294 68 292 Q70 288 66 284 Q65 283 64 283 Q63 283 63 282 Q59 284 54 285.5 Q49 287 47 292 Q47 294 48 295 Q49 296 49 298 Q51 300 54 300 Z M45 231 Q44 231 44 230 Q43 228 43 228 Q42 227 42 227 Q41 227 41 226 Q37 228 33.5 229.5 Q30 231 29 234 Q28 236 28.5 237 Q29 238 29 240 Q30 241 34 241 Q36 241 38 240.5 Q40 240 42 240 Q44 239 45.5 236 Q47 233 45 231 Z " />
<glyph glyph-name="semicolon" unicode="&#x3b;" horiz-adv-x="124" d="M51 237 Q53 241 54 242 Q58 240 52 234 Q50 229 47 223.5 Q44 218 41 213 Q39 208 37 204.5 Q35 201 33 196 Q32 194 30.5 191.5 Q29 189 27 187 Q24 184 21 186 Q23 188 23 189 Q19 185 19 188 Q17 190 16 190 Q15 190 14 192 Q14 193 13.5 194 Q13 195 14 197 Q19 208 24 218.5 Q29 229 36 240 Q37 241 38.5 242 Q40 243 41 245 Q44 248 47 246 Q50 246 52 245 Q57 245 52 240 Q52 239 51.5 238.5 Q51 238 51 237 Z M62 299 Q66 300 70 297 Q72 296 70.5 295 Q69 294 68 292 Q66 288 63 287 Q62 286 61.5 287 Q61 288 59 288 Q53 290 53 294 Q53 298 57 300 Q62 302 62 299 Z M72 295 Q72 293 71.5 290 Q71 287 69 285 Q68 284 67 284.5 Q66 285 64 284 Q64 286 66 288 Q67 290 72 295 Z " />
<glyph glyph-name="less" unicode="&#x3c;" horiz-adv-x="254" d="M54 226 Q56 224 58 223 Q60 222 62 221 Q73 216 85 211.5 Q97 207 108 202 Q122 197 134.5 192 Q147 187 160 182 Q164 180 170 174 Q171 172 169.5 168.5 Q168 165 166 163 L162 163 Q157 165 151 167.5 Q145 170 140 172 Q122 179 104 185 Q86 191 67 198 Q51 203 36 215 Q29 220 28 227 Q26 237 36 245 Q41 248 45.5 250.5 Q50 253 55 255 Q78 265 101 274.5 Q124 284 147 293 Q157 298 166.5 301 Q176 304 186 308 Q196 313 201 309 Q200 309 203 306 Q205 306 206 305.5 Q207 305 205 304 Q203 302 202.5 300.5 Q202 299 200 297 Q197 294 189 290 Q178 285 168.5 280.5 Q159 276 148 271 Q128 262 109.5 254 Q91 246 72 237 Q64 234 54 226 Z " />
<glyph glyph-name="equal" unicode="&#x3d;" horiz-adv-x="260" d="M131 289 Q144 290 156.5 290 Q169 290 182 291 Q187 291 197 289 Q207 285 204 277 Q204 273 200 273 Q194 273 188 272.5 Q182 272 176 272 Q158 270 140 269.5 Q122 269 104 268 Q93 267 82 267 Q71 267 60 267 Q54 267 49.5 269.5 Q45 272 40 275 Q39 275 38.5 277 Q38 279 38 281 Q38 284 43 284 L76 287 Q90 288 103.5 288 Q117 288 131 289 Z M81 215 Q76 216 69 216 Q62 216 54 217 Q45 219 39 226 Q36 230 42 232 Q45 232 48 232.5 Q51 233 54 233 Q73 234 91.5 234.5 Q110 235 128 236 Q139 237 150.5 238 Q162 239 173 239 Q177 239 180 238.5 Q183 238 187 237 Q193 235 193 228 Q192 224 187 223 Q170 221 152 220.5 Q134 220 117 218 Q109 217 100.5 216.5 Q92 216 81 215 Z " />
<glyph glyph-name="greater" unicode="&#x3e;" horiz-adv-x="210" d="M143 266 Q133 269 124 272.5 Q115 276 107 279 Q95 283 83 286 Q71 289 60 294 Q57 295 54 296.5 Q51 298 47 300 Q44 303 44 305 Q44 311 49 311 Q53 311 59 309 Q81 302 102.5 295.5 Q124 289 147 282 Q158 279 164 271 Q172 263 160 249 Q156 244 150 240 Q142 235 135 231.5 Q128 228 120 224 L42 185 Q36 181 29 177.5 Q22 174 16 170 L11 170 Q12 171 12 171.5 Q12 172 13 173 Q9 171 8 172 L2 178 Q0 181 4 185 Q10 189 12 191 Q31 202 49 212 Q67 222 86 232 Q97 238 107 244 Q117 250 127 256 Q132 258 135 260.5 Q138 263 142 265 L143 266 Z " />
<glyph glyph-name="question" unicode="&#x3f;" horiz-adv-x="224" d="M274 569 Q273 559 270.5 549.5 Q268 540 264 530 Q256 510 246.5 492 Q237 474 226 456 Q193 400 162 345 Q131 290 100 233 Q95 225 91.5 217.5 Q88 210 83 202 Q82 200 82.5 199.5 Q83 199 83 197 Q82 195 82.5 193.5 Q83 192 82 191 Q81 189 79.5 189 Q78 189 77 190 Q75 191 72.5 192 Q70 193 68 194 Q57 200 60 211 Q67 227 73 239 Q94 277 114.5 315 Q135 353 155 391 Q174 426 193 460.5 Q212 495 231 530 Q236 539 240.5 548.5 Q245 558 247 569 Q248 574 248 584 Q248 587 245 587 Q231 586 216 579 Q199 571 183 560.5 Q167 550 152 538 Q138 527 126.5 514.5 Q115 502 105 488 Q103 486 102.5 483.5 Q102 481 100 479 Q99 477 99 475.5 Q99 474 98 472 L98 469 Q96 464 94 467 Q92 468 90 469 Q88 470 86 471 Q77 475 80 484 Q82 489 84.5 493.5 Q87 498 89 503 Q98 517 109 528 Q120 539 132 550 Q148 564 165 575.5 Q182 587 201 596 Q209 599 216.5 601.5 Q224 604 233 604 Q254 606 267 591 Q274 583 274 569 Z M261 538 Q260 538 260 539 Q256 531 253 522 Q242 500 229.5 478.5 Q217 457 205 436 Q183 397 161.5 358 Q140 319 118 281 Q108 264 99 246.5 Q90 229 81 212 Q80 210 79.5 208.5 Q79 207 78 205 Q80 209 84 215 Q101 247 118.5 279 Q136 311 154 343 Q168 369 183 394.5 Q198 420 213 446 Q223 464 233 481.5 Q243 499 252 518 Q254 523 256.5 528 Q259 533 261 538 Z M16 37 Q15 36 10 39 Q7 41 7 47 Q10 62 14 76 Q18 90 23 104 Q25 110 27.5 116 Q30 122 33 127 Q35 132 40 131 L43 131 Q48 129 47 125 Q47 126 49 128 Q51 125 49 120 Q41 103 34.5 84.5 Q28 66 24 47 Q23 45 22.5 42 Q22 39 21 37 Q21 35 18 35 L16 37 Z " />
<glyph glyph-name="at" unicode="&#x40;" horiz-adv-x="260" d="M101 210 Q97 206 93 200 L78 185 Q75 182 69 180 Q68 179 65 179 Q59 181 54 183.5 Q49 186 44 191 Q41 195 40.5 199.5 Q40 204 40 209 Q41 224 49 241 Q57 264 72 279 Q75 284 82 288 Q90 293 98.5 291.5 Q107 290 112 283 Q114 280 114.5 276.5 Q115 273 115 270 Q114 268 114 265 Q118 271 121 276 Q123 278 127 284 Q129 288 134 286 Q136 285 140 285 Q146 285 144 280 Q148 283 148 278 Q147 276 147 273 Q147 270 145 268 Q141 257 136.5 246 Q132 235 128 224 Q126 219 125.5 215 Q125 211 123 206 L123 195 Q132 199 139 206 Q165 229 182 262 Q189 275 194 288 Q199 301 201 315 Q206 337 199 355 Q185 392 147 389 Q132 388 119 383 Q106 378 94 370 Q76 358 61.5 342.5 Q47 327 35 309 Q21 287 10 263 Q-1 239 -7 212 Q-9 203 -9.5 193.5 Q-10 184 -11 174 Q-13 159 -11 144 Q-10 130 -6.5 117.5 Q-3 105 5 94 Q11 86 16 84 Q21 82 32 84 Q42 86 50 90.5 Q58 95 66 100 Q79 108 89.5 118.5 Q100 129 111 139 Q113 142 116 145 Q119 148 122 151 Q126 156 133 154 Q135 153 137 153 Q142 153 140 149 Q138 145 138 144 Q139 146 140 147 Q141 148 142 150 L143 149 Q143 145 143 145 Q141 141 140 137.5 Q139 134 137 131 Q129 123 122.5 115 Q116 107 108 99 Q91 79 65 67 Q42 56 20 64 Q-23 80 -34 127 Q-40 152 -37 178 Q-35 198 -31.5 218 Q-28 238 -20 258 Q2 317 44 358 Q58 372 74 383 Q90 394 110 400 Q152 414 187 392 Q221 370 224 333 Q227 307 218 285 Q203 235 165 195 Q160 190 155 186 Q150 182 144 180 Q131 173 121 180 Q120 181 119 181 Q118 181 117 182 Q101 188 101 206 L101 210 Z M105 256 Q103 252 100 255 L99 256 Q91 258 94 266 Q94 268 94.5 269.5 Q95 271 95 273 Q89 269 82.5 259 Q76 249 71 238 Q66 227 63 216 Q60 205 61 199 Q63 201 65.5 203.5 Q68 206 70 208 L100 244 Q102 247 104 249.5 Q106 252 105 256 Z M5 268 L6 268 Q11 276 15 285 Q19 294 24 302 Q23 303 23 303 Q18 294 14 285.5 Q10 277 5 268 Z M206 265 L205 265 Q202 260 199 254 Q196 248 193 242 L194 242 Q197 248 200 254 Q203 260 206 265 Z " />
<glyph glyph-name="bracketleft" unicode="&#x5b;" horiz-adv-x="202" d="M-33 61 Q-35 65 -33 69 Q-31 73 -29 78 Q-21 101 -11.5 123 Q-2 145 8 168 Q19 197 31 224.5 Q43 252 55 281 Q74 329 97 376.5 Q120 424 146 471 Q153 483 159 495 Q165 507 172 518 Q174 521 175 523.5 Q176 526 176 529 Q179 532 180 532 Q190 535 199.5 538.5 Q209 542 219 545 Q232 549 244.5 552 Q257 555 269 559 Q274 561 277 560.5 Q280 560 284 559 Q292 557 288 550 Q286 548 285 547.5 Q284 547 283 546 Q269 542 257 538.5 Q245 535 232 531 Q223 529 214.5 526 Q206 523 197 521 Q195 520 195 520 Q190 506 183.5 492 Q177 478 170 464 Q153 426 134.5 388.5 Q116 351 98 313 Q83 279 68 245.5 Q53 212 39 178 Q26 150 14.5 122.5 Q3 95 -8 67 L-9 66 Q-4 68 0.5 69 Q5 70 10 72 Q21 74 30 78 Q34 79 36.5 78.5 Q39 78 42 77 Q44 76 44 74.5 Q44 73 46 72 Q48 71 45.5 68.5 Q43 66 41 65 Q33 61 24 58 Q11 54 -1.5 51 Q-14 48 -27 45 Q-32 43 -36 46 Q-38 48 -44 50 Q-44 50 -46 54 Q-46 58 -42 59 Q-40 60 -37.5 60 Q-35 60 -33 61 Z " />
<glyph glyph-name="backslash" unicode="&#x5c;" horiz-adv-x="262" d="M51 614 Q57 613 62.5 611 Q68 609 70 601 Q76 584 79 564 Q89 519 98 475.5 Q107 432 116 389 Q124 345 132 303 Q140 261 148 217 Q163 143 175 72 Q177 56 180 41.5 Q183 27 185 11 Q185 8 185.5 5.5 Q186 3 185 0 Q184 -2 181 -1 Q174 1 172 3 Q170 5 168.5 6.5 Q167 8 166 10 Q161 21 160 32 L136 155 Q131 185 125 214 Q119 243 113 272 Q106 304 100 336 Q94 368 87 400 Q81 431 75 462 Q69 493 62 525 Q58 545 55 565.5 Q52 586 47 607 Q46 614 51 614 Z " />
<glyph glyph-name="bracketright" unicode="&#x5d;" horiz-adv-x="160" d="M-26 48 Q-26 49 -24 51 L-28 51 Q-30 50 -32 50 Q-41 46 -50.5 43 Q-60 40 -70 37 Q-74 35 -77 35 Q-80 33 -83 36 Q-84 37 -85.5 37 Q-87 37 -89 38 Q-90 40 -91 40.5 Q-92 41 -93 43 Q-96 48 -90 51 Q-88 52 -86 52.5 Q-84 53 -82 54 Q-69 58 -57 61.5 Q-45 65 -33 69 L-30 72 Q-23 89 -16.5 106.5 Q-10 124 -2 142 Q14 180 29.5 218.5 Q45 257 61 296 Q84 353 110 408.5 Q136 464 164 519 Q168 527 171.5 535 Q175 543 180 551 Q173 551 169 550 Q153 548 136.5 545 Q120 542 103 537 Q100 536 96 538 Q94 540 92.5 540.5 Q91 541 90 543 Q87 548 91 549 Q93 550 96.5 551 Q100 552 102 553 Q138 560 171 565 Q186 567 197 561 Q197 560 199 560 Q203 559 201 554 L203 556 L204 556 Q204 554 204.5 553 Q205 552 204 550 Q201 544 198.5 538 Q196 532 192 526 Q141 403 87 280 Q64 227 40 175.5 Q16 124 -7 71 Q-8 68 -4 66 Q-1 63 -4 59 Q-4 58 -9 56 Q-15 56 -17 52 Q-19 50 -21 48.5 Q-23 47 -26 48 Z " />
<glyph glyph-name="asciicircum" unicode="&#x5e;" horiz-adv-x="119" d="M146 655 L131 640 Q120 630 110 619 Q100 608 90 597 Q88 594 85 595 L85 597 L81 597 Q79 598 77 600 Q71 603 74 610 Q77 614 79.5 617 Q82 620 85 624 Q99 641 115 656 Q131 671 148 685 Q150 687 153 688.5 Q156 690 159 690 Q169 690 175 685 Q180 680 178 672 Q176 666 174 660 Q172 654 170 648 L155 597 Q153 592 156 589 Q157 589 157 587 Q157 585 156 583 Q155 582 151 582 Q147 584 141 588 Q133 592 135 602 Q137 616 139 624 Q141 632 142.5 638.5 Q144 645 146 652 Q147 654 147 654 L146 655 Z " />
<glyph glyph-name="underscore" unicode="&#x5f;" horiz-adv-x="262" d="M110 216 Q123 215 135.5 215 Q148 215 162 214 Q167 214 170.5 213 Q174 212 179 210 Q180 210 184 206 Q185 206 185 205 Q188 202 188 202 Q188 199 186 193 Q186 191 183 191 Q166 190 150 190 Q134 190 117 189 Q95 188 73.5 187 Q52 186 30 185 Q23 184 15 187 Q13 189 10 190 Q7 191 5 193 Q2 196 2 197 Q-1 201 5 203 Q10 205 15.5 207 Q21 209 26 211 Q40 215 54.5 216 Q69 217 83 217 Q90 216 96.5 216 Q103 216 110 216 Z " />
<glyph glyph-name="grave" unicode="&#x60;" horiz-adv-x="108" d="M93 685 Q93 690 94 690.5 Q95 691 98 690 Q103 690 106 688 Q109 686 111 678 Q113 665 116 652 Q119 639 124 626 Q125 624 126 622 Q127 620 128 618 Q128 617 128.5 616.5 Q129 616 129 615 Q129 613 128.5 612 Q128 611 128 609 Q126 610 123 610 Q122 610 122 611 Q113 614 110 620 Q106 628 103.5 636.5 Q101 645 99 653 L93 683 L93 685 Z " />
<glyph glyph-name="braceleft" unicode="&#x7b;" horiz-adv-x="162" d="M37 72 Q38 72 38 71 Q38 70 39 70 Q45 70 47 66 Q50 66 50 63 Q50 60 48 54 Q46 46 37 50 Q35 52 32.5 52.5 Q30 53 28 55 Q20 58 17 66 Q5 86 10 111 Q22 188 60 258 Q63 265 66 271.5 Q69 278 72 284 Q73 285 73 287 Q67 288 61.5 290.5 Q56 293 51 296 Q41 303 49 312 Q54 317 60 325 Q70 336 76 349.5 Q82 363 87 377 Q95 398 102 418 Q109 438 116 459 Q123 477 131.5 494.5 Q140 512 151 528 Q159 542 168 550 Q179 560 196 553 Q210 548 205 532 Q203 529 201 531 Q199 532 196.5 533.5 Q194 535 191 536 Q191 537 190 536.5 Q189 536 189 535 Q184 530 180 525.5 Q176 521 173 516 Q162 499 153.5 480.5 Q145 462 137 442 Q130 422 123.5 401 Q117 380 109 360 Q104 346 98 334.5 Q92 323 82 312 Q80 308 77 305 Q82 303 82 302 Q90 301 98 293 Q103 287 100 281 Q99 276 97.5 271 Q96 266 94 261 Q86 246 79 231.5 Q72 217 65 202 Q55 180 48.5 156.5 Q42 133 37 109 Q33 90 36 76 Q36 73 37 70 L37 72 Z M91 273 L91 274 Q88 268 82 256.5 Q76 245 70.5 233 Q65 221 61 211 Q57 201 57 200 Q65 218 74 236 Q83 254 91 273 Z M143 473 L144 473 L166 517 L165 517 L143 473 Z M101 354 L100 354 Q98 348 95 342.5 Q92 337 89 332 Q89 331 90 331 Q97 343 101 354 Z " />
<glyph glyph-name="bar" unicode="&#x7c;" horiz-adv-x="162" d="M228 602 Q229 604 229.5 604.5 Q230 605 231 607 Q234 606 232 602 Q230 597 227 591.5 Q224 586 222 581 Q208 553 195 526 Q182 499 169 471 Q134 399 101.5 326.5 Q69 254 36 180 Q19 140 1.5 100.5 Q-16 61 -34 21 Q-36 16 -38 12.5 Q-40 9 -42 4 Q-45 1 -48 2 Q-48 3 -46 5 L-47 5 Q-50 2 -50 4 Q-52 6 -53.5 6.5 Q-55 7 -57 9 Q-58 10 -58 13 Q-26 85 3 155.5 Q32 226 64 297 Q85 345 106.5 391.5 Q128 438 149 486 Q162 515 176.5 542.5 Q191 570 206 598 Q210 604 213 609 Q217 613 222 611 L226 611 Q230 610 228 605 Q228 603 227 603 L228 602 Z " />
<glyph glyph-name="braceright" unicode="&#x7d;" horiz-adv-x="138" d="M69 298 Q65 299 61 302 Q52 306 48 312 Q39 322 44 333 Q46 340 48.5 346.5 Q51 353 54 360 Q67 388 79.5 416 Q92 444 105 472 Q110 483 113.5 495 Q117 507 119 519 Q120 524 120 528.5 Q120 533 120 538 Q120 543 116 542 Q111 541 107 543 Q103 545 99 547 L96 550 Q93 555 98 555 Q109 557 118.5 556 Q128 555 137 547 Q141 543 142.5 537.5 Q144 532 145 527 Q147 514 145 501 Q143 488 139 476 Q133 456 124.5 437 Q116 418 108 399 Q100 381 92 363.5 Q84 346 75 328 Q74 326 73.5 323 Q73 320 72 318 Q72 315 74 314 Q77 312 80 311 Q83 310 88 309 Q95 306 100 300 Q103 298 102.5 292.5 Q102 287 99 283 Q95 277 92 275 Q90 273 89 272.5 Q88 272 86 270 Q73 261 71 242 Q67 216 61.5 191.5 Q56 167 48 142 Q43 129 37.5 117 Q32 105 24 93 Q14 79 0 70 Q-8 65 -16.5 60.5 Q-25 56 -33 51 Q-35 50 -36.5 49.5 Q-38 49 -40 48 Q-43 47 -47 47 Q-51 47 -54 49 Q-56 51 -57.5 51.5 Q-59 52 -61 53 Q-66 55 -68 60 Q-68 65 -66 67 Q-64 69 -61 67 Q-59 65 -54 68 Q-40 76 -29 84 Q-16 93 -7.5 105.5 Q1 118 7 132 Q17 154 23 175.5 Q29 197 34 220 Q36 229 38.5 238.5 Q41 248 43 257 Q48 281 65 294 L69 298 Z M68 332 L69 332 Q83 363 97.5 393 Q112 423 123 455 Q109 424 95.5 393.5 Q82 363 68 332 Z M40 140 Q30 122 21 102 Q28 111 31.5 120.5 Q35 130 40 140 Z M68 260 L69 259 Q70 261 71 263.5 Q72 266 73 268 L72 269 Q71 267 70 264.5 Q69 262 68 260 Z " />
<glyph glyph-name="asciitilde" unicode="&#x7e;" horiz-adv-x="202" d="M52 242 Q47 237 42.5 231.5 Q38 226 33 221 Q31 218 29 215.5 Q27 213 25 211 Q24 210 23.5 210 Q23 210 22 209 Q21 210 21 212 Q18 209 14 214 Q8 217 12 222 Q14 227 16.5 230.5 Q19 234 21 238 Q26 244 31 249.5 Q36 255 41 261 Q46 268 54 266 Q65 264 69.5 258.5 Q74 253 76 244 Q77 239 78 235 Q79 231 80 226 Q80 224 81 223 Q86 228 90 232 Q94 236 98 241 Q106 251 114 260.5 Q122 270 130 280 Q132 281 132.5 282 Q133 283 134 284 Q139 291 146 288 Q151 286 152 285.5 Q153 285 151 279 Q152 280 154 284 L155 284 Q155 282 155.5 281 Q156 280 155 278 Q153 275 152 272 Q151 269 149 266 Q142 257 135.5 248 Q129 239 121 230 Q116 223 108 213 Q105 211 102.5 208.5 Q100 206 97 204 Q89 198 81 203 L75 206 Q62 210 57 226 Q55 230 54.5 233.5 Q54 237 52 242 Z " />
<glyph glyph-name="ll" unicode="&#xf6c0;" horiz-adv-x="294" d="M294 300 Q297 297 300 293 Q302 290 302.5 286 Q303 282 298 277 Q291 270 275.5 255.5 Q260 241 250 233 L250 232 Q232 215 219.5 204.5 Q207 194 187 179 Q173 167 159 163 Q144 158 132 165 Q130 167 127 167 Q107 176 104 196 Q102 215 107 235 Q111 258 119 281 Q105 262 87 237.5 Q69 213 44 179 Q36 168 24.5 164.5 Q13 161 6 165 Q2 167 1 167 Q-19 176 -22 196 Q-24 206 -22.5 215.5 Q-21 225 -19 235 Q-14 257 -7.5 278 Q-1 299 7 320 Q37 396 70 473 Q77 490 82.5 501.5 Q88 513 93 524 Q98 535 104.5 548.5 Q111 562 121 583 Q131 604 138.5 620 Q146 636 157 661 Q158 662 163 666 Q168 670 170 670 Q171 670 171.5 669.5 Q172 669 173 669 L174 670 Q176 669 177 669 Q178 669 180 668 Q182 667 182.5 666 Q183 665 185 663 L186 658 Q183 646 172.5 622.5 Q162 599 151 578 Q142 560 134.5 544 Q127 528 119 511.5 Q111 495 102.5 476.5 Q94 458 84 435 Q69 403 56.5 369 Q44 335 30 302 Q15 262 6 223 Q1 205 4 190 Q4 188 4.5 187 Q5 186 5 184 Q6 181 9 182 Q11 182 18.5 191 Q26 200 37 214.5 Q48 229 61 247 Q74 265 88 284 Q120 328 159 383 Q168 406 177 428 Q186 450 196 473 Q203 490 208.5 501.5 Q214 513 219 524 Q224 535 230.5 548.5 Q237 562 247 583 Q257 604 264.5 620 Q272 636 283 661 Q284 662 289 666 Q294 670 296 670 Q297 670 297.5 669.5 Q298 669 299 669 Q299 669 301 670 Q302 669 303 669 Q304 669 306 668 Q309 666 311 663 L312 658 Q310 646 299 622.5 Q288 599 277 578 Q268 560 260.5 544 Q253 528 245.5 511.5 Q238 495 229.5 476.5 Q221 458 211 435 Q196 403 183 369 Q170 335 156 302 Q141 262 132 223 Q130 215 129 206.5 Q128 198 130 190 Q130 188 132 184 Q132 180 136 182 Q150 187 160 195 Q180 210 192.5 220 Q205 230 223 244 Q230 249 241.5 258.5 Q253 268 265 277 Q278 288 294 300 Z M301 637 Q296 627 291.5 617.5 Q287 608 282 598 L283 598 L301 637 Z M156 598 L157 598 L175 637 L174 637 L156 598 Z M136 561 Q132 555 121.5 534 Q111 513 98.5 484.5 Q86 456 72 424 Q58 392 46 363 Q34 334 26 312.5 Q18 291 17 284 Q30 319 44 354 Q58 389 73 424 Q102 497 136 561 Z M263 561 Q258 555 248 534 Q238 513 225 484.5 Q212 456 198 424 Q184 392 172 363 Q160 334 152 312.5 Q144 291 143 284 Q156 319 170.5 354 Q185 389 199 424 Q214 459 229.5 493.5 Q245 528 263 561 Z " />
<glyph glyph-name="B" unicode="B" horiz-adv-x="461" d="M168 306 L172 306 Q194 305 214.5 303 Q235 301 257 294 Q281 287 301.5 275.5 Q322 264 340 246 Q351 235 359 221.5 Q367 208 369 194 Q378 154 369 117 Q364 92 354 70.5 Q344 49 333 28 Q312 -4 287.5 -32 Q263 -60 233 -82 Q211 -96 188 -107.5 Q165 -119 139 -126 Q122 -130 103.5 -130 Q85 -130 68 -125 Q54 -120 40 -113 Q26 -106 15 -95 Q-16 -64 -11 -23 Q-11 -17 -9 -9 Q-13 -16 -14 -22 Q-24 -52 -34 -82 Q-44 -112 -52 -143 Q-54 -148 -55.5 -152 Q-57 -156 -59 -161 Q-62 -165 -63.5 -165 Q-65 -165 -70 -163 Q-71 -162 -72.5 -161.5 Q-74 -161 -76 -160 Q-88 -155 -85 -146 Q-83 -131 -80.5 -116.5 Q-78 -102 -75 -87 Q-60 -18 -37 47 Q-14 112 15 174 Q23 194 33 211.5 Q43 229 52 249 Q57 258 60.5 268 Q64 278 67 288 Q90 344 115 398 Q140 452 166 506 Q186 548 207 588.5 Q228 629 249 670 Q251 674 253.5 677.5 Q256 681 259 685 Q262 689 267 688.5 Q272 688 276 684 Q278 680 278.5 678.5 Q279 677 277 674 Q273 668 270 661.5 Q267 655 263 649 Q250 622 236.5 594.5 Q223 567 209 540 Q191 504 174.5 467 Q158 430 141 393 Q140 392 140 390 Q141 392 143 394 Q191 463 253 523 Q270 540 286.5 554.5 Q303 569 323 582 Q333 587 342 591.5 Q351 596 362 598 Q379 601 389 596 Q401 591 404.5 585 Q408 579 408 568 Q407 559 405.5 551 Q404 543 399 535 Q391 518 380.5 503 Q370 488 358 474 Q335 448 310 424 Q285 400 258 378 Q237 361 215.5 343.5 Q194 326 171 309 L168 306 Z M337 214 Q336 216 336 216 Q317 254 278 272 Q265 277 252.5 280 Q240 283 227 284 Q213 286 200 286.5 Q187 287 174 288 Q156 288 143 297 Q131 305 137 316 Q139 318 141 319 Q143 320 145 322 Q162 336 178.5 348.5 Q195 361 209 374 Q274 423 326 477 Q340 492 352 508 Q364 524 375 543 Q378 550 380.5 557 Q383 564 385 572 Q387 575 385 582 Q380 581 377 580.5 Q374 580 371 579 Q346 570 324 553 Q297 534 274 512 Q251 490 231 466 Q192 424 160 379 Q128 334 99 286 Q94 277 89 269 Q84 261 81 252 Q58 192 36.5 132 Q15 72 -5 10 Q-5 8 -6 7 Q-1 18 5.5 27.5 Q12 37 20 45 Q37 61 53.5 73.5 Q70 86 90 97 Q126 117 162 136 Q198 155 236 172 Q261 183 285.5 194.5 Q310 206 337 214 Z M341 195 Q338 195 337 194 Q332 191 326 188.5 Q320 186 314 183 Q265 162 220 139.5 Q175 117 130 92 Q110 81 91.5 69 Q73 57 56 42 Q45 32 34.5 20 Q24 8 19 -7 Q13 -20 11 -33.5 Q9 -47 14 -62 Q22 -81 33.5 -92 Q45 -103 65 -108 Q78 -110 90.5 -109 Q103 -108 115 -106 Q140 -100 160.5 -90 Q181 -80 200 -67 Q282 -10 323 81 Q333 101 338.5 122.5 Q344 144 343 167 Q344 175 344.5 181 Q345 187 341 195 Z M337 51 Q340 55 344 63.5 Q348 72 351.5 81 Q355 90 357 97.5 Q359 105 359 107 Q354 93 348 79 Q342 65 337 51 Z M39 160 L40 160 Q42 165 44.5 170 Q47 175 49 181 L48 181 Q47 181 47 182 Q45 176 42.5 170.5 Q40 165 39 160 Z M-53 -126 L-54 -126 Q-56 -131 -58 -136 Q-60 -141 -60 -146 L-59 -146 Q-59 -141 -57 -136 Q-55 -131 -53 -126 Z M15 3 L14 4 Q14 -1 13 -4 Q12 -7 10 -10 L10 -11 Q12 -7 13.5 -4 Q15 -1 15 3 Z M37 154 Q37 151 36 148 Q35 145 34 142 L35 142 Q36 145 37 148 Q38 151 37 154 Z " />
<glyph glyph-name="C" unicode="C" horiz-adv-x="421" d="M457 655 Q455 648 453.5 641 Q452 634 448 627 Q441 612 433 598 Q425 584 414 572 Q392 543 371 514 Q350 485 329 457 Q303 422 278.5 387 Q254 352 234 314 Q230 307 226.5 300 Q223 293 219 286 Q217 280 216 278 Q215 273 211 276 Q208 279 206 279 Q195 283 198 292 Q200 300 203 306 Q206 312 208 317 Q220 343 234 367 Q248 391 263 414 Q286 445 308 475 Q330 505 352 536 Q368 559 383.5 580.5 Q399 602 413 626 Q417 634 420.5 641.5 Q424 649 428 657 Q429 659 429 661.5 Q429 664 430 667 Q428 666 425 666 Q422 666 419 665 Q391 655 364 636 Q340 619 318.5 598.5 Q297 578 278 556 Q235 510 200 459.5 Q165 409 134 355 Q105 306 81.5 255 Q58 204 39 153 Q29 124 20 96.5 Q11 69 6 40 Q-3 -7 -2 -51 Q-2 -68 0 -83.5 Q2 -99 8 -116 Q10 -122 17 -130 Q18 -134 22 -132 Q35 -126 44 -117 Q58 -106 69 -93.5 Q80 -81 91 -68 Q133 -17 175.5 33.5 Q218 84 260 136 Q274 151 286 166 Q298 181 311 196 Q313 198 314.5 199.5 Q316 201 319 200 Q322 199 324.5 199 Q327 199 330 198 Q334 198 332 193 Q331 192 331 190 Q333 192 334 195 Q336 190 335 189 Q334 186 334 183.5 Q334 181 332 179 Q313 153 295 130 Q245 66 195 3 Q145 -60 93 -123 Q86 -131 79.5 -138 Q73 -145 65 -152 Q61 -154 55.5 -156.5 Q50 -159 45 -162 Q35 -166 22 -159 Q12 -155 6 -152 Q-17 -141 -26 -116 Q-32 -102 -34 -88 Q-36 -74 -38 -59 Q-40 -30 -37.5 -2.5 Q-35 25 -30 53 Q-8 153 38 247 Q72 319 113 385.5 Q154 452 205 515 Q231 549 258 578.5 Q285 608 318 635 Q333 647 349 658 Q365 669 382 678 Q402 688 418 688 Q429 688 437 686 Q445 684 450 677 Q453 675 454 671 Q455 667 457 665 L457 655 Z M157 411 Q152 405 141 387 Q130 369 117.5 345 Q105 321 91 293.5 Q77 266 65.5 242 Q54 218 46.5 199.5 Q39 181 38 174 Q63 235 93 294 Q123 353 157 411 Z M445 636 Q440 628 435.5 619.5 Q431 611 426 603 Q438 618 445 636 Z " />
<glyph glyph-name="A" unicode="A" horiz-adv-x="445" d="M317 229 Q309 227 300.5 224.5 Q292 222 283 219 Q265 213 244 207.5 Q223 202 203 196 Q201 195 201 194.5 Q201 194 199 192 Q181 163 162 135 Q143 107 122 80 Q109 60 94 42.5 Q79 25 62 9 Q51 0 40.5 -7 Q30 -14 17 -19 Q-18 -29 -49 -6 Q-63 3 -70 16.5 Q-77 30 -78 44 Q-84 72 -66 95 Q-56 109 -44.5 119 Q-33 129 -19 138 Q2 152 24.5 161.5 Q47 171 71 179 Q96 187 119.5 194 Q143 201 168 208 Q173 211 174 212 Q212 274 249.5 334 Q287 394 326 456 Q351 498 376.5 538 Q402 578 430 617 Q439 631 450 644.5 Q461 658 472 671 Q477 676 480.5 679 Q484 682 489 686 Q494 690 500.5 689.5 Q507 689 513 687 Q525 682 524 670 Q524 662 522 655 Q520 648 518 640 Q503 598 483 558 Q451 489 422 420.5 Q393 352 366 281 Q365 274 358 266 Q358 265 357 263 Q372 268 386.5 272 Q401 276 412 285 Q415 287 417 286.5 Q419 286 421 286 Q422 286 422.5 285.5 Q423 285 424 285 Q427 285 427 281 Q430 282 430 279 Q432 276 429 273 Q424 268 419.5 265 Q415 262 411 260 Q397 255 382 250.5 Q367 246 353 241 Q349 239 348 237 Q316 152 288 66.5 Q260 -19 237 -108 Q235 -121 231 -133.5 Q227 -146 222 -159 Q220 -161 220 -165 Q219 -167 216 -166 Q212 -164 211 -163 Q205 -161 204 -154 Q206 -149 208 -141 Q223 -75 240 -11 Q257 53 280 116 Q289 144 298 171.5 Q307 199 318 226 Q318 228 317 229 Z M301 121 Q301 123 301 123 Q313 151 322 179 Q331 207 341 234 Q341 235 342 237 Q340 233 340 234 Q330 207 320.5 179.5 Q311 152 301 124 L301 121 Q299 117 298.5 113.5 Q298 110 296 106 Q295 105 293 101 Q295 104 296 106.5 Q297 109 299 112 Q299 115 301 121 Z M493 651 L492 651 Q491 650 491 649.5 Q491 649 490 648 Q482 636 473 624.5 Q464 613 456 600 Q427 561 401.5 520.5 Q376 480 350 439 Q319 388 289 338.5 Q259 289 227 238 Q224 233 222.5 230 Q221 227 219 223 L220 223 Q245 231 272.5 238.5 Q300 246 326 254 Q327 254 329 256 Q351 314 375 370.5 Q399 427 424 484 Q439 519 454.5 554.5 Q470 590 485 625 Q487 632 489 638 Q491 644 493 651 Z M153 180 Q151 179 151 179 L150 179 Q122 171 94.5 161.5 Q67 152 39 140 Q-1 123 -29 95 Q-37 87 -43.5 78 Q-50 69 -52 58 Q-63 32 -43 6 Q-34 -6 -19 -6 Q-12 -6 -9 -5 Q11 -1 27 14 Q41 27 54.5 41 Q68 55 79 71 Q95 94 109.5 116.5 Q124 139 141 161 Q145 168 153 180 Z M275 46 L276 46 Q281 57 284.5 69 Q288 81 292 92 L291 92 Q287 81 283.5 69 Q280 57 275 46 Z M514 650 L513 650 Q513 645 511.5 641 Q510 637 509 632 L509 631 Q510 636 512 640.5 Q514 645 514 650 Z " />
<glyph glyph-name="quotedblleft" unicode="&#x201c;" horiz-adv-x="94" d="M150 688 L152 691 Q153 690 153 689 L151 681 Q149 676 147 671 Q145 666 143 661 L131 629 L127 617 Q126 616 124 616 Q124 616 122 618 Q121 617 120 617 Q110 619 113 629 Q120 658 134 687 Q135 688 135 689 Q135 690 136 692 Q140 696 143 694 Q144 693 144.5 693.5 Q145 694 146 693 Q151 692 150 688 Z M116 683 L118 685 Q119 684 119 682 Q119 678 118 676 Q113 665 108.5 654.5 Q104 644 101 633 L97 621 Q96 621 96 619 Q94 619 92 617 Q92 618 91.5 618.5 Q91 619 91 620 L88 620 Q83 622 83 623 Q79 625 81 628 Q85 642 88.5 655 Q92 668 98 680 Q98 681 98.5 682 Q99 683 99 684 Q102 689 104 689.5 Q106 690 111 689 Q112 688 112 688 Q117 687 116 683 Z " />
<glyph glyph-name="quotedblright" unicode="&#x201d;" horiz-adv-x="92" d="M150 688 L152 691 Q153 690 153 689 L151 681 Q149 676 147 671 Q145 666 143 661 L131 629 L127 617 Q126 616 124 616 Q124 616 122 618 Q121 617 120 617 Q110 619 113 629 Q120 658 134 687 Q135 688 135 689 Q135 690 136 692 Q140 696 143 694 Q144 693 144.5 693.5 Q145 694 146 693 Q151 692 150 688 Z M116 683 L118 685 Q119 684 119 682 Q119 678 118 676 Q113 665 108.5 654.5 Q104 644 101 633 L97 621 Q96 621 96 619 Q94 619 92 617 Q92 618 91.5 618.5 Q91 619 91 620 L88 620 Q83 622 83 623 Q79 625 81 628 Q85 642 88.5 655 Q92 668 98 680 Q98 681 98.5 682 Q99 683 99 684 Q102 689 104 689.5 Q106 690 111 689 Q112 688 112 688 Q117 687 116 683 Z " />
<glyph glyph-name="quoteright" unicode="&#x2019;" horiz-adv-x="84" d="M124 684 Q127 687 127 683 Q127 680 125 678 Q120 669 116 660 Q112 651 108 641 Q107 637 103 629 Q103 630 100 627 Q100 629 99 630 L96 630 Q94 630 93 631 Q89 633 90 639 L99 663 L109 685 Q111 689 112.5 689.5 Q114 690 119 689 L122 689 Q125 687 124 684 Z " />
<glyph glyph-name="quoteleft" unicode="&#x2018;" horiz-adv-x="83" d="M124 684 Q127 687 127 683 Q127 680 125 678 Q120 669 116 660 Q112 651 108 641 Q107 637 103 629 Q103 630 100 627 Q100 629 99 630 L96 630 Q94 630 93 631 Q89 633 90 639 L99 663 L109 685 Q111 689 112.5 689.5 Q114 690 119 689 L122 689 Q125 687 124 684 Z " />
<glyph glyph-name="dieresis" unicode="&#xa8;" horiz-adv-x="94" d="M101 570 Q100 568 99 567.5 Q98 567 98 565 Q96 563 96 561 Q95 557 91 559 L83 563 Q82 563 80 565 Q76 569 77 572 Q78 577 83 577 Q91 577 95 576 Q97 575 98 573.5 Q99 572 101 570 Z M145 570 Q144 568 143 567.5 Q142 567 142 565 Q140 563 140 561 Q139 557 135 559 L127 563 Q126 563 124 565 Q120 569 121 572 Q122 577 127 577 Q135 577 139 576 Q141 575 142 573.5 Q143 572 145 570 Z " />
<glyph glyph-name="ydieresis" unicode="&#xff;" horiz-adv-x="208" d="M208 300 Q213 297 216 293 Q218 289 217.5 284.5 Q217 280 210 272 Q205 266 195.5 256 Q186 246 177 235 L78 127 Q67 115 55 103 Q43 91 31 79 Q30 77 29.5 76.5 Q29 76 28 74 Q19 51 9.5 29.5 Q0 8 -11 -13 Q-22 -33 -34 -52 Q-46 -71 -63 -88 Q-68 -93 -73.5 -97.5 Q-79 -102 -86 -106 Q-90 -108 -94.5 -110 Q-99 -112 -104 -110 Q-118 -107 -127.5 -99 Q-137 -91 -135 -74 Q-133 -63 -128.5 -53.5 Q-124 -44 -118 -36 Q-110 -26 -102.5 -17 Q-95 -8 -87 0 Q-65 22 -43.5 43 Q-22 64 0 85 Q6 89 7 95 Q17 122 26 148.5 Q35 175 45 202 Q48 210 51 218.5 Q54 227 57 236 Q57 235 56.5 235 Q56 235 56 234 Q48 226 41 218 Q34 210 26 202 Q17 193 8 192 Q2 190 -3 193 L-9 196 Q-23 202 -23 216 Q-24 226 -22 235.5 Q-20 245 -18 254 Q-14 266 -10 277 Q-6 288 -1 299 Q1 304 4 304 Q5 304 5.5 303.5 Q6 303 7 303 L8 303 Q9 303 10 302.5 Q11 302 12 302 Q15 302 15 297 Q15 298 15.5 298 Q16 298 16 299 Q19 297 17 291 Q15 285 13 278.5 Q11 272 9 265 Q6 254 3 244 Q0 234 -1 223 Q-2 220 -1.5 217 Q-1 214 -1 211 Q1 213 2.5 214 Q4 215 6 217 Q16 225 24 233.5 Q32 242 40 252 L76 294 Q79 297 79 297 Q86 304 95 302 Q99 301 101.5 299 Q104 297 107 295 Q110 292 108 288 Q107 280 104 273.5 Q101 267 98 260 Q85 230 74 199.5 Q63 169 52 138 L52 137 L52 136 Q54 138 56 139 Q82 167 107.5 194 Q133 221 159 249 L208 300 Z M98 277 Q93 267 89.5 257 Q86 247 81 236 L82 236 Q86 247 90 256.5 Q94 266 99 277 L98 277 Z M-109 -55 Q-111 -57 -112 -60 Q-113 -63 -115 -65 L-114 -65 Q-112 -63 -111 -60 Q-110 -57 -108 -55 L-109 -55 Z M-71 -63 Q-58 -47 -48 -29.5 Q-38 -12 -29 7 Q-27 12 -24.5 17.5 Q-22 23 -19 28 L-20 29 Q-23 26 -26 23.5 Q-29 21 -31 18 Q-47 4 -62.5 -10.5 Q-78 -25 -92 -42 Q-98 -50 -103 -57.5 Q-108 -65 -112 -74 Q-115 -84 -113 -93 Q-111 -96 -109 -94 Q-103 -93 -97 -88 Q-89 -83 -83 -76.5 Q-77 -70 -71 -63 Z M-29 -34 Q-18 -17 -10 0.5 Q-2 18 5 36 Q1 27 -2.5 18 Q-6 9 -11 1 Q-16 -8 -20 -16.5 Q-24 -25 -29 -34 Z M71 405 Q70 403 69 402.5 Q68 402 68 400 Q66 398 66 396 Q65 392 61 394 L53 398 Q52 398 50 400 Q46 404 47 407 Q48 412 53 412 Q61 412 65 411 Q67 410 68 408.5 Q69 407 71 405 Z M115 405 Q114 403 113 402.5 Q112 402 112 400 Q110 398 110 396 Q109 392 105 394 L97 398 Q96 398 94 400 Q90 404 91 407 Q92 412 97 412 Q105 412 109 411 Q111 410 112 408.5 Q113 407 115 405 Z " />
<glyph glyph-name="udieresis" unicode="&#xfc;" horiz-adv-x="165" d="M165 300 Q170 299 173 295 Q175 292 175 287.5 Q175 283 168 276 Q165 271 158.5 263.5 Q152 256 145 248 Q137 238 129 228 Q121 218 109 204.5 Q97 191 89 183 Q86 178 82.5 174.5 Q79 171 72 167 Q68 163 60.5 159 Q53 155 46 158 Q44 159 42 160 Q40 161 38 163 Q31 167 30.5 172.5 Q30 178 31 184 Q32 198 35.5 210.5 Q39 223 44 236 Q44 238 47 243 Q41 237 35.5 231 Q30 225 25 220 Q17 213 9.5 206 Q2 199 -6 192 Q-8 190 -10 188.5 Q-12 187 -13 186 Q-15 185 -17 185.5 Q-19 186 -21 186 Q-23 187 -25 188 Q-27 189 -29 190 Q-40 195 -38 206 Q-36 214 -33.5 222.5 Q-31 231 -28 239 Q-21 256 -14.5 271.5 Q-8 287 1 303 Q3 308 7 307 Q12 307 13 306 Q18 303 18 302 Q20 298 20 295 Q16 290 13.5 286 Q11 282 9 277 Q3 263 -3 250 Q-9 237 -13 223 Q-13 218 -15 210 L-14 209 Q-13 210 -13 212 Q-1 224 11.5 237 Q24 250 38 264 Q48 277 62 291 Q69 299 72.5 299 Q76 299 87 297 Q95 295 91 284 Q84 268 80 255 Q74 243 68.5 230.5 Q63 218 58 206 Q56 200 55 194 Q54 188 52 182 L165 300 Z M-23 241 L-30 218 L-28 222 L-23 241 Z M66 404 Q65 402 64 401.5 Q63 401 63 399 Q61 397 61 395 Q60 391 56 393 L48 397 Q47 397 45 399 Q41 403 42 406 Q43 411 48 411 Q56 411 60 410 Q62 409 63 407.5 Q64 406 66 404 Z M110 404 Q109 402 108 401.5 Q107 401 107 399 Q105 397 105 395 Q104 391 100 393 L92 397 Q91 397 89 399 Q85 403 86 406 Q87 411 92 411 Q100 411 104 410 Q106 409 107 407.5 Q108 406 110 404 Z " />
<glyph glyph-name="odieresis" unicode="&#xf6;" horiz-adv-x="158" d="M158 300 Q162 297 163 294 Q165 287 154 282 Q152 281 141 278 Q130 275 128 274 Q112 270 102.5 267.5 Q93 265 81 263 Q70 261 63.5 261 Q57 261 46 260 L43 260 Q42 260 41 261 Q41 256 41.5 252 Q42 248 42 243 Q41 209 13 189 Q1 180 -11 187 Q-12 188 -16 190 Q-32 197 -33 215 Q-34 231 -28 249 Q-23 264 -15.5 277 Q-8 290 2 303 Q4 307 8 307 Q10 307 18 305 Q21 305 19 301 Q17 297 16 294 Q18 296 18.5 298 Q19 300 21 302 L22 302 Q22 300 22.5 299 Q23 298 22 296 Q18 288 16 283 Q9 270 3 256.5 Q-3 243 -7 229 Q-10 220 -10 209 Q-10 208 -9.5 207.5 Q-9 207 -9 205 Q-5 207 -4 208 Q15 223 20 246 Q22 252 21 257.5 Q20 263 18 268 Q17 270 17 271 Q17 272 16 274 Q16 279 21 280 L27 280 Q41 278 53.5 279.5 Q66 281 80 284 Q85 285 90 285.5 Q95 286 100 288 L158 300 Z M10 285 Q6 278 2.5 271 Q-1 264 -5 257 L-4 257 Q0 264 3.5 270.5 Q7 277 11 285 L10 285 Z M46 405 Q45 403 44 402.5 Q43 402 43 400 Q41 398 41 396 Q40 392 36 394 L28 398 Q27 398 25 400 Q21 404 22 407 Q23 412 28 412 Q36 412 40 411 Q42 410 43 408.5 Q44 407 46 405 Z M90 405 Q89 403 88 402.5 Q87 402 87 400 Q85 398 85 396 Q84 392 80 394 L72 398 Q71 398 69 400 Q65 404 66 407 Q67 412 72 412 Q80 412 84 411 Q86 410 87 408.5 Q88 407 90 405 Z " />
<glyph glyph-name="idieresis" unicode="&#xef;" horiz-adv-x="139" d="M139 300 L87 262 Q84 260 74.5 253 Q65 246 52.5 237 Q40 228 28 219 Q16 210 9 205 Q4 202 0 200 Q-4 198 -9 195 Q-9 198 -10 199 Q-11 207 -8 218 L13 272 Q15 277 17 282.5 Q19 288 21 293 Q23 300 18 301 Q16 306 12.5 305.5 Q9 305 6 306 Q2 307 0 301 Q-13 276 -23 252 Q-27 243 -29.5 234.5 Q-32 226 -33 216 Q-36 197 -22 187 Q-17 184 -13.5 182 Q-10 180 -5 178 Q-2 177 4 177 Q15 178 25 185 Q36 193 46 200.5 Q56 208 67 216 Q81 227 90.5 234.5 Q100 242 107.5 248.5 Q115 255 122.5 261.5 Q130 268 141 276 Q146 281 146.5 284.5 Q147 288 145 292 Q143 296 139 300 Z M50 405 Q49 403 48 402.5 Q47 402 47 400 Q45 398 45 396 Q44 392 40 394 L32 398 Q31 398 29 400 Q25 404 26 407 Q27 412 32 412 Q40 412 44 411 Q46 410 47 408.5 Q48 407 50 405 Z M94 405 Q93 403 92 402.5 Q91 402 91 400 Q89 398 89 396 Q88 392 84 394 L76 398 Q75 398 73 400 Q69 404 70 407 Q71 412 76 412 Q84 412 88 411 Q90 410 91 408.5 Q92 407 94 405 Z " />
<glyph glyph-name="edieresis" unicode="&#xeb;" horiz-adv-x="182" d="M182 300 Q197 285 188 278 Q178 270 170.5 263 Q163 256 157 251 Q150 245 145 241 Q131 230 118.5 219 Q106 208 93 197 Q79 186 64.5 174.5 Q50 163 35 153 Q27 148 18.5 144 Q10 140 0 138 Q-14 136 -25 142 Q-27 143 -29 144 Q-31 145 -33 146 Q-53 154 -56 180 Q-57 203 -46 227 Q-39 245 -30 262 Q-21 279 -7 293 Q1 303 9 308 Q22 318 38 310 Q51 303 51 290 Q52 273 41 258 Q30 243 15 240 Q6 238 1 242 Q-1 244 -4 244.5 Q-7 245 -10 247 Q-12 242 -14 238 Q-16 234 -18 229 Q-23 220 -26 210.5 Q-29 201 -31 191 Q-32 184 -32 178 Q-32 172 -30 166 Q-28 160 -25.5 158.5 Q-23 157 -17 159 Q-4 162 6 168 Q20 176 33.5 185.5 Q47 195 61 205 Q81 220 100 235 Q119 250 138 265 L182 300 Z M6 261 Q5 260 5 257 Q16 261 24.5 273 Q33 285 31 296 Q28 293 28 294 Q19 289 15 282 L6 261 Z M-14 252 Q-17 246 -20 240.5 Q-23 235 -25 229 Q-22 234 -19 240 Q-16 246 -13 251 L-14 252 Z M59 404 Q58 402 57 401.5 Q56 401 56 399 Q54 397 54 395 Q53 391 49 393 L41 397 Q40 397 38 399 Q34 403 35 406 Q36 411 41 411 Q49 411 53 410 Q55 409 56 407.5 Q57 406 59 404 Z M103 404 Q102 402 101 401.5 Q100 401 100 399 Q98 397 98 395 Q97 391 93 393 L85 397 Q84 397 82 399 Q78 403 79 406 Q80 411 85 411 Q93 411 97 410 Q99 409 100 407.5 Q101 406 103 404 Z " />
<glyph glyph-name="adieresis" unicode="&#xe4;" horiz-adv-x="213" d="M214 277 L192 255 Q186 250 181 245.5 Q176 241 170 235 Q164 229 155.5 221 Q147 213 134 201 Q125 192 116 184 Q107 176 96 169 Q89 164 81 161 Q73 158 65 157 Q57 157 50 161 Q46 163 43 164 Q23 173 24 196 Q25 210 30 227 L30 228 Q31 229 31 230 Q27 226 21 218 Q16 210 10.5 203.5 Q5 197 -3 192 Q-5 190 -8.5 189 Q-12 188 -15 186 Q-18 185 -25 187 Q-27 189 -28.5 189.5 Q-30 190 -32 191 Q-46 197 -46 212 Q-47 220 -45 226.5 Q-43 233 -41 239 Q-29 270 -5 296 Q0 301 4.5 304 Q9 307 16 309 Q31 312 40 302 Q42 299 42.5 295.5 Q43 292 43 289 Q42 286 41.5 283.5 Q41 281 40 278 Q42 280 42.5 281 Q43 282 44 283 Q49 288 52.5 294 Q56 300 61 305 Q65 312 74 310 Q76 309 78.5 308.5 Q81 308 83 305 Q87 303 86.5 300 Q86 297 85 295 L73 265 Q66 249 60.5 233.5 Q55 218 51 202 Q49 197 49 192 Q49 187 49 182 Q49 177 55 178 Q63 180 70.5 184.5 Q78 189 86 194 Q93 199 111.5 214 Q130 229 150.5 246 Q171 263 189 278.5 Q207 294 213 300 Q222 291 219 285 Q216 279 214 277 Z M-22 207 Q-5 221 7.5 237 Q20 253 33 269 L30 272 Q28 273 26.5 273 Q25 273 23 274 Q20 276 21 282 Q23 288 23 291 Q16 287 8 276 Q0 265 -7 252 Q-14 239 -18.5 226.5 Q-23 214 -22 207 Z M-19 243 Q-16 248 -13.5 253 Q-11 258 -8 263 L-9 263 Q-11 258 -14 253 Q-17 248 -19 243 Z M75 283 L74 283 Q72 278 70 274.5 Q68 271 66 266 L67 266 Q69 270 71 274 Q73 278 75 283 Z M64 405 Q63 403 62 402.5 Q61 402 61 400 Q59 398 59 396 Q58 392 54 394 L46 398 Q45 398 43 400 Q39 404 40 407 Q41 412 46 412 Q54 412 58 411 Q60 410 61 408.5 Q62 407 64 405 Z M108 405 Q107 403 106 402.5 Q105 402 105 400 Q103 398 103 396 Q102 392 98 394 L90 398 Q89 398 87 400 Q83 404 84 407 Q85 412 90 412 Q98 412 102 411 Q104 410 105 408.5 Q106 407 108 405 Z " />
<glyph glyph-name="Udieresis" unicode="&#xdc;" horiz-adv-x="489" d="M413 360 Q407 349 397 337 Q355 275 313 213.5 Q271 152 228 89 Q215 71 201.5 52.5 Q188 34 173 17 Q164 7 154.5 -1.5 Q145 -10 134 -18 Q127 -22 121 -25 Q115 -28 107 -27 Q99 -27 93 -24 Q63 -14 53 20 Q49 34 47 47.5 Q45 61 43 75 Q41 106 43 136.5 Q45 167 50 199 Q57 248 69 295 Q81 342 97 390 Q111 429 125.5 468 Q140 507 158 545 Q166 560 174.5 575.5 Q183 591 191 606 Q193 614 195 618 Q202 633 211 646.5 Q220 660 229 674 Q230 678 235 676 Q236 675 237 675.5 Q238 676 239 675 Q241 675 243 673 Q244 671 244 671 Q245 668 244 665 Q243 662 242 659.5 Q241 657 240 654 Q202 591 172 524 Q151 476 133.5 428 Q116 380 102 330 Q95 307 89.5 283.5 Q84 260 78 237 Q76 221 73.5 205.5 Q71 190 69 174 Q67 161 66 148 Q65 135 64 122 Q63 98 64 74 Q65 50 71 27 Q74 19 76.5 12 Q79 5 84 -1 Q89 -8 93.5 -9 Q98 -10 106 -7 Q114 -4 120 1 Q126 6 134 11 Q161 38 182 66 Q205 98 228 130 Q251 162 273 194 Q316 254 356.5 313.5 Q397 373 439 433 Q445 441 451 449.5 Q457 458 462 466 Q472 483 479 498 Q510 561 547 623 Q555 634 563 645.5 Q571 657 579 668 Q590 679 600 671 Q609 665 605 657 Q602 650 598.5 643.5 Q595 637 592 630 Q575 602 558.5 575 Q542 548 523 522 Q512 507 504.5 491 Q497 475 489 458 Q465 407 442.5 355.5 Q420 304 399 252 Q368 176 339 100.5 Q310 25 284 -52 Q278 -68 273.5 -84 Q269 -100 265 -116 Q263 -118 263 -123 Q263 -125 263 -126.5 Q263 -128 265 -130 Q267 -132 266.5 -135.5 Q266 -139 264 -141 Q261 -143 258 -141 Q256 -141 255 -140 Q254 -139 253 -139 Q241 -135 243 -121 Q245 -113 246 -106 Q247 -99 249 -91 Q257 -58 268.5 -25.5 Q280 7 292 39 Q316 108 342 175.5 Q368 243 394 311 Q399 323 403.5 334.5 Q408 346 413 357 Q414 358 414 360 L413 360 Z M441 770 Q440 768 439 767.5 Q438 767 438 765 Q436 763 436 761 Q435 757 431 759 L423 763 Q422 763 420 765 Q416 769 417 772 Q418 777 423 777 Q431 777 435 776 Q437 775 438 773.5 Q439 772 441 770 Z M485 770 Q484 768 483 767.5 Q482 767 482 765 Q480 763 480 761 Q479 757 475 759 L467 763 Q466 763 464 765 Q460 769 461 772 Q462 777 467 777 Q475 777 479 776 Q481 775 482 773.5 Q483 772 485 770 Z " />
<glyph glyph-name="Odieresis" unicode="&#xd6;" horiz-adv-x="528" d="M-17 2 Q-17 25 -13 49.5 Q-9 74 -3 99 Q21 197 72 284 Q84 303 97 320.5 Q110 338 127 354 Q136 362 145.5 368.5 Q155 375 166 380 Q169 381 171.5 381.5 Q174 382 177 382 Q179 383 181 385 Q194 408 206.5 430.5 Q219 453 233 476 Q277 551 337 617 Q352 634 368 648.5 Q384 663 404 675 Q414 681 425 686 Q436 691 448 693 Q479 699 505 684.5 Q531 670 541 638 Q548 618 548 595 Q549 564 544 533.5 Q539 503 531 474 Q520 436 506.5 399 Q493 362 477 326 Q444 250 406 177.5 Q368 105 323 35 Q304 6 283.5 -21 Q263 -48 240 -73 Q204 -114 162 -140 Q150 -147 137 -152.5 Q124 -158 110 -160 Q87 -164 62 -155 Q35 -144 18.5 -123.5 Q2 -103 -6 -76 Q-12 -58 -14.5 -39 Q-17 -20 -17 2 Z M344 81 Q345 82 345 82.5 Q345 83 346 84 Q372 126 395 168.5 Q418 211 439 255 Q439 257 440 258 Q438 256 438 255 Q418 213 396 172.5 Q374 132 350 92 Q348 89 344 81 Q339 75 337 70 L338 70 Q340 73 341 75.5 Q342 78 344 81 Z M167 361 Q166 360 165.5 360 Q165 360 164 359 Q159 355 154.5 351.5 Q150 348 145 344 Q129 330 117 313.5 Q105 297 94 280 Q76 251 62.5 220.5 Q49 190 38 158 Q26 123 17.5 87.5 Q9 52 6 14 Q3 -25 10 -60 Q13 -75 18.5 -89.5 Q24 -104 34 -117 Q59 -153 101 -141 Q126 -134 150 -118 Q171 -104 190 -86.5 Q209 -69 226 -49 Q248 -25 267 1 Q286 27 303 54 Q361 143 407 233 Q432 281 453.5 329 Q475 377 493 428 Q505 461 514 494.5 Q523 528 527 563 Q532 595 526 625 Q521 648 510 663 Q498 678 481 678 Q468 679 456 675.5 Q444 672 433 667 Q402 650 373 621 Q353 602 335.5 580.5 Q318 559 301 536 Q278 505 258 473 Q238 441 219 408 Q215 401 211 394 Q207 387 203 379 Q204 378 204 378 Q217 371 225 356 Q228 348 229 341 Q230 334 231 326 Q232 315 231 304.5 Q230 294 228 284 Q223 258 214 234 Q205 210 194 187 Q187 175 180 163.5 Q173 152 164 141 Q161 138 153 132 Q153 131 150 131 Q148 132 146.5 132.5 Q145 133 143 135 Q137 138 142 143 L148 149 Q156 160 163 171.5 Q170 183 176 195 Q189 221 198.5 249 Q208 277 212 307 Q215 328 211 347 Q209 360 201 367 Q198 371 195 367 Q187 352 179.5 337.5 Q172 323 164 309 Q151 286 139.5 263 Q128 240 118 216 Q115 210 113 204.5 Q111 199 109 193 Q109 191 109 190.5 Q109 190 111 188 Q113 186 114 184 Q114 176 106 179 Q104 180 102 181 Q100 182 98 183 Q91 187 92 194 Q92 200 93 203 Q97 213 100 223 Q103 233 108 243 Q121 272 136 300.5 Q151 329 166 358 Q166 359 166.5 359.5 Q167 360 167 361 Z M512 811 Q511 809 510 808.5 Q509 808 509 806 Q507 804 507 802 Q506 798 502 800 L494 804 Q493 804 491 806 Q487 810 488 813 Q489 818 494 818 Q502 818 506 817 Q508 816 509 814.5 Q510 813 512 811 Z M556 811 Q555 809 554 808.5 Q553 808 553 806 Q551 804 551 802 Q550 798 546 800 L538 804 Q537 804 535 806 Q531 810 532 813 Q533 818 538 818 Q546 818 550 817 Q552 816 553 814.5 Q554 813 556 811 Z " />
<glyph glyph-name="Idieresis" unicode="&#xcf;" horiz-adv-x="205" d="M-47 -133 Q-42 -131 -37.5 -130 Q-33 -129 -28 -127 Q-14 -122 2 -118 Q18 -114 35 -110 Q39 -110 42.5 -110.5 Q46 -111 49 -115 Q51 -118 51 -121 Q52 -126 48 -126 Q23 -131 -0.5 -138.5 Q-24 -146 -48 -156 Q-49 -157 -50 -157 Q-59 -158 -57 -166 Q-58 -171 -63 -168 Q-65 -167 -68 -166 Q-71 -165 -73 -166 Q-84 -172 -95 -177.5 Q-106 -183 -117 -188 Q-121 -189 -123 -193 L-126 -193 Q-133 -192 -136 -190 Q-142 -188 -143 -183.5 Q-144 -179 -139 -175 Q-135 -171 -130 -168.5 Q-125 -166 -120 -164 Q-111 -159 -100.5 -155 Q-90 -151 -81 -145 Q-78 -145 -76 -141 Q-68 -121 -60.5 -99.5 Q-53 -78 -46 -57 Q-13 24 19.5 104.5 Q52 185 85 266 Q116 344 149.5 419 Q183 494 219 569 Q232 597 245.5 623.5 Q259 650 273 678 Q273 681 274 684 Q272 683 268 683 Q245 676 220.5 670 Q196 664 171 659 Q166 657 159 660 Q154 662 153 665 Q149 667 150 669 Q151 671 154 672 Q162 676 166 677 Q186 682 206.5 686.5 Q227 691 249 696 Q266 699 283 701.5 Q300 704 316 707 Q325 709 336 709 Q347 709 358 707 Q363 705 369.5 702.5 Q376 700 381 695 Q383 693 383 690 Q383 684 376 687 Q374 689 371.5 690.5 Q369 692 364 694 Q358 696 352 695 Q338 693 326.5 691.5 Q315 690 301 688 Q300 687 299 687 Q297 681 296.5 675.5 Q296 670 294 664 Q286 644 276 624.5 Q266 605 258 585 Q231 534 208 481.5 Q185 429 160 375 Q125 286 88.5 198.5 Q52 111 16 23 Q0 -16 -14.5 -53 Q-29 -90 -44 -127 Q-45 -129 -45.5 -130 Q-46 -131 -47 -133 Z M251 589 Q247 582 232.5 551 Q218 520 199 477 Q180 434 159 385 Q138 336 120 294 Q102 252 90 223.5 Q78 195 78 192 Q119 292 162.5 391 Q206 490 251 589 Z M289 827 Q288 825 287 824.5 Q286 824 286 822 Q284 820 284 818 Q283 814 279 816 L271 820 Q270 820 268 822 Q264 826 265 829 Q266 834 271 834 Q279 834 283 833 Q285 832 286 830.5 Q287 829 289 827 Z M333 827 Q332 825 331 824.5 Q330 824 330 822 Q328 820 328 818 Q327 814 323 816 L315 820 Q314 820 312 822 Q308 826 309 829 Q310 834 315 834 Q323 834 327 833 Q329 832 330 830.5 Q331 829 333 827 Z " />
<glyph glyph-name="Edieresis" unicode="&#xcb;" horiz-adv-x="380" d="M260 85 Q260 85 262 89 L263 89 Q263 87 263.5 86.5 Q264 86 264 85 Q263 83 263 82 Q263 81 261 79 Q247 52 231 26.5 Q215 1 197 -24 Q171 -62 143 -98.5 Q115 -135 85 -171 Q80 -177 74 -182.5 Q68 -188 60 -193 Q46 -200 30 -193 Q26 -191 21.5 -188.5 Q17 -186 13 -183 Q5 -177 0 -167.5 Q-5 -158 -7 -148 Q-12 -122 -6 -89 Q-1 -62 8.5 -36.5 Q18 -11 32 13 Q88 115 171 194 Q171 197 173 197 L173 198 Q171 198 170 197 Q150 189 131.5 181.5 Q113 174 92 169 Q77 165 60 163 Q47 161 36 167 Q34 169 32 169 Q20 174 15.5 183.5 Q11 193 12 205 Q14 216 18 227 Q22 238 27 249 Q39 277 52.5 302 Q66 327 81 352 Q126 424 179 488 Q232 552 295 610 Q337 649 385 682 Q399 690 412 696.5 Q425 703 439 707 Q459 712 473 708 Q492 701 491 679 Q489 668 485.5 658 Q482 648 477 639 Q466 619 454.5 600.5 Q443 582 430 565 Q407 530 382.5 495.5 Q358 461 335 426 Q316 397 297.5 367 Q279 337 260 307 Q258 304 256 298 Q255 294 252 296 Q248 298 246 298 Q239 302 242 308 Q244 318 248 325 Q259 344 269.5 362.5 Q280 381 293 400 Q318 438 343.5 476 Q369 514 395 552 Q410 574 424 596 Q438 618 452 641 Q457 650 462 659 Q467 668 469 679 Q470 683 470.5 686.5 Q471 690 470 695 Q466 694 462 693.5 Q458 693 455 692 Q441 688 428.5 681 Q416 674 405 666 Q366 643 329 609 Q264 550 210.5 484.5 Q157 419 109 346 Q94 322 80.5 299.5 Q67 277 56 251 Q51 240 46 228 Q41 216 39 202 Q37 199 37 194.5 Q37 190 37 187 Q39 180 45 180 Q64 182 77 187 Q102 195 124.5 203 Q147 211 170 220 L206 235 Q211 237 216 237 Q221 237 226 235 Q231 233 232.5 227.5 Q234 222 229 218 Q221 208 209 200 Q161 155 123 105 Q85 55 55 -2 Q44 -22 34.5 -43.5 Q25 -65 19 -87 Q17 -99 15.5 -110 Q14 -121 14 -132 Q15 -141 17 -150 Q19 -159 24 -169 Q29 -176 30.5 -176.5 Q32 -177 40 -173 Q48 -168 54.5 -162 Q61 -156 66 -149 Q101 -111 131.5 -71 Q162 -31 193 11 Q206 31 218.5 50.5 Q231 70 245 90 Q247 91 247.5 92.5 Q248 94 250 93 Q252 93 254.5 92.5 Q257 92 259 92 Q262 90 260 88 Q260 86 259 85 L260 85 Z M89 329 Q78 309 67.5 289 Q57 269 48 249 Q59 269 68.5 288.5 Q78 308 89 329 Z M70 39 Q48 3 32 -32 Q42 -15 51 3 Q60 21 70 39 Z M447 831 Q446 829 445 828.5 Q444 828 444 826 Q442 824 442 822 Q441 818 437 820 L429 824 Q428 824 426 826 Q422 830 423 833 Q424 838 429 838 Q437 838 441 837 Q443 836 444 834.5 Q445 833 447 831 Z M491 831 Q490 829 489 828.5 Q488 828 488 826 Q486 824 486 822 Q485 818 481 820 L473 824 Q472 824 470 826 Q466 830 467 833 Q468 838 473 838 Q481 838 485 837 Q487 836 488 834.5 Q489 833 491 831 Z " />
<glyph glyph-name="Adieresis" unicode="&#xc4;" horiz-adv-x="445" d="M317 229 Q309 227 300.5 224.5 Q292 222 283 219 Q265 213 244 207.5 Q223 202 203 196 Q201 195 201 194.5 Q201 194 199 192 Q181 163 162 135 Q143 107 122 80 Q109 60 94 42.5 Q79 25 62 9 Q51 0 40.5 -7 Q30 -14 17 -19 Q-18 -29 -49 -6 Q-63 3 -70 16.5 Q-77 30 -78 44 Q-84 72 -66 95 Q-56 109 -44.5 119 Q-33 129 -19 138 Q2 152 24.5 161.5 Q47 171 71 179 Q96 187 119.5 194 Q143 201 168 208 Q173 211 174 212 Q212 274 249.5 334 Q287 394 326 456 Q351 498 376.5 538 Q402 578 430 617 Q439 631 450 644.5 Q461 658 472 671 Q477 676 480.5 679 Q484 682 489 686 Q494 690 500.5 689.5 Q507 689 513 687 Q525 682 524 670 Q524 662 522 655 Q520 648 518 640 Q503 598 483 558 Q451 489 422 420.5 Q393 352 366 281 Q365 274 358 266 Q358 265 357 263 Q372 268 386.5 272 Q401 276 412 285 Q415 287 417 286.5 Q419 286 421 286 Q422 286 422.5 285.5 Q423 285 424 285 Q427 285 427 281 Q430 282 430 279 Q432 276 429 273 Q424 268 419.5 265 Q415 262 411 260 Q397 255 382 250.5 Q367 246 353 241 Q349 239 348 237 Q316 152 288 66.5 Q260 -19 237 -108 Q235 -121 231 -133.5 Q227 -146 222 -159 Q220 -161 220 -165 Q219 -167 216 -166 Q212 -164 211 -163 Q205 -161 204 -154 Q206 -149 208 -141 Q223 -75 240 -11 Q257 53 280 116 Q289 144 298 171.5 Q307 199 318 226 Q318 228 317 229 Z M301 121 Q301 123 301 123 Q313 151 322 179 Q331 207 341 234 Q341 235 342 237 Q340 233 340 234 Q330 207 320.5 179.5 Q311 152 301 124 L301 121 Q299 117 298.5 113.5 Q298 110 296 106 Q295 105 293 101 Q295 104 296 106.5 Q297 109 299 112 Q299 115 301 121 Z M493 651 L492 651 Q491 650 491 649.5 Q491 649 490 648 Q482 636 473 624.5 Q464 613 456 600 Q427 561 401.5 520.5 Q376 480 350 439 Q319 388 289 338.5 Q259 289 227 238 Q224 233 222.5 230 Q221 227 219 223 L220 223 Q245 231 272.5 238.5 Q300 246 326 254 Q327 254 329 256 Q351 314 375 370.5 Q399 427 424 484 Q439 519 454.5 554.5 Q470 590 485 625 Q487 632 489 638 Q491 644 493 651 Z M153 180 Q151 179 151 179 L150 179 Q122 171 94.5 161.5 Q67 152 39 140 Q-1 123 -29 95 Q-37 87 -43.5 78 Q-50 69 -52 58 Q-63 32 -43 6 Q-34 -6 -19 -6 Q-12 -6 -9 -5 Q11 -1 27 14 Q41 27 54.5 41 Q68 55 79 71 Q95 94 109.5 116.5 Q124 139 141 161 Q145 168 153 180 Z M275 46 L276 46 Q281 57 284.5 69 Q288 81 292 92 L291 92 Q287 81 283.5 69 Q280 57 275 46 Z M514 650 L513 650 Q513 645 511.5 641 Q510 637 509 632 L509 631 Q510 636 512 640.5 Q514 645 514 650 Z M511 807 Q510 805 509 804.5 Q508 804 508 802 Q506 800 506 798 Q505 794 501 796 L493 800 Q492 800 490 802 Q486 806 487 809 Q488 814 493 814 Q501 814 505 813 Q507 812 508 810.5 Q509 809 511 807 Z M555 807 Q554 805 553 804.5 Q552 804 552 802 Q550 800 550 798 Q549 794 545 796 L537 800 Q536 800 534 802 Q530 806 531 809 Q532 814 537 814 Q545 814 549 813 Q551 812 552 810.5 Q553 809 555 807 Z " />
<glyph glyph-name="Ydieresis" unicode="&#x178;" horiz-adv-x="440" d="M572 688 Q577 688 575 683 Q575 680 573 674 Q566 663 559.5 653 Q553 643 545 632 Q539 623 532 614.5 Q525 606 519 597 Q506 579 495 556 Q442 462 396 359 Q382 326 367.5 292.5 Q353 259 339 225 Q321 180 303.5 136 Q286 92 269 47 Q259 22 250.5 -3 Q242 -28 234 -53 Q232 -58 231 -64 Q230 -70 228 -76 Q228 -77 228.5 -78 Q229 -79 229 -80 Q228 -82 229 -84 Q230 -86 229 -88 Q227 -92 224 -90 Q219 -87 212 -84 Q206 -81 206 -72 L209 -51 Q214 -31 220.5 -11 Q227 9 234 29 Q260 104 289 177.5 Q318 251 348 325 Q361 354 373.5 384 Q386 414 400 443 L400 445 Q399 443 398.5 443 Q398 443 397 441 Q375 414 353 387 Q331 360 309 334 Q293 315 277 297.5 Q261 280 242 264 Q230 253 217 243.5 Q204 234 189 226 Q178 221 162 219 Q151 218 135 223 Q123 228 113 236 Q103 244 97 256 Q92 262 89.5 268.5 Q87 275 85 283 Q80 299 79 314.5 Q78 330 77 346 Q78 391 86 433.5 Q94 476 106 518 Q117 553 130.5 587 Q144 621 163 653 Q165 656 166.5 659 Q168 662 170 664 Q172 667 177 667 Q183 665 188 662 L188 660 Q188 656 187 654 Q185 646 182.5 638.5 Q180 631 178 623 L178 617 Q177 617 175 615 Q175 616 174.5 616 Q174 616 174 617 L171 617 Q168 619 166 616 Q160 599 153 583.5 Q146 568 140 551 Q126 516 117 478.5 Q108 441 103 403 Q100 383 98.5 362 Q97 341 99 320 Q101 305 103 290.5 Q105 276 113 262 Q115 257 117.5 253.5 Q120 250 123 246 Q128 238 135.5 236 Q143 234 151 236 Q173 240 193 255 Q210 266 225 279.5 Q240 293 254 308 Q282 336 308 366 Q334 396 360 427 Q382 455 404 482 Q426 509 447 537 Q452 544 456.5 552 Q461 560 466 568 Q483 597 500 624 Q517 651 537 677 Q545 685 547 689 Q553 695 561 694 Q563 693 564.5 693 Q566 693 567 692 Q569 691 572 688 Z M482 547 L481 547 Q480 545 479 543.5 Q478 542 477 540 Q459 507 442 474 Q425 441 409 406 Q369 320 333.5 232.5 Q298 145 264 55 L264 53 Q265 55 266 57.5 Q267 60 268 62 Q291 121 313.5 178.5 Q336 236 361 294 Q385 353 412 409.5 Q439 466 468 522 Q474 535 482 547 Z M411 830 Q410 828 409 827.5 Q408 827 408 825 Q406 823 406 821 Q405 817 401 819 L393 823 Q392 823 390 825 Q386 829 387 832 Q388 837 393 837 Q401 837 405 836 Q407 835 408 833.5 Q409 832 411 830 Z M455 830 Q454 828 453 827.5 Q452 827 452 825 Q450 823 450 821 Q449 817 445 819 L437 823 Q436 823 434 825 Q430 829 431 832 Q432 837 437 837 Q445 837 449 836 Q451 835 452 833.5 Q453 832 455 830 Z " />
<glyph glyph-name="bullet" unicode="&#x2022;" horiz-adv-x="118" d="M54 247 Q53 245 52 244.5 Q51 244 51 242 Q49 240 49 238 Q48 234 44 236 L36 240 Q35 240 33 242 Q29 246 30 249 Q31 254 36 254 Q44 254 48 253 Q50 252 51 250.5 Q52 249 54 247 Z " />
<glyph glyph-name="quotesinglbase" unicode="&#x201a;" horiz-adv-x="85" d="M-6 104 Q-5 105 -5 107 L-7 105 L-14 108 Q-17 111 -16 115 Q-11 133 -4 150 Q3 167 13 184 Q15 188 17 189 Q19 190 24 188 Q30 188 31 184 Q35 184 33 180 Q33 178 31 174 Q13 144 1 111 L-1 105 Q-2 102 -6 104 Z " />
<glyph glyph-name="Igrave" unicode="&#xcc;" horiz-adv-x="205" d="M-47 -133 Q-42 -131 -37.5 -130 Q-33 -129 -28 -127 Q-14 -122 2 -118 Q18 -114 35 -110 Q39 -110 42.5 -110.5 Q46 -111 49 -115 Q51 -118 51 -121 Q52 -126 48 -126 Q23 -131 -0.5 -138.5 Q-24 -146 -48 -156 Q-49 -157 -50 -157 Q-59 -158 -57 -166 Q-58 -171 -63 -168 Q-65 -167 -68 -166 Q-71 -165 -73 -166 Q-84 -172 -95 -177.5 Q-106 -183 -117 -188 Q-121 -189 -123 -193 L-126 -193 Q-133 -192 -136 -190 Q-142 -188 -143 -183.5 Q-144 -179 -139 -175 Q-135 -171 -130 -168.5 Q-125 -166 -120 -164 Q-111 -159 -100.5 -155 Q-90 -151 -81 -145 Q-78 -145 -76 -141 Q-68 -121 -60.5 -99.5 Q-53 -78 -46 -57 Q-13 24 19.5 104.5 Q52 185 85 266 Q116 344 149.5 419 Q183 494 219 569 Q232 597 245.5 623.5 Q259 650 273 678 Q273 681 274 684 Q272 683 268 683 Q245 676 220.5 670 Q196 664 171 659 Q166 657 159 660 Q154 662 153 665 Q149 667 150 669 Q151 671 154 672 Q162 676 166 677 Q186 682 206.5 686.5 Q227 691 249 696 Q266 699 283 701.5 Q300 704 316 707 Q325 709 336 709 Q347 709 358 707 Q363 705 369.5 702.5 Q376 700 381 695 Q383 693 383 690 Q383 684 376 687 Q374 689 371.5 690.5 Q369 692 364 694 Q358 696 352 695 Q338 693 326.5 691.5 Q315 690 301 688 Q300 687 299 687 Q297 681 296.5 675.5 Q296 670 294 664 Q286 644 276 624.5 Q266 605 258 585 Q231 534 208 481.5 Q185 429 160 375 Q125 286 88.5 198.5 Q52 111 16 23 Q0 -16 -14.5 -53 Q-29 -90 -44 -127 Q-45 -129 -45.5 -130 Q-46 -131 -47 -133 Z M251 589 Q247 582 232.5 551 Q218 520 199 477 Q180 434 159 385 Q138 336 120 294 Q102 252 90 223.5 Q78 195 78 192 Q119 292 162.5 391 Q206 490 251 589 Z M275 880 Q275 885 276 885.5 Q277 886 280 885 Q285 885 288 883 Q291 881 293 873 Q295 860 298 847 Q301 834 306 821 Q307 819 308 817 Q309 815 310 813 Q310 812 310.5 811.5 Q311 811 311 810 Q311 808 310.5 807 Q310 806 310 804 Q308 805 305 805 Q304 805 304 806 Q295 809 292 815 Q288 823 285.5 831.5 Q283 840 281 848 L275 878 L275 880 Z " />
<glyph glyph-name="Ograve" unicode="&#xd2;" horiz-adv-x="528" d="M-17 2 Q-17 25 -13 49.5 Q-9 74 -3 99 Q21 197 72 284 Q84 303 97 320.5 Q110 338 127 354 Q136 362 145.5 368.5 Q155 375 166 380 Q169 381 171.5 381.5 Q174 382 177 382 Q179 383 181 385 Q194 408 206.5 430.5 Q219 453 233 476 Q277 551 337 617 Q352 634 368 648.5 Q384 663 404 675 Q414 681 425 686 Q436 691 448 693 Q479 699 505 684.5 Q531 670 541 638 Q548 618 548 595 Q549 564 544 533.5 Q539 503 531 474 Q520 436 506.5 399 Q493 362 477 326 Q444 250 406 177.5 Q368 105 323 35 Q304 6 283.5 -21 Q263 -48 240 -73 Q204 -114 162 -140 Q150 -147 137 -152.5 Q124 -158 110 -160 Q87 -164 62 -155 Q35 -144 18.5 -123.5 Q2 -103 -6 -76 Q-12 -58 -14.5 -39 Q-17 -20 -17 2 Z M344 81 Q345 82 345 82.5 Q345 83 346 84 Q372 126 395 168.5 Q418 211 439 255 Q439 257 440 258 Q438 256 438 255 Q418 213 396 172.5 Q374 132 350 92 Q348 89 344 81 Q339 75 337 70 L338 70 Q340 73 341 75.5 Q342 78 344 81 Z M167 361 Q166 360 165.5 360 Q165 360 164 359 Q159 355 154.5 351.5 Q150 348 145 344 Q129 330 117 313.5 Q105 297 94 280 Q76 251 62.5 220.5 Q49 190 38 158 Q26 123 17.5 87.5 Q9 52 6 14 Q3 -25 10 -60 Q13 -75 18.5 -89.5 Q24 -104 34 -117 Q59 -153 101 -141 Q126 -134 150 -118 Q171 -104 190 -86.5 Q209 -69 226 -49 Q248 -25 267 1 Q286 27 303 54 Q361 143 407 233 Q432 281 453.5 329 Q475 377 493 428 Q505 461 514 494.5 Q523 528 527 563 Q532 595 526 625 Q521 648 510 663 Q498 678 481 678 Q468 679 456 675.5 Q444 672 433 667 Q402 650 373 621 Q353 602 335.5 580.5 Q318 559 301 536 Q278 505 258 473 Q238 441 219 408 Q215 401 211 394 Q207 387 203 379 Q204 378 204 378 Q217 371 225 356 Q228 348 229 341 Q230 334 231 326 Q232 315 231 304.5 Q230 294 228 284 Q223 258 214 234 Q205 210 194 187 Q187 175 180 163.5 Q173 152 164 141 Q161 138 153 132 Q153 131 150 131 Q148 132 146.5 132.5 Q145 133 143 135 Q137 138 142 143 L148 149 Q156 160 163 171.5 Q170 183 176 195 Q189 221 198.5 249 Q208 277 212 307 Q215 328 211 347 Q209 360 201 367 Q198 371 195 367 Q187 352 179.5 337.5 Q172 323 164 309 Q151 286 139.5 263 Q128 240 118 216 Q115 210 113 204.5 Q111 199 109 193 Q109 191 109 190.5 Q109 190 111 188 Q113 186 114 184 Q114 176 106 179 Q104 180 102 181 Q100 182 98 183 Q91 187 92 194 Q92 200 93 203 Q97 213 100 223 Q103 233 108 243 Q121 272 136 300.5 Q151 329 166 358 Q166 359 166.5 359.5 Q167 360 167 361 Z M498 860 Q498 865 499 865.5 Q500 866 503 865 Q508 865 511 863 Q514 861 516 853 Q518 840 521 827 Q524 814 529 801 Q530 799 531 797 Q532 795 533 793 Q533 792 533.5 791.5 Q534 791 534 790 Q534 788 533.5 787 Q533 786 533 784 Q531 785 528 785 Q527 785 527 786 Q518 789 515 795 Q511 803 508.5 811.5 Q506 820 504 828 L498 858 L498 860 Z " />
<glyph glyph-name="Ugrave" unicode="&#xd9;" horiz-adv-x="489" d="M413 360 Q407 349 397 337 Q355 275 313 213.5 Q271 152 228 89 Q215 71 201.5 52.5 Q188 34 173 17 Q164 7 154.5 -1.5 Q145 -10 134 -18 Q127 -22 121 -25 Q115 -28 107 -27 Q99 -27 93 -24 Q63 -14 53 20 Q49 34 47 47.5 Q45 61 43 75 Q41 106 43 136.5 Q45 167 50 199 Q57 248 69 295 Q81 342 97 390 Q111 429 125.5 468 Q140 507 158 545 Q166 560 174.5 575.5 Q183 591 191 606 Q193 614 195 618 Q202 633 211 646.5 Q220 660 229 674 Q230 678 235 676 Q236 675 237 675.5 Q238 676 239 675 Q241 675 243 673 Q244 671 244 671 Q245 668 244 665 Q243 662 242 659.5 Q241 657 240 654 Q202 591 172 524 Q151 476 133.5 428 Q116 380 102 330 Q95 307 89.5 283.5 Q84 260 78 237 Q76 221 73.5 205.5 Q71 190 69 174 Q67 161 66 148 Q65 135 64 122 Q63 98 64 74 Q65 50 71 27 Q74 19 76.5 12 Q79 5 84 -1 Q89 -8 93.5 -9 Q98 -10 106 -7 Q114 -4 120 1 Q126 6 134 11 Q161 38 182 66 Q205 98 228 130 Q251 162 273 194 Q316 254 356.5 313.5 Q397 373 439 433 Q445 441 451 449.5 Q457 458 462 466 Q472 483 479 498 Q510 561 547 623 Q555 634 563 645.5 Q571 657 579 668 Q590 679 600 671 Q609 665 605 657 Q602 650 598.5 643.5 Q595 637 592 630 Q575 602 558.5 575 Q542 548 523 522 Q512 507 504.5 491 Q497 475 489 458 Q465 407 442.5 355.5 Q420 304 399 252 Q368 176 339 100.5 Q310 25 284 -52 Q278 -68 273.5 -84 Q269 -100 265 -116 Q263 -118 263 -123 Q263 -125 263 -126.5 Q263 -128 265 -130 Q267 -132 266.5 -135.5 Q266 -139 264 -141 Q261 -143 258 -141 Q256 -141 255 -140 Q254 -139 253 -139 Q241 -135 243 -121 Q245 -113 246 -106 Q247 -99 249 -91 Q257 -58 268.5 -25.5 Q280 7 292 39 Q316 108 342 175.5 Q368 243 394 311 Q399 323 403.5 334.5 Q408 346 413 357 Q414 358 414 360 L413 360 Z M431 868 Q431 873 432 873.5 Q433 874 436 873 Q441 873 444 871 Q447 869 449 861 Q451 848 454 835 Q457 822 462 809 Q463 807 464 805 Q465 803 466 801 Q466 800 466.5 799.5 Q467 799 467 798 Q467 796 466.5 795 Q466 794 466 792 Q464 793 461 793 Q460 793 460 794 Q451 797 448 803 Q444 811 441.5 819.5 Q439 828 437 836 L431 866 L431 868 Z " />
<glyph glyph-name="agrave" unicode="&#xe0;" horiz-adv-x="213" d="M214 277 L192 255 Q186 250 181 245.5 Q176 241 170 235 Q164 229 155.5 221 Q147 213 134 201 Q125 192 116 184 Q107 176 96 169 Q89 164 81 161 Q73 158 65 157 Q57 157 50 161 Q46 163 43 164 Q23 173 24 196 Q25 210 30 227 L30 228 Q31 229 31 230 Q27 226 21 218 Q16 210 10.5 203.5 Q5 197 -3 192 Q-5 190 -8.5 189 Q-12 188 -15 186 Q-18 185 -25 187 Q-27 189 -28.5 189.5 Q-30 190 -32 191 Q-46 197 -46 212 Q-47 220 -45 226.5 Q-43 233 -41 239 Q-29 270 -5 296 Q0 301 4.5 304 Q9 307 16 309 Q31 312 40 302 Q42 299 42.5 295.5 Q43 292 43 289 Q42 286 41.5 283.5 Q41 281 40 278 Q42 280 42.5 281 Q43 282 44 283 Q49 288 52.5 294 Q56 300 61 305 Q65 312 74 310 Q76 309 78.5 308.5 Q81 308 83 305 Q87 303 86.5 300 Q86 297 85 295 L73 265 Q66 249 60.5 233.5 Q55 218 51 202 Q49 197 49 192 Q49 187 49 182 Q49 177 55 178 Q63 180 70.5 184.5 Q78 189 86 194 Q93 199 111.5 214 Q130 229 150.5 246 Q171 263 189 278.5 Q207 294 213 300 Q222 291 219 285 Q216 279 214 277 Z M-22 207 Q-5 221 7.5 237 Q20 253 33 269 L30 272 Q28 273 26.5 273 Q25 273 23 274 Q20 276 21 282 Q23 288 23 291 Q16 287 8 276 Q0 265 -7 252 Q-14 239 -18.5 226.5 Q-23 214 -22 207 Z M-19 243 Q-16 248 -13.5 253 Q-11 258 -8 263 L-9 263 Q-11 258 -14 253 Q-17 248 -19 243 Z M75 283 L74 283 Q72 278 70 274.5 Q68 271 66 266 L67 266 Q69 270 71 274 Q73 278 75 283 Z M44 465 Q44 470 45 470.5 Q46 471 49 470 Q54 470 57 468 Q60 466 62 458 Q64 445 67 432 Q70 419 75 406 Q76 404 77 402 Q78 400 79 398 Q79 397 79.5 396.5 Q80 396 80 395 Q80 393 79.5 392 Q79 391 79 389 Q77 390 74 390 Q73 390 73 391 Q64 394 61 400 Q57 408 54.5 416.5 Q52 425 50 433 L44 463 L44 465 Z " />
<glyph glyph-name="egrave" unicode="&#xe8;" horiz-adv-x="182" d="M182 300 Q197 285 188 278 Q178 270 170.5 263 Q163 256 157 251 Q150 245 145 241 Q131 230 118.5 219 Q106 208 93 197 Q79 186 64.5 174.5 Q50 163 35 153 Q27 148 18.5 144 Q10 140 0 138 Q-14 136 -25 142 Q-27 143 -29 144 Q-31 145 -33 146 Q-53 154 -56 180 Q-57 203 -46 227 Q-39 245 -30 262 Q-21 279 -7 293 Q1 303 9 308 Q22 318 38 310 Q51 303 51 290 Q52 273 41 258 Q30 243 15 240 Q6 238 1 242 Q-1 244 -4 244.5 Q-7 245 -10 247 Q-12 242 -14 238 Q-16 234 -18 229 Q-23 220 -26 210.5 Q-29 201 -31 191 Q-32 184 -32 178 Q-32 172 -30 166 Q-28 160 -25.5 158.5 Q-23 157 -17 159 Q-4 162 6 168 Q20 176 33.5 185.5 Q47 195 61 205 Q81 220 100 235 Q119 250 138 265 L182 300 Z M6 261 Q5 260 5 257 Q16 261 24.5 273 Q33 285 31 296 Q28 293 28 294 Q19 289 15 282 L6 261 Z M-14 252 Q-17 246 -20 240.5 Q-23 235 -25 229 Q-22 234 -19 240 Q-16 246 -13 251 L-14 252 Z M36 466 Q36 471 37 471.5 Q38 472 41 471 Q46 471 49 469 Q52 467 54 459 Q56 446 59 433 Q62 420 67 407 Q68 405 69 403 Q70 401 71 399 Q71 398 71.5 397.5 Q72 397 72 396 Q72 394 71.5 393 Q71 392 71 390 Q69 391 66 391 Q65 391 65 392 Q56 395 53 401 Q49 409 46.5 417.5 Q44 426 42 434 L36 464 L36 466 Z " />
<glyph glyph-name="igrave" unicode="&#xec;" horiz-adv-x="139" d="M139 300 L87 262 Q84 260 74.5 253 Q65 246 52.5 237 Q40 228 28 219 Q16 210 9 205 Q4 202 0 200 Q-4 198 -9 195 Q-9 198 -10 199 Q-11 207 -8 218 L13 272 Q15 277 17 282.5 Q19 288 21 293 Q23 300 18 301 Q16 306 12.5 305.5 Q9 305 6 306 Q2 307 0 301 Q-13 276 -23 252 Q-27 243 -29.5 234.5 Q-32 226 -33 216 Q-36 197 -22 187 Q-17 184 -13.5 182 Q-10 180 -5 178 Q-2 177 4 177 Q15 178 25 185 Q36 193 46 200.5 Q56 208 67 216 Q81 227 90.5 234.5 Q100 242 107.5 248.5 Q115 255 122.5 261.5 Q130 268 141 276 Q146 281 146.5 284.5 Q147 288 145 292 Q143 296 139 300 Z M17 461 Q17 466 18 466.5 Q19 467 22 466 Q27 466 30 464 Q33 462 35 454 Q37 441 40 428 Q43 415 48 402 Q49 400 50 398 Q51 396 52 394 Q52 393 52.5 392.5 Q53 392 53 391 Q53 389 52.5 388 Q52 387 52 385 Q50 386 47 386 Q46 386 46 387 Q37 390 34 396 Q30 404 27.5 412.5 Q25 421 23 429 L17 459 L17 461 Z " />
<glyph glyph-name="ograve" unicode="&#xf2;" horiz-adv-x="158" d="M158 300 Q162 297 163 294 Q165 287 154 282 Q152 281 141 278 Q130 275 128 274 Q112 270 102.5 267.5 Q93 265 81 263 Q70 261 63.5 261 Q57 261 46 260 L43 260 Q42 260 41 261 Q41 256 41.5 252 Q42 248 42 243 Q41 209 13 189 Q1 180 -11 187 Q-12 188 -16 190 Q-32 197 -33 215 Q-34 231 -28 249 Q-23 264 -15.5 277 Q-8 290 2 303 Q4 307 8 307 Q10 307 18 305 Q21 305 19 301 Q17 297 16 294 Q18 296 18.5 298 Q19 300 21 302 L22 302 Q22 300 22.5 299 Q23 298 22 296 Q18 288 16 283 Q9 270 3 256.5 Q-3 243 -7 229 Q-10 220 -10 209 Q-10 208 -9.5 207.5 Q-9 207 -9 205 Q-5 207 -4 208 Q15 223 20 246 Q22 252 21 257.5 Q20 263 18 268 Q17 270 17 271 Q17 272 16 274 Q16 279 21 280 L27 280 Q41 278 53.5 279.5 Q66 281 80 284 Q85 285 90 285.5 Q95 286 100 288 L158 300 Z M10 285 Q6 278 2.5 271 Q-1 264 -5 257 L-4 257 Q0 264 3.5 270.5 Q7 277 11 285 L10 285 Z M19 467 Q19 472 20 472.5 Q21 473 24 472 Q29 472 32 470 Q35 468 37 460 Q39 447 42 434 Q45 421 50 408 Q51 406 52 404 Q53 402 54 400 Q54 399 54.5 398.5 Q55 398 55 397 Q55 395 54.5 394 Q54 393 54 391 Q52 392 49 392 Q48 392 48 393 Q39 396 36 402 Q32 410 29.5 418.5 Q27 427 25 435 L19 465 L19 467 Z " />
<glyph glyph-name="ugrave" unicode="&#xf9;" horiz-adv-x="165" d="M165 300 Q170 299 173 295 Q175 292 175 287.5 Q175 283 168 276 Q165 271 158.5 263.5 Q152 256 145 248 Q137 238 129 228 Q121 218 109 204.5 Q97 191 89 183 Q86 178 82.5 174.5 Q79 171 72 167 Q68 163 60.5 159 Q53 155 46 158 Q44 159 42 160 Q40 161 38 163 Q31 167 30.5 172.5 Q30 178 31 184 Q32 198 35.5 210.5 Q39 223 44 236 Q44 238 47 243 Q41 237 35.5 231 Q30 225 25 220 Q17 213 9.5 206 Q2 199 -6 192 Q-8 190 -10 188.5 Q-12 187 -13 186 Q-15 185 -17 185.5 Q-19 186 -21 186 Q-23 187 -25 188 Q-27 189 -29 190 Q-40 195 -38 206 Q-36 214 -33.5 222.5 Q-31 231 -28 239 Q-21 256 -14.5 271.5 Q-8 287 1 303 Q3 308 7 307 Q12 307 13 306 Q18 303 18 302 Q20 298 20 295 Q16 290 13.5 286 Q11 282 9 277 Q3 263 -3 250 Q-9 237 -13 223 Q-13 218 -15 210 L-14 209 Q-13 210 -13 212 Q-1 224 11.5 237 Q24 250 38 264 Q48 277 62 291 Q69 299 72.5 299 Q76 299 87 297 Q95 295 91 284 Q84 268 80 255 Q74 243 68.5 230.5 Q63 218 58 206 Q56 200 55 194 Q54 188 52 182 L165 300 Z M-23 241 L-30 218 L-28 222 L-23 241 Z M38 464 Q38 469 39 469.5 Q40 470 43 469 Q48 469 51 467 Q54 465 56 457 Q58 444 61 431 Q64 418 69 405 Q70 403 71 401 Q72 399 73 397 Q73 396 73.5 395.5 Q74 395 74 394 Q74 392 73.5 391 Q73 390 73 388 Q71 389 68 389 Q67 389 67 390 Q58 393 55 399 Q51 407 48.5 415.5 Q46 424 44 432 L38 462 L38 464 Z " />
<glyph glyph-name="Agrave" unicode="&#xc0;" horiz-adv-x="445" d="M317 229 Q309 227 300.5 224.5 Q292 222 283 219 Q265 213 244 207.5 Q223 202 203 196 Q201 195 201 194.5 Q201 194 199 192 Q181 163 162 135 Q143 107 122 80 Q109 60 94 42.5 Q79 25 62 9 Q51 0 40.5 -7 Q30 -14 17 -19 Q-18 -29 -49 -6 Q-63 3 -70 16.5 Q-77 30 -78 44 Q-84 72 -66 95 Q-56 109 -44.5 119 Q-33 129 -19 138 Q2 152 24.5 161.5 Q47 171 71 179 Q96 187 119.5 194 Q143 201 168 208 Q173 211 174 212 Q212 274 249.5 334 Q287 394 326 456 Q351 498 376.5 538 Q402 578 430 617 Q439 631 450 644.5 Q461 658 472 671 Q477 676 480.5 679 Q484 682 489 686 Q494 690 500.5 689.5 Q507 689 513 687 Q525 682 524 670 Q524 662 522 655 Q520 648 518 640 Q503 598 483 558 Q451 489 422 420.5 Q393 352 366 281 Q365 274 358 266 Q358 265 357 263 Q372 268 386.5 272 Q401 276 412 285 Q415 287 417 286.5 Q419 286 421 286 Q422 286 422.5 285.5 Q423 285 424 285 Q427 285 427 281 Q430 282 430 279 Q432 276 429 273 Q424 268 419.5 265 Q415 262 411 260 Q397 255 382 250.5 Q367 246 353 241 Q349 239 348 237 Q316 152 288 66.5 Q260 -19 237 -108 Q235 -121 231 -133.5 Q227 -146 222 -159 Q220 -161 220 -165 Q219 -167 216 -166 Q212 -164 211 -163 Q205 -161 204 -154 Q206 -149 208 -141 Q223 -75 240 -11 Q257 53 280 116 Q289 144 298 171.5 Q307 199 318 226 Q318 228 317 229 Z M301 121 Q301 123 301 123 Q313 151 322 179 Q331 207 341 234 Q341 235 342 237 Q340 233 340 234 Q330 207 320.5 179.5 Q311 152 301 124 L301 121 Q299 117 298.5 113.5 Q298 110 296 106 Q295 105 293 101 Q295 104 296 106.5 Q297 109 299 112 Q299 115 301 121 Z M493 651 L492 651 Q491 650 491 649.5 Q491 649 490 648 Q482 636 473 624.5 Q464 613 456 600 Q427 561 401.5 520.5 Q376 480 350 439 Q319 388 289 338.5 Q259 289 227 238 Q224 233 222.5 230 Q221 227 219 223 L220 223 Q245 231 272.5 238.5 Q300 246 326 254 Q327 254 329 256 Q351 314 375 370.5 Q399 427 424 484 Q439 519 454.5 554.5 Q470 590 485 625 Q487 632 489 638 Q491 644 493 651 Z M153 180 Q151 179 151 179 L150 179 Q122 171 94.5 161.5 Q67 152 39 140 Q-1 123 -29 95 Q-37 87 -43.5 78 Q-50 69 -52 58 Q-63 32 -43 6 Q-34 -6 -19 -6 Q-12 -6 -9 -5 Q11 -1 27 14 Q41 27 54.5 41 Q68 55 79 71 Q95 94 109.5 116.5 Q124 139 141 161 Q145 168 153 180 Z M275 46 L276 46 Q281 57 284.5 69 Q288 81 292 92 L291 92 Q287 81 283.5 69 Q280 57 275 46 Z M514 650 L513 650 Q513 645 511.5 641 Q510 637 509 632 L509 631 Q510 636 512 640.5 Q514 645 514 650 Z M509 843 Q509 848 510 848.5 Q511 849 514 848 Q519 848 522 846 Q525 844 527 836 Q529 823 532 810 Q535 797 540 784 Q541 782 542 780 Q543 778 544 776 Q544 775 544.5 774.5 Q545 774 545 773 Q545 771 544.5 770 Q544 769 544 767 Q542 768 539 768 Q538 768 538 769 Q529 772 526 778 Q522 786 519.5 794.5 Q517 803 515 811 L509 841 L509 843 Z " />
<glyph glyph-name="Egrave" unicode="&#xc8;" horiz-adv-x="380" d="M260 85 Q260 85 262 89 L263 89 Q263 87 263.5 86.5 Q264 86 264 85 Q263 83 263 82 Q263 81 261 79 Q247 52 231 26.5 Q215 1 197 -24 Q171 -62 143 -98.5 Q115 -135 85 -171 Q80 -177 74 -182.5 Q68 -188 60 -193 Q46 -200 30 -193 Q26 -191 21.5 -188.5 Q17 -186 13 -183 Q5 -177 0 -167.5 Q-5 -158 -7 -148 Q-12 -122 -6 -89 Q-1 -62 8.5 -36.5 Q18 -11 32 13 Q88 115 171 194 Q171 197 173 197 L173 198 Q171 198 170 197 Q150 189 131.5 181.5 Q113 174 92 169 Q77 165 60 163 Q47 161 36 167 Q34 169 32 169 Q20 174 15.5 183.5 Q11 193 12 205 Q14 216 18 227 Q22 238 27 249 Q39 277 52.5 302 Q66 327 81 352 Q126 424 179 488 Q232 552 295 610 Q337 649 385 682 Q399 690 412 696.5 Q425 703 439 707 Q459 712 473 708 Q492 701 491 679 Q489 668 485.5 658 Q482 648 477 639 Q466 619 454.5 600.5 Q443 582 430 565 Q407 530 382.5 495.5 Q358 461 335 426 Q316 397 297.5 367 Q279 337 260 307 Q258 304 256 298 Q255 294 252 296 Q248 298 246 298 Q239 302 242 308 Q244 318 248 325 Q259 344 269.5 362.5 Q280 381 293 400 Q318 438 343.5 476 Q369 514 395 552 Q410 574 424 596 Q438 618 452 641 Q457 650 462 659 Q467 668 469 679 Q470 683 470.5 686.5 Q471 690 470 695 Q466 694 462 693.5 Q458 693 455 692 Q441 688 428.5 681 Q416 674 405 666 Q366 643 329 609 Q264 550 210.5 484.5 Q157 419 109 346 Q94 322 80.5 299.5 Q67 277 56 251 Q51 240 46 228 Q41 216 39 202 Q37 199 37 194.5 Q37 190 37 187 Q39 180 45 180 Q64 182 77 187 Q102 195 124.5 203 Q147 211 170 220 L206 235 Q211 237 216 237 Q221 237 226 235 Q231 233 232.5 227.5 Q234 222 229 218 Q221 208 209 200 Q161 155 123 105 Q85 55 55 -2 Q44 -22 34.5 -43.5 Q25 -65 19 -87 Q17 -99 15.5 -110 Q14 -121 14 -132 Q15 -141 17 -150 Q19 -159 24 -169 Q29 -176 30.5 -176.5 Q32 -177 40 -173 Q48 -168 54.5 -162 Q61 -156 66 -149 Q101 -111 131.5 -71 Q162 -31 193 11 Q206 31 218.5 50.5 Q231 70 245 90 Q247 91 247.5 92.5 Q248 94 250 93 Q252 93 254.5 92.5 Q257 92 259 92 Q262 90 260 88 Q260 86 259 85 L260 85 Z M89 329 Q78 309 67.5 289 Q57 269 48 249 Q59 269 68.5 288.5 Q78 308 89 329 Z M70 39 Q48 3 32 -32 Q42 -15 51 3 Q60 21 70 39 Z M456 900 Q456 905 457 905.5 Q458 906 461 905 Q466 905 469 903 Q472 901 474 893 Q476 880 479 867 Q482 854 487 841 Q488 839 489 837 Q490 835 491 833 Q491 832 491.5 831.5 Q492 831 492 830 Q492 828 491.5 827 Q491 826 491 824 Q489 825 486 825 Q485 825 485 826 Q476 829 473 835 Q469 843 466.5 851.5 Q464 860 462 868 L456 898 L456 900 Z " />
<glyph glyph-name="breve" unicode="&#x2d8;" horiz-adv-x="833" d="" />
<glyph glyph-name="dotaccent" unicode="&#x2d9;" horiz-adv-x="833" d="" />
<glyph glyph-name="ring" unicode="&#x2da;" horiz-adv-x="114" d="M150 678 Q154 675 156 670 Q158 665 159 660 Q160 655 160 649 Q157 621 136 605 Q126 599 117 604 L113 606 Q100 612 99 626 Q98 639 103 653 Q107 666 113 676.5 Q119 687 127 697 Q129 699 129.5 700 Q130 701 133 700 Q135 700 136.5 699.5 Q138 699 140 699 Q141 699 141 695 Q139 693 139 690 L142 696 L144 696 L144 691 L139 682 Q133 671 128 660 Q123 649 120 637 Q116 630 118 621 L118 618 Q122 620 123 620 Q139 635 142 651 Q143 659 140 669 Q140 670 139.5 671 Q139 672 139 674 Q137 678 142 678 L148 678 L150 678 Z M122 660 L123 660 L134 682 L133 682 L122 660 Z " />
<glyph glyph-name="hungarumlaut" unicode="&#x2dd;" horiz-adv-x="87" d="M154 688 L156 691 Q157 690 157 689 L155 681 Q153 676 151 671 Q149 666 147 661 L135 629 L131 617 Q130 616 128 616 Q128 616 126 618 Q125 617 124 617 Q114 619 117 629 Q124 658 138 687 Q139 688 139 689 Q139 690 140 692 Q144 696 147 694 Q148 693 148.5 693.5 Q149 694 150 693 Q155 692 154 688 Z M120 683 L122 685 Q123 684 123 682 Q123 678 122 676 Q117 665 112.5 654.5 Q108 644 105 633 L101 621 Q100 621 100 619 Q98 619 96 617 Q96 618 95.5 618.5 Q95 619 95 620 L92 620 Q87 622 87 623 Q83 625 85 628 Q89 642 92.5 655 Q96 668 102 680 Q102 681 102.5 682 Q103 683 103 684 Q106 689 108 689.5 Q110 690 115 689 Q116 688 116 688 Q121 687 120 683 Z " />
<glyph glyph-name="ogonek" unicode="&#x2db;" horiz-adv-x="833" d="" />
<glyph glyph-name="caron" unicode="&#x2c7;" horiz-adv-x="125" d="M139 617 Q143 622 146.5 625.5 Q150 629 154 633 Q164 644 173 655.5 Q182 667 190 680 Q192 684 195 682 L195 680 L199 680 Q202 680 204 678 Q210 675 207 669 Q205 664 202.5 660.5 Q200 657 198 653 Q172 619 140 588 Q138 586 135.5 583.5 Q133 581 129 581 Q125 581 121.5 581.5 Q118 582 114 585 Q107 589 109 597 Q111 604 112 610 Q113 616 115 622 Q118 635 120.5 647.5 Q123 660 126 674 Q128 678 124 682 Q123 682 123 684 Q123 686 124 688 Q124 689 128 689 Q131 688 134 687 Q137 686 139 685 Q148 681 146 671 Q146 665 145.5 659.5 Q145 654 144 648 Q142 641 141.5 634 Q141 627 139 620 L139 618 L139 617 Z " />
<glyph glyph-name="dotlessi" unicode="&#x131;" horiz-adv-x="139" d="M40 395 Q32 396 32 406 Q35 422 41.5 435.5 Q48 449 56 463 Q56 463 57 464 Q61 472 70 468 Q72 466 71.5 465 Q71 464 71 462 Q72 463 72 463.5 Q72 464 73 465 L74 465 Q74 461 74 461 Q72 455 70 451 Q68 446 65 442 Q62 438 60 433 Q56 425 53.5 418 Q51 411 49 403 Q47 397 46 395 Q46 394 43 394 Q43 393 42.5 394 Q42 395 42 396 Q41 396 41 395.5 Q41 395 40 395 Z M139 300 Q143 296 145 292 Q147 288 146.5 284.5 Q146 281 141 276 Q130 268 122.5 261.5 Q115 255 107.5 248.5 Q100 242 90.5 234.5 Q81 227 67 216 Q56 208 46 200.5 Q36 193 25 185 Q15 178 4 177 Q-2 177 -5 178 Q-10 180 -13.5 182 Q-17 184 -22 187 Q-36 197 -33 216 Q-32 226 -29.5 234.5 Q-27 243 -23 252 Q-13 276 0 301 Q2 307 6 306 Q9 305 12.5 305.5 Q16 306 18 301 Q23 300 21 293 Q19 288 17 282.5 Q15 277 13 272 L-8 218 Q-11 207 -10 199 Q-9 198 -9 195 Q-4 198 0 200 Q4 202 9 205 Q16 210 28 219 Q40 228 52.5 237 Q65 246 74.5 253 Q84 260 87 262 L139 300 Z " />
<glyph glyph-name="fraction" unicode="&#x2044;" horiz-adv-x="178" d="M-51 3 Q-53 1 -54 2.5 Q-55 4 -57 5 Q-61 8 -60 15 Q-56 30 -50 43.5 Q-44 57 -38 71 Q-21 106 -3.5 139.5 Q14 173 33 206 Q68 272 104.5 337 Q141 402 178 468 Q196 500 216 529.5 Q236 559 257 588 Q260 594 264 599 Q268 604 271 609 Q273 611 277 611 Q281 611 283 609 Q286 606 286 605 Q286 602 284 598 Q264 566 244.5 534.5 Q225 503 205 471 Q175 420 146.5 369.5 Q118 319 89 268 Q62 218 35 169.5 Q8 121 -18 70 Q-26 54 -33.5 37.5 Q-41 21 -46 4 Q-46 3 -47 2 Q-49 1 -49 1 Q-51 1 -51 3 Z " />
<glyph glyph-name="fi" unicode="&#xfb01;" horiz-adv-x="313" d="M313 300 Q317 296 319 292 Q321 288 320.5 284.5 Q320 281 315 276 Q304 268 296.5 261.5 Q289 255 281.5 248.5 Q274 242 264.5 234.5 Q255 227 241 216 L199 185 Q189 178 178 177 Q172 177 169 178 Q164 180 160.5 182 Q157 184 152 187 Q138 197 141 216 Q142 233 150 251 L119 225 Q104 212 87 198 Q70 184 45 165 L-19 122 Q-22 120 -25 117.5 Q-28 115 -31 113 Q-37 108 -34 101 Q-31 95 -28.5 88.5 Q-26 82 -23 75 Q-10 40 -13 6 Q-16 -32 -30 -73 Q-37 -90 -44.5 -106.5 Q-52 -123 -63 -137 Q-71 -146 -78 -152 Q-81 -154 -84.5 -155.5 Q-88 -157 -91 -159 L-95 -159 L-112 -151 Q-125 -145 -128 -127 Q-129 -118 -128.5 -109 Q-128 -100 -127 -91 Q-123 -60 -115.5 -30 Q-108 0 -99 30 Q-83 85 -64 138.5 Q-45 192 -24 245 Q-7 285 10 325 Q27 365 46 404 Q68 448 91.5 490.5 Q115 533 140 575 L191 666 Q191 668 191.5 669 Q192 670 191 672 Q191 672 191 676 Q194 678 199 677.5 Q204 677 207 675 Q211 671 210 665 Q208 660 207 656.5 Q206 653 204 649 Q196 632 187.5 616.5 Q179 601 170 585 Q146 541 122 498 Q98 455 76 410 Q49 355 26.5 301.5 Q4 248 -20 186 L-36 144 L-19 155 Q-4 164 7 172 Q18 180 28 187.5 Q38 195 48.5 203 Q59 211 71 220 L105 248 L173 299 Q173 300 174 301 Q176 307 180 306 Q183 305 186.5 305.5 Q190 306 192 301 Q197 300 195 293 L187 272 L166 218 Q163 207 164 199 Q165 198 165 195 Q170 198 174 200 Q178 202 183 205 L261 262 L313 300 Z M-39 -1 Q-35 19 -36 38 Q-37 57 -45 76 L-53 95 Q-53 93 -53.5 92.5 Q-54 92 -54 91 L-75 23 Q-84 -9 -92 -42.5 Q-100 -76 -102 -110 L-102 -130 Q-101 -131 -100 -131 Q-97 -127 -94 -124 Q-91 -121 -88 -116 Q-51 -66 -39 -1 Z M214 395 Q206 396 206 406 Q209 422 215.5 435.5 Q222 449 230 463 Q230 463 231 464 Q235 472 244 468 Q246 466 245.5 465 Q245 464 245 462 L247 465 L248 465 Q248 461 248 461 Q246 455 244 451 L234 433 Q230 425 227.5 418 Q225 411 223 403 L220 395 Q220 394 217 394 Q217 393 216.5 394 Q216 395 216 396 Q215 396 215 395.5 Q215 395 214 395 Z M103 475 L102 474 L48 366 L48 365 Q49 365 49 367 Q62 392 74.5 416.5 Q87 441 99 467 L103 475 Z M-62 -121 Q-59 -118 -55.5 -111.5 Q-52 -105 -48 -98 Q-44 -91 -41.5 -85 Q-39 -79 -39 -77 Q-44 -88 -50 -99 Q-56 -110 -62 -121 Z M112 491 L111 492 L104 476 L112 491 Z " />
<glyph glyph-name="fl" unicode="&#xfb02;" horiz-adv-x="342" d="M354 668 Q356 667 357 665.5 Q358 664 359 663 L360 658 Q357 646 346.5 622.5 Q336 599 325 578 Q316 560 308.5 544 Q301 528 293.5 511.5 Q286 495 277.5 476.5 Q269 458 258 435 Q243 403 230.5 369 Q218 335 204 302 Q189 262 180 222 Q178 214 177 206 Q176 198 178 190 Q178 188 178.5 187 Q179 186 179 184 Q180 180 184 182 Q196 185 208 195 L270 244 L342 300 Q345 297 348 293 Q350 290 350.5 286 Q351 282 346 277 L298 232 Q280 215 267.5 204.5 Q255 194 235 179 Q221 167 207 163 Q192 158 180 165 Q178 167 175 167 Q155 176 152 196 Q150 206 151.5 215.5 Q153 225 155 235 Q156 241 157 247 Q158 253 160 259 L119 225 Q104 212 87 198 Q70 184 45 165 L-19 122 Q-22 120 -25 117.5 Q-28 115 -31 113 Q-37 108 -34 101 Q-31 95 -28.5 88.5 Q-26 82 -23 75 Q-10 40 -13 6 Q-16 -32 -30 -73 Q-37 -90 -44.5 -106.5 Q-52 -123 -63 -137 Q-71 -146 -78 -152 Q-81 -154 -84.5 -155.5 Q-88 -157 -91 -159 L-95 -159 L-112 -151 Q-125 -145 -128 -127 Q-129 -118 -128.5 -109 Q-128 -100 -127 -91 Q-123 -60 -115.5 -30 Q-108 0 -99 30 Q-83 85 -64 138.5 Q-45 192 -24 245 Q-7 285 10 325 Q27 365 46 404 Q68 448 91.5 490.5 Q115 533 140 575 L191 666 Q191 668 191.5 669 Q192 670 191 672 Q191 672 191 676 Q194 678 199 677.5 Q204 677 207 675 Q211 671 210 665 Q208 660 207 656.5 Q206 653 204 649 Q196 632 187.5 616.5 Q179 601 170 585 Q146 541 122 498 Q98 455 76 410 Q49 355 26.5 301.5 Q4 248 -20 186 L-36 144 L-19 155 Q-4 164 7 172 Q18 180 28 187.5 Q38 195 48.5 203 Q59 211 71 220 L105 248 L173 299 L181 319 Q197 358 212 396.5 Q227 435 244 473 Q251 489 256.5 501 Q262 513 267 524 Q272 535 278.5 548.5 Q285 562 295 583 L331 660 Q332 662 337 666 Q342 670 344 670 Q345 670 345.5 669.5 Q346 669 347 669 L348 670 L354 668 Z M-39 -1 Q-35 19 -36 38 Q-37 57 -45 76 L-53 95 Q-53 93 -53.5 92.5 Q-54 92 -54 91 L-75 23 Q-84 -9 -92 -42.5 Q-100 -76 -102 -110 L-102 -130 Q-101 -131 -100 -131 Q-97 -127 -94 -124 Q-91 -121 -88 -116 Q-51 -66 -39 -1 Z M247 424 Q261 459 277 493 Q293 527 310 561 Q306 555 295.5 534 Q285 513 272.5 484.5 Q260 456 246 423.5 Q232 391 220 362 Q208 333 200 311.5 Q192 290 191 283 Q204 319 218 354 Q232 389 247 424 Z M103 475 L102 474 L48 366 L48 365 Q49 365 49 367 Q62 392 74.5 416.5 Q87 441 99 467 L103 475 Z M-62 -121 Q-59 -118 -55.5 -111.5 Q-52 -105 -48 -98 Q-44 -91 -41.5 -85 Q-39 -79 -39 -77 Q-44 -88 -50 -99 Q-56 -110 -62 -121 Z M349 637 L348 637 L330 598 L331 598 L349 637 Z M112 491 L111 492 L104 476 L112 491 Z " />
<glyph glyph-name="Lslash" unicode="&#x141;" horiz-adv-x="315" d="M172 255 Q171 254 171 252.5 Q171 251 170 250 Q170 248 167 247 Q160 247 153.5 247 Q147 247 141 246 Q131 244 126 244 L48 71 Q34 40 18.5 11 Q3 -18 -14 -47 Q-16 -50 -18 -53.5 Q-20 -57 -23 -61 Q-19 -61 -13 -63 L95 -80 L190 -94 Q208 -96 226.5 -98.5 Q245 -101 264 -104 Q292 -107 319.5 -109.5 Q347 -112 376 -113 Q381 -113 386 -112.5 Q391 -112 396 -111 Q412 -109 420 -97 Q421 -94 426 -94 L428 -96 Q430 -94 431.5 -95 Q433 -96 435 -96 Q439 -98 437.5 -100 Q436 -102 435 -105 Q437 -103 438 -102 Q439 -101 440 -100 Q441 -101 442 -101 L442 -104 Q437 -118 428 -123.5 Q419 -129 407 -131 Q380 -134 354 -131 Q332 -129 310 -127 Q288 -125 265 -123 Q246 -121 227.5 -118.5 Q209 -116 189 -113 Q168 -110 146.5 -107 Q125 -104 102 -100 Q83 -98 64.5 -95 Q46 -92 26 -89 L-33 -81 Q-35 -81 -37 -83 Q-45 -93 -52.5 -102.5 Q-60 -112 -68 -122 Q-79 -135 -91 -145.5 Q-103 -156 -117 -165 Q-138 -177 -160 -177 Q-168 -177 -175 -176 Q-182 -175 -187 -172 Q-192 -170 -196 -167.5 Q-200 -165 -204 -163 Q-226 -151 -233.5 -125.5 Q-241 -100 -230 -77 Q-219 -57 -193 -49 Q-174 -45 -150 -45 Q-127 -46 -105.5 -48.5 Q-84 -51 -62 -55 Q-56 -55 -54 -51 Q-31 -14 -11 25 Q9 64 28 105 L90 241 Q84 241 81 242 Q76 243 71 245.5 Q66 248 61 251 Q61 251 58 254 Q56 260 61 260 Q71 263 82 263 Q87 263 91.5 263.5 Q96 264 101 264 L122 312 Q151 379 182 444 Q213 509 245 575 Q257 598 267.5 620.5 Q278 643 289 667 Q290 668 290 671 Q288 672 286 672.5 Q284 673 283 674 Q279 677 282 680 L296 702 Q305 711 315 702 Q319 699 319 696 Q319 693 318 690 Q312 668 304 648 Q292 616 277.5 584 Q263 552 249 520 Q218 457 190 394 Q162 331 136 267 L145 267 Q150 268 154 267 Q158 266 163 265 Q165 263 168.5 260 Q172 257 172 255 Z M-70 -75 L-72 -75 Q-89 -73 -104.5 -71.5 Q-120 -70 -136 -69 Q-148 -68 -159 -68.5 Q-170 -69 -181 -73 Q-203 -80 -210 -97 Q-221 -120 -206 -144 Q-192 -164 -167 -159 Q-156 -157 -147 -152.5 Q-138 -148 -129 -142 Q-101 -118 -78 -86 L-70 -75 Z M58 111 Q38 67 16.5 25 Q-5 -17 -31 -58 L-31 -59 Q-29 -59 -29 -57 Q-15 -36 -3 -14.5 Q9 7 20 29 Q44 77 66 125 Q88 173 109 221 L119 243 L116 243 L58 111 Z M148 313 L126 266 L128 266 L193 414 Q182 389 170.5 364 Q159 339 148 313 Z M245 529 L245 530 Q243 526 243 526 L239 516 L244 527 Q245 527 245 529 Z " />
<glyph glyph-name="lslash" unicode="&#x142;" horiz-adv-x="168" d="M168 300 Q171 297 174 293 Q176 290 176.5 286 Q177 282 172 277 Q165 271 149.5 256.5 Q134 242 124 233 Q106 216 93.5 205 Q81 194 62 179 Q55 174 48 170 Q41 166 33 163 Q19 158 7 165 L1 168 Q-19 176 -22 196 Q-24 217 -19 235 Q-14 258 -7.5 279 Q-1 300 7 320 Q18 348 29.5 376 Q41 404 53 432 Q46 432 43 433 Q38 434 33 436.5 Q28 439 23 441 Q21 443 21 445 Q18 449 23 451 L44 454 Q49 454 53.5 454.5 Q58 455 63 455 Q65 460 66.5 464 Q68 468 70 473 Q77 490 82.5 501.5 Q88 513 93.5 524 Q99 535 105.5 548.5 Q112 562 121 583 Q131 604 139 620.5 Q147 637 158 661 Q158 663 163.5 667 Q169 671 171 671 Q171 671 173 670 Q175 670 175 670 Q176 669 177.5 669.5 Q179 670 180 669 L186 663 L186 659 Q184 647 173 623.5 Q162 600 152 579 Q136 547 123.5 520.5 Q111 494 94 457 Q98 457 101 457.5 Q104 458 107 458 Q116 458 125 455 Q128 454 131 450.5 Q134 447 134 445 Q133 444 133 443 Q133 442 132 440 Q132 438 130 438 Q123 437 116.5 437 Q110 437 103 436 Q98 436 93.5 435.5 Q89 435 84 435 Q69 402 56.5 368.5 Q44 335 31 302 Q15 265 6 223 Q4 215 3 207 Q2 199 4 191 Q4 188 6 184 Q6 180 10 182 Q17 184 23 187.5 Q29 191 35 195 Q54 211 67 220.5 Q80 230 97 244 Q104 249 115.5 258.5 Q127 268 139 277 Q152 288 168 300 Z M175 638 Q170 628 165.5 618.5 Q161 609 156 599 L157 598 Q162 608 166.5 617.5 Q171 627 176 637 Q175 637 175 638 Z M137 562 Q131 554 117 524.5 Q103 495 86 457 L87 457 Q98 483 110.5 509.5 Q123 536 137 562 Z M76 434 Q65 409 55 384.5 Q45 360 36.5 339.5 Q28 319 23 304 Q18 289 17 284 Q30 319 44.5 354 Q59 389 73 424 Q75 428 77 434 L76 434 Z " />
<glyph glyph-name="Zcaron" unicode="&#x17d;" horiz-adv-x="525" d="M189 245 Q195 247 201 249 Q207 251 214 254 Q231 259 250 264.5 Q269 270 288 273 Q308 278 327.5 278.5 Q347 279 365 273 Q401 264 418 237 Q429 218 429 194 Q430 171 423.5 150 Q417 129 406 108 Q395 82 378.5 59.5 Q362 37 344 15 Q328 -3 311.5 -20 Q295 -37 275 -53 L274 -54 Q275 -56 275 -57.5 Q275 -59 276 -61 L276 -67 Q275 -72 271 -69 Q269 -67 266.5 -66.5 Q264 -66 262 -65 Q261 -65 260 -66 Q246 -74 234 -83.5 Q222 -93 209 -101 Q174 -123 138.5 -139 Q103 -155 65 -166 Q30 -175 -4 -174 Q-43 -174 -77 -151 Q-88 -143 -94.5 -133 Q-101 -123 -102 -109 Q-106 -80 -83 -54 Q-73 -42 -60 -34.5 Q-47 -27 -32 -22 Q-14 -15 10 -12 Q22 -10 34.5 -9 Q47 -8 60 -7 Q84 -5 108 -4 Q132 -3 156 -5 Q173 -6 188 -7.5 Q203 -9 220 -14 Q229 -17 237.5 -20.5 Q246 -24 254 -29 Q256 -31 258 -29 Q270 -17 282.5 -6 Q295 5 306 18 Q347 59 373 104 Q383 121 390.5 138.5 Q398 156 402 175 Q404 187 404.5 199.5 Q405 212 402 223 Q393 256 360 259 Q343 261 327 260 Q311 259 295 256 Q271 251 248 244 Q225 237 202 229 Q193 225 179 222 Q176 222 172 224 Q168 226 165 227 Q151 234 159 245 Q164 252 167.5 258 Q171 264 176 269 Q193 290 211 310.5 Q229 331 249 351 Q288 391 327.5 430.5 Q367 470 405 510 Q429 534 452.5 558.5 Q476 583 498 609 Q507 620 514.5 630 Q522 640 529 652 Q532 657 535 663.5 Q538 670 539 676 L539 677 Q539 685 530 685 Q521 686 512 684.5 Q503 683 493 681 Q471 675 449.5 666 Q428 657 407 647 Q361 624 318 597 Q275 570 235 537 Q215 520 196.5 502 Q178 484 161 463 Q156 456 151.5 448.5 Q147 441 143 433 Q139 428 143 424 Q143 420 142 418 Q142 418 138 418 Q136 419 135.5 419.5 Q135 420 133 421 Q123 427 127 436 Q130 449 138 460 Q148 476 160.5 490 Q173 504 187 517 Q216 545 246.5 568 Q277 591 310 612 Q341 631 371.5 647.5 Q402 664 435 678 Q451 684 466.5 690 Q482 696 498 698 Q509 700 519 700.5 Q529 701 539 697 Q556 690 556 675 Q558 669 556.5 663 Q555 657 553 651 Q548 639 540.5 628 Q533 617 525 606 Q511 587 496 569.5 Q481 552 466 535 Q415 481 365 428.5 Q315 376 263 324 Q244 305 226.5 286 Q209 267 191 248 Q190 247 190 246.5 Q190 246 189 245 Z M246 -38 Q242 -36 239.5 -34.5 Q237 -33 235 -32 Q230 -30 224.5 -28.5 Q219 -27 214 -26 Q200 -23 186.5 -22 Q173 -21 159 -20 Q140 -19 121 -19.5 Q102 -20 82 -22 Q66 -24 51 -25 Q36 -26 21 -28 Q9 -30 -3.5 -33 Q-16 -36 -27 -41 Q-56 -52 -72 -74 Q-80 -88 -82 -101 Q-84 -114 -77 -128 Q-72 -138 -63.5 -143 Q-55 -148 -46 -151 Q-29 -156 -13.5 -155 Q2 -154 19 -152 Q55 -146 89 -132 Q124 -118 157 -99 Q190 -80 222 -57 Q235 -49 246 -38 Z M403 114 Q395 100 386.5 86 Q378 72 369 58 Q380 71 388 85.5 Q396 100 403 114 Z M139 617 Q143 622 146.5 625.5 Q150 629 154 633 Q164 644 173 655.5 Q182 667 190 680 Q192 684 195 682 L195 680 L199 680 Q202 680 204 678 Q210 675 207 669 Q205 664 202.5 660.5 Q200 657 198 653 Q172 619 140 588 Q138 586 135.5 583.5 Q133 581 129 581 Q125 581 121.5 581.5 Q118 582 114 585 Q107 589 109 597 Q111 604 112 610 Q113 616 115 622 Q118 635 120.5 647.5 Q123 660 126 674 Q128 678 124 682 Q123 682 123 684 Q123 686 124 688 Q124 689 128 689 Q131 688 134 687 Q137 686 139 685 Q148 681 146 671 Q146 665 145.5 659.5 Q145 654 144 648 Q142 641 141.5 634 Q141 627 139 620 L139 618 L139 617 Z " />
<glyph glyph-name="zcaron" unicode="&#x17e;" horiz-adv-x="204" d="M204 300 Q210 297 213 293 Q215 289 214.5 283 Q214 277 206 269 Q200 262 192.5 254.5 Q185 247 179 240 Q172 232 165 224 Q153 210 140.5 197 Q128 184 116 170 Q109 162 102 155 Q95 148 88 141 Q82 135 81 128 Q79 109 74.5 90.5 Q70 72 63 55 Q49 19 30.5 -13.5 Q12 -46 -14 -75 Q-28 -91 -43.5 -105 Q-59 -119 -77 -130 Q-84 -134 -90.5 -136.5 Q-97 -139 -105 -140 Q-110 -142 -114 -140 Q-121 -138 -127.5 -135 Q-134 -132 -139 -126 Q-145 -120 -146 -112.5 Q-147 -105 -146 -97 Q-144 -85 -138.5 -74.5 Q-133 -64 -127 -53 Q-116 -36 -104.5 -21.5 Q-93 -7 -79 7 Q-50 40 -19 71.5 Q12 103 44 135 L50 141 Q57 146 55 154 Q55 168 53 180.5 Q51 193 46 204 Q43 212 39 216 Q36 220 30 222 Q16 226 8 232 Q-1 240 6 247 Q10 252 13.5 256 Q17 260 21 265 Q29 274 37.5 283.5 Q46 293 54 302 Q58 308 61 313 Q58 315 49.5 310.5 Q41 306 38 304 Q31 299 22.5 292 Q14 285 7 281 Q6 280 4 280 Q4 280 3 282 Q1 280 -0.5 281.5 Q-2 283 -4 284 Q-11 287 -6 294 Q8 308 20 317 Q32 326 52 332 Q65 335 76.5 329.5 Q88 324 86 309 Q84 303 81 297.5 Q78 292 75 287 Q67 276 58 265.5 Q49 255 39 244 Q38 242 37 241.5 Q36 241 35 239 L34 238 Q54 232 67 213 Q73 204 76.5 194.5 Q80 185 82 174 L83 173 Q83 175 85 177 L148 240 L204 300 Z M-110 -64 Q-114 -70 -117 -76.5 Q-120 -83 -124 -90 L-123 -90 Q-120 -84 -116.5 -77.5 Q-113 -71 -109 -64 L-110 -64 Z M-35 -59 Q-6 -25 13 12.5 Q32 50 45 92 Q45 93 47 97 Q45 96 44 95 Q21 70 -3 45.5 Q-27 21 -50 -3 Q-64 -18 -77.5 -34 Q-91 -50 -103 -67 Q-109 -75 -114 -84 Q-119 -93 -122 -104 Q-123 -108 -123.5 -111.5 Q-124 -115 -122 -120 Q-121 -124 -117 -123 Q-107 -122 -95 -113 Q-77 -102 -62.5 -88 Q-48 -74 -35 -59 Z M16 -25 Q40 13 55 54 Q39 15 16 -25 Z M139 617 Q143 622 146.5 625.5 Q150 629 154 633 Q164 644 173 655.5 Q182 667 190 680 Q192 684 195 682 L195 680 L199 680 Q202 680 204 678 Q210 675 207 669 Q205 664 202.5 660.5 Q200 657 198 653 Q172 619 140 588 Q138 586 135.5 583.5 Q133 581 129 581 Q125 581 121.5 581.5 Q118 582 114 585 Q107 589 109 597 Q111 604 112 610 Q113 616 115 622 Q118 635 120.5 647.5 Q123 660 126 674 Q128 678 124 682 Q123 682 123 684 Q123 686 124 688 Q124 689 128 689 Q131 688 134 687 Q137 686 139 685 Q148 681 146 671 Q146 665 145.5 659.5 Q145 654 144 648 Q142 641 141.5 634 Q141 627 139 620 L139 618 L139 617 Z " />
<glyph glyph-name="circumflex" unicode="&#x2c6;" horiz-adv-x="140" d="M178 655 L163 640 Q152 630 142 619 Q132 608 122 597 Q120 594 117 595 L117 597 L113 597 L109 600 Q103 603 106 610 L117 624 Q131 641 147 656 Q163 671 180 685 Q182 687 185 688.5 Q188 690 191 690 Q201 690 207 685 Q212 680 210 672 Q208 666 206 660 Q204 654 202 648 L187 597 Q185 592 188 589 Q189 589 189 587 Q189 585 188 583 Q187 582 183 582 L173 588 Q165 592 167 602 Q169 616 171 624 L178 652 Q179 654 179 654 L178 655 Z " />
<glyph glyph-name="quotedblbase" unicode="&#x201e;" horiz-adv-x="162" d="M-6 104 Q-5 105 -5 107 L-7 105 L-14 108 Q-17 111 -16 115 Q-11 133 -4 150 Q3 167 13 184 Q15 188 17 189 Q19 190 24 188 Q30 188 31 184 Q35 184 33 180 Q33 178 31 174 Q13 144 1 111 L-1 105 Q-2 102 -6 104 Z M38 104 Q39 105 39 107 L37 105 L30 108 Q27 111 28 115 Q33 133 40 150 Q47 167 57 184 Q59 188 61 189 Q63 190 68 188 Q74 188 75 184 Q79 184 77 180 Q77 178 75 174 Q57 144 45 111 L43 105 Q42 102 38 104 Z " />
<glyph glyph-name="ellipsis" unicode="&#x2026;" horiz-adv-x="224" d="M34 183 Q33 181 32 180.5 Q31 180 31 178 Q29 176 29 174 Q28 170 24 172 Q20 173 16 176 Q15 176 13 178 Q9 182 10 185 Q11 190 16 190 Q24 190 28 189 Q30 188 31 186.5 Q32 185 34 183 Z M92 183 Q91 181 90 180.5 Q89 180 89 178 Q87 176 87 174 Q86 170 82 172 Q78 173 74 176 Q73 176 71 178 Q67 182 68 185 Q69 190 74 190 Q82 190 86 189 Q88 188 89 186.5 Q90 185 92 183 Z M147 183 Q146 181 145 180.5 Q144 180 144 178 Q142 176 142 174 Q141 170 137 172 Q133 173 129 176 Q128 176 126 178 Q122 182 123 185 Q124 190 129 190 Q137 190 141 189 Q143 188 144 186.5 Q145 185 147 183 Z " />
<glyph glyph-name="dagger" unicode="&#x2020;" horiz-adv-x="178" d="M192 425 Q191 424 191 422.5 Q191 421 190 420 Q190 418 187 417 Q180 417 173.5 417 Q167 417 161 416 Q156 415 151.5 414.5 Q147 414 142 414 Q115 355 89 297 Q63 239 37 180 Q20 140 2.5 100.5 Q-15 61 -33 21 Q-35 16 -37 12.5 Q-39 9 -41 4 Q-44 1 -47 2 Q-47 3 -45 5 L-46 5 Q-49 2 -49 4 L-56 9 Q-57 10 -57 13 Q-25 85 4 155.5 Q33 226 65 297 L117 412 L114 412 Q108 411 101 412 Q96 413 91 415.5 Q86 418 81 421 Q81 421 78 424 Q76 430 81 430 Q91 433 102 433 L127 435 L150 486 Q163 515 177.5 542.5 Q192 570 207 598 L214 609 Q218 613 223 611 L227 611 Q231 610 229 605 Q229 603 228 603 L229 602 L232 607 Q235 606 233 602 L223 581 Q209 553 196 526 Q183 499 170 471 L153 436 Q156 436 159 436.5 Q162 437 165 437 Q170 438 174 437 Q178 436 183 435 Q185 433 188.5 430 Q192 427 192 425 Z " />
<glyph glyph-name="daggerdbl" unicode="&#x2021;" horiz-adv-x="246" d="M40 211 L13 213 Q4 215 -2 222 Q-5 226 1 228 Q4 228 7 228.5 Q10 229 13 229 L70 231 Q77 248 84 264 Q91 280 99 297 L113 329 L111 329 Q100 328 89 328 Q78 328 67 328 Q61 328 56.5 330.5 Q52 333 47 336 Q46 336 45.5 338 Q45 340 45 342 Q45 345 50 345 L83 348 Q93 348 102.5 348 Q112 348 122 349 L184 486 Q197 515 211.5 542.5 Q226 570 241 598 L248 609 Q252 613 257 611 L261 611 Q265 610 263 605 Q263 603 262 603 L263 602 L266 607 Q269 606 267 602 L257 581 Q243 553 230 526 Q217 499 204 471 Q189 441 175 411 Q161 381 147 350 L189 352 Q194 352 204 350 Q214 346 211 338 Q211 334 207 334 Q201 334 195 333.5 Q189 333 183 333 Q160 330 138 330 L94 232 Q104 233 113 234 Q122 235 132 235 Q136 235 139 234.5 Q142 234 146 233 Q152 231 152 224 Q151 220 146 219 Q131 217 116 216.5 Q101 216 87 215 L71 180 Q54 140 36.5 100.5 Q19 61 1 21 Q-1 16 -3 12.5 Q-5 9 -7 4 Q-10 1 -13 2 Q-13 3 -11 5 L-12 5 Q-15 2 -15 4 L-22 9 Q-23 10 -23 13 Q0 63 20.5 112.5 Q41 162 62 212 Q57 212 51.5 211.5 Q46 211 40 211 Z " />
</font>
</svg>
