<?xml version="1.0" encoding="UTF-8"?>
<svg xmlns="http://www.w3.org/2000/svg" xmlns:xlink="http://www.w3.org/1999/xlink" version="1.2" >
<font id="Rattles Script">
<font-face  font-family="Rattles" units-per-em="1000" ascent="750" descent="-250" font-style="normal" font-weight="100" font-stretch="normal" cap-height="675" x-height="310" underline-position="-75" underline-thickness="50" />
<missing-glyph  horiz-adv-x="248" d="" />
<glyph glyph-name="null" d="" />
<glyph glyph-name="nonmarkingreturn" unicode="&#xd;" horiz-adv-x="248" d="" />
<glyph glyph-name="space" unicode="&#x20;" horiz-adv-x="151" d="" />
<glyph glyph-name="exclam" unicode="&#x21;" horiz-adv-x="89" d="M121 521 Q125 521 125 515 Q125 508 122 502 Q119 493 116 483.5 Q113 474 109 465 Q106 455 102.5 445.5 Q99 436 96 426 Q91 412 85.5 398 Q80 384 75 370 Q72 362 69.5 353.5 Q67 345 63 337 Q59 323 54.5 310 Q50 297 45 283 Q42 274 38.5 265 Q35 256 32 246 Q29 237 26 228 Q23 219 19 210 L7 174 Q4 166 1.5 158.5 Q-1 151 -4 143 Q-4 142 -4.5 141 Q-5 140 -5 138 Q-5 135 -8 133 Q-11 132 -13 134 Q-16 138 -14 144 Q-13 148 -12 151.5 Q-11 155 -10 159 Q-5 172 -1 184.5 Q3 197 7 210 Q12 227 18 242.5 Q24 258 29 274 Q34 288 38.5 301.5 Q43 315 48 329 Q52 340 55.5 350.5 Q59 361 63 372 L78 417 Q81 424 83.5 430.5 Q86 437 89 444 Q94 458 99 472 Q104 486 109 500 Q113 509 115 517 Q117 522 121 521 Z M-25 67 Q-19 67 -19 61 Q-19 56 -25 56 Q-31 56 -31 61 Q-31 67 -25 67 Z " />
<glyph glyph-name="quotedbl" unicode="&#x22;" horiz-adv-x="89" d="M74 492 Q74 493 75 494 Q80 507 84 520 Q88 533 93 546 Q95 554 100 550 Q105 548 103 542 L85 494 Q83 489 82 489 Q80 487 77 487 Q76 488 75.5 489 Q75 490 74 491 L74 492 Z M85 548 Q85 546 84 543.5 Q83 541 82 539 L70 506 Q69 504 68 502 Q67 500 65 497 Q64 493 59 495 Q55 496 57 502 Q62 513 65.5 523.5 Q69 534 73 545 Q75 549 76 552 Q79 555 82 554 Q85 553 85 548 Z " />
<glyph glyph-name="numbersign" unicode="&#x23;" horiz-adv-x="177" d="M50 269 Q44 268 39 267.5 Q34 267 29 266 L19 266 Q14 266 14 271 Q14 275 17 276 L18 276 Q19 276 19 276.5 Q19 277 20 277 Q28 278 37 279 Q46 280 54 281 Q56 281 56 283 Q60 291 63.5 298 Q67 305 70 313 Q71 314 71 314.5 Q71 315 72 316 Q75 320 79 319 Q85 318 83 312 Q81 305 80 304 Q78 299 75.5 293.5 Q73 288 70 283 Q74 284 77 284 Q80 284 83 285 Q86 285 89.5 285.5 Q93 286 96 286 Q100 286 100 289 L112 313 Q112 314 114 316 Q117 319 121 318 Q124 315 123 312 Q122 309 121 306 Q120 303 119 301 Q115 295 113 288 Q116 288 119 288.5 Q122 289 124 289 Q129 289 134 289.5 Q139 290 144 290 Q147 290 150 287 Q153 286 152 280 Q150 278 144 278 Q142 279 133 279 L109 276 Q107 276 107 275 Q105 272 103.5 268.5 Q102 265 100 261 Q103 262 105.5 262 Q108 262 110 263 Q119 264 124 266 Q129 268 131 263 Q133 258 130 257 Q128 256 127 255 Q126 254 125 254 Q117 252 110.5 251.5 Q104 251 96 249 L93 246 Q89 238 85.5 230 Q82 222 77 214 L74 208 Q71 201 67 205 Q62 207 64 212 Q66 217 68 221 Q70 225 72 230 Q74 234 75.5 237.5 Q77 241 79 246 Q69 244 66 244 Q61 242 52 241 Q51 241 49 239 Q45 231 42 223 Q39 215 35 207 Q32 199 27 202 Q21 204 25 211 Q27 218 30 224.5 Q33 231 35 238 Q30 238 25.5 237.5 Q21 237 16 237 L10 237 Q6 238 6 243 Q7 246 11 248 Q14 248 18 248.5 Q22 249 27 250 Q30 250 33 250.5 Q36 251 40 251 L42 253 Q46 260 50 269 Z M57 254 Q64 256 70.5 256.5 Q77 257 84 259 Q86 259 86 260 Q88 264 90 267 Q92 270 94 275 Q86 273 79.5 272.5 Q73 272 66 271 Q64 270 64 270 Q62 266 60.5 262.5 Q59 259 57 255 L57 254 Z " />
<glyph glyph-name="dollar" unicode="&#x24;" horiz-adv-x="188" d="M49 189 Q41 189 38 190 Q22 193 18 209 Q16 214 16.5 219.5 Q17 225 18 230 Q20 245 24 258.5 Q28 272 33 286 Q40 307 51 326 Q52 327 53 328 Q54 329 56 330 Q61 332 62 327 Q63 325 64 324 Q65 323 63 321 Q52 308 47 292 Q42 276 37 260 Q33 250 31.5 240.5 Q30 231 29 223 Q27 215 30 211 Q32 200 42 201 Q50 201 52 202 Q53 203 54 203.5 Q55 204 56 205 Q61 230 68 248 Q72 265 78 281.5 Q84 298 89 315 Q91 318 89.5 318.5 Q88 319 86 321 Q77 325 65 337 Q57 345 55.5 353.5 Q54 362 55 370 Q63 391 76.5 407 Q90 423 107 438 Q113 443 120.5 448 Q128 453 136 458 Q137 459 137.5 460 Q138 461 139 462 Q144 472 147 482 Q150 492 155 502 Q162 519 170 536 Q171 538 171 540 Q171 542 173 544 Q174 547 179 545 Q182 543 183 538 Q175 522 168.5 506 Q162 490 157 473 Q156 473 156 471 Q164 474 168 477 Q178 479 181 480 Q195 480 196 467 Q192 444 183 420 Q174 396 166 373 Q163 364 160 355 Q157 346 154 338 Q152 333 150 329 Q148 325 146 320 Q142 316 139 318 Q136 321 135 325 Q139 334 141.5 342.5 Q144 351 148 359 Q154 375 159 390 Q164 405 170 421 Q173 431 176.5 441 Q180 451 183 461 Q185 464 183 469 L182 469 Q173 467 165.5 463 Q158 459 150 455 Q149 454 149 453.5 Q149 453 148 452 Q143 439 138.5 426 Q134 413 130 400 Q120 379 115 359 Q111 350 109 341 Q107 332 104 323 Q103 322 105 320 Q110 316 116.5 311.5 Q123 307 128 302 Q139 291 141 279 Q143 267 140 255 Q135 240 124.5 229.5 Q114 219 102 210 Q94 205 84 200.5 Q74 196 65 193 Q63 193 63 190 Q61 178 57 171 Q52 153 48 134.5 Q44 116 40 98 Q39 92 40 86 Q39 83 36 83 Q31 83 31 86 Q27 91 29 93 Q29 95 28.5 98 Q28 101 29 103 Q32 116 34.5 128 Q37 140 40 153 L49 189 Z M70 208 Q96 219 112 235 Q124 249 128 263 Q133 277 124 289 Q121 297 113.5 301.5 Q106 306 101 312 Q93 286 84.5 260 Q76 234 68 208 L70 208 Z M92 329 Q101 357 110.5 384.5 Q120 412 130 440 Q129 439 128.5 439 Q128 439 127 438 Q123 436 120.5 433 Q118 430 114 428 Q100 414 86 399 Q72 384 68 364 Q65 349 78 339 Q81 337 85 334 Q89 331 92 329 Z " />
<glyph glyph-name="percent" unicode="&#x25;" horiz-adv-x="160" d="M204 486 Q216 484 211 472 Q209 468 206.5 465 Q204 462 202 459 Q197 452 191.5 446.5 Q186 441 181 435 Q175 428 168.5 421 Q162 414 156 407 Q148 397 140 387.5 Q132 378 124 368 L88 323 Q82 315 76 307 Q70 299 64 291 Q55 277 45.5 264.5 Q36 252 26 238 Q18 226 9 213.5 Q0 201 -9 188 Q-16 179 -22.5 169.5 Q-29 160 -36 151 Q-37 148 -40 147 Q-43 144 -46 147 Q-49 149 -48 153 Q-47 155 -46.5 155.5 Q-46 156 -45 158 Q-35 172 -25.5 185.5 Q-16 199 -6 213 Q5 230 16.5 245.5 Q28 261 40 278 Q45 284 49 290.5 Q53 297 58 304 Q68 317 77.5 330 Q87 343 97 356 Q105 366 113 375.5 Q121 385 129 395 Q136 403 142.5 410.5 Q149 418 156 426 Q172 442 185 458 Q188 462 191 465 Q194 468 197 472 Q198 473 198 473.5 Q198 474 199 475 L199 476 Q182 475 165 471 Q148 467 131 464 Q132 462 133 459.5 Q134 457 134 454 Q136 446 129 438 Q118 420 98 412 Q91 409 83 411 Q69 413 71 427 Q71 435 76 447 Q80 455 84 462 Q88 469 94 475 L97 478 Q103 480 105 479 Q108 478 108 472 Q115 472 116 473 Q126 475 135.5 477 Q145 479 155 481 L194 487 Q195 488 204 486 Z M122 450 Q125 456 119 458 Q116 459 112.5 459 Q109 459 106 460 L96 460 Q89 450 84 437 Q82 429 82 428 Q82 421 89 422 Q92 423 94.5 424 Q97 425 99 426 Q104 428 107.5 431.5 Q111 435 115 439 Q117 441 118.5 443.5 Q120 446 122 450 Z M59 237 Q62 240 66.5 239 Q71 238 73 233 Q76 225 73 217 Q62 194 42 183 Q36 181 33 181 Q24 181 24 189 Q24 197 25 199 Q29 211 37 222 Q39 223 39.5 224 Q40 225 42 226 Q46 229 50 225 Q55 219 48 217 Q43 212 40.5 206 Q38 200 36 194 L37 193 Q39 195 42 197.5 Q45 200 47 202 Q50 205 53 208.5 Q56 212 59 216 Q59 218 58 219 Q56 222 56 228 Q56 234 59 237 Z " />
<glyph glyph-name="ampersand" unicode="&#x26;" horiz-adv-x="186" d="M170 497 Q175 488 173 479 Q171 465 165 453 Q157 438 148 425 Q139 412 130 399 L91 348 Q87 342 83 336 Q79 330 75 324 Q74 323 74 316 Q75 300 75.5 284.5 Q76 269 78 253 Q78 247 78.5 241 Q79 235 80 228 L88 236 Q93 241 97.5 244.5 Q102 248 107 253 Q115 261 123.5 269 Q132 277 140 285 L144 289 Q148 293 152 290 Q157 286 152 281 Q147 276 142.5 271 Q138 266 133 261 Q122 250 112 241 Q102 232 91 222 Q84 215 82 214 L82 211 Q84 197 86 182.5 Q88 168 92 154 Q94 146 95.5 139.5 Q97 133 99 126 Q101 118 97 117 Q92 115 89 123 Q82 140 78 157 Q74 174 72 191 Q71 194 71 196.5 Q71 199 70 202 Q66 199 63 196.5 Q60 194 57 191 Q49 183 40 176 Q31 169 23 161 Q18 157 14 153.5 Q10 150 6 148 Q2 144 -3 143 Q-19 139 -22 157 Q-23 165 -20 178 Q-16 194 -9.5 208 Q-3 222 5 236 Q13 252 22 267.5 Q31 283 41 298 Q46 306 51 313 Q56 320 60 327 Q61 328 61 330 Q62 341 62 351 Q62 361 63 371 Q64 381 65 390.5 Q66 400 68 410 Q69 418 70.5 425 Q72 432 74 440 Q76 447 78.5 454 Q81 461 85 469 Q90 482 97 492.5 Q104 503 115 510 Q129 519 142 518 Q163 515 170 497 Z M67 218 Q67 219 67.5 219 Q68 219 68 220 Q67 224 67 227 Q67 230 66 234 Q65 244 64.5 254 Q64 264 63 275 Q62 282 62 289 Q62 296 61 304 Q61 303 60.5 303 Q60 303 60 302 L36 263 Q31 256 27.5 249 Q24 242 19 235 Q12 222 5.5 209 Q-1 196 -6 181 Q-7 177 -8 172.5 Q-9 168 -10 162 Q-10 161 -9.5 159.5 Q-9 158 -9 156 L-3 158 Q4 163 10.5 168 Q17 173 23 178 Q34 188 45 197.5 Q56 207 67 217 L67 218 Z M162 482 Q163 498 149 504 Q136 508 124 501 Q108 491 100 471 Q97 464 94 457.5 Q91 451 89 443 Q84 432 83 420 Q79 401 77 381 L74 348 L75 348 Q78 352 81 355.5 Q84 359 86 364 Q96 376 105.5 388.5 Q115 401 124 413 Q132 424 139.5 434.5 Q147 445 153 457 Q156 462 158.5 468 Q161 474 162 482 Z " />
<glyph glyph-name="quotesingle" unicode="&#x27;" horiz-adv-x="65" d="M64 550 Q63 548 63 545.5 Q63 543 61 541 Q57 530 54 519 Q51 508 48 497 Q48 497 46 491 Q45 488 39 489 Q36 491 37 495 Q39 504 41.5 512.5 Q44 521 46 530 Q48 535 49.5 540.5 Q51 546 53 551 Q54 552 54 552.5 Q54 553 55 554 Q58 557 61 555 Q64 554 64 550 Z " />
<glyph glyph-name="parenleft" unicode="&#x28;" horiz-adv-x="167" d="M197 556 Q201 556 201 551 Q201 548 198 546 Q197 546 196 545 Q187 544 180 540 Q173 536 166 531 Q138 510 116 482 Q100 461 86 437 Q77 420 69.5 402.5 Q62 385 57 367 Q49 343 45 323 Q41 310 39 297 Q37 284 34 271 Q35 268 33 261 Q30 238 30 197 Q30 156 44 110 Q48 102 50.5 94 Q53 86 55 79 Q57 74 61 68 L62 67 Q68 66 67 59 Q66 52 58 53 Q53 55 51 58 Q49 64 45.5 69.5 Q42 75 40 80 L37 89 Q35 97 31.5 105 Q28 113 26 121 L26 123 Q18 152 15.5 179 Q13 206 14 229 Q16 240 16.5 250.5 Q17 261 18 272 Q23 289 24 305 Q27 316 30 326 Q33 336 35 347 Q40 364 45 380 Q50 396 57 411 Q63 424 68.5 436 Q74 448 82 459 Q92 476 103.5 490 Q115 504 129 518 Q139 528 149 536 Q159 544 172 550 Q177 552 182 554 Q187 556 192 557 Q196 557 197 556 Z " />
<glyph glyph-name="parenright" unicode="&#x29;" horiz-adv-x="139" d="M97 431 Q96 440 96 450 Q96 460 94 470 Q92 495 83 515 Q78 523 73.5 530.5 Q69 538 61 545 Q60 545 60 546 Q57 549 61 553 Q63 558 68 554 Q71 551 74 548.5 Q77 546 80 542 Q89 531 94.5 518.5 Q100 506 104 492 Q106 484 107 477 Q108 470 110 462 Q113 442 110 420.5 Q107 399 105 379 Q99 350 88 317 Q83 304 78.5 291 Q74 278 69 265 Q65 255 60.5 245 Q56 235 51 225 Q43 208 34.5 192.5 Q26 177 18 163 Q10 152 4 142 Q-2 132 -10 121 L-34 85 Q-39 78 -44.5 71 Q-50 64 -55 57 Q-57 53 -61 52 Q-64 49 -68 53 Q-71 56 -67 60 Q-62 67 -57.5 73.5 Q-53 80 -48 87 Q-43 95 -38 101.5 Q-33 108 -28 116 Q-21 126 -15.5 136 Q-10 146 -2 156 Q8 173 18 190.5 Q28 208 36 226 Q43 241 49.5 256.5 Q56 272 63 288 Q68 299 71 310.5 Q74 322 78 334 Q80 342 82.5 350.5 Q85 359 86 367 Q88 377 90 386.5 Q92 396 93 406 Q95 412 95 417.5 Q95 423 97 431 Z " />
<glyph glyph-name="asterisk" unicode="&#x2a;" horiz-adv-x="162" d="M130 448 Q134 451 137 453 Q140 455 143 457 Q148 460 152.5 463.5 Q157 467 162 470 Q164 470 165 470.5 Q166 471 167 471 Q171 471 172 468 Q174 466 171 463 Q167 459 164 458 Q156 453 148.5 447.5 Q141 442 133 437 L131 435 L132 435 L165 438 Q170 438 175 438.5 Q180 439 185 440 Q190 440 191 437 Q192 433 188 430 Q187 429 182 429 Q174 428 167 427.5 Q160 427 153 426 Q147 425 141.5 425 Q136 425 131 424 L129 424 L129 423 Q135 418 140.5 413 Q146 408 151 403 Q152 402 152.5 402 Q153 402 154 401 Q160 395 153 393 Q151 392 145 394 Q141 398 137 401.5 Q133 405 128 409 Q121 416 118 418 Q116 413 115 409.5 Q114 406 112 401 Q109 393 106 384 Q103 375 99 367 L96 355 Q95 351 94 350 Q93 346 88 347 Q83 347 85 352 Q85 358 86 360 Q90 370 93 379.5 Q96 389 99 399 Q103 405 106 418 Q104 416 102.5 415.5 Q101 415 99 413 Q88 404 76.5 395.5 Q65 387 56 376 Q53 373 48 374 Q43 379 48 382 Q58 394 70 404 Q75 408 79.5 411.5 Q84 415 89 419 Q90 419 90 420 Q84 419 78 419 Q72 419 66 418 Q63 417 59.5 417 Q56 417 53 417 Q47 417 47 422 Q47 427 53 428 Q65 429 76.5 430 Q88 431 100 432 Q101 432 102 433 Q99 435 97.5 436 Q96 437 95 438 Q90 443 85.5 447 Q81 451 76 456 L73 462 Q72 465 75 468 Q79 469 82 466 Q99 453 114 437 Q116 442 117 446 Q118 450 119 452 Q122 459 125 466 Q128 473 131 480 Q132 482 132 483.5 Q132 485 133 487 Q134 491 137 491 Q143 493 143 487 Q145 484 142 481 Q140 473 137 466.5 Q134 460 132 452 L131 451 Q131 450 130 448 Z " />
<glyph glyph-name="plus" unicode="&#x2b;" horiz-adv-x="207" d="M83 250 L73 250 Q62 249 52 248.5 Q42 248 31 248 L24 248 Q17 250 21 255 Q21 259 27 259 Q34 260 40.5 260 Q47 260 55 261 Q61 261 67 261.5 Q73 262 79 262 L85 262 Q86 262 86 263 L87 264 Q90 274 93 283 Q96 292 99 302 Q101 310 103.5 316.5 Q106 323 108 331 Q111 338 115 338 Q124 338 119 329 Q117 320 114.5 310.5 Q112 301 109 292 Q107 284 104.5 277.5 Q102 271 100 263 L107 263 Q117 263 127 263.5 Q137 264 147 264 Q155 266 159 262 Q163 261 163 257 Q163 252 156 252 Q147 254 137 253 Q127 252 117 252 Q112 251 107.5 251 Q103 251 98 251 Q97 251 95 248 Q90 235 86.5 222.5 Q83 210 78 197 Q75 186 72 174 Q69 162 65 151 L65 148 Q64 141 59 141 Q54 141 54 147 Q53 157 58 169 Q63 185 67 200 Q71 215 76 231 Q77 236 79 240.5 Q81 245 83 250 Z " />
<glyph glyph-name="comma" unicode="&#x2c;" horiz-adv-x="107" d="M6 159 L8 165 Q11 172 14 178.5 Q17 185 20 191 L23 194 Q24 197 29 195 Q32 193 31 189 Q30 187 29.5 185.5 Q29 184 28 182 Q25 177 22.5 171 Q20 165 18 159 Q17 158 16.5 157 Q16 156 15 155 Q11 154 9 155 Q8 156 7.5 157 Q7 158 6 159 Z " />
<glyph glyph-name="hyphen" unicode="&#x2d;" horiz-adv-x="167" d="M66 257 L104 257 L112 257 L116 257 Q120 256 120 251 Q120 247 116 246 L112 246 Q102 245 93 245 Q84 245 74 244 L29 244 Q28 244 27 244.5 Q26 245 24 245 Q20 246 20 250 Q22 255 25 255 Q26 256 30 256 Q39 256 48 256 Q57 256 66 257 Z " />
<glyph glyph-name="period" unicode="&#x2e;" horiz-adv-x="92" d="M22 183 Q22 177 16 177 Q10 177 10 183 Q12 188 16 188 Q22 188 22 183 Z " />
<glyph glyph-name="slash" unicode="&#x2f;" horiz-adv-x="178" d="M204 558 Q204 553 203 552 Q194 533 184 514 Q179 503 173.5 492.5 Q168 482 162 471 Q155 457 148.5 444 Q142 431 136 417 L109 363 Q104 352 98.5 341 Q93 330 88 319 Q83 308 78.5 298 Q74 288 69 278 Q64 265 58 252.5 Q52 240 46 226 Q41 217 37.5 207.5 Q34 198 29 189 Q22 174 15.5 159.5 Q9 145 2 130 Q-3 120 -7.5 110 Q-12 100 -17 90 Q-19 86 -21 83 Q-25 79 -29 83 Q-32 84 -30 90 Q-26 97 -23 103.5 Q-20 110 -17 116 L7 170 Q12 180 16.5 189.5 Q21 199 26 210 Q31 223 37 235.5 Q43 248 49 262 Q54 273 58 282.5 Q62 292 67 303 L91 354 Q95 363 99 372 Q103 381 108 390 Q115 405 122 418 Q126 426 129.5 433.5 Q133 441 137 449 Q143 460 148.5 470.5 Q154 481 160 492 Q168 506 174.5 520.5 Q181 535 189 549 Q193 554 193 560 Q193 565 199 565 Q204 563 204 558 Z " />
<glyph glyph-name="zero" unicode="0" horiz-adv-x="141" d="M112 287 Q112 277 110 268 Q108 259 105 250 Q100 237 94.5 225 Q89 213 82 202 Q76 193 69.5 185.5 Q63 178 55 171 Q48 165 40 160.5 Q32 156 22 155 Q9 154 1 161.5 Q-7 169 -9 182 Q-11 191 -9.5 200 Q-8 209 -6 219 Q2 242 12 264 Q17 272 21.5 279.5 Q26 287 31 294 Q33 296 33.5 297 Q34 298 36 299 Q38 301 41 301 Q43 301 45 303 Q50 308 55 312.5 Q60 317 65 321 Q76 329 86 329 Q98 329 104 318 Q112 307 112 291 L112 287 Z M41 290 Q39 288 37.5 285 Q36 282 34 280 Q14 244 5 211 Q0 194 3 180 Q8 165 23 168 Q31 170 38 174 Q44 177 48.5 181.5 Q53 186 58 191 Q72 208 82.5 228 Q93 248 98 271 Q103 290 97 306 Q92 320 78 316 Q70 312 64 306.5 Q58 301 52 295 L52 293 Q53 289 51 288 Q48 285 46 287 Q44 287 43.5 288 Q43 289 41 290 Z " />
<glyph glyph-name="one" unicode="1" horiz-adv-x="125" d="M75 308 Q71 305 67 302 Q63 299 59 295 Q55 293 52.5 290 Q50 287 46 285 Q43 282 40 285 Q38 286 39 290 Q39 292 40 293 Q49 301 57 308 Q65 315 74 323 Q76 324 77 325 Q78 326 80 327 Q83 330 89 327 Q94 324 92 319 Q90 315 89.5 311 Q89 307 87 303 Q76 275 66 246.5 Q56 218 45 190 L30 148 Q30 146 29.5 145.5 Q29 145 29 144 Q27 137 24 139 Q18 140 20 147 Q21 150 21 153 Q21 156 23 159 Q32 189 42.5 220 Q53 251 65 280 Q67 288 70 294 Q73 300 75 305 Q75 307 76 308 L75 308 Z " />
<glyph glyph-name="two" unicode="2" horiz-adv-x="154" d="M27 193 Q39 195 51.5 197 Q64 199 77 201 Q79 201 81 201.5 Q83 202 85 201 Q91 201 91 196 Q91 192 85 190 L64 187 Q49 184 33.5 181.5 Q18 179 3 176 Q1 176 0.5 175.5 Q0 175 -1 175 Q-9 174 -10 178 Q-12 185 -6 186 Q5 191 14 198.5 Q23 206 31 214 Q51 234 63 257 Q68 266 72.5 274.5 Q77 283 79 292 Q80 297 80.5 300.5 Q81 304 81 306 Q81 312 76 310 Q69 309 59 299 Q54 294 50 289 Q46 284 41 279 Q36 274 37 270 Q37 266 33 266 Q30 265 28 267 Q26 270 27 274 Q29 278 30 281 Q31 284 33 287 Q44 304 60 314 Q66 320 76 322 Q82 324 87 320 Q92 316 93 308 Q94 300 92 293.5 Q90 287 87 280 Q83 269 77.5 258.5 Q72 248 66 238 Q59 228 51.5 218.5 Q44 209 34 199 Q32 198 27 193 Z " />
<glyph glyph-name="three" unicode="3" horiz-adv-x="151" d="M64 254 L76 248 Q88 239 88 221 Q88 206 77 192 Q66 176 53 169 Q40 162 27 165 Q13 170 11 185 Q11 194 15 203 Q17 209 19.5 215 Q22 221 25 226 Q26 227 27 228.5 Q28 230 30 232 Q33 235 37 233 Q41 230 40 226 Q40 221 35 221 L34 220 Q30 212 27 204.5 Q24 197 23 188 Q23 179 32 177 Q39 177 43 179 Q51 184 57 189.5 Q63 195 68 202 Q70 207 72 211 Q74 215 75 220 Q77 237 61 241 Q58 242 54 244 Q47 247 51 257 Q52 259 53 260 Q54 261 55 263 Q60 269 65 274.5 Q70 280 75 286 Q79 291 82.5 296 Q86 301 90 306 Q90 307 90.5 307.5 Q91 308 91 309 L91 310 Q85 308 81 307 Q76 304 71 301 Q66 298 61 295 Q54 290 48 283.5 Q42 277 37 270 Q27 259 26 250 Q25 246 21 246 Q16 248 16 251 Q16 256 18 260 Q20 265 23 269.5 Q26 274 29 279 Q35 287 43 294 Q51 301 59 307 Q70 316 82 320 Q84 321 92 321 Q99 321 102.5 316 Q106 311 102 303 Q100 299 97.5 295 Q95 291 92 287 Q86 279 79.5 272 Q73 265 67 257 L64 254 Z " />
<glyph glyph-name="four" unicode="4" horiz-adv-x="162" d="M87 262 Q84 260 81 257 Q78 254 74 252 Q61 242 47 243 Q31 245 29 261 Q29 275 35 288 Q40 302 50 317 Q50 319 52 321 Q55 324 60 322 Q64 318 61 314 Q60 312 59 310 Q58 308 57 306 Q48 292 43 272 Q42 270 42 262 Q42 255 49 256 Q59 256 70 264 Q82 274 91 285.5 Q100 297 108 309 Q110 311 110.5 312 Q111 313 113 315 Q116 321 121 319 Q126 314 125 311 Q125 311 123 305 Q118 294 113.5 284 Q109 274 104 263 Q98 249 93 235.5 Q88 222 83 208 Q79 200 76.5 191 Q74 182 71 173 Q71 173 69 168 Q69 161 63 162 Q57 162 57 169 Q57 171 59 179 Q64 193 68 205.5 Q72 218 77 231 Q79 239 81.5 246 Q84 253 87 261 L87 262 Z " />
<glyph glyph-name="five" unicode="5" horiz-adv-x="139" d="M35 249 Q39 251 42.5 253 Q46 255 50 257 Q60 259 60 259 Q68 259 72.5 254 Q77 249 79 242 Q81 234 79 227 Q77 220 74 213 Q70 205 65 197 Q60 189 52 182 Q46 176 38 173 Q30 170 21 172 Q11 175 3 183 Q0 186 1 190 Q5 194 9 193 Q14 193 15 189 Q15 188 17 186 Q29 180 41 189 Q47 194 51 200 Q55 206 59 213 Q61 218 63.5 222.5 Q66 227 66 232 L66 237 Q65 249 57 246 L45 240 Q38 236 29 232 Q23 230 20 233 Q15 236 18 243 Q23 254 28 264 Q33 274 38 285 Q40 289 41.5 292 Q43 295 45 297 L45 300 Q44 304 49 307 L58 310 Q69 313 78.5 316 Q88 319 99 322 Q104 322 105 323 Q110 323 111 319 Q112 313 107 312 Q104 311 100.5 310.5 Q97 310 94 309 Q86 307 77.5 304.5 Q69 302 61 299 Q58 299 58 297 Q46 275 36 253 Q35 252 35 249 Z " />
<glyph glyph-name="six" unicode="6" horiz-adv-x="120" d="M26 246 Q31 251 34.5 255 Q38 259 43 264 Q47 268 53 271 Q62 277 68 272 Q76 266 74 257 Q73 250 71 244 Q69 238 67 231 Q62 222 57.5 214.5 Q53 207 46 199 Q36 187 24 182 Q8 178 2 192 Q-1 203 3 215 Q7 237 17 255 Q24 271 32 285.5 Q40 300 49 314 Q51 317 54 320 Q57 323 59 326 Q61 329 65 329 Q68 328 68 324 Q68 320 67 319 Q65 316 63 312.5 Q61 309 59 306 Q51 294 43 281 Q35 268 30 254 Q27 251 26 246 Z M61 261 Q61 262 60 262 Q58 260 56.5 259 Q55 258 53 256 Q43 247 34 237 Q30 232 26.5 226.5 Q23 221 18 216 Q17 214 19 212 Q24 206 17 204 Q16 204 15.5 203.5 Q15 203 14 203 L14 197 Q16 194 18 194 Q21 194 22 195 Q26 197 29 200 Q32 203 34 205 Q43 214 48.5 224.5 Q54 235 59 247 Q60 250 61 253.5 Q62 257 61 261 Z " />
<glyph glyph-name="seven" unicode="7" horiz-adv-x="126" d="M83 313 Q79 312 76 311.5 Q73 311 69 310 Q61 308 52.5 306 Q44 304 36 302 Q32 301 29 300.5 Q26 300 22 299 L19 299 Q15 300 13 304 Q13 309 17 310 Q19 311 21.5 311 Q24 311 27 312 Q32 314 36 314.5 Q40 315 45 317 Q54 319 62.5 321.5 Q71 324 79 326 Q84 328 88 326 Q100 322 96 310 Q93 305 90.5 299.5 Q88 294 85 289 Q80 281 75.5 274 Q71 267 66 259 Q65 257 64.5 256.5 Q64 256 63 254 Q65 254 67.5 254.5 Q70 255 72 255 Q75 256 85 256 L88 256 Q92 255 92 251 Q92 247 87 247 Q84 246 80.5 246 Q77 246 74 245 Q69 244 65 243.5 Q61 243 57 242 Q55 242 55 240 L34 204 Q31 198 28.5 192.5 Q26 187 23 181 Q22 180 22 177 Q22 173 19 170 Q13 168 12 171 Q9 174 9 178 Q11 183 13 187 Q15 191 17 196 Q22 205 26 214 Q30 223 35 231 Q36 233 37 234.5 Q38 236 39 238 Q36 238 34 237.5 Q32 237 30 236 Q27 236 24.5 235.5 Q22 235 19 235 Q14 233 14 238 Q13 243 17 244 Q20 245 23.5 246 Q27 247 30 248 Q34 249 37 249 Q40 249 44 250 L46 252 Q51 261 57 270 Q63 279 68 288 Q71 293 74 298.5 Q77 304 81 309 L82 310 Q82 311 83 313 Z " />
<glyph glyph-name="eight" unicode="8" horiz-adv-x="126" d="M36 251 L36 252 Q26 266 33 279 Q41 296 54 308 Q59 313 64.5 318 Q70 323 77 326 Q82 329 86 329 Q96 329 97 319 Q98 313 94 303 Q89 292 85 281 Q81 270 76 259 Q74 252 71 245.5 Q68 239 66 232 L66 230 Q67 214 58 200 Q48 184 28 178 Q18 174 10 179 Q0 185 3 197 Q5 205 7.5 210.5 Q10 216 14 223 Q23 237 35 250 L36 251 Z M43 243 Q43 242 42 241 Q26 223 19 208 Q17 204 15.5 201 Q14 198 14 193 Q14 188 18 188 Q20 188 28 190 Q42 195 50 212 Q60 231 43 243 Z M84 316 Q82 315 81 315 Q80 314 80 314 Q72 309 65.5 302.5 Q59 296 53 289 Q45 280 43 270 Q41 265 45 261 Q48 257 51 254 Q54 251 58 246 Q65 263 71.5 280.5 Q78 298 84 315 L84 316 Z " />
<glyph glyph-name="nine" unicode="9" horiz-adv-x="120" d="M58 263 Q54 261 51 258.5 Q48 256 45 254 Q38 250 33 251 Q21 251 20 264 Q19 272 24 286 Q28 302 42 314 Q50 322 62 324 Q74 324 79 313 L79 312 Q79 311 80 310 Q82 314 83.5 316.5 Q85 319 86 321 Q87 322 87 323 Q87 324 88 325 Q92 329 96 326 Q101 324 99 319 Q98 317 97 314 Q96 311 94 307 Q90 300 86.5 293.5 Q83 287 80 279 Q77 273 74 266.5 Q71 260 68 254 Q65 246 62 238.5 Q59 231 56 223 Q53 214 49.5 205.5 Q46 197 43 189 Q41 182 38.5 175 Q36 168 34 160 Q33 156 28 156 Q23 156 23 162 L23 168 Q26 177 29 185.5 Q32 194 35 203 Q38 211 40.5 218 Q43 225 46 233 Q48 239 51 245.5 Q54 252 56 258 Q57 259 58 263 Z M69 302 Q69 304 69.5 304.5 Q70 305 69 307 Q69 314 63 312 Q57 312 52 307 Q38 296 33 276 Q32 273 32 265 Q32 262 36 263 L42 266 Q49 271 54.5 277.5 Q60 284 65 290 Q70 299 69 302 Z " />
<glyph glyph-name="colon" unicode="&#x3a;" horiz-adv-x="94" d="M43 277 Q47 277 47 272 Q44 266 38 266 Q34 266 34 271 Q39 277 43 277 Z M25 231 Q30 231 30 225 Q27 220 22 220 Q16 220 19 225 Q19 231 25 231 Z " />
<glyph glyph-name="semicolon" unicode="&#x3b;" horiz-adv-x="100" d="M35 232 Q37 230 38 227 Q38 226 37 225.5 Q36 225 36 224 Q33 218 29 212 Q25 206 21 199 Q20 198 19.5 197 Q19 196 17 194 Q13 190 10 192 Q8 193 9 199 Q14 206 18.5 213 Q23 220 27 227 Q27 229 29 231 Q34 233 35 232 Z M46 276 Q51 276 49 270 Q49 265 44 265 Q39 265 40 271 Q40 276 46 276 Z " />
<glyph glyph-name="less" unicode="&#x3c;" horiz-adv-x="168" d="M113 312 Q113 308 110 306 L98 297 Q89 292 80.5 287 Q72 282 64 277 Q56 272 48.5 266.5 Q41 261 33 256 Q27 252 33 247 Q40 242 47 236 Q54 230 61 225 Q68 219 75 213.5 Q82 208 89 202 Q90 201 91.5 200 Q93 199 96 197 Q101 192 97 188 Q94 183 88 187 Q78 195 68.5 201.5 Q59 208 49 216 Q43 221 36.5 225.5 Q30 230 24 235 Q22 237 19.5 240 Q17 243 16 247 Q12 258 22 265 Q30 271 38.5 276.5 Q47 282 55 287 Q62 292 69 295.5 Q76 299 83 304 L104 316 Q107 318 110 316.5 Q113 315 113 312 Z " />
<glyph glyph-name="equal" unicode="&#x3d;" horiz-adv-x="214" d="M156 263 Q156 259 151 257 Q148 256 139 256 Q125 256 110 255.5 Q95 255 80 255 Q69 254 58 254 Q47 254 36 254 Q27 256 30 262 Q30 264 34 265 Q35 266 38 266 Q51 266 63.5 266 Q76 266 89 267 L128 267 Q140 268 150 267 Q155 267 156 263 Z M136 237 Q142 237 144 232 Q144 226 136 226 Q127 225 117.5 224.5 Q108 224 99 224 L96 224 L96 223 Q88 223 79 222.5 Q70 222 62 221 Q57 221 53 220.5 Q49 220 44 220 Q42 220 41.5 220.5 Q41 221 40 221 Q35 223 36 227 Q36 231 41 231 Q48 232 55 232 Q62 232 70 233 Q78 233 85.5 233.5 Q93 234 101 235 Q110 236 118.5 236 Q127 236 136 237 Z " />
<glyph glyph-name="greater" unicode="&#x3e;" horiz-adv-x="156" d="M94 282 Q90 284 86 285 Q82 286 78 288 Q69 292 60 295.5 Q51 299 43 302 Q39 304 36 307 Q34 310 35 314 Q38 317 42 316 Q55 311 67.5 307 Q80 303 93 298 Q100 296 104 293 Q115 288 108 276 Q103 268 97 262 Q91 256 85 249 Q77 241 70 233 Q63 225 55 217 Q47 209 40.5 202 Q34 195 27 187 Q22 182 18 186 Q14 191 18 195 Q21 199 23.5 202 Q26 205 28 207 Q37 218 46.5 228 Q56 238 66 249 Q77 263 89 275 Q91 277 91.5 278.5 Q92 280 94 282 Z " />
<glyph glyph-name="question" unicode="&#x3f;" horiz-adv-x="173" d="M211 531 Q213 528 213 525 Q213 522 214 520 Q213 507 208 496 Q203 485 197 474 Q191 463 184 452 Q176 441 169 429 Q162 417 154 406 Q144 390 134.5 375 Q125 360 115 345 Q107 331 99 318.5 Q91 306 83 292 Q75 278 67 264 Q59 250 51 236 Q43 222 35 207.5 Q27 193 19 179 Q14 171 10 162 Q6 153 1 145 Q-1 141 1 139 Q3 136 0.5 133.5 Q-2 131 -5 131 Q-12 131 -12 138 Q-13 142 -8 151 Q-3 162 2.5 172 Q8 182 13 192 Q19 203 25.5 214.5 Q32 226 38 237 Q44 248 50 258.5 Q56 269 62 280 Q70 294 78 307 Q86 320 94 334 Q105 353 117 371.5 Q129 390 141 409 L174 460 L195 499 Q201 508 201 519 Q203 527 194 527 Q187 527 175 522 Q151 511 132 492 Q106 470 91 450 Q86 442 81 434 Q76 426 72 418 Q68 411 69 403 Q71 400 66 398 Q61 396 60 400 Q57 407 59 413 Q62 424 70 438 Q77 450 85.5 460.5 Q94 471 103 481 Q117 495 131 507 Q145 519 162 529 Q169 533 176.5 536 Q184 539 192 539 Q206 541 211 531 Z M-26 84 Q-20 84 -20 79 Q-20 73 -26 73 Q-32 73 -32 78 Q-32 84 -26 84 Z " />
<glyph glyph-name="at" unicode="&#x40;" horiz-adv-x="227" d="M97 248 L89 240 Q84 235 79 230.5 Q74 226 69 221 Q63 217 57 215 Q45 210 40 222 Q37 229 39 237 Q45 272 73 297 Q80 304 89 305 Q97 307 102.5 302 Q108 297 109 289 Q109 287 108.5 285 Q108 283 108 280 L112 284 L118 293 L120 295 Q123 298 128 296 Q132 293 130 288 Q129 286 128 283 Q127 280 125 276 Q113 254 106 232 Q104 227 103.5 223 Q103 219 102 214 Q101 212 101 212 Q101 202 111 205 Q116 206 119.5 208.5 Q123 211 127 214 Q144 228 155 244 Q166 260 175 279 Q180 290 183.5 300 Q187 310 189 320 Q193 335 190 348 Q184 374 161 382 Q146 387 131 387 Q114 385 100 379.5 Q86 374 72 365 Q61 357 52 348.5 Q43 340 35 330 Q27 319 20.5 309 Q14 299 9 288 Q4 279 1 270 Q-2 261 -5 251 Q-7 241 -9 230.5 Q-11 220 -12 209 Q-14 189 -9 169 Q-7 160 -3 151.5 Q1 143 9 136 Q26 120 51 124 Q72 127 86 138 Q91 143 96.5 147.5 Q102 152 107 157 Q111 161 114.5 165 Q118 169 122 174 Q125 177 129 175 Q134 173 132 170 Q130 167 129 164.5 Q128 162 126 160 Q121 154 116 149 Q111 144 106 139 Q102 135 98 131.5 Q94 128 90 125 L72 116 Q60 110 45 110 Q33 109 15 115 Q1 122 -7 133.5 Q-15 145 -20 159 Q-24 171 -25 183 Q-26 195 -25 208 Q-25 226 -21 241 Q-16 266 -6 288 Q5 313 20 331 Q32 348 47 361 Q68 379 86 387 Q105 396 126 398 Q143 401 155 397 Q184 390 197 364 Q207 343 202 319 Q199 302 192.5 287 Q186 272 178 257 Q161 227 138 206 Q128 196 114 192 Q103 188 95 194.5 Q87 201 88 213 Q91 231 97 248 Z M98 287 Q98 288 97 289 Q97 297 91 294 Q85 292 81 289 Q59 271 51 241 Q50 238 50.5 235 Q51 232 51 229 Q51 226 54 226 Q57 227 60 230 Q68 235 74.5 241.5 Q81 248 88 256 Q89 257 89 258 Q88 259 90 264 Q94 269 95 275 Q96 281 98 287 Z " />
<glyph glyph-name="A" unicode="A" horiz-adv-x="422" d="M259 260 Q243 242 224 219 Q213 207 202.5 195 Q192 183 181 171 L162 152 Q157 147 151.5 142 Q146 137 141 132 Q134 126 127 120 Q120 114 112 108 Q93 92 71 82 Q60 77 49 73 Q38 69 26 68 Q18 68 10.5 69 Q3 70 -4 74 Q-22 85 -26 99 Q-34 120 -34 137 Q-36 161 -31 185 Q-29 202 -25 221 Q-21 240 -14 260 Q-9 280 -1.5 298 Q6 316 14 332 Q19 343 25.5 355 Q32 367 40 379 Q47 390 53.5 400 Q60 410 68 420 Q87 447 108 468 Q123 484 139 498.5 Q155 513 172 527 Q180 534 189 540.5 Q198 547 206 553 Q220 562 234.5 570.5 Q249 579 264 586 Q275 591 285 595 Q295 599 306 603 Q318 608 330 611 Q342 614 354 616 Q381 622 403 621 Q415 620 425.5 617.5 Q436 615 447 609 Q468 597 476 571 Q481 551 473 525 Q466 498 445 470 Q437 457 427.5 446 Q418 435 407 424 Q396 413 385.5 403.5 Q375 394 364 385 Q356 380 349.5 374.5 Q343 369 335 364 Q328 355 322 346 Q316 337 309 327 L300 315 Q295 310 292.5 304 Q290 298 288 292 Q283 280 278 268.5 Q273 257 268 246 Q263 233 259 221 Q255 209 251 196 Q246 181 241.5 165.5 Q237 150 235 134 Q231 110 235 86 Q236 73 245 61 Q257 48 274 54 Q284 57 295.5 64 Q307 71 317.5 79.5 Q328 88 337 96.5 Q346 105 351 110 Q353 112 354 115 Q357 120 362 118 Q367 116 365 111 Q361 102 354 95 Q339 81 324.5 68 Q310 55 289 43 Q282 40 275.5 38 Q269 36 261 36 Q243 37 233 52 Q219 72 218 98 Q218 110 219 122 Q220 134 223 146 Q227 174 237 200 Q241 211 245 222.5 Q249 234 253 245 Q255 249 256 253 Q257 257 259 260 Z M355 395 Q356 396 357 396.5 Q358 397 359 398 Q369 406 378 414.5 Q387 423 396 431 Q407 441 416 452 Q425 463 433 475 Q443 489 450.5 503.5 Q458 518 462 535 Q466 550 463 567 Q457 590 433 601 Q414 610 389 608 Q380 607 371.5 606 Q363 605 355 603 Q337 600 320.5 594.5 Q304 589 287 582 Q267 574 248 563.5 Q229 553 212 542 Q204 536 195.5 530 Q187 524 179 517 Q165 506 153 495 Q141 484 129 472 Q115 458 102.5 444.5 Q90 431 79 415 Q71 405 64 394.5 Q57 384 50 373 Q43 362 37 351 Q31 340 25 328 Q15 309 8 289 Q1 269 -5 249 Q-9 233 -12.5 218 Q-16 203 -18 187 Q-21 165 -21 141 Q-21 125 -15 108 Q-5 80 26 83 Q34 84 41 86 Q48 88 56 91 Q65 94 73 99 Q81 104 89 109 Q104 119 118 131 Q139 149 158 168 Q170 180 181.5 192.5 Q193 205 204 217 Q212 225 219 233.5 Q226 242 233 251 Q241 260 248 269.5 Q255 279 263 289 Q271 297 277 306.5 Q283 316 288 327 L304 359 Q311 371 317 382.5 Q323 394 331 407 Q343 429 361 453 Q368 463 377 471 Q384 474 387 472 Q392 469 390 463 Q390 462 388 456 Q383 444 377 433 Q371 422 365 411 Q362 406 359.5 402.5 Q357 399 355 395 Z " />
<glyph glyph-name="B" unicode="B" horiz-adv-x="456" d="M224 316 Q232 319 239 321.5 Q246 324 254 327 Q266 331 278 334.5 Q290 338 303 343 Q320 349 342 352 Q353 354 364 353.5 Q375 353 386 348 Q401 341 405 327 Q407 320 406.5 314 Q406 308 405 302 Q403 288 398 276 Q393 264 387 252 Q375 223 359 200 Q354 192 348.5 184.5 Q343 177 338 169 Q332 161 325.5 152 Q319 143 313 135 L289 108 Q282 100 275 93 Q268 86 260 78 L236 57 L203 33 Q178 16 157 6 Q145 1 133.5 -4 Q122 -9 109 -11 Q90 -16 73 -10 Q52 -3 43 17 Q39 25 38 34 Q37 43 37 52 Q37 72 41 85 Q44 94 46.5 103 Q49 112 53 120 Q58 131 62.5 142 Q67 153 72 164 Q79 178 86 190.5 Q93 203 101 217 Q109 231 117.5 243.5 Q126 256 134 270 Q142 282 149.5 294 Q157 306 165 318 Q170 326 174 332.5 Q178 339 183 347 Q193 362 202.5 376.5 Q212 391 222 406 Q223 407 224 408.5 Q225 410 227 412 Q232 415 237 412 Q240 408 237 403 Q235 401 233 398.5 Q231 396 228 392 Q223 384 218 376.5 Q213 369 208 361 Q203 353 198 345 Q193 337 188 329 Q183 320 177 311 Q171 302 165 293 Q155 277 145.5 261 Q136 245 126 229 Q119 218 112.5 206 Q106 194 99 182 Q84 157 72 128 Q67 117 63.5 106 Q60 95 56 84 Q53 73 51.5 61.5 Q50 50 52 38 Q54 20 63 11 Q74 0 90 0 Q110 0 128 9 Q148 17 167 27 Q181 35 193.5 43.5 Q206 52 218 61 Q232 72 245 83.5 Q258 95 270 108 Q278 116 284.5 124.5 Q291 133 298 141 Q305 149 311 157 Q317 165 323 173 Q338 194 351 215 Q356 225 362 234.5 Q368 244 373 255 Q378 264 381 273.5 Q384 283 388 292 Q390 299 391.5 305 Q393 311 392 319 Q392 333 375 338 Q356 342 338 338 Q321 335 305 330 Q289 325 272 319 Q258 314 245 309.5 Q232 305 218 300 Q217 299 213 299 Q206 296 202 302 Q197 307 202 313 Q204 315 206 318 Q208 321 210 324 Q220 334 229 344.5 Q238 355 247 366 Q258 377 267.5 389 Q277 401 287 413 Q294 422 300.5 431 Q307 440 313 450 Q321 461 327.5 472.5 Q334 484 340 496 Q342 503 344.5 509 Q347 515 349 522 Q351 528 352 534 Q353 540 354 547 Q355 559 349 573 Q340 588 326 595 Q310 602 292 604 Q268 606 254 603 Q240 601 226.5 597.5 Q213 594 202 590 Q191 586 179 581.5 Q167 577 155 570 Q142 564 130.5 556.5 Q119 549 108 541 Q102 536 96.5 532.5 Q91 529 86 524 Q80 519 74.5 513.5 Q69 508 63 503 Q44 484 33 469 Q27 461 22.5 453 Q18 445 13 436 Q8 426 4 415 Q0 404 -3 393 Q-10 369 -7 346 Q-4 317 19 296 Q31 287 45 284 Q47 284 48 283 Q51 282 51 279 Q51 276 48 274 Q45 273 35 275 Q16 281 2 297 Q-18 320 -21 352 Q-23 370 -18 388 Q-16 400 -12.5 410.5 Q-9 421 -5 431 Q-1 439 3.5 448 Q8 457 14 465 Q19 474 26 483 Q33 492 40 500 Q45 505 50.5 510 Q56 515 61 520 Q67 525 72.5 530 Q78 535 84 540 Q95 548 105 555.5 Q115 563 126 569 Q136 574 145 579 Q154 584 164 589 Q190 600 211 606 Q218 608 224 609.5 Q230 611 236 613 Q247 615 259 616 Q271 617 283 617 Q301 617 314 613 Q324 610 332.5 606 Q341 602 349 594 Q364 580 367 560 Q371 546 366 528 Q364 519 361.5 510.5 Q359 502 355 494 Q352 489 350 483.5 Q348 478 345 473 Q340 466 336.5 459 Q333 452 328 445 Q320 431 310 418.5 Q300 406 290 393 Q283 385 276 376 Q269 367 261 359 Q253 350 245 341 Q237 332 229 323 L223 317 L224 316 Z " />
<glyph glyph-name="C" unicode="C" horiz-adv-x="368" d="M23 5 Q29 6 35 6.5 Q41 7 48 8 Q59 10 71 14 Q83 18 95 25 Q109 32 122.5 40.5 Q136 49 149 60 Q165 72 183 90 Q191 97 197 104 Q203 111 210 119 Q218 127 225 136 Q232 145 239 153 Q244 158 247.5 163.5 Q251 169 255 174 Q264 187 273 200 Q282 213 291 226 Q295 233 300 240 Q305 247 310 255 Q312 258 314 261 Q316 264 318 267 Q321 273 326 270 Q332 265 328 261 Q325 256 321.5 251 Q318 246 315 241 Q306 227 297 213.5 Q288 200 279 186 Q273 178 267 169 Q261 160 255 152 Q250 146 245 139.5 Q240 133 235 127 Q231 122 228 118 Q225 114 221 109 Q213 102 206.5 95 Q200 88 193 80 L177 64 Q157 46 140 34 Q129 26 118 20 Q107 14 96 8 Q68 -4 41 -8 Q15 -13 -6 -7 Q-30 1 -43 24 Q-48 32 -51.5 40 Q-55 48 -58 56 Q-60 65 -61.5 74 Q-63 83 -62 92 Q-62 100 -61.5 107 Q-61 114 -60 122 Q-57 143 -51 164 Q-47 178 -43.5 191 Q-40 204 -36 216 Q-26 246 -12 276 Q-4 293 5 310.5 Q14 328 25 345 L55 396 Q65 412 75.5 427.5 Q86 443 97 457 Q107 468 116 480 Q125 492 135 503 Q152 521 170 538 L203 565 Q214 573 224.5 580.5 Q235 588 247 594 Q265 604 286 610 Q297 614 314 614 Q339 614 351 599 Q372 574 355 545 Q350 537 344 531 Q338 525 331 520 L330 519 Q324 517 323 520 Q322 524 325 527 L336 538 Q348 551 349 560 Q352 573 345 584 Q340 593 333 596.5 Q326 600 316 601 Q306 602 297 599.5 Q288 597 278 594 Q262 588 247.5 580 Q233 572 219 562 Q210 555 201.5 548 Q193 541 185 534 Q172 523 161 511.5 Q150 500 139 488 L112 455 Q104 444 95.5 432.5 Q87 421 79 409 Q70 395 61.5 382 Q53 369 45 355 Q32 336 25 320 Q19 309 13 297.5 Q7 286 2 275 Q-3 264 -7 253.5 Q-11 243 -16 232 Q-19 224 -22 216.5 Q-25 209 -28 201 Q-30 193 -32 185.5 Q-34 178 -36 170 Q-42 151 -45 131 Q-49 115 -49 95 Q-49 61 -33 33 Q-28 26 -22.5 20 Q-17 14 -9 11 Q1 6 14 6 Q16 5 18.5 5.5 Q21 6 23 6 L23 5 Z " />
<glyph glyph-name="D" unicode="D" horiz-adv-x="412" d="M314 600 Q336 600 361 594 Q388 587 404 571 Q413 563 421 549 Q431 530 431 504 Q431 492 429 480.5 Q427 469 424 457 Q421 441 415.5 426 Q410 411 404 397 L380 343 Q376 335 372 327.5 Q368 320 363 312 L339 273 Q331 259 322.5 246.5 Q314 234 306 221 Q300 211 293 201.5 Q286 192 279 182 Q274 175 270 168.5 Q266 162 261 156 L231 120 Q226 115 221.5 109.5 Q217 104 212 99 Q204 90 195.5 81.5 Q187 73 179 65 Q171 58 163 51 Q155 44 147 38 Q142 33 135.5 28.5 Q129 24 122 19 Q101 6 79 2 Q62 -1 46 6 Q32 13 24 31 Q20 40 19 49 Q18 54 18 58 Q18 62 18 67 Q19 81 21.5 95 Q24 109 28 123 Q32 134 35 145 Q38 156 43 167 Q48 178 52.5 189.5 Q57 201 62 212 Q66 220 70 228.5 Q74 237 78 245 Q81 251 84 256.5 Q87 262 90 268 Q94 276 98 283.5 Q102 291 106 299 Q108 303 110.5 307 Q113 311 115 316 Q119 322 122.5 328.5 Q126 335 130 342 Q133 348 136 354 Q139 360 143 366 Q146 371 149 376.5 Q152 382 155 388 Q157 392 160 396 Q163 400 165 404 Q167 406 169.5 409 Q172 412 174 414 Q179 419 184 413 Q189 410 185 404 Q184 403 183 403 Q179 401 178 398 Q171 387 164.5 375.5 Q158 364 152 353 Q147 344 142.5 335 Q138 326 133 317 L109 272 Q102 258 95.5 244.5 Q89 231 82 217 Q76 204 70.5 191 Q65 178 60 165 Q49 138 41 109 Q39 101 37 92.5 Q35 84 34 76 Q29 55 36 37 Q40 27 47 20.5 Q54 14 67 13 Q76 13 84.5 15.5 Q93 18 101 22 Q111 27 120.5 33.5 Q130 40 140 48 L161 66 L193 98 Q203 109 212 118.5 Q221 128 230 139 L248 163 Q254 171 260 178.5 Q266 186 271 194 Q280 208 288.5 220.5 Q297 233 305 247 Q315 261 323.5 275.5 Q332 290 341 304 Q346 311 349 317.5 Q352 324 356 331 Q363 344 369.5 357.5 Q376 371 382 385 Q387 397 391.5 409 Q396 421 401 433 Q406 447 409.5 461.5 Q413 476 415 491 Q416 501 415.5 510.5 Q415 520 413 530 Q408 547 398 559 Q383 574 363 580 Q342 587 316 587 Q307 587 298.5 587 Q290 587 282 585 Q270 584 258.5 582 Q247 580 236 577 Q222 572 207 567 Q192 562 178 557 Q150 545 124 530 Q107 520 92.5 509.5 Q78 499 64 485 Q49 472 37 455 Q20 437 11 418 Q0 395 -4 374 Q-7 352 -6 336 Q-3 312 16 302 Q30 294 45 297 L47 297 Q52 299 53 294 Q54 291 51 288 Q49 287 47 287 Q45 287 43 286 Q27 283 13 290.5 Q-1 298 -9 310 Q-20 327 -20 347 Q-20 357 -18.5 367 Q-17 377 -15 388 Q-12 400 -7 411 Q-2 422 4 433 Q14 450 25.5 464 Q37 478 51 492 Q60 501 70 509 Q80 517 91 525 Q123 548 159 563 Q170 568 181.5 572 Q193 576 204 580 Q215 584 225 587 Q235 590 246 593 Q273 600 314 600 Z " />
<glyph glyph-name="E" unicode="E" horiz-adv-x="367" d="M153 377 Q137 377 121.5 379.5 Q106 382 92 390 Q63 405 54 434 Q50 443 51 452.5 Q52 462 55 471 Q63 493 78 511 Q88 523 99.5 533 Q111 543 123 553 Q134 561 145 568 Q156 575 167 582 Q184 592 202 599 Q220 606 237 611 Q245 613 254 615 Q263 617 272 619 Q289 622 306 622 Q316 621 325 619 Q334 617 342 612 Q348 608 353 602 Q356 596 354 589.5 Q352 583 348 578 Q347 575 342 577 Q338 578 340 582 Q340 586 341 587 Q346 598 334 603 Q316 611 296 609 Q279 607 263 604 Q247 601 231 596 Q218 591 205.5 586 Q193 581 181 574 Q168 567 155.5 559.5 Q143 552 131 542 Q120 534 109 524 Q98 514 89 502 Q82 494 76.5 485.5 Q71 477 68 467 Q58 439 81 416 Q89 408 98.5 403.5 Q108 399 119 396 Q128 394 137 392.5 Q146 391 155 392 Q166 393 177 393.5 Q188 394 199 395 Q205 395 211.5 395.5 Q218 396 224 396 Q233 398 233 388 Q231 382 227 381 Q222 379 216 377 Q210 375 205 373 Q196 370 187 366.5 Q178 363 169 360 Q163 357 156.5 354.5 Q150 352 144 349 Q133 344 122 338 Q111 332 100 326 Q79 315 59 298 Q51 291 44 284 Q37 277 30 270 Q23 262 17 254 Q11 246 5 238 Q2 234 0 230 Q-2 226 -5 222 Q-19 198 -29 171 Q-33 160 -36.5 148 Q-40 136 -42 124 Q-44 115 -44.5 105.5 Q-45 96 -46 87 Q-46 67 -42 54 Q-38 33 -23 15 Q-7 -1 15 -7 Q31 -11 52 -8 Q71 -3 88 4.5 Q105 12 122 22 Q133 29 143 36.5 Q153 44 163 52 Q171 59 178 65.5 Q185 72 192 79 Q200 88 207 97 Q214 106 222 116 Q230 127 238 138.5 Q246 150 254 161 Q262 172 268.5 181.5 Q275 191 282 202 Q290 214 297.5 226 Q305 238 313 250 Q314 251 314 252 Q314 253 316 255 Q317 261 323 259 Q328 254 327 250 Q325 245 322 240 Q316 229 309.5 219.5 Q303 210 296 199 Q289 189 282.5 179 Q276 169 269 158 Q263 149 257 140.5 Q251 132 245 123 Q237 112 229.5 101.5 Q222 91 214 81 Q207 73 200 66 Q193 59 185 51 Q173 39 159 28 Q153 23 147 19.5 Q141 16 135 11 Q126 5 117 0.5 Q108 -4 98 -9 Q90 -13 80 -16.5 Q70 -20 59 -22 Q38 -28 15 -23 Q-6 -19 -24 -5 Q-38 6 -45 19 Q-53 34 -56 46 Q-62 67 -60 95 Q-59 117 -54 138 Q-45 177 -27 211 Q-22 219 -18 226.5 Q-14 234 -9 242 Q-3 251 3.5 259.5 Q10 268 17 276 Q22 282 28 288 Q34 294 40 300 Q57 316 71 324 Q82 332 93.5 338.5 Q105 345 117 351 Q134 360 151 368 Q156 370 161.5 372 Q167 374 172 376 Q173 377 174 377 L153 377 Z " />
<glyph glyph-name="F" unicode="F" horiz-adv-x="479" d="M323 366 Q319 366 318 365 Q302 360 287 355.5 Q272 351 256 346 Q237 339 220.5 332.5 Q204 326 188 319 Q174 312 161 305 Q148 298 136 288 Q120 276 112 261 Q108 251 115 237 Q116 236 117 235.5 Q118 235 119 234 Q124 232 124 229 Q122 224 118 224 Q109 224 105 231 Q99 240 97 251 Q97 263 103 272 Q113 287 129 299 Q137 306 145.5 311 Q154 316 163 321 Q174 326 184.5 331.5 Q195 337 206 342 Q219 347 230 351 Q241 355 252 359 Q267 364 281.5 368 Q296 372 311 377 Q321 378 329 382 Q331 382 332 385 Q336 393 339 399.5 Q342 406 346 414 Q351 427 357 439 Q363 451 368 463 Q373 474 377 483.5 Q381 493 386 504 Q391 515 396.5 526.5 Q402 538 407 550 Q412 563 418 576 Q424 589 430 603 Q431 605 431 606 Q431 607 433 609 Q428 608 425 608 Q422 608 419 607 Q401 602 383 598 Q365 594 348 589 Q332 585 317 580.5 Q302 576 286 571 Q272 566 258 561.5 Q244 557 230 552 Q219 548 208 544 Q197 540 186 536 Q172 530 159 524 Q146 518 133 512 Q99 498 72 476 Q42 455 25 433 Q18 425 12 411 Q5 393 15 378 Q25 363 42 361 Q47 360 52 360 Q57 360 62 359 Q65 359 66.5 356.5 Q68 354 66 351 Q64 349 62 349 Q56 349 50 349 Q44 349 39 350 Q22 352 11 363.5 Q0 375 -3 389 Q-5 406 1 417 Q12 440 26 454 Q39 469 54 480.5 Q69 492 86 502 Q94 507 102 511.5 Q110 516 118 520 Q128 525 137.5 529.5 Q147 534 157 539 L187 551 Q204 558 221.5 564 Q239 570 257 576 Q273 581 288.5 586 Q304 591 320 596 L392 614 Q403 616 414.5 619 Q426 622 437 624 Q438 624 440 626 Q444 637 447.5 647.5 Q451 658 455 669 Q456 671 456 671 Q459 675 463 674 Q468 673 466 668 L463 656 Q461 650 458.5 643.5 Q456 637 454 631 L453 630 Q453 629 452 627 Q462 629 462 629 Q480 633 497.5 636.5 Q515 640 532 644 Q544 646 555.5 648 Q567 650 579 652 Q582 653 595 653 Q598 653 602 649 Q605 647 603 642 Q600 638 595 640 Q593 642 590 641.5 Q587 641 585 641 Q573 639 561.5 636.5 Q550 634 538 632 Q530 630 522 628.5 Q514 627 506 625 Q492 622 477 619 Q462 616 448 613 Q446 613 446 611 Q441 600 436.5 589 Q432 578 427 567 Q420 552 414 537 Q408 522 401 507 Q396 496 391 485 Q386 474 381 463 Q373 444 364.5 426 Q356 408 348 390 Q348 389 347.5 388.5 Q347 388 347 387 Q353 389 357 390 Q377 395 395.5 400.5 Q414 406 433 411 Q444 413 453.5 416.5 Q463 420 474 422 Q477 423 481.5 424 Q486 425 488 421 Q489 413 482 411 Q475 409 469 407 Q449 402 428.5 396 Q408 390 388 385 Q376 382 364.5 378.5 Q353 375 342 372 L339 369 Q335 361 331.5 353.5 Q328 346 324 338 Q319 327 313 315 Q307 303 301 291 Q291 272 281 251 Q274 239 267 226.5 Q260 214 253 201 L229 162 Q221 150 214 138 Q207 126 199 115 Q191 104 183.5 93 Q176 82 168 71 Q159 60 150.5 48.5 Q142 37 132 26 Q124 17 115.5 8.5 Q107 0 99 -8 Q91 -16 82.5 -22.5 Q74 -29 63 -34 Q54 -40 44 -40 Q35 -41 29.5 -35.5 Q24 -30 22 -22 Q21 -15 22.5 -8 Q24 -1 26 7 Q33 29 45 51 L60 75 L63 78 Q67 82 71 79 Q74 77 72 72 L60 54 Q55 45 50 36 Q45 27 42 18 Q40 12 38.5 6 Q37 0 35 -6 Q34 -9 34 -19 Q34 -31 47 -28 Q55 -26 69 -17 Q98 3 120 31 Q126 39 132.5 46 Q139 53 145 61 Q150 68 155 74.5 Q160 81 165 88 Q173 100 181 111.5 Q189 123 197 135 Q204 146 211 158 Q218 170 226 181 Q230 187 233 193 Q236 199 240 205 Q245 215 251 224.5 Q257 234 262 244 Q268 255 274 266.5 Q280 278 286 290 Q296 309 306 330 Q311 338 314.5 347 Q318 356 322 364 Q323 365 323 366 Z " />
<glyph glyph-name="G" unicode="G" horiz-adv-x="333" d="M351 139 Q352 137 352 133 Q352 126 346 123 L346 122 Q338 119 335 123 Q332 127 334.5 129.5 Q337 132 339 134 Q337 136 335 136 Q330 135 325 135 Q320 135 315 134 Q308 133 302 132 Q296 131 288 130 Q280 128 273 126 Q266 124 258 122 Q250 120 242 118 Q234 116 226 114 Q221 112 216 111 Q211 110 206 109 Q197 106 188 103 Q179 100 170 98 Q168 96 167 96 Q159 82 151 69.5 Q143 57 134 44 Q126 32 118 19.5 Q110 7 101 -5 Q93 -16 83.5 -26.5 Q74 -37 63 -47 Q43 -65 30 -73 Q9 -89 -18 -95 Q-39 -100 -54 -95 Q-78 -88 -80 -59 Q-80 -48 -76.5 -39.5 Q-73 -31 -68 -22 Q-63 -14 -57.5 -8 Q-52 -2 -45 4 Q-39 12 -24 23 Q-17 28 -11 32 Q-5 36 2 41 Q10 46 18 50 Q26 54 34 59 Q42 64 50 67.5 Q58 71 66 76 L93 88 Q103 92 113 95.5 Q123 99 133 103 Q140 105 146 107 Q152 109 159 111 L162 114 Q168 124 174.5 133.5 Q181 143 187 153 Q198 168 208 183 Q218 198 228 214 Q234 224 240.5 233.5 Q247 243 254 253 L254 255 Q252 254 247 249 Q238 240 229 231 Q220 222 210 213 Q188 192 158 175 Q149 170 140.5 166.5 Q132 163 123 158 Q101 150 84 147 Q79 146 73.5 145.5 Q68 145 62 146 Q57 146 52 146 Q47 146 42 148 Q18 154 4 171 Q-4 178 -7.5 187 Q-11 196 -13 207 Q-16 228 -13 248 Q-11 256 -9.5 264.5 Q-8 273 -6 281 Q-2 296 3.5 309.5 Q9 323 16 337 Q19 345 23.5 353 Q28 361 32 369 Q40 383 49.5 397 Q59 411 70 423 Q78 433 86.5 442 Q95 451 103 460 Q110 466 112 474 Q115 484 119 493 Q123 502 127 510 Q132 519 136.5 527.5 Q141 536 146 544 Q152 554 158.5 563.5 Q165 573 171 583 Q177 592 184 600.5 Q191 609 199 616 Q199 617 200 617 Q204 621 207 618 Q211 614 208 610 Q207 608 206.5 607.5 Q206 607 205 605 Q205 601 201 601 Q200 601 199.5 600.5 Q199 600 198 600 Q192 591 186 582.5 Q180 574 174 566 Q167 557 162 547.5 Q157 538 152 530 Q145 519 139.5 508 Q134 497 129 484 L129 482 Q133 486 137 489 Q141 492 145 496 Q152 501 158.5 505 Q165 509 170 513 Q176 517 182.5 521 Q189 525 196 529 Q209 536 220.5 541.5 Q232 547 246 552 Q254 554 262 556 Q270 558 280 559 Q303 561 315 551 Q330 541 338 521 Q342 500 336 473 Q332 462 326.5 450 Q321 438 313 427 Q300 405 278 388 Q272 383 266 378 Q260 373 254 368 Q235 357 219 351 Q211 349 204.5 347 Q198 345 190 344 Q170 342 158 345 Q145 347 134.5 353 Q124 359 117 372 Q107 391 105 412 Q104 419 104.5 425.5 Q105 432 105 438 L105 442 Q103 440 102 440 Q95 432 89 425 Q83 418 77 410 Q69 399 61.5 388.5 Q54 378 47 367 Q32 342 20 313 Q17 305 13.5 296.5 Q10 288 8 280 Q5 269 2.5 257.5 Q0 246 -1 234 Q-1 227 -1 220 Q-1 213 1 206 Q5 190 17 178 Q34 162 59 161 Q75 161 97 166 Q108 169 118 172.5 Q128 176 138 181 Q149 187 159.5 193.5 Q170 200 180 207 Q194 218 206.5 229 Q219 240 232 252 Q241 260 249.5 269 Q258 278 267 287 Q270 291 273.5 294.5 Q277 298 280 301 Q282 302 283 302 Q284 303 284 303 Q288 305 291.5 302 Q295 299 293 294 Q291 291 290 287.5 Q289 284 287 281 Q279 267 270 253 Q261 239 253 225 Q243 211 234 197.5 Q225 184 215 171 Q207 160 200 148 Q193 136 185 125 Q184 123 184 121.5 Q184 120 182 118 Q188 120 190 120 Q197 122 203.5 124 Q210 126 217 128 Q225 130 233.5 132 Q242 134 250 136 Q258 138 266 140 Q274 142 282 144 Q288 145 294 146 Q300 147 308 148 Q313 149 318.5 149.5 Q324 150 329 150 L339 150 Q348 149 351 140 L351 139 Z M121 455 Q119 446 117.5 436.5 Q116 427 118 418 Q119 402 124 387 Q131 371 147 363 Q154 360 161 359 Q168 358 176 357 Q180 358 183 358 Q186 358 190 359 Q195 360 200.5 361 Q206 362 211 364 Q227 369 247 381 Q262 392 277 405 Q294 422 307 441 Q310 447 313.5 452.5 Q317 458 319 465 Q326 480 327 498 Q329 515 320 528 Q313 540 298 544 Q284 548 266 543 Q245 539 222 528 Q215 524 208 520.5 Q201 517 194 512 Q185 506 175.5 500.5 Q166 495 158 488 Q139 475 122 458 Q121 458 121 457 L121 455 Z M130 62 Q135 69 139 75.5 Q143 82 147 90 L144 90 Q135 86 126.5 83 Q118 80 109 76 Q98 72 88 68.5 Q78 65 69 60 Q61 56 53.5 52.5 Q46 49 38 44 Q29 39 19.5 34 Q10 29 1 23 Q-7 18 -14.5 12 Q-22 6 -30 0 Q-45 -11 -55 -27 Q-65 -37 -68 -54 Q-69 -75 -52 -82 Q-46 -85 -39.5 -85 Q-33 -85 -26 -84 Q-16 -82 -7 -78.5 Q2 -75 10 -70 Q39 -54 60 -32 Q67 -25 73 -18 Q79 -11 85 -4 Q90 2 95 9 Q100 16 105 23 Q111 33 117.5 42.5 Q124 52 130 62 Z " />
<glyph glyph-name="H" unicode="H" horiz-adv-x="427" d="M463 566 Q467 561 464 556 L463 555 Q460 554 459.5 552 Q459 550 457 548 Q452 538 446.5 528 Q441 518 436 508 Q430 497 424 485.5 Q418 474 413 463 Q407 452 401.5 440.5 Q396 429 390 417 Q387 410 383.5 403.5 Q380 397 377 389 Q372 377 367 365.5 Q362 354 357 342 Q353 334 350 326.5 Q347 319 344 311 Q343 310 343 308 L363 308 Q372 307 381 306 Q390 305 399 302 Q406 300 412 294 Q416 289 414 282 Q412 275 406 273 Q400 271 399 275 Q396 280 401 283 Q407 285 401 287 Q399 289 397 289.5 Q395 290 393 291 Q387 292 381.5 293 Q376 294 371 294 Q363 295 355.5 295 Q348 295 340 295 Q338 295 336 292 Q331 278 325 263.5 Q319 249 314 235 Q308 218 302 201 Q296 184 290 167 Q285 153 280 138.5 Q275 124 270 110 Q265 95 260 80 Q255 65 250 50 Q247 41 244 31.5 Q241 22 239 13 L239 11 L239 10 Q243 6 240 1 Q235 -5 230 0 Q225 3 226 10 Q228 16 228.5 21.5 Q229 27 231 33 Q234 44 237.5 54 Q241 64 244 74 L256 110 Q259 118 261.5 125.5 Q264 133 267 141 Q271 154 275 166.5 Q279 179 284 191 Q289 206 294.5 221 Q300 236 305 250 L317 283 Q318 286 319 288.5 Q320 291 321 293 L307 293 Q301 292 295.5 292 Q290 292 285 291 Q272 289 259.5 287.5 Q247 286 234 284 Q221 282 209 279.5 Q197 277 185 274 Q182 273 179 272 Q176 271 173 271 Q170 270 168.5 267.5 Q167 265 165 263 Q158 251 151 239 Q144 227 136 215 Q130 205 123.5 195.5 Q117 186 110 176 Q92 149 71 125 Q63 117 56 109.5 Q49 102 41 94 Q31 86 21 78 Q11 70 0 63 Q-16 56 -30 52 Q-47 50 -58 61 Q-59 62 -60 63 Q-61 64 -62 66 Q-66 71 -66 78 Q-66 85 -65 92 L-62 107 Q-61 110 -60 113 Q-59 116 -58 118 Q-57 120 -57 121 Q-56 122 -56 122 Q-55 124 -54.5 125.5 Q-54 127 -53 129 Q-40 153 -25 170 Q-18 181 -8 190 Q9 207 28 220 Q42 231 58.5 240 Q75 249 92 257 Q100 260 107 263.5 Q114 267 122 269 Q131 273 140.5 276 Q150 279 159 283 Q162 283 162 285 Q172 303 181.5 321 Q191 339 200 357 Q208 373 215.5 389.5 Q223 406 230 425 Q233 433 236 440 Q239 447 241 455 Q247 471 250 492 Q254 513 253 535 Q251 559 241 573 Q231 589 210 592 Q200 593 191 591 Q182 589 173 586 Q162 582 151.5 576.5 Q141 571 131 565 Q117 557 106 547.5 Q95 538 84 527 Q69 512 57 494 Q49 483 43 472 Q37 461 32 450 Q28 439 25.5 429 Q23 419 23 408 Q23 397 28 389 Q35 376 51 381 Q56 384 61 384 Q64 384 66 382 Q66 378 65 377 L63 375 Q59 374 56.5 373 Q54 372 52 371 Q43 367 34.5 370.5 Q26 374 21 380 Q11 393 12 412 Q13 444 30 473 Q41 494 54 512 Q64 524 74 534.5 Q84 545 96 555 Q111 569 129 579 Q136 583 143.5 587 Q151 591 160 595 Q175 601 190 604 Q221 608 242 592 Q254 583 262 561 Q266 549 267 536.5 Q268 524 267 512 Q265 489 260 471 Q258 462 255 453 Q252 444 249 436 Q247 428 243.5 419.5 Q240 411 236 403 Q231 392 226 380.5 Q221 369 216 358 Q211 347 205.5 337 Q200 327 195 317 Q192 310 188.5 304 Q185 298 181 291 L180 290 L180 288 Q186 290 187 290 Q198 292 209 294.5 Q220 297 231 299 Q240 301 248.5 301.5 Q257 302 266 303 L302 306 Q308 307 313.5 307 Q319 307 324 308 Q325 308 327 310 L342 346 Q347 357 352 368.5 Q357 380 362 392 Q364 397 367 403 Q370 409 372 415 Q376 422 379.5 429 Q383 436 387 444 L399 468 L414 495 Q419 504 423.5 513 Q428 522 433 531 Q438 539 442 546 Q446 553 450 561 Q451 562 452 563.5 Q453 565 455 567 Q459 571 463 566 Z M121 216 Q129 227 135.5 239 Q142 251 150 263 Q148 263 148 262 Q142 260 135.5 258 Q129 256 123 253 Q112 248 101 244 Q90 240 80 234 Q69 229 59.5 223 Q50 217 41 211 Q24 201 7 184 Q-1 176 -8 168.5 Q-15 161 -22 153 Q-28 144 -33.5 135.5 Q-39 127 -44 117 Q-48 109 -50.5 100 Q-53 91 -53 82 Q-53 67 -39 65 Q-35 64 -31 64.5 Q-27 65 -23 66 Q-13 69 -5 74 Q3 79 11 85 Q28 99 43 114 Q66 135 84 161 Q93 174 102 187.5 Q111 201 121 216 Z " />
<glyph glyph-name="I" unicode="I" horiz-adv-x="193" d="M222 670 Q224 666 221 663 Q217 660 214 656.5 Q211 653 207 650 Q203 646 199 642.5 Q195 639 191 634 Q186 628 180.5 621.5 Q175 615 170 608 Q164 598 163 590 Q163 585 158 585 Q154 585 154 592 Q154 602 158 609 Q167 625 177 635 Q182 641 188 647 Q194 653 199 659 Q202 662 205.5 665 Q209 668 213 671 Q214 672 214.5 672 Q215 672 216 673 Q218 675 222 670 Z M230 522 L230 521 L230 517 Q228 506 224.5 496.5 Q221 487 218 477 Q214 468 210.5 459 Q207 450 204 442 Q200 432 196 422.5 Q192 413 188 404 Q184 394 180.5 384 Q177 374 173 364 Q170 355 166.5 345.5 Q163 336 160 327 Q154 311 149 295.5 Q144 280 138 265 Q133 251 129 238.5 Q125 226 120 212 Q116 201 112.5 190 Q109 179 105 168 Q99 151 93 135.5 Q87 120 81 103 Q78 95 74.5 87.5 Q71 80 68 72 L56 48 Q54 44 52 40 Q50 36 48 32 Q45 26 39 20 L39 19 Q31 9 25.5 10.5 Q20 12 18 14 L16 16 Q12 22 11.5 28 Q11 34 10 40 Q10 61 14 76 Q16 83 19.5 89 Q23 95 27 100 L30 103 Q32 106 37 109.5 Q42 113 44 109 Q47 105 43 101 L31 86 Q26 78 24.5 70 Q23 62 22 53 Q20 38 23 29 L23 28 Q25 23 29 29 Q31 31 31.5 32 Q32 33 33 34 L51 70 Q56 79 59.5 88 Q63 97 67 107 Q72 118 76 129 Q80 140 84 151 Q88 162 91.5 173 Q95 184 99 195 Q103 204 106 213.5 Q109 223 112 233 Q116 245 120 257 Q124 269 128 281 Q132 292 135.5 303 Q139 314 143 325 Q148 339 153 352.5 Q158 366 163 380 Q167 391 170.5 401 Q174 411 178 421 Q185 438 191.5 453.5 Q198 469 204 485 Q207 493 209.5 500.5 Q212 508 215 516 L215 517 Q215 518 214.5 518 Q214 518 214 517 L212 517 Q201 512 189.5 507.5 Q178 503 167 498 Q155 493 143.5 487.5 Q132 482 121 477 Q108 470 96.5 463 Q85 456 74 448 Q66 443 59 437.5 Q52 432 45 425 Q29 410 17 391 Q7 376 6 355 Q6 333 21 321 Q41 304 63 304 L71 304 Q75 304 77 299 Q79 295 74 293 Q66 287 53 291 Q35 294 18 306 Q-2 321 -6 349 Q-8 364 -3 376 Q0 386 4.5 394.5 Q9 403 14 411 Q32 437 56 453 Q64 459 72.5 465 Q81 471 89 476 Q106 487 122 494 Q133 500 144 504.5 Q155 509 166 514 Q173 518 180.5 521 Q188 524 196 527 L197 528 Q198 528 198.5 528.5 Q199 529 200 529 Q205 531 213.5 533.5 Q222 536 226 532 Q227 532 227 531.5 Q227 531 228 531 L228 530 L229 529 Q229 528 230 526 L230 523 L230 522 Z " />
<glyph glyph-name="J" unicode="J" horiz-adv-x="292" d="M293 388 Q299 386 302 380.5 Q305 375 302 370 Q299 367 294 368 Q291 371 291 377 Q288 376 285.5 376 Q283 376 281 375 Q272 371 263.5 367.5 Q255 364 247 360 L244 357 Q241 345 237.5 333 Q234 321 230 309 Q226 296 222 283.5 Q218 271 213 258 Q207 241 201 225.5 Q195 210 188 194 L167 146 Q161 135 155.5 123.5 Q150 112 144 101 Q140 93 136 85 Q132 77 127 69 Q120 57 113.5 45 Q107 33 99 22 Q89 7 80 -6.5 Q71 -20 62 -33 Q55 -42 47.5 -51 Q40 -60 30 -69 Q14 -84 -7 -92 Q-25 -98 -40 -97 Q-56 -96 -74 -84 Q-85 -77 -91.5 -67 Q-98 -57 -103 -46 Q-111 -28 -113 -10.5 Q-115 7 -113 24 Q-110 57 -100 81 Q-92 103 -82 119 Q-78 125 -74.5 131.5 Q-71 138 -66 144 Q-59 154 -52 163 Q-45 172 -37 180 Q-29 189 -20 198.5 Q-11 208 -1 216 Q7 224 15.5 231 Q24 238 33 245 Q41 251 49.5 257.5 Q58 264 67 270 Q78 278 89.5 284.5 Q101 291 113 299 Q127 307 141 316 Q155 325 169 333 Q181 340 193.5 346.5 Q206 353 219 361 Q221 362 223 363 Q225 364 228 366 Q232 368 233 372 Q235 383 238.5 394.5 Q242 406 244 417 Q247 432 249.5 447 Q252 462 255 477 Q258 495 258 515 Q258 520 257.5 524 Q257 528 256 533 Q252 546 240 546 Q234 546 228 544 Q222 542 217 540 Q205 535 194.5 527 Q184 519 174 510 Q169 504 163.5 498 Q158 492 153 485 Q146 476 141.5 467 Q137 458 133 449 Q129 441 127.5 433.5 Q126 426 125 419 Q124 413 123.5 407.5 Q123 402 125 395 Q126 392 127 390 Q128 388 129 386 Q132 382 136 382 Q138 382 138.5 382.5 Q139 383 140 383 Q143 383 146 379 Q147 378 145 373 Q139 368 130.5 371.5 Q122 375 117 384 Q113 392 112 399.5 Q111 407 111 415 Q113 429 116 441.5 Q119 454 125 465 Q130 477 136 485 Q141 493 146 499 Q151 505 156 512 Q166 525 188 540 Q196 546 205 551 Q214 556 225 558 Q237 563 248 558 Q262 553 267 538 Q272 527 272.5 517 Q273 507 272 497 Q271 488 270 479 Q269 470 267 462 Q263 436 257 408 Q255 400 253.5 392.5 Q252 385 250 377 Q254 379 257 380 Q260 381 263 382 Q272 387 281 388 Q287 390 293 388 Z M222 332 Q223 336 224 340 Q225 344 226 348 L225 349 Q217 344 210 340 Q203 336 196 332 Q186 326 176 320 Q166 314 156 308 Q146 302 136.5 296 Q127 290 119 285 Q108 278 97.5 271.5 Q87 265 76 257 Q56 245 42 232 Q32 224 23 216 Q14 208 5 200 Q0 195 -5.5 190 Q-11 185 -16 180 Q-21 175 -25.5 169.5 Q-30 164 -35 158 Q-43 149 -49.5 139.5 Q-56 130 -63 120 Q-68 114 -71 108 Q-74 102 -77 96 Q-89 72 -95 45 Q-101 18 -100 -6 Q-98 -17 -96 -27 Q-94 -37 -89 -48 Q-81 -65 -72 -72 Q-58 -82 -41 -83 Q-24 -84 -6 -76 Q2 -72 9 -66.5 Q16 -61 22 -56 Q39 -41 52 -23 Q59 -13 66 -3 Q73 7 80 17 Q85 25 89.5 33 Q94 41 99 49 L120 85 L138 121 Q143 131 147 139.5 Q151 148 155 156 Q159 164 162.5 171 Q166 178 169 186 Q174 197 178 206.5 Q182 216 186 226 Q189 234 192 241 Q195 248 197 256 L212 301 Q215 309 217 316.5 Q219 324 222 332 Z M193 593 Q190 596 188 599 Q189 602 189 605.5 Q189 609 190 612 Q192 618 194.5 624 Q197 630 200 636 Q203 642 206 648 Q209 654 213 660 Q214 664 219 670 Q219 672 221 672 Q225 676 229 671 Q232 668 230 663 Q225 654 219.5 644.5 Q214 635 209 626 Q206 620 204 614.5 Q202 609 200 603 Q199 601 199 599 Q199 597 198 595 Q198 591 193 593 Z " />
<glyph glyph-name="K" unicode="K" horiz-adv-x="377" d="M460 30 Q463 22 457 19 Q455 18 454.5 17.5 Q454 17 452 16 Q416 1 382 9 Q348 17 320 35 Q292 53 271.5 74.5 Q251 96 242 108 Q240 110 238 113 Q236 116 234 118 Q226 129 219 140 Q212 151 204 162 Q196 174 188 186 Q180 198 172 211 Q167 217 163 222.5 Q159 228 154 234 Q152 236 151 238 Q150 240 148 242 Q146 244 144 242 L129 230 Q113 219 98 220 Q96 220 96 218 Q93 211 90 204 Q87 197 84 189 Q80 180 76 170.5 Q72 161 68 151 Q63 139 58 127 Q53 115 48 103 Q42 89 36 75 Q30 61 25 47 Q19 33 13 19 Q7 5 1 -9 Q0 -11 -1 -14 Q-2 -17 -4 -21 Q-5 -25 -9 -25 Q-17 -23 -15 -14 Q-14 -11 -13 -9 Q-12 -7 -11 -5 Q-6 6 -2 17 Q2 28 7 39 Q11 49 14.5 58.5 Q18 68 22 77 Q27 90 32.5 103 Q38 116 43 129 L55 159 Q59 169 63 179 Q67 189 71 199 Q74 206 76.5 212.5 Q79 219 82 226 Q80 229 78 231.5 Q76 234 74 237 Q65 258 75 274 Q86 291 105 288 Q108 288 108 291 Q113 305 118.5 318.5 Q124 332 129 346 L150 412 Q155 426 158.5 439.5 Q162 453 166 467 Q171 483 174 499.5 Q177 516 179 533 L179 557 Q179 564 175 571 Q171 576 166 577 Q159 579 153 577 Q147 575 141 573 Q130 568 120.5 561 Q111 554 101 546 Q83 530 67 512 Q60 503 53.5 493.5 Q47 484 41 473 Q36 463 33 452.5 Q30 442 28 431 Q25 410 29 392 Q31 386 34 381.5 Q37 377 40 372 L55 357 Q57 355 59.5 355 Q62 355 64 353 Q67 353 68 352 Q72 351 72 346 Q72 343 69 341 Q61 338 50 346 Q43 352 36.5 359 Q30 366 25 375 Q16 391 15 408 Q14 429 18 447 Q26 476 42 501 Q50 515 59.5 526 Q69 537 79 546 Q87 553 94 559.5 Q101 566 109 571 Q126 585 145 591 Q156 595 169 591 Q181 587 187 573 Q194 558 192 539 Q191 508 183 479 Q179 463 175.5 447.5 Q172 432 167 417 L155 378 L137 324 Q133 313 129.5 303.5 Q126 294 122 283 L122 282 Q136 276 143 266 Q146 263 147 266 Q155 275 162 283.5 Q169 292 177 301 Q183 309 188.5 316 Q194 323 199 331 Q204 337 208 343.5 Q212 350 217 356 L235 380 Q240 386 245 392.5 Q250 399 255 406 Q259 411 262.5 416.5 Q266 422 271 427 Q277 435 283 442 Q289 449 295 456 Q301 463 307 469.5 Q313 476 319 482 Q333 497 348 511 Q352 514 355.5 517.5 Q359 521 363 524 Q375 533 391.5 540 Q408 547 422 540 Q427 538 432 532 Q437 526 439 514 Q439 505 438 502 Q438 501 437.5 500.5 Q437 500 437 499 Q436 496 432 497 Q428 498 428 504 L428 512 Q429 516 424 525 L422 527 Q412 535 397.5 528 Q383 521 369 510 Q350 495 334 477 Q329 472 324 466 Q319 460 314 455 Q308 448 302.5 442 Q297 436 291 429 Q285 421 278.5 413 Q272 405 266 397 Q261 389 255.5 382.5 Q250 376 245 369 Q241 364 237.5 358 Q234 352 229 347 Q226 342 223 338 Q220 334 216 329 Q211 323 207 316.5 Q203 310 198 304 Q193 298 188.5 292 Q184 286 179 280 Q175 275 171 270 Q167 265 163 260 Q158 255 156 254 Q157 253 157.5 252 Q158 251 159 250 Q167 242 174 232.5 Q181 223 188 213 Q198 199 207 184 Q216 169 226 155 Q238 137 251 120 Q264 103 278 89 Q293 74 308 62 Q325 49 346 38 Q363 30 385.5 25 Q408 20 432 27 Q433 27 434 27.5 Q435 28 436 28 L442 31 Q444 32 446 32.5 Q448 33 450 34 Q456 37 460 30 Z M87 239 Q91 247 94 255.5 Q97 264 101 272 Q93 274 87 266 Q81 258 82 250 Q84 243 87 239 Z M103 235 Q113 237 120 242.5 Q127 248 135 254 Q126 263 116 268 Q113 260 109.5 251.5 Q106 243 103 235 Z " />
<glyph glyph-name="L" unicode="L" horiz-adv-x="342" d="M645 57 Q651 51 648 45 Q646 41 641.5 40 Q637 39 633 38 Q502 23 369 50 Q236 77 111 144 Q91 96 63 52 Q35 8 -11 -16 Q-22 -21 -33.5 -24.5 Q-45 -28 -58 -27 Q-88 -25 -110.5 -0.5 Q-133 24 -137 54 Q-141 83 -128 109 Q-115 135 -93 152 Q-55 182 -1 184.5 Q53 187 102 161 Q116 199 131 237.5 Q146 276 160 314 Q162 316 162.5 319 Q163 322 164 324 Q190 393 220 458 Q250 523 296 578 Q319 607 349 623 Q360 629 372 631 Q384 633 395 625 Q413 614 411 593 Q411 576 397 562 Q391 556 387 560 Q383 564 389 570 Q393 575 396 580 Q399 585 400 591 Q402 606 391 615 Q383 620 374 618.5 Q365 617 357 613 Q334 600 317 581 Q300 562 285 541 Q243 483 216.5 417 Q190 351 165 284 Q163 280 155 259.5 Q147 239 138 216.5 Q129 194 122 175.5 Q115 157 116 157 Q234 91 354.5 65 Q475 39 616 49 Q628 49 636 54 Q637 57 640 58 Q644 58 645 57 Z M85 122 Q91 134 97 149 Q89 151 82.5 154 Q76 157 69 159 Q60 161 51 163.5 Q42 166 34 168 Q10 174 -12 171 Q-28 170 -43 164 Q-67 155 -86 139 Q-96 131 -104 121.5 Q-112 112 -117 100 Q-124 86 -125.5 69.5 Q-127 53 -119 38 Q-114 30 -108.5 21 Q-103 12 -97 7 Q-86 -3 -71.5 -9 Q-57 -15 -40 -12 Q-26 -9 -16 -3 Q-6 3 4 11 Q11 16 17.5 21.5 Q24 27 29 33 Q35 39 40.5 45.5 Q46 52 51 60 Q62 74 69 90 Q74 98 77.5 106 Q81 114 85 122 Z " />
<glyph glyph-name="M" unicode="M" horiz-adv-x="530" d="M506 445 Q506 431 503.5 418 Q501 405 498 392 Q494 378 490 363 Q486 348 481 334 Q479 324 476 315 Q473 306 471 297 Q466 280 462 264.5 Q458 249 453 232 Q451 224 449.5 217.5 Q448 211 446 203 Q444 194 442.5 185.5 Q441 177 439 168 Q437 157 435.5 145.5 Q434 134 432 123 Q430 112 429 100.5 Q428 89 427 77 Q425 67 424.5 57.5 Q424 48 423 38 Q422 27 421.5 17.5 Q421 8 420 -2 Q419 -11 419 -19.5 Q419 -28 418 -36 L418 -41 Q419 -45 416 -47 Q411 -49 408 -44 Q405 -41 405 -36 Q405 -31 405 -25 Q405 -19 406 -14 Q406 -7 406.5 0 Q407 7 407 14 Q409 28 409.5 43 Q410 58 412 73 Q414 89 415 105 Q416 121 418 138 Q420 156 424 172 Q425 178 425.5 184 Q426 190 428 196 Q430 205 432.5 214.5 Q435 224 437 233 Q440 245 443 257 Q446 269 450 281 Q453 292 456.5 303.5 Q460 315 464 326 Q468 338 471.5 350 Q475 362 478 374 Q481 386 484.5 398.5 Q488 411 490 423 Q495 443 492 461 Q492 462 490 470 Q486 475 482 474 Q480 473 477 472 Q474 471 470 469 Q459 462 450.5 454 Q442 446 434 438 Q425 427 415.5 417 Q406 407 397 396 Q390 388 384 379.5 Q378 371 371 363 Q366 355 361 348 Q356 341 351 334 Q345 325 339 316 Q333 307 328 297 L295 234 Q293 231 291.5 227.5 Q290 224 288 221 Q285 218 281 216 Q279 214 276 215.5 Q273 217 272 221 Q270 227 270 229 Q272 236 273.5 243 Q275 250 277 257 Q279 265 281 273.5 Q283 282 286 290 Q288 299 291 308 Q294 317 297 327 Q299 335 301.5 342.5 Q304 350 306 358 Q309 368 312 377.5 Q315 387 318 398 Q323 413 327 428 Q331 443 336 459 Q338 470 340.5 480.5 Q343 491 344 502 Q346 517 342 525 Q340 531 335 530 Q332 528 328.5 527 Q325 526 322 524 Q313 517 304 509.5 Q295 502 286 492 Q278 483 269.5 473.5 Q261 464 253 454 Q245 444 237.5 434.5 Q230 425 222 415 Q215 405 208 395.5 Q201 386 195 376 Q187 366 181 356 Q175 346 168 336 Q160 322 152 308.5 Q144 295 136 281 Q131 272 126 262 Q121 252 116 242 L95 203 Q90 191 84 179.5 Q78 168 73 156 Q71 152 69 146 Q67 140 64.5 134.5 Q62 129 58.5 125.5 Q55 122 50 123 Q46 126 46.5 131.5 Q47 137 49 143.5 Q51 150 53.5 156 Q56 162 56 166 Q62 183 66 197 Q69 207 72 216.5 Q75 226 78 235 Q81 245 84 254.5 Q87 264 90 273 L105 321 Q110 336 115.5 350.5 Q121 365 126 380 Q131 392 135.5 404 Q140 416 145 428 Q156 455 166 479 Q170 489 174 499 Q178 509 182 519 Q187 533 192 546 Q197 559 202 573 Q207 587 208 600 Q210 611 207 620 Q204 631 194 632 Q184 634 177 631 Q158 626 142 616 Q131 609 122 601 Q113 593 104 584 Q85 566 64 539 Q56 528 48.5 516 Q41 504 35 490 Q31 481 28.5 472 Q26 463 25 452 Q23 442 26 435 Q31 422 44 420 Q46 419 51 419 Q57 419 58 415 Q60 411 55 409 Q43 407 31.5 413 Q20 419 15 433 Q11 443 13 458 Q18 484 28 506 Q42 533 61 557 Q69 565 76 574 Q83 583 91 591 Q96 596 101.5 601 Q107 606 113 611 Q124 620 134.5 627.5 Q145 635 159 640 Q173 646 189 645 Q207 644 216 630 Q222 621 222 610 Q223 595 217 576 Q214 565 211 555.5 Q208 546 204 535 Q199 522 193.5 510 Q188 498 183 485 Q178 474 173.5 462 Q169 450 164 439 Q161 431 157.5 422 Q154 413 150 404 Q146 394 142.5 383.5 Q139 373 135 363 Q132 355 129.5 348.5 Q127 342 124 334 Q121 324 117.5 314 Q114 304 111 294 Q109 290 108 286 Q107 282 105 277 Q102 267 99 257 Q96 247 92 236 Q91 230 89 225.5 Q87 221 87 216 Q89 223 93 229 Q98 237 102 245.5 Q106 254 111 263 Q116 272 120.5 281 Q125 290 130 298 Q135 308 141 317 Q147 326 152 335 Q158 345 163.5 354 Q169 363 175 372 Q181 380 186.5 388.5 Q192 397 198 406 Q204 414 210 422.5 Q216 431 223 439 Q231 449 238.5 458.5 Q246 468 254 477 Q264 488 273.5 498.5 Q283 509 294 519 Q300 525 306.5 530.5 Q313 536 321 540 Q331 544 339 543 Q349 540 353 531 Q355 527 356 523.5 Q357 520 358 516 Q360 496 355 478 Q353 467 350 457.5 Q347 448 345 438 Q342 427 338.5 417 Q335 407 332 396 Q330 388 327 379 Q324 370 322 362 Q317 347 313 332 Q309 317 305 303 Q302 294 299.5 285 Q297 276 294 266 L294 263 Q295 265 296 267 Q297 269 298 271 Q306 285 314 299 Q322 313 330 327 Q336 338 343 347.5 Q350 357 357 367 L390 409 Q404 426 418 440 Q426 449 435 457.5 Q444 466 453 474 Q465 483 473 486 Q475 487 482 487 Q494 487 501 474 Q508 463 506 445 Z " />
<glyph glyph-name="N" unicode="N" horiz-adv-x="375" d="M66 211 Q69 216 72 220.5 Q75 225 77 230 Q83 240 89.5 250 Q96 260 102 270 Q110 284 118 296.5 Q126 309 134 322 Q143 335 152 348 Q161 361 170 374 Q176 382 182 391 Q188 400 195 408 Q203 418 211 427.5 Q219 437 227 447 Q235 456 243.5 465 Q252 474 261 482 Q283 504 303 517 Q310 521 317.5 524.5 Q325 528 333 529 Q354 532 363 512 Q367 504 368 496.5 Q369 489 369 481 Q368 473 368 464.5 Q368 456 367 448 Q365 434 362.5 421.5 Q360 409 357 395 Q355 384 352 373.5 Q349 363 346 352 Q343 341 340 331 Q337 321 333 310 Q330 301 327 292.5 Q324 284 321 275 Q317 264 314 253.5 Q311 243 307 232 Q302 219 298 206.5 Q294 194 290 180 Q287 171 284.5 162 Q282 153 279 144 L270 105 L264 75 Q262 65 260.5 56 Q259 47 257 38 Q255 24 253.5 10 Q252 -4 250 -18 L247 -51 L247 -54 Q248 -59 243 -61 Q236 -63 235 -56 Q234 -54 234 -47 Q236 -32 237 -16.5 Q238 -1 240 15 Q242 30 244 45 Q246 60 248 75 Q250 88 252.5 100.5 Q255 113 258 126 Q261 137 264 147.5 Q267 158 270 169 Q277 197 287 223 Q292 237 296 249.5 Q300 262 305 275 Q308 284 311 293 Q314 302 316 310 Q320 320 323 329.5 Q326 339 329 348 Q332 360 335.5 371.5 Q339 383 341 395 Q343 403 345 412 Q347 421 349 430 Q351 441 351.5 451 Q352 461 354 472 Q355 477 354.5 481 Q354 485 354 490 Q353 495 352.5 498.5 Q352 502 351 507 Q348 516 338 516 Q332 515 326.5 513 Q321 511 316 509 Q295 497 277 479 Q247 451 220 419 Q211 408 202.5 397 Q194 386 186 375 Q178 364 170 352.5 Q162 341 154 329 Q144 315 135 299.5 Q126 284 116 269 Q112 263 108.5 256.5 Q105 250 101 244 Q97 238 93.5 232 Q90 226 87 220 Q83 214 79 207 Q75 200 71 192 Q66 185 62 178 Q58 171 53 163 Q51 159 48.5 155.5 Q46 152 44 149 L41 146 Q36 143 33 146 Q28 149 30 154 Q31 158 32 161.5 Q33 165 34 169 Q39 181 43.5 193 Q48 205 53 216 Q61 242 71 263 L89 311 Q94 323 98.5 334.5 Q103 346 108 358 L129 409 Q134 423 139.5 437 Q145 451 150 465 Q152 470 154 475.5 Q156 481 158 487 Q162 497 165 506.5 Q168 516 171 526 Q173 534 175 541 Q177 548 179 556 Q184 573 182 591 Q181 597 180 603 Q179 609 175 614 Q168 629 150 627 Q136 626 119 615 Q95 602 77 582 Q66 571 55.5 559 Q45 547 36 533 Q28 522 22 510 Q16 498 11 484 Q6 464 6 451 Q6 437 12 426 Q15 420 20 417.5 Q25 415 30 413 Q37 411 44 410.5 Q51 410 58 411 L59 411 Q65 411 65 407 Q67 401 61 401 Q48 397 34 400 Q24 401 18 405 Q0 413 -4 432 Q-8 444 -7 456 Q-6 468 -3 479 Q0 493 5.5 505.5 Q11 518 18 530 Q28 546 39.5 561 Q51 576 65 590 Q74 598 83 606 Q92 614 103 622 Q112 628 122.5 633 Q133 638 145 640 Q163 643 177 632 Q189 622 193 608 Q198 592 196 575 Q195 565 193.5 554.5 Q192 544 188 533 Q184 521 181 509.5 Q178 498 174 487 Q170 476 166 465 Q162 454 158 443 L143 407 Q141 400 138 393.5 Q135 387 132 380 Q130 373 127.5 366.5 Q125 360 121 352 Q116 341 112.5 330 Q109 319 104 308 Q100 299 96.5 290 Q93 281 89 271 Q83 257 77.5 242 Q72 227 66 212 L66 211 Z " />
<glyph glyph-name="O" unicode="O" horiz-adv-x="457" d="M357 490 Q373 481 377 477 Q398 462 404 440 Q409 430 410.5 421 Q412 412 414 402 Q415 391 415.5 380 Q416 369 414 358 Q412 350 410.5 341.5 Q409 333 407 325 Q397 290 379 255 Q371 240 362.5 226 Q354 212 346 198 Q337 187 333 178 L334 179 Q351 192 366 204 Q392 222 414 240 L416 242 Q420 247 423 243 Q429 242 427 236 Q423 230 423 230 Q417 224 410.5 218.5 Q404 213 398 208 Q392 203 386.5 198.5 Q381 194 374 189 Q366 184 358.5 177.5 Q351 171 343 165 Q335 160 326 155.5 Q317 151 308 146 Q304 142 301 138 Q293 130 285 121 Q277 112 269 104 Q254 87 228 68 Q217 60 206.5 52.5 Q196 45 185 38 Q157 22 129 12 Q111 8 93 9 Q85 10 78 12.5 Q71 15 63 18 Q55 23 47 28.5 Q39 34 32 42 Q25 50 20.5 58.5 Q16 67 11 78 Q-2 108 -5 146 Q-7 165 -7.5 182.5 Q-8 200 -8 218 Q-8 238 -6 257.5 Q-4 277 -1 297 Q3 316 7.5 334 Q12 352 18 369 Q22 381 26 392.5 Q30 404 35 415 Q41 428 47 440.5 Q53 453 60 466 Q65 477 72 486.5 Q79 496 86 507 Q108 535 132 556 Q142 567 152.5 574.5 Q163 582 174 589 Q199 606 227 612 Q242 614 256 614.5 Q270 615 285 610 Q312 602 329 584 Q347 565 353 542 Q356 528 356.5 515.5 Q357 503 357 490 Z M276 134 L275 134 Q269 133 262.5 132.5 Q256 132 251 133 Q245 134 238.5 135 Q232 136 226 140 Q208 148 194 168 Q177 192 169 228 Q165 244 165 263 Q164 290 168 314 Q170 323 172.5 331.5 Q175 340 177 348 Q186 380 203 403 Q208 411 212.5 418 Q217 425 223 431 Q236 448 247 457 Q264 473 285 481 Q314 495 343 492 L345 493 Q345 506 344 517.5 Q343 529 339 542 Q328 577 295 593 Q274 601 257 601 Q246 601 236.5 599 Q227 597 217 594 Q207 592 198 587 Q189 582 181 577 Q160 564 143 549 Q136 542 129.5 536 Q123 530 116 522 Q100 504 87 483 Q81 475 76 467 Q71 459 67 451 Q57 434 49 413 Q44 401 40 389.5 Q36 378 31 366 Q18 332 12 290 Q9 273 7 254.5 Q5 236 5 218 Q5 204 5 190.5 Q5 177 6 163 Q8 134 15 104 Q17 93 21.5 83.5 Q26 74 32 63 Q52 33 80 26 Q99 22 118 26 Q135 30 149.5 36.5 Q164 43 178 51 Q192 59 203.5 67.5 Q215 76 227 85 Q239 96 250.5 107.5 Q262 119 274 131 Q274 132 276 134 Z M343 477 Q325 479 316 476 Q294 470 274 458 Q261 450 250 439 Q239 428 228 415 Q220 406 214 395 Q208 384 203 373 Q192 351 184 324 Q182 313 180.5 302 Q179 291 179 280 Q178 268 178.5 256 Q179 244 181 232 Q184 221 187.5 209.5 Q191 198 197 187 Q201 180 205 174.5 Q209 169 214 164 Q230 149 249 148 Q273 147 297 158 Q297 155 299 161 Q303 165 305.5 169 Q308 173 313 178 Q319 186 324.5 194.5 Q330 203 336 211 Q354 236 367 264 Q375 280 382.5 297 Q390 314 395 332 Q398 344 400 356.5 Q402 369 402 382 Q402 401 398 417 Q394 441 378 458 Q369 469 357 473 L356 472 Q355 461 353.5 450 Q352 439 348 426 Q339 389 316 363 Q309 356 302 353 Q293 351 286.5 356 Q280 361 280 372 Q279 393 296 410 Q299 413 300 413 Q305 413 306 409 Q307 407 306.5 406 Q306 405 306 403 Q302 399 300 394 Q292 383 292 372 L292 366 Q296 366 297 367 Q305 373 311 381 Q319 390 326 406 Q331 417 334.5 428.5 Q338 440 340 453 Q342 459 342 465 Q342 471 343 477 Z " />
<glyph glyph-name="P" unicode="P" horiz-adv-x="574" d="M320 526 Q323 528 325.5 530.5 Q328 533 331 535 Q340 543 349 551 Q358 559 367 567 Q387 583 407 596 Q427 609 450 619 Q470 629 497 637 Q511 641 525 643 Q539 645 554 645 Q562 644 569.5 642 Q577 640 585 635 Q597 625 603 610 Q610 595 608 570 Q603 533 592 500 Q587 488 582 476.5 Q577 465 572 453 Q568 445 564 436.5 Q560 428 555 420 Q550 412 546.5 405 Q543 398 538 390 Q533 382 527 373.5 Q521 365 515 356 Q510 349 505 342.5 Q500 336 495 328 Q511 332 517 332.5 Q523 333 536 337 Q544 341 548 338 Q552 335 547 330 Q543 327 538.5 325.5 Q534 324 529 322 Q516 318 509.5 317.5 Q503 317 485 313 Q481 313 479 310 Q464 293 447 281 Q426 265 406 257 Q392 250 370 247 Q352 244 340 245 Q331 245 318 250 Q307 255 305.5 265 Q304 275 313 283 Q323 293 335 297 Q352 305 369 309 Q386 313 403 315 Q417 318 431.5 319.5 Q446 321 460 323 Q463 324 466 324 Q469 324 472 325 Q473 325 475 327 Q481 335 487 342.5 Q493 350 499 358 Q505 366 511 375 Q517 384 523 392 Q527 399 531 405.5 Q535 412 539 420 Q544 428 548.5 437 Q553 446 558 455 Q568 473 572 487 Q581 510 587 532 Q591 546 593 559 Q595 572 594 585 Q594 604 584 617 Q575 631 556 632 Q530 634 506 626 Q497 624 488.5 621 Q480 618 471 615 Q437 602 407.5 581.5 Q378 561 351 537 Q341 528 332 518.5 Q323 509 313 500 Q312 498 311 497 Q310 496 310 494 Q305 483 301 473 Q297 463 293 452 L275 410 Q268 393 261.5 377 Q255 361 248 345 Q240 326 232 307.5 Q224 289 216 270 Q210 257 204.5 244.5 Q199 232 193 219 Q189 211 185.5 202 Q182 193 178 184 Q173 175 169 165.5 Q165 156 161 146 Q156 136 152 126.5 Q148 117 143 107 Q139 99 135 91 Q131 83 127 75 Q122 64 117 53 Q112 42 106 31 Q98 15 90 -0.5 Q82 -16 72 -30 Q64 -39 56.5 -47.5 Q49 -56 41 -64 Q30 -72 19 -76 Q-1 -79 -5 -60 Q-7 -53 -6.5 -46.5 Q-6 -40 -5 -34 Q-1 -3 10 27 Q14 39 18 50 Q22 61 26 71 Q31 82 36 93 Q41 104 46 115 Q50 123 53.5 131.5 Q57 140 62 148 Q73 171 85 194 Q93 208 100 220.5 Q107 233 115 247 Q120 256 125.5 265.5 Q131 275 138 285 Q146 298 154 310.5 Q162 323 170 336 L218 405 Q223 412 228 418.5 Q233 425 238 432 Q248 444 257.5 455.5 Q267 467 277 479 Q282 484 286.5 489.5 Q291 495 296 500 Q297 502 298 503.5 Q299 505 300 507 Q305 521 308.5 534 Q312 547 314 560 Q319 578 317 596 Q312 623 289 636 Q281 641 272.5 642.5 Q264 644 256 645 Q242 646 217 643 Q198 642 180 634 Q172 631 163 627.5 Q154 624 146 619 Q138 614 130 609.5 Q122 605 114 600 L84 576 Q76 568 68 560 Q60 552 54 543 Q38 524 30 509 Q24 499 18.5 488.5 Q13 478 8 467 Q-3 445 -4 422 Q-9 404 -2 386 Q2 371 17 364 Q40 355 60 367 Q64 370 68 374 Q69 375 70 375.5 Q71 376 72 377 Q76 378 77 376 Q82 374 78 370 Q74 365 70 360.5 Q66 356 59 353 Q43 346 28 349 Q17 350 7 356 Q-3 361 -8 369 Q-13 377 -16 387 Q-19 400 -18 412.5 Q-17 425 -14 437 Q-10 458 1 482 L16 512 Q21 520 27 529 Q33 538 39 546 Q50 560 62 572 Q67 577 73 582.5 Q79 588 85 593 Q90 598 96 602 Q102 606 108 611 Q136 630 166 643 Q190 651 210 655 Q224 657 238.5 657.5 Q253 658 267 656 Q293 653 309 637 Q320 626 324 616 Q334 594 330 570 Q327 546 321 527 L320 526 Z M285 468 L284 468 Q284 467 283.5 467 Q283 467 283 466 Q274 455 265.5 445 Q257 435 248 424 Q243 417 238.5 410.5 Q234 404 229 398 Q218 382 207 366.5 Q196 351 185 334 Q176 320 167 306.5 Q158 293 149 279 Q144 269 138 259.5 Q132 250 127 241 Q118 225 109.5 209.5 Q101 194 92 177 Q86 166 80 154.5 Q74 143 69 131 Q65 123 61.5 115.5 Q58 108 54 100 Q50 90 46 81 Q42 72 38 62 Q33 51 29.5 40 Q26 29 22 18 Q18 8 14.5 -4 Q11 -16 9 -30 Q8 -36 7.5 -42 Q7 -48 7 -54 Q9 -66 19 -63 Q23 -62 29 -57 Q38 -50 45 -42 Q52 -34 59 -25 Q70 -10 79.5 7.5 Q89 25 97 42 Q102 51 105.5 59.5 Q109 68 113 76 Q117 84 121 92.5 Q125 101 129 109 Q134 120 139.5 132 Q145 144 150 156 L165 189 Q171 203 177 215.5 Q183 228 188 242 Q194 254 199.5 266.5 Q205 279 210 291 Q215 303 220 314.5 Q225 326 230 337 Q234 347 238 356 Q242 365 246 374 Q251 385 254.5 394.5 Q258 404 263 415 Q268 428 273.5 441 Q279 454 285 468 Z M459 309 L458 309 L455 309 Q450 308 445.5 308 Q441 308 436 307 Q424 305 412 303 Q400 301 389 299 Q365 295 339 284 Q330 280 321 271 Q316 266 322 263 Q333 257 344 257 Q358 257 371 260 Q394 265 413 275 Q429 284 447 299 Q451 302 454 304.5 Q457 307 459 309 Z " />
<glyph glyph-name="Q" unicode="Q" horiz-adv-x="498" d="M247 59 Q249 57 251 56 Q253 55 255 53 Q265 45 275 39 Q285 33 295 26 Q306 18 318 10.5 Q330 3 343 -5 Q353 -12 363.5 -17 Q374 -22 385 -28 Q399 -35 414.5 -41.5 Q430 -48 447 -55 Q467 -64 487 -71 Q498 -75 508.5 -78.5 Q519 -82 530 -86 Q532 -86 533 -86.5 Q534 -87 536 -87 Q538 -87 539 -86 Q541 -84 545 -85 Q547 -87 547 -91 Q547 -98 541 -98 Q532 -98 530 -97 Q519 -93 507 -89.5 Q495 -86 484 -81 Q471 -76 459 -71.5 Q447 -67 433 -62 Q421 -57 409.5 -52 Q398 -47 386 -41 Q375 -36 363.5 -30 Q352 -24 342 -18 Q330 -12 319 -5 Q308 2 297 10 Q275 27 252 40 Q248 42 245.5 45 Q243 48 239 50 Q236 51 235 50 Q228 46 222 42.5 Q216 39 209 36 Q202 32 195.5 29 Q189 26 183 23 Q176 21 169.5 18 Q163 15 156 13 Q148 11 141 10 Q134 9 128 8 Q121 7 114.5 6.5 Q108 6 101 7 Q94 7 87.5 9 Q81 11 75 13 Q57 21 45 34 Q31 51 28 70 Q24 87 30 104 Q41 136 74 142 Q85 145 101 141 Q118 138 132.5 131.5 Q147 125 161 117 Q175 109 187.5 100 Q200 91 214 83 L235 68 Q237 66 239 68 Q244 71 248.5 74.5 Q253 78 258 82 Q281 99 299 117 L337 155 Q347 167 356 179 Q365 191 374 203 Q382 212 388.5 222 Q395 232 402 243 Q408 254 414 263.5 Q420 273 426 284 Q430 292 434 299.5 Q438 307 442 315 Q447 326 451.5 336.5 Q456 347 461 358 Q466 372 471 387.5 Q476 403 480 420 Q486 443 489 467 Q490 475 490 484 Q490 493 490 501 Q490 515 488 527 Q486 539 483 552 Q478 569 466 591 Q452 617 428 633 Q413 643 398 648 Q371 658 338 658 Q328 658 318 656.5 Q308 655 297 653 Q286 651 275 647.5 Q264 644 253 641 Q236 633 219 624 Q204 617 191 607 Q185 603 178.5 598.5 Q172 594 166 589 Q157 581 148 573.5 Q139 566 131 557 Q123 550 116.5 543 Q110 536 103 529 Q87 510 73 487 Q65 476 58.5 464.5 Q52 453 45 440 Q39 428 34 416 Q29 404 25 390 Q19 368 15 346 Q13 332 11.5 319 Q10 306 11 292 Q12 282 13 273 Q14 264 16 256 Q18 246 21.5 237 Q25 228 29 219 Q36 206 52 192 Q70 177 93 172 Q101 170 108.5 169.5 Q116 169 124 171 Q132 172 139 173 Q146 174 151 175 Q176 181 198 193 Q206 197 213.5 201 Q221 205 229 210 L262 234 Q270 241 278 247.5 Q286 254 294 261 Q301 269 308 275.5 Q315 282 323 290 Q331 299 338.5 308 Q346 317 352 328 Q352 330 354 332 Q355 335 361 334 Q364 331 362 326 Q354 310 342.5 296 Q331 282 317 268 Q308 260 299 251 Q290 242 280 234 Q271 226 261.5 219 Q252 212 243 205 Q234 199 224.5 193 Q215 187 204 182 Q196 178 188 174.5 Q180 171 172 168 Q157 163 142 160 Q127 157 110 158 Q76 160 50 179 Q35 188 22 210 Q11 228 6 249 Q3 258 2 267.5 Q1 277 0 287 Q-3 313 2 345 Q4 356 6.5 365.5 Q9 375 12 386 Q19 412 33 442 Q38 453 44 463.5 Q50 474 55 482 Q63 498 73 508 Q79 518 86.5 527 Q94 536 102 545 Q113 559 126 570.5 Q139 582 152 593 Q163 601 175 610 Q187 619 201 628 Q212 635 224 640 Q236 645 247 650 Q256 653 264.5 656 Q273 659 282 661 Q294 665 305.5 667 Q317 669 330 669 Q343 670 355 669.5 Q367 669 379 666 Q408 660 433 643 Q443 637 451.5 629.5 Q460 622 466 613 Q471 607 474 601 Q477 595 481 588 Q488 577 492 565.5 Q496 554 499 541 Q503 526 503 506 L503 488 Q502 480 502 471 Q502 462 500 453 Q498 439 495.5 426.5 Q493 414 489 401 Q486 390 482.5 380.5 Q479 371 475 362 Q471 351 467.5 341 Q464 331 460 321 Q455 310 449 299.5 Q443 289 437 278 Q429 261 420 249 Q413 238 407 228 Q401 218 394 208 Q389 201 383.5 194 Q378 187 373 180 Q365 170 357 160 Q349 150 341 141 L313 113 Q287 87 257 66 Q251 62 247 59 Z M224 61 Q210 72 196 82 Q182 92 166 100 Q152 108 138.5 115.5 Q125 123 109 128 Q93 132 78 131 Q48 126 39 96 Q35 81 41 64 Q48 39 78 25 Q101 14 125 19 Q152 23 178 34 Q187 38 195 42 Q203 46 212 50 Q216 52 219 54.5 Q222 57 226 59 L224 61 Z " />
<glyph glyph-name="R" unicode="R" horiz-adv-x="422" d="M167 190 Q171 186 174.5 183 Q178 180 182 176 Q190 168 199 161 Q208 154 216 146 Q227 137 237 128 Q247 119 258 111 Q269 103 279 95.5 Q289 88 300 80 Q323 64 348 50 L399 20 Q412 13 425 6.5 Q438 0 452 -6 Q463 -11 473.5 -15.5 Q484 -20 495 -23 Q498 -25 501.5 -25 Q505 -25 509 -26 Q510 -27 516 -25 Q519 -25 521 -20 L521 -17 Q522 -13 526 -13 Q530 -12 532 -17 Q533 -24 527 -32 Q521 -38 512 -38 Q504 -38 496.5 -36 Q489 -34 482 -32 Q472 -28 463 -24.5 Q454 -21 445 -16 Q437 -13 430.5 -9.5 Q424 -6 416 -2 Q394 8 375 20 Q363 27 351 33.5 Q339 40 328 47 Q318 53 309 58.5 Q300 64 291 70 Q280 78 270.5 84.5 Q261 91 251 99 Q242 107 233 114 Q224 121 215 128 Q207 136 199 142.5 Q191 149 183 157 Q178 162 172.5 167.5 Q167 173 161 178 Q158 180 155.5 183 Q153 186 150 188 Q149 189 147 189 Q129 190 113 200 Q112 198 111 196.5 Q110 195 109 193 Q105 182 101 172 Q97 162 92 151 Q86 134 79 119 Q75 108 71 98 Q67 88 62 77 Q58 67 54.5 57.5 Q51 48 46 37 Q43 28 39.5 19 Q36 10 32 0 Q27 -11 23 -22.5 Q19 -34 14 -46 L8 -64 Q8 -66 7.5 -67 Q7 -68 7 -70 Q7 -74 4 -75 Q-2 -76 -3 -74 Q-5 -69 -4 -68 Q-2 -57 1 -51 Q6 -37 11 -24 Q16 -11 21 3 Q25 14 29 23.5 Q33 33 37 44 Q42 56 47 68.5 Q52 81 57 94 Q62 107 67 119.5 Q72 132 77 145 Q82 156 86.5 167.5 Q91 179 96 190 Q98 195 99.5 199 Q101 203 103 207 Q103 210 102 211 Q102 213 101 215 Q100 217 100 219 Q100 229 110 229 Q113 229 113 232 Q119 246 124.5 259 Q130 272 136 285 Q141 298 147 310.5 Q153 323 158 335 Q163 346 168.5 358 Q174 370 179 382 Q182 387 185 392.5 Q188 398 190 403 Q196 414 201.5 424 Q207 434 212 445 L236 490 Q238 492 238 494 Q240 499 245 497 Q249 497 248 490 Q248 487 245 484 Q240 473 234.5 463.5 Q229 454 224 443 Q219 435 215 426 Q211 417 206 408 Q201 399 197 390.5 Q193 382 188 373 Q183 361 177 349 Q171 337 166 325 Q163 319 160.5 313 Q158 307 155 300 Q150 290 146.5 280.5 Q143 271 138 261 Q135 254 132.5 248 Q130 242 127 234 Q126 233 124 226 Q127 224 129.5 222 Q132 220 134 218 Q139 214 143.5 210.5 Q148 207 153 203 Q155 201 157 201 Q176 203 193.5 209.5 Q211 216 228 225 Q239 232 251.5 240 Q264 248 277 258 Q287 266 296.5 275.5 Q306 285 315 294 Q339 320 357 348 Q376 375 386 399 Q391 410 395 420 Q399 430 404 441 Q407 449 409.5 458 Q412 467 414 476 Q416 483 416.5 490 Q417 497 418 505 Q420 514 419.5 522.5 Q419 531 418 541 Q417 551 415 558.5 Q413 566 411 573 Q408 581 405 587.5 Q402 594 397 601 Q385 617 375 624 Q357 639 335 646 Q328 648 321.5 649.5 Q315 651 307 653 Q282 656 268 655 Q251 654 235.5 650.5 Q220 647 205 642 Q174 631 148 616 Q109 593 82 567 Q42 530 20 488 Q13 474 8 460.5 Q3 447 1 432 Q-4 410 -1 392 Q4 358 26 332 Q38 319 55 311 Q72 304 89 307 Q94 308 97.5 308.5 Q101 309 103 309 Q111 310 110 304 Q110 300 106 300 Q95 297 83.5 296 Q72 295 60 298 Q55 300 49 302.5 Q43 305 38 308 Q27 314 19 323 Q11 332 5 342 Q-9 365 -12 389 Q-15 410 -12 430 Q-10 442 -6.5 452.5 Q-3 463 1 473 Q8 491 18 507.5 Q28 524 40 540 Q64 570 94 594 Q124 618 161 636 Q171 641 181 645.5 Q191 650 201 654 Q228 663 258 666 Q270 667 282 667 Q294 667 305 665 Q340 661 374 640 Q400 623 415 595 Q428 574 431 543 Q433 531 432.5 518.5 Q432 506 430 494 Q428 483 425.5 471.5 Q423 460 419 447 Q412 422 401 399 Q386 368 370 345 Q363 335 356.5 325.5 Q350 316 342 306 Q333 295 322.5 284.5 Q312 274 301 263 Q277 242 250 224 Q226 207 195 197 Q188 195 182 194 Q176 193 169 191 Q168 191 167 190 Z M132 204 Q129 207 126 209.5 Q123 212 119 215 Q118 213 117 212.5 Q116 212 118 210 Q124 206 132 204 Z " />
<glyph glyph-name="S" unicode="S" horiz-adv-x="314" d="M348 579 Q357 560 355 534 Q354 528 354 522 Q354 516 352 510 Q350 502 347.5 494 Q345 486 343 478 Q337 461 329 445 Q321 429 312 413 Q306 402 299.5 391.5 Q293 381 287 370 L269 343 Q259 330 249.5 317.5 Q240 305 229 293 Q225 288 221 284 Q217 280 213 276 Q212 275 211 274.5 Q210 274 209 273 Q206 271 203 274 Q200 276 203 279 Q203 280 205 282 Q212 290 218.5 298.5 Q225 307 233 315 Q248 332 256 345 Q262 353 267.5 362 Q273 371 279 379 Q283 385 287 392 Q291 399 295 407 Q300 416 305 425 Q310 434 315 444 Q320 453 323.5 461.5 Q327 470 330 479 Q334 490 336.5 500 Q339 510 341 518 Q342 524 342.5 530 Q343 536 343 543 Q343 557 338.5 570 Q334 583 323 594 Q313 604 298 609 Q289 612 280 613 Q271 614 261 614 Q233 613 206 602 Q185 594 159 579 Q148 572 137 564.5 Q126 557 115 549 Q88 528 63 500 Q55 492 48 482.5 Q41 473 34 464 Q17 439 7 418 Q2 407 -1.5 395.5 Q-5 384 -7 373 Q-12 348 -1 324 Q3 316 7 310 Q11 304 16 299 Q37 278 61 260 Q72 251 82.5 242.5 Q93 234 103 223 Q114 212 122 199.5 Q130 187 134 172 Q138 154 137 135 Q135 128 134 121.5 Q133 115 131 109 L131 107 Q134 107 135 108 Q148 109 159 100 Q159 99 160 99 Q165 95 160 90 Q157 87 152 92 Q144 97 139 97 Q136 97 133.5 96.5 Q131 96 128 95 Q126 95 126 92 Q121 83 116.5 73.5 Q112 64 107 56 Q102 48 96 40 Q90 32 83 25 Q77 20 71 14 Q65 8 58 3 Q48 -4 37.5 -9.5 Q27 -15 16 -19 Q2 -24 -9 -20 Q-17 -18 -21 -11 Q-25 -4 -22 4 Q-18 17 -6 27 Q2 36 12 42.5 Q22 49 33 57 L66 78 Q78 85 89.5 91 Q101 97 114 102 Q116 102 117 105 Q119 113 120.5 120.5 Q122 128 124 136 Q127 162 117 183 Q112 192 106 200 Q100 208 92 216 Q84 223 76.5 230 Q69 237 61 244 Q51 252 41 260.5 Q31 269 21 277 Q1 294 -9 314 Q-22 335 -20 365 Q-18 394 -7 415 Q-3 424 1 432.5 Q5 441 10 449 Q25 476 44 498 Q55 510 66 521.5 Q77 533 90 544 Q110 562 132 577 Q162 599 198 612 Q219 620 235 623 Q261 628 280 625 Q303 622 321 611 Q340 599 348 579 Z M94 60 Q96 63 99 68 Q102 73 105 78 Q107 81 111 89 L105 86 Q103 84 100.5 83.5 Q98 83 97 82 Q81 74 66 65 Q51 56 37 45 Q28 39 20 33 Q12 27 4 21 Q-4 15 -10 2 Q-13 -8 -3 -8 Q5 -9 19 -4 Q34 0 51 14 Q62 22 70 30 Q84 44 94 60 Z " />
<glyph glyph-name="T" unicode="T" horiz-adv-x="161" d="M183 611 Q180 610 177 610 Q174 610 172 609 Q163 608 154.5 607.5 Q146 607 137 606 Q129 605 121 604 Q113 603 105 602 Q94 600 84.5 599.5 Q75 599 65 597 Q51 595 37 592.5 Q23 590 9 588 Q-8 584 -24.5 581 Q-41 578 -58 574 Q-74 570 -89.5 566 Q-105 562 -120 557 Q-131 554 -140.5 551 Q-150 548 -160 543 Q-168 539 -176 535 Q-184 531 -192 526 Q-200 522 -204 514 Q-212 503 -199 494 Q-186 484 -169 481 Q-160 479 -151 477.5 Q-142 476 -134 477 L-133 477 Q-126 476 -126 471 Q-126 466 -131 466 Q-147 467 -162 469.5 Q-177 472 -193 479 Q-202 483 -211 492 Q-222 506 -216 519 Q-213 525 -208 529.5 Q-203 534 -198 538 Q-190 543 -182 546.5 Q-174 550 -166 554 Q-158 558 -149 561.5 Q-140 565 -131 568 Q-118 572 -106 575 Q-94 578 -81 582 Q-70 585 -59 587.5 Q-48 590 -37 592 Q-23 595 -8.5 598 Q6 601 20 603 Q33 605 46 607 Q59 609 72 611 Q86 613 100.5 614.5 Q115 616 129 618 Q141 619 153 620 Q165 621 177 623 Q184 623 186 624 Q187 624 187.5 624.5 Q188 625 189 625 Q190 626 190 627 Q190 628 192 629 Q197 631 199 627 Q201 625 204 625 Q215 627 227 628 Q239 629 250 630 Q260 631 270 631.5 Q280 632 290 633 Q302 635 314.5 636 Q327 637 340 638 L379 641 Q388 642 397 642.5 Q406 643 416 644 Q428 645 440 645 Q452 645 464 646 Q475 647 485.5 647.5 Q496 648 507 648 Q518 648 529.5 648 Q541 648 553 646 Q568 645 577 634 Q579 632 579 631 Q581 630 579 625 Q575 624 572 626 Q571 626 571 627 Q560 635 551 635 Q542 636 533 636.5 Q524 637 515 636 Q496 636 478 635 Q460 634 442 633 Q433 633 425 632.5 Q417 632 409 631 Q392 630 376.5 629 Q361 628 344 626 Q336 625 328 624.5 Q320 624 312 623 Q299 622 286.5 621 Q274 620 261 619 Q247 617 234.5 616 Q222 615 209 613 Q201 613 199 612 Q197 611 197 611 Q191 596 185 581.5 Q179 567 174 552 L162 525 Q158 516 154 506.5 Q150 497 146 488 Q141 477 137.5 467 Q134 457 130 447 Q118 418 105 385 Q100 374 96.5 362.5 Q93 351 88 340 Q83 328 79 316.5 Q75 305 70 293 Q65 276 59 260.5 Q53 245 47 229 Q42 216 38.5 204 Q35 192 30 180 Q23 161 16.5 142.5 Q10 124 4 105 Q0 94 -3.5 83.5 Q-7 73 -11 62 Q-14 51 -17.5 40.5 Q-21 30 -24 19 Q-25 16 -25.5 12.5 Q-26 9 -27 6 Q-27 3 -25 3 Q-21 -1 -21 -3 Q-21 -7 -26 -7 Q-31 -8 -35 -4 Q-39 0 -39 5 Q-39 7 -38.5 11 Q-38 15 -37 20 Q-35 28 -32.5 35 Q-30 42 -28 49 Q-26 58 -23 67 Q-20 76 -17 84 Q-13 95 -9.5 106.5 Q-6 118 -2 130 Q2 141 6 153 Q10 165 15 177 Q20 193 25.5 208.5 Q31 224 37 240 Q40 248 43 256 Q46 264 49 272 L67 323 Q70 331 73.5 340 Q77 349 80 358 Q85 369 88.5 380 Q92 391 97 402 Q103 417 109 432.5 Q115 448 121 463 Q124 471 127 478.5 Q130 486 133 494 Q138 503 141.5 512.5 Q145 522 149 531 Q152 539 155.5 546 Q159 553 162 561 L180 603 Q181 604 183 611 Z " />
<glyph glyph-name="U" unicode="U" horiz-adv-x="382" d="M212 -5 Q219 -8 217 -13 Q212 -21 207 -18 Q200 -17 200 -9 Q200 -4 200.5 0.5 Q201 5 202 10 Q207 30 213 48 Q219 66 225 85 Q230 98 234 110 Q238 122 243 135 Q248 148 253 161 Q258 174 263 187 Q270 206 277 224 Q284 242 292 261 Q298 275 304 290 Q310 305 316 319 Q323 333 329 348 Q335 363 343 377 Q350 392 357.5 407.5 Q365 423 373 438 Q376 443 378.5 448 Q381 453 384 458 Q386 464 386 463 Q384 460 381 457 Q378 454 376 451 Q371 444 366 438 Q361 432 356 425 Q348 414 339.5 402 Q331 390 323 379 Q316 370 309.5 360.5 Q303 351 295 342 Q288 332 281 322.5 Q274 313 267 303 Q254 286 242 269 Q230 252 218 235 Q210 224 202.5 214 Q195 204 187 193 Q179 182 171.5 172 Q164 162 156 152 Q134 121 108 92 Q98 81 87.5 70.5 Q77 60 65 51 Q58 46 50.5 41 Q43 36 34 34 Q24 32 19 32 Q0 33 -9 53 Q-15 71 -14 87 Q-14 95 -14 103.5 Q-14 112 -12 121 Q-10 131 -8 141 Q-6 151 -4 161 Q-1 175 5 196 Q9 209 12.5 221.5 Q16 234 21 248 Q25 258 28 267.5 Q31 277 35 288 Q40 299 43.5 309.5 Q47 320 52 331 Q57 342 61 353 Q65 364 70 375 Q75 387 80.5 399 Q86 411 91 424 Q95 433 99 442 Q103 451 107 460 Q111 468 114.5 476.5 Q118 485 121 493 Q126 504 130.5 515.5 Q135 527 140 538 Q144 548 147 557.5 Q150 567 151 578 Q152 581 151.5 584.5 Q151 588 151 591 Q149 599 141 600 Q130 602 116 594 Q86 577 63 556 Q48 541 34 524 Q27 515 21 506 Q15 497 11 486 Q10 484 10 479 Q9 473 5 473 Q0 473 0 479 Q0 485 2 490 Q4 495 6 500 Q17 523 35 541 Q40 547 45 552.5 Q50 558 55 563 Q80 586 107 602 Q115 606 122 608.5 Q129 611 137 611 Q158 613 163 590 Q164 582 162.5 575 Q161 568 159 560 Q156 546 151 533.5 Q146 521 141 508 Q133 490 125.5 472.5 Q118 455 110 438 Q103 421 96 405 Q89 389 82 372 Q74 354 67 336.5 Q60 319 53 300 Q46 283 40 265 Q34 247 28 229 Q23 217 20 205 Q17 193 13 181 Q10 170 7.5 158 Q5 146 3 135 Q0 124 -1 112.5 Q-2 101 -3 90 Q-3 82 -2 74.5 Q-1 67 2 59 Q8 43 23 44 Q27 45 30.5 46 Q34 47 39 49 Q48 53 55 58.5 Q62 64 69 69 Q80 78 89 88 Q98 98 107 109 Q116 120 125 131.5 Q134 143 144 155 Q151 163 157.5 172 Q164 181 171 190 Q180 202 188.5 214 Q197 226 206 238 Q215 250 223.5 262.5 Q232 275 241 287 Q252 301 262.5 315.5 Q273 330 284 345 Q293 358 302.5 370.5 Q312 383 321 396 Q329 407 337.5 418.5 Q346 430 355 441 Q361 449 367.5 457.5 Q374 466 380 474 Q388 484 394.5 493.5 Q401 503 409 512 Q416 520 422.5 529 Q429 538 435 546 Q440 551 444 548 Q450 543 446 539 Q444 534 441 530 Q438 526 435 521 Q414 484 395 449 Q376 414 359 379 Q355 371 351.5 364 Q348 357 345 349 Q338 334 331.5 319.5 Q325 305 318 290 Q313 277 308 264.5 Q303 252 298 240 Q292 226 286.5 213 Q281 200 276 187 Q273 179 270 171.5 Q267 164 264 156 Q260 145 256.5 135.5 Q253 126 249 115 Q245 104 241 92.5 Q237 81 233 70 L219 28 Q217 20 215.5 13 Q214 6 212 -2 L212 -5 Z " />
<glyph glyph-name="V" unicode="V" horiz-adv-x="396" d="M61 24 Q60 34 59 43.5 Q58 53 59 62 Q60 74 60.5 86 Q61 98 62 109 Q63 117 64 125 Q65 133 67 141 Q70 172 76 200 Q80 216 82 234 Q85 245 87 255.5 Q89 266 92 277 Q94 289 96.5 301 Q99 313 102 325 Q104 339 107.5 353 Q111 367 114 381 Q116 390 117.5 398.5 Q119 407 121 415 Q123 421 124 426.5 Q125 432 126 438 Q128 448 130 457.5 Q132 467 134 476 Q137 491 139 505.5 Q141 520 144 534 Q145 541 145 548 Q145 555 145 563 Q147 577 142 584 Q139 594 129 594 Q122 594 115.5 592 Q109 590 104 588 Q79 576 59 558 Q52 551 45.5 544.5 Q39 538 34 530 Q19 512 14 496 Q6 479 7 466 L7 462 Q7 458 11 458 Q15 458 15 454 Q19 451 14 449 Q12 447 7.5 448.5 Q3 450 0 453 Q-2 457 -3 460 Q-4 463 -5 465 Q-5 470 -5 476 Q-5 482 -3 487 Q0 500 6.5 511.5 Q13 523 21 534 Q38 559 60 575 Q68 581 75 586 Q82 591 90 596 Q98 599 104 601.5 Q110 604 118 605 Q122 606 126 606.5 Q130 607 135 605 Q148 602 154 589 Q159 577 159 562 Q160 548 158 533.5 Q156 519 154 505 Q152 494 150.5 483.5 Q149 473 147 462 Q141 441 138 419 Q135 407 132 394.5 Q129 382 127 369 Q124 356 121 343.5 Q118 331 115 317 L103 254 Q101 248 100 242 Q99 236 97 229 Q95 219 93.5 210 Q92 201 90 191 Q88 178 86 165.5 Q84 153 82 139 Q80 125 78 110.5 Q76 96 74 82 Q74 72 73.5 62 Q73 52 74 42 Q74 33 79 16 Q82 7 89 10 Q91 11 93.5 12 Q96 13 100 15 Q113 24 125 37 Q143 56 152 71 Q160 82 167.5 92.5 Q175 103 183 114 Q188 121 192.5 128 Q197 135 202 143 Q207 151 212 158 Q217 165 222 173 Q227 181 232 189.5 Q237 198 242 207 Q250 218 255 227 Q260 235 265 243 Q270 251 275 259 Q279 266 282.5 272.5 Q286 279 290 285 Q300 300 308.5 315 Q317 330 326 345 Q333 356 339.5 368 Q346 380 353 391 Q361 406 370 420.5 Q379 435 387 450 Q396 465 405 479.5 Q414 494 422 509 Q427 518 432.5 527.5 Q438 537 443 546 Q448 554 452.5 562.5 Q457 571 462 580 Q467 588 471 596.5 Q475 605 480 614 Q481 615 481 616 Q482 619 487 617 Q492 615 492 610 Q490 607 489.5 603.5 Q489 600 487 597 Q481 585 474.5 573 Q468 561 462 549 Q457 541 452 532.5 Q447 524 442 515 Q437 506 431.5 497 Q426 488 421 480 Q416 472 412.5 464.5 Q409 457 404 449 Q398 438 391.5 427.5 Q385 417 379 406 Q374 398 370 390 Q366 382 361 374 Q356 368 353 362 Q350 356 346 350 Q341 341 335.5 331.5 Q330 322 324 312 L306 282 Q302 275 299 269 Q296 263 291 257 Q287 250 283.5 243.5 Q280 237 275 230 Q271 223 267.5 216.5 Q264 210 259 204 Q253 193 246 182 Q239 171 232 160 Q228 152 223.5 145.5 Q219 139 214 131 L199 107 Q194 99 188.5 91.5 Q183 84 176 76 Q170 66 163 56.5 Q156 47 148 38 Q136 25 121 11 Q114 1 97 -4 Q78 -10 66 11 Q65 14 64 17 Q63 20 61 24 Z " />
<glyph glyph-name="W" unicode="W" horiz-adv-x="647" d="M296 415 Q288 407 281 398 Q274 389 267 381 Q259 371 251 361.5 Q243 352 235 342 Q229 336 223.5 329.5 Q218 323 213 316 Q205 305 196.5 295.5 Q188 286 179 275 Q167 260 154.5 244.5 Q142 229 129 213 L72 147 Q64 139 56.5 131.5 Q49 124 39 118 L27 112 Q19 110 14 115 Q9 120 7 127 Q3 141 8 166 Q10 174 12 182.5 Q14 191 16 199 Q19 209 22.5 218.5 Q26 228 29 237 Q34 249 38.5 260.5 Q43 272 48 283 Q53 297 59 309.5 Q65 322 71 335 Q76 347 82 359 Q88 371 94 384 Q99 394 104 404 Q109 414 114 424 L135 466 Q138 472 141 478 Q144 484 146 491 Q158 514 167 536 Q171 544 173.5 550.5 Q176 557 178 564 Q184 581 183 595 Q182 604 173 605 Q167 606 161 604 Q155 602 150 600 Q139 595 128.5 589 Q118 583 108 575 Q96 567 85.5 557.5 Q75 548 64 538 Q41 515 28 498 Q7 474 -5 448 L-8 439 Q-10 434 -13 434 Q-19 435 -17 441 Q-15 450 -12 455 Q-6 469 2 481 Q10 493 19 504 Q24 510 29 516 Q34 522 39 527 Q54 544 71 559 Q79 566 86.5 572.5 Q94 579 102 585 Q113 593 123.5 599.5 Q134 606 146 611 Q159 616 168 616 Q172 616 175 615.5 Q178 615 182 614 Q189 611 191.5 605.5 Q194 600 195 594 Q196 586 194 578.5 Q192 571 190 563 L175 524 L163 497 Q158 487 153.5 477 Q149 467 144 457 L129 427 Q123 415 117.5 403.5 Q112 392 106 380 Q102 372 98 363 Q94 354 89 345 Q85 336 81.5 327.5 Q78 319 74 310 Q71 303 68 297 Q65 291 62 284 Q60 279 58 274.5 Q56 270 54 265 Q50 255 46 246 Q42 237 39 227 Q34 216 31 205 Q28 194 24 183 Q22 173 20 164 Q18 155 17 144 Q17 140 17 136 Q17 132 19 128 Q21 123 25 124 Q34 128 42 136 Q53 145 62 155 Q71 165 80 175 Q85 181 90 187 Q95 193 100 199 Q107 207 113.5 215 Q120 223 127 231 Q133 238 139 245 Q145 252 151 260 Q160 271 169 281.5 Q178 292 187 303 Q192 311 198 317.5 Q204 324 210 331 Q217 339 223.5 347.5 Q230 356 238 365 Q246 374 253.5 383 Q261 392 269 402 Q277 410 283.5 419 Q290 428 298 436 Q303 443 308.5 449 Q314 455 319 461 Q323 465 326 468 Q329 471 332 475 Q338 481 342 476 Q347 473 345 467 Q344 464 343 461.5 Q342 459 341 456 Q334 444 328 432 Q322 420 316 409 Q309 395 302 382 Q295 369 288 355 Q282 342 276 330 Q270 318 265 305 Q260 294 255.5 283 Q251 272 246 260 Q241 249 237 237.5 Q233 226 229 214 Q225 203 221.5 191 Q218 179 214 168 Q205 137 202 104 Q201 93 201 82.5 Q201 72 203 61 Q205 43 214 28 Q223 16 238 13 Q251 10 267 15 Q295 21 322 38 Q333 45 343.5 52 Q354 59 365 67 Q372 72 378.5 78 Q385 84 391 89 Q399 96 406.5 103 Q414 110 422 117 Q427 122 433 128 Q439 134 444 140 Q450 146 456 152 Q462 158 468 165 Q481 180 493.5 195.5 Q506 211 519 227 Q528 239 537 251 Q546 263 554 276 Q559 284 564 291 Q569 298 574 306 Q582 318 588.5 329.5 Q595 341 601 353 Q610 369 622 394 Q627 405 632 417 Q637 429 641 442 Q645 453 648 464.5 Q651 476 654 488 Q657 500 659.5 512 Q662 524 665 536 Q667 548 668.5 559.5 Q670 571 672 582 Q673 589 672.5 596 Q672 603 672 611 Q672 616 671 617 Q670 621 666 619 Q660 613 659 609 L659 606 Q657 601 653 602 Q649 602 649 607 Q648 610 649 613 Q650 616 651 619 Q656 627 664 630 Q676 635 680 623 Q683 618 683.5 612.5 Q684 607 684 602 Q683 592 682.5 582 Q682 572 680 562 Q678 545 674.5 528 Q671 511 667 494 Q665 480 661.5 467.5 Q658 455 654 442 Q650 427 644.5 413 Q639 399 632 385 Q626 372 619.5 359.5 Q613 347 606 333 L585 300 Q580 292 575.5 285 Q571 278 566 270 Q562 264 558 258.5 Q554 253 550 248 Q548 244 545.5 240.5 Q543 237 540 234 Q534 226 528 218 Q522 210 516 202 Q507 191 498.5 180.5 Q490 170 480 160 Q459 136 436 113 Q426 102 415.5 92.5 Q405 83 394 74 Q385 66 375.5 59 Q366 52 357 45 Q336 29 313 18 Q297 10 276 3 Q267 1 258 -0.5 Q249 -2 240 0 Q221 3 207 18 Q200 26 196.5 35 Q193 44 191 54 Q188 69 188 84 Q188 108 192 128 Q194 138 196.5 148 Q199 158 201 168 Q204 179 207 190 Q210 201 214 212 Q218 224 222 235.5 Q226 247 231 258 Q235 268 238.5 277.5 Q242 287 247 297 Q252 310 258 322 Q264 334 269 347 Q276 360 282.5 372.5 Q289 385 295 397 Q300 408 305.5 417.5 Q311 427 316 437 Q318 439 318 441 Q312 434 306.5 428 Q301 422 296 415 Z " />
<glyph glyph-name="X" unicode="X" horiz-adv-x="315" d="M142 320 Q138 315 134.5 311.5 Q131 308 127 304 Q119 296 112.5 289.5 Q106 283 99 275 L75 251 Q67 243 59.5 234.5 Q52 226 44 218 Q38 212 32 206 Q26 200 20 193 Q13 185 6 178.5 Q-1 172 -8 164 Q-17 154 -26 145 Q-35 136 -44 126 L-83 84 L-122 42 L-149 12 Q-160 -1 -171 -13.5 Q-182 -26 -191 -40 Q-193 -44 -195 -47.5 Q-197 -51 -199 -55 Q-199 -57 -200 -58 Q-202 -61 -206 -61 Q-210 -60 -210 -56 Q-208 -52 -207.5 -49 Q-207 -46 -205 -43 Q-200 -31 -188 -16 Q-174 0 -160.5 15.5 Q-147 31 -133 46 Q-122 59 -111 71 Q-100 83 -89 95 Q-78 106 -67 118 Q-56 130 -45 141 Q-34 153 -22.5 165 Q-11 177 0 188 Q13 202 26 215.5 Q39 229 52 243 Q63 255 74.5 266.5 Q86 278 97 290 Q105 298 113.5 306.5 Q122 315 130 324 L138 332 Q139 333 139 336 Q137 344 135.5 351.5 Q134 359 132 367 Q130 375 128.5 383 Q127 391 125 399 Q123 407 122.5 414.5 Q122 422 120 430 Q118 438 116 446.5 Q114 455 112 463 Q110 471 108.5 480 Q107 489 105 497 Q103 507 101 516.5 Q99 526 97 536 Q95 545 93 554 Q91 563 89 572 Q85 594 75 612 Q72 616 70 618.5 Q68 621 66 623 Q59 630 51 627 Q36 622 29 612 Q28 611 28 608 Q30 604 26 603 Q23 600 20 603 Q17 606 18 612 Q20 614 21.5 617 Q23 620 25 622 Q34 631 47 636 Q64 642 75 631 Q82 625 86 617.5 Q90 610 93 602 Q95 595 97.5 589 Q100 583 102 576 Q104 568 106 561 Q108 554 110 546 Q112 537 114 528 Q116 519 118 510 Q119 505 120 500.5 Q121 496 122 491 Q124 481 126 471 Q128 461 130 451 Q132 442 133.5 433 Q135 424 137 416 Q139 406 141 396 Q143 386 145 376 L151 346 Q155 349 158 353 Q168 363 178 373 Q188 383 198 394 Q209 405 218.5 415 Q228 425 239 436 Q255 451 270 466 Q285 481 300 496 Q319 514 337 531.5 Q355 549 374 566 L422 611 Q431 619 440.5 627.5 Q450 636 459 644 Q460 645 460.5 646 Q461 647 462 648 Q466 652 470 650 Q473 646 469 642 Q466 637 461 634 Q449 622 436.5 610.5 Q424 599 412 587 L352 530 Q341 520 331.5 510.5 Q322 501 312 491 Q301 481 291.5 471.5 Q282 462 272 452 L235 415 Q227 407 220 399.5 Q213 392 205 384 L174 353 Q169 348 165 343.5 Q161 339 156 334 Q154 332 154 329 Q156 318 158.5 307 Q161 296 164 285 Q166 274 168.5 263.5 Q171 253 173 242 Q175 230 178 218 Q181 206 183 194 Q187 178 190 163 Q193 148 197 132 Q200 119 203 106.5 Q206 94 210 81 Q214 67 217.5 53.5 Q221 40 225 26 Q227 19 231 13 Q233 8 239 11 Q244 13 245 10 Q249 6 244 3 Q239 -3 231 -1 Q223 1 220 9 Q216 18 213 27 Q210 36 207 45 Q205 50 204 55 Q203 60 201 65 Q199 74 196 83.5 Q193 93 191 103 Q188 117 184.5 132 Q181 147 177 161 Q174 174 171.5 186.5 Q169 199 166 213 Q163 226 160 238.5 Q157 251 154 265 Q151 279 148.5 292 Q146 305 143 319 Q142 319 142 320 Z " />
<glyph glyph-name="Y" unicode="Y" horiz-adv-x="404" d="M450 581 Q455 577 454 570 Q453 563 451 557 Q449 551 447 546 Q440 529 433.5 512 Q427 495 420 478 Q415 466 409.5 454.5 Q404 443 399 431 Q393 420 387.5 408 Q382 396 377 384 Q361 353 345 320 Q340 309 334 299 Q328 289 323 278 Q318 269 313 260.5 Q308 252 303 243 Q298 235 293 226 Q288 217 283 209 Q275 197 267 184.5 Q259 172 250 160 Q242 149 233.5 138.5 Q225 128 217 117 Q211 110 204.5 103.5 Q198 97 192 90 L190 88 Q195 88 199 87.5 Q203 87 208 87 L220 87 Q225 87 231 87 Q237 87 242 89 Q253 91 260 96 Q261 96 261.5 96.5 Q262 97 263 97 Q268 100 271 96 Q274 92 270 88 Q257 78 240 76 Q238 75 231 75 L230 75 L223 75 Q221 74 218 74.5 Q215 75 211 75 L202 75 L192 75 Q189 76 185.5 76 Q182 76 179 76 Q177 76 175 74 Q167 67 158.5 60.5 Q150 54 140 49 Q129 42 118 36.5 Q107 31 94 28 Q79 24 61 25 Q50 26 34 35 Q26 42 24.5 52 Q23 62 28 70 Q34 80 51 86 Q73 91 89 91 Q103 91 116 90.5 Q129 90 142 90 Q149 89 155.5 89 Q162 89 168 89 Q172 89 174 91 Q182 99 189 106.5 Q196 114 204 122 Q212 132 219.5 142 Q227 152 235 162 Q240 170 245 177 Q250 184 255 191 Q260 199 265 207.5 Q270 216 275 224 Q279 230 283 236.5 Q287 243 291 250 Q295 256 298 262 Q301 268 304 274 L340 343 Q352 366 363 389 Q368 398 371.5 407 Q375 416 380 424 Q386 438 392.5 452.5 Q399 467 405 481 Q410 492 414.5 502.5 Q419 513 424 524 Q427 532 430.5 541 Q434 550 437 558 Q437 559 437.5 559.5 Q438 560 438 562 Q438 564 439 565 Q438 564 436 562.5 Q434 561 432 559 Q424 551 416.5 542.5 Q409 534 401 526 Q395 519 389.5 512.5 Q384 506 378 499 Q368 488 358 476 Q348 464 338 452 Q327 440 317 427.5 Q307 415 297 403 L261 361 Q253 353 246.5 344 Q240 335 232 327 Q224 319 217 310.5 Q210 302 203 293 Q197 287 191 280.5 Q185 274 179 267 Q171 259 164.5 252.5 Q158 246 150 239 Q135 226 120 215 Q113 211 107 208 Q101 205 93 203 Q68 198 63 224 Q61 232 60.5 240 Q60 248 61 256 Q62 264 63 271.5 Q64 279 66 287 Q68 297 71 306 Q74 315 77 325 Q79 333 82 340 Q85 347 88 355 Q91 364 94.5 373 Q98 382 101 391 Q105 400 108.5 408.5 Q112 417 116 426 Q123 442 129.5 458 Q136 474 144 490 Q150 504 155.5 518.5 Q161 533 167 547 Q170 557 173 566.5 Q176 576 179 587 Q181 594 181.5 600.5 Q182 607 180 615 Q178 623 171 626 Q164 629 152 627 Q138 625 126 619.5 Q114 614 102 607 Q92 601 83 595 Q74 589 65 581 Q53 570 42.5 559 Q32 548 23 534 Q21 530 19.5 526.5 Q18 523 16 519 Q14 517 16 514 Q17 513 17 509 Q15 507 12 507 Q5 508 5 516 Q5 518 7 526 Q10 534 14 540 Q18 546 23 553 Q31 562 38.5 570.5 Q46 579 55 587 Q87 614 119 628 Q127 632 135.5 634.5 Q144 637 154 638 Q167 640 176 636 Q190 628 193 613 Q194 606 193.5 599.5 Q193 593 192 587 Q188 567 180 546 Q176 535 172.5 525 Q169 515 164 504 Q160 494 156 484.5 Q152 475 147 465 Q143 456 140 447 Q137 438 132 430 Q130 423 127 417 Q124 411 121 404 Q119 397 116 390.5 Q113 384 111 377 L90 320 Q85 306 81 293 Q77 280 75 266 Q70 246 74 229 L74 227 Q79 213 91 216 Q97 218 102.5 221 Q108 224 113 227 Q123 234 132 241 Q141 248 149 256 Q158 265 167 274 Q176 283 184 292 Q194 303 203.5 313.5 Q213 324 222 335 Q230 345 239 354.5 Q248 364 256 374 Q266 385 275.5 397 Q285 409 295 420 Q303 429 310 438 Q317 447 324 455 L363 500 Q375 515 387.5 529.5 Q400 544 413 558 L416 561 L418 563 L422 567 Q427 572 430.5 575 Q434 578 437 580 L441 582 L442 582 Q442 583 444 583 Q448 583 450 581 Z M151 71 Q151 73 155 74 Q156 75 156.5 75 Q157 75 158 76 L152 76 Q150 76 148 76.5 Q146 77 144 77 Q134 77 125 77.5 Q116 78 106 78 Q78 80 57 74 Q46 71 39 63 L36 57 Q35 48 43 43 Q53 36 67 36 Q88 38 107 45 Q119 50 129.5 56.5 Q140 63 151 71 Z " />
<glyph glyph-name="Z" unicode="Z" horiz-adv-x="254" d="M216 617 Q227 619 236.5 614 Q246 609 245 596 Q244 584 237.5 572.5 Q231 561 224 551 Q212 533 191 511 Q158 472 124 434.5 Q90 397 62 352 Q63 351 63.5 351 Q64 351 65 350 L83 344 Q100 339 116 334 Q132 329 147 321 Q158 315 167.5 307.5 Q177 300 183 289 Q197 268 195 242 Q193 221 185.5 202 Q178 183 167 164 Q159 149 148 135 Q137 121 125 107 Q120 102 115 96.5 Q110 91 105 86 Q98 79 91 72.5 Q84 66 77 60 Q68 52 58.5 45.5 Q49 39 39 31 Q38 30 37 29.5 Q36 29 35 28 Q38 27 46 27 L73 24 Q78 24 77 17 Q76 14 74 14 Q73 13 70 13 L69 13 Q61 14 53 14.5 Q45 15 37 16 Q33 16 29.5 16.5 Q26 17 22 17 Q18 17 17 16 Q10 12 4 8 Q-2 4 -9 1 Q-20 -5 -30.5 -10 Q-41 -15 -52 -20 Q-61 -25 -69.5 -28 Q-78 -31 -87 -34 Q-105 -41 -128 -44 Q-136 -45 -143.5 -46 Q-151 -47 -158 -47 Q-167 -47 -176 -46 Q-185 -45 -193 -42 Q-205 -37 -210 -28 Q-217 -12 -207 4 Q-201 14 -192.5 19.5 Q-184 25 -174 29 Q-159 35 -144 36.5 Q-129 38 -113 38 Q-106 38 -99.5 38 Q-93 38 -86 37 Q-78 37 -70.5 36.5 Q-63 36 -55 35 Q-47 34 -38.5 33.5 Q-30 33 -22 33 Q-14 32 -5 31.5 Q4 31 13 30 Q16 30 17 31 Q26 37 34.5 43 Q43 49 52 56 Q60 62 67 68 Q74 74 82 81 Q87 86 92.5 91 Q98 96 103 101 Q122 120 141 147 Q162 176 173 205 Q176 214 178.5 222.5 Q181 231 182 239 Q183 264 173 280 Q159 302 137 312 Q116 322 93 328 Q86 330 79.5 332 Q73 334 65 336 Q63 338 60 338.5 Q57 339 55 341 Q54 341 53 342 Q52 342 52 343 Q46 348 48.5 354.5 Q51 361 53 363 L53 364 Q67 385 82.5 404.5 Q98 424 114 444 Q130 462 146.5 480 Q163 498 179 517 Q197 537 209 554 Q213 559 216.5 564 Q220 569 223 574 Q225 579 227.5 584.5 Q230 590 231 595 Q232 601 229 602.5 Q226 604 221 604 Q216 604 211 602.5 Q206 601 204 600 Q192 595 180 590.5 Q168 586 156 581 Q110 560 66 533 Q61 530 57.5 536 Q54 542 60 545 Q86 562 113 575.5 Q140 589 168 601 Q175 603 181.5 605.5 Q188 608 194 611 Q205 616 216 617 Z M-21 8 Q-16 10 -11.5 13 Q-7 16 -2 19 Q-3 19 -16 20 Q-29 21 -37 22 Q-45 23 -54 23 Q-63 23 -72 24 Q-84 25 -96 25.5 Q-108 26 -120 26 Q-131 26 -141.5 25 Q-152 24 -163 21 Q-173 18 -181 13.5 Q-189 9 -196 1 Q-208 -13 -196 -25 Q-192 -29 -186.5 -30.5 Q-181 -32 -175 -34 Q-155 -37 -128 -32 Q-114 -30 -100 -25.5 Q-86 -21 -72 -16 Q-47 -6 -21 8 Z " />
<glyph glyph-name="bracketleft" unicode="&#x5b;" horiz-adv-x="173" d="M-15 63 L-11 63 Q-2 65 6.5 67 Q15 69 24 71 Q29 72 34.5 73.5 Q40 75 45 74 L47 74 Q52 72 52 68 Q52 63 46 63 Q37 61 28 58.5 Q19 56 9 54 Q-2 50 -14 50 L-17 50 Q-30 51 -28 66 Q-26 72 -25 78 Q-24 84 -22 89 Q-19 100 -15.5 110.5 Q-12 121 -9 132 Q-4 146 0.5 158.5 Q5 171 10 185 Q14 196 18 207 Q22 218 26 229 L41 271 Q46 282 49.5 292.5 Q53 303 57 314 Q62 325 65.5 335 Q69 345 74 356 Q79 367 82.5 376.5 Q86 386 91 397 Q95 408 99 417.5 Q103 427 108 438 Q113 450 118 462 Q123 474 128 486 Q132 494 135.5 503 Q139 512 143 521 Q145 526 146 529.5 Q147 533 149 538 L149 541 Q144 546 151 550 Q153 551 153 551 Q154 555 158 555 Q162 555 163 552 Q163 551 164 551 Q172 552 180 553 Q188 554 196 555 Q199 556 202 556 Q205 556 208 557 Q215 557 215 552 Q216 548 210 546 Q198 544 186.5 542.5 Q175 541 164 539 Q162 539 160 537 Q157 528 154 519 Q151 510 147 501 L129 456 Q124 443 118.5 430.5 Q113 418 108 406 Q105 397 101.5 388 Q98 379 94 370 L79 331 Q73 316 67 300.5 Q61 285 56 270 Q51 257 46.5 244.5 Q42 232 37 219 Q32 207 28.5 195 Q25 183 20 171 Q15 157 10.5 143 Q6 129 1 115 Q-3 105 -5.5 95 Q-8 85 -11 75 Q-13 72 -15 63 Z " />
<glyph glyph-name="backslash" unicode="&#x5c;" horiz-adv-x="195" d="M120 83 Q120 80 119 79 Q118 75 113 75 Q110 75 108 80 Q107 85 107 90.5 Q107 96 105 101 Q104 109 103 116.5 Q102 124 101 132 Q99 137 98.5 143 Q98 149 97 154 L91 187 Q90 194 89 201 Q88 208 87 216 L78 270 Q76 278 75 286 Q74 294 72 302 Q70 311 69 319.5 Q68 328 67 336 L61 372 L55 411 Q53 420 52 429.5 Q51 439 49 449 Q47 456 46.5 462.5 Q46 469 44 477 Q42 492 39 507 Q36 522 33 538 Q32 543 31.5 547.5 Q31 552 30 557 Q29 564 34 564 Q39 566 40 560 Q42 554 43 548 Q44 542 46 535 Q48 522 51 509.5 Q54 497 56 484 Q58 473 59.5 462.5 Q61 452 63 441 Q64 436 65 430.5 Q66 425 67 420 Q68 413 69 406.5 Q70 400 71 393 Q73 385 73.5 378 Q74 371 76 363 Q78 349 80 336 Q82 323 84 309 L93 258 L99 222 Q101 210 102.5 198 Q104 186 106 174 Q108 161 110.5 148.5 Q113 136 115 122 Q116 114 117 106.5 Q118 99 119 91 Q120 89 120 83 Z " />
<glyph glyph-name="bracketright" unicode="&#x5d;" horiz-adv-x="133" d="M-10 70 L-3 70 Q4 70 4 64 Q2 59 -3 58 Q-6 58 -10 57.5 Q-14 57 -19 56 Q-28 54 -37 53 Q-46 52 -55 51 Q-60 51 -61 52 Q-65 52 -65 57 Q-65 61 -61 62 Q-58 63 -55 63 Q-52 63 -49 64 Q-42 66 -36 66.5 Q-30 67 -24 69 Q-22 69 -22 71 Q-15 91 -8.5 109.5 Q-2 128 5 148 Q10 159 13.5 169.5 Q17 180 21 191 Q26 203 29.5 215 Q33 227 37 239 Q42 251 46 263.5 Q50 276 54 288 Q59 300 62.5 311.5 Q66 323 70 335 Q74 344 77 353.5 Q80 363 83 372 Q88 386 93 399.5 Q98 413 103 427 Q106 437 109.5 446.5 Q113 456 117 466 Q122 477 125.5 488.5 Q129 500 134 511 Q136 519 139 527 Q142 535 144 543 Q145 543 145 545 Q140 544 136 544 Q132 544 128 543 Q122 542 116 542 Q110 542 104 541 Q101 541 100 542 Q95 542 97 547 Q97 551 101 551 Q108 552 114.5 552.5 Q121 553 128 553 Q133 554 137 554.5 Q141 555 144 555 L154 555 Q161 555 159 549 Q157 542 155 536 Q153 530 151 524 Q149 519 147 512.5 Q145 506 143 499 Q138 485 133 471 Q128 457 123 443 Q117 426 110.5 408 Q104 390 98 372 Q93 360 89 347.5 Q85 335 80 322 L62 271 Q56 253 50 235 Q44 217 37 199 Q29 178 21.5 157 Q14 136 6 114 L-9 72 Q-10 71 -10 70 Z " />
<glyph glyph-name="asciicircum" unicode="&#x5e;" horiz-adv-x="115" d="M114 497 L106 489 Q100 483 94 476.5 Q88 470 83 464 Q78 459 74.5 454 Q71 449 66 444 L65 443 Q62 439 57 442 Q54 445 57 450 Q60 454 63 458 Q66 462 70 466 L103 502 Q106 505 109 508 Q112 511 116 514 Q120 518 124 516 Q130 513 129 506 Q128 501 127.5 497 Q127 493 125 488 Q123 475 120.5 462 Q118 449 116 436 Q115 432 114 431 Q113 427 108 429 Q105 429 105 433 Q105 437 105 440.5 Q105 444 106 449 Q108 460 110 471 Q112 482 114 493 Q114 494 114.5 495 Q115 496 115 497 L114 497 Z " />
<glyph glyph-name="underscore" unicode="&#x5f;" horiz-adv-x="254" d="M156 176 L95 176 Q81 176 68.5 175.5 Q56 175 42 174 Q35 174 28 173.5 Q21 173 14 173 Q12 173 9.5 173.5 Q7 174 5 174 Q0 176 0 181 Q2 186 6 186 Q19 188 31.5 189 Q44 190 57 191 Q68 192 79 191.5 Q90 191 101 191 L134 191 Q142 191 151 191 Q160 191 168 190 L170 190 Q177 190 177 183 Q177 177 169 177 L156 177 L156 176 Z " />
<glyph glyph-name="grave" unicode="&#x60;" horiz-adv-x="60" d="M72 478 Q69 475 68 475 Q65 472 63 475 Q60 478 59 481 Q57 486 56 492 Q55 498 54 504 Q54 507 53.5 510 Q53 513 53 515 L53 519 Q53 524 58 524 Q62 524 63 520 Q64 519 64 516 Q65 510 65.5 503.5 Q66 497 68 490 Q68 489 70 483 Q71 483 72 478 Z " />
<glyph glyph-name="a" unicode="a" horiz-adv-x="164" d="M98 199 Q94 194 91 191 Q88 188 84 184 Q78 177 71.5 171.5 Q65 166 57 162 Q48 156 37 156 Q22 156 17 170 Q15 177 14.5 184 Q14 191 15 198 Q16 204 18 211.5 Q20 219 22.5 226 Q25 233 26.5 238.5 Q28 244 28 244 L12 225 Q11 223 5 217 Q-3 208 -13 202 Q-23 197 -29 198 Q-41 201 -42 214 Q-43 223 -40 236 Q-35 253 -23.5 273 Q-12 293 4 303 Q15 310 25.5 307 Q36 304 40 290 Q40 288 40.5 287 Q41 286 41 284 L44 287 Q47 293 52 298 L52 299 Q53 300 55.5 301.5 Q58 303 61 301 Q69 299 64 293 Q63 291 62 288 Q61 285 59 281 Q57 275 54 269.5 Q51 264 49 258 Q45 247 41.5 237 Q38 227 34 217 Q29 199 29 189 Q29 180 30 178 Q31 168 41 171 Q46 172 50.5 174.5 Q55 177 59 180 Q73 190 87 207 Q97 218 106 229 Q115 240 125 251 Q133 262 142 272.5 Q151 283 159 294 Q160 295 161 296.5 Q162 298 164 299 Q166 301 170 298 Q172 296 169.5 292.5 Q167 289 164 284 Q159 276 153.5 269 Q148 262 143 255 Q134 243 124 230 Q114 217 106 208 Q104 206 102.5 203.5 Q101 201 99 199 L98 199 Z M-1 228 Q7 237 14 246 Q21 255 28 265 Q29 265 29 267 L29 277 L29 287 Q26 299 15 293 Q6 288 -2 279 Q-10 270 -16 259 Q-22 248 -25.5 237 Q-29 226 -29 217 Q-29 215 -28 212 Q-27 209 -24 211 Q-23 211 -22.5 211.5 Q-22 212 -21 212 Q-15 215 -10.5 219 Q-6 223 -1 228 Z " />
<glyph glyph-name="b" unicode="b" horiz-adv-x="179" d="M185 299 Q185 298 186 296 Q187 294 185 292 Q184 291 176.5 284.5 Q169 278 159 270 Q149 262 138.5 254 Q128 246 121 241 Q97 223 67 214 Q63 212 60 209 Q43 184 22 174 Q9 165 -3 165 Q-7 164 -10 165 Q-23 168 -20 181 Q-17 204 5 210 Q13 213 21 215 Q29 217 37 219 Q42 221 46 222 Q50 223 54 224 L56 226 Q61 234 65.5 242.5 Q70 251 73 260 Q75 265 76 270.5 Q77 276 75 282 Q73 290 65 287 Q61 285 58 283 Q55 281 51 279 Q36 267 24 252 Q18 244 12 236 Q6 228 0 220 Q-5 214 -11 203 Q-12 202 -12.5 201 Q-13 200 -15 199 Q-19 197 -22 198.5 Q-25 200 -25 205 Q-25 209 -24 212.5 Q-23 216 -22 221 Q-19 232 -16.5 242 Q-14 252 -11 263 Q-10 268 -6.5 281 Q-3 294 1.5 308 Q6 322 10 335 Q14 348 16 354 Q20 367 24 380 Q28 393 33 406 Q37 417 40.5 429 Q44 441 49 453 Q54 466 58.5 478.5 Q63 491 68 503 Q75 520 82 535.5 Q89 551 98 566 Q105 577 112.5 587.5 Q120 598 128 606 Q133 612 140 615 Q140 616 141 616 Q142 617 144 617 Q149 619 153.5 615 Q158 611 159 604 Q160 591 156 578 Q154 566 150.5 555.5 Q147 545 143 535 Q138 525 133.5 515 Q129 505 124 494 Q120 486 116.5 478 Q113 470 108 462 Q103 453 98.5 443.5 Q94 434 89 425 Q84 416 78.5 406.5 Q73 397 67 387 Q66 385 65.5 383.5 Q65 382 63 380 Q59 372 55 365.5 Q51 359 47 351 Q42 345 38.5 338.5 Q35 332 31 325 Q27 319 23 313.5 Q19 308 15 303 L15 302 Q12 293 9.5 284 Q7 275 4 266 Q2 260 0 252.5 Q-2 245 -2 239 Q-1 241 0 242 Q1 243 2 245 Q9 253 15.5 261 Q22 269 29 277 Q34 282 40 287 Q46 292 53 296 Q61 301 70 301 Q80 301 84 294 Q91 287 89 272 Q88 253 77 235 Q76 235 76 233 L76 232 Q81 234 84.5 236 Q88 238 93 240 Q109 248 123.5 258 Q138 268 152 279 Q157 282 166 289 Q175 296 179 300 Q181 301 182.5 300 Q184 299 185 299 Z M27 351 Q26 346 24.5 341 Q23 336 22 332 L23 333 Q23 334 24 336 Q29 343 36 355.5 Q43 368 48 376 Q56 390 63.5 403.5 Q71 417 79 431 Q84 440 88.5 449 Q93 458 98 467 Q104 478 109.5 489.5 Q115 501 120 512 Q127 526 133 541 Q139 556 143 572 Q145 580 146.5 586.5 Q148 593 148 601 Q148 602 147.5 603 Q147 604 147 606 Q146 605 145.5 605 Q145 605 144 604 Q142 602 139 600 Q136 598 134 596 Q125 586 118 575 Q111 564 104 552 Q87 520 73 482 Q71 476 69 470.5 Q67 465 65 460 Q63 455 60 447.5 Q57 440 55 432 Q53 429 52.5 425.5 Q52 422 50 419 Q47 409 43.5 399.5 Q40 390 37 380 Q32 363 27 351 Z M23 189 Q35 198 42 206 Q37 205 33 204 Q29 203 25 202 Q20 200 15 199 Q10 198 5 196 Q-5 193 -8 182 Q-10 174 -2 177 Q11 180 23 189 Z " />
<glyph glyph-name="c" unicode="c" horiz-adv-x="132" d="M-33 257 Q-26 273 -15.5 288 Q-5 303 12 303 Q24 303 29 289 Q31 280 28 276 Q28 274 27.5 273.5 Q27 273 27 272 Q24 269 20 270 Q17 272 17 275 Q17 277 17.5 279.5 Q18 282 18 284 Q18 292 10 289 Q-6 278 -14.5 258.5 Q-23 239 -24.5 221 Q-26 203 -21 191 Q-16 179 -5 184 Q1 186 5.5 188.5 Q10 191 15 194 Q24 200 31.5 207 Q39 214 47 222 Q55 229 62.5 236.5 Q70 244 78 251 Q86 259 95 266 Q104 273 112 281 Q116 285 123 292 Q130 299 132 299 Q137 302 140 297 Q143 294 136 290 Q135 289 127 281 Q119 273 109 263.5 Q99 254 89.5 244.5 Q80 235 74 229 Q66 221 57.5 213.5 Q49 206 41 198 Q29 186 18 180 Q12 176 5.5 173 Q-1 170 -9 170 Q-28 169 -35 187 Q-41 204 -39.5 225 Q-38 246 -33 257 Z " />
<glyph glyph-name="d" unicode="d" horiz-adv-x="178" d="M186 299 Q189 298 184 290 Q175 277 166.5 264.5 Q158 252 149 239 Q144 232 139.5 225.5 Q135 219 130 212 L110 182 Q102 172 96 164.5 Q90 157 81 148 Q75 142 69 137 Q63 132 55 128 Q38 119 26 131 Q21 135 16 149 Q15 152 15 155 Q15 158 14 160 Q13 172 16.5 193 Q20 214 25 237 Q20 232 16.5 227 Q13 222 8 217 Q1 208 -10 202 Q-20 197 -26 198 Q-36 199 -39 214 Q-41 227 -38 236 Q-36 245 -31.5 256.5 Q-27 268 -20 278.5 Q-13 289 -4.5 296.5 Q4 304 14 306 Q32 309 39 296 L44 316 Q46 321 46 321 L58 360 Q63 373 67 386 Q71 399 76 413 Q79 421 82.5 430 Q86 439 89 447 Q92 456 95.5 465 Q99 474 103 483 Q114 511 127 533 Q132 541 136.5 548 Q141 555 148 561 Q153 566 155 567 Q157 569 162.5 570.5 Q168 572 171 566 Q173 561 173 554 Q173 547 173 545 Q171 532 168 517 Q165 502 160 489 Q158 481 155 473.5 Q152 466 149 458 Q147 451 134.5 422 Q122 393 105 363 Q99 350 90 336 Q89 335 89 334.5 Q89 334 88 333 Q79 317 68 300 Q57 283 45 265 Q43 259 42 255 Q40 249 38 238 Q36 227 34 219 Q34 218 33.5 217.5 Q33 217 33 215 L33 214 Q31 203 29 191 Q27 179 28 167 Q28 153 32 145 Q36 136 45 139 Q51 141 55.5 144 Q60 147 65 151 Q90 174 108 201 Q115 211 122 220 Q129 229 136 239 Q142 247 148 255.5 Q154 264 159 272 L177 296 Q182 302 186 299 Z M54 298 L54 299 Q62 313 71 327 Q80 341 88 357 Q102 383 118 415.5 Q134 448 146 483 Q160 525 163 559 Q162 557 161 556.5 Q160 556 159 555 Q152 549 147.5 541 Q143 533 138 525 Q133 517 129 508 Q125 499 120 490 Q115 478 110.5 466 Q106 454 101 442 Q98 434 95 425 Q92 416 89 408 Q86 400 83 391.5 Q80 383 78 374 Q74 363 70.5 351 Q67 339 63 328 Q61 322 59.5 316 Q58 310 56 303 L55 302 Q55 300 54 299 L54 298 Z M1 228 Q9 237 16 246 Q23 255 30 265 Q31 265 31 267 L31 277 Q31 284 30 286 Q25 298 15 291 Q5 284 -5 269 Q-15 254 -21.5 238 Q-28 222 -26 217 L-26 214 Q-24 209 -21 211 Q-20 211 -19.5 211.5 Q-19 212 -18 212 Q-10 216 1 228 Z " />
<glyph glyph-name="e" unicode="e" horiz-adv-x="152" d="M161 298 Q163 295 160 292 Q158 290 156.5 288 Q155 286 153 284 Q144 275 135.5 265.5 Q127 256 119 247 Q111 238 102.5 229 Q94 220 85 212 Q76 201 65 192 Q54 182 43 174 Q32 166 19 161 Q3 154 -12 159 Q-20 162 -28 174 Q-37 193 -32 216 Q-31 224 -30 231 Q-29 238 -27 245 Q-26 249 -25 252.5 Q-24 256 -22 261 Q-15 280 -6 293 Q1 303 10 308 Q18 314 27.5 311 Q37 308 40 297 Q45 286 37 271 Q33 264 28 259.5 Q23 255 18 251 Q12 248 5.5 247 Q-1 246 -7 251 L-10 254 Q-12 249 -13 245 Q-14 241 -15 239 Q-16 234 -17 228.5 Q-18 223 -19 218 Q-20 210 -20 202 Q-20 194 -18 186 Q-18 186 -16 180 Q-9 168 4 171 Q17 175 26 180 Q50 194 70 215 Q85 230 99.5 245.5 Q114 261 129 277 Q135 282 141 289 Q147 296 154 300 Q158 301 161 298 Z M14 296 Q7 289 2 283.5 Q-3 278 -4 266 Q-4 254 9 260 Q25 270 30 289 Q29 292 28.5 294.5 Q28 297 24 299 Q20 302 14 296 Z " />
<glyph glyph-name="f" unicode="f" horiz-adv-x="124" d="M-63 126 Q-68 127 -71 128 Q-74 129 -78 127 Q-83 125 -86 127 Q-92 127 -93 133 Q-93 140 -87 140 Q-79 142 -72 145 Q-65 148 -57 151 L-54 154 Q-49 168 -44 182 Q-39 196 -34 210 Q-29 225 -23 240 Q-17 255 -12 270 Q-7 282 -2.5 294 Q2 306 7 318 Q12 330 16 342 Q20 354 25 367 Q31 382 37 397.5 Q43 413 49 429 Q55 446 61.5 462 Q68 478 74 495 Q78 504 81.5 512.5 Q85 521 88 530 Q93 543 98 556 Q103 569 108 582 Q111 590 114.5 598.5 Q118 607 121 615 L124 624 Q126 629 130 629 Q137 628 135 622 L129 604 L108 547 Q104 536 100 526.5 Q96 517 92 506 Q87 493 82 480 Q77 467 72 454 Q66 437 59.5 420.5 Q53 404 47 387 L32 348 Q27 337 23 325 Q19 313 14 302 Q11 294 8 286 Q5 278 2 270 Q-3 255 -9 240.5 Q-15 226 -20 212 Q-24 201 -27 191 Q-30 181 -34 171 Q-35 169 -35.5 166 Q-36 163 -37 161 Q-29 166 -22 171 Q-15 176 -7 181 Q-2 185 3 188.5 Q8 192 13 197 Q18 202 22.5 206 Q27 210 32 215 Q41 223 50.5 231.5 Q60 240 69 249 Q75 254 83.5 262 Q92 270 100 277.5 Q108 285 113.5 290.5 Q119 296 120 297 Q122 298 123 299 Q124 300 126 300 Q131 302 132 297 Q133 295 130 292 Q127 289 125 288 Q121 284 109.5 271.5 Q98 259 91 252 Q83 244 75.5 237 Q68 230 60 222 Q52 215 45.5 208.5 Q39 202 32 195 Q19 182 5.5 171 Q-8 160 -23 151 L-41 142 Q-44 140 -44.5 137.5 Q-45 135 -46 133 Q-48 131 -45 131 Q-31 124 -23 111 Q-13 96 -11 79 Q-9 65 -11 51.5 Q-13 38 -16 24 Q-19 13 -22.5 4 Q-26 -5 -31 -15 Q-35 -22 -39 -28.5 Q-43 -35 -49 -41 Q-55 -50 -67 -54 Q-78 -58 -85.5 -52 Q-93 -46 -95 -35 Q-97 -23 -95 -11 Q-93 0 -91 11 Q-89 22 -87 33 Q-85 44 -82 55.5 Q-79 67 -76 79 Q-74 89 -71 98 Q-68 107 -65 117 Q-65 118 -63 126 Z M-51 119 Q-53 111 -55.5 103 Q-58 95 -60 87 Q-64 72 -67.5 57.5 Q-71 43 -74 29 Q-76 16 -78.5 4 Q-81 -8 -81 -20 Q-81 -23 -80.5 -27 Q-80 -31 -79 -36 Q-78 -43 -71 -40 Q-69 -38 -66.5 -36.5 Q-64 -35 -62 -33 Q-56 -28 -52 -21.5 Q-48 -15 -44 -8 Q-39 1 -35.5 10 Q-32 19 -29 28 Q-23 51 -23 73 Q-24 82 -26 89.5 Q-28 97 -33 104 Q-37 112 -50 120 L-51 119 Z " />
<glyph glyph-name="g" unicode="g" horiz-adv-x="177" d="M40 257 Q28 239 7 217 Q-1 208 -11 202 Q-21 197 -27 198 Q-37 199 -40 214 Q-42 240 -28.5 264.5 Q-15 289 4 303 Q15 311 26.5 307 Q38 303 42 291 Q43 289 43 287.5 Q43 286 44 284 Q45 285 45 285.5 Q45 286 46 287 Q48 290 50.5 293.5 Q53 297 56 301 Q61 306 66 305 Q72 300 71 295 Q69 288 67.5 281.5 Q66 275 64 268 Q62 260 59 252 Q56 244 54 236 Q51 226 48 216.5 Q45 207 42 198 Q40 190 37 182.5 Q34 175 32 167 Q29 159 26 150.5 Q23 142 20 133 Q19 132 19 131 L38 150 Q47 159 56.5 168.5 Q66 178 75 189 Q95 209 114 231 L144 264 L171 294 Q173 296 176.5 298.5 Q180 301 182 299 Q190 295 183 288 Q176 280 169.5 273 Q163 266 156 259 Q149 251 142 242.5 Q135 234 127 226 Q121 219 115 212.5 Q109 206 102 198 Q95 190 88 182.5 Q81 175 73 167 Q65 158 57 149.5 Q49 141 41 133 Q33 124 24.5 115.5 Q16 107 8 99 Q7 98 6.5 97 Q6 96 5 95 Q0 82 -5 69 Q-10 56 -15 43 Q-18 37 -20.5 31 Q-23 25 -26 18 Q-32 5 -39 -7.5 Q-46 -20 -55 -32 Q-63 -44 -73 -53 Q-83 -62 -97 -67 Q-113 -72 -122 -71 Q-133 -69 -138.5 -60.5 Q-144 -52 -144 -43 Q-144 -23 -128 -7 Q-122 1 -115 7 Q-108 13 -100 20 Q-93 26 -86 32.5 Q-79 39 -72 45 L-33 81 Q-25 88 -18.5 94 Q-12 100 -5 107 Q-3 109 -2 112 Q4 130 10.5 148 Q17 166 23 184 Q27 195 30.5 205 Q34 215 37 226 Q41 237 44 248.5 Q47 260 51 271 L51 272 Q49 268 47 265.5 Q45 263 40 257 Z M-16 76 Q-18 75 -23 70 L-53 43 Q-60 37 -66 31.5 Q-72 26 -79 20 Q-89 12 -98.5 3 Q-108 -6 -117 -14 Q-129 -25 -132 -41 Q-132 -46 -130.5 -51 Q-129 -56 -124 -58 Q-120 -61 -110 -59 Q-96 -56 -85 -47.5 Q-74 -39 -66 -27 L-51 -3 Q-48 3 -45 8.5 Q-42 14 -39 20 Q-36 27 -33.5 33.5 Q-31 40 -28 46 L-16 76 Z M-21 211 Q-10 217 1 228 Q9 237 16 246 Q23 255 31 265 Q33 269 33 276.5 Q33 284 31 288 Q27 299 19.5 295.5 Q12 292 4 283 Q-4 274 -10.5 263.5 Q-17 253 -19 248 Q-21 245 -23.5 238 Q-26 231 -27 224 Q-28 217 -27 212.5 Q-26 208 -21 211 Z " />
<glyph glyph-name="h" unicode="h" horiz-adv-x="180" d="M187 299 Q191 296 188 291 Q182 283 169 269 Q156 255 147 245 Q134 232 122 218.5 Q110 205 96 190 Q88 182 78 177 Q57 169 56 191 Q56 210 62.5 227.5 Q69 245 75 263 Q77 268 78.5 273 Q80 278 82 287 Q75 282 71 279 Q67 276 59 268 Q53 262 47 255.5 Q41 249 35 242 Q30 236 24.5 230 Q19 224 14 217 Q9 210 3 203 Q-3 196 -8 189 L-10 187 Q-13 183 -15.5 180 Q-18 177 -21 174 L-22 173 Q-27 168 -32 171 Q-39 172 -37 182 Q-35 188 -33 195 Q-31 202 -29 210 Q-28 215 -22 234.5 Q-16 254 -9 276 Q-2 298 4 316 Q10 334 11 335 Q15 348 19 360.5 Q23 373 27 387 Q32 398 35.5 410 Q39 422 44 434 Q49 447 53.5 459.5 Q58 472 63 484 Q70 501 77 516.5 Q84 532 93 547 Q96 553 100 559 Q104 565 108 571 Q112 576 115 579.5 Q118 583 122 587 Q125 590 129.5 593.5 Q134 597 139 598 Q152 600 153 585 Q154 576 151 559 Q149 548 145.5 537.5 Q142 527 138 516 Q133 506 128.5 496 Q124 486 119 475 Q115 467 111 459 Q107 451 103 443 Q98 433 93 424 Q88 415 83 406 Q81 402 79.5 399 Q78 396 76 392 Q65 373 50.5 347.5 Q36 322 25 306 Q21 299 17.5 295 Q14 291 9 283 Q1 260 -6 238 Q-13 216 -21 194 L-21 193 L-6 211 Q2 221 12 234 Q22 247 33 259.5 Q44 272 56 283 Q68 294 80 300 Q86 303 91 299 Q96 295 94 288 Q88 269 82 249.5 Q76 230 71 213 Q71 212 70 207 Q69 202 69 197.5 Q69 193 70 190 Q71 187 74 189 Q79 192 83.5 196.5 Q88 201 93 206 Q105 218 116.5 230.5 Q128 243 139 254 Q149 264 158 274.5 Q167 285 180 298 Q183 303 187 299 Z M120 566 Q108 551 99 533 Q91 517 83.5 500 Q76 483 68 463 Q66 458 63.5 452.5 Q61 447 59 441 Q57 434 54.5 427.5 Q52 421 49 413 Q48 410 47 406.5 Q46 403 45 400 Q41 390 38 380.5 Q35 371 32 361 Q30 353 27 346 Q24 339 22 332 Q18 322 16 313 Q22 322 30 335.5 Q38 349 43 357 Q51 371 58.5 384.5 Q66 398 74 412 Q79 420 83.5 429 Q88 438 93 449 Q105 471 115 493 Q122 507 127.5 522 Q133 537 138 553 Q145 570 142 587 Q139 584 135.5 582 Q132 580 129 576 Q127 574 124.5 571 Q122 568 120 566 Z " />
<glyph glyph-name="i" unicode="i" horiz-adv-x="115" d="M123 298 Q125 295 122 292 Q120 289 112 281 Q104 273 96 264 Q88 255 80 247 Q73 240 66.5 233.5 Q60 227 52 220 Q46 214 40 208 Q34 202 27 197 Q20 192 12.5 187 Q5 182 -3 180 Q-14 179 -21 183 Q-28 188 -29 198 Q-30 199 -30 206 Q-30 214 -28 222.5 Q-26 231 -24 239 Q-19 256 -13 271.5 Q-7 287 1 302 Q2 303 2.5 304 Q3 305 4 306 Q7 309 10 307 Q15 306 13 301 Q12 299 11.5 297 Q11 295 10 293 Q3 277 -3 261 Q-9 245 -13 228 Q-17 219 -17 203 L-17 200 Q-14 191 -6 193 Q3 196 15 204 L42 228 Q51 236 59.5 244.5 Q68 253 77 261 Q86 270 94.5 279 Q103 288 112 297 Q114 299 117 300 Q120 301 123 298 Z M29 379 Q25 382 29 386 L35 398 Q37 401 38 404.5 Q39 408 41 411 Q42 412 43 412.5 Q44 413 46 415 Q47 414 48 413.5 Q49 413 50 412 Q51 410 50.5 409 Q50 408 50 406 Q48 404 46 399 Q44 395 42.5 391.5 Q41 388 39 384 L36 381 Q34 377 29 379 Z " />
<glyph glyph-name="j" unicode="j" horiz-adv-x="133" d="M140 299 Q144 296 141 291 Q140 289 133 282 Q125 272 116.5 263 Q108 254 100 245 Q92 235 83 225.5 Q74 216 66 206 Q59 199 52.5 192.5 Q46 186 40 179 Q32 171 25 164 Q18 157 11 149 L-16 122 Q-22 116 -28 110.5 Q-34 105 -41 99 L-42 98 Q-42 97 -43 95 L-55 56 Q-59 45 -63 35 Q-67 25 -71 14 Q-74 6 -77.5 -1.5 Q-81 -9 -85 -17 Q-91 -28 -97.5 -38 Q-104 -48 -112 -58 Q-124 -73 -137 -86 Q-143 -91 -149.5 -95.5 Q-156 -100 -164 -102 Q-174 -105 -181 -100.5 Q-188 -96 -189 -85 Q-190 -75 -187 -58 Q-180 -36 -168 -17 Q-159 0 -147.5 13.5 Q-136 27 -122 41 Q-114 49 -105.5 56.5 Q-97 64 -89 72 Q-73 86 -57 101 Q-54 102 -52 109 Q-48 123 -44 137 Q-40 151 -36 165 Q-31 179 -27.5 193.5 Q-24 208 -20 222 Q-17 232 -14.5 241.5 Q-12 251 -10 261 Q-8 269 -5 280.5 Q-2 292 0 300 Q2 305 8 305 Q10 305 11 301.5 Q12 298 11 295 Q10 291 9.5 288 Q9 285 8 281 Q6 270 3 258.5 Q0 247 -3 235 Q-7 221 -11 206.5 Q-15 192 -19 178 Q-22 169 -24.5 160 Q-27 151 -29 141 Q-30 139 -31 135.5 Q-32 132 -33 129 L-35 121 L-24 132 L18 174 Q29 185 40.5 197 Q52 209 63 221 Q69 227 74.5 233.5 Q80 240 86 246 Q94 255 102.5 264.5 Q111 274 119 283 Q123 287 126 290.5 Q129 294 132 298 Q137 303 140 299 Z M-67 60 Q-66 63 -64.5 67 Q-63 71 -61 79 Q-73 70 -83 60 Q-91 52 -99.5 44 Q-108 36 -117 28 Q-128 17 -138.5 5 Q-149 -7 -157 -21 Q-164 -33 -169.5 -45 Q-175 -57 -177 -71 Q-179 -79 -177 -87 Q-176 -94 -169 -92 Q-167 -91 -164 -90 Q-161 -89 -157 -87 Q-146 -80 -137.5 -71 Q-129 -62 -121 -51 Q-113 -42 -107 -32 Q-101 -22 -96 -11 Q-92 -4 -89 3.5 Q-86 11 -82 19 Q-78 30 -74.5 39.5 Q-71 49 -67 60 Z M14 373 Q10 374 12 379 L15 385 Q17 392 18 397 Q19 402 20 407 Q21 408 21 411 Q22 415 26 415 Q30 415 30 410 L30 409 Q28 391 22 377 Q21 376 21 375.5 Q21 375 20 374 Q17 371 14 373 Z " />
<glyph glyph-name="k" unicode="k" horiz-adv-x="205" d="M210 298 Q213 295 199 278.5 Q185 262 166 243 Q147 224 129.5 207.5 Q112 191 109 188 Q98 177 85 171 Q68 161 54 175 Q53 176 52.5 177 Q52 178 51 179 L45 188 L39 200 Q38 202 37.5 202.5 Q37 203 36 205 L30 217 Q29 220 27 222 L25 224 Q23 226 22 226.5 Q21 227 19 229 Q10 220 2 209 Q1 208 0.5 207 Q0 206 -1 205 Q-5 200 -8.5 194.5 Q-12 189 -17 184 Q-19 180 -22 177 Q-25 174 -27 170 Q-29 168 -30.5 167 Q-32 166 -33 165 Q-37 162 -41 166 Q-43 168 -43 171 Q-43 172 -35 196.5 Q-27 221 -17.5 250.5 Q-8 280 1 305.5 Q10 331 11 334 Q16 347 19.5 359.5 Q23 372 28 385 Q31 393 33.5 401.5 Q36 410 39 418 Q40 420 41 423 Q42 426 43 430 Q44 431 44 433 Q49 446 54 458 Q59 470 64 483 Q74 512 93 545 Q100 556 107 566.5 Q114 577 123 586 Q126 588 132.5 592 Q139 596 140 597 Q149 599 153 590 Q153 588 153.5 587 Q154 586 154 584 Q155 573 152 558 Q147 535 138 515 Q133 504 129 494 Q125 484 120 474 Q116 466 112 457.5 Q108 449 103 441 Q103 440 102.5 439.5 Q102 439 102 438 Q99 435 95 425 Q90 414 84 405 Q81 401 74.5 389.5 Q68 378 61 366 Q54 354 48.5 344 Q43 334 42 331 Q38 324 34.5 317.5 Q31 311 26 305 Q22 299 18.5 293 Q15 287 10 282 Q9 280 5 268 Q1 256 -4 242.5 Q-9 229 -13 217.5 Q-17 206 -17 205 Q-16 206 -10 213 Q-4 220 4 229.5 Q12 239 20.5 248.5 Q29 258 35 264 Q42 270 48 276 Q54 282 61 287 Q67 293 75 296 Q81 298 84 293 Q87 290 86 284 Q85 278 80 272 Q79 272 79 271 Q70 261 60 252 Q55 247 48.5 242 Q42 237 36 232 Q38 230 39.5 227 Q41 224 43 221 Q45 218 46.5 214.5 Q48 211 50 208 Q52 206 52.5 203.5 Q53 201 55 198 Q56 197 57 195 Q58 193 60 190 Q61 189 61.5 188 Q62 187 63 186 Q64 185 65 184.5 Q66 184 67 183 Q71 180 76.5 181.5 Q82 183 87.5 187 Q93 191 98 195.5 Q103 200 106 203 Q114 211 122 217.5 Q130 224 138 232 Q144 237 149.5 242.5 Q155 248 160 253 Q171 264 182 275.5 Q193 287 204 298 Q209 301 210 298 Z M68 278 Q60 271 53.5 264.5 Q47 258 40 251 Q48 256 57.5 265.5 Q67 275 68 278 Z M23 330 Q21 326 20 321 Q19 316 17 311 Q22 319 27 327 Q32 335 37 343 Q45 357 55.5 375 Q66 393 75 411 Q76 413 77.5 416 Q79 419 81 424 Q84 429 87 436 Q95 451 103.5 467.5 Q112 484 116 491 Q123 506 128.5 521 Q134 536 139 552 Q140 556 142 568 Q144 580 143 585 L142 585 Q139 582 137 581 Q135 579 133 577.5 Q131 576 130 575 Q111 556 100 532 Q95 523 89.5 511 Q84 499 79 488 Q76 481 73 475 Q70 469 68 462 L58 432 Q57 430 56 427 Q55 424 54 420 Q47 401 40.5 382.5 Q34 364 32 359 Q30 352 27.5 345 Q25 338 23 330 Z " />
<glyph glyph-name="l" unicode="l" horiz-adv-x="146" d="M152 299 Q156 298 154 293 L148 284 Q141 275 134.5 266.5 Q128 258 120 249 Q110 237 100.5 224.5 Q91 212 81 200 Q74 192 68 184.5 Q62 177 55 169 Q49 163 43 157.5 Q37 152 29 147 Q19 140 7 140 Q-7 140 -14 153 Q-20 163 -21 174 Q-23 194 -20.5 216.5 Q-18 239 -13 257 Q-9 278 -1 299 L7 328 L7 329 Q10 340 13.5 350 Q17 360 21 371 Q25 382 28.5 393.5 Q32 405 37 416 Q39 422 41 427.5 Q43 433 45 438 Q45 440 46 441 L49 447 Q50 449 50.5 451 Q51 453 52 455 Q54 461 57 467.5 Q60 474 62 480 Q67 489 71 498 Q75 507 80 517 Q82 522 85.5 528 Q89 534 93 540 Q95 544 96 547 Q101 557 107 565.5 Q113 574 120 582 Q124 586 127 589.5 Q130 593 135 596 Q144 602 149 597 Q153 593 154 588 Q156 576 151 564 Q145 538 135 518 Q131 508 127 499 Q123 490 118 480 Q116 477 112.5 470 Q109 463 105 455 Q103 450 100.5 445 Q98 440 96 435 Q84 412 72 389.5 Q60 367 46 344 Q43 339 38 331 Q33 323 27.5 314.5 Q22 306 17 298 Q12 290 9 286 Q8 285 8 284 Q8 283 7.5 282.5 Q7 282 7 281 Q5 274 4 268 Q3 262 1 255 Q-2 244 -4 232.5 Q-6 221 -7 209 Q-8 201 -8.5 194 Q-9 187 -8 179 Q-7 174 -6 169 Q-5 164 -2 159 Q3 152 12 154 Q22 157 29 163 Q43 175 55 189 Q65 200 74 211 Q83 222 92 233 Q99 241 106.5 249.5 Q114 258 121 267 Q127 275 133 281.5 Q139 288 145 296 Q145 297 147.5 299 Q150 301 152 299 Z M50 415 Q48 409 43 394 Q38 379 32.5 362.5 Q27 346 22.5 333.5 Q18 321 18 320 Q20 324 28.5 339.5 Q37 355 47.5 374 Q58 393 68 412 Q78 431 84 441 Q84 441 90 453.5 Q96 466 104 482.5 Q112 499 120 516.5 Q128 534 132 544 Q134 552 136.5 558.5 Q139 565 141 573 Q141 575 142 576 L142 580 L142 582 Q142 583 142.5 583.5 Q143 584 143 585 Q142 585 141.5 584.5 Q141 584 140 584 L135 579 Q133 577 132 576.5 Q131 576 129 574 Q128 572 127 571.5 Q126 571 125 569 L125 568 L121 564 Q111 551 104 536 Q100 530 97 523.5 Q94 517 91 511 Q86 502 82 493 Q78 484 74 475 L65 454 L60 441 L60 440 Q58 434 55 428 Q52 422 50 415 Z " />
<glyph glyph-name="m" unicode="m" horiz-adv-x="217" d="M101 265 Q93 255 85 245 Q77 235 69 224 Q65 219 60.5 214 Q56 209 50 205 Q45 201 40 203 Q31 205 30 215 Q29 229 33 242 Q35 250 38 258 Q41 266 43 274 L43 276 Q41 274 40 272.5 Q39 271 38 270 Q28 258 19 245.5 Q10 233 1 221 Q-2 217 -5.5 213.5 Q-9 210 -12 206 Q-17 201 -22 204 Q-28 207 -26 213 Q-25 220 -24 226 Q-23 232 -21 238 Q-18 249 -14.5 260 Q-11 271 -7 282 Q-5 286 -3.5 291 Q-2 296 0 300 Q3 305 7 304 Q12 303 10 298 Q9 288 5 282 Q-6 254 -13 225 Q-13 224 -13.5 223.5 Q-14 223 -13 221 Q-11 223 -10 224.5 Q-9 226 -7 228 Q2 240 10.5 251.5 Q19 263 28 274 Q31 279 34.5 282.5 Q38 286 42 290 Q44 292 45.5 293 Q47 294 48 295 Q53 297 56 295 Q60 292 59 288 Q58 279 54 270 Q46 247 42 227 Q42 224 41.5 221 Q41 218 43 214 Q44 215 45 215.5 Q46 216 47 217 Q51 222 55 225.5 Q59 229 63 234 Q71 245 80 256.5 Q89 268 97 279 Q102 285 107 290.5 Q112 296 117 301 Q119 305 123 306 Q128 309 132 306 Q137 303 135 298 Q135 295 134.5 292.5 Q134 290 133 287 Q129 276 125 265.5 Q121 255 117 244 Q114 234 111 224 Q108 214 106 203 Q105 199 104.5 195 Q104 191 106 186 Q108 183 110 184 Q115 186 118 189 Q123 194 128 199.5 Q133 205 138 210 Q143 217 148.5 223 Q154 229 159 235 Q164 241 169.5 247 Q175 253 180 258 Q186 266 192 272.5 Q198 279 204 286 L213 295 Q214 297 215 297.5 Q216 298 218 300 Q224 302 226 297 Q228 294 224 290 Q221 287 218 284 Q215 281 213 278 Q205 269 197 260 Q189 251 181 242 Q173 233 165 223 Q157 213 148 204 Q142 196 136 189 Q130 182 122 176 Q114 171 108 171 Q98 171 95 179 Q93 184 92.5 188 Q92 192 92 197 Q93 208 95.5 217 Q98 226 101 236 Q104 246 107.5 255 Q111 264 115 274 Q116 278 117.5 281 Q119 284 119 287 Q114 281 109.5 276 Q105 271 101 265 Z " />
<glyph glyph-name="n" unicode="n" horiz-adv-x="132" d="M38 285 Q43 290 48.5 287.5 Q54 285 54 279 Q54 274 53.5 269 Q53 264 52 259 Q50 245 47 231.5 Q44 218 44 204 Q44 201 47 202 Q63 212 75 228 Q87 244 98 258 Q106 268 114.5 277.5 Q123 287 131 298 Q132 302 137 300 Q140 299 140.5 296 Q141 293 139 291 Q129 279 120.5 267.5 Q112 256 102 244 L81 217 Q76 211 71 205.5 Q66 200 59 195 Q55 192 47 190 Q37 187 32 199 Q30 218 35 236.5 Q40 255 42 273 Q25 258 11.5 240.5 Q-2 223 -18 207 Q-21 204 -26 203 Q-32 203 -32 209 Q-32 217 -31 220 Q-24 240 -16 260.5 Q-8 281 0 301 Q1 307 9 305 Q13 304 13 297 Q4 280 -2.5 261.5 Q-9 243 -17 225 L38 285 Z " />
<glyph glyph-name="o" unicode="o" horiz-adv-x="100" d="M106 290 Q105 289 100.5 283.5 Q96 278 88.5 271.5 Q81 265 70.5 260.5 Q60 256 48 257 Q43 258 37.5 259 Q32 260 27 263 Q26 259 26 256 Q26 253 25 250 Q23 236 12.5 222 Q2 208 -15 212 Q-30 217 -31 233 Q-32 241 -30 247.5 Q-28 254 -25 261 Q-20 273 -13 284.5 Q-6 296 4 304 Q13 311 15.5 304.5 Q18 298 11 294 Q17 294 21 292 Q25 288 26 279 Q31 273 41 271.5 Q51 270 57 271 Q71 273 80.5 280.5 Q90 288 99 298 Q104 303 107 297 Q109 295 107 292 Q107 291 106.5 291 Q106 291 106 290 Z M10 241 Q14 249 14.5 256 Q15 263 15 271 Q10 278 8.5 281 Q7 284 7 290 Q4 286 1.5 282.5 Q-1 279 -3 276 Q-14 259 -18 243 Q-20 238 -18 230.5 Q-16 223 -10 223 Q2 223 10 241 Z " />
<glyph glyph-name="p" unicode="p" horiz-adv-x="189" d="M-9 244 Q-6 248 -3 251 Q0 254 3 258 Q9 265 15.5 271.5 Q22 278 29 285 Q41 297 56 306 Q65 312 74 314 Q82 314 88 309.5 Q94 305 92 295 Q92 289 89.5 283 Q87 277 84 272 Q69 249 48 231 Q43 226 35 221 Q41 221 42 222 Q50 224 58.5 226 Q67 228 75 231 Q94 237 109 247 Q123 255 135.5 263 Q148 271 162 279 Q167 283 173 286.5 Q179 290 184 294 Q191 301 194 300 Q199 298 197 293.5 Q195 289 193 287 Q188 284 183.5 280 Q179 276 174 273 Q167 268 160 262.5 Q153 257 145 252 Q134 245 123.5 238.5 Q113 232 102 227 Q78 214 57 210 Q46 208 36 206.5 Q26 205 16 205 Q12 206 8.5 206.5 Q5 207 0 208 Q-4 208 -5 209 Q-12 210 -10 216 Q-10 223 -4 221 Q6 221 13.5 225 Q21 229 29 234 Q52 249 67 272 Q70 277 73 282.5 Q76 288 78 294 Q79 299 78 299.5 Q77 300 73 299 Q68 298 64 295.5 Q60 293 56 290 Q37 277 20 257 Q12 248 3.5 238.5 Q-5 229 -13 219 Q-18 213 -21.5 207 Q-25 201 -30 195 Q-34 190 -37 179 Q-41 169 -45 159.5 Q-49 150 -53 139 Q-58 128 -62 117 Q-66 106 -71 95 Q-76 84 -81 72 Q-86 60 -91 48 L-124 -27 L-148 -72 Q-156 -86 -167 -96 Q-169 -98 -170 -98 Q-175 -101 -179.5 -98.5 Q-184 -96 -185 -90 Q-185 -78 -180 -61 L-165 -19 Q-158 -2 -150 14.5 Q-142 31 -134 47 Q-128 58 -122.5 69 Q-117 80 -110 91 Q-101 108 -91 123.5 Q-81 139 -71 156 Q-65 166 -58.5 175 Q-52 184 -46 194 Q-41 202 -38 210 Q-33 223 -27.5 235 Q-22 247 -17 260 Q-12 270 -8.5 280 Q-5 290 0 300 Q1 307 7 305 Q12 303 11 299 Q8 285 2.5 272.5 Q-3 260 -8 247 Q-9 246 -9 245.5 Q-9 245 -10 244 L-9 244 Z M-172 -83 L-171 -83 L-162 -71 Q-147 -46 -135 -20 Q-129 -7 -123.5 5.5 Q-118 18 -112 31 L-94 73 Q-89 86 -83.5 98.5 Q-78 111 -73 123 Q-71 129 -70 133 L-72 131 Q-79 120 -85.5 108.5 Q-92 97 -99 85 Q-106 71 -113 58 Q-120 45 -127 31 Q-134 17 -140.5 3.5 Q-147 -10 -152 -24 Q-157 -36 -161 -48 Q-165 -60 -169 -72 Q-170 -75 -172 -83 Z " />
<glyph glyph-name="q" unicode="q" horiz-adv-x="159" d="M166 299 Q171 297 167.5 292.5 Q164 288 160 282 Q155 277 145 262.5 Q135 248 129 242 Q116 227 103 212.5 Q90 198 76 184 Q67 175 58 165.5 Q49 156 39 148 Q30 140 20.5 133.5 Q11 127 1 119 Q-1 117 -4 116 Q-7 115 -9 113 Q-12 111 -10 109 Q-8 99 -7 89 Q-6 79 -5 68 Q-4 44 -8 23 Q-10 12 -13 2.5 Q-16 -7 -20 -16 Q-28 -33 -39 -47 Q-48 -61 -58 -65 Q-65 -69 -70 -69 Q-81 -69 -83 -58 Q-85 -50 -85 -47 Q-85 -38 -83 -29 Q-81 -20 -78 -11 Q-76 -2 -73 6.5 Q-70 15 -67 24 Q-64 33 -60.5 42 Q-57 51 -54 60 Q-50 69 -46.5 78 Q-43 87 -40 95 Q-35 105 -31.5 114.5 Q-28 124 -24 133 Q-18 146 -12.5 158.5 Q-7 171 -1 184 Q1 189 4 195 Q7 201 9 206 L21 230 L21 231 Q13 223 6.5 215 Q0 207 -10 202 Q-18 199 -23 200 Q-33 201 -36 212 Q-40 223 -35 237 Q-31 248 -27.5 257.5 Q-24 267 -19 275 Q-11 287 0 300 Q11 313 30 311 Q36 310 39 304.5 Q42 299 42 292 Q42 290 41.5 288.5 Q41 287 42 285 Q44 289 45.5 291.5 Q47 294 49 296 Q51 300 53.5 303 Q56 306 58 309 Q61 313 66 311 Q71 308 70 304 Q70 299 69 298 Q66 292 63.5 286 Q61 280 58 274 Q50 260 43 245.5 Q36 231 29 217 L-4 148 Q-6 143 -7.5 139 Q-9 135 -11 130 L-12 129 Q-12 128 -13 126 Q-9 128 -6 130.5 Q-3 133 0 135 Q10 143 20 151 Q30 159 40 168 Q51 177 60.5 186.5 Q70 196 80 207 Q91 219 102 231.5 Q113 244 124 257 Q131 265 137.5 273.5 Q144 282 152 291 Q157 296 159 298.5 Q161 301 166 299 Z M-5 221 Q10 236 22 254 Q27 263 35 274 Q26 272 27 278 Q27 280 27.5 280.5 Q28 281 28 282 Q31 290 30 295 Q28 303 22 300 Q13 296 6.5 288 Q0 280 -6 272 Q-14 261 -20.5 245.5 Q-27 230 -24 216 Q-23 210 -17 213 Q-13 215 -10 217 Q-7 219 -5 221 Z M-18 43 Q-17 50 -17 56.5 Q-17 63 -17 71 L-20 95 Q-20 97 -22 105 Q-27 93 -32 81 Q-37 69 -42 56 Q-46 47 -49 38 Q-52 29 -55 21 Q-60 8 -64 -4 Q-68 -16 -70 -30 Q-73 -43 -72 -53 Q-71 -56 -67 -55 Q-64 -54 -61 -51 Q-54 -46 -49.5 -39.5 Q-45 -33 -40 -26 Q-31 -10 -25 7 Q-19 24 -18 43 Z " />
<glyph glyph-name="r" unicode="r" horiz-adv-x="127" d="M134 298 Q138 296 136 292.5 Q134 289 132 286 L123 274 Q119 269 116 265.5 Q113 262 109 257 Q102 248 96 239.5 Q90 231 83 223 L47 178 Q42 172 35.5 166.5 Q29 161 21 157 Q2 150 2 168 Q2 172 2.5 175 Q3 178 4 182 Q9 202 19 221 Q23 229 25.5 235.5 Q28 242 30 249 Q33 257 26 261 Q21 265 16 268 Q11 271 6 276 L5 277 L3 279 Q-4 285 -5.5 294 Q-7 303 -5 312 Q-3 321 3 328.5 Q9 336 18 339 Q26 341 30 338 Q37 334 34 324 Q30 313 24 306 Q18 299 11 291 Q14 287 17 284.5 Q20 282 24 279 Q27 277 30 275 Q33 273 36 271 Q46 264 44 249 Q42 242 39.5 235.5 Q37 229 34 222 Q28 210 23 197.5 Q18 185 15 171 Q15 170 16 170 Q17 171 17.5 171 Q18 171 19 172 Q36 183 49 201 Q62 219 76 236 Q84 247 93 258 Q102 269 111 280 Q113 282 118 288 Q123 294 124 295 Q126 298 128 299.5 Q130 301 134 298 Z M24 328 Q18 326 12 317.5 Q6 309 7 304 Q17 316 24 328 Z " />
<glyph glyph-name="s" unicode="s" horiz-adv-x="124" d="M131 298 Q136 293 130 289 Q127 287 124 284 Q121 281 118 279 Q113 274 107.5 269.5 Q102 265 98 262 Q87 252 76 243 Q65 234 54 225 Q54 224 53 224 Q51 222 49.5 220.5 Q48 219 47 217 Q46 215 46.5 212.5 Q47 210 47 208 Q48 189 38 167 Q33 157 28 148.5 Q23 140 16 133 Q5 119 -6 112 Q-11 108 -16.5 105.5 Q-22 103 -27 101 Q-40 96 -51 102 Q-64 108 -61 123 Q-59 131 -56 137 Q-53 143 -48 149 Q-39 160 -28.5 170 Q-18 180 -7 190 L29 220 Q33 221 31 225 Q26 242 18.5 255.5 Q11 269 0 284 Q-10 298 -6 317.5 Q-2 337 15 344 Q24 347 29 341 Q34 330 25.5 315.5 Q17 301 11 296 Q9 294 15 285.5 Q21 277 23 274 Q30 263 34.5 253 Q39 243 43 232 Q44 233 45 233.5 Q46 234 47 235 Q58 244 68.5 252.5 Q79 261 90 270 Q98 277 105.5 283 Q113 289 121 297 Q124 299 125.5 300 Q127 301 131 298 Z M19 333 Q14 330 9.5 322 Q5 314 5 309 Q14 318 19 333 Z M31 187 Q34 198 33 207 Q26 200 24 199 Q16 191 7.5 184.5 Q-1 178 -9 170 Q-17 162 -25 154 Q-33 146 -40 137 Q-42 133 -44 130 Q-46 127 -48 123 Q-53 112 -40 112 Q-26 112 -13 123 Q2 135 13 152 Q26 168 31 187 Z " />
<glyph glyph-name="t" unicode="t" horiz-adv-x="146" d="M305 472 Q310 470 310 467 Q310 462 306 462 Q304 461 301.5 461 Q299 461 297 460 Q283 459 270.5 458.5 Q258 458 244 456 L196 453 Q184 451 172 450.5 Q160 450 148 449 Q137 448 126.5 447.5 Q116 447 105 446 Q103 446 102 445 Q102 444 101 443 Q76 394 47 344 Q44 340 39 331.5 Q34 323 28.5 314.5 Q23 306 18 298 Q13 290 10 286 Q9 285 9 284 Q8 283 8 281 Q6 273 4.5 266.5 Q3 260 1 255 Q-1 244 -3 232.5 Q-5 221 -6 209 Q-7 201 -7.5 194 Q-8 187 -7 179 Q-6 174 -5 169 Q-4 164 -1 159 Q3 152 13 154 Q22 157 30 163 Q44 175 56 189 Q66 200 75 211 Q84 222 93 233 Q100 241 107 250 Q114 259 121 268 Q127 276 133 282.5 Q139 289 145 297 Q145 298 145.5 298 Q146 298 146 299 Q149 302 153 300 Q157 296 155 293 L149 284 Q142 275 135 266.5 Q128 258 121 249 Q111 237 101.5 224.5 Q92 212 81 200 Q74 191 68 183.5 Q62 176 56 170 Q44 156 30 147 Q19 140 8 140 Q-6 141 -13 153 Q-15 158 -17 163 Q-19 168 -20 174 Q-22 194 -19 216.5 Q-16 239 -12 257 Q-10 268 -7.5 278 Q-5 288 -1 299 L8 329 Q11 340 14.5 350 Q18 360 22 371 Q26 382 29.5 393.5 Q33 405 38 416 Q40 422 42 427.5 Q44 433 46 438 Q46 439 46.5 439.5 Q47 440 47 441 Q34 441 31 440 Q18 439 5.5 438 Q-7 437 -20 436 Q-32 434 -44 433.5 Q-56 433 -68 431 Q-77 430 -86 429 Q-95 428 -104 427 Q-105 426 -108 426 Q-112 425 -115 425 Q-118 425 -122 424 Q-129 423 -135.5 422.5 Q-142 422 -150 421 Q-152 420 -154.5 420 Q-157 420 -159 419 L-164 419 Q-166 419 -167 418.5 Q-168 418 -170 418 L-176 418 Q-180 419 -180 423 Q-180 427 -177 428 L-173 428 Q-163 430 -160 430 Q-155 431 -151 431.5 Q-147 432 -145 432 Q-144 432 -143.5 432.5 Q-143 433 -142 433 Q-135 434 -129 434.5 Q-123 435 -116 436 Q-115 437 -112 437 Q-110 437 -107 437.5 Q-104 438 -102 438 Q-95 439 -89 439.5 Q-83 440 -77 441 Q-65 443 -53 444 Q-41 445 -29 446 Q-18 447 -8 448 Q2 449 12 450 Q22 451 31 451.5 Q40 452 49 453 Q51 453 53 455 Q55 461 57.5 467.5 Q60 474 63 480 Q68 489 72 498.5 Q76 508 81 517 Q84 523 87 529 Q90 535 93 540 Q94 542 95 543.5 Q96 545 97 547 Q102 557 108 565.5 Q114 574 121 582 Q126 591 136 596 Q146 601 150 597 Q154 594 154 588 Q155 579 152 564 Q146 539 136 518 Q131 509 127 499.5 Q123 490 118 480 Q116 475 113 469.5 Q110 464 108 459 Q107 459 107 457 L108 457 Q113 458 117.5 458 Q122 458 127 458 Q135 459 143 459.5 Q151 460 159 461 L207 464 Q223 466 239 466.5 Q255 467 271 469 Q279 470 287 470.5 Q295 471 303 472 L305 472 Z M66 454 Q71 454 74.5 454.5 Q78 455 83 455 Q89 455 93 457 Q116 501 132 544 Q135 552 137.5 558.5 Q140 565 142 573 L142 576 Q142 577 143 578 L143 580 L143 585 L141 584 Q140 583 138 581.5 Q136 580 135 579 Q134 577 133 576.5 Q132 576 130 574 Q129 572 128 571.5 Q127 571 126 569 Q124 567 123.5 566 Q123 565 122 564 Q112 551 105 536 Q98 526 92 511 Q87 502 83 493 Q79 484 75 475 L66 454 Z M51 415 Q49 409 44 394 Q39 379 33 362 Q26 343 18 320 Q20 324 28.5 339.5 Q37 355 48 374 Q59 393 69 411.5 Q79 430 84 441 Q86 443 86 445 L62 442 Q61 442 61 441 Q59 435 56 428.5 Q53 422 51 415 Z " />
<glyph glyph-name="u" unicode="u" horiz-adv-x="152" d="M52 248 Q50 246 49 244 Q48 242 46 240 Q38 230 30 220.5 Q22 211 14 201 Q9 194 1 190 Q-7 185 -14.5 186.5 Q-22 188 -24 200 Q-25 205 -25 217 Q-23 231 -19.5 244.5 Q-16 258 -11 272 Q-9 275 -5 287.5 Q-1 300 0 301 Q1 305 6 303 Q10 302 10 298 Q10 296 8 289 Q6 282 3 273.5 Q0 265 -2.5 257 Q-5 249 -6 244 Q-8 236 -10 227.5 Q-12 219 -13 211 Q-13 209 -12.5 206 Q-12 203 -12 201 Q-10 198 -8 199 Q0 204 7 212 Q14 219 20 227 Q26 235 32 243 Q38 251 43.5 258 Q49 265 55 273 Q56 274 57 274.5 Q58 275 59 277 Q62 280 67 278 Q72 274 71 270 L68 255 Q65 244 62.5 232 Q60 220 59 209 Q58 205 58.5 202 Q59 199 59 195 Q61 189 65 193 Q71 196 77 202 Q83 210 89 216.5 Q95 223 101 231 Q111 244 120.5 255.5 Q130 267 139 280 Q142 284 145.5 288 Q149 292 151 296 Q156 302 160 299 Q165 295 160 290 Q156 284 152 278.5 Q148 273 144 268 Q139 261 134 254 Q129 247 124 240 Q118 232 112.5 225.5 Q107 219 101 211 Q96 205 86 193.5 Q76 182 66 179 Q60 176 54.5 179 Q49 182 47 189 Q44 201 45 207 Q46 218 48 227.5 Q50 237 52 246 L52 248 Z " />
<glyph glyph-name="v" unicode="v" horiz-adv-x="145" d="M67 282 Q62 274 57 267 Q52 260 47 253 Q39 242 31.5 232 Q24 222 16 212 Q10 203 -2 197 Q-8 194 -16 199 Q-26 205 -23.5 220.5 Q-21 236 -19 244 Q-16 256 -12 267.5 Q-8 279 -4 291 Q-3 293 -2 296 Q-1 299 0 300 Q3 304 8 302 Q11 301 9 292 Q8 288 7 284 Q6 280 4 275 Q-1 259 -8 241.5 Q-15 224 -9 210 Q-8 207 -5.5 208.5 Q-3 210 0 213 Q4 217 8 222 Q15 231 21.5 240 Q28 249 34 258 Q39 264 43 270 Q47 276 51 282 Q53 286 56 289.5 Q59 293 61 296 Q63 298 63.5 299 Q64 300 66 301 Q78 308 80 295 L80 289 Q80 285 86 283 Q100 280 116 288.5 Q132 297 146 300 Q150 300 152 298 Q155 294 152 291 Q150 288 143.5 284.5 Q137 281 128.5 278 Q120 275 112.5 272.5 Q105 270 102 269 Q97 268 91.5 267.5 Q86 267 80 269 Q71 274 68 280 Q68 281 67.5 281 Q67 281 67 282 Z " />
<glyph glyph-name="w" unicode="w" horiz-adv-x="193" d="M194 300 Q199 300 199 295 Q199 292 194 290 Q188 288 181.5 286 Q175 284 168 282 Q160 280 153 278 Q146 276 138 276 Q129 275 121 281 Q118 276 115 272.5 Q112 269 109 265 L85 232 Q79 224 71 218 Q62 211 54 214.5 Q46 218 43 229 Q39 238 41 256 Q41 257 41.5 258 Q42 259 42 261 Q42 264 43 265 L34 253 Q26 242 18.5 232 Q11 222 3 211 Q1 207 -2 204.5 Q-5 202 -8 199 Q-19 190 -26 200 Q-28 202 -28 205 Q-28 208 -29 210 Q-29 226 -25 235 Q-23 244 -19.5 252.5 Q-16 261 -13 270 Q-10 277 -7 284 Q-4 291 -1 298 Q0 304 6 302 Q11 300 9 294 L0 270 Q-3 262 -6 253.5 Q-9 245 -11 237 L-13 229 Q-16 222 -16 212 L-16 211 Q-15 210 -14 211 L-13 212 L-10 215 Q-4 223 2 230 Q8 237 13 245 Q21 256 27.5 266 Q34 276 42 287 Q44 289 45 290.5 Q46 292 48 294 Q52 299 58 298 Q65 295 63 287 Q61 280 60 275 Q59 270 58 265 Q55 253 55 242 Q55 241 55 236.5 Q55 232 57 230 Q59 228 62 229 Q65 230 71 236.5 Q77 243 83.5 251.5 Q90 260 96 269 Q102 278 106 283 Q108 286 110.5 289.5 Q113 293 116 296 Q123 303 129 294 Q132 290 136 290 Q140 291 143 291 Q146 291 151 292 Q160 294 166.5 295 Q173 296 182 298 Q184 298 188 299 Q192 300 194 300 Z " />
<glyph glyph-name="x" unicode="x" horiz-adv-x="156" d="M161 291 Q158 288 155 285.5 Q152 283 148 280 Q141 274 134.5 268.5 Q128 263 121 257 Q113 250 105 244 Q97 238 89 231 Q83 227 77 223 Q71 219 65 215 Q59 212 53.5 209 Q48 206 40 204 Q16 201 6 220 Q6 221 5 221 Q4 220 3.5 219 Q3 218 1 216 Q-5 208 -11 200 Q-17 192 -23 184 Q-28 179 -31 173 Q-34 167 -38 162 Q-43 155 -46 158 Q-52 160 -48 167 Q-44 172 -40.5 178 Q-37 184 -33 189 L-6 225 Q-3 228 -1 232 Q1 234 1 236 Q-3 252 -1.5 268 Q0 284 0 300 Q0 304 5 304 Q10 304 11 300 Q12 297 12 290 Q12 283 11.5 276 Q11 269 11 261 L11 252 Q11 248 12 247 Q13 248 13 248.5 Q13 249 14 250 Q15 252 16 252.5 Q17 253 18 255 Q23 260 26.5 265.5 Q30 271 35 276 Q41 284 47.5 291 Q54 298 60 306 L62 308 Q67 310 68 308 Q71 305 70 302 Q68 300 67.5 298.5 Q67 297 65 295 Q59 287 53.5 280.5 Q48 274 42 266 Q36 258 29.5 251 Q23 244 17 236 Q14 231 16 229 Q22 212 39 217 Q47 219 61 228 Q72 236 82.5 243.5 Q93 251 104 259 Q112 265 120 271.5 Q128 278 136 285 Q141 289 145 292.5 Q149 296 153 298 Q155 300 156 300 Q160 301 163 298 Q164 294 161 291 Z " />
<glyph glyph-name="y" unicode="y" horiz-adv-x="176" d="M183 299 Q187 295 182 292 Q174 281 165 271 Q156 261 147 250 Q138 239 129 228 Q120 217 111 206 Q106 200 100 193.5 Q94 187 89 181 Q77 168 65.5 155.5 Q54 143 43 130 Q37 123 30.5 116.5 Q24 110 18 103 Q16 101 16 100 Q13 92 10 84 Q7 76 4 68 L-14 26 Q-22 9 -31 -7 Q-40 -23 -51 -38 Q-59 -48 -68 -57 Q-77 -66 -88 -72 Q-98 -79 -109 -79 Q-127 -81 -132 -62 Q-135 -49 -128 -35 Q-118 -12 -100 6 Q-93 14 -86.5 20.5 Q-80 27 -73 34 Q-64 43 -55 51.5 Q-46 60 -37 68 Q-26 78 -16 88 Q-6 98 4 108 Q6 108 6 110 Q8 118 11 126.5 Q14 135 17 143 Q21 156 24.5 169 Q28 182 32 195 Q36 206 39 217.5 Q42 229 45 240 Q48 250 51 259 Q54 268 56 278 Q58 278 56 280 Q53 276 50.5 272.5 Q48 269 45 266 Q38 257 31 248.5 Q24 240 17 232 Q12 226 3 223 Q-8 218 -13 230 Q-16 240 -15 247 Q-15 255 -13 262 Q-11 269 -9 276 L0 300 Q0 302 0.5 302.5 Q1 303 1 304 Q3 307 7 306 Q11 306 11 302 Q11 301 9 293 Q7 284 4 275.5 Q1 267 -1 258 Q-4 246 -3 238 Q-2 234 2 236 Q13 245 14 247 Q22 258 30.5 267.5 Q39 277 47 288 Q50 291 52.5 294 Q55 297 58 300 Q62 304 68 303 Q73 300 73 294 L73 288 Q71 280 68.5 272.5 Q66 265 64 257 Q61 245 57.5 233.5 Q54 222 51 211 Q47 199 43.5 186.5 Q40 174 36 162 L27 132 Q32 137 37 142.5 Q42 148 47 153 Q52 158 57.5 164 Q63 170 68 176 L86 197 Q92 204 98 210 Q104 216 109 223 L148 268 Q153 274 159 280.5 Q165 287 170 293 L176 299 Q179 302 183 299 Z M-5 80 Q-8 78 -13 73 Q-16 70 -19.5 67 Q-23 64 -25 62 Q-39 48 -53.5 34.5 Q-68 21 -82 7 Q-104 -13 -115 -34 Q-123 -48 -121 -58 Q-121 -66 -114 -67 Q-113 -68 -107 -68 Q-98 -65 -86 -57 Q-74 -49 -61 -31 Q-43 -6 -30 22 Q-23 36 -17 50.5 Q-11 65 -5 79 L-5 80 Z " />
<glyph glyph-name="z" unicode="z" horiz-adv-x="183" d="M9 239 Q11 238 14 237.5 Q17 237 19 236 Q32 231 39 218 Q51 199 51 176 Q52 170 51.5 164.5 Q51 159 51 153 L52 152 Q56 156 59 160 Q62 164 66 168 Q72 174 77.5 180 Q83 186 88 192 Q95 199 101 205.5 Q107 212 113 219 Q127 235 141.5 251 Q156 267 170 283 Q173 287 175.5 290.5 Q178 294 181 297 Q184 301 188 300 Q193 297 190 292 Q188 288 186 285 Q184 282 182 280 Q168 264 154.5 248.5 Q141 233 127 217 L100 187 Q90 176 81 166.5 Q72 157 63 147 Q60 143 56.5 139.5 Q53 136 50 132 Q48 130 48 128 Q44 101 33 74 Q28 64 24 54.5 Q20 45 15 36 Q9 25 2.5 14.5 Q-4 4 -11 -7 Q-24 -28 -46 -49 Q-62 -67 -86 -81 Q-97 -87 -107 -90 Q-114 -93 -122 -91 Q-129 -90 -132.5 -85 Q-136 -80 -137 -74 Q-139 -66 -136.5 -58.5 Q-134 -51 -131 -44 Q-123 -29 -113 -16.5 Q-103 -4 -92 7 Q-81 18 -70.5 28 Q-60 38 -49 49 Q-39 59 -30 68 Q-21 77 -11 86 Q0 97 11 109 Q22 121 33 132 Q37 136 37 141 Q40 157 38 181 Q36 190 34 198 Q32 206 27 213 Q20 225 5 226 Q3 227 1.5 227 Q0 227 -2 228 Q-5 229 -6.5 232.5 Q-8 236 -6 239 Q-3 243 0 246.5 Q3 250 6 253 Q16 262 25 271 Q34 280 42 291 Q46 296 49 301 Q52 306 54 312 Q54 318 53 319 Q53 321 47 319 Q42 318 37.5 315 Q33 312 28 309 Q20 304 14 298 Q8 292 3 286 Q-1 280 -5 283 Q-10 288 -5 292 Q-2 296 1 299.5 Q4 303 7 306 Q24 323 43 330 Q50 334 56 331 Q68 327 66 313 Q62 298 52 285 Q46 276 38.5 268 Q31 260 23 252 Q20 250 11 241 Q10 240 9.5 240 Q9 240 8 239 L9 239 Z M31 111 L30 111 L28 109 Q20 101 13 93.5 Q6 86 -2 78 Q-15 63 -30 50 Q-38 42 -45.5 35.5 Q-53 29 -61 21 Q-66 16 -70 12.5 Q-74 9 -79 4 Q-85 -3 -90.5 -9 Q-96 -15 -102 -22 Q-109 -30 -113.5 -37 Q-118 -44 -122 -52 Q-126 -61 -126 -70 Q-125 -83 -114 -80 Q-101 -79 -87 -68 Q-69 -56 -53 -40 Q-47 -33 -41 -26.5 Q-35 -20 -30 -13 Q-25 -6 -20 1.5 Q-15 9 -10 17 Q0 33 7 48 Q11 56 14 64 Q17 72 21 81 Q24 89 26.5 96 Q29 103 31 111 Z " />
<glyph glyph-name="braceleft" unicode="&#x7b;" horiz-adv-x="154" d="M38 83 Q41 86 45 84 Q49 83 47 77 Q45 72 40.5 70 Q36 68 32 71 Q19 80 16 97 Q14 108 15.5 119 Q17 130 20 141 Q22 155 25.5 168 Q29 181 33 192 Q39 206 44.5 221 Q50 236 55 251 Q57 254 57.5 257.5 Q58 261 59 264 Q61 269 56 270 Q55 271 53.5 272 Q52 273 50 275 Q43 282 49 295 Q52 300 55 304.5 Q58 309 61 314 Q78 337 88 360 Q93 369 97 378.5 Q101 388 105 398 Q111 412 116.5 427 Q122 442 128 457 Q133 468 137 478 Q141 488 146 499 Q158 524 178 544 Q182 547 186.5 550 Q191 553 196 554 Q200 554 201 553 Q206 553 204 548 Q204 544 200 544 Q195 544 190 539 Q184 534 179.5 528 Q175 522 170 516 Q163 506 158 495 Q153 484 148 473 Q141 455 134.5 437 Q128 419 120 401 Q115 387 109 372.5 Q103 358 95 344 Q88 333 81.5 323 Q75 313 69 303 L60 288 Q58 282 62 281 Q63 281 65 279 Q74 275 72 262 Q70 256 68.5 250 Q67 244 65 238 Q61 227 57 217.5 Q53 208 49 197 Q45 184 41 171.5 Q37 159 35 145 Q33 137 32 128.5 Q31 120 30 112 Q29 104 30.5 96.5 Q32 89 38 83 Z " />
<glyph glyph-name="bar" unicode="&#x7c;" horiz-adv-x="133" d="M-15 68 Q-14 71 -13.5 75 Q-13 79 -11 84 L10 150 L37 231 Q41 244 44.5 256.5 Q48 269 53 282 Q57 293 60.5 303.5 Q64 314 68 325 Q73 342 79 358 Q85 374 90 391 Q94 402 97.5 412.5 Q101 423 104 434 Q109 447 113 460 Q117 473 122 486 Q128 503 134 521 Q140 539 146 556 Q148 563 149 564 Q149 566 151 568 Q153 571 157 570 Q160 569 160 565 Q160 560 159 559 Q155 547 151 534.5 Q147 522 143 510 L129 468 Q126 459 123 449.5 Q120 440 117 430 Q114 422 111.5 414 Q109 406 106 398 L91 353 Q86 341 82.5 328.5 Q79 316 74 304 Q71 293 67 282 Q63 271 60 260 Q55 246 50 231 Q45 216 40 201 L28 165 Q20 145 15 125 Q10 112 6 99 Q2 86 -2 73 Q-4 65 -4 65 Q-5 58 -11 60 Q-17 60 -15 68 Z " />
<glyph glyph-name="braceright" unicode="&#x7d;" horiz-adv-x="136" d="M65 287 Q59 289 58 291 Q47 299 50 314 Q53 334 62 352 Q68 366 74 379 Q80 392 87 405 Q94 420 100.5 434.5 Q107 449 114 464 Q118 473 121 482.5 Q124 492 128 502 Q130 509 132 516.5 Q134 524 134 532 Q134 534 133.5 536.5 Q133 539 133 541 Q133 546 127 546 Q126 547 125 547 Q120 549 122 552 Q122 556 127 556 Q137 556 141 549 Q144 544 144.5 539 Q145 534 145 528 Q144 519 142 511 Q140 503 138 495 Q131 469 117 440 Q112 429 106.5 419 Q101 409 96 398 Q92 387 87.5 377.5 Q83 368 78 358 Q75 349 71.5 340.5 Q68 332 65 323 Q63 319 63 315.5 Q63 312 62 308 Q62 304 65 301 Q68 300 70.5 299 Q73 298 76 297 Q85 291 78 284 Q76 282 74.5 280 Q73 278 71 276 Q65 268 63 257 Q58 240 53.5 222.5 Q49 205 44 188 Q42 181 39 174.5 Q36 168 34 162 Q32 155 29 148.5 Q26 142 23 135 Q18 122 11 110 Q4 98 -6 87 Q-11 81 -16.5 74.5 Q-22 68 -29 62 Q-34 57 -36 56 Q-41 51 -47 55 Q-51 59 -49 62 Q-46 66 -42 66 Q-40 66 -40 68 Q-35 73 -30.5 78 Q-26 83 -21 88 Q-16 93 -12.5 98 Q-9 103 -5 108 Q-2 113 0 118 Q2 123 5 128 Q9 137 13 146 Q17 155 20 165 Q25 174 28 183.5 Q31 193 34 203 Q37 214 40.5 224 Q44 234 46 245 Q48 252 50 258.5 Q52 265 54 271 Q57 279 63 286 Q64 286 64 286.5 Q64 287 65 287 Z " />
<glyph glyph-name="asciitilde" unicode="&#x7e;" horiz-adv-x="148" d="M47 277 Q43 273 39 269.5 Q35 266 31 262 Q29 262 29 260 Q27 258 22 259 Q20 262 21 266 Q27 274 28 275 Q31 278 35 281 Q39 284 43 287 Q49 289 51 289 Q59 291 60 280 Q60 268 61 265 Q61 258 62 257 Q64 253 66 255 Q70 258 73.5 261 Q77 264 80 267 Q86 272 92 278 Q98 284 104 289 Q108 293 112 293 Q114 292 115 291 Q116 290 117 289 Q118 286 115 283 Q111 280 107.5 276.5 Q104 273 100 270 Q94 264 88 258 Q82 252 76 247 Q74 245 69 243 Q56 237 51 251 Q49 256 49 260.5 Q49 265 48 270 L48 276 Q48 277 47 277 Z " />
<glyph glyph-name="quoteleft" unicode="&#x2018;" horiz-adv-x="63" d="M64 550 Q63 548 63 545.5 Q63 543 61 541 Q57 530 54 519 Q51 508 48 497 Q48 497 46 491 Q45 488 39 489 Q36 491 37 495 L46 530 L53 551 L55 554 Q58 557 61 555 Q64 554 64 550 Z " />
<glyph glyph-name="quoteright" unicode="&#x2019;" horiz-adv-x="65" d="M64 550 Q63 548 63 545.5 Q63 543 61 541 Q57 530 54 519 Q51 508 48 497 Q48 497 46 491 Q45 488 39 489 Q36 491 37 495 L46 530 L53 551 L55 554 Q58 557 61 555 Q64 554 64 550 Z " />
<glyph glyph-name="quotedblleft" unicode="&#x201c;" horiz-adv-x="90" d="M74 492 Q74 493 75 494 L93 546 Q95 554 100 550 Q105 548 103 542 L85 494 Q83 489 82 489 Q80 487 77 487 L74 491 L74 492 Z M85 548 Q85 546 84 543.5 Q83 541 82 539 L70 506 Q69 504 68 502 Q67 500 65 497 Q64 493 59 495 Q55 496 57 502 Q62 513 65.5 523.5 Q69 534 73 545 L76 552 Q79 555 82 554 Q85 553 85 548 Z " />
<glyph glyph-name="quotedblright" unicode="&#x201d;" horiz-adv-x="91" d="M74 492 Q74 493 75 494 L93 546 Q95 554 100 550 Q105 548 103 542 L85 494 Q83 489 82 489 Q80 487 77 487 L74 491 L74 492 Z M85 548 Q85 546 84 543.5 Q83 541 82 539 L70 506 Q69 504 68 502 Q67 500 65 497 Q64 493 59 495 Q55 496 57 502 Q62 513 65.5 523.5 Q69 534 73 545 L76 552 Q79 555 82 554 Q85 553 85 548 Z " />
</font>
</svg>
