<?xml version="1.0" encoding="UTF-8"?>
<svg xmlns="http://www.w3.org/2000/svg" xmlns:xlink="http://www.w3.org/1999/xlink" version="1.2" >
<font id="Monerd Bold">
<font-face  font-family="Monerd" units-per-em="1000" ascent="750" descent="-250" font-style="normal" font-weight="100" font-stretch="normal" cap-height="688" x-height="760" underline-position="-75" underline-thickness="50" />
<missing-glyph  horiz-adv-x="119" d="" />
<glyph glyph-name="NULL" d="" />
<glyph glyph-name="nonmarkingreturn" unicode="&#xd;" horiz-adv-x="119" d="" />
<glyph glyph-name="space" unicode="&#x20;" horiz-adv-x="119" d="" />
<glyph glyph-name="exclam" unicode="&#x21;" horiz-adv-x="176" d="M141 -88 L141 -2 L48 -2 L48 -88 L141 -88 Z M48 26 L141 26 L141 587 L48 587 L48 26 Z " />
<glyph glyph-name="quotedbl" unicode="&#x22;" horiz-adv-x="280" d="M13 437 L85 437 L174 588 L77 588 L13 437 Z M114 437 L186 437 L275 588 L178 588 L114 437 Z " />
<glyph glyph-name="numbersign" unicode="&#x23;" horiz-adv-x="451" d="M330 588 C317 516 302 439 289 371 L215 371 L256 588 L162 588 L121 371 L42 371 L42 279 L103 279 C95 240 87 205 82 169 L22 169 L22 76 L65 76 L35 -88 L129 -88 C141 -23 149 24 160 76 L233 76 L204 -88 L297 -88 C309 -25 318 25 329 76 L403 76 L403 169 L346 169 L367 279 L421 279 L421 371 L384 371 L425 588 L330 588 Z M177 169 L198 278 C249 278 261 279 271 279 C264 240 259 205 251 169 L177 169 Z " />
<glyph glyph-name="dollar" unicode="&#x24;" horiz-adv-x="373" d="M243 613 L152 613 L152 589 C110 579 80 556 63 519 C56 506 50 484 50 455 L50 319 C50 294 60 271 80 251 C87 244 94 238 101 235 C104 232 107 231 110 230 C111 229 129 222 152 215 L152 20 C147 27 144 35 143 42 C142 45 142 49 142 53 L142 159 L50 159 L50 53 C50 24 56 1 63 -12 C80 -49 110 -72 152 -82 L152 -106 L244 -106 L244 -82 C287 -71 316 -48 332 -12 C339 1 345 24 345 53 L345 169 C345 212 326 238 311 254 C295 270 280 276 276 279 C273 280 263 286 244 291 L244 488 C255 473 254 455 254 454 L254 342 L345 342 L345 454 C345 485 339 506 332 519 C316 556 286 580 243 589 L243 613 Z M152 311 C144 316 142 322 142 323 L142 454 C142 458 142 462 143 465 C144 472 147 479 152 487 L152 311 Z M254 53 C254 50 254 46 253 42 C252 33 249 26 244 19 L244 193 C255 184 254 175 254 174 L254 53 Z " />
<glyph glyph-name="percent" unicode="&#x25;" horiz-adv-x="494" d="M332 600 L78 -96 L173 -96 L427 600 L332 600 Z M437 206 C420 223 398 232 373 232 C321 232 280 193 280 142 L280 -6 C280 -57 321 -96 373 -96 C398 -96 420 -87 437 -70 C456 -53 465 -31 465 -6 L465 142 C465 167 456 189 437 206 L437 206 Z M379 -7 C379 -11 377 -13 372 -13 C369 -13 363 -14 363 -7 L363 139 C363 144 366 146 372 146 C377 146 379 144 379 139 L379 -7 Z M189 281 C208 298 217 320 217 345 L217 492 C217 518 208 540 189 557 C171 574 150 582 125 582 C100 582 79 574 60 557 C41 540 32 518 32 492 L32 345 C32 320 41 298 60 281 C79 265 101 255 125 255 C149 255 172 265 189 281 L189 281 Z M118 487 C118 492 121 494 126 494 C129 494 134 490 134 487 L134 341 C134 336 131 334 126 334 C121 334 118 336 118 341 L118 487 Z " />
<glyph glyph-name="ampersand" unicode="&#x26;" horiz-adv-x="417" d="M347 319 L254 319 L254 306 L199 307 C156 307 147 331 144 352 L144 448 C144 463 150 475 161 484 C172 494 185 499 199 499 C230 499 253 477 254 449 L254 447 L254 386 L347 386 L347 450 L347 457 L347 458 C345 495 329 527 299 553 C271 578 238 590 199 590 C161 590 128 578 100 554 C71 529 54 495 51 459 L51 323 L51 322 C54 302 58 275 79 259 C80 256 82 256 83 255 C82 254 82 255 79 252 C59 237 54 210 51 191 L51 190 L51 40 C54 2 71 -30 100 -55 C128 -80 161 -92 199 -92 C236 -92 272 -78 299 -54 C329 -28 345 4 347 41 L347 68 L347 213 L377 213 L377 306 L347 306 L347 319 Z M254 50 C254 37 249 25 238 14 C227 5 214 0 199 0 C184 0 172 5 161 14 C150 24 144 36 144 50 L144 168 C145 176 147 187 155 196 C164 207 179 213 198 213 L254 213 L254 50 Z " />
<glyph glyph-name="quotesingle" unicode="&#x27;" horiz-adv-x="183" d="M74 588 L10 437 L82 437 L171 588 L74 588 L74 588 Z " />
<glyph glyph-name="parenleft" unicode="&#x28;" horiz-adv-x="167" d="M69 636 C52 621 40 603 31 582 C20 557 15 529 15 498 L15 9 C15 -20 20 -48 31 -75 C40 -97 53 -115 69 -128 C90 -145 115 -155 144 -158 L153 -159 L153 -58 L147 -56 C132 -51 120 -39 113 -20 C108 -5 108 9 108 10 L108 498 C109 508 110 517 113 526 C118 541 127 557 147 564 L153 565 L153 666 L144 665 C115 662 90 653 69 636 L69 636 Z " />
<glyph glyph-name="parenright" unicode="&#x29;" horiz-adv-x="181" d="M107 636 C86 653 61 662 32 665 L24 666 L24 565 L29 564 C45 559 56 547 63 527 C66 519 66 512 67 507 C68 504 68 501 68 498 L68 10 C68 10 68 -46 29 -56 L24 -58 L24 -159 L32 -158 C62 -155 87 -145 107 -128 C123 -115 136 -97 145 -75 C156 -48 161 -20 161 9 L161 498 C161 527 156 555 145 582 C136 603 124 621 107 636 L107 636 Z " />
<glyph glyph-name="asterisk" unicode="&#x2a;" horiz-adv-x="227" d="M169 407 L213 433 L175 487 C162 476 152 471 144 464 L144 503 L77 503 L77 466 L48 487 L9 432 L54 407 L10 382 L48 325 C60 336 69 341 77 348 L77 310 L145 310 L145 348 L175 325 L214 381 L169 407 Z " />
<glyph glyph-name="plus" unicode="&#x2b;" horiz-adv-x="388" d="M243 460 L150 460 L150 347 L36 347 L36 254 L150 254 L150 140 L243 140 L243 254 L357 254 L357 347 L243 347 L243 460 L243 460 Z " />
<glyph glyph-name="comma" unicode="&#x2c;" horiz-adv-x="179" d="M8 -126 L80 -126 L168 25 L72 25 L8 -126 L8 -126 Z " />
<glyph glyph-name="hyphen" unicode="&#x2d;" horiz-adv-x="307" d="M279 344 L28 344 L28 251 L279 251 L279 344 L279 344 Z " />
<glyph glyph-name="period" unicode="&#x2e;" horiz-adv-x="119" d="M106 28 L13 28 L13 -84 L106 -84 L106 28 L106 28 Z " />
<glyph glyph-name="slash" unicode="&#x2f;" horiz-adv-x="356" d="M254 623 L16 -103 L110 -103 L348 623 L254 623 L254 623 Z " />
<glyph glyph-name="zero" unicode="0" horiz-adv-x="389" d="M286 570 C264 583 236 590 201 590 C166 590 138 583 116 570 C97 559 82 545 71 526 C59 504 53 479 53 451 L53 48 C53 20 59 -5 71 -27 C82 -46 97 -61 116 -72 C139 -85 167 -91 201 -91 C235 -91 263 -85 286 -72 C305 -61 320 -46 330 -27 C343 -6 349 20 349 49 L349 450 C349 479 343 505 330 526 C320 545 305 560 286 570 L286 570 Z M145 450 C145 453 145 456 146 459 C147 464 148 471 152 478 C162 496 178 505 201 505 C224 505 241 496 250 478 L145 242 L145 450 Z M241 8 C232 -1 218 -6 201 -6 C176 -6 159 4 151 25 L256 264 L256 49 L256 48 C256 43 255 39 254 34 C251 26 249 16 241 8 L241 8 Z " />
<glyph glyph-name="one" unicode="1" horiz-adv-x="179" d="M34 499 L56 499 L56 -92 L149 -92 L149 590 L34 590 L34 499 L34 499 Z " />
<glyph glyph-name="two" unicode="2" horiz-adv-x="375" d="M277 570 C254 583 226 589 192 589 C145 589 108 576 81 551 C46 516 43 469 43 450 L43 347 L136 347 L136 449 C136 452 136 455 137 458 C138 463 139 470 143 477 C152 495 168 504 192 504 C210 505 224 501 233 490 C240 482 243 472 246 464 C247 459 248 455 247 450 L247 299 C247 231 198 223 169 215 L168 215 C125 206 92 187 69 157 C46 128 43 97 43 82 L43 -92 L340 -92 L340 0 L136 0 L136 66 C136 85 143 100 156 111 C170 123 192 131 222 136 C257 142 285 159 308 188 C328 215 340 246 340 278 L340 449 C340 476 334 502 321 525 C310 544 295 559 277 570 L277 570 Z " />
<glyph glyph-name="three" unicode="3" horiz-adv-x="352" d="M286 553 C257 578 224 590 186 590 C148 590 115 578 86 553 C57 527 41 495 38 457 L38 347 L131 347 L131 446 L132 449 C132 476 157 499 186 499 C201 499 214 494 225 484 C236 475 241 463 241 448 L241 351 C240 331 229 306 186 306 L157 306 L157 213 L187 213 C207 213 222 207 231 196 C239 185 241 175 241 167 L241 50 C241 37 236 25 225 14 C214 5 201 0 186 0 C171 0 159 5 148 14 C137 24 131 36 131 50 L131 167 L38 167 L38 41 C41 3 57 -29 86 -55 C115 -80 148 -92 186 -92 C224 -92 257 -80 286 -55 C314 -30 331 3 334 40 L334 190 C333 210 327 237 306 252 C305 253 303 254 302 255 C303 256 304 257 307 258 C327 274 333 302 334 322 L334 458 L334 459 C331 495 314 529 286 553 L286 553 Z " />
<glyph glyph-name="four" unicode="4" horiz-adv-x="391" d="M239 590 L28 242 L28 159 L247 159 L247 -92 L340 -92 L340 159 L370 159 L370 252 L340 252 L340 590 L239 590 Z M140 252 L247 439 L247 252 L140 252 Z " />
<glyph glyph-name="five" unicode="5" horiz-adv-x="380" d="M52 245 L138 245 L146 244 L145 253 C145 254 145 256 146 258 C147 263 149 266 152 269 C161 279 178 285 201 286 C221 286 235 282 243 274 C250 267 256 259 256 220 L256 48 C256 43 255 39 254 34 C251 26 248 16 240 8 C231 -2 217 -7 200 -7 C177 -7 161 2 152 20 C148 27 147 34 146 39 C145 42 145 45 145 48 L145 111 L52 111 L52 48 C52 29 56 -19 90 -53 C116 -79 153 -92 201 -92 C236 -92 264 -85 286 -72 C304 -62 319 -47 330 -28 C343 -5 349 21 349 48 L349 249 C349 290 335 322 306 345 C280 366 245 377 201 378 L200 378 C177 378 157 373 145 369 L145 498 L349 498 L349 590 L52 590 L52 245 Z " />
<glyph glyph-name="six" unicode="6" horiz-adv-x="383" d="M344 398 L344 451 C344 480 338 505 326 526 C315 545 300 560 281 571 C258 584 230 590 196 590 C162 590 134 584 111 571 C92 560 77 545 66 526 C54 504 48 479 48 450 L48 48 C48 19 54 -6 66 -28 C77 -47 92 -62 111 -72 C133 -85 161 -92 196 -92 C231 -92 259 -85 281 -72 C300 -62 315 -47 326 -28 C338 -6 344 19 344 48 L344 183 C344 214 329 241 300 262 C272 283 237 294 196 296 C173 297 156 302 147 312 C140 320 140 327 140 328 L140 450 C140 451 140 475 156 491 C165 500 179 505 196 505 C219 505 235 496 244 479 C247 472 250 464 251 459 C252 456 252 453 252 450 L252 398 L344 398 Z M141 213 C153 210 171 206 195 205 C242 202 252 182 252 179 L252 48 C252 45 252 42 251 39 C250 34 247 27 244 20 C235 2 219 -7 196 -7 C178 -7 165 -2 156 8 C140 23 140 47 140 48 L141 213 Z " />
<glyph glyph-name="seven" unicode="7" horiz-adv-x="359" d="M27 497 L233 497 C218 476 185 427 152 351 C127 291 106 228 91 164 C72 83 63 0 63 -84 L63 -92 L159 -92 L159 -84 C159 0 168 80 187 157 C202 221 222 279 247 335 C282 412 320 464 335 483 L337 485 L337 590 L27 590 L27 497 Z " />
<glyph glyph-name="eight" unicode="8" horiz-adv-x="381" d="M297 553 C269 578 236 590 198 590 C161 590 125 577 98 552 C68 526 52 494 50 457 L50 456 L50 325 L50 324 C51 304 57 275 77 259 C80 258 81 256 82 255 C81 255 80 254 78 252 C57 236 51 209 50 189 L50 42 C52 4 68 -28 98 -54 C125 -78 161 -92 198 -92 C235 -92 270 -78 297 -54 C326 -30 343 4 346 40 L346 190 L346 191 C343 210 338 237 318 253 C315 254 314 255 313 255 C316 258 315 256 318 259 C338 275 343 302 346 323 L346 458 C343 496 326 528 297 553 L297 553 Z M253 51 C253 36 247 24 236 15 C226 5 213 0 198 0 C183 0 170 5 159 15 C148 24 143 36 143 51 L143 168 C146 189 154 213 197 213 L199 213 C218 213 233 207 242 196 C250 187 252 176 253 168 L253 51 Z M253 352 C250 331 241 307 198 307 C155 307 146 331 143 352 L143 448 C143 462 148 474 159 483 C170 493 183 498 198 498 C213 498 226 493 236 483 C247 474 253 462 253 448 L253 352 Z " />
<glyph glyph-name="nine" unicode="9" horiz-adv-x="372" d="M275 571 C254 584 225 590 190 590 C156 590 128 584 105 571 C86 560 71 545 61 526 C48 504 42 479 42 451 L42 315 C42 284 57 258 86 236 C115 215 149 204 190 202 C210 202 225 196 235 185 C240 178 244 172 245 165 C246 162 246 158 246 154 L246 48 C246 47 246 24 230 8 C221 -2 207 -7 190 -7 C167 -7 151 2 142 20 C138 27 137 34 136 39 C135 42 135 45 135 48 L135 100 L42 100 L42 48 C42 21 48 -5 61 -28 C71 -47 86 -62 105 -72 C127 -85 155 -92 190 -92 C225 -92 252 -87 275 -72 C294 -62 309 -47 320 -28 C332 -6 338 19 338 48 L338 450 C338 479 332 504 320 526 C309 545 294 560 275 571 L275 571 Z M246 285 C233 288 215 291 191 294 C143 297 135 317 135 319 L135 450 C135 453 135 456 136 459 C137 464 138 471 142 478 C151 496 167 505 190 505 C207 505 221 500 230 491 C246 475 246 451 246 450 L246 285 Z " />
<glyph glyph-name="colon" unicode="&#x3a;" horiz-adv-x="157" d="M129 507 L36 507 L36 395 L129 395 L129 507 Z M36 204 L36 92 L129 92 L129 204 L36 204 Z " />
<glyph glyph-name="semicolon" unicode="&#x3b;" horiz-adv-x="218" d="M105 53 L194 204 L97 204 L34 53 L105 53 Z M188 396 L188 507 L96 507 L96 396 L188 396 Z " />
<glyph glyph-name="less" unicode="&#x3c;" horiz-adv-x="410" d="M49 262 L370 142 L370 239 L365 240 C328 253 285 267 244 282 C227 289 208 293 191 300 L370 362 L370 459 L49 338 L49 262 Z " />
<glyph glyph-name="equal" unicode="&#x3d;" horiz-adv-x="318" d="M293 193 L293 287 L29 287 L29 193 L293 193 Z M293 315 L293 409 L29 409 L29 315 L293 315 Z " />
<glyph glyph-name="greater" unicode="&#x3e;" horiz-adv-x="389" d="M42 362 L221 300 L42 239 L42 142 L362 262 L362 338 L42 459 L42 362 L42 362 Z " />
<glyph glyph-name="question" unicode="&#x3f;" horiz-adv-x="369" d="M99 -6 L99 -84 L99 -92 L193 -92 L193 1 L99 1 L99 -6 Z M322 526 C311 545 296 560 277 571 C254 584 226 590 192 590 C144 590 107 577 82 552 C47 517 44 470 44 451 L44 398 L137 399 L137 451 C137 454 137 457 138 460 C139 465 140 471 144 478 C153 496 169 505 192 505 C210 505 223 500 232 491 C240 483 242 473 245 465 C246 460 247 456 247 451 L247 351 L247 285 C202 276 167 261 142 242 C115 221 101 196 99 165 L99 36 L99 29 L193 29 L193 146 C193 171 216 180 253 192 C273 199 294 205 311 218 C330 231 340 252 340 279 L340 451 C340 479 334 504 322 526 L322 526 Z " />
<glyph glyph-name="at" unicode="&#x40;" horiz-adv-x="417" d="M211 553 C144 553 96 538 67 509 C48 490 38 466 38 441 L38 121 C38 94 48 71 67 52 C96 23 144 8 211 8 C371 8 383 94 383 121 L383 440 C383 467 371 553 211 553 L211 553 Z M322 122 C317 114 294 67 211 67 C172 67 142 76 120 95 C105 107 102 119 99 122 L99 439 C102 442 107 454 122 466 C145 485 174 494 211 494 C251 494 281 485 302 466 C317 454 321 442 322 439 L322 122 Z M211 467 C167 467 147 447 138 430 C131 419 128 406 128 389 L128 381 L177 381 L184 381 L184 388 C184 392 184 414 211 414 C218 414 225 412 230 408 C233 404 235 400 236 395 C237 392 237 390 237 389 L237 324 L237 323 C237 318 233 310 210 309 C163 308 128 280 128 245 L128 173 C128 156 131 142 138 131 C155 100 187 94 211 94 C254 94 274 114 283 131 C290 144 294 158 294 173 L294 388 C294 403 290 418 283 431 C266 462 235 467 211 467 L211 467 Z M230 153 C225 149 218 147 211 147 C184 147 184 169 184 173 L184 242 C185 245 188 252 211 253 C222 254 230 256 237 257 L237 173 C237 172 237 161 230 153 L230 153 Z " />
<glyph glyph-name="A" unicode="A" horiz-adv-x="398" d="M200 390 L259 103 L145 103 L200 390 Z M384 -88 L243 588 L159 588 L22 -88 L117 -88 L136 14 L268 14 L289 -88 L384 -88 Z " />
<glyph glyph-name="B" unicode="B" horiz-adv-x="348" d="M110 225 L172 225 L173 225 C235 225 244 192 247 173 L247 57 C247 24 205 -1 173 -1 L110 -1 L110 225 Z M235 355 C235 336 224 303 173 303 L110 303 L110 508 L173 508 C205 508 235 484 235 451 L235 355 Z M328 180 C328 203 323 233 296 252 C292 255 289 256 286 257 C289 258 290 260 291 261 C308 276 317 300 317 335 L317 447 C317 486 302 520 272 548 C244 573 208 588 169 588 L21 588 L21 -88 L169 -88 C208 -88 246 -75 277 -48 C311 -20 328 14 328 53 L328 180 Z " />
<glyph glyph-name="C" unicode="C" horiz-adv-x="352" d="M264 -72 C283 -61 297 -46 308 -27 C321 -5 327 20 327 48 L327 56 L234 56 L234 48 C234 43 233 39 232 34 C229 26 226 16 219 8 C209 -2 195 -7 178 -7 C155 -7 139 2 130 20 C126 27 125 34 124 39 C123 42 123 45 123 48 L123 450 C123 453 123 456 124 459 C125 464 126 470 130 477 C139 496 155 505 178 505 C195 505 209 500 219 490 C226 482 229 472 232 464 C233 459 234 455 234 450 L234 442 L327 442 L327 450 C327 478 321 503 308 525 C297 544 282 559 264 570 C241 583 212 590 179 590 C145 590 116 583 93 570 C75 559 60 544 49 525 C36 503 30 478 30 450 L30 48 C30 20 36 -5 49 -27 C60 -46 75 -61 93 -72 C116 -85 145 -92 179 -92 C212 -92 241 -85 264 -72 L264 -72 Z " />
<glyph glyph-name="D" unicode="D" horiz-adv-x="384" d="M299 -48 C330 -21 344 14 344 53 L344 447 C344 486 330 521 299 548 C272 573 235 588 196 588 L48 588 L48 -88 L196 -88 C235 -88 272 -75 299 -48 L299 -48 Z M141 497 L196 497 C211 497 224 492 235 483 C246 472 251 460 251 447 L251 53 C251 40 246 28 235 17 C224 8 211 3 196 3 L141 3 L141 497 Z " />
<glyph glyph-name="E" unicode="E" horiz-adv-x="337" d="M308 5 L131 5 L131 148 L225 148 L225 241 L131 241 L131 495 L308 495 L308 588 L39 588 L39 -88 L308 -88 L308 5 Z M308 -88 L308 5 L131 5 L131 148 L225 148 L225 241 L131 241 L131 495 L308 495 L308 588 L39 588 L39 -88 L308 -88 Z " />
<glyph glyph-name="F" unicode="F" horiz-adv-x="387" d="M66 -88 L159 -88 L159 148 L253 148 L253 241 L159 241 L159 495 L335 495 L335 588 L66 588 L66 -88 L66 -88 Z " />
<glyph glyph-name="G" unicode="G" horiz-adv-x="389" d="M111 -72 C134 -85 163 -92 196 -92 C229 -92 257 -86 281 -73 C300 -62 314 -47 325 -28 C338 -6 344 19 344 48 L344 243 L215 243 L215 150 L252 150 L252 48 C252 45 251 31 244 18 C235 1 219 -7 196 -7 C173 -7 157 2 148 20 C144 27 143 34 142 39 C141 42 141 45 141 48 L141 450 C141 453 141 456 142 459 C143 464 144 470 148 477 C157 496 173 505 196 505 C213 505 227 500 236 490 C244 482 247 472 250 464 C251 459 252 455 252 450 L251 442 L344 442 L344 450 C344 479 338 504 326 525 C315 544 300 559 281 570 C258 583 229 590 196 590 C163 590 134 583 111 570 C92 559 77 544 66 525 C54 504 48 479 48 450 L48 48 C48 21 54 -6 66 -27 C77 -46 92 -61 111 -72 L111 -72 Z " />
<glyph glyph-name="H" unicode="H" horiz-adv-x="409" d="M152 190 L267 190 L267 -88 L359 -88 L359 588 L267 588 L267 283 L152 283 L152 588 L59 588 L59 -88 L152 -88 L152 190 L152 190 Z " />
<glyph glyph-name="I" unicode="I" horiz-adv-x="174" d="M137 588 L45 588 L45 -88 L137 -88 L137 588 L137 588 Z " />
<glyph glyph-name="J" unicode="J" horiz-adv-x="279" d="M177 -70 C196 -59 211 -46 222 -27 C238 0 242 31 242 52 L242 588 L149 588 L149 52 C149 51 151 30 138 15 C129 5 115 0 98 0 L72 0 L44 0 L36 0 L36 -88 L94 -88 C126 -88 154 -82 177 -70 L177 -70 Z " />
<glyph glyph-name="K" unicode="K" horiz-adv-x="428" d="M136 120 L290 -88 L406 -88 L209 177 L386 588 L286 588 L136 245 L136 588 L43 588 L43 -88 L136 -88 L136 120 L136 120 Z " />
<glyph glyph-name="L" unicode="L" horiz-adv-x="286" d="M262 5 L129 5 L129 588 L37 588 L37 -88 L262 -88 L262 5 L262 5 Z " />
<glyph glyph-name="M" unicode="M" horiz-adv-x="514" d="M132 227 L215 -88 L297 -88 L379 243 L379 -88 L472 -88 L472 587 L381 587 L256 88 L132 587 L40 587 L40 -88 L132 -88 L132 227 L132 227 Z " />
<glyph glyph-name="N" unicode="N" horiz-adv-x="387" d="M127 309 L263 -88 L354 -88 L354 588 L261 588 L261 191 L125 588 L34 588 L34 -88 L127 -88 L127 309 L127 309 Z " />
<glyph glyph-name="O" unicode="O" horiz-adv-x="384" d="M279 -72 C298 -62 312 -47 323 -27 C336 -5 342 20 342 48 L342 450 C342 478 336 503 323 525 C313 544 298 559 279 570 C256 583 227 590 194 590 C160 590 132 583 109 570 C90 559 75 544 64 525 C51 503 45 478 45 450 L45 48 C45 20 51 -5 64 -27 C75 -46 90 -61 109 -72 C132 -85 160 -92 194 -92 C227 -92 256 -85 279 -72 L279 -72 Z M146 20 C143 26 140 32 139 39 C138 42 138 45 138 48 L138 450 C138 453 138 456 139 459 C140 464 141 470 145 477 C154 496 171 505 194 505 C211 505 224 500 234 490 C241 482 244 472 247 464 C248 459 249 455 249 450 L249 48 C249 43 248 39 247 34 C244 26 241 16 234 8 C224 -2 211 -7 194 -7 C170 -7 154 2 146 20 L146 20 Z " />
<glyph glyph-name="P" unicode="P" horiz-adv-x="377" d="M138 193 L193 193 L194 193 C238 193 279 209 307 237 C330 259 342 287 342 320 L342 447 C342 488 328 521 300 548 C273 573 236 588 193 588 L45 588 L45 -88 L138 -88 L138 193 Z M138 497 L193 497 C208 497 221 492 232 483 C243 472 248 460 248 447 L248 331 C248 323 245 312 238 303 C229 292 214 286 194 286 L193 286 L138 286 L138 497 Z " />
<glyph glyph-name="Q" unicode="Q" horiz-adv-x="387" d="M198 -128 L295 -128 L274 -77 C305 -64 326 -41 338 -8 C343 4 348 24 348 49 L348 450 C348 479 342 504 330 526 C319 545 304 560 285 571 C262 584 234 590 200 590 C166 590 138 584 115 571 C96 560 81 545 70 526 C58 505 52 480 52 451 L52 48 C52 21 58 -3 69 -24 C80 -43 93 -58 110 -68 C129 -80 153 -88 183 -91 L198 -128 Z M144 450 C147 482 168 505 200 505 C235 505 255 482 255 451 L255 49 C254 14 231 -6 200 -6 C168 -6 144 18 144 49 L144 450 Z " />
<glyph glyph-name="R" unicode="R" horiz-adv-x="410" d="M143 214 L198 214 L199 214 C219 214 234 208 243 197 C251 188 253 177 254 169 L254 -88 L347 -88 L347 180 C347 203 344 232 321 251 C318 254 316 255 314 256 C316 257 318 258 321 261 C338 276 347 301 347 335 L347 447 C347 486 332 520 302 548 C274 573 238 588 199 588 L51 588 L51 -88 L143 -88 L143 214 Z M143 497 L199 497 C214 497 226 492 237 483 C248 473 254 461 254 447 L254 351 C253 343 251 332 243 323 C234 312 220 307 199 307 L143 307 L143 497 Z " />
<glyph glyph-name="S" unicode="S" horiz-adv-x="415" d="M134 -72 C157 -85 186 -92 219 -92 C252 -92 281 -85 304 -72 C323 -61 338 -46 349 -27 C361 -6 367 19 367 48 L367 164 C367 207 349 234 333 250 C317 265 302 273 298 274 C294 277 271 290 220 293 C172 296 164 316 164 319 L164 450 C164 453 164 456 165 459 C166 464 167 470 171 477 C180 496 196 505 219 505 C236 505 250 500 259 490 C267 482 270 472 273 464 C274 459 275 455 275 450 L275 336 L367 336 L367 450 C367 479 361 504 349 525 C338 544 323 559 304 570 C281 583 252 590 219 590 C186 590 157 583 134 570 C115 559 100 544 90 525 C77 503 71 478 71 450 L71 314 C71 288 81 265 102 246 C117 231 131 225 132 224 C134 224 177 205 219 202 C244 200 260 194 268 185 C271 181 273 177 274 174 C275 172 275 171 275 170 L275 169 L275 48 C275 43 274 39 273 34 C270 26 267 16 259 8 C250 -2 236 -7 219 -7 C196 -7 180 2 171 20 C167 27 166 34 165 39 C164 42 164 45 164 48 L164 154 L71 154 L71 48 C71 20 77 -5 90 -27 C100 -46 115 -61 134 -72 L134 -72 Z " />
<glyph glyph-name="T" unicode="T" horiz-adv-x="379" d="M145 -88 L238 -88 L238 495 L342 495 L342 588 L41 588 L41 495 L145 495 L145 -88 L145 -88 Z " />
<glyph glyph-name="U" unicode="U" horiz-adv-x="386" d="M341 588 L249 588 L248 48 C248 47 248 24 233 7 C222 -2 209 -7 193 -7 C170 -7 154 2 145 19 C142 25 139 32 138 39 C137 42 137 45 137 48 L138 588 L44 588 L44 47 C44 20 50 -5 63 -28 C74 -47 89 -62 108 -72 C131 -87 158 -92 193 -92 C227 -92 255 -86 278 -73 C297 -62 312 -47 322 -28 C335 -5 341 21 341 48 L341 588 Z " />
<glyph glyph-name="V" unicode="V" horiz-adv-x="388" d="M247 -88 L371 588 L276 588 L199 182 L123 588 L27 588 L151 -88 L247 -88 L247 -88 Z " />
<glyph glyph-name="W" unicode="W" horiz-adv-x="628" d="M391 -88 L487 -88 L611 588 L516 588 L439 182 L363 588 L270 588 L194 182 L117 588 L21 588 L145 -88 L242 -88 L316 319 L391 -88 L391 -88 Z " />
<glyph glyph-name="X" unicode="X" horiz-adv-x="418" d="M396 588 L301 588 L210 365 L118 588 L24 588 L163 250 L24 -88 L118 -88 L210 136 L302 -88 L396 -88 L257 250 L396 588 L396 588 Z " />
<glyph glyph-name="Y" unicode="Y" horiz-adv-x="436" d="M319 588 L219 320 L120 588 L19 588 L173 192 L173 -88 L266 -88 L266 192 L420 588 L319 588 L319 588 Z " />
<glyph glyph-name="Z" unicode="Z" horiz-adv-x="470" d="M411 5 L168 5 L411 501 L411 588 L52 588 L52 495 L296 495 L52 -1 L52 -88 L411 -88 L411 5 L411 5 Z " />
<glyph glyph-name="bracketleft" unicode="&#x5b;" horiz-adv-x="214" d="M45 632 C31 613 24 584 24 546 L24 -55 C24 -85 31 -109 46 -126 C64 -148 92 -159 131 -159 C136 -159 140 -159 143 -160 L165 -160 C172 -160 178 -160 183 -159 L191 -159 L191 -72 L150 -72 C137 -72 127 -72 122 -69 C118 -66 115 -63 115 -47 L114 551 C114 568 119 571 123 574 C130 578 141 578 156 578 L191 578 L191 666 L131 666 C90 666 62 655 45 632 L45 632 Z " />
<glyph glyph-name="backslash" unicode="&#x5c;" horiz-adv-x="343" d="M100 616 L6 616 L244 -110 L338 -110 L100 616 L100 616 Z " />
<glyph glyph-name="bracketright" unicode="&#x5d;" horiz-adv-x="211" d="M84 666 L24 666 L24 578 L59 578 C74 578 84 578 91 574 C96 571 100 568 100 551 L100 -47 C100 -63 96 -66 93 -69 C86 -72 77 -72 64 -72 L24 -72 L24 -159 L31 -159 C38 -160 43 -160 50 -160 L72 -160 C75 -159 79 -159 84 -159 C123 -159 151 -148 169 -126 C184 -109 191 -85 191 -55 L191 546 C191 585 184 613 169 632 C152 655 124 666 84 666 L84 666 Z " />
<glyph glyph-name="asciicircum" unicode="&#x5e;" horiz-adv-x="247" d="M79 588 L16 393 L95 393 C110 449 119 478 124 497 L152 392 L231 392 L170 588 L79 588 Z " />
<glyph glyph-name="underscore" unicode="&#x5f;" horiz-adv-x="418" d="M14 -88 L403 -88 L403 -5 L14 -5 L14 -88 L14 -88 Z " />
<glyph glyph-name="grave" unicode="&#x60;" horiz-adv-x="208" d="M9 588 L107 437 L195 437 L131 588 L9 588 L9 588 Z " />
<glyph glyph-name="a" unicode="a" horiz-adv-x="398" d="M145 103 L200 390 L259 103 L145 103 Z M289 -88 L384 -88 L243 588 L159 588 L22 -88 L117 -88 L136 14 L268 14 L289 -88 Z " />
<glyph glyph-name="b" unicode="b" horiz-adv-x="348" d="M116 225 L178 225 L179 225 C241 225 250 192 253 173 L253 57 C253 24 211 -1 179 -1 L116 -1 L116 225 Z M241 355 C241 336 230 303 179 303 L116 303 L116 508 L179 508 C211 508 241 484 241 451 L241 355 Z M334 180 C334 203 329 233 302 252 C298 255 295 256 292 257 C295 258 296 260 297 261 C314 276 323 300 323 335 L323 447 C323 486 308 520 278 548 C250 573 214 588 175 588 L27 588 L27 -88 L175 -88 C214 -88 252 -75 283 -48 C317 -20 334 14 334 53 L334 180 Z " />
<glyph glyph-name="c" unicode="c" horiz-adv-x="352" d="M264 -72 C283 -61 297 -46 308 -27 C321 -5 327 20 327 48 L327 56 L234 56 L234 48 C234 43 233 39 232 34 C229 26 226 16 219 8 C209 -2 195 -7 178 -7 C155 -7 139 2 130 20 C126 27 125 34 124 39 C123 42 123 45 123 48 L123 450 C123 453 123 456 124 459 C125 464 126 470 130 477 C139 496 155 505 178 505 C195 505 209 500 219 490 C226 482 229 472 232 464 C233 459 234 455 234 450 L234 442 L327 442 L327 450 C327 478 321 503 308 525 C297 544 282 559 264 570 C241 583 212 590 179 590 C145 590 116 583 93 570 C75 559 60 544 49 525 C36 503 30 478 30 450 L30 48 C30 20 36 -5 49 -27 C60 -46 75 -61 93 -72 C116 -85 145 -92 179 -92 C212 -92 241 -85 264 -72 L264 -72 Z " />
<glyph glyph-name="d" unicode="d" horiz-adv-x="384" d="M299 -48 C330 -21 344 14 344 53 L344 447 C344 486 330 521 299 548 C272 573 235 588 196 588 L48 588 L48 -88 L196 -88 C235 -88 272 -75 299 -48 L299 -48 Z M141 497 L196 497 C211 497 224 492 235 483 C246 472 251 460 251 447 L251 53 C251 40 246 28 235 17 C224 8 211 3 196 3 L141 3 L141 497 Z " />
<glyph glyph-name="e" unicode="e" horiz-adv-x="335" d="M308 -88 L308 5 L131 5 L131 148 L225 148 L225 241 L131 241 L131 495 L308 495 L308 588 L39 588 L39 -88 L308 -88 Z " />
<glyph glyph-name="f" unicode="f" horiz-adv-x="387" d="M66 -88 L159 -88 L159 148 L253 148 L253 241 L159 241 L159 495 L335 495 L335 588 L66 588 L66 -88 Z " />
<glyph glyph-name="g" unicode="g" horiz-adv-x="389" d="M111 -72 C134 -85 163 -92 196 -92 C229 -92 257 -86 281 -73 C300 -62 314 -47 325 -28 C338 -6 344 19 344 48 L344 243 L215 243 L215 150 L252 150 L252 48 C252 45 251 31 244 18 C235 1 219 -7 196 -7 C173 -7 157 2 148 20 C144 27 143 34 142 39 C141 42 141 45 141 48 L141 450 C141 453 141 456 142 459 C143 464 144 470 148 477 C157 496 173 505 196 505 C213 505 227 500 236 490 C244 482 247 472 250 464 C251 459 252 455 252 450 L251 442 L344 442 L344 450 C344 479 338 504 326 525 C315 544 300 559 281 570 C258 583 229 590 196 590 C163 590 134 583 111 570 C92 559 77 544 66 525 C54 504 48 479 48 450 L48 48 C48 21 54 -6 66 -27 C77 -46 92 -61 111 -72 L111 -72 Z " />
<glyph glyph-name="h" unicode="h" horiz-adv-x="409" d="M152 190 L267 190 L267 -88 L359 -88 L359 588 L267 588 L267 283 L152 283 L152 588 L59 588 L59 -88 L152 -88 L152 190 Z " />
<glyph glyph-name="i" unicode="i" horiz-adv-x="174" d="M137 588 L45 588 L45 -88 L137 -88 L137 588 Z " />
<glyph glyph-name="j" unicode="j" horiz-adv-x="279" d="M177 -70 C196 -59 211 -46 222 -27 C238 0 242 31 242 52 L242 588 L149 588 L149 52 C149 51 151 30 138 15 C129 5 115 0 98 0 L72 0 L44 0 L36 0 L36 -88 L94 -88 C126 -88 154 -82 177 -70 L177 -70 Z " />
<glyph glyph-name="k" unicode="k" horiz-adv-x="428" d="M136 120 L290 -88 L406 -88 L209 177 L386 588 L286 588 L136 245 L136 588 L43 588 L43 -88 L136 -88 L136 120 Z " />
<glyph glyph-name="l" unicode="l" horiz-adv-x="286" d="M262 5 L129 5 L129 588 L37 588 L37 -88 L262 -88 L262 5 Z " />
<glyph glyph-name="m" unicode="m" horiz-adv-x="514" d="M132 227 L215 -88 L297 -88 L379 243 L379 -88 L472 -88 L472 587 L381 587 L256 88 L132 587 L40 587 L40 -88 L132 -88 L132 227 Z " />
<glyph glyph-name="n" unicode="n" horiz-adv-x="387" d="M127 309 L263 -88 L354 -88 L354 588 L261 588 L261 191 L125 588 L34 588 L34 -88 L127 -88 L127 309 Z " />
<glyph glyph-name="o" unicode="o" horiz-adv-x="384" d="M279 -72 C298 -62 312 -47 323 -27 C336 -5 342 20 342 48 L342 450 C342 478 336 503 323 525 C313 544 298 559 279 570 C256 583 227 590 194 590 C160 590 132 583 109 570 C90 559 75 544 64 525 C51 503 45 478 45 450 L45 48 C45 20 51 -5 64 -27 C75 -46 90 -61 109 -72 C132 -85 160 -92 194 -92 C227 -92 256 -85 279 -72 L279 -72 Z M146 20 C143 26 140 32 139 39 C138 42 138 45 138 48 L138 450 C138 453 138 456 139 459 C140 464 141 470 145 477 C154 496 171 505 194 505 C211 505 224 500 234 490 C241 482 244 472 247 464 C248 459 249 455 249 450 L249 48 C249 43 248 39 247 34 C244 26 241 16 234 8 C224 -2 211 -7 194 -7 C170 -7 154 2 146 20 L146 20 Z " />
<glyph glyph-name="p" unicode="p" horiz-adv-x="377" d="M138 193 L193 193 L194 193 C238 193 279 209 307 237 C330 259 342 287 342 320 L342 447 C342 488 328 521 300 548 C273 573 236 588 193 588 L45 588 L45 -88 L138 -88 L138 193 Z M138 497 L193 497 C208 497 221 492 232 483 C243 472 248 460 248 447 L248 331 C248 323 245 312 238 303 C229 292 214 286 194 286 L193 286 L138 286 L138 497 Z " />
<glyph glyph-name="q" unicode="q" horiz-adv-x="387" d="M198 -128 L295 -128 L274 -77 C305 -64 326 -41 338 -8 C343 4 348 24 348 49 L348 450 C348 479 342 504 330 526 C319 545 304 560 285 571 C262 584 234 590 200 590 C166 590 138 584 115 571 C96 560 81 545 70 526 C58 505 52 480 52 451 L52 48 C52 21 58 -3 69 -24 C80 -43 93 -58 110 -68 C129 -80 153 -88 183 -91 L198 -128 Z M144 450 C147 482 168 505 200 505 C235 505 255 482 255 451 L255 49 C254 14 231 -6 200 -6 C168 -6 144 18 144 49 L144 450 Z " />
<glyph glyph-name="r" unicode="r" horiz-adv-x="410" d="M143 214 L198 214 L199 214 C219 214 234 208 243 197 C251 188 253 177 254 169 L254 -88 L347 -88 L347 180 C347 203 344 232 321 251 C318 254 316 255 314 256 C316 257 318 258 321 261 C338 276 347 301 347 335 L347 447 C347 486 332 520 302 548 C274 573 238 588 199 588 L51 588 L51 -88 L143 -88 L143 214 Z M143 497 L199 497 C214 497 226 492 237 483 C248 473 254 461 254 447 L254 351 C253 343 251 332 243 323 C234 312 220 307 199 307 L143 307 L143 497 Z " />
<glyph glyph-name="s" unicode="s" horiz-adv-x="415" d="M134 -72 C157 -85 186 -92 219 -92 C252 -92 281 -85 304 -72 C323 -61 338 -46 349 -27 C361 -6 367 19 367 48 L367 164 C367 207 349 234 333 250 C317 265 302 273 298 274 C294 277 271 290 220 293 C172 296 164 316 164 319 L164 450 C164 453 164 456 165 459 C166 464 167 470 171 477 C180 496 196 505 219 505 C236 505 250 500 259 490 C267 482 270 472 273 464 C274 459 275 455 275 450 L275 336 L367 336 L367 450 C367 479 361 504 349 525 C338 544 323 559 304 570 C281 583 252 590 219 590 C186 590 157 583 134 570 C115 559 100 544 90 525 C77 503 71 478 71 450 L71 314 C71 288 81 265 102 246 C117 231 131 225 132 224 C134 224 177 205 219 202 C244 200 260 194 268 185 C271 181 273 177 274 174 C275 172 275 171 275 170 L275 169 L275 48 C275 43 274 39 273 34 C270 26 267 16 259 8 C250 -2 236 -7 219 -7 C196 -7 180 2 171 20 C167 27 166 34 165 39 C164 42 164 45 164 48 L164 154 L71 154 L71 48 C71 20 77 -5 90 -27 C100 -46 115 -61 134 -72 L134 -72 Z " />
<glyph glyph-name="t" unicode="t" horiz-adv-x="379" d="M145 -88 L238 -88 L238 495 L342 495 L342 588 L41 588 L41 495 L145 495 L145 -88 Z " />
<glyph glyph-name="u" unicode="u" horiz-adv-x="386" d="M341 588 L249 588 L248 48 C248 47 248 24 233 7 C222 -2 209 -7 193 -7 C170 -7 154 2 145 19 C142 25 139 32 138 39 C137 42 137 45 137 48 L138 588 L44 588 L44 47 C44 20 50 -5 63 -28 C74 -47 89 -62 108 -72 C131 -87 158 -92 193 -92 C227 -92 255 -86 278 -73 C297 -62 312 -47 322 -28 C335 -5 341 21 341 48 L341 588 Z " />
<glyph glyph-name="v" unicode="v" horiz-adv-x="388" d="M247 -88 L371 588 L276 588 L199 182 L123 588 L27 588 L151 -88 L247 -88 Z " />
<glyph glyph-name="w" unicode="w" horiz-adv-x="628" d="M391 -88 L487 -88 L611 588 L516 588 L439 182 L363 588 L270 588 L194 182 L117 588 L21 588 L145 -88 L242 -88 L316 319 L391 -88 Z " />
<glyph glyph-name="x" unicode="x" horiz-adv-x="418" d="M396 588 L301 588 L210 365 L118 588 L24 588 L163 250 L24 -88 L118 -88 L210 136 L302 -88 L396 -88 L257 250 L396 588 Z " />
<glyph glyph-name="y" unicode="y" horiz-adv-x="436" d="M319 588 L219 320 L120 588 L19 588 L173 192 L173 -88 L266 -88 L266 192 L420 588 L319 588 Z " />
<glyph glyph-name="z" unicode="z" horiz-adv-x="470" d="M411 5 L168 5 L411 501 L411 588 L52 588 L52 495 L296 495 L52 -1 L52 -88 L411 -88 L411 5 Z " />
<glyph glyph-name="braceleft" unicode="&#x7b;" horiz-adv-x="277" d="M109 632 C94 613 87 585 87 546 L87 336 C87 331 85 327 82 324 C70 313 44 312 33 313 L25 314 L25 216 L33 215 C69 215 87 207 87 191 L87 -55 C87 -84 94 -107 109 -126 C128 -148 156 -159 194 -159 C197 -159 202 -159 207 -160 L228 -160 C235 -160 240 -160 247 -159 L254 -159 L254 -72 L214 -72 C201 -72 192 -72 185 -69 C182 -66 178 -63 178 -47 L178 198 L178 199 C177 228 164 246 153 257 C150 260 148 260 145 263 C155 267 163 275 169 286 C175 296 178 309 178 326 L178 551 C178 568 183 571 187 574 C194 578 206 578 219 578 L254 578 L254 666 L194 666 C154 666 126 655 109 632 L109 632 Z " />
<glyph glyph-name="bar" unicode="&#x7c;" horiz-adv-x="143" d="M117 618 L24 618 L24 -113 L117 -113 L117 618 L117 618 Z " />
<glyph glyph-name="braceright" unicode="&#x7d;" horiz-adv-x="283" d="M202 324 C198 327 196 331 196 336 L196 546 C196 584 189 613 175 632 C157 655 128 666 89 666 L29 666 L29 578 L64 578 C79 578 89 578 96 574 C101 571 105 568 105 551 L105 326 C106 309 109 296 114 286 C120 275 128 267 138 263 C137 262 134 260 130 257 C119 246 106 228 105 199 L105 198 L105 -47 C105 -63 102 -66 98 -69 C93 -72 82 -72 70 -72 L29 -72 L29 -159 L37 -159 C42 -160 48 -160 55 -160 L77 -160 C80 -159 84 -159 89 -159 C128 -159 156 -148 174 -126 C189 -109 196 -85 196 -55 L196 191 C196 207 214 215 251 215 L258 215 L258 314 L250 313 C241 312 213 313 202 324 L202 324 Z " />
<glyph glyph-name="asciitilde" unicode="&#x7e;" horiz-adv-x="382" d="M300 359 C292 350 268 327 251 326 C234 326 220 332 204 339 C185 347 167 356 143 355 C96 355 40 295 38 293 L33 288 L90 223 L95 229 C96 229 123 261 151 262 C166 263 177 257 192 250 C208 242 227 231 255 234 C273 234 296 245 325 268 C345 284 359 299 360 300 L365 305 L306 364 L300 359 Z " />
<glyph glyph-name="cent" unicode="&#xa2;" horiz-adv-x="244" d="M164 399 L240 399 L240 407 C240 426 236 443 229 460 C215 489 190 508 155 515 L155 546 L88 546 L88 515 C53 508 29 489 15 460 C7 444 4 426 4 407 L4 90 C4 69 8 52 15 37 C29 8 53 -11 88 -18 L88 -43 L155 -43 L155 -19 C190 -12 215 7 229 37 C236 54 240 71 240 90 L240 98 L171 98 L164 98 L164 90 C164 89 164 74 155 62 L155 435 C164 423 164 408 164 407 L164 399 Z M88 64 C85 69 82 75 81 81 C80 84 80 87 80 90 L80 407 C80 410 80 412 81 415 C82 421 85 427 88 432 L88 64 Z " />
<glyph glyph-name="sterling" unicode="&#xa3;" horiz-adv-x="361" d="M137 207 L262 207 L262 290 L137 290 L137 449 C137 452 137 455 138 458 C139 463 140 470 144 477 C153 495 169 504 192 504 C209 504 223 499 232 490 C248 474 248 450 248 449 L248 396 L341 396 L341 449 C341 476 335 502 322 525 C311 544 296 559 277 569 C254 582 226 589 192 589 C145 589 108 576 82 550 C47 515 44 470 44 450 L44 290 L22 290 L22 207 L44 207 L45 -9 L22 -9 L22 -92 L341 -92 L341 -9 L138 -9 L137 207 Z " />
<glyph glyph-name="Agrave" unicode="&#xc0;" horiz-adv-x="398" d="M22 -88 L118 -88 L137 14 L268 14 L290 -88 L385 -88 L243 588 L159 588 L22 -88 Z M201 347 L251 106 L156 106 L201 347 Z M174 706 L75 706 L168 597 L241 597 L174 706 Z " />
<glyph glyph-name="Aacute" unicode="&#xc1;" horiz-adv-x="398" d="M264 14 L286 -88 L380 -88 L239 588 L155 588 L18 -88 L114 -88 L133 14 L264 14 Z M247 106 L152 106 L197 347 L247 106 Z M219 706 L153 597 L225 597 L318 706 L219 706 Z " />
<glyph glyph-name="Acircumflex" unicode="&#xc2;" horiz-adv-x="398" d="M264 13 L285 -89 L381 -89 L239 587 L155 587 L18 -89 L113 -89 L133 13 L264 13 Z M247 105 L152 105 L197 346 L247 105 Z M197 653 L227 592 L307 592 L242 709 L154 709 L87 593 L167 593 L197 653 Z " />
<glyph glyph-name="Atilde" unicode="&#xc3;" horiz-adv-x="398" d="M135 14 L267 14 L288 -88 L383 -88 L241 588 L157 588 L21 -88 L116 -88 L135 14 Z M200 347 L249 106 L154 106 L200 347 Z M135 602 C140 609 155 622 170 623 C181 623 187 620 196 615 C207 610 219 603 239 604 C269 604 305 644 310 649 L315 654 L272 697 L267 691 C260 683 245 671 236 670 C225 670 217 674 206 679 C194 684 181 690 165 690 L164 690 C133 690 95 649 93 647 L89 642 L129 595 L135 602 Z " />
<glyph glyph-name="Adieresis" unicode="&#xc4;" horiz-adv-x="398" d="M115 690 L115 604 L198 604 L198 690 L115 690 Z M204 690 L204 604 L287 604 L287 690 L204 690 Z M267 14 L288 -88 L383 -88 L241 588 L157 588 L21 -88 L116 -88 L135 14 L267 14 Z M249 106 L154 106 L200 347 L249 106 Z " />
<glyph glyph-name="Aring" unicode="&#xc5;" horiz-adv-x="398" d="M266 14 L287 -88 L382 -88 L244 573 C267 588 279 611 279 638 C279 681 244 716 201 716 C158 716 123 681 123 638 C123 611 133 591 154 576 L20 -88 L115 -88 L134 14 L266 14 Z M201 678 C224 678 242 661 242 638 C242 615 224 597 201 597 C178 597 160 615 160 638 C160 661 178 678 201 678 L201 678 Z M199 347 L248 106 L153 106 L199 347 Z " />
<glyph glyph-name="AE" unicode="&#xc6;" horiz-adv-x="474" d="M185 14 L185 -88 L454 -88 L454 5 L278 5 L278 148 L372 148 L372 241 L278 241 L278 495 L454 495 L454 588 L151 588 L14 -88 L109 -88 L128 14 L185 14 Z M185 106 L147 106 L185 306 L185 106 Z " />
<glyph glyph-name="Ccedilla" unicode="&#xc7;" horiz-adv-x="329" d="M253 570 C230 583 201 590 168 590 C135 590 106 583 83 570 C64 559 49 544 38 525 C26 504 20 479 20 450 L20 49 L20 48 C20 21 25 -2 36 -23 C45 -42 58 -56 75 -67 C94 -80 117 -88 144 -90 C146 -94 148 -97 150 -99 C157 -110 167 -115 176 -120 C188 -127 194 -133 194 -138 C194 -153 187 -162 150 -166 L144 -166 L143 -210 L151 -210 C207 -207 226 -180 234 -164 C245 -144 243 -121 232 -109 C225 -100 218 -93 210 -88 C230 -83 248 -76 263 -65 C278 -54 291 -40 300 -21 C308 -6 316 17 316 49 L316 56 L231 56 L223 56 L223 48 C223 43 222 39 221 34 C218 26 215 16 208 8 C199 -1 185 -6 168 -6 C145 -6 129 3 119 20 C112 35 112 48 112 49 L112 450 C112 453 112 456 113 459 C114 464 115 471 119 478 C128 496 144 505 168 505 C185 505 198 500 208 490 C215 482 218 472 221 464 C222 459 223 455 223 450 L223 443 L316 443 L316 450 C316 479 310 504 297 525 C286 545 272 560 253 570 L253 570 Z " />
<glyph glyph-name="Egrave" unicode="&#xc8;" horiz-adv-x="327" d="M300 4 L124 4 L124 148 L218 148 L218 240 L124 240 L124 495 L300 495 L300 587 L31 587 L31 -88 L300 -88 L300 4 Z M137 711 L38 711 L131 603 L204 603 L137 711 Z " />
<glyph glyph-name="Eacute" unicode="&#xc9;" horiz-adv-x="359" d="M308 4 L131 4 L131 148 L225 148 L225 240 L131 240 L131 495 L308 495 L308 587 L38 587 L38 -88 L308 -88 L308 4 Z M193 712 L127 603 L200 603 L292 712 L193 712 Z " />
<glyph glyph-name="Ecircumflex" unicode="&#xca;" horiz-adv-x="359" d="M139 148 L233 148 L233 241 L139 241 L139 496 L315 496 L315 588 L46 588 L46 -88 L315 -88 L315 5 L139 5 L139 148 Z M148 600 C172 649 176 654 179 660 L209 599 L289 599 L224 715 L135 715 L68 600 L148 600 Z " />
<glyph glyph-name="Edieresis" unicode="&#xcb;" horiz-adv-x="359" d="M99 700 L99 614 L182 614 L182 700 L99 700 Z M192 700 L192 614 L275 614 L275 700 L192 700 Z M144 148 L239 148 L239 241 L144 241 L144 495 L321 495 L321 587 L52 587 L52 -88 L321 -88 L321 4 L144 4 L144 148 Z " />
<glyph glyph-name="Igrave" unicode="&#xcc;" horiz-adv-x="188" d="M172 -88 L172 588 L80 588 L80 -88 L172 -88 Z M106 719 L7 719 L100 610 L173 610 L106 719 Z " />
<glyph glyph-name="Iacute" unicode="&#xcd;" horiz-adv-x="179" d="M129 -88 L129 587 L37 587 L37 -88 L129 -88 Z M103 718 L37 610 L109 610 L202 718 L103 718 Z " />
<glyph glyph-name="Icircumflex" unicode="&#xce;" horiz-adv-x="214" d="M155 -88 L155 587 L63 587 L63 -88 L155 -88 Z M139 606 L219 606 L154 722 L66 722 L-2 607 L79 607 L109 667 L139 606 Z " />
<glyph glyph-name="Idieresis" unicode="&#xcf;" horiz-adv-x="212" d="M153 -88 L153 587 L60 587 L60 -88 L153 -88 Z M19 698 L19 612 L102 612 L102 698 L19 698 Z M112 612 L195 612 L195 698 L112 698 L112 612 Z " />
<glyph glyph-name="Eth" unicode="&#xd0;" horiz-adv-x="398" d="M372 447 C372 486 357 520 327 548 C299 573 261 588 224 588 L75 588 L75 285 L17 285 L17 204 L75 204 L75 -88 L224 -88 C261 -88 299 -75 327 -48 C357 -21 372 12 372 53 L372 447 Z M278 53 C278 40 273 28 262 17 C251 8 238 3 224 3 L168 3 L168 204 L231 204 L231 285 L168 285 L168 497 L224 497 C237 497 250 492 262 482 C273 473 278 461 278 447 L278 53 Z " />
<glyph glyph-name="Ntilde" unicode="&#xd1;" horiz-adv-x="389" d="M265 191 L129 587 L38 587 L38 -88 L131 -88 L131 309 L267 -88 L357 -88 L357 587 L265 587 L265 191 Z M252 681 C245 674 238 671 232 671 C221 670 213 674 202 679 C190 684 177 690 161 690 L160 690 C129 690 91 649 89 647 L85 642 L120 602 L125 596 L131 602 C136 609 151 622 166 623 C177 623 183 620 192 615 C203 610 215 603 235 604 C265 604 301 644 306 649 L311 654 L268 697 L263 691 L260 688 C257 685 255 684 252 681 L252 681 Z " />
<glyph glyph-name="Ograve" unicode="&#xd2;" horiz-adv-x="393" d="M113 -73 C137 -86 166 -92 199 -92 C232 -92 260 -86 284 -73 C302 -62 317 -47 328 -27 C341 -5 347 20 347 48 L347 450 C347 477 341 503 328 526 C317 545 302 560 284 571 C261 584 233 590 199 590 C164 590 136 584 113 571 C94 560 80 545 69 526 C57 504 51 479 51 451 L51 48 C51 19 57 -6 69 -27 C80 -46 94 -62 113 -73 L113 -73 Z M143 450 C143 453 143 456 144 459 C145 466 148 472 151 478 C159 496 175 505 199 505 C215 505 228 500 239 491 C246 483 249 473 252 465 C253 460 254 456 254 451 L254 48 C254 43 253 38 252 33 C249 25 246 15 239 7 C228 -2 215 -7 199 -7 C175 -7 159 2 151 20 C147 27 145 34 144 39 C143 42 143 45 143 48 L143 450 Z M266 596 L199 705 L100 705 L193 596 L266 596 Z " />
<glyph glyph-name="Oacute" unicode="&#xd3;" horiz-adv-x="385" d="M283 -73 C303 -62 318 -46 327 -27 C340 -6 346 19 346 48 L346 450 C346 479 340 505 327 526 C317 545 302 560 283 571 C260 584 232 590 198 590 C164 590 136 584 113 571 C94 560 79 545 68 526 C56 504 50 479 50 451 L50 48 C50 19 56 -6 68 -27 C79 -46 94 -62 113 -73 C137 -86 165 -92 198 -92 C231 -92 259 -86 283 -73 L283 -73 Z M150 20 C146 27 144 34 143 39 C142 42 142 45 142 48 L142 450 C142 453 142 456 143 459 C144 466 147 472 150 478 C159 496 175 505 198 505 C215 505 229 500 238 491 C246 483 248 473 251 465 C252 460 253 456 253 451 L253 48 C253 43 252 38 251 33 C248 25 246 15 238 7 C229 -2 215 -7 198 -7 C175 -7 159 2 150 20 L150 20 Z M320 705 L221 705 L155 596 L227 596 L320 705 Z " />
<glyph glyph-name="Ocircumflex" unicode="&#xd4;" horiz-adv-x="399" d="M114 -72 C137 -85 166 -92 199 -92 C232 -92 261 -85 284 -72 C303 -62 318 -47 329 -27 C341 -6 347 19 347 48 L347 449 C347 478 341 503 329 525 C318 544 303 559 284 570 C261 583 233 589 199 589 C165 589 137 583 114 570 C95 559 80 544 69 525 C58 504 51 477 51 450 L51 48 C51 21 58 -6 69 -27 C80 -46 95 -61 114 -72 L114 -72 Z M144 449 C144 450 144 462 151 477 C160 495 176 504 199 504 C217 504 230 499 239 490 C247 482 250 472 253 464 C254 459 255 455 255 450 L255 48 C255 43 254 39 253 34 C250 26 247 16 239 8 C230 -2 216 -7 199 -7 C176 -7 160 2 151 20 C147 27 146 34 145 39 C144 42 144 45 144 48 L144 449 Z M199 653 L229 592 L309 592 L244 709 L156 709 L89 593 L169 593 L199 653 Z " />
<glyph glyph-name="Otilde" unicode="&#xd5;" horiz-adv-x="384" d="M107 -73 C131 -86 159 -92 192 -92 C225 -92 253 -86 277 -73 C296 -62 311 -46 322 -27 C334 -6 340 19 340 48 L340 450 C340 479 334 504 322 526 C311 545 296 560 277 571 C254 584 226 590 192 590 C158 590 130 584 107 571 C88 560 73 545 62 526 C50 504 44 479 44 451 L44 48 C44 19 50 -6 62 -27 C73 -46 88 -62 107 -73 L107 -73 Z M136 450 C136 453 136 456 137 459 C138 466 141 472 144 478 C153 496 169 505 192 505 C209 505 223 500 232 491 C240 483 242 473 245 465 C246 460 247 456 247 451 L247 48 C247 43 246 38 245 33 C242 25 240 15 232 7 C223 -2 209 -7 192 -7 C169 -7 153 2 144 20 C140 27 138 34 137 39 C136 42 136 45 136 48 L136 450 Z M120 594 L125 601 C130 606 145 621 160 622 C171 622 177 618 186 614 C197 607 210 602 229 603 C259 603 295 642 300 647 L305 653 L262 695 L257 690 L246 679 C237 672 231 669 226 669 C215 669 207 673 196 678 C184 683 171 688 155 688 C124 688 84 648 84 646 L79 641 L114 601 L120 594 Z " />
<glyph glyph-name="Odieresis" unicode="&#xd6;" horiz-adv-x="399" d="M350 449 C350 476 344 502 331 525 C320 544 305 559 286 570 C265 583 236 589 201 589 C167 589 139 583 116 570 C97 559 83 544 72 525 C59 503 53 478 53 450 L53 48 C53 20 59 -5 72 -27 C82 -46 97 -61 116 -72 C139 -85 168 -92 201 -92 C235 -92 263 -85 286 -72 C305 -62 320 -47 331 -27 C344 -5 350 20 350 48 L350 449 Z M242 8 C232 -2 218 -7 201 -7 C178 -7 162 2 153 20 C149 27 148 34 147 39 C146 42 146 45 146 48 L146 449 C146 450 146 462 153 477 C162 495 178 504 201 504 C219 504 233 499 242 490 C249 482 252 472 255 464 C256 459 257 455 257 450 L257 48 C257 43 256 39 255 34 C252 26 249 16 242 8 L242 8 Z M195 694 L112 694 L112 607 L195 607 L195 694 Z M289 694 L206 694 L206 607 L289 607 L289 694 Z " />
<glyph glyph-name="Oslash" unicode="&#xd8;" horiz-adv-x="371" d="M97 -114 L109 -79 C128 -88 152 -92 181 -92 C214 -92 242 -86 266 -73 C285 -62 300 -46 311 -27 C324 -5 330 20 330 48 L330 449 C330 479 323 506 308 529 L335 612 L275 612 L262 572 C239 583 212 589 181 589 C147 589 119 583 96 570 C77 559 62 544 52 525 C39 502 33 477 33 450 L33 48 C33 27 37 -10 61 -42 L37 -114 L97 -114 Z M237 48 C237 43 236 38 235 33 C232 25 229 15 221 7 C212 -2 198 -7 181 -7 C162 -7 148 -1 138 11 L237 312 L237 48 Z M126 449 C126 452 126 455 127 458 C128 463 129 470 133 477 C142 495 158 504 181 504 C206 504 222 495 230 477 L126 157 L126 449 Z " />
<glyph glyph-name="Ugrave" unicode="&#xd9;" horiz-adv-x="376" d="M251 588 L251 48 C251 43 250 39 249 34 C246 26 243 16 235 8 C226 -2 212 -7 195 -7 C172 -7 156 2 147 20 C144 26 141 32 140 39 C139 42 139 45 139 48 L140 588 L47 588 L47 48 C47 21 53 -6 65 -27 C76 -47 91 -62 110 -72 C133 -85 162 -92 195 -92 C228 -92 257 -85 280 -72 C299 -62 314 -47 325 -27 C337 -6 343 19 343 48 L343 588 L251 588 Z M87 701 L179 592 L252 592 L186 701 L87 701 Z " />
<glyph glyph-name="Uacute" unicode="&#xda;" horiz-adv-x="386" d="M248 588 L247 48 C247 43 246 39 245 34 C242 26 240 16 232 8 C222 -2 209 -7 192 -7 C168 -7 152 2 144 20 C141 26 138 32 137 39 C136 42 136 45 136 48 L137 588 L44 588 L44 48 C44 21 50 -6 62 -27 C73 -47 88 -62 107 -72 C130 -85 159 -92 192 -92 C225 -92 254 -85 277 -72 C296 -62 311 -47 321 -27 C334 -5 340 20 340 48 L340 588 L248 588 Z M222 592 L315 701 L216 701 L150 592 L222 592 Z " />
<glyph glyph-name="Ucircumflex" unicode="&#xdb;" horiz-adv-x="386" d="M254 588 L254 48 L254 47 C254 42 253 38 252 33 C249 25 246 15 238 7 C229 -2 215 -7 198 -7 C175 -7 159 2 150 19 C143 34 143 47 143 48 L143 588 L50 588 L50 47 C50 19 56 -6 69 -28 C79 -47 94 -62 113 -73 C136 -86 164 -92 198 -92 C232 -92 260 -86 283 -73 C302 -62 317 -47 328 -28 C341 -5 347 21 347 48 L347 588 L254 588 Z M87 593 L167 593 L197 654 L227 593 L307 593 L242 709 L154 709 L87 593 Z " />
<glyph glyph-name="Udieresis" unicode="&#xdc;" horiz-adv-x="386" d="M249 588 L248 49 C248 44 247 40 246 35 C243 27 240 17 233 9 C224 -1 210 -6 193 -6 C170 -6 154 3 145 21 C142 27 139 33 138 40 C137 43 137 46 137 49 L138 588 L45 588 L45 49 C45 22 51 -5 63 -26 C74 -45 89 -60 108 -71 C131 -84 160 -91 193 -91 C226 -91 255 -84 278 -71 C297 -60 312 -45 323 -26 C335 -5 341 20 341 49 L341 588 L249 588 Z M193 688 L110 688 L110 602 L193 602 L193 688 Z M285 688 L202 688 L202 602 L285 602 L285 688 Z " />
<glyph glyph-name="Yacute" unicode="&#xdd;" horiz-adv-x="436" d="M220 320 L120 588 L19 588 L173 193 L173 -88 L266 -88 L266 192 L420 588 L319 588 L220 320 Z M326 697 L227 697 L161 589 L233 589 L326 697 Z " />
<glyph glyph-name="agrave" unicode="&#xe0;" horiz-adv-x="398" d="M159 588 L22 -88 L118 -88 L137 14 L268 14 L290 -88 L385 -88 L243 588 L159 588 Z M156 106 L201 347 L251 106 L156 106 Z M241 597 L174 706 L75 706 L168 597 L241 597 Z " />
<glyph glyph-name="aacute" unicode="&#xe1;" horiz-adv-x="398" d="M133 14 L264 14 L286 -88 L380 -88 L239 588 L155 588 L18 -88 L114 -88 L133 14 Z M197 347 L247 106 L152 106 L197 347 Z M318 706 L219 706 L153 597 L225 597 L318 706 Z " />
<glyph glyph-name="acircumflex" unicode="&#xe2;" horiz-adv-x="398" d="M135 14 L266 14 L287 -88 L383 -88 L241 588 L157 588 L20 -88 L115 -88 L135 14 Z M199 347 L249 106 L154 106 L199 347 Z M199 654 L229 593 L309 593 L244 710 L156 710 L89 594 L169 594 L199 654 Z " />
<glyph glyph-name="atilde" unicode="&#xe3;" horiz-adv-x="398" d="M135 14 L267 14 L288 -88 L383 -88 L241 588 L157 588 L21 -88 L116 -88 L135 14 Z M200 347 L249 106 L154 106 L200 347 Z M135 602 C140 609 155 622 170 623 C181 623 187 620 196 615 C207 610 219 603 239 604 C269 604 305 644 310 649 L315 654 L272 697 L267 691 C260 683 245 671 236 670 C225 670 217 674 206 679 C194 684 181 690 165 690 L164 690 C133 690 95 649 93 647 L89 642 L129 595 L135 602 Z " />
<glyph glyph-name="adieresis" unicode="&#xe4;" horiz-adv-x="398" d="M198 690 L115 690 L115 604 L198 604 L198 690 Z M287 690 L204 690 L204 604 L287 604 L287 690 Z M135 14 L267 14 L288 -88 L383 -88 L241 588 L157 588 L21 -88 L116 -88 L135 14 Z M200 347 L249 106 L154 106 L200 347 Z " />
<glyph glyph-name="aring" unicode="&#xe5;" horiz-adv-x="398" d="M266 14 L287 -88 L382 -88 L244 573 C267 588 279 611 279 638 C279 681 244 716 201 716 C158 716 123 681 123 638 C123 611 133 591 154 576 L20 -88 L115 -88 L134 14 L266 14 Z M201 678 C224 678 242 661 242 638 C242 615 224 597 201 597 C178 597 160 615 160 638 C160 661 178 678 201 678 L201 678 Z M199 347 L248 106 L153 106 L199 347 Z " />
<glyph glyph-name="ae" unicode="&#xe6;" horiz-adv-x="474" d="M128 14 L185 14 L185 -88 L454 -88 L454 5 L278 5 L278 148 L372 148 L372 241 L278 241 L278 495 L454 495 L454 588 L151 588 L14 -88 L109 -88 L128 14 Z M185 306 L185 106 L147 106 L185 306 Z " />
<glyph glyph-name="ccedilla" unicode="&#xe7;" horiz-adv-x="329" d="M253 570 C230 583 201 590 168 590 C135 590 106 583 83 570 C64 559 49 544 38 525 C26 504 20 479 20 450 L20 49 L20 48 C20 21 25 -2 36 -23 C45 -42 58 -56 75 -67 C94 -80 117 -88 144 -90 C146 -94 148 -97 150 -99 C157 -110 167 -115 176 -120 C188 -127 194 -133 194 -138 C194 -153 187 -162 150 -166 L144 -166 L143 -210 L151 -210 C207 -207 226 -180 234 -164 C245 -144 243 -121 232 -109 C225 -100 218 -93 210 -88 C230 -83 248 -76 263 -65 C278 -54 291 -40 300 -21 C308 -6 316 17 316 49 L316 56 L231 56 L223 56 L223 48 C223 43 222 39 221 34 C218 26 215 16 208 8 C199 -1 185 -6 168 -6 C145 -6 129 3 119 20 C112 35 112 48 112 49 L112 450 C112 453 112 456 113 459 C114 464 115 471 119 478 C128 496 144 505 168 505 C185 505 198 500 208 490 C215 482 218 472 221 464 C222 459 223 455 223 450 L223 443 L316 443 L316 450 C316 479 310 504 297 525 C286 545 272 560 253 570 L253 570 Z " />
<glyph glyph-name="egrave" unicode="&#xe8;" horiz-adv-x="327" d="M300 -88 L300 4 L124 4 L124 148 L218 148 L218 240 L124 240 L124 495 L300 495 L300 587 L31 587 L31 -88 L300 -88 Z M204 603 L137 711 L38 711 L131 603 L204 603 Z " />
<glyph glyph-name="eacute" unicode="&#xe9;" horiz-adv-x="359" d="M308 -88 L308 4 L131 4 L131 148 L225 148 L225 240 L131 240 L131 495 L308 495 L308 587 L38 587 L38 -88 L308 -88 Z M292 712 L193 712 L127 603 L200 603 L292 712 Z " />
<glyph glyph-name="ecircumflex" unicode="&#xea;" horiz-adv-x="359" d="M139 148 L233 148 L233 241 L139 241 L139 496 L315 496 L315 588 L46 588 L46 -88 L315 -88 L315 5 L139 5 L139 148 Z M148 600 C172 649 176 654 179 660 L209 599 L289 599 L224 715 L135 715 L68 600 L148 600 Z " />
<glyph glyph-name="edieresis" unicode="&#xeb;" horiz-adv-x="359" d="M182 700 L99 700 L99 614 L182 614 L182 700 Z M275 700 L192 700 L192 614 L275 614 L275 700 Z M144 4 L144 148 L239 148 L239 241 L144 241 L144 495 L321 495 L321 587 L52 587 L52 -88 L321 -88 L321 4 L144 4 Z " />
<glyph glyph-name="igrave" unicode="&#xec;" horiz-adv-x="188" d="M63 -88 L155 -88 L155 588 L63 588 L63 -88 Z M156 610 L89 719 L-10 719 L83 610 L156 610 Z " />
<glyph glyph-name="iacute" unicode="&#xed;" horiz-adv-x="176" d="M37 -88 L129 -88 L129 587 L37 587 L37 -88 Z M202 718 L103 718 L37 610 L109 610 L202 718 Z " />
<glyph glyph-name="icircumflex" unicode="&#xee;" horiz-adv-x="214" d="M63 -88 L155 -88 L155 587 L63 587 L63 -88 Z M109 667 L139 606 L219 606 L154 722 L66 722 L-2 607 L79 607 L109 667 Z " />
<glyph glyph-name="idieresis" unicode="&#xef;" horiz-adv-x="212" d="M60 -88 L153 -88 L153 587 L60 587 L60 -88 Z M102 698 L19 698 L19 612 L102 612 L102 698 Z M112 698 L112 612 L195 612 L195 698 L112 698 Z " />
<glyph glyph-name="ntilde" unicode="&#xf1;" horiz-adv-x="389" d="M262 587 L262 191 L126 587 L35 587 L35 -88 L128 -88 L128 309 L264 -88 L354 -88 L354 587 L262 587 Z M122 596 L128 602 C133 609 148 622 163 623 C174 623 180 620 189 615 C200 610 212 603 232 604 C262 604 298 644 303 649 L308 654 L265 697 L260 691 L257 688 C254 685 252 684 249 681 C242 674 235 671 229 671 C218 670 210 674 199 679 C187 684 174 690 158 690 L157 690 C126 690 88 649 86 647 L82 642 L117 602 L122 596 Z " />
<glyph glyph-name="ograve" unicode="&#xf2;" horiz-adv-x="393" d="M113 -73 C137 -86 166 -92 199 -92 C232 -92 260 -86 284 -73 C302 -62 317 -47 328 -27 C341 -5 347 20 347 48 L347 450 C347 477 341 503 328 526 C317 545 302 560 284 571 C261 584 233 590 199 590 C164 590 136 584 113 571 C94 560 80 545 69 526 C57 504 51 479 51 451 L51 48 C51 19 57 -6 69 -27 C80 -46 94 -62 113 -73 L113 -73 Z M143 450 C143 453 143 456 144 459 C145 466 148 472 151 478 C159 496 175 505 199 505 C215 505 228 500 239 491 C246 483 249 473 252 465 C253 460 254 456 254 451 L254 48 C254 43 253 38 252 33 C249 25 246 15 239 7 C228 -2 215 -7 199 -7 C175 -7 159 2 151 20 C147 27 145 34 144 39 C143 42 143 45 143 48 L143 450 Z M266 596 L199 705 L100 705 L193 596 L266 596 Z " />
<glyph glyph-name="oacute" unicode="&#xf3;" horiz-adv-x="385" d="M283 -73 C303 -62 318 -46 327 -27 C340 -6 346 19 346 48 L346 450 C346 479 340 505 327 526 C317 545 302 560 283 571 C260 584 232 590 198 590 C164 590 136 584 113 571 C94 560 79 545 68 526 C56 504 50 479 50 451 L50 48 C50 19 56 -6 68 -27 C79 -46 94 -62 113 -73 C137 -86 165 -92 198 -92 C231 -92 259 -86 283 -73 L283 -73 Z M150 20 C146 27 144 34 143 39 C142 42 142 45 142 48 L142 450 C142 453 142 456 143 459 C144 466 147 472 150 478 C159 496 175 505 198 505 C215 505 229 500 238 491 C246 483 248 473 251 465 C252 460 253 456 253 451 L253 48 C253 43 252 38 251 33 C248 25 246 15 238 7 C229 -2 215 -7 198 -7 C175 -7 159 2 150 20 L150 20 Z M320 705 L221 705 L155 596 L227 596 L320 705 Z " />
<glyph glyph-name="ocircumflex" unicode="&#xf4;" horiz-adv-x="399" d="M114 -72 C137 -85 166 -92 199 -92 C232 -92 261 -85 284 -72 C303 -62 318 -47 329 -27 C341 -6 347 19 347 48 L347 449 C347 478 341 503 329 525 C318 544 303 559 284 570 C261 583 233 589 199 589 C165 589 137 583 114 570 C95 559 80 544 69 525 C58 504 51 477 51 450 L51 48 C51 21 58 -6 69 -27 C80 -46 95 -61 114 -72 L114 -72 Z M144 449 C144 450 144 462 151 477 C160 495 176 504 199 504 C217 504 230 499 239 490 C247 482 250 472 253 464 C254 459 255 455 255 450 L255 48 C255 43 254 39 253 34 C250 26 247 16 239 8 C230 -2 216 -7 199 -7 C176 -7 160 2 151 20 C147 27 146 34 145 39 C144 42 144 45 144 48 L144 449 Z M199 653 L229 592 L309 592 L244 709 L156 709 L89 593 L169 593 L199 653 Z " />
<glyph glyph-name="otilde" unicode="&#xf5;" horiz-adv-x="384" d="M107 -73 C131 -86 159 -92 192 -92 C225 -92 253 -86 277 -73 C296 -62 311 -46 322 -27 C334 -6 340 19 340 48 L340 450 C340 479 334 504 322 526 C311 545 296 560 277 571 C254 584 226 590 192 590 C158 590 130 584 107 571 C88 560 73 545 62 526 C50 504 44 479 44 451 L44 48 C44 19 50 -6 62 -27 C73 -46 88 -62 107 -73 L107 -73 Z M136 450 C136 453 136 456 137 459 C138 466 141 472 144 478 C153 496 169 505 192 505 C209 505 223 500 232 491 C240 483 242 473 245 465 C246 460 247 456 247 451 L247 48 C247 43 246 38 245 33 C242 25 240 15 232 7 C223 -2 209 -7 192 -7 C169 -7 153 2 144 20 C140 27 138 34 137 39 C136 42 136 45 136 48 L136 450 Z M120 594 L125 601 C130 606 145 621 160 622 C171 622 177 618 186 614 C197 607 210 602 229 603 C259 603 295 642 300 647 L305 653 L262 695 L257 690 L246 679 C237 672 231 669 226 669 C215 669 207 673 196 678 C184 683 171 688 155 688 C124 688 84 648 84 646 L79 641 L114 601 L120 594 Z " />
<glyph glyph-name="odieresis" unicode="&#xf6;" horiz-adv-x="399" d="M350 449 C350 476 344 502 331 525 C320 544 305 559 286 570 C265 583 236 589 201 589 C167 589 139 583 116 570 C97 559 83 544 72 525 C59 503 53 478 53 450 L53 48 C53 20 59 -5 72 -27 C82 -46 97 -61 116 -72 C139 -85 168 -92 201 -92 C235 -92 263 -85 286 -72 C305 -62 320 -47 331 -27 C344 -5 350 20 350 48 L350 449 Z M242 8 C232 -2 218 -7 201 -7 C178 -7 162 2 153 20 C149 27 148 34 147 39 C146 42 146 45 146 48 L146 449 C146 450 146 462 153 477 C162 495 178 504 201 504 C219 504 233 499 242 490 C249 482 252 472 255 464 C256 459 257 455 257 450 L257 48 C257 43 256 39 255 34 C252 26 249 16 242 8 L242 8 Z M195 694 L112 694 L112 607 L195 607 L195 694 Z M289 694 L206 694 L206 607 L289 607 L289 694 Z " />
<glyph glyph-name="oslash" unicode="&#xf8;" horiz-adv-x="371" d="M97 -114 L109 -79 C128 -88 152 -92 181 -92 C214 -92 242 -86 266 -73 C285 -62 300 -46 311 -27 C324 -5 330 20 330 48 L330 449 C330 479 323 506 308 529 L335 612 L275 612 L262 572 C239 583 212 589 181 589 C147 589 119 583 96 570 C77 559 62 544 52 525 C39 502 33 477 33 450 L33 48 C33 27 37 -10 61 -42 L37 -114 L97 -114 Z M237 48 C237 43 236 38 235 33 C232 25 229 15 221 7 C212 -2 198 -7 181 -7 C162 -7 148 -1 138 11 L237 312 L237 48 Z M126 449 C126 452 126 455 127 458 C128 463 129 470 133 477 C142 495 158 504 181 504 C206 504 222 495 230 477 L126 157 L126 449 Z " />
<glyph glyph-name="ugrave" unicode="&#xf9;" horiz-adv-x="376" d="M251 588 L251 48 C251 43 250 39 249 34 C246 26 243 16 235 8 C226 -2 212 -7 195 -7 C172 -7 156 2 147 20 C144 26 141 32 140 39 C139 42 139 45 139 48 L140 588 L47 588 L47 48 C47 21 53 -6 65 -27 C76 -47 91 -62 110 -72 C133 -85 162 -92 195 -92 C228 -92 257 -85 280 -72 C299 -62 314 -47 325 -27 C337 -6 343 19 343 48 L343 588 L251 588 Z M87 701 L179 592 L252 592 L186 701 L87 701 Z " />
<glyph glyph-name="uacute" unicode="&#xfa;" horiz-adv-x="386" d="M248 588 L247 48 C247 43 246 39 245 34 C242 26 240 16 232 8 C222 -2 209 -7 192 -7 C168 -7 152 2 144 20 C141 26 138 32 137 39 C136 42 136 45 136 48 L137 588 L44 588 L44 48 C44 21 50 -6 62 -27 C73 -47 88 -62 107 -72 C130 -85 159 -92 192 -92 C225 -92 254 -85 277 -72 C296 -62 311 -47 321 -27 C334 -5 340 20 340 48 L340 588 L248 588 Z M222 592 L315 701 L216 701 L150 592 L222 592 Z " />
<glyph glyph-name="ucircumflex" unicode="&#xfb;" horiz-adv-x="386" d="M254 588 L254 48 L254 47 C254 42 253 38 252 33 C249 25 246 15 238 7 C229 -2 215 -7 198 -7 C175 -7 159 2 150 19 C143 34 143 47 143 48 L143 588 L50 588 L50 47 C50 19 56 -6 69 -28 C79 -47 94 -62 113 -73 C136 -86 164 -92 198 -92 C232 -92 260 -86 283 -73 C302 -62 317 -47 328 -28 C341 -5 347 21 347 48 L347 588 L254 588 Z M87 593 L167 593 L197 654 L227 593 L307 593 L242 709 L154 709 L87 593 Z " />
<glyph glyph-name="udieresis" unicode="&#xfc;" horiz-adv-x="386" d="M249 588 L248 48 C248 43 247 39 246 34 C243 26 240 16 233 8 C224 -2 210 -7 193 -7 C170 -7 154 2 145 20 C142 26 139 32 138 39 C137 42 137 45 137 48 L138 588 L45 588 L45 48 C45 21 51 -6 63 -27 C74 -46 89 -61 108 -72 C131 -85 160 -92 193 -92 C226 -92 255 -85 278 -72 C297 -61 312 -46 323 -27 C335 -6 341 19 341 48 L341 588 L249 588 Z M193 688 L110 688 L110 602 L193 602 L193 688 Z M285 688 L202 688 L202 602 L285 602 L285 688 Z " />
<glyph glyph-name="yacute" unicode="&#xfd;" horiz-adv-x="436" d="M319 588 L220 320 L120 588 L19 588 L173 193 L173 -88 L266 -88 L266 192 L420 588 L319 588 Z M233 589 L326 697 L227 697 L161 589 L233 589 Z " />
<glyph glyph-name="ydieresis" unicode="&#xff;" horiz-adv-x="436" d="M132 697 L132 610 L215 610 L215 697 L132 697 Z M226 697 L226 610 L309 610 L309 697 L226 697 Z M221 320 L122 588 L21 588 L174 192 L174 -88 L267 -88 L268 192 L421 588 L320 588 L221 320 Z " />
<glyph glyph-name="Lslash" unicode="&#x141;" horiz-adv-x="340" d="M198 230 L341 341 L266 356 L198 304 L198 587 L105 587 L105 232 L4 153 L79 138 L105 158 L105 -88 L330 -88 L330 5 L198 5 L198 230 L198 230 Z " />
<glyph glyph-name="lslash" unicode="&#x142;" horiz-adv-x="340" d="M198 230 L341 341 L266 356 L198 304 L198 587 L105 587 L105 232 L4 153 L79 138 L105 158 L105 -88 L330 -88 L330 5 L198 5 L198 230 Z " />
<glyph glyph-name="OE" unicode="&#x152;" horiz-adv-x="488" d="M465 -88 L465 4 L288 4 L288 148 L382 148 L382 240 L288 240 L288 495 L465 495 L465 587 L219 587 C207 589 195 590 182 590 C135 590 99 577 72 552 C37 517 34 470 34 451 L34 49 C34 30 38 -18 72 -52 C98 -78 135 -91 182 -91 C195 -91 207 -90 218 -88 L465 -88 Z M134 21 C130 28 129 35 128 40 C127 43 127 46 127 49 L127 450 C127 453 127 456 128 459 C129 464 130 471 134 478 C143 496 159 505 182 505 C188 505 193 505 196 504 L196 -5 C193 -6 188 -6 182 -6 C159 -6 143 3 134 21 L134 21 Z " />
<glyph glyph-name="oe" unicode="&#x153;" horiz-adv-x="488" d="M465 -88 L465 4 L288 4 L288 148 L382 148 L382 240 L288 240 L288 495 L465 495 L465 587 L219 587 C207 589 195 590 182 590 C135 590 99 577 72 552 C37 517 34 470 34 451 L34 49 C34 30 38 -18 72 -52 C98 -78 135 -91 182 -91 C195 -91 207 -90 218 -88 L465 -88 Z M134 21 C130 28 129 35 128 40 C127 43 127 46 127 49 L127 450 C127 453 127 456 128 459 C129 464 130 471 134 478 C143 496 159 505 182 505 C188 505 193 505 196 504 L196 -5 C193 -6 188 -6 182 -6 C159 -6 143 3 134 21 L134 21 Z " />
<glyph glyph-name="Scaron" unicode="&#x160;" horiz-adv-x="331" d="M248 570 C233 579 215 584 194 587 L208 587 L273 703 L193 703 L163 643 C160 648 157 655 153 664 C148 672 144 681 141 688 C139 692 137 696 135 699 L133 703 L53 703 L120 587 L133 587 C111 584 93 578 78 570 C58 559 43 543 34 524 C21 502 15 477 15 450 L15 314 C15 288 25 265 46 246 C61 231 75 224 76 224 C78 224 121 204 163 201 C188 200 204 194 212 184 C219 177 219 170 219 169 L219 48 C219 47 219 23 204 7 C193 -2 180 -7 163 -7 C140 -7 124 2 115 20 C111 27 110 34 109 39 C108 42 108 45 108 48 L108 154 L15 154 L15 48 L15 47 C15 20 21 -5 34 -28 C44 -47 59 -62 78 -73 C101 -86 129 -92 163 -92 C198 -92 227 -86 248 -73 C267 -62 282 -47 293 -28 C306 -5 312 21 312 48 L312 164 C312 207 293 234 277 250 C261 265 246 271 242 274 C238 277 215 289 164 292 C116 295 108 316 108 318 L108 449 C108 452 108 455 109 458 C110 463 111 470 115 477 C124 495 140 504 163 504 C180 504 193 499 204 490 C211 482 214 472 217 464 C218 459 219 455 219 450 L219 336 L312 336 L312 449 C312 476 306 502 293 525 C282 544 267 559 248 570 L248 570 Z " />
<glyph glyph-name="scaron" unicode="&#x161;" horiz-adv-x="331" d="M248 570 C233 579 215 584 194 587 L208 587 L273 703 L193 703 L163 643 C160 648 157 655 153 664 C148 672 144 681 141 688 C139 692 137 696 135 699 L133 703 L53 703 L120 587 L133 587 C111 584 93 578 78 570 C58 559 43 543 34 524 C21 502 15 477 15 450 L15 314 C15 288 25 265 46 246 C61 231 75 224 76 224 C78 224 121 204 163 201 C188 200 204 194 212 184 C219 177 219 170 219 169 L219 48 C219 47 219 23 204 7 C193 -2 180 -7 163 -7 C140 -7 124 2 115 20 C111 27 110 34 109 39 C108 42 108 45 108 48 L108 154 L15 154 L15 48 L15 47 C15 20 21 -5 34 -28 C44 -47 59 -62 78 -73 C101 -86 129 -92 163 -92 C198 -92 227 -86 248 -73 C267 -62 282 -47 293 -28 C306 -5 312 21 312 48 L312 164 C312 207 293 234 277 250 C261 265 246 271 242 274 C238 277 215 289 164 292 C116 295 108 316 108 318 L108 449 C108 452 108 455 109 458 C110 463 111 470 115 477 C124 495 140 504 163 504 C180 504 193 499 204 490 C211 482 214 472 217 464 C218 459 219 455 219 450 L219 336 L312 336 L312 449 C312 476 306 502 293 525 C282 544 267 559 248 570 L248 570 Z " />
<glyph glyph-name="Ydieresis" unicode="&#x178;" horiz-adv-x="436" d="M214 610 L214 697 L131 697 L131 610 L214 610 Z M308 697 L225 697 L225 610 L308 610 L308 697 Z M121 588 L20 588 L173 192 L173 -88 L266 -88 L266 192 L420 588 L319 588 L220 320 L121 588 Z " />
<glyph glyph-name="Zcaron" unicode="&#x17d;" horiz-adv-x="441" d="M404 501 L404 588 L271 588 L335 702 L254 702 L225 642 C222 647 219 654 214 663 C209 671 205 680 202 687 C200 691 198 695 197 698 L195 702 L114 702 L180 588 L45 588 L45 496 L289 496 L46 1 L45 -1 L45 -88 L404 -88 L404 5 L161 5 L404 501 Z " />
<glyph glyph-name="zcaron" unicode="&#x17e;" horiz-adv-x="441" d="M404 501 L404 588 L271 588 L335 702 L254 702 L225 642 C222 647 219 654 214 663 C209 671 205 680 202 687 C200 691 198 695 197 698 L195 702 L114 702 L180 588 L45 588 L45 496 L289 496 L46 1 L45 -1 L45 -88 L404 -88 L404 5 L161 5 L404 501 Z " />
<glyph glyph-name="quoteleft" unicode="&#x2018;" horiz-adv-x="175" d="M74 588 L10 437 L82 437 L171 588 L74 588 L74 588 Z " />
<glyph glyph-name="quoteright" unicode="&#x2019;" horiz-adv-x="175" d="M74 588 L10 437 L82 437 L171 588 L74 588 L74 588 Z " />
<glyph glyph-name="quotedblleft" unicode="&#x201c;" horiz-adv-x="279" d="M13 437 L85 437 L174 588 L77 588 L13 437 Z M114 437 L186 437 L275 588 L178 588 L114 437 Z " />
<glyph glyph-name="quotedblright" unicode="&#x201d;" horiz-adv-x="279" d="M13 437 L85 437 L174 588 L77 588 L13 437 Z M114 437 L186 437 L275 588 L178 588 L114 437 Z " />
<glyph glyph-name="Euro" unicode="&#x20ac;" horiz-adv-x="346" d="M271 573 C249 585 221 591 187 591 C153 591 124 584 101 571 C82 560 68 545 57 526 C44 504 38 479 38 451 L39 355 L18 355 L18 272 L38 272 L38 231 L18 231 L18 148 L38 148 L38 49 C38 21 44 -4 57 -26 C68 -45 82 -60 101 -71 C124 -84 152 -90 187 -90 C220 -90 248 -85 271 -73 C290 -63 305 -49 316 -32 C325 -17 335 5 335 38 L335 46 L242 46 L242 38 C241 35 241 31 240 28 C237 21 237 16 230 9 C221 0 206 -5 187 -5 C163 -5 147 4 138 21 C131 36 131 49 131 50 L131 148 L296 148 L296 231 L131 231 L131 272 L296 272 L296 355 L131 355 L131 451 C131 454 131 457 132 460 C133 465 134 472 138 479 C147 497 163 506 187 506 C206 506 221 501 230 491 C242 479 242 463 242 462 L242 455 L335 455 L335 462 C335 495 325 517 316 532 C305 549 290 563 271 573 L271 573 Z " />
</font>
</svg>
