<?xml version="1.0" encoding="UTF-8"?>
<svg xmlns="http://www.w3.org/2000/svg" xmlns:xlink="http://www.w3.org/1999/xlink" version="1.2" >
<font id="Monerd Outline">
<font-face  font-family="Monerd" units-per-em="1000" ascent="750" descent="-250" font-style="normal" font-weight="100" font-stretch="normal" cap-height="688" x-height="760" underline-position="-75" underline-thickness="50" />
<missing-glyph  horiz-adv-x="119" d="" />
<glyph glyph-name="NULL" d="" />
<glyph glyph-name="nonmarkingreturn" unicode="&#xd;" horiz-adv-x="119" d="" />
<glyph glyph-name="space" unicode="&#x20;" horiz-adv-x="119" d="" />
<glyph glyph-name="exclam" unicode="&#x21;" horiz-adv-x="176" d="M132 -2 L45 -2 L45 -81 L132 -81 L132 -2 Z M54 -10 L123 -10 L123 -73 L54 -73 L54 -10 Z M132 588 L45 588 L45 33 L132 33 L132 588 Z M54 579 L123 579 L123 41 L54 41 L54 579 Z " />
<glyph glyph-name="quotedbl" unicode="&#x22;" horiz-adv-x="280" d="M179 588 L90 588 L29 444 L94 444 L179 588 Z M96 580 L164 580 L89 452 L42 452 L96 580 Z M262 588 L173 588 L112 444 L177 444 L262 588 Z M179 580 L247 580 L172 452 L125 452 L179 580 Z " />
<glyph glyph-name="numbersign" unicode="&#x23;" horiz-adv-x="425" d="M295 -78 C302 -42 308 -9 315 26 C318 45 322 63 326 83 L399 83 L399 169 L341 169 L364 285 L417 285 L417 371 L380 371 L421 588 L332 588 L332 585 C325 545 316 501 307 456 C302 427 296 398 291 371 L211 371 L252 588 L164 588 L123 371 L44 371 L44 285 L107 285 C103 262 99 245 95 226 C91 207 88 190 84 169 L25 169 L25 83 L69 83 L39 -81 L126 -81 L126 -78 C137 -22 146 24 157 83 L237 83 L207 -81 L294 -81 L295 -78 Z M247 91 L150 91 L149 88 C138 29 130 -17 119 -73 L49 -73 L79 91 L33 91 L33 161 L91 161 L92 164 C96 187 99 205 103 225 C107 244 111 264 116 289 L117 294 L53 294 L53 363 L130 363 L171 580 L242 580 L201 363 L298 363 L299 366 C304 394 309 424 316 455 C324 498 332 541 339 580 L411 580 L370 363 L409 363 L409 294 L357 294 L331 161 L391 161 L391 91 L319 91 L318 88 C314 67 310 47 306 27 C299 -6 294 -38 287 -73 L217 -73 L247 91 Z M261 164 C265 187 269 204 272 223 C275 243 279 262 284 289 L285 294 L280 294 C265 294 252 294 239 293 L191 293 L188 293 L163 161 L260 161 L261 164 Z M195 284 C211 284 224 285 239 285 L275 285 C271 262 267 244 264 225 C260 206 257 190 253 169 L173 169 L195 284 Z " />
<glyph glyph-name="dollar" unicode="&#x24;" horiz-adv-x="373" d="M244 -102 L244 -78 C338 -59 346 28 346 55 L346 171 C346 249 279 277 278 277 C278 278 268 285 244 290 L244 498 C252 489 254 479 257 471 C258 466 259 461 259 456 L259 346 L346 346 L346 456 C346 484 338 566 244 588 L244 612 L158 612 L158 588 C63 567 56 483 56 456 L56 321 C56 262 112 234 114 234 C117 233 133 226 158 219 L158 13 C142 30 142 54 142 55 L142 157 L56 157 L56 54 C56 28 63 -60 158 -78 L158 -102 L244 -102 Z M133 149 L133 55 C133 53 134 20 159 0 L166 -5 L166 225 L163 226 C150 229 139 233 131 236 C126 238 122 240 118 241 C118 241 64 268 64 321 L64 456 C64 482 71 563 163 581 L166 582 L166 604 L235 604 L235 582 L239 581 C327 565 337 487 337 456 L337 354 L268 354 L268 456 C268 456 268 492 242 510 L235 515 L235 283 L239 283 C263 276 273 271 274 270 C274 269 338 244 337 171 L337 55 C337 24 327 -54 239 -70 L235 -71 L235 -82 L235 -93 L166 -93 L166 -71 L163 -70 C71 -54 64 31 64 55 L64 149 L133 149 Z M242 0 C268 18 268 53 268 55 L268 175 C268 178 268 198 241 211 L235 214 L235 -5 L242 0 Z M244 200 C260 189 259 176 259 175 L259 54 C259 49 258 45 257 40 C254 32 252 21 244 13 L244 200 L244 200 Z M166 515 L159 510 C134 491 133 457 133 456 L133 324 C134 323 136 307 160 296 L166 294 L166 515 Z M142 456 C142 461 143 465 144 470 C147 478 150 488 158 497 L158 307 C145 314 142 322 142 325 L142 456 Z " />
<glyph glyph-name="percent" unicode="&#x25;" horiz-adv-x="494" d="M366 -93 C415 -93 454 -54 454 -6 L454 142 C454 189 414 228 366 228 C315 228 277 190 277 142 L277 -6 C277 -55 315 -93 366 -93 L366 -93 Z M366 220 C410 220 446 185 446 142 L446 -6 C446 -50 410 -85 366 -85 C319 -85 285 -50 285 -6 L285 142 C285 185 319 220 366 220 L366 220 Z M415 596 L327 596 L75 -93 L164 -93 L415 596 Z M333 588 L403 588 L158 -85 L87 -85 L333 588 Z M365 -25 C376 -25 384 -18 384 -7 L384 139 C384 150 376 157 365 157 C353 157 344 150 344 139 L344 -7 C344 -18 353 -25 365 -25 L365 -25 Z M365 149 C370 149 376 144 376 139 L376 -7 C376 -14 372 -17 365 -17 C357 -17 353 -14 353 -7 L353 139 C353 146 357 149 365 149 L365 149 Z M118 258 C167 258 206 297 206 345 L206 492 C206 539 166 579 118 579 C69 579 28 539 28 492 L28 345 C28 297 67 258 118 258 L118 258 Z M118 571 C162 571 198 535 198 492 L198 345 C198 302 162 267 118 267 C73 267 37 302 37 345 L37 492 C37 535 74 571 118 571 L118 571 Z M119 322 C130 322 139 330 139 341 L139 486 C139 497 128 505 119 505 C108 505 99 497 99 486 L99 341 C99 330 108 322 119 322 L119 322 Z M119 497 C124 497 131 493 131 486 L131 341 C131 334 126 330 119 330 C112 330 107 334 107 341 L107 486 C107 493 111 497 119 497 L119 497 Z " />
<glyph glyph-name="ampersand" unicode="&#x26;" horiz-adv-x="417" d="M47 43 C67 -126 313 -129 337 44 L337 219 L367 219 L367 306 L337 306 L337 319 L250 319 L250 306 L192 306 C145 306 134 336 134 354 L134 451 C134 482 160 505 192 505 C224 505 250 481 250 452 L250 392 L337 392 L337 460 C332 533 269 590 192 590 C117 590 52 534 47 461 L47 325 C51 282 69 265 84 258 C69 251 51 236 47 193 L47 43 L47 43 Z M192 582 C264 582 324 528 329 459 L329 401 L259 401 L259 452 L259 456 C255 488 227 513 192 513 C155 513 125 486 125 451 L125 354 C128 337 135 297 192 297 L259 297 L259 310 L329 310 L329 297 L358 297 L358 227 L329 227 L329 71 L329 45 C324 -23 264 -77 192 -77 C121 -77 61 -24 56 43 L56 192 C59 251 98 254 98 253 L99 262 C98 262 59 264 56 326 L56 461 C61 528 121 582 192 582 L192 582 Z M192 -9 C229 -9 259 18 259 53 L259 227 L191 227 C135 227 128 188 125 170 L125 53 C125 18 155 -9 192 -9 L192 -9 Z M250 53 C250 22 224 -1 192 -1 C160 -1 134 22 134 53 L134 170 C134 189 144 219 191 219 L250 219 L250 53 Z " />
<glyph glyph-name="quotesingle" unicode="&#x27;" horiz-adv-x="183" d="M162 588 L73 588 L12 444 L77 444 L162 588 Z M79 580 L147 580 L72 452 L25 452 L79 580 Z " />
<glyph glyph-name="parenleft" unicode="&#x28;" horiz-adv-x="167" d="M146 -62 L143 -61 C103 -50 101 7 102 8 L102 496 C101 497 103 552 143 565 L146 566 L146 661 L141 660 C24 649 15 532 15 496 L15 8 C15 -27 24 -145 141 -156 L146 -157 L146 -62 Z M137 572 C94 556 93 500 93 496 L93 8 C93 6 94 -52 137 -68 L137 -147 C32 -134 24 -27 24 8 L24 496 C24 531 32 638 137 651 L137 572 Z " />
<glyph glyph-name="parenright" unicode="&#x29;" horiz-adv-x="181" d="M27 -156 C143 -145 152 -28 152 8 L152 496 C152 532 142 649 27 660 L22 661 L22 566 L25 565 C65 552 67 497 66 496 L66 8 C67 7 65 -50 25 -61 L22 -62 L22 -157 L27 -156 Z M30 -68 C74 -52 75 6 75 8 L75 496 C75 500 74 556 30 572 L30 651 C136 638 144 531 144 496 L144 8 C144 -27 136 -134 30 -147 L30 -68 L30 -68 Z " />
<glyph glyph-name="asterisk" unicode="&#x2a;" horiz-adv-x="227" d="M142 355 L174 330 C187 349 197 365 209 381 C194 389 181 398 162 407 L209 435 L206 438 C203 442 200 447 196 452 C189 461 184 470 177 479 L174 483 C161 472 153 467 141 458 L141 500 L80 500 L80 460 L49 483 L38 468 C31 457 25 449 17 438 L14 434 L61 407 L14 382 L49 331 C60 339 69 347 80 355 L80 314 L142 314 L142 355 Z M89 372 C73 360 62 351 51 343 L27 379 L78 407 L27 437 C34 446 38 454 45 463 L51 471 L89 443 L89 491 L133 491 L133 441 C145 452 159 460 172 471 C180 460 188 449 197 437 L146 407 C161 398 177 390 196 378 C187 367 180 354 172 342 L133 373 L134 323 L89 323 L89 372 Z " />
<glyph glyph-name="plus" unicode="&#x2b;" horiz-adv-x="388" d="M240 254 L354 254 L354 341 L240 341 L240 454 L154 454 L154 341 L40 341 L40 254 L154 254 L154 140 L240 140 L240 254 Z M162 263 L48 263 L48 333 L162 333 L162 445 L232 445 L232 333 L346 333 L346 263 L232 263 L232 149 L162 149 L162 263 Z " />
<glyph glyph-name="comma" unicode="&#x2c;" horiz-adv-x="179" d="M162 22 L73 22 L12 -122 L77 -122 L162 22 Z M79 14 L147 14 L72 -114 L25 -114 L79 14 Z " />
<glyph glyph-name="hyphen" unicode="&#x2d;" horiz-adv-x="307" d="M277 343 L33 343 L33 256 L277 256 L277 343 Z M42 335 L269 335 L269 265 L42 265 L42 335 Z " />
<glyph glyph-name="period" unicode="&#x2e;" horiz-adv-x="119" d="M102 24 L16 24 L16 -81 L102 -81 L102 24 Z M25 16 L94 16 L94 -73 L25 -73 L25 16 Z " />
<glyph glyph-name="slash" unicode="&#x2f;" horiz-adv-x="356" d="M340 612 L253 612 L17 -107 L104 -107 L340 612 Z M259 604 L328 604 L98 -99 L29 -99 L259 604 Z " />
<glyph glyph-name="zero" unicode="0" horiz-adv-x="389" d="M196 -85 C329 -85 341 18 341 51 L341 453 C341 485 329 590 196 590 C135 590 92 569 69 527 C57 506 51 481 51 453 L51 51 C51 22 57 -2 69 -23 C92 -64 135 -85 196 -85 L196 -85 Z M196 581 C322 581 332 482 332 453 L332 51 C332 22 322 -77 196 -77 C138 -77 98 -57 76 -18 C64 2 59 25 60 51 L60 453 C59 479 64 502 76 522 C98 561 138 581 196 581 L196 581 Z M196 -15 C217 -15 233 -9 245 3 C262 22 263 50 263 51 L263 322 L134 29 L133 28 L134 26 C141 7 157 -15 196 -15 L196 -15 Z M255 282 L255 51 C255 46 254 41 253 36 C250 28 246 17 238 9 C228 -2 214 -7 196 -7 C163 -7 149 11 142 28 L255 282 Z M257 479 L258 481 L257 482 C250 499 233 519 196 519 C130 520 129 453 129 453 L129 189 L257 479 Z M196 511 C221 511 239 501 248 481 L137 229 L137 453 C137 455 137 511 196 511 L196 511 Z " />
<glyph glyph-name="one" unicode="1" horiz-adv-x="179" d="M142 590 L33 590 L33 506 L55 506 L55 -85 L142 -85 L142 590 Z M64 515 L41 515 L41 582 L133 582 L133 -77 L64 -77 L64 515 Z " />
<glyph glyph-name="two" unicode="2" horiz-adv-x="375" d="M332 1 L129 1 L129 70 C129 109 159 133 218 143 C292 156 332 224 332 282 L332 453 C332 485 322 590 188 590 C141 590 105 577 80 552 C45 517 43 472 43 453 L43 354 L129 354 L129 453 C129 455 129 511 188 511 C207 511 222 506 232 496 C248 479 246 454 246 453 L246 303 C246 233 194 224 165 216 C75 195 43 136 43 86 L43 -85 L332 -85 L332 1 Z M51 86 C51 131 81 189 167 208 C196 213 255 227 255 303 L255 453 C255 453 257 482 238 501 C226 514 209 520 188 519 C121 518 119 454 120 453 L120 362 L51 362 L51 453 C51 472 54 514 86 546 C109 569 143 581 188 581 C314 581 324 482 324 453 L324 282 C324 228 286 162 216 151 C153 140 121 113 120 70 L120 -7 L324 -7 L324 -77 L51 -77 L51 86 Z " />
<glyph glyph-name="three" unicode="3" horiz-adv-x="352" d="M178 -86 C253 -86 318 -30 323 43 L323 193 C320 236 302 251 287 258 C302 265 320 282 323 325 L323 461 C318 533 253 590 178 590 C102 590 37 534 34 459 L34 353 L120 353 L120 449 L120 452 C121 481 147 504 178 504 C211 504 237 480 237 451 L237 354 C234 335 226 305 178 305 L153 305 L152 218 L179 218 C227 218 234 188 237 170 L237 53 C237 22 211 -1 178 -1 C146 -1 120 22 120 53 L120 166 L34 166 L34 44 C37 -29 102 -86 178 -86 L178 -86 Z M112 158 L112 53 C112 18 141 -9 178 -9 C215 -9 245 18 245 53 L245 171 C245 187 235 227 179 227 L161 227 L161 297 L178 297 C234 297 245 337 245 354 L245 451 C245 486 215 513 178 513 C143 513 115 488 112 456 L112 361 L42 361 L42 459 C45 527 107 581 178 581 C250 581 310 528 315 461 L315 326 C310 265 275 262 272 262 L272 253 C275 253 310 252 315 192 L315 43 C310 -25 250 -78 178 -78 C107 -78 45 -24 42 44 L42 158 L112 158 Z " />
<glyph glyph-name="four" unicode="4" horiz-adv-x="391" d="M341 166 L372 166 L372 252 L341 252 L341 590 L246 590 L37 245 L36 244 L36 166 L255 166 L255 -85 L341 -85 L341 166 Z M264 -70 L264 174 L45 174 L45 242 L251 582 L333 582 L333 244 L363 244 L363 174 L333 174 L333 -77 L264 -77 L264 -70 Z M264 487 L124 244 L264 244 L264 487 Z M255 455 L255 252 L139 252 L255 455 Z " />
<glyph glyph-name="five" unicode="5" horiz-adv-x="380" d="M190 -85 C326 -85 335 20 335 52 L335 252 C335 329 280 377 191 378 L190 378 C163 378 143 372 132 368 L132 504 L335 504 L335 590 L46 590 L46 252 L125 252 L132 252 L132 256 C132 257 131 266 140 275 C149 286 166 292 191 293 C212 293 226 289 235 280 C248 268 249 245 249 224 L249 52 C249 51 250 26 233 9 C222 -2 208 -7 190 -7 C132 -7 132 49 132 52 L132 111 L46 111 L46 51 C46 33 48 -15 83 -47 C108 -72 144 -85 190 -85 L190 -85 Z M123 103 L123 52 C123 52 124 -15 190 -15 C211 -15 227 -9 239 3 C258 22 257 52 258 52 L258 224 C258 247 256 271 241 286 C230 297 213 302 191 301 C165 300 146 294 133 281 C126 273 124 265 124 260 L54 260 L54 581 L327 581 L327 512 L123 512 L123 356 L129 358 C135 359 141 361 148 363 C159 366 174 369 191 369 C276 369 327 325 327 252 L327 52 C327 21 317 -77 190 -77 C146 -77 112 -65 88 -41 C57 -10 54 34 54 52 L54 103 L123 103 Z " />
<glyph glyph-name="six" unicode="6" horiz-adv-x="383" d="M199 -85 C260 -85 302 -64 326 -22 C338 -2 344 23 344 52 L344 187 C344 246 282 293 199 296 C174 297 157 303 147 314 C143 318 142 323 141 326 C140 328 140 330 140 332 L140 453 C140 458 141 463 142 468 C145 479 149 488 156 496 C167 506 181 511 199 511 C258 511 258 455 258 453 L258 404 L344 404 L344 453 C344 481 338 506 326 527 C302 569 260 590 199 590 C66 590 54 485 54 453 L54 52 C54 20 66 -85 199 -85 L199 -85 Z M199 581 C257 581 297 562 318 523 C329 503 336 480 336 453 L336 413 L266 413 L266 453 C266 453 265 520 199 519 C178 519 162 513 151 502 C131 482 132 454 132 453 L132 333 C132 332 130 320 141 309 C152 296 172 289 199 288 C276 285 336 240 336 187 L336 51 C336 26 329 1 318 -18 C297 -57 257 -77 199 -77 C72 -77 63 21 63 52 L63 453 C63 482 72 581 199 581 L199 581 Z M199 -15 C265 -15 266 52 266 52 L266 184 C265 186 261 215 199 220 C168 223 149 227 138 231 L132 234 L132 52 C132 52 131 22 151 3 C162 -9 178 -15 199 -15 L199 -15 Z M141 222 C153 218 171 213 198 212 C225 209 241 203 249 196 C254 192 257 188 258 183 L258 52 C258 49 258 -7 199 -7 C182 -7 168 -2 157 9 C140 26 140 51 140 52 L141 222 L141 222 Z " />
<glyph glyph-name="seven" unicode="7" horiz-adv-x="359" d="M158 -82 C158 279 333 486 335 488 L336 489 L336 590 L32 590 L32 503 L241 503 C213 463 68 247 68 -82 L68 -85 L158 -85 L158 -82 Z M77 -76 C77 279 251 503 253 505 L259 512 L40 512 L40 582 L327 582 L327 492 C320 484 279 432 239 343 C199 255 149 111 149 -76 L77 -76 L77 -76 Z " />
<glyph glyph-name="eight" unicode="8" horiz-adv-x="381" d="M190 -85 C265 -85 330 -29 335 43 L334 193 C331 236 313 251 298 258 C313 265 331 282 334 326 L335 326 L334 461 C329 534 266 590 190 590 C113 590 50 533 45 460 L45 327 C48 282 66 265 81 258 C66 251 48 235 45 191 L45 44 C50 -28 113 -85 190 -85 L190 -85 Z M190 582 C261 582 321 529 326 461 L326 326 C321 265 286 262 283 262 L283 254 C286 254 321 251 326 193 L326 44 C321 -24 261 -76 190 -76 C118 -76 58 -24 53 45 L53 191 C56 251 95 254 96 254 L96 262 C89 263 82 266 76 271 C65 279 56 296 53 327 L53 459 C58 528 118 582 190 582 L190 582 Z M190 -9 C227 -9 256 18 256 53 L256 171 C256 187 246 227 191 227 L189 227 C133 227 123 187 123 171 L123 53 C123 18 153 -9 190 -9 L190 -9 Z M191 219 C238 219 248 189 248 171 L248 53 C248 24 222 0 190 0 C158 0 131 24 131 53 L131 170 C134 189 141 219 189 219 L191 219 Z M190 298 C246 298 256 338 256 354 L256 451 C256 486 227 513 190 513 C153 513 123 486 123 451 L123 354 C123 338 135 298 190 298 L190 298 Z M190 505 C222 505 248 482 248 451 L248 354 C248 336 237 306 190 306 C142 306 134 337 131 354 L131 451 C131 482 158 505 190 505 L190 505 Z " />
<glyph glyph-name="nine" unicode="9" horiz-adv-x="372" d="M190 -85 C326 -85 335 20 335 52 L335 453 C335 485 326 590 190 590 C129 590 87 569 63 527 C52 506 45 480 45 453 L45 318 C45 259 110 211 190 208 C211 208 227 202 237 190 C250 175 249 157 249 156 L249 51 C249 46 248 41 247 36 C244 28 241 17 233 9 C222 -2 208 -7 190 -7 C131 -7 131 49 131 52 L131 100 L45 100 L45 51 C45 24 52 -2 63 -22 C87 -64 129 -85 190 -85 L190 -85 Z M123 92 L123 52 C123 52 124 -15 190 -15 C211 -15 227 -9 239 3 C258 22 257 52 257 52 L257 156 C258 157 259 177 244 196 C232 209 214 216 190 217 C114 220 54 262 54 318 L54 453 C54 479 60 502 71 523 C94 562 133 581 190 581 C317 581 327 482 327 453 L327 52 C327 21 317 -77 190 -77 C133 -77 93 -57 71 -18 C60 1 54 25 54 52 L54 92 L123 92 Z M257 453 C257 454 258 482 239 502 C226 513 210 519 190 519 C124 520 123 453 123 453 L123 321 C124 321 127 287 191 284 C222 283 240 277 251 273 L257 271 L257 453 Z M131 453 C131 455 131 511 190 511 C209 511 223 506 233 496 C240 488 244 479 247 468 C248 463 249 458 249 453 L249 283 C237 287 218 290 191 293 C136 296 132 321 131 321 L131 453 Z " />
<glyph glyph-name="colon" unicode="&#x3a;" horiz-adv-x="157" d="M123 500 L37 500 L37 394 L123 394 L123 500 Z M45 491 L114 491 L114 403 L45 403 L45 491 Z M123 196 L37 196 L37 91 L123 91 L123 196 Z M45 188 L114 188 L114 100 L45 100 L45 188 Z " />
<glyph glyph-name="semicolon" unicode="&#x3b;" horiz-adv-x="218" d="M177 196 L88 196 L27 52 L92 52 L177 196 Z M93 188 L162 188 L87 60 L40 60 L93 188 Z M173 500 L87 500 L87 394 L173 394 L173 500 Z M96 491 L165 491 L165 403 L96 403 L96 491 Z " />
<glyph glyph-name="less" unicode="&#x3c;" horiz-adv-x="410" d="M364 236 L361 237 C324 252 282 264 241 279 C220 286 198 293 178 300 L364 364 L364 454 L53 337 L50 336 L50 264 L364 146 L364 236 Z M58 330 L356 442 L356 370 L152 300 L164 296 C188 287 213 279 238 271 C278 256 319 243 356 230 L356 159 L58 270 L58 330 Z " />
<glyph glyph-name="equal" unicode="&#x3d;" horiz-adv-x="318" d="M286 282 L28 282 L28 195 L286 195 L286 282 Z M37 273 L277 273 L277 203 L37 203 L37 273 Z M286 404 L28 404 L28 317 L286 317 L286 404 Z M37 396 L277 396 L277 326 L37 326 L37 396 Z " />
<glyph glyph-name="greater" unicode="&#x3e;" horiz-adv-x="389" d="M355 263 L358 264 L358 336 L43 454 L43 364 L229 300 C209 293 188 286 167 279 C126 264 83 252 46 237 L43 236 L43 146 L355 263 Z M52 230 C88 243 130 256 169 271 C194 279 220 287 244 296 L255 300 L52 370 L52 442 L349 330 L349 270 L52 159 L52 230 L52 230 Z " />
<glyph glyph-name="question" unicode="&#x3f;" horiz-adv-x="369" d="M176 1 L88 1 L88 -85 L175 -85 L176 1 Z M97 -7 L167 -7 L167 -77 L97 -77 L97 -7 Z M176 148 C176 177 205 187 238 198 C278 211 323 225 323 282 L323 453 C323 485 314 590 178 590 C131 590 95 577 70 552 C37 519 33 472 33 453 L33 405 L119 405 L119 453 C119 457 119 511 178 511 C197 511 211 506 221 496 C237 479 237 454 237 453 L237 285 C142 266 92 226 88 167 L88 39 L88 35 L176 35 L176 148 Z M97 167 C100 223 149 260 242 277 L245 278 L245 453 C245 454 246 482 227 502 C215 514 199 520 178 520 C112 520 111 453 111 453 L111 413 L42 413 L42 454 C42 470 45 515 76 546 C100 570 134 582 178 582 C305 582 314 482 314 453 L314 282 C314 232 274 216 235 206 C202 195 168 184 167 148 L167 43 L97 43 L97 167 Z " />
<glyph glyph-name="at" unicode="&#x40;" horiz-adv-x="417" d="M211 11 C368 11 381 94 381 121 L381 441 C381 467 368 550 211 550 C145 550 98 536 70 507 C51 488 42 466 42 441 L42 121 C42 94 51 72 70 55 C98 26 145 11 211 11 L211 11 Z M211 542 C361 542 372 464 372 441 L372 121 C372 97 361 20 211 20 C149 20 104 33 76 60 C59 77 50 98 50 121 L50 441 C50 465 59 485 76 501 C103 528 148 542 211 542 L211 542 Z M211 56 C309 56 334 117 334 120 L335 441 L334 442 C334 445 315 506 211 506 C117 506 90 444 88 442 L88 121 L88 120 C88 117 112 56 211 56 L211 56 Z M97 440 C99 447 127 497 211 497 C305 497 323 446 326 440 L326 122 C323 116 298 64 211 64 C122 64 99 115 97 122 L97 440 Z M211 98 C286 98 291 154 291 173 L291 389 C291 405 286 464 211 464 C186 464 166 457 152 443 C133 424 132 400 132 389 L132 384 L182 384 L182 389 C182 390 181 418 211 418 C220 418 228 415 233 410 C237 406 239 400 240 396 C241 393 241 391 241 389 L241 324 C241 323 241 320 238 315 C233 310 224 307 211 307 C166 304 132 278 132 246 L132 173 C132 162 133 138 152 119 C166 105 186 98 211 98 L211 98 Z M211 426 C184 426 175 406 174 393 L140 393 C141 404 143 422 158 437 C171 450 188 456 211 456 C276 456 283 409 283 389 L283 173 C283 153 276 106 211 106 C188 106 170 112 158 125 C142 141 140 164 140 173 L140 246 C140 273 171 295 212 298 C227 299 238 303 244 310 C247 313 248 317 249 320 L249 324 L249 389 C249 392 249 395 248 398 C247 404 244 410 239 416 C232 423 223 426 211 426 L211 426 Z M211 136 C223 136 232 139 239 146 C244 151 247 159 248 164 C249 167 249 170 249 173 L249 274 L244 272 C238 269 227 267 211 266 C177 264 173 244 173 244 L173 173 C173 160 180 136 211 136 L211 136 Z M241 173 C241 170 241 168 240 165 C239 160 236 155 233 152 C228 147 220 144 211 144 C181 144 182 172 182 173 L182 243 C182 245 183 247 186 249 C190 252 197 256 212 257 C225 258 234 259 241 262 L241 173 Z " />
<glyph glyph-name="A" unicode="A" horiz-adv-x="398" d="M239 588 L160 588 L25 -81 L113 -81 L133 21 L270 21 L291 -81 L379 -81 L239 588 Z M277 29 L126 29 L107 -73 L35 -73 L167 580 L232 580 L369 -73 L298 -73 L277 29 Z M200 411 L140 98 L264 98 L200 411 Z M200 368 L254 107 L150 107 L200 368 Z " />
<glyph glyph-name="B" unicode="B" horiz-adv-x="348" d="M171 -81 C245 -81 327 -25 327 56 L327 183 C327 235 300 253 281 260 C296 268 316 287 316 338 L316 451 C316 526 251 588 171 588 L26 588 L26 -81 L171 -81 L171 -81 Z M34 580 L171 580 C246 580 308 523 308 451 L308 338 C308 266 267 263 264 263 L264 255 C268 255 319 252 319 183 L319 56 C319 -20 240 -73 171 -73 L34 -73 L34 580 Z M171 -5 C207 -5 249 21 249 56 L249 173 C246 189 238 229 171 229 L171 225 L170 229 L104 229 L104 -5 L171 -5 L171 -5 Z M112 221 L171 221 C227 221 240 190 240 173 L240 56 C240 27 202 3 171 3 L112 3 L112 221 Z M171 299 C227 299 237 339 237 355 L237 451 C237 486 208 512 171 512 L104 512 L104 299 L171 299 L171 299 Z M112 504 L171 504 C203 504 229 480 229 451 L229 355 C229 337 218 307 171 307 L112 307 L112 504 Z " />
<glyph glyph-name="C" unicode="C" horiz-adv-x="352" d="M182 -85 C316 -85 326 20 326 52 L326 56 L240 56 L240 52 C240 51 241 26 224 9 C214 -1 200 -6 182 -6 C123 -6 123 48 123 52 L123 453 C123 457 123 511 182 511 C200 511 214 506 224 496 C241 479 240 454 240 453 L240 449 L326 449 L326 453 C326 485 316 590 182 590 C120 590 78 569 55 527 C43 506 37 481 37 453 L37 51 C37 24 43 -1 55 -22 C78 -64 120 -85 182 -85 L182 -85 Z M182 581 C302 581 318 492 318 457 L249 457 C248 466 245 487 230 502 C218 514 202 520 182 520 C115 520 113 453 114 453 L114 52 C113 52 115 -15 182 -15 C202 -15 218 -9 230 3 C245 18 248 39 249 48 L318 48 C318 13 302 -76 182 -76 C124 -76 84 -57 62 -18 C51 3 45 26 45 52 L45 454 C45 479 51 502 62 523 C84 562 124 581 182 581 L182 581 Z " />
<glyph glyph-name="D" unicode="D" horiz-adv-x="384" d="M193 -81 C273 -81 338 -19 338 56 L338 451 C338 526 273 588 193 588 L48 588 L48 -81 L193 -81 L193 -81 Z M57 580 L193 580 C269 580 330 523 330 451 L330 56 C330 -16 269 -73 193 -73 L57 -73 L57 580 Z M193 -5 C230 -5 260 23 260 56 L260 451 C260 486 230 512 193 512 L126 512 L126 -5 L193 -5 L193 -5 Z M134 504 L193 504 C225 504 251 480 251 451 L251 56 C251 27 225 3 193 3 L134 3 L134 504 Z " />
<glyph glyph-name="E" unicode="E" horiz-adv-x="335" d="M303 5 L126 5 L126 155 L220 155 L220 241 L126 241 L126 502 L303 502 L303 588 L40 588 L40 -81 L303 -81 L303 5 Z M48 580 L294 580 L294 510 L118 510 L118 233 L212 233 L212 163 L118 163 L118 -3 L294 -3 L294 -73 L48 -73 L48 580 Z " />
<glyph glyph-name="F" unicode="F" horiz-adv-x="387" d="M158 155 L252 155 L252 241 L158 241 L158 502 L335 502 L335 588 L72 588 L72 -81 L158 -81 L158 155 Z M80 579 L326 579 L326 510 L150 510 L150 233 L244 233 L244 164 L150 164 L150 -72 L80 -72 L80 579 Z " />
<glyph glyph-name="G" unicode="G" horiz-adv-x="389" d="M198 -85 C331 -85 343 18 343 51 L343 243 L220 243 L220 157 L257 157 L257 51 C257 45 255 -6 198 -6 C139 -6 139 48 139 52 L139 453 C139 457 139 511 198 511 C217 511 231 506 241 496 C257 479 257 454 257 453 L257 449 L343 449 L343 453 C343 485 331 590 198 590 C137 590 95 569 71 527 C60 506 53 480 53 453 L53 51 C53 24 60 -1 71 -22 C95 -64 137 -85 198 -85 L198 -85 Z M198 581 C318 581 335 492 335 457 L265 457 C265 466 262 487 247 502 C235 514 219 520 198 520 C132 520 131 453 131 453 L131 52 C131 52 132 -15 198 -15 C262 -15 265 46 265 51 L265 165 L228 165 L228 234 L335 234 L335 51 C335 21 325 -76 198 -76 C139 -76 100 -57 79 -18 C68 3 62 26 62 52 L62 454 C62 479 68 502 79 523 C100 562 139 581 198 581 L198 581 Z " />
<glyph glyph-name="H" unicode="H" horiz-adv-x="409" d="M353 588 L267 588 L267 283 L145 283 L145 588 L59 588 L59 -81 L145 -81 L145 197 L267 197 L267 -81 L353 -81 L353 588 Z M276 205 L137 205 L137 -72 L68 -72 L68 579 L137 579 L137 274 L276 274 L276 579 L345 579 L345 -72 L276 -72 L276 205 Z " />
<glyph glyph-name="I" unicode="I" horiz-adv-x="174" d="M134 589 L48 589 L48 -80 L134 -80 L134 589 Z M56 580 L126 580 L126 -71 L56 -71 L56 580 Z " />
<glyph glyph-name="J" unicode="J" horiz-adv-x="279" d="M93 -81 C225 -81 238 15 238 56 L238 588 L152 588 L152 55 C152 50 152 46 151 41 C150 32 146 24 139 16 C130 6 116 1 97 1 L70 1 L38 1 L38 -81 L93 -81 L93 -81 Z M47 -8 L70 -8 L97 -8 C118 -8 135 -2 146 10 C162 29 160 55 160 56 L160 579 L229 579 L229 56 C229 17 216 -72 93 -72 L47 -72 L47 -8 Z " />
<glyph glyph-name="K" unicode="K" horiz-adv-x="428" d="M210 180 L386 588 L293 588 L138 233 L138 588 L52 588 L52 -81 L138 -81 L138 134 L296 -81 L404 -81 L210 180 Z M129 159 L129 -73 L60 -73 L60 580 L129 580 L129 193 L299 580 L373 580 L201 179 L387 -73 L301 -73 L129 159 Z " />
<glyph glyph-name="L" unicode="L" horiz-adv-x="286" d="M257 5 L125 5 L125 588 L39 588 L39 -81 L257 -81 L257 5 Z M47 579 L116 579 L116 -3 L249 -3 L249 -72 L47 -72 L47 579 Z " />
<glyph glyph-name="M" unicode="M" horiz-adv-x="514" d="M297 -82 L296 -78 L384 272 L384 -81 L470 -81 L470 587 L385 587 L257 77 L130 583 L130 587 L44 587 L44 -81 L130 -81 L130 255 L219 -82 L292 -82 L297 -82 Z M122 321 L122 -73 L52 -73 L52 579 L122 579 L257 42 L391 579 L461 579 L461 -73 L392 -73 L392 340 L288 -74 L225 -74 L122 321 Z " />
<glyph glyph-name="N" unicode="N" horiz-adv-x="387" d="M347 588 L261 588 L261 175 L120 588 L35 588 L35 -81 L121 -81 L121 332 L262 -81 L347 -81 L347 588 Z M112 383 L112 -72 L43 -72 L43 579 L114 579 L270 124 L270 579 L339 579 L339 -72 L269 -72 L112 383 Z " />
<glyph glyph-name="O" unicode="O" horiz-adv-x="384" d="M202 -85 C336 -85 346 20 346 52 L346 453 C346 485 336 590 202 590 C140 590 98 569 75 527 C63 506 57 481 57 453 L57 51 C57 24 63 -1 75 -22 C98 -64 140 -85 202 -85 L202 -85 Z M202 581 C328 581 338 482 338 453 L338 52 C338 23 328 -76 202 -76 C144 -76 104 -57 82 -18 C71 3 65 26 65 52 L65 454 C65 479 71 502 82 523 C104 562 144 581 202 581 L202 581 Z M201 -15 C222 -15 239 -9 250 3 C269 23 269 51 269 52 L269 453 C269 454 269 482 250 502 C239 514 222 520 201 520 C135 520 134 453 134 453 L134 52 C134 52 135 -15 201 -15 L201 -15 Z M201 511 C220 511 234 506 244 496 C261 479 260 454 260 453 L260 52 C260 51 261 26 244 9 C234 -1 220 -6 201 -6 C144 -6 143 48 143 52 L143 453 C143 457 143 511 201 511 L201 511 Z " />
<glyph glyph-name="P" unicode="P" horiz-adv-x="377" d="M137 200 L197 200 C240 200 280 216 307 243 C330 265 341 292 341 324 L341 451 C341 530 280 588 197 588 L51 588 L51 -81 L137 -81 L137 200 Z M60 580 L197 580 C274 580 333 525 333 451 L333 324 C333 295 323 270 302 248 C275 222 240 209 197 209 L129 209 L129 -73 L60 -73 L60 580 Z M196 282 L197 278 C253 278 263 318 263 334 L263 451 C263 486 233 512 197 512 L129 512 L129 278 L196 278 L196 282 Z M137 504 L197 504 C228 504 255 480 255 451 L255 335 C252 317 245 287 197 287 L137 287 L137 504 Z " />
<glyph glyph-name="Q" unicode="Q" horiz-adv-x="387" d="M259 -72 C327 -45 335 24 335 52 L335 454 C335 485 323 590 190 590 C129 590 87 569 63 527 C51 507 45 483 45 454 L45 52 C45 23 54 -76 176 -84 L190 -122 L280 -122 L259 -72 Z M181 -76 L179 -76 C62 -71 53 24 53 52 L53 454 C53 479 60 504 71 523 C92 562 132 582 190 582 C317 582 326 483 326 454 L326 52 C326 24 319 -39 252 -66 L248 -67 L267 -113 L196 -113 L181 -76 Z M190 -14 C211 -14 227 -8 238 4 C257 23 258 52 257 52 L257 454 C258 454 257 483 238 502 C227 514 211 520 190 520 C155 520 139 503 131 487 C126 477 124 466 123 454 L123 52 C124 39 126 28 131 19 C139 2 155 -14 190 -14 L190 -14 Z M131 454 C131 456 131 512 190 512 C208 512 222 507 233 496 C241 487 244 477 247 469 C248 464 249 459 249 454 L249 52 C249 47 248 42 247 37 C244 29 241 18 233 10 C222 -1 208 -6 190 -6 C131 -6 131 50 131 52 L131 454 Z " />
<glyph glyph-name="R" unicode="R" horiz-adv-x="410" d="M350 183 C350 234 329 254 313 259 C328 267 350 286 350 338 L350 451 C350 526 285 588 205 588 L60 588 L60 -81 L146 -81 L146 221 L205 221 C253 221 260 190 263 173 L263 -81 L350 -81 L350 183 Z M271 173 C271 189 261 229 205 229 L205 225 L204 229 L138 229 L137 -73 L68 -73 L68 580 L205 580 C281 580 341 523 341 451 L341 338 C341 266 300 263 298 263 L298 255 C299 255 341 252 341 183 L341 -73 L271 -73 L271 173 Z M205 299 C261 299 271 339 271 355 L271 451 C271 486 242 512 205 512 L138 512 L138 299 L205 299 L205 299 Z M146 504 L205 504 C237 504 263 480 263 451 L263 355 C260 337 253 307 205 307 L146 307 L146 504 Z " />
<glyph glyph-name="S" unicode="S" horiz-adv-x="415" d="M204 -85 C340 -85 349 20 349 52 L349 168 C349 207 332 234 315 251 C305 261 294 269 282 275 C281 275 261 290 205 293 C177 296 162 302 154 309 C149 313 146 317 145 322 L145 453 C145 457 145 511 204 511 C223 511 237 506 247 496 C263 479 263 454 263 453 L263 343 L349 343 L349 453 C349 485 340 590 204 590 C143 590 101 569 77 527 C66 506 59 480 59 453 L59 318 C59 259 116 231 118 231 C120 231 162 212 204 209 C230 207 247 201 256 190 C260 186 261 181 262 178 C263 176 263 174 263 173 L263 52 C263 51 263 26 247 9 C237 -1 223 -6 204 -6 C145 -6 145 48 145 52 L145 155 L59 155 L59 51 C59 24 66 -1 77 -22 C101 -64 143 -85 204 -85 L204 -85 Z M137 146 L137 52 C137 52 138 -15 204 -15 C225 -15 241 -9 253 3 C272 23 271 51 271 52 L271 172 C271 173 272 184 263 196 C252 208 233 215 205 217 C165 220 121 238 122 239 C122 238 68 264 68 318 L68 454 C68 479 74 502 85 523 C107 562 147 581 204 581 C331 581 341 482 341 453 L341 352 L271 352 L271 453 C271 454 272 482 253 502 C241 514 225 520 204 520 C138 520 137 453 137 453 L137 321 C138 320 141 289 205 285 C257 281 277 268 278 267 C278 268 342 240 341 168 L341 52 C341 23 331 -76 204 -76 C147 -76 107 -57 85 -18 C74 3 68 26 68 52 L68 146 L137 146 Z " />
<glyph glyph-name="T" unicode="T" horiz-adv-x="379" d="M232 502 L337 502 L337 588 L42 588 L42 502 L146 502 L146 -81 L232 -81 L232 502 Z M155 510 L50 510 L50 579 L328 579 L328 510 L224 510 L224 -72 L155 -72 L155 510 Z " />
<glyph glyph-name="U" unicode="U" horiz-adv-x="386" d="M203 -85 C337 -85 347 18 347 51 L347 588 L262 588 L261 51 C261 46 260 41 259 36 C256 28 253 17 245 9 C234 -2 220 -7 203 -7 C144 -7 144 49 144 51 L144 588 L58 588 L58 51 C58 22 64 -2 76 -22 C99 -64 141 -85 203 -85 L203 -85 Z M66 580 L136 580 L135 51 C136 38 139 27 144 18 C153 1 168 -15 203 -15 C224 -15 240 -9 251 3 C270 22 269 51 270 51 L270 580 L339 580 L339 51 C339 22 329 -77 203 -77 C145 -77 105 -57 83 -18 C72 1 66 24 66 51 L66 580 Z " />
<glyph glyph-name="V" unicode="V" horiz-adv-x="388" d="M368 588 L278 588 L199 168 L120 588 L31 588 L154 -81 L245 -81 L368 588 Z M41 580 L113 580 L199 123 L285 580 L358 580 L238 -73 L161 -73 L41 580 Z " />
<glyph glyph-name="W" unicode="W" horiz-adv-x="628" d="M602 588 L513 588 L434 168 L355 588 L268 588 L188 168 L109 588 L20 588 L143 -81 L234 -81 L311 341 L389 -81 L479 -81 L602 588 Z M311 388 L227 -73 L150 -73 L30 580 L102 580 L188 123 L274 580 L348 580 L434 123 L520 580 L592 580 L473 -73 L396 -73 L311 388 Z " />
<glyph glyph-name="X" unicode="X" horiz-adv-x="418" d="M251 254 L389 588 L302 588 L208 360 L114 588 L26 588 L164 254 L26 -81 L113 -81 L208 148 L303 -81 L389 -81 L251 254 Z M208 170 L108 -73 L39 -73 L173 254 L39 580 L109 580 L208 338 L307 580 L377 580 L242 254 L377 -73 L308 -73 L208 170 Z " />
<glyph glyph-name="Y" unicode="Y" horiz-adv-x="436" d="M257 196 L409 588 L315 588 L214 314 L113 588 L18 588 L171 197 L171 -81 L257 -81 L257 196 Z M179 198 L31 580 L107 580 L214 290 L321 580 L397 580 L249 199 L248 -73 L179 -72 L179 198 Z " />
<glyph glyph-name="Z" unicode="Z" horiz-adv-x="470" d="M413 5 L167 5 L412 505 L413 588 L61 588 L61 502 L306 502 L61 3 L61 -81 L413 -81 L413 5 Z M69 0 L320 511 L69 511 L69 580 L404 580 L404 508 L154 -4 L404 -4 L404 -73 L69 -73 L69 0 Z " />
<glyph glyph-name="bracketleft" unicode="&#x5b;" horiz-adv-x="214" d="M192 -157 L196 -157 L196 -76 L159 -76 C144 -76 136 -77 129 -73 C124 -70 120 -65 120 -48 L120 550 C120 581 133 580 164 580 L196 580 L196 661 L139 661 C100 661 72 650 57 629 C42 610 35 582 35 545 L35 -56 C35 -83 42 -106 57 -125 C75 -146 102 -157 139 -157 L152 -157 L173 -157 L192 -157 Z M188 653 L188 589 L164 589 C135 589 112 589 112 550 L112 -48 C112 -65 116 -76 125 -80 C133 -85 144 -85 159 -85 L188 -85 L188 -149 L152 -149 L139 -149 C105 -149 80 -139 64 -119 C51 -104 44 -83 44 -56 L44 545 C44 580 50 606 63 624 C78 643 104 653 139 653 L188 653 Z " />
<glyph glyph-name="backslash" unicode="&#x5c;" horiz-adv-x="343" d="M334 -109 L99 607 L98 610 L11 610 L246 -106 L247 -109 L334 -109 Z M92 602 L322 -101 L253 -101 L23 602 L92 602 Z " />
<glyph glyph-name="bracketright" unicode="&#x5d;" horiz-adv-x="211" d="M67 -157 L80 -157 C117 -157 145 -146 162 -125 C177 -107 184 -84 184 -56 L184 545 C184 582 177 610 162 629 C147 650 119 661 80 661 L23 661 L23 580 L55 580 C86 580 99 581 99 550 L99 -48 C99 -65 95 -70 90 -73 C85 -76 75 -77 60 -76 L23 -76 L23 -157 L27 -157 L46 -157 L67 -157 Z M32 -85 L60 -85 C75 -85 87 -85 95 -80 C103 -75 107 -65 107 -48 L107 550 C107 589 84 589 55 589 L32 589 L32 653 L80 653 C115 653 141 643 156 624 C169 607 175 581 175 545 L175 -56 C175 -83 169 -104 156 -119 C139 -139 113 -149 80 -149 L67 -149 L32 -149 L32 -85 Z " />
<glyph glyph-name="asciicircum" unicode="&#x5e;" horiz-adv-x="247" d="M226 401 L166 590 L80 590 L19 402 L91 402 L92 405 C111 469 118 499 123 515 L154 401 L226 401 Z M119 532 C119 528 98 458 85 411 L31 411 L87 582 L160 582 L214 410 L160 410 L127 532 L123 548 L119 532 Z " />
<glyph glyph-name="underscore" unicode="&#x5f;" horiz-adv-x="418" d="M403 -5 L21 -5 L21 -81 L403 -81 L403 -5 Z M29 -14 L394 -14 L394 -73 L29 -73 L29 -14 Z " />
<glyph glyph-name="grave" unicode="&#x60;" horiz-adv-x="208" d="M131 588 L17 588 L111 444 L192 444 L131 588 Z M33 580 L126 580 L179 452 L116 452 L33 580 Z " />
<glyph glyph-name="a" unicode="a" horiz-adv-x="398" d="M239 588 L160 588 L25 -81 L113 -81 L133 21 L270 21 L291 -81 L379 -81 L239 588 Z M277 29 L126 29 L107 -73 L35 -73 L167 580 L232 580 L369 -73 L298 -73 L277 29 Z M200 411 L140 98 L264 98 L200 411 Z M200 368 L254 107 L150 107 L200 368 Z " />
<glyph glyph-name="b" unicode="b" horiz-adv-x="348" d="M171 -81 C245 -81 327 -25 327 56 L327 183 C327 235 300 253 281 260 C296 268 316 287 316 338 L316 451 C316 526 251 588 171 588 L26 588 L26 -81 L171 -81 L171 -81 Z M34 580 L171 580 C246 580 308 523 308 451 L308 338 C308 266 267 263 264 263 L264 255 C268 255 319 252 319 183 L319 56 C319 -20 240 -73 171 -73 L34 -73 L34 580 Z M171 -5 C207 -5 249 21 249 56 L249 173 C246 189 238 229 171 229 L171 225 L170 229 L104 229 L104 -5 L171 -5 L171 -5 Z M112 221 L171 221 C227 221 240 190 240 173 L240 56 C240 27 202 3 171 3 L112 3 L112 221 Z M171 299 C227 299 237 339 237 355 L237 451 C237 486 208 512 171 512 L104 512 L104 299 L171 299 L171 299 Z M112 504 L171 504 C203 504 229 480 229 451 L229 355 C229 337 218 307 171 307 L112 307 L112 504 Z " />
<glyph glyph-name="c" unicode="c" horiz-adv-x="352" d="M182 -85 C316 -85 326 20 326 52 L326 56 L240 56 L240 52 C240 51 241 26 224 9 C214 -1 200 -6 182 -6 C123 -6 123 48 123 52 L123 453 C123 457 123 511 182 511 C200 511 214 506 224 496 C241 479 240 454 240 453 L240 449 L326 449 L326 453 C326 485 316 590 182 590 C120 590 78 569 55 527 C43 506 37 481 37 453 L37 51 C37 24 43 -1 55 -22 C78 -64 120 -85 182 -85 L182 -85 Z M182 581 C302 581 318 492 318 457 L249 457 C248 466 245 487 230 502 C218 514 202 520 182 520 C115 520 113 453 114 453 L114 52 C113 52 115 -15 182 -15 C202 -15 218 -9 230 3 C245 18 248 39 249 48 L318 48 C318 13 302 -76 182 -76 C124 -76 84 -57 62 -18 C51 3 45 26 45 52 L45 454 C45 479 51 502 62 523 C84 562 124 581 182 581 L182 581 Z " />
<glyph glyph-name="d" unicode="d" horiz-adv-x="384" d="M191 -81 C271 -81 336 -19 336 56 L336 451 C336 526 271 588 191 588 L46 588 L46 -81 L191 -81 L191 -81 Z M55 580 L191 580 C267 580 328 523 328 451 L328 56 C328 -16 267 -73 191 -73 L55 -73 L55 580 Z M191 -5 C228 -5 258 23 258 56 L258 451 C258 486 228 512 191 512 L124 512 L124 -5 L191 -5 L191 -5 Z M132 504 L191 504 C223 504 249 480 249 451 L249 56 C249 27 223 3 191 3 L132 3 L132 504 Z " />
<glyph glyph-name="e" unicode="e" horiz-adv-x="335" d="M304 5 L127 5 L127 155 L221 155 L221 241 L127 241 L127 502 L304 502 L304 588 L41 588 L41 -81 L304 -81 L304 5 Z M49 580 L295 580 L295 510 L119 510 L119 233 L213 233 L213 163 L119 163 L119 -3 L295 -3 L295 -73 L49 -73 L49 580 Z " />
<glyph glyph-name="f" unicode="f" horiz-adv-x="387" d="M158 155 L252 155 L252 241 L158 241 L158 502 L335 502 L335 588 L72 588 L72 -81 L158 -81 L158 155 Z M80 579 L326 579 L326 510 L150 510 L150 233 L244 233 L244 164 L150 164 L150 -72 L80 -72 L80 579 Z " />
<glyph glyph-name="g" unicode="g" horiz-adv-x="389" d="M198 -85 C331 -85 343 18 343 51 L343 243 L220 243 L220 157 L257 157 L257 51 C257 45 255 -6 198 -6 C139 -6 139 48 139 52 L139 453 C139 457 139 511 198 511 C217 511 231 506 241 496 C257 479 257 454 257 453 L257 449 L343 449 L343 453 C343 485 331 590 198 590 C137 590 95 569 71 527 C60 506 53 480 53 453 L53 51 C53 24 60 -1 71 -22 C95 -64 137 -85 198 -85 L198 -85 Z M198 581 C318 581 335 492 335 457 L265 457 C265 466 262 487 247 502 C235 514 219 520 198 520 C132 520 131 453 131 453 L131 52 C131 52 132 -15 198 -15 C262 -15 265 46 265 51 L265 165 L228 165 L228 234 L335 234 L335 51 C335 21 325 -76 198 -76 C139 -76 100 -57 79 -18 C68 3 62 26 62 52 L62 454 C62 479 68 502 79 523 C100 562 139 581 198 581 L198 581 Z " />
<glyph glyph-name="h" unicode="h" horiz-adv-x="409" d="M365 588 L279 588 L279 283 L157 283 L157 588 L71 588 L71 -81 L157 -81 L157 197 L279 197 L279 -81 L365 -81 L365 588 Z M288 205 L149 205 L149 -72 L80 -72 L80 579 L149 579 L149 274 L288 274 L288 579 L357 579 L357 -72 L288 -72 L288 205 Z " />
<glyph glyph-name="i" unicode="i" horiz-adv-x="174" d="M134 588 L48 588 L48 -81 L134 -81 L134 588 Z M56 579 L126 579 L126 -72 L56 -72 L56 579 Z " />
<glyph glyph-name="j" unicode="j" horiz-adv-x="279" d="M93 -81 C225 -81 238 15 238 56 L238 588 L152 588 L152 55 C152 50 152 46 151 41 C150 32 146 24 139 16 C130 6 116 1 97 1 L70 1 L38 1 L38 -81 L93 -81 L93 -81 Z M47 -8 L70 -8 L97 -8 C118 -8 135 -2 146 10 C162 29 160 55 160 56 L160 579 L229 579 L229 56 C229 17 216 -72 93 -72 L47 -72 L47 -8 Z " />
<glyph glyph-name="k" unicode="k" horiz-adv-x="428" d="M210 180 L386 588 L293 588 L138 233 L138 588 L52 588 L52 -81 L138 -81 L138 134 L296 -81 L404 -81 L210 180 Z M129 159 L129 -73 L60 -73 L60 580 L129 580 L129 193 L299 580 L373 580 L201 179 L387 -73 L301 -73 L129 159 Z " />
<glyph glyph-name="l" unicode="l" horiz-adv-x="286" d="M269 5 L137 5 L137 588 L51 588 L51 -81 L269 -81 L269 5 Z M59 579 L128 579 L128 -3 L261 -3 L261 -72 L59 -72 L59 579 Z " />
<glyph glyph-name="m" unicode="m" horiz-adv-x="514" d="M297 -82 L296 -78 L384 272 L384 -81 L470 -81 L470 587 L385 587 L257 77 L130 583 L130 587 L44 587 L44 -81 L130 -81 L130 255 L219 -82 L292 -82 L297 -82 Z M122 321 L122 -73 L52 -73 L52 579 L122 579 L257 42 L391 579 L461 579 L461 -73 L392 -73 L392 340 L288 -74 L225 -74 L122 321 Z " />
<glyph glyph-name="n" unicode="n" horiz-adv-x="387" d="M347 588 L261 588 L261 175 L120 588 L35 588 L35 -81 L121 -81 L121 332 L262 -81 L347 -81 L347 588 Z M112 383 L112 -72 L43 -72 L43 579 L114 579 L270 124 L270 579 L339 579 L339 -72 L269 -72 L112 383 Z " />
<glyph glyph-name="o" unicode="o" horiz-adv-x="384" d="M202 -85 C336 -85 346 20 346 52 L346 453 C346 485 336 590 202 590 C140 590 98 569 75 527 C63 506 57 481 57 453 L57 51 C57 24 63 -1 75 -22 C98 -64 140 -85 202 -85 L202 -85 Z M202 581 C328 581 338 482 338 453 L338 52 C338 23 328 -76 202 -76 C144 -76 104 -57 82 -18 C71 3 65 26 65 52 L65 454 C65 479 71 502 82 523 C104 562 144 581 202 581 L202 581 Z M201 -15 C222 -15 239 -9 250 3 C269 23 269 51 269 52 L269 453 C269 454 269 482 250 502 C239 514 222 520 201 520 C135 520 134 453 134 453 L134 52 C134 52 135 -15 201 -15 L201 -15 Z M201 511 C220 511 234 506 244 496 C261 479 260 454 260 453 L260 52 C260 51 261 26 244 9 C234 -1 220 -6 201 -6 C144 -6 143 48 143 52 L143 453 C143 457 143 511 201 511 L201 511 Z " />
<glyph glyph-name="p" unicode="p" horiz-adv-x="377" d="M130 200 L190 200 C233 200 273 216 300 243 C323 265 334 292 334 324 L334 451 C334 530 273 588 190 588 L44 588 L44 -81 L130 -81 L130 200 Z M53 580 L190 580 C267 580 326 525 326 451 L326 324 C326 295 316 270 295 248 C268 222 233 209 190 209 L122 209 L122 -73 L53 -73 L53 580 Z M189 282 L190 278 C246 278 256 318 256 334 L256 451 C256 486 226 512 190 512 L122 512 L122 278 L189 278 L189 282 Z M130 504 L190 504 C221 504 248 480 248 451 L248 335 C245 317 238 287 190 287 L130 287 L130 504 Z " />
<glyph glyph-name="q" unicode="q" horiz-adv-x="387" d="M259 -72 C327 -45 335 24 335 52 L335 454 C335 485 323 590 190 590 C129 590 87 569 63 527 C51 507 45 483 45 454 L45 52 C45 23 54 -76 176 -84 L190 -122 L280 -122 L259 -72 Z M181 -76 L179 -76 C62 -71 53 24 53 52 L53 454 C53 479 60 504 71 523 C92 562 132 582 190 582 C317 582 326 483 326 454 L326 52 C326 24 319 -39 252 -66 L248 -67 L267 -113 L196 -113 L181 -76 Z M190 -14 C211 -14 227 -8 238 4 C257 23 258 52 257 52 L257 454 C258 454 257 483 238 502 C227 514 211 520 190 520 C155 520 139 503 131 487 C126 477 124 466 123 454 L123 52 C124 39 126 28 131 19 C139 2 155 -14 190 -14 L190 -14 Z M131 454 C131 456 131 512 190 512 C208 512 222 507 233 496 C241 487 244 477 247 469 C248 464 249 459 249 454 L249 52 C249 47 248 42 247 37 C244 29 241 18 233 10 C222 -1 208 -6 190 -6 C131 -6 131 50 131 52 L131 454 Z " />
<glyph glyph-name="r" unicode="r" horiz-adv-x="410" d="M350 183 C350 234 329 254 313 259 C328 267 350 286 350 338 L350 451 C350 526 285 588 205 588 L60 588 L60 -81 L146 -81 L146 221 L205 221 C253 221 260 190 263 173 L263 -81 L350 -81 L350 183 Z M271 173 C271 189 261 229 205 229 L205 225 L204 229 L138 229 L137 -73 L68 -73 L68 580 L205 580 C281 580 341 523 341 451 L341 338 C341 266 300 263 298 263 L298 255 C299 255 341 252 341 183 L341 -73 L271 -73 L271 173 Z M205 299 C261 299 271 339 271 355 L271 451 C271 486 242 512 205 512 L138 512 L138 299 L205 299 L205 299 Z M146 504 L205 504 C237 504 263 480 263 451 L263 355 C260 337 253 307 205 307 L146 307 L146 504 Z " />
<glyph glyph-name="s" unicode="s" horiz-adv-x="415" d="M208 -85 C344 -85 353 20 353 52 L353 168 C353 207 336 234 319 251 C309 261 298 269 286 275 C285 275 265 290 209 293 C181 296 166 302 158 309 C153 313 150 317 149 322 L149 453 C149 457 149 511 208 511 C227 511 241 506 251 496 C267 479 267 454 267 453 L267 343 L353 343 L353 453 C353 485 344 590 208 590 C147 590 105 569 81 527 C70 506 63 480 63 453 L63 318 C63 259 120 231 122 231 C124 231 166 212 208 209 C234 207 251 201 260 190 C264 186 265 181 266 178 C267 176 267 174 267 173 L267 52 C267 51 267 26 251 9 C241 -1 227 -6 208 -6 C149 -6 149 48 149 52 L149 155 L63 155 L63 51 C63 24 70 -1 81 -22 C105 -64 147 -85 208 -85 L208 -85 Z M141 146 L141 52 C141 52 142 -15 208 -15 C229 -15 245 -9 257 3 C276 23 275 51 275 52 L275 172 C275 173 276 184 267 196 C256 208 237 215 209 217 C169 220 125 238 126 239 C126 238 72 264 72 318 L72 454 C72 479 78 502 89 523 C111 562 151 581 208 581 C335 581 345 482 345 453 L345 352 L275 352 L275 453 C275 454 276 482 257 502 C245 514 229 520 208 520 C142 520 141 453 141 453 L141 321 C142 320 145 289 209 285 C261 281 281 268 282 267 C282 268 346 240 345 168 L345 52 C345 23 335 -76 208 -76 C151 -76 111 -57 89 -18 C78 3 72 26 72 52 L72 146 L141 146 Z " />
<glyph glyph-name="t" unicode="t" horiz-adv-x="379" d="M235 502 L340 502 L340 588 L45 588 L45 502 L149 502 L149 -81 L235 -81 L235 502 Z M158 510 L53 510 L53 579 L331 579 L331 510 L227 510 L227 -72 L158 -72 L158 510 Z " />
<glyph glyph-name="u" unicode="u" horiz-adv-x="386" d="M196 -85 C330 -85 340 18 340 51 L340 588 L255 588 L254 51 C254 46 253 41 252 36 C249 28 246 17 238 9 C227 -2 213 -7 196 -7 C137 -7 137 49 137 51 L137 588 L51 588 L51 51 C51 22 57 -2 69 -22 C92 -64 134 -85 196 -85 L196 -85 Z M59 580 L129 580 L128 51 C129 38 132 27 137 18 C146 1 161 -15 196 -15 C217 -15 233 -9 244 3 C263 22 262 51 263 51 L263 580 L332 580 L332 51 C332 22 322 -77 196 -77 C138 -77 98 -57 76 -18 C65 1 59 24 59 51 L59 580 Z " />
<glyph glyph-name="v" unicode="v" horiz-adv-x="388" d="M368 588 L278 588 L199 168 L120 588 L31 588 L154 -81 L245 -81 L368 588 Z M41 580 L113 580 L199 123 L285 580 L358 580 L238 -73 L161 -73 L41 580 Z " />
<glyph glyph-name="w" unicode="w" horiz-adv-x="628" d="M602 588 L513 588 L434 168 L355 588 L268 588 L188 168 L109 588 L20 588 L143 -81 L234 -81 L311 341 L389 -81 L479 -81 L602 588 Z M311 388 L227 -73 L150 -73 L30 580 L102 580 L188 123 L274 580 L348 580 L434 123 L520 580 L592 580 L473 -73 L396 -73 L311 388 Z " />
<glyph glyph-name="x" unicode="x" horiz-adv-x="418" d="M259 254 L397 588 L310 588 L216 360 L122 588 L34 588 L172 254 L34 -81 L121 -81 L216 148 L311 -81 L397 -81 L259 254 Z M216 170 L116 -73 L47 -73 L181 254 L47 580 L117 580 L216 338 L315 580 L385 580 L250 254 L385 -73 L316 -73 L216 170 Z " />
<glyph glyph-name="y" unicode="y" horiz-adv-x="436" d="M257 196 L409 588 L315 588 L214 314 L113 588 L18 588 L171 197 L171 -81 L257 -81 L257 196 Z M179 198 L31 580 L107 580 L214 290 L321 580 L397 580 L249 199 L248 -73 L179 -72 L179 198 Z " />
<glyph glyph-name="z" unicode="z" horiz-adv-x="470" d="M413 5 L167 5 L412 505 L413 588 L61 588 L61 502 L306 502 L61 3 L61 -81 L413 -81 L413 5 Z M69 0 L320 511 L69 511 L69 580 L404 580 L404 508 L154 -4 L404 -4 L404 -73 L69 -73 L69 0 Z " />
<glyph glyph-name="braceleft" unicode="&#x7b;" horiz-adv-x="277" d="M244 -157 L248 -157 L248 -76 L211 -76 C198 -76 188 -77 181 -73 C177 -70 172 -65 172 -48 C173 -13 173 20 173 52 C173 105 173 166 172 197 C172 204 171 208 171 211 C170 213 170 215 170 216 C163 241 147 255 135 262 C158 270 171 291 172 325 L172 550 C172 581 186 580 217 580 L248 580 L248 661 L192 661 C153 661 126 650 109 629 C95 611 88 583 88 545 L88 335 C88 329 86 324 81 320 C73 313 61 311 50 310 C43 309 37 309 31 309 L26 309 L26 218 L30 218 C69 217 88 207 88 190 L88 -56 C88 -85 95 -108 110 -125 C127 -146 155 -157 192 -157 L204 -157 L226 -157 L244 -157 Z M34 300 C45 300 72 301 87 314 C93 320 96 327 96 335 L96 545 C96 580 103 607 116 624 C131 643 157 653 192 653 L240 653 L240 589 L217 589 C186 589 164 589 164 550 L164 325 C163 290 149 271 122 268 L103 266 L121 260 C122 260 164 246 164 196 L164 -48 C164 -65 168 -75 177 -80 C185 -85 196 -85 211 -85 L240 -85 L240 -149 L204 -149 L192 -149 C157 -149 132 -139 116 -119 C103 -104 96 -83 96 -56 L96 190 C96 213 75 225 34 226 L34 300 Z " />
<glyph glyph-name="bar" unicode="&#x7c;" horiz-adv-x="143" d="M116 615 L30 615 L30 -110 L116 -110 L116 615 Z M38 607 L107 607 L107 -102 L38 -102 L38 607 Z " />
<glyph glyph-name="braceright" unicode="&#x7d;" horiz-adv-x="283" d="M79 -157 L92 -157 C129 -157 157 -146 174 -125 C189 -106 196 -83 196 -56 L196 190 C196 207 215 217 253 218 L257 218 L257 309 L253 309 C252 310 218 306 202 320 C198 324 196 329 196 335 L196 545 C196 582 189 610 174 629 C159 650 131 661 92 661 L35 661 L35 580 L67 580 C98 580 111 581 111 550 L111 325 C112 291 125 270 148 262 C136 255 124 243 116 223 C111 214 110 144 110 80 C110 42 110 -1 111 -48 C111 -65 107 -70 102 -73 C97 -76 87 -77 72 -76 L35 -76 L35 -157 L39 -157 L58 -157 L79 -157 Z M43 -85 L72 -85 C87 -85 98 -85 106 -80 C115 -75 119 -65 119 -48 L120 196 C120 246 160 260 162 260 L180 266 L161 268 C134 271 120 290 119 325 L119 550 C119 589 96 589 67 589 L43 589 L43 653 L92 653 C127 653 153 643 168 624 C181 606 187 580 187 545 L187 335 C187 327 190 320 196 314 C211 301 238 300 249 300 L249 226 C208 225 187 213 187 190 L187 -56 C187 -83 181 -104 168 -119 C151 -139 125 -149 92 -149 L79 -149 L43 -149 L43 -85 Z " />
<glyph glyph-name="asciitilde" unicode="&#x7e;" horiz-adv-x="382" d="M83 234 C83 235 111 267 140 268 C157 269 168 263 183 256 C199 248 217 238 245 239 C288 242 344 302 347 305 L350 308 L296 362 L293 359 C287 353 281 348 275 343 C264 335 252 326 241 326 C222 325 208 332 192 339 C175 347 156 355 133 355 C89 355 33 295 31 293 L28 290 L80 230 L83 234 Z M39 290 C51 302 97 346 133 346 C156 346 172 339 189 331 C206 324 222 317 241 317 C262 318 287 341 296 350 L339 308 C327 296 280 248 245 248 C218 247 203 255 187 263 C172 270 159 277 140 276 C113 275 89 252 80 243 L39 290 L39 290 Z " />
<glyph glyph-name="cent" unicode="&#xa2;" horiz-adv-x="234" d="M145 -16 C225 -3 231 70 231 90 L231 94 L161 94 L161 90 C161 85 160 81 159 77 C156 70 153 61 145 54 L145 443 C153 436 156 427 159 420 C160 416 161 412 161 407 L161 402 L231 402 L231 407 C231 427 225 500 145 513 L145 543 L85 543 L85 512 C7 499 1 428 1 407 L1 90 C1 69 7 -2 85 -15 L85 -39 L145 -39 L145 -16 Z M94 -8 L90 -8 C15 5 9 70 9 90 L9 407 C9 427 16 491 90 504 L94 505 L94 534 L137 534 L137 505 L140 505 C211 494 222 435 222 411 L169 411 C169 420 164 443 143 454 L137 457 L137 40 L143 43 C164 54 169 75 169 86 L222 86 C222 62 211 3 140 -8 L137 -8 L137 -31 L94 -31 L94 -8 Z M94 457 L87 453 C62 439 62 408 62 407 L62 90 C62 89 62 58 87 44 L94 40 L94 457 Z M70 407 C70 411 71 415 72 419 C75 428 79 435 85 441 L85 56 C78 63 75 71 72 78 C71 82 70 86 70 90 L70 407 Z " />
<glyph glyph-name="sterling" unicode="&#xa3;" horiz-adv-x="361" d="M340 -9 L137 -9 L137 214 L261 214 L261 290 L136 290 L136 453 C136 455 136 511 195 511 C213 511 227 506 237 496 C245 487 250 478 252 468 C253 463 254 458 254 453 L254 403 L340 403 L340 453 C340 485 328 590 195 590 C148 590 112 577 87 552 C54 517 50 472 50 453 L50 290 L28 290 L28 214 L51 214 L51 -9 L28 -9 L28 -85 L340 -85 L340 -9 Z M37 -17 L59 -17 L59 222 L37 222 L37 282 L59 282 L59 453 C59 471 62 515 93 546 C118 569 152 581 195 581 C322 581 331 482 331 453 L331 411 L262 411 L262 453 C262 454 263 482 244 502 C232 514 216 520 195 520 C129 520 128 453 128 453 L128 282 L253 282 L253 222 L128 222 L129 -17 L331 -17 L331 -77 L37 -77 L37 -17 Z " />
<glyph glyph-name="Agrave" unicode="&#xc0;" horiz-adv-x="398" d="M239 589 L160 589 L25 -81 L113 -81 L132 21 L269 21 L291 -81 L379 -81 L239 589 Z M276 30 L125 30 L106 -72 L35 -72 L167 580 L232 580 L368 -72 L297 -72 L276 30 Z M199 412 L140 99 L264 99 L199 412 Z M199 369 L253 107 L150 107 L199 369 Z M171 707 L81 707 L168 605 L234 605 L171 707 Z M99 698 L166 698 L218 613 L172 613 L99 698 Z " />
<glyph glyph-name="Aacute" unicode="&#xc1;" horiz-adv-x="398" d="M237 589 L158 589 L23 -81 L112 -81 L131 21 L268 21 L289 -81 L377 -81 L237 589 Z M275 30 L124 30 L104 -72 L33 -72 L165 580 L230 580 L367 -72 L296 -72 L275 30 Z M197 412 L138 99 L262 99 L197 412 Z M198 369 L252 107 L149 107 L198 369 Z M312 707 L222 707 L159 605 L225 605 L312 707 Z M227 698 L293 698 L221 613 L174 613 L227 698 Z " />
<glyph glyph-name="Acircumflex" unicode="&#xc2;" horiz-adv-x="398" d="M235 589 L156 589 L21 -81 L109 -81 L128 21 L265 21 L286 -81 L375 -81 L235 589 Z M272 30 L121 30 L102 -72 L31 -72 L163 580 L228 580 L365 -72 L293 -72 L272 30 Z M195 412 L136 99 L260 99 L195 412 Z M195 369 L249 107 L146 107 L195 369 Z M300 601 L239 711 L154 711 L91 602 L164 602 L165 604 C184 639 191 657 196 666 L228 601 L300 601 Z M191 676 C188 671 171 635 158 610 L105 610 L159 702 L234 702 L286 609 L233 609 L196 685 L191 676 Z " />
<glyph glyph-name="Atilde" unicode="&#xc3;" horiz-adv-x="398" d="M234 589 L155 589 L20 -81 L108 -81 L127 21 L264 21 L286 -81 L374 -81 L234 589 Z M271 30 L120 30 L101 -72 L30 -72 L162 580 L227 580 L363 -72 L292 -72 L271 30 Z M194 412 L135 99 L259 99 L194 412 Z M195 369 L248 107 L145 107 L195 369 Z M128 608 C127 608 147 630 165 630 C176 631 183 627 192 622 C203 617 215 611 234 611 C263 611 302 654 303 655 L305 658 L267 696 L265 693 C258 686 243 672 231 672 C220 671 211 675 200 680 C188 685 175 691 160 691 L159 691 C130 691 91 651 91 649 L88 647 L125 605 L128 608 Z M99 646 C107 654 138 682 160 682 C175 682 185 677 196 672 C207 668 218 663 231 663 C246 663 261 677 268 684 L294 658 C286 650 255 620 234 620 C217 619 207 625 196 630 C187 635 177 639 164 639 C147 638 132 624 125 617 L99 646 L99 646 Z " />
<glyph glyph-name="Adieresis" unicode="&#xc4;" horiz-adv-x="398" d="M194 691 L118 691 L118 611 L194 611 L194 691 Z M126 682 L186 682 L186 619 L126 619 L126 682 Z M280 691 L203 691 L203 611 L280 611 L280 691 Z M211 682 L271 682 L271 619 L211 619 L211 682 Z M236 589 L157 589 L22 -81 L110 -81 L129 21 L266 21 L287 -81 L376 -81 L236 589 Z M273 30 L122 30 L103 -72 L32 -72 L164 580 L229 580 L365 -72 L294 -72 L273 30 Z M196 412 L137 99 L260 99 L196 412 Z M196 369 L250 107 L147 107 L196 369 Z " />
<glyph glyph-name="Aring" unicode="&#xc5;" horiz-adv-x="398" d="M241 579 C264 592 276 615 276 642 C276 683 243 717 202 717 C159 717 127 683 127 642 C127 618 139 596 158 581 L25 -81 L113 -81 L132 21 L269 21 L290 -81 L379 -81 L241 579 Z M276 30 L125 30 L106 -72 L35 -72 L167 582 L168 585 L165 587 C146 599 135 619 135 642 C135 679 165 708 202 708 C238 708 268 679 268 642 C268 618 255 596 234 584 L231 583 L368 -72 L297 -72 L276 30 Z M199 412 L140 99 L263 99 L199 412 Z M199 369 L253 107 L150 108 L199 369 Z M202 590 C231 590 254 613 254 642 C254 671 231 694 202 694 C173 694 150 671 150 642 C150 613 173 590 202 590 L202 590 Z M202 686 C226 686 245 666 245 642 C245 618 226 598 202 598 C178 598 158 618 158 642 C158 666 178 686 202 686 L202 686 Z " />
<glyph glyph-name="AE" unicode="&#xc6;" horiz-adv-x="474" d="M120 21 L183 21 L183 -81 L445 -81 L445 5 L269 5 L269 155 L363 155 L363 241 L269 241 L269 502 L445 502 L445 588 L148 588 L12 -81 L101 -81 L120 21 Z M154 580 L437 580 L437 510 L260 510 L260 233 L354 233 L354 164 L260 164 L260 -3 L437 -3 L437 -72 L191 -72 L191 29 L113 29 L94 -73 L23 -73 L154 580 Z M191 390 L183 390 L128 98 L191 98 L191 390 Z M183 344 L183 107 L138 107 L183 344 Z " />
<glyph glyph-name="Ccedilla" unicode="&#xc7;" horiz-adv-x="329" d="M145 -203 C198 -202 218 -175 226 -159 C234 -140 235 -119 224 -107 C215 -95 205 -88 197 -83 C197 -82 197 -82 196 -82 C299 -66 307 23 307 52 L307 56 L221 56 L221 52 C221 47 220 42 219 37 C216 28 213 17 205 9 C195 -1 181 -6 162 -6 C103 -6 103 50 103 52 L103 454 C103 456 103 512 162 512 C180 512 194 507 205 496 C213 487 216 477 219 469 C220 464 221 459 221 454 L221 449 L307 449 L307 454 C307 485 298 590 162 590 C101 590 59 569 35 527 C24 506 17 481 17 454 L17 52 C17 23 26 -73 142 -84 C143 -87 144 -90 147 -94 C154 -103 164 -109 172 -114 C184 -121 192 -126 192 -134 C192 -152 176 -162 145 -165 L142 -166 L141 -203 L145 -203 Z M150 -173 C175 -170 200 -163 200 -134 C200 -121 189 -114 177 -107 C168 -102 160 -96 153 -89 C152 -86 150 -83 149 -79 L148 -76 L145 -75 C34 -67 26 24 26 52 L26 454 C26 481 32 504 43 523 C65 562 105 582 162 582 C283 582 298 493 298 458 L229 458 C229 467 226 487 211 502 C199 514 183 520 162 520 C129 520 112 503 104 487 C99 477 96 466 95 454 L95 52 C95 52 96 -15 162 -14 C183 -14 200 -8 211 4 C226 19 229 39 229 48 L298 48 C298 17 285 -64 185 -75 L175 -76 L183 -82 C186 -85 189 -87 192 -90 C200 -95 209 -101 218 -112 C225 -120 226 -138 218 -155 C211 -170 194 -191 149 -194 L150 -173 L150 -173 Z " />
<glyph glyph-name="Egrave" unicode="&#xc8;" horiz-adv-x="327" d="M299 5 L123 5 L123 155 L217 155 L217 241 L123 241 L123 502 L299 502 L299 588 L37 588 L37 -81 L299 -81 L299 5 Z M45 579 L291 579 L291 510 L114 510 L114 233 L208 233 L208 163 L114 163 L114 -4 L291 -4 L291 -73 L45 -73 L45 579 Z M137 712 L47 712 L135 610 L200 610 L137 712 Z M66 704 L133 704 L185 618 L138 618 L66 704 Z " />
<glyph glyph-name="Eacute" unicode="&#xc9;" horiz-adv-x="359" d="M322 5 L145 5 L145 155 L239 155 L239 241 L145 241 L145 502 L322 502 L322 588 L59 588 L59 -81 L322 -81 L322 5 Z M68 579 L313 579 L313 510 L137 510 L137 233 L231 233 L231 163 L137 163 L137 -3 L313 -3 L313 -73 L68 -73 L68 579 Z M303 712 L213 712 L150 610 L216 610 L303 712 Z M218 704 L284 704 L212 618 L165 618 L218 704 Z " />
<glyph glyph-name="Ecircumflex" unicode="&#xca;" horiz-adv-x="359" d="M311 5 L135 5 L135 155 L229 155 L229 241 L135 241 L135 502 L311 502 L311 588 L49 588 L49 -81 L311 -81 L311 5 Z M57 579 L303 579 L303 510 L126 510 L126 233 L220 233 L220 163 L126 163 L126 -3 L303 -3 L303 -73 L57 -73 L57 579 Z M283 606 L221 716 L137 716 L74 607 L146 607 L147 609 C166 645 174 662 179 671 L210 606 L283 606 Z M174 682 C171 675 154 640 141 615 L88 615 L142 707 L217 707 L268 615 L216 615 L179 690 L174 682 Z " />
<glyph glyph-name="Edieresis" unicode="&#xcb;" horiz-adv-x="359" d="M312 5 L136 5 L136 155 L230 155 L230 241 L136 241 L136 502 L312 502 L312 588 L50 588 L50 -81 L312 -81 L312 5 Z M58 580 L304 580 L304 511 L128 511 L128 233 L222 233 L222 164 L128 164 L128 -3 L304 -3 L304 -72 L58 -72 L58 580 Z M174 701 L97 701 L97 621 L174 621 L174 701 Z M106 693 L165 693 L165 630 L106 630 L106 693 Z M259 701 L183 701 L183 621 L259 621 L259 701 Z M191 693 L251 693 L251 630 L191 630 L191 693 Z " />
<glyph glyph-name="Igrave" unicode="&#xcc;" horiz-adv-x="188" d="M140 588 L54 588 L54 -81 L140 -81 L140 588 Z M62 580 L131 580 L131 -73 L62 -73 L62 580 Z M75 719 L-15 719 L72 617 L137 617 L75 719 Z M3 710 L70 710 L122 625 L76 625 L3 710 Z " />
<glyph glyph-name="Iacute" unicode="&#xcd;" horiz-adv-x="179" d="M131 587 L46 587 L46 -81 L131 -81 L131 587 Z M54 579 L123 579 L123 -73 L54 -73 L54 579 Z M201 719 L111 719 L48 617 L113 617 L201 719 Z M115 710 L182 710 L110 625 L63 625 L115 710 Z " />
<glyph glyph-name="Icircumflex" unicode="&#xce;" horiz-adv-x="214" d="M151 588 L65 588 L65 -81 L151 -81 L151 588 Z M74 579 L143 579 L143 -73 L74 -73 L74 579 Z M213 613 L151 723 L67 723 L4 614 L76 614 L77 616 C96 652 104 669 108 678 L140 613 L213 613 Z M104 689 C101 682 84 647 71 622 L18 622 L71 714 L146 714 L198 622 L146 622 L108 697 L104 689 Z " />
<glyph glyph-name="Idieresis" unicode="&#xcf;" horiz-adv-x="212" d="M147 588 L61 588 L61 -81 L147 -81 L147 588 Z M69 580 L138 580 L138 -72 L69 -72 L69 580 Z M99 708 L23 708 L23 629 L99 629 L99 708 Z M31 700 L91 700 L91 637 L31 637 L31 700 Z M185 708 L108 708 L108 629 L185 629 L185 708 Z M117 700 L176 700 L176 637 L117 637 L117 700 Z " />
<glyph glyph-name="Eth" unicode="&#xd0;" horiz-adv-x="398" d="M222 -81 C302 -81 367 -19 367 56 L367 451 C367 526 302 588 222 588 L77 588 L77 286 L19 286 L19 211 L77 211 L77 -81 L222 -81 L222 -81 Z M86 219 L28 219 L28 277 L86 277 L86 580 L222 580 C298 580 359 523 359 451 L359 56 C359 -16 298 -73 222 -73 L86 -73 L86 219 Z M222 -5 C259 -5 289 23 289 56 L289 451 C289 484 259 512 222 512 L155 512 L155 277 L218 277 L218 219 L155 219 L155 -5 L222 -5 L222 -5 Z M163 211 L226 211 L226 286 L163 286 L163 504 L222 504 C254 504 280 480 280 451 L280 56 C280 27 254 3 222 3 L163 3 L163 211 Z " />
<glyph glyph-name="Ntilde" unicode="&#xd1;" horiz-adv-x="389" d="M358 588 L272 588 L272 175 L130 588 L45 588 L45 -81 L132 -81 L132 332 L273 -81 L358 -81 L358 588 Z M123 382 L123 -73 L54 -73 L54 579 L124 579 L280 124 L280 579 L350 579 L350 -73 L279 -73 L123 382 Z M133 608 C136 613 140 616 144 619 C151 624 159 629 170 630 C181 630 188 626 197 622 C208 615 220 610 239 611 C269 611 306 654 308 654 L311 658 L273 696 L270 692 C263 687 248 671 236 671 C225 671 216 675 205 679 C193 686 180 690 165 690 L164 690 C135 690 96 649 96 649 L93 646 L130 604 L133 608 Z M105 645 C114 654 141 682 164 682 L165 682 C180 682 190 676 201 672 C212 667 223 662 236 662 C251 663 266 677 273 684 L299 657 C291 649 260 619 239 619 C222 618 212 624 201 629 C192 634 182 639 170 638 C151 638 137 624 130 617 L105 645 L105 645 Z " />
<glyph glyph-name="Ograve" unicode="&#xd2;" horiz-adv-x="393" d="M197 -85 C330 -85 342 20 342 52 L342 453 C342 485 330 590 197 590 C135 590 93 569 70 527 C58 506 52 481 52 453 L52 51 C52 24 58 -1 70 -22 C93 -64 135 -85 197 -85 L197 -85 Z M197 582 C323 582 333 482 333 453 L333 52 C333 23 323 -77 197 -77 C139 -77 99 -57 77 -18 C66 3 60 26 60 52 L60 454 C60 479 66 502 77 523 C99 562 139 582 197 582 L197 582 Z M197 -15 C217 -15 233 -9 245 3 C264 23 264 51 264 52 L264 453 C264 454 264 482 245 502 C233 514 217 520 197 520 C130 520 128 453 129 453 L129 52 C128 52 130 -15 197 -15 L197 -15 Z M197 511 C215 511 229 506 239 496 C256 479 255 454 255 453 L255 52 C255 51 256 26 239 9 C229 -1 215 -6 197 -6 C138 -6 138 48 138 52 L138 453 C138 457 138 511 197 511 L197 511 Z M195 705 L106 705 L193 603 L258 603 L195 705 Z M124 697 L191 697 L243 611 L197 611 L124 697 Z " />
<glyph glyph-name="Oacute" unicode="&#xd3;" horiz-adv-x="385" d="M201 -85 C335 -85 345 20 345 51 L345 453 C345 485 335 590 201 590 C140 590 97 569 74 527 C62 506 56 481 56 453 L56 51 C56 24 62 -2 74 -22 C97 -64 139 -85 201 -85 L201 -85 Z M201 581 C327 581 337 482 337 453 L337 51 C337 22 327 -77 201 -77 C143 -77 103 -57 81 -18 C70 3 64 26 64 51 L64 454 C64 479 70 502 81 523 C103 562 143 581 201 581 L201 581 Z M200 -15 C221 -15 237 -9 249 3 C258 12 263 23 266 34 C267 40 268 46 268 51 L268 453 C267 453 268 482 249 501 C236 514 220 520 200 520 C134 520 133 453 133 453 L133 51 C134 38 137 27 142 18 C150 1 167 -15 200 -15 L200 -15 Z M200 511 C219 511 233 506 243 496 C259 479 259 454 259 453 L259 51 C259 46 258 41 257 36 C254 28 251 17 243 9 C232 -2 218 -7 200 -7 C141 -7 141 49 141 51 L141 453 C141 455 141 511 200 511 L200 511 Z M316 705 L226 705 L163 603 L228 603 L316 705 Z M230 697 L297 697 L225 611 L178 611 L230 697 Z " />
<glyph glyph-name="Ocircumflex" unicode="&#xd4;" horiz-adv-x="399" d="M203 -85 C337 -85 347 20 347 52 L347 453 C347 485 337 590 203 590 C141 590 99 569 76 527 C64 506 58 481 58 453 L58 51 C58 24 64 -1 76 -22 C99 -64 141 -85 203 -85 L203 -85 Z M203 582 C329 582 339 482 339 453 L339 52 C339 23 329 -77 203 -77 C145 -77 105 -57 83 -18 C72 3 66 26 66 52 L66 454 C66 479 72 502 83 523 C105 562 145 582 203 582 L203 582 Z M203 -15 C223 -15 239 -9 251 3 C270 23 270 51 270 52 L270 453 C270 454 270 482 251 502 C239 514 223 520 203 520 C136 520 134 453 135 453 L135 52 C134 52 136 -15 203 -15 L203 -15 Z M203 511 C221 511 235 506 245 496 C262 479 261 454 261 453 L261 52 C261 51 262 26 245 9 C235 -1 221 -6 203 -6 C144 -6 144 48 144 52 L144 453 C144 457 144 511 203 511 L203 511 Z M307 599 L246 709 L161 709 L98 600 L170 600 L172 602 C189 638 198 655 203 664 L234 599 L307 599 Z M198 675 C195 668 178 635 165 608 L112 608 L166 701 L241 701 L293 608 L240 608 L203 683 L198 675 Z " />
<glyph glyph-name="Otilde" unicode="&#xd5;" horiz-adv-x="384" d="M192 -85 C326 -85 336 20 336 52 L336 454 C336 485 326 590 192 590 C130 590 88 569 65 527 C53 506 47 481 47 454 L47 52 C47 23 53 -1 65 -22 C88 -64 130 -85 192 -85 L192 -85 Z M192 582 C318 582 328 483 328 454 L328 52 C328 23 318 -76 192 -76 C135 -76 95 -57 72 -18 C61 3 55 26 55 52 L55 454 C55 481 61 504 72 523 C94 562 134 582 192 582 L192 582 Z M192 -15 C213 -15 229 -9 240 4 C259 23 258 52 259 52 L259 454 C258 454 259 483 240 502 C229 514 213 520 192 520 C157 520 142 503 133 487 C128 477 125 466 124 454 L124 52 C123 52 125 -15 192 -15 L192 -15 Z M192 512 C209 512 223 507 234 496 C241 487 246 478 249 469 C250 464 251 459 251 454 L251 52 C251 47 250 42 249 37 C246 28 242 17 234 9 C224 -1 210 -6 192 -6 C133 -6 133 50 133 52 L133 454 C133 456 133 512 192 512 L192 512 Z M122 607 C123 607 141 628 160 629 C171 630 178 626 187 621 C198 614 210 610 229 610 C258 610 297 653 298 654 L300 657 L262 695 L259 691 C254 686 238 670 226 670 C215 670 206 674 195 679 C182 684 170 689 155 689 L154 689 C125 689 86 648 86 648 L83 645 L119 603 L122 607 Z M95 645 C103 653 132 681 154 681 L155 681 C168 681 180 676 191 671 C202 666 213 661 226 662 C241 662 255 676 262 683 L289 657 C281 646 249 619 229 619 C212 618 202 623 191 628 C182 633 172 638 159 637 C142 637 126 623 119 616 L95 645 L95 645 Z " />
<glyph glyph-name="Odieresis" unicode="&#xd6;" horiz-adv-x="399" d="M255 501 C243 513 227 519 206 519 C140 520 139 453 139 453 L139 51 C140 38 143 27 148 18 C156 1 173 -15 206 -15 C227 -15 243 -9 255 3 C274 22 273 51 273 51 L273 453 C273 453 274 482 255 501 L255 501 Z M249 9 C239 -2 225 -7 206 -7 C147 -7 147 49 147 51 L147 453 C147 455 147 511 206 511 C225 511 239 506 249 496 C256 488 260 479 263 468 C264 463 265 458 265 453 L265 51 C265 46 264 41 263 36 C260 28 257 17 249 9 L249 9 Z M206 589 C145 589 103 568 79 527 C68 506 61 480 61 453 L61 51 C61 24 68 -2 79 -23 C103 -64 145 -85 206 -85 C342 -85 351 18 351 51 L351 453 C351 484 342 589 206 589 L206 589 Z M342 51 C342 22 333 -77 206 -77 C148 -77 108 -57 87 -18 C76 1 70 24 70 51 L70 453 C70 480 76 503 87 522 C108 561 148 581 206 581 C333 581 342 482 342 453 L342 51 Z M204 688 L128 688 L128 608 L204 608 L204 688 Z M196 617 L136 617 L136 679 L196 679 L196 617 Z M290 688 L213 688 L213 608 L290 608 L290 688 Z M281 617 L222 617 L222 679 L281 679 L281 617 Z " />
<glyph glyph-name="Oslash" unicode="&#xd8;" horiz-adv-x="371" d="M110 -71 C129 -80 154 -85 185 -85 C319 -85 329 18 329 51 L329 453 C329 482 323 511 308 532 L334 612 L280 612 L267 571 C244 584 216 590 185 590 C124 590 81 569 58 527 C46 506 40 481 40 453 L40 51 C40 31 43 -6 68 -37 L45 -108 L98 -108 L110 -71 Z M77 -36 L76 -34 C51 -5 48 32 48 51 L48 453 C48 480 54 503 65 522 C88 562 128 582 185 582 C218 582 244 574 267 561 L271 558 L286 603 L322 603 L298 531 L300 530 C313 509 321 482 321 453 L321 51 C321 22 311 -77 185 -77 C154 -77 129 -72 110 -61 L105 -59 L92 -99 L56 -99 L77 -36 Z M184 -15 C205 -15 221 -9 233 3 C252 22 251 51 252 51 L252 389 L129 13 L130 11 C141 -6 159 -15 184 -15 L184 -15 Z M243 336 L243 51 C243 46 242 41 241 36 C238 28 235 17 227 9 C217 -2 203 -7 184 -7 C163 -7 148 0 138 14 L243 336 Z M246 479 L246 481 L245 482 C238 499 223 519 184 519 C118 520 117 453 117 453 L117 87 L246 479 Z M184 511 C211 511 228 501 237 480 L126 140 L126 453 C126 455 126 511 184 511 L184 511 Z " />
<glyph glyph-name="Ugrave" unicode="&#xd9;" horiz-adv-x="376" d="M191 -85 C324 -85 336 20 336 52 L336 588 L250 588 L250 52 C250 51 250 26 233 9 C222 -2 208 -7 191 -7 C132 -7 132 49 132 52 L133 588 L46 588 L46 51 C46 24 52 -1 64 -22 C87 -64 129 -85 191 -85 L191 -85 Z M124 579 L124 52 C124 52 125 -15 191 -15 C212 -15 228 -9 240 3 C257 23 258 51 258 52 L259 579 L327 579 L327 52 C327 23 318 -76 191 -76 C133 -76 93 -57 71 -18 C60 3 54 26 54 52 L54 579 L124 579 Z M180 699 L90 699 L177 597 L242 597 L180 699 Z M108 691 L175 691 L227 605 L181 605 L108 691 Z " />
<glyph glyph-name="Uacute" unicode="&#xda;" horiz-adv-x="386" d="M198 -85 C332 -85 342 20 342 52 L342 588 L257 588 L256 52 C256 51 256 26 240 9 C229 -2 215 -7 197 -7 C140 -7 139 49 139 52 L139 584 L139 588 L53 588 L53 51 C53 24 59 -1 71 -22 C94 -64 136 -85 198 -85 L198 -85 Z M131 579 L130 52 C130 52 131 -15 197 -15 C218 -15 234 -9 246 3 C265 23 265 51 265 52 L265 579 L334 579 L334 52 C334 23 324 -76 198 -76 C140 -76 100 -57 78 -18 C67 3 61 26 61 52 L61 579 L131 579 Z M314 699 L224 699 L161 597 L227 597 L314 699 Z M229 691 L296 691 L223 605 L176 605 L229 691 Z " />
<glyph glyph-name="Ucircumflex" unicode="&#xdb;" horiz-adv-x="386" d="M192 -85 C328 -85 337 20 337 52 L337 587 L252 587 L251 52 C251 47 250 42 249 37 C246 28 243 17 235 9 C225 -1 211 -6 192 -6 C133 -6 133 50 133 52 L134 583 L134 587 L47 587 L47 52 C47 25 54 -1 65 -22 C89 -64 131 -85 192 -85 L192 -85 Z M126 578 L125 52 C125 52 126 -15 192 -15 C213 -15 229 -9 241 3 C260 23 259 51 259 52 L260 578 L329 578 L329 52 C329 23 319 -76 192 -76 C135 -76 95 -57 73 -18 C62 3 56 26 56 52 L56 578 L126 578 Z M295 593 L234 703 L149 703 L86 594 L159 594 L160 596 C179 632 187 649 191 658 L223 593 L295 593 Z M187 669 C184 662 166 627 154 602 L101 602 L154 695 L229 695 L281 602 L228 602 L191 677 L187 669 Z " />
<glyph glyph-name="Udieresis" unicode="&#xdc;" horiz-adv-x="386" d="M194 -85 C330 -85 339 18 339 51 L339 586 L254 586 L253 51 C253 46 252 41 251 36 C248 27 245 17 237 9 C227 -2 213 -7 194 -7 C137 -7 135 49 135 51 L136 582 L136 586 L49 586 L49 51 C49 24 56 -2 67 -22 C91 -64 133 -85 194 -85 L194 -85 Z M128 578 L127 51 C128 38 131 27 136 18 C144 1 161 -15 194 -15 C215 -15 231 -9 243 3 C262 22 261 51 261 51 L262 578 L331 578 L331 51 C331 22 321 -77 194 -77 C137 -77 97 -57 75 -18 C64 1 58 24 58 51 L58 578 L128 578 Z M195 688 L118 688 L118 608 L195 608 L195 688 Z M127 679 L186 679 L186 616 L127 616 L127 679 Z M280 688 L204 688 L204 608 L280 608 L280 688 Z M212 679 L272 679 L272 616 L212 616 L212 679 Z " />
<glyph glyph-name="Yacute" unicode="&#xdd;" horiz-adv-x="436" d="M261 192 L413 588 L319 588 L217 310 L116 588 L22 588 L174 193 L174 -85 L260 -85 L261 192 Z M183 193 L34 580 L110 580 L217 286 L325 580 L401 580 L253 195 L252 -77 L183 -77 L183 193 Z M317 694 L227 694 L164 592 L230 592 L317 694 Z M232 685 L299 685 L226 600 L179 600 L232 685 Z " />
<glyph glyph-name="agrave" unicode="&#xe0;" horiz-adv-x="398" d="M239 589 L160 589 L25 -81 L113 -81 L132 21 L269 21 L291 -81 L379 -81 L239 589 Z M276 30 L125 30 L106 -72 L35 -72 L167 580 L232 580 L368 -72 L297 -72 L276 30 Z M199 412 L140 99 L264 99 L199 412 Z M199 369 L253 107 L150 107 L199 369 Z M171 707 L81 707 L168 605 L234 605 L171 707 Z M99 698 L166 698 L218 613 L172 613 L99 698 Z " />
<glyph glyph-name="aacute" unicode="&#xe1;" horiz-adv-x="398" d="M237 589 L158 589 L23 -81 L112 -81 L131 21 L268 21 L289 -81 L377 -81 L237 589 Z M275 30 L124 30 L104 -72 L33 -72 L165 580 L230 580 L367 -72 L296 -72 L275 30 Z M197 412 L138 99 L262 99 L197 412 Z M198 369 L252 107 L149 107 L198 369 Z M312 707 L222 707 L159 605 L225 605 L312 707 Z M227 698 L293 698 L221 613 L174 613 L227 698 Z " />
<glyph glyph-name="acircumflex" unicode="&#xe2;" horiz-adv-x="398" d="M238 589 L159 589 L24 -81 L112 -81 L131 21 L268 21 L289 -81 L378 -81 L238 589 Z M275 30 L124 30 L105 -72 L34 -72 L166 580 L231 580 L368 -72 L296 -72 L275 30 Z M198 412 L139 99 L263 99 L198 412 Z M198 369 L252 107 L149 107 L198 369 Z M303 601 L242 711 L157 711 L94 602 L167 602 L168 604 C187 639 194 657 199 666 L231 601 L303 601 Z M194 676 C191 671 174 635 161 610 L108 610 L162 702 L237 702 L289 609 L236 609 L199 685 L194 676 Z " />
<glyph glyph-name="atilde" unicode="&#xe3;" horiz-adv-x="398" d="M241 589 L162 589 L27 -81 L115 -81 L134 21 L271 21 L293 -81 L381 -81 L241 589 Z M278 30 L127 30 L108 -72 L37 -72 L169 580 L234 580 L370 -72 L299 -72 L278 30 Z M201 412 L142 99 L266 99 L201 412 Z M202 369 L255 107 L152 107 L202 369 Z M135 608 C134 608 154 630 172 630 C183 631 190 627 199 622 C210 617 222 611 241 611 C270 611 309 654 310 655 L312 658 L274 696 L272 693 C265 686 250 672 238 672 C227 671 218 675 207 680 C195 685 182 691 167 691 L166 691 C137 691 98 651 98 649 L95 647 L132 605 L135 608 Z M106 646 C114 654 145 682 167 682 C182 682 192 677 203 672 C214 668 225 663 238 663 C253 663 268 677 275 684 L301 658 C293 650 262 620 241 620 C224 619 214 625 203 630 C194 635 184 639 171 639 C154 638 139 624 132 617 L106 646 L106 646 Z " />
<glyph glyph-name="adieresis" unicode="&#xe4;" horiz-adv-x="398" d="M194 691 L118 691 L118 611 L194 611 L194 691 Z M126 682 L186 682 L186 619 L126 619 L126 682 Z M280 691 L203 691 L203 611 L280 611 L280 691 Z M211 682 L271 682 L271 619 L211 619 L211 682 Z M236 589 L157 589 L22 -81 L110 -81 L129 21 L266 21 L287 -81 L376 -81 L236 589 Z M273 30 L122 30 L103 -72 L32 -72 L164 580 L229 580 L365 -72 L294 -72 L273 30 Z M196 412 L137 99 L260 99 L196 412 Z M196 369 L250 107 L147 107 L196 369 Z " />
<glyph glyph-name="aring" unicode="&#xe5;" horiz-adv-x="398" d="M241 579 C264 592 276 615 276 642 C276 683 243 717 202 717 C159 717 127 683 127 642 C127 618 139 596 158 581 L25 -81 L113 -81 L132 21 L269 21 L290 -81 L379 -81 L241 579 Z M276 30 L125 30 L106 -72 L35 -72 L167 582 L168 585 L165 587 C146 599 135 619 135 642 C135 679 165 708 202 708 C238 708 268 679 268 642 C268 618 255 596 234 584 L231 583 L368 -72 L297 -72 L276 30 Z M199 412 L140 99 L263 99 L199 412 Z M199 369 L253 107 L150 108 L199 369 Z M202 590 C231 590 254 613 254 642 C254 671 231 694 202 694 C173 694 150 671 150 642 C150 613 173 590 202 590 L202 590 Z M202 686 C226 686 245 666 245 642 C245 618 226 598 202 598 C178 598 158 618 158 642 C158 666 178 686 202 686 L202 686 Z " />
<glyph glyph-name="ae" unicode="&#xe6;" horiz-adv-x="474" d="M126 21 L189 21 L189 -81 L451 -81 L451 5 L275 5 L275 155 L369 155 L369 241 L275 241 L275 502 L451 502 L451 588 L154 588 L18 -81 L107 -81 L126 21 Z M160 580 L443 580 L443 510 L266 510 L266 233 L360 233 L360 164 L266 164 L266 -3 L443 -3 L443 -72 L197 -72 L197 29 L119 29 L100 -73 L29 -73 L160 580 Z M197 390 L189 390 L134 98 L197 98 L197 390 Z M189 344 L189 107 L144 107 L189 344 Z " />
<glyph glyph-name="ccedilla" unicode="&#xe7;" horiz-adv-x="329" d="M152 -203 C205 -202 225 -175 233 -159 C241 -140 242 -119 231 -107 C222 -95 212 -88 204 -83 C204 -82 204 -82 203 -82 C306 -66 314 23 314 52 L314 56 L228 56 L228 52 C228 47 227 42 226 37 C223 28 220 17 212 9 C202 -1 188 -6 169 -6 C110 -6 110 50 110 52 L110 454 C110 456 110 512 169 512 C187 512 201 507 212 496 C220 487 223 477 226 469 C227 464 228 459 228 454 L228 449 L314 449 L314 454 C314 485 305 590 169 590 C108 590 66 569 42 527 C31 506 24 481 24 454 L24 52 C24 23 33 -73 149 -84 C150 -87 151 -90 154 -94 C161 -103 171 -109 179 -114 C191 -121 199 -126 199 -134 C199 -152 183 -162 152 -165 L149 -166 L148 -203 L152 -203 Z M157 -173 C182 -170 207 -163 207 -134 C207 -121 196 -114 184 -107 C175 -102 167 -96 160 -89 C159 -86 157 -83 156 -79 L155 -76 L152 -75 C41 -67 33 24 33 52 L33 454 C33 481 39 504 50 523 C72 562 112 582 169 582 C290 582 305 493 305 458 L236 458 C236 467 233 487 218 502 C206 514 190 520 169 520 C136 520 119 503 111 487 C106 477 103 466 102 454 L102 52 C102 52 103 -15 169 -14 C190 -14 207 -8 218 4 C233 19 236 39 236 48 L305 48 C305 17 292 -64 192 -75 L182 -76 L190 -82 C193 -85 196 -87 199 -90 C207 -95 216 -101 225 -112 C232 -120 233 -138 225 -155 C218 -170 201 -191 156 -194 L157 -173 L157 -173 Z " />
<glyph glyph-name="egrave" unicode="&#xe8;" horiz-adv-x="327" d="M296 5 L120 5 L120 155 L214 155 L214 241 L120 241 L120 502 L296 502 L296 588 L34 588 L34 -81 L296 -81 L296 5 Z M42 579 L288 579 L288 510 L111 510 L111 233 L205 233 L205 163 L111 163 L111 -4 L288 -4 L288 -73 L42 -73 L42 579 Z M134 712 L44 712 L132 610 L197 610 L134 712 Z M63 704 L130 704 L182 618 L135 618 L63 704 Z " />
<glyph glyph-name="eacute" unicode="&#xe9;" horiz-adv-x="359" d="M304 5 L127 5 L127 155 L221 155 L221 241 L127 241 L127 502 L304 502 L304 588 L41 588 L41 -81 L304 -81 L304 5 Z M50 579 L295 579 L295 510 L119 510 L119 233 L213 233 L213 163 L119 163 L119 -3 L295 -3 L295 -73 L50 -73 L50 579 Z M285 712 L195 712 L132 610 L198 610 L285 712 Z M200 704 L266 704 L194 618 L147 618 L200 704 Z " />
<glyph glyph-name="ecircumflex" unicode="&#xea;" horiz-adv-x="359" d="M303 5 L127 5 L127 155 L221 155 L221 241 L127 241 L127 502 L303 502 L303 588 L41 588 L41 -81 L303 -81 L303 5 Z M49 579 L295 579 L295 510 L118 510 L118 233 L212 233 L212 163 L118 163 L118 -3 L295 -3 L295 -73 L49 -73 L49 579 Z M275 606 L213 716 L129 716 L66 607 L138 607 L139 609 C158 645 166 662 171 671 L202 606 L275 606 Z M166 682 C163 675 146 640 133 615 L80 615 L134 707 L209 707 L260 615 L208 615 L171 690 L166 682 Z " />
<glyph glyph-name="edieresis" unicode="&#xeb;" horiz-adv-x="359" d="M317 5 L141 5 L141 155 L235 155 L235 241 L141 241 L141 502 L317 502 L317 588 L55 588 L55 -81 L317 -81 L317 5 Z M63 580 L309 580 L309 511 L133 511 L133 233 L227 233 L227 164 L133 164 L133 -3 L309 -3 L309 -72 L63 -72 L63 580 Z M179 701 L102 701 L102 621 L179 621 L179 701 Z M111 693 L170 693 L170 630 L111 630 L111 693 Z M264 701 L188 701 L188 621 L264 621 L264 701 Z M196 693 L256 693 L256 630 L196 630 L196 693 Z " />
<glyph glyph-name="igrave" unicode="&#xec;" horiz-adv-x="188" d="M140 588 L54 588 L54 -81 L140 -81 L140 588 Z M62 580 L131 580 L131 -73 L62 -73 L62 580 Z M75 719 L-15 719 L72 617 L137 617 L75 719 Z M3 710 L70 710 L122 625 L76 625 L3 710 Z " />
<glyph glyph-name="iacute" unicode="&#xed;" horiz-adv-x="176" d="M131 587 L46 587 L46 -81 L131 -81 L131 587 Z M54 579 L123 579 L123 -73 L54 -73 L54 579 Z M201 719 L111 719 L48 617 L113 617 L201 719 Z M115 710 L182 710 L110 625 L63 625 L115 710 Z " />
<glyph glyph-name="icircumflex" unicode="&#xee;" horiz-adv-x="214" d="M151 588 L65 588 L65 -81 L151 -81 L151 588 Z M74 579 L143 579 L143 -73 L74 -73 L74 579 Z M213 613 L151 723 L67 723 L4 614 L76 614 L77 616 C96 652 104 669 108 678 L140 613 L213 613 Z M104 689 C101 682 84 647 71 622 L18 622 L71 714 L146 714 L198 622 L146 622 L108 697 L104 689 Z " />
<glyph glyph-name="idieresis" unicode="&#xef;" horiz-adv-x="212" d="M147 588 L61 588 L61 -81 L147 -81 L147 588 Z M69 580 L138 580 L138 -72 L69 -72 L69 580 Z M99 708 L23 708 L23 629 L99 629 L99 708 Z M31 700 L91 700 L91 637 L31 637 L31 700 Z M185 708 L108 708 L108 629 L185 629 L185 708 Z M117 700 L176 700 L176 637 L117 637 L117 700 Z " />
<glyph glyph-name="ntilde" unicode="&#xf1;" horiz-adv-x="389" d="M353 588 L267 588 L267 175 L125 588 L40 588 L40 -81 L127 -81 L127 332 L268 -81 L353 -81 L353 588 Z M118 382 L118 -73 L49 -73 L49 579 L119 579 L275 124 L275 579 L345 579 L345 -73 L274 -73 L118 382 Z M128 608 C131 613 135 616 139 619 C146 624 154 629 165 630 C176 630 183 626 192 622 C203 615 215 610 234 611 C264 611 301 654 303 654 L306 658 L268 696 L265 692 C258 687 243 671 231 671 C220 671 211 675 200 679 C188 686 175 690 160 690 L159 690 C130 690 91 649 91 649 L88 646 L125 604 L128 608 Z M100 645 C109 654 136 682 159 682 L160 682 C175 682 185 676 196 672 C207 667 218 662 231 662 C246 663 261 677 268 684 L294 657 C286 649 255 619 234 619 C217 618 207 624 196 629 C187 634 177 639 165 638 C146 638 132 624 125 617 L100 645 L100 645 Z " />
<glyph glyph-name="ograve" unicode="&#xf2;" horiz-adv-x="393" d="M198 -85 C331 -85 343 20 343 52 L343 453 C343 485 331 590 198 590 C136 590 94 569 71 527 C59 506 53 481 53 453 L53 51 C53 24 59 -1 71 -22 C94 -64 136 -85 198 -85 L198 -85 Z M198 582 C324 582 334 482 334 453 L334 52 C334 23 324 -77 198 -77 C140 -77 100 -57 78 -18 C67 3 61 26 61 52 L61 454 C61 479 67 502 78 523 C100 562 140 582 198 582 L198 582 Z M198 -15 C218 -15 234 -9 246 3 C265 23 265 51 265 52 L265 453 C265 454 265 482 246 502 C234 514 218 520 198 520 C131 520 129 453 130 453 L130 52 C129 52 131 -15 198 -15 L198 -15 Z M198 511 C216 511 230 506 240 496 C257 479 256 454 256 453 L256 52 C256 51 257 26 240 9 C230 -1 216 -6 198 -6 C139 -6 139 48 139 52 L139 453 C139 457 139 511 198 511 L198 511 Z M196 705 L107 705 L194 603 L259 603 L196 705 Z M125 697 L192 697 L244 611 L198 611 L125 697 Z " />
<glyph glyph-name="oacute" unicode="&#xf3;" horiz-adv-x="385" d="M191 -85 C325 -85 335 20 335 51 L335 453 C335 485 325 590 191 590 C130 590 87 569 64 527 C52 506 46 481 46 453 L46 51 C46 24 52 -2 64 -22 C87 -64 129 -85 191 -85 L191 -85 Z M191 581 C317 581 327 482 327 453 L327 51 C327 22 317 -77 191 -77 C133 -77 93 -57 71 -18 C60 3 54 26 54 51 L54 454 C54 479 60 502 71 523 C93 562 133 581 191 581 L191 581 Z M190 -15 C211 -15 227 -9 239 3 C248 12 253 23 256 34 C257 40 258 46 258 51 L258 453 C257 453 258 482 239 501 C226 514 210 520 190 520 C124 520 123 453 123 453 L123 51 C124 38 127 27 132 18 C140 1 157 -15 190 -15 L190 -15 Z M190 511 C209 511 223 506 233 496 C249 479 249 454 249 453 L249 51 C249 46 248 41 247 36 C244 28 241 17 233 9 C222 -2 208 -7 190 -7 C131 -7 131 49 131 51 L131 453 C131 455 131 511 190 511 L190 511 Z M306 705 L216 705 L153 603 L218 603 L306 705 Z M220 697 L287 697 L215 611 L168 611 L220 697 Z " />
<glyph glyph-name="ocircumflex" unicode="&#xf4;" horiz-adv-x="399" d="M203 -85 C337 -85 347 20 347 52 L347 453 C347 485 337 590 203 590 C141 590 99 569 76 527 C64 506 58 481 58 453 L58 51 C58 24 64 -1 76 -22 C99 -64 141 -85 203 -85 L203 -85 Z M203 582 C329 582 339 482 339 453 L339 52 C339 23 329 -77 203 -77 C145 -77 105 -57 83 -18 C72 3 66 26 66 52 L66 454 C66 479 72 502 83 523 C105 562 145 582 203 582 L203 582 Z M203 -15 C223 -15 239 -9 251 3 C270 23 270 51 270 52 L270 453 C270 454 270 482 251 502 C239 514 223 520 203 520 C136 520 134 453 135 453 L135 52 C134 52 136 -15 203 -15 L203 -15 Z M203 511 C221 511 235 506 245 496 C262 479 261 454 261 453 L261 52 C261 51 262 26 245 9 C235 -1 221 -6 203 -6 C144 -6 144 48 144 52 L144 453 C144 457 144 511 203 511 L203 511 Z M307 599 L246 709 L161 709 L98 600 L170 600 L172 602 C189 638 198 655 203 664 L234 599 L307 599 Z M198 675 C195 668 178 635 165 608 L112 608 L166 701 L241 701 L293 608 L240 608 L203 683 L198 675 Z " />
<glyph glyph-name="otilde" unicode="&#xf5;" horiz-adv-x="384" d="M191 -85 C325 -85 335 20 335 52 L335 454 C335 485 325 590 191 590 C129 590 87 569 64 527 C52 506 46 481 46 454 L46 52 C46 23 52 -1 64 -22 C87 -64 129 -85 191 -85 L191 -85 Z M191 582 C317 582 327 483 327 454 L327 52 C327 23 317 -76 191 -76 C134 -76 94 -57 71 -18 C60 3 54 26 54 52 L54 454 C54 481 60 504 71 523 C93 562 133 582 191 582 L191 582 Z M191 -15 C212 -15 228 -9 239 4 C258 23 257 52 258 52 L258 454 C257 454 258 483 239 502 C228 514 212 520 191 520 C156 520 141 503 132 487 C127 477 124 466 123 454 L123 52 C122 52 124 -15 191 -15 L191 -15 Z M191 512 C208 512 222 507 233 496 C240 487 245 478 248 469 C249 464 250 459 250 454 L250 52 C250 47 249 42 248 37 C245 28 241 17 233 9 C223 -1 209 -6 191 -6 C132 -6 132 50 132 52 L132 454 C132 456 132 512 191 512 L191 512 Z M121 607 C122 607 140 628 159 629 C170 630 177 626 186 621 C197 614 209 610 228 610 C257 610 296 653 297 654 L299 657 L261 695 L258 691 C253 686 237 670 225 670 C214 670 205 674 194 679 C181 684 169 689 154 689 L153 689 C124 689 85 648 85 648 L82 645 L118 603 L121 607 Z M94 645 C102 653 131 681 153 681 L154 681 C167 681 179 676 190 671 C201 666 212 661 225 662 C240 662 254 676 261 683 L288 657 C280 646 248 619 228 619 C211 618 201 623 190 628 C181 633 171 638 158 637 C141 637 125 623 118 616 L94 645 L94 645 Z " />
<glyph glyph-name="odieresis" unicode="&#xf6;" horiz-adv-x="399" d="M252 501 C240 513 224 519 203 519 C137 520 136 453 136 453 L136 51 C137 38 140 27 145 18 C153 1 170 -15 203 -15 C224 -15 240 -9 252 3 C271 22 270 51 270 51 L270 453 C270 453 271 482 252 501 L252 501 Z M246 9 C236 -2 222 -7 203 -7 C144 -7 144 49 144 51 L144 453 C144 455 144 511 203 511 C222 511 236 506 246 496 C253 488 257 479 260 468 C261 463 262 458 262 453 L262 51 C262 46 261 41 260 36 C257 28 254 17 246 9 L246 9 Z M203 589 C142 589 100 568 76 527 C65 506 58 480 58 453 L58 51 C58 24 65 -2 76 -23 C100 -64 142 -85 203 -85 C339 -85 348 18 348 51 L348 453 C348 484 339 589 203 589 L203 589 Z M339 51 C339 22 330 -77 203 -77 C145 -77 105 -57 84 -18 C73 1 67 24 67 51 L67 453 C67 480 73 503 84 522 C105 561 145 581 203 581 C330 581 339 482 339 453 L339 51 Z M201 688 L125 688 L125 608 L201 608 L201 688 Z M193 617 L133 617 L133 679 L193 679 L193 617 Z M287 688 L210 688 L210 608 L287 608 L287 688 Z M278 617 L219 617 L219 679 L278 679 L278 617 Z " />
<glyph glyph-name="oslash" unicode="&#xf8;" horiz-adv-x="371" d="M111 -71 C130 -80 155 -85 186 -85 C320 -85 330 18 330 51 L330 453 C330 482 324 511 309 532 L335 612 L281 612 L268 571 C245 584 217 590 186 590 C125 590 82 569 59 527 C47 506 41 481 41 453 L41 51 C41 31 44 -6 69 -37 L46 -108 L99 -108 L111 -71 Z M78 -36 L77 -34 C52 -5 49 32 49 51 L49 453 C49 480 55 503 66 522 C89 562 129 582 186 582 C219 582 245 574 268 561 L272 558 L287 603 L323 603 L299 531 L301 530 C314 509 322 482 322 453 L322 51 C322 22 312 -77 186 -77 C155 -77 130 -72 111 -61 L106 -59 L93 -99 L57 -99 L78 -36 Z M185 -15 C206 -15 222 -9 234 3 C253 22 252 51 253 51 L253 389 L130 13 L131 11 C142 -6 160 -15 185 -15 L185 -15 Z M244 336 L244 51 C244 46 243 41 242 36 C239 28 236 17 228 9 C218 -2 204 -7 185 -7 C164 -7 149 0 139 14 L244 336 Z M247 479 L247 481 L246 482 C239 499 224 519 185 519 C119 520 118 453 118 453 L118 87 L247 479 Z M185 511 C212 511 229 501 238 480 L127 140 L127 453 C127 455 127 511 185 511 L185 511 Z " />
<glyph glyph-name="ugrave" unicode="&#xf9;" horiz-adv-x="376" d="M191 -85 C324 -85 336 20 336 52 L336 588 L250 588 L250 52 C250 51 250 26 233 9 C222 -2 208 -7 191 -7 C132 -7 132 49 132 52 L133 588 L46 588 L46 51 C46 24 52 -1 64 -22 C87 -64 129 -85 191 -85 L191 -85 Z M124 579 L124 52 C124 52 125 -15 191 -15 C212 -15 228 -9 240 3 C257 23 258 51 258 52 L259 579 L327 579 L327 52 C327 23 318 -76 191 -76 C133 -76 93 -57 71 -18 C60 3 54 26 54 52 L54 579 L124 579 Z M180 699 L90 699 L177 597 L242 597 L180 699 Z M108 691 L175 691 L227 605 L181 605 L108 691 Z " />
<glyph glyph-name="uacute" unicode="&#xfa;" horiz-adv-x="386" d="M192 -85 C326 -85 336 20 336 52 L336 588 L251 588 L250 52 C250 51 250 26 234 9 C223 -2 209 -7 191 -7 C134 -7 133 49 133 52 L133 584 L133 588 L47 588 L47 51 C47 24 53 -1 65 -22 C88 -64 130 -85 192 -85 L192 -85 Z M125 579 L124 52 C124 52 125 -15 191 -15 C212 -15 228 -9 240 3 C259 23 259 51 259 52 L259 579 L328 579 L328 52 C328 23 318 -76 192 -76 C134 -76 94 -57 72 -18 C61 3 55 26 55 52 L55 579 L125 579 Z M308 699 L218 699 L155 597 L221 597 L308 699 Z M223 691 L290 691 L217 605 L170 605 L223 691 Z " />
<glyph glyph-name="ucircumflex" unicode="&#xfb;" horiz-adv-x="386" d="M192 -85 C328 -85 337 20 337 52 L337 587 L252 587 L251 52 C251 47 250 42 249 37 C246 28 243 17 235 9 C225 -1 211 -6 192 -6 C133 -6 133 50 133 52 L134 583 L134 587 L47 587 L47 52 C47 25 54 -1 65 -22 C89 -64 131 -85 192 -85 L192 -85 Z M126 578 L125 52 C125 52 126 -15 192 -15 C213 -15 229 -9 241 3 C260 23 259 51 259 52 L260 578 L329 578 L329 52 C329 23 319 -76 192 -76 C135 -76 95 -57 73 -18 C62 3 56 26 56 52 L56 578 L126 578 Z M295 593 L234 703 L149 703 L86 594 L159 594 L160 596 C179 632 187 649 191 658 L223 593 L295 593 Z M187 669 C184 662 166 627 154 602 L101 602 L154 695 L229 695 L281 602 L228 602 L191 677 L187 669 Z " />
<glyph glyph-name="udieresis" unicode="&#xfc;" horiz-adv-x="386" d="M190 -85 C326 -85 335 18 335 51 L335 586 L250 586 L249 51 C249 46 248 41 247 36 C244 27 241 17 233 9 C223 -2 209 -7 190 -7 C133 -7 131 49 131 51 L132 582 L132 586 L45 586 L45 51 C45 24 52 -2 63 -22 C87 -64 129 -85 190 -85 L190 -85 Z M124 578 L123 51 C124 38 127 27 132 18 C140 1 157 -15 190 -15 C211 -15 227 -9 239 3 C258 22 257 51 257 51 L258 578 L327 578 L327 51 C327 22 317 -77 190 -77 C133 -77 93 -57 71 -18 C60 1 54 24 54 51 L54 578 L124 578 Z M191 688 L114 688 L114 608 L191 608 L191 688 Z M123 679 L182 679 L182 616 L123 616 L123 679 Z M276 688 L200 688 L200 608 L276 608 L276 688 Z M208 679 L268 679 L268 616 L208 616 L208 679 Z " />
<glyph glyph-name="yacute" unicode="&#xfd;" horiz-adv-x="436" d="M261 192 L413 588 L319 588 L217 310 L116 588 L22 588 L174 193 L174 -85 L260 -85 L261 192 Z M183 193 L34 580 L110 580 L217 286 L325 580 L401 580 L253 195 L252 -77 L183 -77 L183 193 Z M317 694 L227 694 L164 592 L230 592 L317 694 Z M232 685 L299 685 L226 600 L179 600 L232 685 Z " />
<glyph glyph-name="ydieresis" unicode="&#xff;" horiz-adv-x="436" d="M215 688 L139 688 L139 609 L215 609 L215 688 Z M147 680 L207 680 L207 617 L147 617 L147 680 Z M301 688 L224 688 L224 609 L301 609 L301 688 Z M233 680 L292 680 L292 617 L233 617 L233 680 Z M263 197 L415 589 L321 589 L220 315 L118 589 L24 589 L177 197 L177 -81 L263 -81 L263 197 Z M185 198 L37 580 L113 580 L220 290 L327 580 L403 580 L255 199 L254 -73 L185 -73 L185 198 Z " />
<glyph glyph-name="Lslash" unicode="&#x141;" horiz-adv-x="340" d="M329 5 L196 5 L196 236 L335 343 L268 357 L196 301 L196 588 L110 588 L110 234 L13 159 L79 145 L110 169 L110 -81 L329 -81 L329 5 Z M119 186 L77 154 L32 163 L119 230 L119 579 L188 579 L188 284 L270 348 L315 339 L188 240 L188 -3 L320 -3 L320 -72 L119 -72 L119 186 Z " />
<glyph glyph-name="lslash" unicode="&#x142;" horiz-adv-x="340" d="M329 5 L196 5 L196 236 L335 343 L268 357 L196 301 L196 588 L110 588 L110 234 L13 159 L79 145 L110 169 L110 -81 L329 -81 L329 5 Z M119 186 L77 154 L32 163 L119 230 L119 579 L188 579 L188 284 L270 348 L315 339 L188 240 L188 -3 L320 -3 L320 -72 L119 -72 L119 186 Z " />
<glyph glyph-name="OE" unicode="&#x152;" horiz-adv-x="488" d="M181 -83 C193 -83 205 -82 216 -81 L460 -81 L460 6 L283 6 L283 155 L377 155 L377 242 L283 242 L283 501 L460 501 L460 588 L217 588 C206 589 194 591 181 591 C134 591 98 579 73 554 C38 519 36 474 36 455 L36 53 C36 35 38 -13 73 -45 C98 -70 134 -83 181 -83 L181 -83 Z M181 583 C193 583 205 582 217 579 L451 579 L451 510 L275 510 L275 233 L369 233 L369 164 L275 164 L275 -3 L451 -3 L451 -72 L215 -72 C204 -74 192 -75 181 -75 C136 -75 102 -63 79 -40 C47 -8 44 36 44 53 L44 455 C44 474 47 516 79 548 C102 571 136 583 181 583 L181 583 Z M180 -13 C188 -13 196 -12 203 -10 L206 -10 L206 517 L203 518 C196 519 188 520 180 520 C147 520 130 503 122 487 C117 478 114 467 113 455 L113 53 C114 40 117 29 122 20 C130 3 147 -13 180 -13 L180 -13 Z M180 512 C187 512 192 511 197 510 L197 -3 C192 -4 187 -5 180 -5 C122 -5 122 51 122 53 L122 455 C122 458 122 512 180 512 L180 512 Z " />
<glyph glyph-name="oe" unicode="&#x153;" horiz-adv-x="488" d="M181 -83 C193 -83 205 -82 216 -81 L460 -81 L460 6 L283 6 L283 155 L377 155 L377 242 L283 242 L283 501 L460 501 L460 588 L217 588 C206 589 194 591 181 591 C134 591 98 579 73 554 C38 519 36 474 36 455 L36 53 C36 35 38 -13 73 -45 C98 -70 134 -83 181 -83 L181 -83 Z M181 583 C193 583 205 582 217 579 L451 579 L451 510 L275 510 L275 233 L369 233 L369 164 L275 164 L275 -3 L451 -3 L451 -72 L215 -72 C204 -74 192 -75 181 -75 C136 -75 102 -63 79 -40 C47 -8 44 36 44 53 L44 455 C44 474 47 516 79 548 C102 571 136 583 181 583 L181 583 Z M180 -13 C188 -13 196 -12 203 -10 L206 -10 L206 517 L203 518 C196 519 188 520 180 520 C147 520 130 503 122 487 C117 478 114 467 113 455 L113 53 C114 40 117 29 122 20 C130 3 147 -13 180 -13 L180 -13 Z M180 512 C187 512 192 511 197 510 L197 -3 C192 -4 187 -5 180 -5 C122 -5 122 51 122 53 L122 455 C122 458 122 512 180 512 L180 512 Z " />
<glyph glyph-name="Scaron" unicode="&#x160;" horiz-adv-x="331" d="M164 -85 C297 -85 309 20 309 52 L309 168 C309 207 292 234 275 251 C265 261 254 269 242 275 C241 275 221 290 165 293 C137 296 122 302 114 309 C109 313 106 317 105 322 L105 453 C105 455 105 511 164 511 C182 511 196 506 206 496 C223 479 223 454 223 453 L223 343 L309 343 L309 453 C309 485 297 590 164 590 C103 590 61 569 37 527 C25 506 19 481 19 453 L19 318 C19 259 75 231 78 231 C79 230 122 212 164 209 C189 207 207 201 216 190 C223 182 223 173 223 172 L223 52 C223 51 223 26 206 9 C196 -1 182 -6 164 -6 C105 -6 105 48 105 52 L105 154 L19 154 L19 51 C19 24 25 -1 37 -22 C61 -64 103 -85 164 -85 L164 -85 Z M97 146 L97 52 C97 52 98 -15 164 -15 C185 -15 201 -9 212 3 C232 23 231 51 231 52 L231 172 C231 173 233 184 222 195 C211 209 191 216 164 217 C125 220 81 238 81 239 C70 244 61 251 54 258 C39 271 27 291 27 318 L27 454 C27 479 33 502 44 523 C66 562 106 581 164 581 C290 581 300 482 300 453 L300 352 L231 352 L231 453 C231 454 232 482 212 502 C201 514 185 520 164 520 C98 520 97 453 97 453 L97 321 C97 320 101 289 164 285 C216 281 237 268 237 267 C237 268 301 240 300 168 L300 52 C300 23 290 -77 164 -77 C106 -77 66 -57 44 -18 C33 3 27 26 27 52 L27 146 L97 146 Z M268 704 L196 704 L164 639 C159 648 152 666 133 701 L132 703 L59 703 L122 595 L207 595 L268 704 Z M74 695 L126 695 C139 670 156 634 159 629 L164 620 L201 696 L254 696 L202 603 L127 603 L74 695 Z " />
<glyph glyph-name="scaron" unicode="&#x161;" horiz-adv-x="331" d="M164 -85 C297 -85 309 20 309 52 L309 168 C309 207 292 234 275 251 C265 261 254 269 242 275 C241 275 221 290 165 293 C137 296 122 302 114 309 C109 313 106 317 105 322 L105 453 C105 455 105 511 164 511 C182 511 196 506 206 496 C223 479 223 454 223 453 L223 343 L309 343 L309 453 C309 485 297 590 164 590 C103 590 61 569 37 527 C25 506 19 481 19 453 L19 318 C19 259 75 231 78 231 C79 230 122 212 164 209 C189 207 207 201 216 190 C223 182 223 173 223 172 L223 52 C223 51 223 26 206 9 C196 -1 182 -6 164 -6 C105 -6 105 48 105 52 L105 154 L19 154 L19 51 C19 24 25 -1 37 -22 C61 -64 103 -85 164 -85 L164 -85 Z M97 146 L97 52 C97 52 98 -15 164 -15 C185 -15 201 -9 212 3 C232 23 231 51 231 52 L231 172 C231 173 233 184 222 195 C211 209 191 216 164 217 C125 220 81 238 81 239 C70 244 61 251 54 258 C39 271 27 291 27 318 L27 454 C27 479 33 502 44 523 C66 562 106 581 164 581 C290 581 300 482 300 453 L300 352 L231 352 L231 453 C231 454 232 482 212 502 C201 514 185 520 164 520 C98 520 97 453 97 453 L97 321 C97 320 101 289 164 285 C216 281 237 268 237 267 C237 268 301 240 300 168 L300 52 C300 23 290 -77 164 -77 C106 -77 66 -57 44 -18 C33 3 27 26 27 52 L27 146 L97 146 Z M268 704 L196 704 L164 639 C159 648 152 666 133 701 L132 703 L59 703 L122 595 L207 595 L268 704 Z M74 695 L126 695 C139 670 156 634 159 629 L164 620 L201 696 L254 696 L202 603 L127 603 L74 695 Z " />
<glyph glyph-name="Ydieresis" unicode="&#x178;" horiz-adv-x="436" d="M216 688 L140 688 L140 609 L216 609 L216 688 Z M148 680 L208 680 L208 617 L148 617 L148 680 Z M302 688 L225 688 L225 609 L302 609 L302 688 Z M234 680 L293 680 L293 617 L234 617 L234 680 Z M264 197 L416 589 L322 589 L221 315 L119 589 L25 589 L178 197 L178 -81 L264 -81 L264 197 Z M186 198 L38 580 L114 580 L221 290 L328 580 L404 580 L256 199 L255 -73 L186 -73 L186 198 Z " />
<glyph glyph-name="Zcaron" unicode="&#x17d;" horiz-adv-x="441" d="M397 5 L152 5 L397 505 L397 588 L45 588 L45 502 L291 502 L45 3 L45 -81 L397 -81 L397 5 Z M54 0 L304 511 L54 511 L54 579 L389 579 L389 508 L138 -3 L389 -3 L389 -73 L54 -73 L54 0 Z M326 703 L253 703 L221 638 C217 647 209 664 190 700 L189 702 L117 702 L180 593 L264 593 L326 703 Z M131 694 L184 694 C197 669 214 634 217 627 L221 619 L259 694 L311 694 L259 602 L185 602 L131 694 Z " />
<glyph glyph-name="zcaron" unicode="&#x17e;" horiz-adv-x="441" d="M397 5 L152 5 L397 505 L397 588 L45 588 L45 502 L291 502 L45 3 L45 -81 L397 -81 L397 5 Z M54 0 L304 511 L54 511 L54 579 L389 579 L389 508 L138 -3 L389 -3 L389 -73 L54 -73 L54 0 Z M326 703 L253 703 L221 638 C217 647 209 664 190 700 L189 702 L117 702 L180 593 L264 593 L326 703 Z M131 694 L184 694 C197 669 214 634 217 627 L221 619 L259 694 L311 694 L259 602 L185 602 L131 694 Z " />
<glyph glyph-name="quoteleft" unicode="&#x2018;" horiz-adv-x="175" d="M77 444 L162 588 L73 588 L12 444 L77 444 L77 444 Z M25 452 L79 580 L147 580 L72 452 L25 452 L25 452 Z " />
<glyph glyph-name="quoteright" unicode="&#x2019;" horiz-adv-x="174" d="M77 444 L162 588 L73 588 L12 444 L77 444 L77 444 Z M25 452 L79 580 L147 580 L72 452 L25 452 L25 452 Z " />
<glyph glyph-name="quotedblleft" unicode="&#x201c;" horiz-adv-x="274" d="M94 444 L179 588 L90 588 L29 444 L94 444 L94 444 Z M42 452 L96 580 L164 580 L89 452 L42 452 L42 452 Z M177 444 L262 588 L173 588 L112 444 L177 444 L177 444 Z M125 452 L179 580 L247 580 L172 452 L125 452 L125 452 Z " />
<glyph glyph-name="quotedblright" unicode="&#x201d;" horiz-adv-x="273" d="M94 444 L179 588 L90 588 L29 444 L94 444 L94 444 Z M42 452 L96 580 L164 580 L89 452 L42 452 L42 452 Z M177 444 L262 588 L173 588 L112 444 L177 444 L177 444 Z M125 452 L179 580 L247 580 L172 452 L125 452 L125 452 Z " />
<glyph glyph-name="Euro" unicode="&#x20ac;" horiz-adv-x="346" d="M182 -85 C316 -85 326 12 326 41 L326 45 L240 45 L240 41 C240 37 240 33 239 30 C238 23 234 16 228 10 C218 -1 203 -6 182 -6 C123 -6 123 50 123 52 L123 154 L288 154 L288 230 L123 230 L123 278 L288 278 L288 354 L123 354 L123 454 C123 456 123 512 182 512 C202 512 217 507 228 496 C235 489 238 482 239 476 C240 473 240 469 240 465 L240 461 L326 461 L326 465 C326 494 316 590 182 590 C121 590 78 569 55 528 C43 507 37 481 37 454 L37 354 L16 354 L16 278 L37 278 L37 230 L16 230 L16 154 L37 154 L37 52 C37 23 43 -1 55 -22 C78 -64 121 -85 182 -85 L182 -85 Z M24 222 L45 222 L45 286 L24 286 L24 346 L46 346 L45 454 C45 481 51 504 62 523 C84 562 124 582 182 582 C300 582 318 506 318 469 L249 469 C248 476 245 490 234 502 C222 514 205 520 182 520 C147 520 132 503 123 487 C118 477 115 466 114 454 L114 346 L279 346 L279 286 L114 286 L114 222 L279 222 L279 162 L114 162 L114 52 C113 52 115 -15 182 -15 C204 -15 221 -9 234 4 C245 16 248 30 249 37 L318 37 C318 0 300 -76 182 -76 C125 -76 85 -57 62 -18 C51 3 45 26 45 52 L45 162 L24 162 L24 222 Z " />
</font>
</svg>
