<?xml version="1.0" encoding="UTF-8"?>
<svg xmlns="http://www.w3.org/2000/svg" xmlns:xlink="http://www.w3.org/1999/xlink" version="1.2" >
<font id="Monerd Outline Bold">
<font-face  font-family="Monerd" units-per-em="1000" ascent="750" descent="-250" font-style="normal" font-weight="100" font-stretch="normal" cap-height="688" x-height="760" underline-position="-75" underline-thickness="50" />
<missing-glyph  horiz-adv-x="119" d="" />
<glyph glyph-name="NULL" d="" />
<glyph glyph-name="nonmarkingreturn" unicode="&#xd;" horiz-adv-x="119" d="" />
<glyph glyph-name="space" unicode="&#x20;" horiz-adv-x="119" d="" />
<glyph glyph-name="exclam" unicode="&#x21;" horiz-adv-x="176" d="M135 -84 L135 2 L42 2 L42 -84 L135 -84 L135 -84 Z M57 -69 L57 -13 L120 -13 L120 -69 L57 -69 L57 -69 Z M135 30 L135 591 L42 591 L42 30 L135 30 L135 30 Z M57 45 L57 576 L120 576 L120 45 L57 45 L57 45 Z " />
<glyph glyph-name="quotedbl" unicode="&#x22;" horiz-adv-x="280" d="M83 442 L171 593 L75 593 L11 442 L83 442 L83 442 Z M34 457 L85 578 L145 578 L74 457 L34 457 L34 457 Z M181 442 L270 593 L173 593 L109 442 L181 442 L181 442 Z M132 457 L183 578 L243 578 L172 457 L132 457 L132 457 Z " />
<glyph glyph-name="numbersign" unicode="&#x23;" horiz-adv-x="425" d="M297 -77 C304 -41 310 -8 317 27 C321 44 324 62 328 81 L402 81 L402 174 L344 174 L366 284 L420 284 L420 376 L383 376 L424 593 L329 593 L328 587 C321 547 312 502 303 458 C298 431 293 403 288 376 L214 376 L255 593 L161 593 L119 376 L41 376 L41 284 L102 284 C98 263 95 245 91 228 C88 211 84 194 80 174 L21 174 L21 81 L64 81 L34 -83 L128 -83 L129 -77 C140 -17 147 29 158 81 L232 81 L202 -83 L296 -83 L297 -77 Z M250 96 L146 96 L145 90 C134 37 126 -8 115 -68 L52 -68 L82 96 L36 96 L36 159 L93 159 L94 165 C98 188 102 206 106 226 C110 245 114 265 119 290 L120 299 L56 299 L56 361 L132 361 L173 578 L237 578 L196 361 L300 361 L301 367 C308 395 313 425 318 456 C326 497 335 539 342 578 L406 578 L365 361 L405 361 L405 299 L353 299 L326 159 L387 159 L387 96 L315 96 L314 90 C310 69 306 49 302 29 C295 -3 291 -33 284 -68 L220 -68 L250 96 Z M263 165 C268 188 271 205 274 225 C278 243 282 265 287 290 L289 299 L279 299 C264 299 253 298 238 298 L191 298 L184 298 L158 159 L262 159 L263 165 Z M197 283 L238 283 C249 283 259 284 270 284 C266 261 263 244 260 227 C257 210 253 193 250 174 L176 174 L197 283 Z " />
<glyph glyph-name="dollar" unicode="&#x24;" horiz-adv-x="373" d="M249 -106 L249 -81 C291 -72 320 -48 337 -11 C344 2 351 23 351 54 L351 170 C351 213 332 240 316 256 C300 271 285 279 281 280 C278 283 268 287 249 292 L249 488 C258 473 258 456 258 455 L258 342 L351 342 L351 455 C351 486 344 506 337 521 C321 557 292 580 249 591 L249 615 L156 615 L156 590 C113 581 84 557 68 520 C61 507 54 485 54 456 L54 320 C54 294 64 271 85 252 C92 244 99 239 106 235 C109 232 112 231 115 230 C116 230 133 222 156 215 L156 22 C151 29 149 37 148 44 C147 47 147 51 147 54 L147 160 L54 160 L54 54 C54 23 61 2 68 -11 C85 -48 114 -72 156 -81 L156 -106 L249 -106 Z M132 145 L132 54 C132 53 132 16 159 -3 L171 -12 L171 227 L166 229 C141 236 122 243 121 244 C111 249 102 255 95 262 C82 274 69 293 69 320 L69 456 C69 483 76 502 81 514 C97 548 125 569 165 577 L171 578 L171 600 L234 600 L234 578 L240 577 C280 569 308 548 324 514 C329 502 336 482 336 455 L336 357 L273 357 L273 455 C273 459 273 492 246 513 L234 521 L234 280 L240 279 C263 274 273 267 274 267 L275 266 C276 266 336 241 336 170 L336 54 C336 27 329 7 324 -5 C308 -39 280 -60 240 -68 L234 -69 L234 -75 L234 -90 L171 -90 L171 -69 L165 -68 C125 -60 97 -39 81 -5 C76 7 69 27 69 54 L69 145 L132 145 Z M246 -3 C273 16 273 51 273 54 L273 174 C273 178 273 200 245 213 L234 218 L234 -12 L246 -3 Z M249 193 C258 185 258 176 258 175 L258 54 C258 50 258 46 257 43 C256 36 253 29 249 22 L249 193 L249 193 Z M171 521 L159 512 C132 491 132 458 132 455 L132 323 C132 320 134 304 161 293 L171 288 L171 521 Z M147 455 C147 458 147 462 148 465 C149 472 151 479 156 487 L156 313 C149 318 147 322 147 325 L147 455 Z " />
<glyph glyph-name="percent" unicode="&#x25;" horiz-adv-x="494" d="M366 -94 C390 -94 411 -85 430 -68 C447 -51 458 -28 458 -4 L458 144 C458 168 447 191 430 208 C411 225 390 234 366 234 C314 234 273 195 273 144 L273 -4 C273 -55 314 -94 366 -94 L366 -94 Z M366 219 C387 219 404 212 419 197 C434 183 442 165 442 144 L442 -4 C442 -25 434 -43 419 -58 C404 -72 386 -79 366 -79 C322 -79 288 -47 288 -4 L288 144 C288 187 322 219 366 219 L366 219 Z M420 602 L324 602 L70 -94 L166 -94 L420 602 Z M335 587 L398 587 L155 -79 L92 -79 L335 587 Z M364 -26 C377 -26 387 -17 387 -5 L387 141 C387 153 377 163 364 163 C351 163 341 153 341 141 L341 -5 C341 -17 351 -26 364 -26 L364 -26 Z M364 148 C369 148 372 146 372 141 L372 -5 C372 -9 369 -11 364 -11 C361 -11 356 -12 356 -5 L356 141 C356 146 359 148 364 148 L364 148 Z M118 257 C142 257 165 267 182 283 C201 300 210 322 210 347 L210 494 C210 520 201 542 182 559 C164 576 143 584 118 584 C93 584 72 576 53 559 C34 542 25 520 25 494 L25 347 C25 322 34 300 53 283 C70 267 94 257 118 257 L118 257 Z M118 570 C138 570 156 563 172 548 C187 533 195 515 195 494 L195 347 C195 326 187 308 172 294 C156 279 138 272 118 272 C97 272 79 279 63 294 C48 308 40 326 40 347 L40 494 C40 515 48 533 63 548 C79 563 97 570 118 570 L118 570 Z M119 321 C132 321 142 331 142 343 L142 489 C142 495 139 500 134 504 C129 509 124 511 119 511 C106 511 96 501 96 489 L96 343 C96 331 106 321 119 321 L119 321 Z M119 496 C122 496 127 492 127 489 L127 343 C127 338 124 336 119 336 C114 336 111 338 111 343 L111 489 C111 494 114 496 119 496 L119 496 Z " />
<glyph glyph-name="ampersand" unicode="&#x26;" horiz-adv-x="417" d="M192 -89 C229 -89 264 -75 292 -51 C322 -25 338 7 340 44 L340 71 L340 216 L370 216 L370 309 L340 309 L340 322 L247 322 L247 309 L192 310 C149 310 138 334 137 355 L137 451 C137 466 142 478 153 487 C165 497 178 502 192 502 C223 502 246 480 247 452 L247 450 L247 389 L340 389 L340 453 L340 460 L340 461 C338 498 322 530 292 556 C263 581 230 593 192 593 C155 593 121 581 92 557 C63 531 47 499 44 462 L44 326 L44 325 C45 305 51 278 72 262 C73 259 75 259 76 258 C75 257 73 258 72 255 C51 240 45 213 44 194 L44 193 L44 43 C47 6 63 -26 92 -52 C121 -77 154 -89 192 -89 L192 -89 Z M59 193 C63 249 97 250 98 250 L99 265 C99 265 62 268 59 326 L59 461 C62 493 77 522 102 545 C128 568 158 579 192 579 C226 579 256 568 282 545 C309 522 322 492 325 460 L325 404 L262 404 L262 453 L262 460 L261 460 C257 492 227 517 192 517 C174 517 158 511 143 498 C129 486 122 470 122 451 L122 354 C122 336 134 294 192 294 L262 294 L262 308 L325 307 L325 294 L355 294 L355 231 L325 231 L325 72 L325 45 C323 11 309 -17 282 -40 C256 -63 226 -74 192 -74 C158 -74 128 -63 102 -40 C77 -17 62 11 59 44 L59 193 Z M192 -12 C210 -12 226 -6 240 6 C255 19 262 35 262 53 L262 231 L191 231 C134 231 122 188 122 172 L122 171 L122 53 C122 34 129 19 143 6 C158 -6 175 -12 192 -12 L192 -12 Z M137 171 C138 179 140 190 147 199 C157 210 172 216 191 216 L247 216 L247 53 C247 39 241 27 230 17 C219 8 207 3 192 3 C177 3 164 8 153 17 C142 28 137 40 137 53 L137 171 L137 171 Z " />
<glyph glyph-name="quotesingle" unicode="&#x27;" horiz-adv-x="183" d="M81 436 L170 587 L73 587 L9 436 L81 436 L81 436 Z M32 451 L83 572 L143 572 L72 451 L32 451 L32 451 Z " />
<glyph glyph-name="parenleft" unicode="&#x28;" horiz-adv-x="167" d="M149 -59 L144 -57 C129 -52 117 -40 110 -21 C105 -6 105 8 105 9 L105 497 C106 507 107 516 110 525 C115 540 124 556 144 563 L149 564 L149 665 L141 664 C112 661 87 652 66 635 C49 620 37 602 28 581 C17 556 12 528 12 497 L12 8 C12 -21 17 -49 28 -76 C37 -98 50 -116 66 -129 C86 -146 111 -156 141 -159 L149 -160 L149 -59 Z M134 575 C91 559 90 499 90 497 L90 9 C90 8 89 -8 96 -25 C103 -48 116 -63 134 -70 L134 -143 C89 -136 59 -111 42 -70 C31 -47 27 -20 27 8 L27 497 C27 525 31 552 42 575 C59 616 89 641 134 648 L134 575 Z " />
<glyph glyph-name="parenright" unicode="&#x29;" horiz-adv-x="181" d="M27 -159 C56 -156 81 -146 101 -129 C118 -116 131 -99 140 -76 C151 -49 156 -21 156 8 L156 497 C156 526 151 554 140 581 C131 603 118 621 101 635 C80 652 56 661 27 664 L19 665 L19 564 L24 563 C40 558 51 546 58 526 C61 518 61 511 62 506 C63 503 63 500 63 497 L63 9 C63 8 63 -6 58 -21 C51 -41 39 -53 24 -57 L19 -59 L19 -160 L27 -159 Z M34 -70 C77 -51 78 5 78 9 L78 497 C78 500 78 504 77 507 C76 514 75 522 72 531 C65 553 52 568 34 575 L34 648 C79 641 109 616 126 575 C135 552 141 525 141 497 L141 8 C141 -20 135 -47 126 -70 C109 -111 79 -136 34 -143 L34 -70 L34 -70 Z " />
<glyph glyph-name="asterisk" unicode="&#x2a;" horiz-adv-x="227" d="M146 348 L176 325 L214 381 L170 407 L214 433 L176 487 L145 464 L145 503 L78 503 L78 466 L49 487 L10 432 L55 407 L10 382 L49 325 L78 348 L78 310 L146 310 L146 348 Z M93 378 L52 347 L32 377 L85 407 L32 437 C39 448 45 455 52 466 L93 436 L93 488 L130 488 L130 433 L172 466 C180 455 185 448 192 437 L140 407 L192 376 C185 365 178 358 173 347 L131 379 L131 325 L93 325 L93 378 Z " />
<glyph glyph-name="plus" unicode="&#x2b;" horiz-adv-x="388" d="M244 137 L244 251 L357 251 L357 344 L244 344 L244 457 L151 457 L151 344 L37 344 L37 251 L151 251 L151 137 L244 137 L244 137 Z M166 152 L166 266 L52 266 L52 329 L166 329 L166 442 L229 442 L229 329 L343 329 L343 266 L229 266 L229 152 L166 152 L166 152 Z " />
<glyph glyph-name="comma" unicode="&#x2c;" horiz-adv-x="179" d="M79 -126 L168 25 L72 25 L8 -126 L79 -126 L79 -126 Z M30 -111 L81 10 L142 10 L71 -111 L30 -111 L30 -111 Z " />
<glyph glyph-name="hyphen" unicode="&#x2d;" horiz-adv-x="307" d="M281 254 L281 347 L30 347 L30 254 L281 254 L281 254 Z M45 269 L45 332 L265 332 L265 269 L45 269 L45 269 Z " />
<glyph glyph-name="period" unicode="&#x2e;" horiz-adv-x="119" d="M106 -84 L106 28 L13 28 L13 -84 L106 -84 L106 -84 Z M28 -69 L28 13 L91 13 L91 -69 L28 -69 L28 -69 Z " />
<glyph glyph-name="slash" unicode="&#x2f;" horiz-adv-x="356" d="M107 -111 L345 615 L251 615 L13 -111 L107 -111 L107 -111 Z M34 -95 L262 601 L324 601 L96 -96 L34 -95 L34 -95 Z " />
<glyph glyph-name="zero" unicode="0" horiz-adv-x="389" d="M195 -90 C229 -90 257 -84 280 -71 C299 -60 314 -45 324 -26 C337 -3 343 23 343 50 L343 451 C343 478 337 504 324 527 C314 546 299 561 280 571 C258 584 230 591 195 591 C160 591 133 586 110 571 C91 560 76 546 65 527 C52 504 46 479 46 452 L46 49 C46 22 52 -3 65 -26 C76 -45 91 -60 110 -71 C131 -84 160 -90 195 -90 L195 -90 Z M195 576 C251 576 290 557 311 519 C322 500 328 477 328 451 L328 50 C328 24 322 1 311 -18 C290 -56 251 -75 195 -75 C138 -75 99 -56 78 -18 C67 1 61 24 61 49 L61 452 C61 477 67 500 78 519 C99 557 138 576 195 576 L195 576 Z M195 -20 C216 -20 233 -14 246 -1 C265 19 265 47 265 50 L265 301 L251 304 L128 26 L129 24 C140 -5 163 -20 195 -20 L195 -20 Z M250 265 L250 50 L250 49 C250 44 249 40 248 35 C245 27 243 17 235 9 C226 0 212 -5 195 -5 C170 -5 153 5 144 26 L250 265 Z M260 479 L259 482 C251 501 234 521 195 521 C158 521 141 502 133 486 C124 469 124 452 124 451 L124 208 L139 205 L260 479 Z M195 506 C219 506 235 497 243 479 L139 243 L139 451 C139 454 139 457 140 460 C141 465 142 472 146 479 C155 497 171 506 195 506 L195 506 Z " />
<glyph glyph-name="one" unicode="1" horiz-adv-x="179" d="M145 -88 L145 594 L30 594 L30 503 L52 503 L52 -88 L145 -88 L145 -88 Z M67 -73 L67 518 L45 518 L45 579 L130 579 L130 -73 L67 -73 L67 -73 Z " />
<glyph glyph-name="two" unicode="2" horiz-adv-x="375" d="M336 4 L133 4 L133 70 C133 89 140 104 153 115 C166 126 188 135 219 140 C254 146 282 163 305 192 C326 219 336 249 336 282 L336 453 C336 482 330 507 318 529 C307 548 292 563 273 574 C252 587 223 593 188 593 C141 593 105 580 78 555 C43 520 40 473 40 454 L40 351 L133 351 L133 453 C133 456 133 459 134 462 C135 467 136 474 140 481 C149 499 165 508 188 508 C207 508 221 503 230 494 C237 486 240 476 243 468 C244 463 245 459 244 454 L244 303 C244 235 195 227 166 219 L165 219 C122 210 89 191 66 161 C43 132 40 101 40 86 L40 -88 L336 -88 L336 4 Z M55 86 C55 131 85 186 168 205 L169 205 C184 208 206 212 225 227 C248 244 259 269 259 303 L259 453 C259 458 260 482 241 504 C228 517 211 524 188 523 C152 523 135 503 127 487 C118 471 118 454 118 453 L118 366 L55 366 L55 453 L55 454 C55 470 58 515 89 544 C112 567 145 578 188 578 C245 578 284 559 305 521 C316 502 321 480 321 453 L321 282 C321 252 312 225 293 201 C274 176 248 160 217 155 C183 149 158 139 143 126 C126 112 118 93 118 70 L118 -11 L321 -11 L321 -73 L55 -73 L55 86 Z " />
<glyph glyph-name="three" unicode="3" horiz-adv-x="352" d="M178 -89 C216 -89 249 -77 278 -52 C307 -26 323 6 326 43 L326 193 C325 213 319 240 298 255 C297 256 295 257 294 258 C295 259 297 260 298 261 C319 277 325 305 326 325 L326 461 L326 462 C323 498 306 532 278 556 C249 581 216 593 178 593 C140 593 107 581 78 556 C49 530 33 498 30 460 L30 350 L123 350 L123 449 L123 452 C124 479 147 502 178 502 C192 502 205 497 217 487 C228 478 233 466 233 451 L233 354 C230 334 222 309 178 309 L149 309 L149 216 L179 216 C199 216 214 210 223 199 C230 188 233 178 233 170 L233 53 C233 40 228 28 217 17 C206 8 193 3 178 3 C163 3 151 8 140 17 C129 27 123 39 123 53 L123 170 L30 170 L30 44 C33 6 49 -26 78 -52 C107 -77 140 -89 178 -89 L178 -89 Z M45 155 L108 155 L108 53 C108 35 115 19 130 6 C143 -6 159 -12 178 -12 C197 -12 214 -6 227 6 C241 19 248 34 248 53 L248 171 C248 189 236 231 179 231 L164 231 L164 294 L178 294 C236 294 248 336 248 354 L248 451 C248 470 241 486 227 498 C213 511 197 517 178 517 C143 517 114 492 109 460 L108 460 L108 365 L45 365 L45 459 C47 493 61 521 88 544 C114 567 144 578 178 578 C212 578 242 567 268 545 C293 522 308 493 311 461 L311 326 C306 268 274 265 272 265 L272 250 C279 249 285 246 290 242 C299 234 308 220 311 192 L311 43 C308 11 293 -18 268 -41 C242 -63 212 -74 178 -74 C144 -74 114 -63 88 -40 C61 -17 47 11 45 45 L45 155 Z " />
<glyph glyph-name="four" unicode="4" horiz-adv-x="391" d="M345 -80 L345 164 L375 164 L375 257 L345 257 L345 595 L244 595 L33 247 L33 164 L252 164 L252 -80 L345 -80 L345 -80 Z M267 -65 L267 179 L48 179 L48 242 L252 580 L330 580 L330 242 L360 242 L360 179 L330 179 L330 -65 L267 -65 L267 -65 Z M267 242 L267 501 L119 242 L267 242 L267 242 Z M145 257 L252 444 L252 257 L145 257 L145 257 Z " />
<glyph glyph-name="five" unicode="5" horiz-adv-x="380" d="M189 -85 C224 -85 251 -80 274 -65 C293 -55 308 -40 319 -21 C331 1 337 26 337 55 L337 256 C337 297 323 329 295 352 C269 373 234 384 190 385 L189 385 C166 385 145 380 134 376 L134 504 L337 504 L337 596 L41 596 L41 252 L126 252 L135 251 L134 260 C134 261 134 263 135 265 C136 270 138 273 141 276 C150 286 167 292 190 293 C210 293 224 289 232 281 C239 274 245 266 245 227 L245 55 C245 50 244 46 243 41 C240 33 237 23 230 15 C220 5 206 0 189 0 C166 0 150 9 141 27 C137 34 136 41 135 46 C134 49 134 52 134 55 L134 118 L41 118 L41 55 C41 36 45 -12 79 -46 C105 -72 142 -85 189 -85 L189 -85 Z M119 103 L119 55 C119 54 119 37 127 20 C136 4 153 -15 189 -15 C211 -15 228 -9 240 4 C260 24 260 52 260 55 L260 227 C260 250 259 276 242 292 C231 303 213 308 189 308 C162 307 142 299 130 286 C125 280 121 274 120 267 L56 267 L56 581 L322 581 L322 519 L119 519 L119 366 L119 355 L129 359 C134 360 140 362 147 364 C158 367 173 370 189 370 L190 370 C230 369 262 359 286 340 C310 320 322 292 322 256 L322 55 C322 30 317 7 306 -13 C284 -51 245 -70 189 -70 C146 -70 113 -59 90 -36 C59 -5 56 38 56 55 L56 103 L119 103 Z " />
<glyph glyph-name="six" unicode="6" horiz-adv-x="383" d="M199 -88 C234 -88 262 -81 284 -68 C303 -58 318 -43 329 -24 C341 -2 347 23 347 52 L347 187 C347 218 332 244 303 266 C275 287 240 298 199 300 C176 301 159 306 150 316 C143 324 143 331 143 332 L143 453 C143 454 143 478 159 494 C168 503 182 508 199 508 C222 508 238 499 247 482 C250 475 252 467 253 462 C254 459 254 456 254 453 L254 401 L347 401 L347 454 C347 483 341 508 329 529 C318 548 303 563 284 574 C261 587 233 593 199 593 C165 593 137 587 114 574 C95 563 80 548 69 529 C57 507 51 482 51 453 L51 52 C51 23 57 -2 69 -24 C80 -43 95 -58 114 -68 C136 -81 164 -88 199 -88 L199 -88 Z M199 578 C255 578 294 559 315 521 C326 502 332 479 332 454 L332 416 L270 416 L270 453 C270 454 269 471 261 488 C253 504 235 523 199 523 C177 523 160 517 148 504 C128 484 129 456 129 453 L129 333 C128 330 127 318 138 307 C151 293 171 286 199 285 C236 283 268 273 294 254 C319 236 332 214 332 187 L332 51 C332 26 326 3 315 -16 C294 -54 255 -73 199 -73 C142 -73 103 -54 82 -16 C71 3 66 25 66 52 L66 453 C66 480 71 502 82 521 C103 559 142 578 199 578 L199 578 Z M199 -18 C235 -18 253 1 261 17 C269 34 270 51 270 52 L270 184 L269 184 C269 187 263 219 199 224 C168 227 150 231 139 235 L129 239 L129 52 C129 52 127 19 148 1 C160 -12 177 -18 199 -18 L199 -18 Z M144 217 C156 214 174 210 198 209 C246 206 254 186 254 183 L254 52 C254 49 254 46 253 43 C252 37 250 31 247 24 C238 6 222 -3 199 -3 C181 -3 168 2 159 12 C143 27 143 51 143 52 L144 217 L144 217 Z " />
<glyph glyph-name="seven" unicode="7" horiz-adv-x="359" d="M161 -79 C161 5 170 85 189 162 C203 225 223 284 249 340 C284 417 322 469 337 488 L339 490 L339 595 L29 595 L29 502 L235 502 C219 481 187 432 154 356 C127 296 108 233 93 169 C74 88 65 5 65 -79 L65 -87 L161 -87 L161 -79 Z M80 -72 C80 9 90 88 107 165 C122 229 141 289 168 349 C203 429 240 486 255 505 L265 517 L44 517 L44 581 L324 581 L324 496 C315 485 275 435 236 347 C209 289 189 229 174 166 C155 90 146 11 146 -72 L80 -72 L80 -72 Z " />
<glyph glyph-name="eight" unicode="8" horiz-adv-x="381" d="M190 -90 C226 -90 262 -76 289 -52 C318 -28 335 6 338 42 L338 192 L338 193 C335 212 330 239 310 255 C307 256 306 257 305 257 C308 260 307 258 310 261 C330 277 335 304 338 325 L338 461 C335 499 318 531 289 556 C262 580 226 593 190 593 C153 593 117 580 90 555 C60 529 44 497 42 460 L42 459 L42 327 L42 326 C43 306 49 277 69 261 C72 260 73 258 74 257 C73 257 72 255 69 254 C49 238 43 211 42 191 L42 44 C44 6 60 -26 90 -52 C117 -76 153 -90 190 -90 L190 -90 Z M57 190 C59 246 95 250 96 250 L96 265 C89 266 83 268 78 273 C69 281 58 296 57 327 L57 459 C60 491 74 521 99 544 C125 567 155 578 190 578 C223 578 253 567 280 544 C305 521 320 493 323 460 L323 325 C318 269 286 265 283 265 L283 250 C289 249 295 246 301 242 C310 234 320 220 323 192 L323 43 C320 10 305 -18 280 -41 C254 -63 224 -74 190 -74 C155 -74 124 -64 99 -41 C73 -17 59 11 57 44 L57 190 Z M190 -13 C208 -13 224 -7 238 5 C253 18 260 34 260 53 L260 170 L260 171 C257 190 250 230 190 230 L189 230 C130 230 120 190 120 171 L120 170 L120 53 C120 34 127 18 141 5 C155 -7 171 -13 190 -13 L190 -13 Z M135 170 C136 191 146 215 189 215 L190 215 C210 215 225 209 234 198 C242 189 244 178 245 170 L245 53 C245 38 239 26 228 17 C218 7 205 2 190 2 C175 2 162 6 151 17 C140 26 135 38 135 53 L135 170 L135 170 Z M190 294 C250 294 257 334 260 353 L260 451 C260 469 253 485 238 498 C224 510 208 516 190 516 C171 516 155 510 141 498 C127 485 120 469 120 451 L120 354 L120 353 C120 334 130 294 190 294 L190 294 Z M135 451 C135 466 140 477 151 486 C162 497 175 501 190 501 C205 501 218 496 228 486 C239 477 245 465 245 451 L245 354 C242 333 233 309 190 309 C147 309 136 333 135 354 L135 451 Z " />
<glyph glyph-name="nine" unicode="9" horiz-adv-x="372" d="M190 -88 C225 -88 253 -81 275 -68 C294 -58 309 -43 320 -24 C332 -2 338 23 338 52 L338 453 C338 482 332 507 320 529 C309 548 294 563 275 574 C252 587 224 593 190 593 C156 593 128 587 105 574 C86 563 71 548 60 529 C48 508 42 483 42 454 L42 318 C42 287 57 261 86 239 C115 218 149 207 190 205 C210 205 225 199 235 188 C242 181 243 175 244 168 C245 165 245 161 245 157 L245 52 C245 51 246 28 230 12 C221 2 207 -3 190 -3 C167 -3 151 6 142 24 C138 31 136 38 135 43 C134 46 134 49 134 52 L134 104 L42 104 L42 52 C42 23 48 -2 60 -24 C71 -43 86 -58 105 -68 C127 -81 155 -88 190 -88 L190 -88 Z M119 89 L119 52 C119 51 120 34 128 17 C136 1 154 -18 190 -18 C212 -18 229 -12 241 1 C260 21 260 49 260 52 L260 156 C261 159 261 181 246 198 C234 212 215 220 190 221 C154 222 120 232 95 251 C70 269 57 291 57 318 L57 454 C57 479 62 501 73 521 C95 559 134 578 190 578 C246 578 285 559 306 521 C317 502 323 479 323 453 L323 52 C323 26 317 3 306 -16 C285 -54 246 -73 190 -73 C134 -73 95 -54 73 -16 C62 4 57 26 57 51 L57 89 L119 89 Z M260 453 C260 456 260 482 241 504 C229 517 212 523 190 523 C154 523 136 504 128 488 C120 471 119 454 119 453 L119 321 C119 319 126 285 190 282 C221 279 239 274 250 270 L260 266 L260 453 Z M191 297 C144 300 134 320 134 322 L134 453 C134 456 134 459 135 462 C136 467 138 475 142 482 C151 499 167 508 190 508 C207 508 221 503 230 494 C246 478 245 454 245 453 L245 288 C233 291 215 294 191 297 L191 297 Z " />
<glyph glyph-name="colon" unicode="&#x3a;" horiz-adv-x="157" d="M126 392 L126 504 L33 504 L33 392 L126 392 L126 392 Z M48 407 L48 489 L111 489 L111 407 L48 407 L48 407 Z M126 89 L126 201 L33 201 L33 89 L126 89 L126 89 Z M48 104 L48 186 L111 186 L111 104 L48 104 L48 104 Z " />
<glyph glyph-name="semicolon" unicode="&#x3b;" horiz-adv-x="218" d="M94 48 L183 199 L86 199 L22 48 L94 48 L94 48 Z M45 63 L96 184 L157 184 L85 63 L45 63 L45 63 Z M177 391 L177 502 L84 502 L84 391 L177 391 L177 391 Z M99 406 L99 488 L162 488 L162 406 L99 406 L99 406 Z " />
<glyph glyph-name="less" unicode="&#x3c;" horiz-adv-x="410" d="M368 240 L363 241 C324 254 283 268 242 283 C223 290 206 294 189 301 L368 363 L368 460 L47 339 L47 263 L368 143 L368 240 Z M62 329 L353 438 L353 373 L142 301 L163 293 C187 285 213 277 237 268 C276 255 317 242 353 229 L353 164 L62 273 L62 329 Z " />
<glyph glyph-name="equal" unicode="&#x3d;" horiz-adv-x="318" d="M290 192 L290 286 L25 286 L25 192 L290 192 L290 192 Z M40 207 L40 271 L274 271 L274 207 L40 207 L40 207 Z M290 314 L290 408 L25 408 L25 314 L290 314 L290 314 Z M40 329 L40 393 L274 393 L274 329 L40 329 L40 329 Z " />
<glyph glyph-name="greater" unicode="&#x3e;" horiz-adv-x="389" d="M361 263 L361 339 L40 460 L40 363 L220 301 L166 283 C125 268 83 254 46 241 L40 240 L40 143 L361 263 Z M56 229 C91 242 132 255 171 268 C196 277 221 285 245 293 L266 301 L56 373 L56 438 L346 329 L346 273 L56 164 L56 229 L56 229 Z " />
<glyph glyph-name="question" unicode="&#x3f;" horiz-adv-x="369" d="M179 5 L85 5 L85 -2 L85 -80 L85 -88 L179 -88 L179 5 Z M100 -10 L164 -10 L164 -73 L100 -73 L100 -10 Z M179 150 C179 175 202 184 239 196 C259 203 280 209 297 222 C316 235 326 256 326 283 L326 455 C326 483 320 508 308 530 C297 549 282 564 263 575 C240 588 212 594 178 594 C129 594 93 581 68 556 C33 521 30 474 30 455 L30 402 L122 403 L122 455 C122 458 122 461 123 464 C124 470 127 476 130 482 C139 500 155 509 178 509 C196 509 209 504 218 495 C234 479 234 455 233 455 L233 355 L233 289 C188 280 153 266 127 246 C101 225 87 200 85 169 L85 40 L85 33 L179 33 L179 150 Z M100 168 C102 194 114 216 137 234 C160 252 195 266 242 275 L248 277 L248 355 L248 455 C248 458 248 484 229 506 C216 519 199 525 178 525 C142 525 124 505 116 489 C111 479 109 471 108 466 C107 463 107 459 107 455 L107 418 L45 418 L45 455 C45 472 49 516 78 545 C101 568 135 580 178 580 C233 580 272 561 295 523 C306 502 311 479 311 455 L311 283 C311 234 274 223 234 210 C199 199 164 187 164 150 L164 48 L100 48 L100 168 Z " />
<glyph glyph-name="at" unicode="&#x40;" horiz-adv-x="417" d="M212 8 C372 8 384 94 384 121 L384 440 C384 467 372 553 212 553 C145 553 97 538 68 509 C49 490 39 466 39 441 L39 121 C39 94 49 71 68 52 C97 23 145 8 212 8 L212 8 Z M212 538 C251 538 281 533 304 524 C323 517 338 507 350 493 C363 477 369 459 369 440 L369 121 C369 102 363 84 350 68 C339 55 324 45 304 37 C281 28 251 23 212 23 C149 23 104 36 78 62 C62 78 54 98 54 121 L54 440 L54 441 C54 464 62 483 78 499 C104 525 149 538 212 538 L212 538 Z M211 52 C263 52 293 70 312 85 C331 101 337 117 337 118 L338 119 L338 442 C337 443 333 460 314 476 C298 491 267 509 211 509 C160 509 131 492 112 477 C93 460 86 444 86 443 L85 442 L85 119 L85 118 C86 117 91 101 110 85 C127 70 158 52 211 52 L211 52 Z M100 439 C103 442 108 454 123 466 C146 485 175 494 211 494 C252 494 282 485 303 466 C318 454 322 442 323 439 L323 122 C318 114 295 67 211 67 C173 67 143 76 121 95 C106 107 103 119 100 122 L100 439 Z M211 94 C255 94 275 114 284 131 C291 142 294 156 294 173 L294 388 C294 404 291 418 284 431 C267 462 235 467 211 467 C168 467 148 447 139 430 C132 419 128 405 128 389 L128 381 L178 381 L185 381 L185 388 C185 392 186 414 211 414 C220 414 226 412 230 408 C233 405 236 400 237 395 C238 392 238 390 238 389 L238 324 L238 323 C238 318 232 310 211 309 C164 308 128 280 128 245 L128 173 C128 158 132 144 139 131 C156 100 188 94 211 94 L211 94 Z M253 388 C253 391 253 406 241 418 C234 425 224 429 211 429 C190 429 180 419 175 408 C172 404 172 399 171 396 L144 396 C145 407 148 416 152 423 C163 442 183 452 211 452 C272 452 279 408 279 388 L279 173 C279 154 272 109 211 109 C183 109 163 119 152 138 C147 149 143 160 143 173 L143 245 C143 272 173 293 212 294 C229 295 240 300 247 307 C254 314 253 321 253 324 L253 388 Z M211 132 C224 132 234 136 241 143 C253 155 253 170 253 173 L253 278 L243 274 C236 271 227 269 211 269 C174 266 170 246 170 244 L170 173 C170 172 170 162 175 153 C180 142 190 132 211 132 L211 132 Z M185 242 C186 245 189 252 212 253 C223 254 231 256 238 257 L238 173 C238 172 238 161 231 153 C226 149 219 147 211 147 C186 147 185 169 185 173 L185 242 L185 242 Z " />
<glyph glyph-name="A" unicode="A" horiz-adv-x="398" d="M383 -84 L242 592 L157 592 L21 -84 L116 -84 L135 18 L267 18 L288 -84 L383 -84 L383 -84 Z M300 -69 L279 33 L123 33 L104 -69 L39 -69 L170 577 L230 577 L365 -69 L300 -69 L300 -69 Z M268 96 L207 391 L192 391 L136 96 L268 96 L268 96 Z M154 111 L200 351 L249 110 L154 111 L154 111 Z " />
<glyph glyph-name="B" unicode="B" horiz-adv-x="348" d="M171 -84 C210 -84 248 -71 279 -44 C313 -16 330 18 330 57 L330 184 C330 207 325 237 298 256 C295 258 291 260 288 261 C289 262 291 263 293 265 C310 280 319 305 319 339 L319 451 C319 492 304 525 274 552 C246 577 210 592 171 592 L23 592 L23 -84 L171 -84 L171 -84 Z M38 577 L171 577 C206 577 239 564 264 541 C291 516 304 486 304 451 L304 339 C304 271 266 267 264 267 L264 266 L264 252 C267 251 269 251 272 250 C278 249 284 246 290 243 C307 232 316 212 316 184 L316 57 C316 22 299 -9 270 -33 C241 -57 208 -69 171 -69 L38 -69 L38 577 Z M171 -8 C190 -8 209 -1 224 10 C243 23 252 38 252 57 L252 173 L252 174 C252 190 239 233 171 233 L170 233 L100 233 L100 -8 L171 -8 L171 -8 Z M115 218 L170 218 L171 218 C196 218 214 212 225 201 C234 192 236 181 237 173 L237 57 C237 34 207 7 171 7 L115 7 L115 218 Z M171 296 C196 296 215 303 227 318 C238 330 240 343 241 354 L241 355 L241 451 C241 469 234 485 219 498 C205 510 189 516 171 516 L100 516 L100 296 L171 296 L171 296 Z M115 501 L171 501 C186 501 198 496 209 487 C220 477 226 465 226 451 L226 355 C225 347 223 336 215 327 C206 316 191 310 171 310 L115 310 L115 501 Z " />
<glyph glyph-name="C" unicode="C" horiz-adv-x="352" d="M182 -89 C215 -89 244 -82 267 -69 C286 -58 301 -43 312 -24 C325 -2 331 23 331 51 L331 59 L238 59 L238 51 C238 46 237 42 236 37 C233 29 230 19 222 11 C213 1 199 -4 182 -4 C159 -4 143 5 134 23 C130 30 129 37 128 42 C127 45 127 48 127 51 L127 453 C127 456 127 459 128 462 C129 467 130 473 134 480 C143 499 159 508 182 508 C199 508 213 503 222 493 C230 485 233 475 236 467 C237 462 238 458 238 453 L238 445 L331 445 L331 453 C331 481 325 506 312 528 C301 547 286 562 267 573 C244 586 215 593 182 593 C149 593 120 586 97 573 C78 562 63 547 53 528 C40 506 34 481 34 453 L34 51 C34 23 40 -2 53 -24 C63 -43 78 -58 97 -69 C120 -82 149 -89 182 -89 L182 -89 Z M182 578 C239 578 278 559 299 521 C308 504 314 483 315 460 L252 460 C251 471 248 488 233 503 C221 516 204 522 182 522 C146 522 129 503 120 487 C116 478 114 471 113 464 C112 461 112 457 112 453 L112 51 C112 50 112 34 120 17 C129 0 146 -19 182 -19 C203 -19 220 -13 233 0 C248 15 251 33 252 44 L315 44 C314 20 308 0 299 -17 C278 -55 239 -74 182 -74 C125 -74 87 -55 66 -17 C55 2 49 25 49 51 L49 453 C49 479 55 502 66 521 C87 559 126 578 182 578 L182 578 Z " />
<glyph glyph-name="D" unicode="D" horiz-adv-x="384" d="M193 -84 C232 -84 269 -71 296 -44 C326 -17 341 16 341 57 L341 451 C341 492 326 525 296 552 C269 577 232 592 193 592 L45 592 L45 -84 L193 -84 L193 -84 Z M60 577 L193 577 C228 577 261 564 286 541 C313 517 327 486 327 451 L327 57 C327 22 313 -8 286 -33 C261 -56 228 -69 193 -69 L60 -69 L60 577 Z M193 -8 C211 -8 227 -2 241 10 C256 23 263 39 263 57 L263 451 C263 469 256 485 241 498 C227 510 211 516 193 516 L123 516 L123 -8 L193 -8 L193 -8 Z M138 501 L193 501 C208 501 221 496 232 487 C243 476 248 464 248 451 L248 57 C248 44 243 32 232 21 C221 12 208 7 193 7 L138 7 L138 501 Z " />
<glyph glyph-name="E" unicode="E" horiz-adv-x="335" d="M306 -85 L306 8 L129 8 L129 151 L223 151 L223 244 L129 244 L129 498 L306 498 L306 591 L37 591 L37 -85 L306 -85 L306 -85 Z M52 -70 L52 576 L291 576 L291 513 L114 513 L114 229 L208 229 L208 166 L114 166 L114 -7 L291 -7 L291 -70 L52 -70 L52 -70 Z " />
<glyph glyph-name="F" unicode="F" horiz-adv-x="387" d="M161 -84 L161 152 L255 152 L255 245 L161 245 L161 499 L338 499 L338 592 L69 592 L69 -84 L161 -84 L161 -84 Z M84 -69 L84 577 L323 577 L323 514 L146 514 L146 230 L240 230 L240 167 L146 167 L146 -69 L84 -69 L84 -69 Z " />
<glyph glyph-name="G" unicode="G" horiz-adv-x="389" d="M199 -89 C232 -89 260 -82 283 -69 C302 -59 317 -44 328 -25 C341 -3 347 22 347 51 L347 245 L218 245 L218 153 L254 153 L254 51 C254 48 254 34 247 21 C238 4 222 -4 199 -4 C176 -4 160 5 151 23 C148 29 145 35 144 42 C143 45 143 48 143 51 L143 453 C143 456 143 459 144 462 C145 467 146 473 150 480 C161 499 177 508 199 508 C216 508 230 503 239 493 C247 485 249 475 252 467 C253 462 254 458 254 453 L254 445 L347 445 L347 453 C347 482 341 507 329 528 C318 547 303 562 284 573 C261 586 232 593 199 593 C166 593 137 586 114 573 C95 562 80 547 69 528 C57 507 51 482 51 453 L51 51 C51 24 57 -3 69 -24 C80 -43 95 -58 114 -69 C137 -82 166 -89 199 -89 L199 -89 Z M199 578 C255 578 294 559 315 521 C326 502 331 482 332 460 L269 460 C268 471 265 488 250 503 C238 516 221 522 199 522 C163 522 145 503 137 487 C132 477 130 469 129 464 C128 461 128 457 128 453 L128 51 C128 50 129 34 137 17 C145 0 163 -19 199 -19 C235 -19 252 -1 260 14 C269 30 269 47 269 51 L269 168 L233 168 L233 230 L332 230 L332 51 C332 24 326 1 315 -18 C294 -55 255 -74 199 -74 C143 -74 104 -55 82 -17 C71 3 66 26 66 51 L66 453 C66 478 71 501 82 521 C105 559 144 578 199 578 L199 578 Z " />
<glyph glyph-name="H" unicode="H" horiz-adv-x="409" d="M356 -84 L356 592 L264 592 L264 287 L148 287 L148 592 L56 592 L56 -84 L148 -84 L148 194 L264 194 L264 -84 L356 -84 L356 -84 Z M279 -69 L279 209 L133 209 L133 -69 L71 -69 L71 577 L133 577 L133 272 L279 272 L279 577 L341 577 L341 -69 L279 -69 L279 -69 Z " />
<glyph glyph-name="I" unicode="I" horiz-adv-x="174" d="M137 -83 L137 593 L45 593 L45 -83 L137 -83 L137 -83 Z M60 -68 L60 578 L122 578 L122 -68 L60 -68 L60 -68 Z " />
<glyph glyph-name="J" unicode="J" horiz-adv-x="279" d="M93 -84 C126 -84 153 -78 175 -66 C194 -56 209 -42 220 -24 C237 4 241 35 241 56 L241 592 L148 592 L148 56 L148 55 C148 51 148 47 147 43 C146 36 144 26 137 19 C128 9 114 4 97 4 L70 4 L42 4 L35 4 L35 -84 L93 -84 L93 -84 Z M50 -11 L71 -11 L97 -11 C119 -11 136 -4 148 9 C165 28 163 53 163 57 L163 577 L226 577 L226 56 C226 37 223 9 207 -16 C186 -51 148 -69 93 -69 L50 -69 L50 -11 Z " />
<glyph glyph-name="K" unicode="K" horiz-adv-x="428" d="M411 -86 L215 179 L392 590 L292 590 L142 247 L142 590 L49 590 L49 -85 L142 -85 L142 122 L296 -86 L411 -86 L411 -86 Z M303 -71 L127 167 L127 -70 L64 -70 L64 575 L127 575 L127 212 L141 209 L302 575 L369 575 L198 177 L382 -71 L303 -71 L303 -71 Z " />
<glyph glyph-name="L" unicode="L" horiz-adv-x="286" d="M261 -83 L261 10 L128 10 L128 593 L35 593 L35 -83 L261 -83 L261 -83 Z M50 -68 L50 578 L113 578 L113 -5 L246 -5 L246 -68 L50 -68 L50 -68 Z " />
<glyph glyph-name="M" unicode="M" horiz-adv-x="514" d="M301 -86 L299 -78 L380 245 L380 -85 L473 -85 L473 590 L382 590 L257 90 L133 583 L133 590 L40 590 L40 -85 L133 -85 L133 229 L216 -86 L301 -86 L301 -86 Z M228 -71 L133 289 L118 287 L118 -70 L55 -70 L55 575 L118 575 L120 575 L250 57 L264 57 L394 575 L458 575 L458 -70 L395 -70 L395 305 L381 307 L286 -71 L282 -71 L228 -71 L228 -71 Z " />
<glyph glyph-name="N" unicode="N" horiz-adv-x="387" d="M350 -84 L350 592 L258 592 L258 195 L122 592 L31 592 L31 -84 L124 -84 L124 313 L260 -84 L350 -84 L350 -84 Z M271 -69 L123 360 L109 358 L109 -69 L46 -69 L46 577 L111 577 L258 148 L273 150 L273 577 L335 577 L335 -69 L271 -69 L271 -69 Z " />
<glyph glyph-name="O" unicode="O" horiz-adv-x="384" d="M202 -88 C235 -88 264 -81 287 -68 C306 -57 320 -42 331 -23 C344 -1 350 24 350 52 L350 454 C350 482 344 507 331 529 C320 548 306 563 287 574 C264 587 235 594 202 594 C168 594 139 587 116 574 C97 563 83 548 72 529 C59 507 53 482 53 454 L53 52 C53 24 59 -1 72 -23 C83 -42 97 -57 116 -68 C139 -81 168 -88 202 -88 L202 -88 Z M202 579 C258 579 297 560 318 522 C329 503 335 480 335 454 L335 52 C335 26 329 3 318 -16 C297 -54 258 -73 202 -73 C145 -73 106 -54 85 -16 C74 3 68 26 68 52 L68 454 C68 480 74 503 85 522 C106 560 145 579 202 579 L202 579 Z M201 -18 C222 -18 239 -12 252 1 C272 22 272 49 272 52 L272 454 C272 457 272 484 252 504 C240 517 223 523 201 523 C165 523 148 504 140 488 C135 479 133 472 132 465 C131 462 131 458 131 454 L131 52 C131 51 131 35 140 18 C148 1 165 -18 201 -18 L201 -18 Z M201 509 C218 509 232 504 242 494 C249 486 252 476 255 468 C256 463 257 459 257 454 L257 52 C257 47 256 43 255 38 C252 30 249 20 242 12 C232 2 218 -3 201 -3 C178 -3 162 6 153 24 C149 31 148 38 147 43 C146 46 146 49 146 52 L146 454 C146 457 146 460 147 463 C148 468 149 475 153 482 C162 500 178 509 201 509 L201 509 Z " />
<glyph glyph-name="P" unicode="P" horiz-adv-x="377" d="M141 -86 L141 195 L196 195 L197 195 C241 195 282 211 310 238 C333 261 345 290 345 322 L345 449 C345 490 331 523 303 550 C275 577 239 590 196 590 L48 590 L48 -86 L141 -86 Z M196 575 C235 575 267 563 293 539 C318 516 330 486 330 449 L330 322 C330 294 320 270 299 249 C274 225 237 210 197 210 L196 210 L126 210 L126 -71 L63 -71 L63 575 L196 575 Z M195 273 L196 273 C221 273 239 280 252 295 C263 308 265 321 266 332 L266 449 C266 467 259 483 245 496 C231 508 215 514 196 514 L126 514 L126 273 L133 273 L195 273 Z M141 499 L196 499 C211 499 224 494 235 485 C246 474 251 462 251 449 L251 333 C250 325 248 314 241 305 C232 294 217 288 196 288 L141 288 L141 499 Z " />
<glyph glyph-name="Q" unicode="Q" horiz-adv-x="387" d="M263 -73 C294 -60 316 -37 328 -5 C332 8 338 28 338 53 L338 454 C338 483 332 509 319 530 C309 549 294 564 275 575 C252 588 224 594 190 594 C156 594 128 588 105 575 C86 564 71 549 60 530 C48 508 42 483 42 455 L42 53 C42 24 48 0 59 -20 C70 -39 83 -53 99 -64 C121 -78 146 -85 173 -86 L188 -124 L285 -124 L263 -73 Z M184 -72 L179 -72 C127 -69 91 -49 72 -13 C62 6 57 27 57 52 L57 454 L57 455 C57 479 62 503 73 522 C94 560 133 579 190 579 C246 579 285 560 306 522 C317 503 323 480 323 454 L323 53 C323 -27 273 -54 251 -62 L244 -65 L262 -109 L198 -109 L184 -72 Z M190 -17 C212 -17 229 -11 241 2 C260 22 260 50 260 53 L260 454 C260 457 260 485 241 505 C229 518 212 524 190 524 C154 524 136 505 128 489 C120 472 119 455 119 454 L119 53 C119 52 120 35 128 18 C136 2 154 -17 190 -17 L190 -17 Z M134 454 C134 457 134 460 135 463 C136 468 138 476 142 483 C151 500 167 509 190 509 C206 509 219 504 230 495 C246 479 245 455 245 454 L245 53 C245 52 246 29 230 12 C221 3 207 -2 190 -2 C167 -2 151 7 142 25 C138 32 136 39 135 44 C134 47 134 50 134 53 L134 454 Z " />
<glyph glyph-name="R" unicode="R" horiz-adv-x="410" d="M353 183 C353 206 348 235 327 254 C324 257 323 258 320 259 C323 260 324 261 327 264 C344 279 353 304 353 338 L353 450 C353 491 338 524 308 551 C280 576 244 591 205 591 L56 591 L56 -85 L149 -85 L149 217 L204 217 L205 217 C225 217 240 211 249 200 C256 191 259 180 260 172 L260 -85 L353 -85 L353 183 Z M275 172 L274 173 C274 184 272 197 261 210 C248 225 229 232 205 232 L204 232 L134 232 L134 -70 L71 -70 L71 576 L205 576 C240 576 273 563 298 540 C325 515 338 485 338 450 L338 338 C339 270 299 266 298 266 L298 251 C305 250 312 247 318 242 C329 233 338 216 338 183 L338 -70 L275 -70 L275 172 Z M205 295 C230 295 248 302 260 317 C271 329 274 342 274 353 L275 354 L275 450 C275 468 268 484 253 497 C239 509 223 515 205 515 L134 515 L134 295 L205 295 Z M205 500 C219 500 232 495 243 486 C254 476 260 464 260 450 L260 354 C259 346 256 335 249 326 C240 315 225 309 205 309 L149 309 L149 500 L205 500 Z " />
<glyph glyph-name="S" unicode="S" horiz-adv-x="415" d="M204 -88 C237 -88 266 -81 289 -68 C308 -57 323 -42 334 -23 C346 -2 352 23 352 52 L352 168 C352 211 333 238 317 254 C302 269 286 277 283 278 C279 281 256 294 205 297 C158 300 148 320 148 323 L148 454 C148 457 148 460 149 463 C150 470 153 476 156 482 C165 500 181 509 204 509 C221 509 235 504 244 494 C252 486 255 476 258 468 C259 463 260 459 260 454 L260 340 L352 340 L352 454 C352 483 346 508 334 529 C323 548 308 563 289 574 C266 587 237 594 204 594 C171 594 142 587 119 574 C100 563 85 548 74 529 C62 508 56 483 56 454 L56 318 C56 293 66 270 86 250 C101 235 116 229 117 228 C118 227 161 209 204 206 C227 204 244 198 253 189 C260 181 260 174 260 173 L260 52 C260 47 259 43 258 38 C255 30 252 20 244 12 C235 2 221 -3 204 -3 C181 -3 165 6 156 24 C153 30 150 36 149 43 C148 46 148 49 148 52 L148 158 L56 158 L56 52 C56 25 62 -2 74 -23 C85 -42 100 -57 119 -68 C142 -81 171 -88 204 -88 L204 -88 Z M134 143 L134 52 C134 51 134 35 142 18 C150 1 168 -18 204 -18 C225 -18 242 -12 255 1 C275 22 275 49 275 52 L275 173 C275 176 276 187 265 198 C254 211 233 219 204 221 C184 222 164 227 149 232 C140 235 132 238 123 242 C113 247 104 254 97 261 C84 274 71 291 71 318 L71 454 C71 479 76 502 87 522 C110 560 149 579 204 579 C261 579 300 560 321 522 C332 503 337 481 337 454 L337 355 L275 355 L275 454 C275 457 275 484 255 504 C243 517 226 523 204 523 C168 523 150 504 142 488 C138 479 136 472 135 465 C134 462 134 458 134 454 L134 322 L134 321 C134 320 140 286 204 282 C255 279 275 266 275 265 L276 265 L277 265 C280 264 283 263 286 260 C293 256 299 250 307 243 C327 223 337 198 337 168 L337 52 C337 25 332 3 321 -16 C300 -54 261 -73 204 -73 C148 -73 109 -54 87 -16 C76 4 71 27 71 52 L71 143 L134 143 Z " />
<glyph glyph-name="T" unicode="T" horiz-adv-x="379" d="M235 -85 L235 498 L339 498 L339 591 L38 591 L38 498 L142 498 L142 -85 L235 -85 L235 -85 Z M157 -70 L157 513 L53 513 L53 576 L324 576 L324 513 L220 513 L220 -70 L157 -70 L157 -70 Z " />
<glyph glyph-name="U" unicode="U" horiz-adv-x="386" d="M202 -86 C236 -86 264 -80 287 -67 C306 -56 320 -41 331 -22 C344 1 350 27 350 54 L350 592 L258 592 L257 54 C257 53 257 29 242 13 C231 4 218 -1 202 -1 C179 -1 163 8 153 25 C149 32 148 38 147 45 C146 48 146 51 146 54 L147 592 L53 592 L53 53 C53 26 59 1 72 -22 C83 -41 98 -56 117 -67 C138 -80 167 -86 202 -86 L202 -86 Z M132 577 L131 54 C131 53 131 36 140 19 C148 3 165 -16 202 -16 C223 -16 240 -10 253 3 C272 23 272 51 272 54 L273 577 L335 577 L335 54 C335 28 329 5 318 -14 C297 -52 258 -71 202 -71 C145 -71 106 -52 85 -14 C74 5 68 28 68 53 L68 54 L68 577 L132 577 Z " />
<glyph glyph-name="V" unicode="V" horiz-adv-x="388" d="M247 -84 L371 592 L276 592 L199 186 L123 592 L27 592 L151 -84 L247 -84 L247 -84 Z M163 -69 L45 577 L111 577 L192 144 L207 144 L288 577 L354 577 L235 -69 L163 -69 L163 -69 Z " />
<glyph glyph-name="W" unicode="W" horiz-adv-x="628" d="M482 -85 L606 591 L510 591 L434 185 L358 591 L265 591 L188 185 L112 591 L16 591 L140 -85 L236 -85 L311 322 L386 -85 L482 -85 L482 -85 Z M398 -70 L318 365 L304 365 L224 -70 L153 -70 L34 576 L99 576 L181 143 L196 143 L277 576 L345 576 L427 143 L441 143 L523 576 L588 576 L470 -70 L398 -70 L398 -70 Z " />
<glyph glyph-name="X" unicode="X" horiz-adv-x="418" d="M394 -84 L255 254 L394 592 L299 592 L208 369 L116 592 L22 592 L161 254 L22 -84 L115 -84 L208 140 L300 -84 L394 -84 L394 -84 Z M310 -69 L208 179 L105 -69 L44 -69 L177 254 L44 577 L106 577 L208 330 L309 577 L371 577 L239 254 L371 -69 L310 -69 L310 -69 Z " />
<glyph glyph-name="Y" unicode="Y" horiz-adv-x="436" d="M260 -84 L261 196 L415 592 L313 592 L214 324 L115 592 L14 592 L168 196 L168 -84 L260 -84 L260 -84 Z M183 -69 L183 199 L36 577 L105 577 L214 281 L324 577 L393 577 L246 199 L245 -69 L183 -69 L183 -69 Z " />
<glyph glyph-name="Z" unicode="Z" horiz-adv-x="470" d="M416 -86 L416 7 L172 7 L415 502 L416 503 L416 590 L57 590 L57 497 L301 497 L58 2 L57 1 L57 -86 L416 -86 L416 -86 Z M72 -71 L72 -3 L324 512 L72 512 L72 575 L401 575 L401 507 L148 -8 L401 -8 L401 -71 L72 -71 L72 -71 Z " />
<glyph glyph-name="bracketleft" unicode="&#x5b;" horiz-adv-x="214" d="M192 -160 L199 -160 L199 -73 L159 -73 C146 -73 137 -73 130 -70 C127 -67 123 -64 123 -48 L123 550 C123 567 128 570 132 573 C139 577 151 577 164 577 L199 577 L199 665 L139 665 C99 665 71 654 54 631 C39 611 32 582 32 545 L32 -56 C32 -85 40 -108 55 -127 C73 -149 101 -160 139 -160 L152 -160 L173 -160 L192 -160 Z M185 650 L185 592 L164 592 C148 592 136 592 125 587 C110 579 108 562 108 550 L108 -48 C108 -60 110 -76 123 -83 C132 -88 144 -88 159 -88 L185 -88 L185 -145 L152 -145 L139 -145 C106 -145 82 -136 66 -117 C53 -101 47 -81 47 -56 L47 545 C47 580 53 605 66 622 C81 641 105 650 139 650 L185 650 Z " />
<glyph glyph-name="backslash" unicode="&#x5c;" horiz-adv-x="343" d="M245 -113 L339 -113 L101 613 L7 613 L245 -113 L245 -113 Z M28 599 L90 599 L318 -97 L256 -98 L28 599 L28 599 Z " />
<glyph glyph-name="bracketright" unicode="&#x5d;" horiz-adv-x="211" d="M68 -160 L80 -160 C118 -160 146 -149 164 -127 C179 -110 187 -86 187 -56 L187 545 C187 584 180 612 165 631 C148 654 120 665 80 665 L20 665 L20 577 L55 577 C68 577 80 577 87 573 C91 570 96 567 96 550 L96 -48 C96 -64 92 -67 89 -70 C82 -73 73 -73 60 -73 L20 -73 L20 -160 L27 -160 L46 -160 L68 -160 Z M35 -88 L60 -88 C75 -88 87 -88 96 -83 C109 -76 111 -60 111 -48 L111 550 C111 562 109 579 94 587 C83 592 71 592 55 592 L35 592 L35 650 L80 650 C114 650 138 641 153 622 C166 606 172 580 172 545 L172 -56 C172 -82 166 -102 153 -117 C138 -136 114 -145 80 -145 L67 -145 L35 -145 L35 -88 Z " />
<glyph glyph-name="asciicircum" unicode="&#x5e;" horiz-adv-x="247" d="M151 399 L230 399 L169 595 L78 595 L15 401 L93 401 L123 504 L151 399 L151 399 Z M123 560 L82 415 L35 415 L89 580 L158 580 L209 414 L163 414 L123 560 L123 560 Z " />
<glyph glyph-name="underscore" unicode="&#x5f;" horiz-adv-x="418" d="M406 -85 L406 -2 L17 -2 L17 -85 L406 -85 L406 -85 Z M32 -70 L32 -17 L391 -17 L391 -70 L32 -70 L32 -70 Z " />
<glyph glyph-name="grave" unicode="&#x60;" horiz-adv-x="208" d="M197 440 L133 591 L11 591 L109 440 L197 440 L197 440 Z M117 455 L39 576 L123 576 L174 455 L117 455 L117 455 Z " />
<glyph glyph-name="a" unicode="a" horiz-adv-x="398" d="M242 592 L157 592 L21 -84 L116 -84 L135 18 L267 18 L288 -84 L383 -84 L242 592 Z M279 33 L123 33 L104 -69 L39 -69 L170 577 L230 577 L365 -69 L300 -69 L279 33 Z M207 391 L192 391 L136 96 L268 96 L207 391 Z M200 351 L249 110 L154 111 L200 351 Z " />
<glyph glyph-name="b" unicode="b" horiz-adv-x="348" d="M171 -84 C210 -84 248 -71 279 -44 C313 -16 330 18 330 57 L330 184 C330 207 325 237 298 256 C295 258 291 260 288 261 C289 262 291 263 293 265 C310 280 319 305 319 339 L319 451 C319 492 304 525 274 552 C246 577 210 592 171 592 L23 592 L23 -84 L171 -84 L171 -84 Z M38 577 L171 577 C206 577 239 564 264 541 C291 516 304 486 304 451 L304 339 C304 271 266 267 264 267 L264 266 L264 252 C267 251 269 251 272 250 C278 249 284 246 290 243 C307 232 316 212 316 184 L316 57 C316 22 299 -9 270 -33 C241 -57 208 -69 171 -69 L38 -69 L38 577 Z M171 -8 C190 -8 209 -1 224 10 C243 23 252 38 252 57 L252 173 L252 174 C252 190 239 233 171 233 L170 233 L100 233 L100 -8 L171 -8 L171 -8 Z M115 218 L170 218 L171 218 C196 218 214 212 225 201 C234 192 236 181 237 173 L237 57 C237 34 207 7 171 7 L115 7 L115 218 Z M171 296 C196 296 215 303 227 318 C238 330 240 343 241 354 L241 355 L241 451 C241 469 234 485 219 498 C205 510 189 516 171 516 L100 516 L100 296 L171 296 L171 296 Z M115 501 L171 501 C186 501 198 496 209 487 C220 477 226 465 226 451 L226 355 C225 347 223 336 215 327 C206 316 191 310 171 310 L115 310 L115 501 Z " />
<glyph glyph-name="c" unicode="c" horiz-adv-x="352" d="M182 -89 C215 -89 244 -82 267 -69 C286 -58 301 -43 312 -24 C325 -2 331 23 331 51 L331 59 L238 59 L238 51 C238 46 237 42 236 37 C233 29 230 19 222 11 C213 1 199 -4 182 -4 C159 -4 143 5 134 23 C130 30 129 37 128 42 C127 45 127 48 127 51 L127 453 C127 456 127 459 128 462 C129 467 130 473 134 480 C143 499 159 508 182 508 C199 508 213 503 222 493 C230 485 233 475 236 467 C237 462 238 458 238 453 L238 445 L331 445 L331 453 C331 481 325 506 312 528 C301 547 286 562 267 573 C244 586 215 593 182 593 C149 593 120 586 97 573 C78 562 63 547 53 528 C40 506 34 481 34 453 L34 51 C34 23 40 -2 53 -24 C63 -43 78 -58 97 -69 C120 -82 149 -89 182 -89 L182 -89 Z M182 578 C239 578 278 559 299 521 C308 504 314 483 315 460 L252 460 C251 471 248 488 233 503 C221 516 204 522 182 522 C146 522 129 503 120 487 C116 478 114 471 113 464 C112 461 112 457 112 453 L112 51 C112 50 112 34 120 17 C129 0 146 -19 182 -19 C203 -19 220 -13 233 0 C248 15 251 33 252 44 L315 44 C314 20 308 0 299 -17 C278 -55 239 -74 182 -74 C125 -74 87 -55 66 -17 C55 2 49 25 49 51 L49 453 C49 479 55 502 66 521 C87 559 126 578 182 578 L182 578 Z " />
<glyph glyph-name="d" unicode="d" horiz-adv-x="384" d="M193 -84 C232 -84 269 -71 296 -44 C326 -17 341 16 341 57 L341 451 C341 492 326 525 296 552 C269 577 232 592 193 592 L45 592 L45 -84 L193 -84 L193 -84 Z M60 577 L193 577 C228 577 261 564 286 541 C313 517 327 486 327 451 L327 57 C327 22 313 -8 286 -33 C261 -56 228 -69 193 -69 L60 -69 L60 577 Z M193 -8 C211 -8 227 -2 241 10 C256 23 263 39 263 57 L263 451 C263 469 256 485 241 498 C227 510 211 516 193 516 L123 516 L123 -8 L193 -8 L193 -8 Z M138 501 L193 501 C208 501 221 496 232 487 C243 476 248 464 248 451 L248 57 C248 44 243 32 232 21 C221 12 208 7 193 7 L138 7 L138 501 Z " />
<glyph glyph-name="e" unicode="e" horiz-adv-x="335" d="M306 8 L129 8 L129 151 L223 151 L223 244 L129 244 L129 498 L306 498 L306 591 L37 591 L37 -85 L306 -85 L306 8 Z M52 576 L291 576 L291 513 L114 513 L114 229 L208 229 L208 166 L114 166 L114 -7 L291 -7 L291 -70 L52 -70 L52 576 Z " />
<glyph glyph-name="f" unicode="f" horiz-adv-x="387" d="M161 152 L255 152 L255 245 L161 245 L161 499 L338 499 L338 592 L69 592 L69 -84 L161 -84 L161 152 Z M84 577 L323 577 L323 514 L146 514 L146 230 L240 230 L240 167 L146 167 L146 -69 L84 -69 L84 577 Z " />
<glyph glyph-name="g" unicode="g" horiz-adv-x="389" d="M199 -89 C232 -89 260 -82 283 -69 C302 -59 317 -44 328 -25 C341 -3 347 22 347 51 L347 245 L218 245 L218 153 L254 153 L254 51 C254 48 254 34 247 21 C238 4 222 -4 199 -4 C176 -4 160 5 151 23 C148 29 145 35 144 42 C143 45 143 48 143 51 L143 453 C143 456 143 459 144 462 C145 467 146 473 150 480 C161 499 177 508 199 508 C216 508 230 503 239 493 C247 485 249 475 252 467 C253 462 254 458 254 453 L254 445 L347 445 L347 453 C347 482 341 507 329 528 C318 547 303 562 284 573 C261 586 232 593 199 593 C166 593 137 586 114 573 C95 562 80 547 69 528 C57 507 51 482 51 453 L51 51 C51 24 57 -3 69 -24 C80 -43 95 -58 114 -69 C137 -82 166 -89 199 -89 L199 -89 Z M199 578 C255 578 294 559 315 521 C326 502 331 482 332 460 L269 460 C268 471 265 488 250 503 C238 516 221 522 199 522 C163 522 145 503 137 487 C132 477 130 469 129 464 C128 461 128 457 128 453 L128 51 C128 50 129 34 137 17 C145 0 163 -19 199 -19 C235 -19 252 -1 260 14 C269 30 269 47 269 51 L269 168 L233 168 L233 230 L332 230 L332 51 C332 24 326 1 315 -18 C294 -55 255 -74 199 -74 C143 -74 104 -55 82 -17 C71 3 66 26 66 51 L66 453 C66 478 71 501 82 521 C105 559 144 578 199 578 L199 578 Z " />
<glyph glyph-name="h" unicode="h" horiz-adv-x="409" d="M356 592 L264 592 L264 287 L148 287 L148 592 L56 592 L56 -84 L148 -84 L148 194 L264 194 L264 -84 L356 -84 L356 592 Z M279 209 L133 209 L133 -69 L71 -69 L71 577 L133 577 L133 272 L279 272 L279 577 L341 577 L341 -69 L279 -69 L279 209 Z " />
<glyph glyph-name="i" unicode="i" horiz-adv-x="174" d="M137 593 L45 593 L45 -83 L137 -83 L137 593 Z M60 578 L122 578 L122 -68 L60 -68 L60 578 Z " />
<glyph glyph-name="j" unicode="j" horiz-adv-x="279" d="M93 -84 C126 -84 153 -78 175 -66 C194 -56 209 -42 220 -24 C237 4 241 35 241 56 L241 592 L148 592 L148 56 L148 55 C148 51 148 47 147 43 C146 36 144 26 137 19 C128 9 114 4 97 4 L70 4 L42 4 L35 4 L35 -84 L93 -84 L93 -84 Z M50 -11 L71 -11 L97 -11 C119 -11 136 -4 148 9 C165 28 163 53 163 57 L163 577 L226 577 L226 56 C226 37 223 9 207 -16 C186 -51 148 -69 93 -69 L50 -69 L50 -11 Z " />
<glyph glyph-name="k" unicode="k" horiz-adv-x="428" d="M215 179 L392 590 L292 590 L142 247 L142 590 L49 590 L49 -85 L142 -85 L142 122 L296 -86 L411 -86 L215 179 Z M127 167 L127 -70 L64 -70 L64 575 L127 575 L127 212 L141 209 L302 575 L369 575 L198 177 L382 -71 L303 -71 L127 167 Z " />
<glyph glyph-name="l" unicode="l" horiz-adv-x="286" d="M261 10 L128 10 L128 593 L35 593 L35 -83 L261 -83 L261 10 Z M50 578 L113 578 L113 -5 L246 -5 L246 -68 L50 -68 L50 578 Z " />
<glyph glyph-name="m" unicode="m" horiz-adv-x="514" d="M299 -78 L380 245 L380 -85 L473 -85 L473 590 L382 590 L257 90 L133 583 L133 590 L40 590 L40 -85 L133 -85 L133 229 L216 -86 L297 -86 L299 -78 Z M133 289 L118 287 L118 -70 L55 -70 L55 575 L118 575 L120 575 L250 57 L264 57 L394 575 L458 575 L458 -70 L395 -70 L395 305 L381 307 L286 -71 L282 -71 L228 -71 L133 289 Z " />
<glyph glyph-name="n" unicode="n" horiz-adv-x="387" d="M350 592 L258 592 L258 195 L122 592 L31 592 L31 -84 L124 -84 L124 313 L260 -84 L350 -84 L350 592 Z M123 360 L109 358 L109 -69 L46 -69 L46 577 L111 577 L258 148 L273 150 L273 577 L335 577 L335 -69 L271 -69 L123 360 Z " />
<glyph glyph-name="o" unicode="o" horiz-adv-x="384" d="M202 -88 C235 -88 264 -81 287 -68 C306 -57 320 -42 331 -23 C344 -1 350 24 350 52 L350 454 C350 482 344 507 331 529 C320 548 306 563 287 574 C264 587 235 594 202 594 C168 594 139 587 116 574 C97 563 83 548 72 529 C59 507 53 482 53 454 L53 52 C53 24 59 -1 72 -23 C83 -42 97 -57 116 -68 C139 -81 168 -88 202 -88 L202 -88 Z M202 579 C258 579 297 560 318 522 C329 503 335 480 335 454 L335 52 C335 26 329 3 318 -16 C297 -54 258 -73 202 -73 C145 -73 106 -54 85 -16 C74 3 68 26 68 52 L68 454 C68 480 74 503 85 522 C106 560 145 579 202 579 L202 579 Z M201 -18 C222 -18 239 -12 252 1 C272 22 272 49 272 52 L272 454 C272 457 272 484 252 504 C240 517 223 523 201 523 C165 523 148 504 140 488 C135 479 133 472 132 465 C131 462 131 458 131 454 L131 52 C131 51 131 35 140 18 C148 1 165 -18 201 -18 L201 -18 Z M201 509 C218 509 232 504 242 494 C249 486 252 476 255 468 C256 463 257 459 257 454 L257 52 C257 47 256 43 255 38 C252 30 249 20 242 12 C232 2 218 -3 201 -3 C178 -3 162 6 153 24 C149 31 148 38 147 43 C146 46 146 49 146 52 L146 454 C146 457 146 460 147 463 C148 468 149 475 153 482 C162 500 178 509 201 509 L201 509 Z " />
<glyph glyph-name="p" unicode="p" horiz-adv-x="377" d="M141 -86 L141 195 L196 195 L197 195 C241 195 282 211 310 238 C333 261 345 290 345 322 L345 449 C345 490 331 523 303 550 C275 577 239 590 196 590 L48 590 L48 -86 L141 -86 Z M196 575 C235 575 267 563 293 539 C318 516 330 486 330 449 L330 322 C330 294 320 270 299 249 C274 225 237 210 197 210 L196 210 L126 210 L126 -71 L63 -71 L63 575 L196 575 Z M195 273 L196 273 C221 273 239 280 252 295 C263 308 265 321 266 332 L266 449 C266 467 259 483 245 496 C231 508 215 514 196 514 L126 514 L126 273 L133 273 L195 273 Z M141 499 L196 499 C211 499 224 494 235 485 C246 474 251 462 251 449 L251 333 C250 325 248 314 241 305 C232 294 217 288 196 288 L141 288 L141 499 Z " />
<glyph glyph-name="q" unicode="q" horiz-adv-x="387" d="M263 -73 C294 -60 316 -37 328 -5 C332 8 338 28 338 53 L338 454 C338 483 332 509 319 530 C309 549 294 564 275 575 C252 588 224 594 190 594 C156 594 128 588 105 575 C86 564 71 549 60 530 C48 508 42 483 42 455 L42 53 C42 24 48 0 59 -20 C70 -39 83 -53 99 -64 C121 -78 146 -85 173 -86 L188 -124 L285 -124 L263 -73 Z M184 -72 L179 -72 C127 -69 91 -49 72 -13 C62 6 57 27 57 52 L57 454 L57 455 C57 479 62 503 73 522 C94 560 133 579 190 579 C246 579 285 560 306 522 C317 503 323 480 323 454 L323 53 C323 -27 273 -54 251 -62 L244 -65 L262 -109 L198 -109 L184 -72 Z M190 -17 C212 -17 229 -11 241 2 C260 22 260 50 260 53 L260 454 C260 457 260 485 241 505 C229 518 212 524 190 524 C154 524 136 505 128 489 C120 472 119 455 119 454 L119 53 C119 52 120 35 128 18 C136 2 154 -17 190 -17 L190 -17 Z M134 454 C134 457 134 460 135 463 C136 468 138 476 142 483 C151 500 167 509 190 509 C206 509 219 504 230 495 C246 479 245 455 245 454 L245 53 C245 52 246 29 230 12 C221 3 207 -2 190 -2 C167 -2 151 7 142 25 C138 32 136 39 135 44 C134 47 134 50 134 53 L134 454 Z " />
<glyph glyph-name="r" unicode="r" horiz-adv-x="410" d="M353 183 C353 206 348 235 327 254 C324 257 323 258 320 259 C323 260 324 261 327 264 C344 279 353 304 353 338 L353 450 C353 491 338 524 308 551 C280 576 244 591 205 591 L56 591 L56 -85 L149 -85 L149 217 L204 217 L205 217 C225 217 240 211 249 200 C256 191 259 180 260 172 L260 -85 L353 -85 L353 183 Z M275 172 L274 173 C274 184 272 197 261 210 C248 225 229 232 205 232 L204 232 L134 232 L134 -70 L71 -70 L71 576 L205 576 C240 576 273 563 298 540 C325 515 338 485 338 450 L338 338 C339 270 299 266 298 266 L298 251 C305 250 312 247 318 242 C329 233 338 216 338 183 L338 -70 L275 -70 L275 172 Z M205 295 C230 295 248 302 260 317 C271 329 274 342 274 353 L275 354 L275 450 C275 468 268 484 253 497 C239 509 223 515 205 515 L134 515 L134 295 L205 295 Z M205 500 C219 500 232 495 243 486 C254 476 260 464 260 450 L260 354 C259 346 256 335 249 326 C240 315 225 309 205 309 L149 309 L149 500 L205 500 Z " />
<glyph glyph-name="s" unicode="s" horiz-adv-x="415" d="M204 -88 C237 -88 266 -81 289 -68 C308 -57 323 -42 334 -23 C346 -2 352 23 352 52 L352 168 C352 211 333 238 317 254 C302 269 286 277 283 278 C279 281 256 294 205 297 C158 300 148 320 148 323 L148 454 C148 457 148 460 149 463 C150 470 153 476 156 482 C165 500 181 509 204 509 C221 509 235 504 244 494 C252 486 255 476 258 468 C259 463 260 459 260 454 L260 340 L352 340 L352 454 C352 483 346 508 334 529 C323 548 308 563 289 574 C266 587 237 594 204 594 C171 594 142 587 119 574 C100 563 85 548 74 529 C62 508 56 483 56 454 L56 318 C56 293 66 270 86 250 C101 235 116 229 117 228 C118 227 161 209 204 206 C227 204 244 198 253 189 C260 181 260 174 260 173 L260 52 C260 47 259 43 258 38 C255 30 252 20 244 12 C235 2 221 -3 204 -3 C181 -3 165 6 156 24 C153 30 150 36 149 43 C148 46 148 49 148 52 L148 158 L56 158 L56 52 C56 25 62 -2 74 -23 C85 -42 100 -57 119 -68 C142 -81 171 -88 204 -88 L204 -88 Z M134 143 L134 52 C134 51 134 35 142 18 C150 1 168 -18 204 -18 C225 -18 242 -12 255 1 C275 22 275 49 275 52 L275 173 C275 176 276 187 265 198 C254 211 233 219 204 221 C184 222 164 227 149 232 C140 235 132 238 123 242 C113 247 104 254 97 261 C84 274 71 291 71 318 L71 454 C71 479 76 502 87 522 C110 560 149 579 204 579 C261 579 300 560 321 522 C332 503 337 481 337 454 L337 355 L275 355 L275 454 C275 457 275 484 255 504 C243 517 226 523 204 523 C168 523 150 504 142 488 C138 479 136 472 135 465 C134 462 134 458 134 454 L134 322 L134 321 C134 320 140 286 204 282 C255 279 275 266 275 265 L276 265 L277 265 C280 264 283 263 286 260 C293 256 299 250 307 243 C327 223 337 198 337 168 L337 52 C337 25 332 3 321 -16 C300 -54 261 -73 204 -73 C148 -73 109 -54 87 -16 C76 4 71 27 71 52 L71 143 L134 143 Z " />
<glyph glyph-name="t" unicode="t" horiz-adv-x="379" d="M235 498 L339 498 L339 591 L38 591 L38 498 L142 498 L142 -85 L235 -85 L235 498 Z M157 513 L53 513 L53 576 L324 576 L324 513 L220 513 L220 -70 L157 -70 L157 513 Z " />
<glyph glyph-name="u" unicode="u" horiz-adv-x="386" d="M202 -86 C236 -86 264 -80 287 -67 C306 -56 320 -41 331 -22 C344 1 350 27 350 54 L350 592 L258 592 L257 54 C257 53 257 29 242 13 C231 4 218 -1 202 -1 C179 -1 163 8 153 25 C149 32 148 38 147 45 C146 48 146 51 146 54 L147 592 L53 592 L53 53 C53 26 59 1 72 -22 C83 -41 98 -56 117 -67 C138 -80 167 -86 202 -86 L202 -86 Z M132 577 L131 54 C131 53 131 36 140 19 C148 3 165 -16 202 -16 C223 -16 240 -10 253 3 C272 23 272 51 272 54 L273 577 L335 577 L335 54 C335 28 329 5 318 -14 C297 -52 258 -71 202 -71 C145 -71 106 -52 85 -14 C74 5 68 28 68 53 L68 54 L68 577 L132 577 Z " />
<glyph glyph-name="v" unicode="v" horiz-adv-x="388" d="M371 592 L276 592 L199 186 L123 592 L27 592 L151 -84 L247 -84 L371 592 Z M45 577 L111 577 L192 144 L207 144 L288 577 L354 577 L235 -69 L163 -69 L45 577 Z " />
<glyph glyph-name="w" unicode="w" horiz-adv-x="628" d="M606 591 L510 591 L434 185 L358 591 L265 591 L188 185 L112 591 L16 591 L140 -85 L236 -85 L311 322 L386 -85 L482 -85 L606 591 Z M318 365 L304 365 L224 -70 L153 -70 L34 576 L99 576 L181 143 L196 143 L277 576 L345 576 L427 143 L441 143 L523 576 L588 576 L470 -70 L398 -70 L318 365 Z " />
<glyph glyph-name="x" unicode="x" horiz-adv-x="418" d="M255 254 L394 592 L299 592 L208 369 L116 592 L22 592 L161 254 L22 -84 L115 -84 L208 140 L300 -84 L394 -84 L255 254 Z M208 179 L105 -69 L44 -69 L177 254 L44 577 L106 577 L208 330 L309 577 L371 577 L239 254 L371 -69 L310 -69 L208 179 Z " />
<glyph glyph-name="y" unicode="y" horiz-adv-x="436" d="M261 196 L415 592 L313 592 L214 324 L115 592 L14 592 L168 196 L168 -84 L260 -84 L261 196 Z M183 199 L36 577 L105 577 L214 281 L324 577 L393 577 L246 199 L245 -69 L183 -69 L183 199 Z " />
<glyph glyph-name="z" unicode="z" horiz-adv-x="470" d="M416 7 L172 7 L416 503 L416 590 L57 590 L57 497 L301 497 L58 2 L57 1 L57 -86 L416 -86 L416 7 Z M72 -3 L324 512 L72 512 L72 575 L401 575 L401 507 L148 -8 L401 -8 L401 -71 L72 -71 L72 -3 Z " />
<glyph glyph-name="braceleft" unicode="&#x7b;" horiz-adv-x="277" d="M244 -159 L251 -159 L251 -72 L211 -72 C198 -72 189 -72 182 -69 C179 -66 175 -63 175 -47 L175 198 C174 229 161 246 150 257 C146 260 143 262 142 263 C152 267 160 275 166 286 C171 296 174 309 175 326 L175 551 C175 568 179 571 184 574 C191 578 201 578 216 578 L251 578 L251 666 L191 666 C151 666 123 655 106 632 C91 613 84 585 84 546 L84 337 C84 331 82 327 78 324 C67 313 41 313 30 313 L22 314 L22 216 L29 216 C66 215 84 206 84 191 L84 -55 C84 -85 91 -109 106 -126 C124 -148 152 -159 191 -159 L203 -159 L225 -159 L244 -159 Z M37 298 C50 298 74 300 89 313 C96 320 99 328 99 337 L99 546 C99 581 105 607 118 623 C133 642 157 651 191 651 L236 651 L236 593 L216 593 C200 593 188 593 177 588 C162 580 160 563 160 551 L160 326 C159 294 146 276 121 272 L120 258 C121 258 161 244 160 197 L160 -47 C160 -59 162 -75 174 -82 C183 -87 195 -87 211 -87 L236 -87 L236 -144 L203 -144 L191 -144 C157 -144 133 -135 118 -116 C105 -101 99 -81 99 -55 L99 191 C99 200 95 213 79 221 C68 226 56 230 37 230 L37 298 Z " />
<glyph glyph-name="bar" unicode="&#x7c;" horiz-adv-x="143" d="M119 -112 L119 619 L26 619 L26 -112 L119 -112 L119 -112 Z M41 -97 L41 604 L104 604 L104 -97 L41 -97 L41 -97 Z " />
<glyph glyph-name="braceright" unicode="&#x7d;" horiz-adv-x="283" d="M79 -160 L91 -160 C130 -160 158 -149 176 -127 C191 -110 198 -86 198 -56 L198 190 C198 206 216 214 253 215 L260 215 L260 313 L252 312 C241 312 215 312 204 323 C200 326 198 330 198 336 L198 545 C198 584 191 612 176 631 C159 654 131 665 91 665 L31 665 L31 577 L66 577 C81 577 91 577 98 573 C103 570 107 567 107 550 L107 325 C107 308 110 295 116 285 C122 274 130 266 140 262 C137 259 135 259 132 256 C121 245 108 228 107 197 L107 -48 C107 -64 103 -67 100 -70 C95 -73 84 -73 71 -73 L31 -73 L31 -160 L38 -160 L57 -160 L79 -160 Z M46 -88 L71 -88 C87 -88 98 -88 107 -83 C122 -76 122 -60 122 -48 L122 196 C121 243 161 257 162 257 L161 271 C136 275 123 293 122 325 L122 550 C122 562 120 579 105 587 C94 592 82 592 66 592 L46 592 L46 650 L91 650 C125 650 149 641 164 622 C177 606 183 580 183 545 L183 336 C183 327 186 319 193 312 C208 299 232 297 245 297 L245 229 C226 229 214 225 203 220 C187 212 183 199 183 190 L183 -56 C183 -82 177 -102 164 -117 C149 -136 125 -145 91 -145 L78 -145 L46 -145 L46 -88 Z " />
<glyph glyph-name="asciitilde" unicode="&#x7e;" horiz-adv-x="382" d="M85 233 C86 233 113 265 140 265 C156 266 168 260 181 253 C198 245 216 234 245 237 C264 237 288 248 315 271 C335 287 349 302 350 303 L355 308 L296 367 L290 362 C282 353 259 330 240 330 C224 329 209 335 194 342 C175 350 157 359 132 358 C86 358 30 298 28 296 L23 291 L80 226 L85 233 Z M44 290 C57 303 99 343 132 343 L133 343 C154 343 171 336 188 328 C204 321 221 314 241 315 C262 315 285 335 296 346 L334 308 C315 289 273 252 245 252 C220 251 204 259 188 267 C173 274 159 281 140 280 C115 279 91 259 80 248 L44 290 L44 290 Z " />
<glyph glyph-name="cent" unicode="&#xa2;" horiz-adv-x="234" d="M148 -18 C184 -12 209 6 223 37 C230 54 234 71 234 90 L234 98 L165 98 L158 98 L158 90 C158 89 159 74 148 62 L148 435 C153 428 156 421 157 416 C158 413 158 410 158 407 L158 399 L234 399 L234 407 C234 426 230 443 223 460 C209 489 184 508 148 515 L148 546 L82 546 L82 515 C47 508 22 490 9 459 C1 444 -3 426 -3 407 L-3 90 C-3 71 1 53 9 37 C22 8 47 -11 82 -18 L82 -43 L148 -43 L148 -18 Z M97 -6 L91 -4 C58 1 35 17 22 44 C15 59 12 74 12 90 L12 407 C12 423 15 438 22 453 C35 480 58 496 91 501 L97 502 L97 531 L133 531 L133 502 L140 501 C173 496 196 481 209 454 C214 442 218 429 219 414 L172 414 C171 425 165 446 144 457 L133 462 L133 34 L144 40 C165 51 171 71 172 83 L219 83 C218 68 214 55 209 43 C196 16 173 0 140 -5 L133 -6 L133 -28 L97 -28 L97 -6 Z M97 462 L86 456 C59 441 59 408 59 407 L59 90 C59 89 59 56 86 41 L97 35 L97 462 Z M73 406 C73 407 74 421 82 433 L82 64 C77 71 75 76 74 81 C73 84 73 87 73 90 L73 406 Z " />
<glyph glyph-name="sterling" unicode="&#xa3;" horiz-adv-x="361" d="M343 -6 L140 -6 L140 210 L265 210 L265 293 L140 293 L140 452 C140 455 140 458 141 461 C142 466 143 474 147 481 C156 498 172 507 195 507 C212 507 226 502 235 493 C251 477 251 453 251 452 L251 399 L343 399 L343 452 C343 481 337 506 325 528 C314 547 299 562 280 573 C257 586 229 592 195 592 C148 592 111 579 85 553 C50 518 47 471 47 453 L47 293 L25 293 L25 210 L47 210 L48 -6 L25 -6 L25 -89 L343 -89 L343 -6 Z M40 -21 L63 -21 L62 225 L40 225 L40 278 L62 278 L62 452 L62 453 C62 470 66 511 95 543 C118 566 151 577 195 577 C252 577 291 558 312 520 C323 501 328 479 328 452 L328 414 L265 414 L265 452 C266 455 266 483 246 503 C234 516 217 522 195 522 C159 522 141 503 133 487 C125 470 125 453 125 452 L125 278 L250 278 L250 225 L125 225 L126 -21 L328 -21 L328 -74 L40 -74 L40 -21 Z " />
<glyph glyph-name="Agrave" unicode="&#xc0;" horiz-adv-x="398" d="M383 -85 L241 591 L157 591 L20 -85 L115 -85 L135 17 L266 17 L287 -85 L383 -85 L383 -85 Z M300 -70 L279 32 L122 32 L103 -70 L38 -70 L169 576 L229 576 L364 -70 L300 -70 L300 -70 Z M267 94 L206 390 L191 390 L136 94 L267 94 L267 94 Z M154 109 L199 350 L249 109 L154 109 L154 109 Z M239 600 L172 709 L73 709 L166 600 L239 600 L239 600 Z M173 615 L106 694 L164 694 L212 615 L173 615 L173 615 Z " />
<glyph glyph-name="Aacute" unicode="&#xc1;" horiz-adv-x="398" d="M382 -82 L241 594 L157 594 L20 -82 L115 -82 L135 20 L266 20 L287 -82 L382 -82 L382 -82 Z M299 -67 L278 35 L122 35 L103 -67 L38 -67 L169 579 L229 579 L364 -67 L299 -67 L299 -67 Z M267 97 L206 393 L191 393 L135 97 L267 97 L267 97 Z M153 112 L199 353 L249 112 L153 112 L153 112 Z M227 603 L320 712 L221 712 L155 603 L227 603 L227 603 Z M181 618 L230 697 L288 697 L220 618 L181 618 L181 618 Z " />
<glyph glyph-name="Acircumflex" unicode="&#xc2;" horiz-adv-x="398" d="M379 -86 L238 590 L154 590 L17 -86 L112 -86 L132 16 L263 16 L284 -86 L379 -86 L379 -86 Z M297 -71 L275 31 L119 31 L100 -71 L36 -71 L166 575 L226 575 L361 -71 L297 -71 L297 -71 Z M264 93 L203 389 L188 389 L132 93 L264 93 L264 93 Z M151 108 L196 349 L246 108 L151 108 L151 108 Z M226 595 L306 596 L241 712 L153 712 L86 596 L166 596 L196 656 L226 595 L226 595 Z M196 690 L157 611 L112 611 L161 697 L233 697 L281 610 L236 610 L196 690 L196 690 Z " />
<glyph glyph-name="Atilde" unicode="&#xc3;" horiz-adv-x="398" d="M237 593 L153 593 L16 -83 L112 -83 L131 19 L263 19 L284 -83 L379 -83 L237 593 Z M275 34 L118 34 L99 -68 L35 -68 L165 578 L225 578 L360 -68 L296 -68 L275 34 Z M202 392 L188 392 L132 96 L263 96 L202 392 Z M195 352 L245 111 L150 111 L195 352 Z M131 607 C136 614 151 627 166 628 C175 628 183 624 191 620 C203 613 215 608 235 609 C265 609 301 649 306 654 L311 659 L268 702 L263 696 C256 688 241 676 232 675 C221 675 213 679 202 684 C190 689 177 695 160 695 C128 695 91 654 89 652 L84 647 L125 600 L131 607 Z M105 647 C117 659 141 680 160 680 L161 680 C174 680 184 675 196 670 C207 665 219 660 232 661 C247 661 261 673 268 680 L290 659 C277 646 251 624 234 624 C219 623 209 627 198 634 C189 638 180 643 165 643 C149 642 134 631 126 623 L105 647 L105 647 Z " />
<glyph glyph-name="Adieresis" unicode="&#xc4;" horiz-adv-x="398" d="M192 608 L192 694 L109 694 L109 608 L192 608 L192 608 Z M124 623 L124 679 L177 679 L177 623 L124 623 L124 623 Z M288 608 L288 694 L205 694 L205 608 L288 608 L288 608 Z M219 623 L219 679 L273 679 L273 623 L219 623 L219 623 Z M380 -84 L238 592 L154 592 L17 -84 L112 -84 L132 18 L264 18 L284 -84 L380 -84 L380 -84 Z M297 -69 L276 33 L119 33 L100 -69 L36 -69 L166 577 L226 577 L361 -69 L297 -69 L297 -69 Z M264 96 L203 392 L189 392 L133 96 L264 96 L264 96 Z M151 111 L196 351 L246 111 L151 111 L151 111 Z " />
<glyph glyph-name="Aring" unicode="&#xc5;" horiz-adv-x="398" d="M245 577 C266 592 280 615 280 642 C280 685 245 720 202 720 C159 720 124 685 124 642 C124 615 134 595 155 580 L21 -84 L116 -84 L135 18 L267 18 L288 -84 L383 -84 L245 577 Z M279 33 L123 33 L103 -69 L39 -69 L171 586 L167 589 C148 602 139 619 139 642 C139 677 167 705 202 705 C237 705 265 677 265 642 C265 619 252 598 233 587 L228 584 L364 -69 L300 -69 L279 33 Z M207 391 L192 391 L136 95 L268 95 L207 391 Z M199 351 L249 110 L154 110 L199 351 Z M202 586 C233 586 257 611 257 642 C257 673 233 697 202 697 C171 697 146 673 146 642 C146 611 171 586 202 586 L202 586 Z M202 683 C225 683 242 665 242 642 C242 619 225 601 202 601 C179 601 161 619 161 642 C161 665 179 683 202 683 L202 683 Z " />
<glyph glyph-name="AE" unicode="&#xc6;" horiz-adv-x="474" d="M103 -84 L122 18 L179 18 L179 -84 L448 -84 L448 9 L272 9 L272 152 L366 152 L366 245 L272 245 L272 499 L448 499 L448 592 L145 592 L8 -84 L103 -84 L103 -84 Z M26 -69 L157 577 L433 577 L433 514 L257 514 L257 230 L351 230 L351 167 L257 167 L257 -6 L433 -6 L433 -69 L194 -69 L194 33 L110 33 L91 -69 L26 -69 L26 -69 Z M194 95 L194 390 L179 391 L123 95 L194 95 L194 95 Z M141 110 L179 310 L179 110 L141 110 L141 110 Z " />
<glyph glyph-name="Ccedilla" unicode="&#xc7;" horiz-adv-x="329" d="M144 -207 C200 -204 220 -177 228 -161 C237 -141 237 -118 226 -105 C218 -96 211 -90 204 -85 C224 -80 242 -73 257 -62 C272 -51 285 -37 294 -18 C301 -3 310 20 310 51 L310 59 L217 59 L217 51 C217 46 216 42 215 37 C212 29 209 19 202 11 C191 2 178 -3 161 -3 C138 -3 122 6 113 23 C109 30 108 37 107 42 C106 45 106 48 106 51 L106 453 C106 456 106 459 107 462 C108 467 109 474 113 481 C122 499 138 508 161 508 C178 508 192 503 202 493 C217 478 217 454 217 453 L217 445 L310 445 L310 453 C310 480 304 506 291 529 C280 548 266 562 247 573 C224 586 195 593 162 593 C128 593 99 586 76 573 C57 563 43 548 32 529 C19 506 13 480 13 453 L13 51 C13 25 19 1 30 -20 C39 -39 52 -53 69 -64 C88 -77 111 -85 138 -87 C141 -91 140 -94 143 -97 C151 -106 161 -112 170 -117 C182 -124 188 -130 188 -135 C188 -150 181 -159 144 -163 L138 -163 L136 -207 L144 -207 Z M152 -177 C177 -173 203 -166 203 -135 C203 -120 190 -112 178 -104 C168 -99 160 -94 155 -87 C154 -86 153 -83 151 -78 L150 -73 L145 -73 C95 -69 61 -49 43 -13 C34 6 28 28 28 51 L28 453 C28 479 34 502 45 521 C66 559 105 578 162 578 C218 578 257 559 278 521 C288 504 294 484 295 461 L232 461 C231 472 227 489 212 504 C200 517 183 523 161 523 C125 523 108 504 100 488 C91 471 91 454 91 453 L91 51 C91 47 91 43 92 40 C93 33 95 25 100 17 C108 1 125 -18 161 -18 C183 -18 200 -12 212 1 C227 16 231 33 232 44 L295 44 C292 19 288 0 281 -12 C262 -48 230 -68 184 -72 L167 -74 L180 -85 C183 -88 186 -90 190 -93 C197 -98 206 -104 214 -115 C221 -122 222 -138 215 -154 C208 -167 193 -188 152 -192 L152 -177 L152 -177 Z " />
<glyph glyph-name="Egrave" unicode="&#xc8;" horiz-adv-x="327" d="M301 -87 L301 5 L125 5 L125 149 L219 149 L219 241 L125 241 L125 496 L301 496 L301 588 L32 588 L32 -87 L301 -87 L301 -87 Z M47 -72 L47 573 L286 573 L286 511 L110 511 L110 226 L204 226 L204 164 L110 164 L110 -10 L286 -10 L286 -72 L47 -72 L47 -72 Z M204 604 L138 712 L39 712 L132 604 L204 604 L204 604 Z M139 619 L72 697 L130 697 L178 619 L139 619 L139 619 Z " />
<glyph glyph-name="Eacute" unicode="&#xc9;" horiz-adv-x="359" d="M325 -82 L325 10 L149 10 L149 154 L243 154 L243 246 L149 246 L149 501 L325 501 L325 593 L56 593 L56 -82 L325 -82 L325 -82 Z M71 -67 L71 578 L310 578 L310 516 L134 516 L134 231 L228 231 L228 169 L134 169 L134 -5 L310 -5 L310 -67 L71 -67 L71 -67 Z M217 609 L310 717 L211 717 L145 609 L217 609 L217 609 Z M171 624 L220 702 L278 702 L210 624 L171 624 L171 624 Z " />
<glyph glyph-name="Ecircumflex" unicode="&#xca;" horiz-adv-x="359" d="M316 -82 L316 10 L139 10 L139 154 L233 154 L233 247 L139 247 L139 501 L316 501 L316 593 L47 593 L47 -82 L316 -82 L316 -82 Z M62 -67 L62 578 L301 578 L301 516 L124 516 L124 231 L218 231 L218 169 L124 169 L124 -5 L301 -5 L301 -67 L62 -67 L62 -67 Z M209 605 L290 605 L225 721 L136 721 L69 606 L150 606 L179 666 L209 605 L209 605 Z M180 700 L140 621 L95 621 L145 706 L216 706 L264 620 L219 620 L180 700 L180 700 Z " />
<glyph glyph-name="Edieresis" unicode="&#xcb;" horiz-adv-x="359" d="M316 -86 L316 6 L139 6 L139 150 L233 150 L233 243 L139 243 L139 497 L316 497 L316 589 L47 589 L47 -86 L316 -86 L316 -86 Z M62 -71 L62 575 L301 575 L301 512 L124 512 L124 227 L218 227 L218 165 L124 165 L124 -8 L301 -8 L301 -71 L62 -71 L62 -71 Z M175 616 L175 702 L92 702 L92 616 L175 616 L175 616 Z M107 631 L107 687 L160 687 L160 631 L107 631 L107 631 Z M266 616 L266 702 L182 702 L182 616 L266 616 L266 616 Z M197 631 L197 687 L250 687 L250 631 L197 631 L197 631 Z " />
<glyph glyph-name="Igrave" unicode="&#xcc;" horiz-adv-x="188" d="M142 -84 L142 591 L50 591 L50 -84 L142 -84 L142 -84 Z M64 -69 L64 576 L127 576 L127 -69 L64 -69 L64 -69 Z M142 614 L76 723 L-23 723 L70 614 L142 614 L142 614 Z M76 629 L9 708 L67 708 L116 629 L76 629 L76 629 Z " />
<glyph glyph-name="Iacute" unicode="&#xcd;" horiz-adv-x="179" d="M135 -84 L135 591 L43 591 L43 -84 L135 -84 L135 -84 Z M57 -69 L57 576 L120 576 L120 -69 L57 -69 L57 -69 Z M115 614 L208 722 L109 722 L43 614 L115 614 L115 614 Z M69 629 L117 707 L176 707 L108 629 L69 629 L69 629 Z " />
<glyph glyph-name="Icircumflex" unicode="&#xce;" horiz-adv-x="214" d="M154 -84 L154 591 L62 591 L62 -84 L154 -84 L154 -84 Z M76 -69 L76 576 L139 576 L139 -69 L76 -69 L76 -69 Z M138 610 L218 610 L153 726 L64 726 L-2 611 L78 611 L108 671 L138 610 L138 610 Z M108 705 L69 626 L23 626 L73 711 L144 711 L192 625 L147 625 L108 705 L108 705 Z " />
<glyph glyph-name="Idieresis" unicode="&#xcf;" horiz-adv-x="212" d="M150 -84 L150 592 L57 592 L57 -84 L150 -84 L150 -84 Z M72 -69 L72 576 L135 576 L135 -69 L72 -69 L72 -69 Z M99 625 L99 712 L16 712 L16 625 L99 625 L99 625 Z M32 641 L32 697 L85 697 L85 641 L32 641 L32 641 Z M190 625 L190 712 L107 712 L107 625 L190 625 L190 625 Z M122 641 L122 697 L175 697 L175 641 L122 641 L122 641 Z " />
<glyph glyph-name="Eth" unicode="&#xd0;" horiz-adv-x="398" d="M225 -83 C262 -83 300 -68 328 -43 C356 -16 373 20 373 59 L373 453 C373 492 356 527 328 554 C300 579 262 594 225 594 L76 594 L76 291 L18 291 L18 210 L76 210 L76 -83 L225 -83 L225 -83 Z M91 225 L33 225 L33 276 L91 276 L91 579 L225 579 C258 579 292 566 317 543 C344 519 358 488 358 453 L358 59 C358 23 344 -7 317 -31 C292 -54 258 -67 225 -67 L91 -67 L91 225 Z M225 -6 C244 -6 260 0 273 12 C287 24 294 40 294 59 L294 453 C294 472 287 487 273 499 C259 512 243 518 225 518 L154 518 L154 276 L217 276 L217 225 L154 225 L154 -6 L225 -6 L225 -6 Z M169 210 L232 210 L232 291 L169 291 L169 503 L225 503 C238 503 251 498 263 488 C274 479 279 467 279 453 L279 59 C279 44 274 32 263 23 C252 14 239 9 225 9 L169 9 L169 210 Z " />
<glyph glyph-name="Ntilde" unicode="&#xd1;" horiz-adv-x="389" d="M362 590 L269 590 L269 194 L134 590 L43 590 L43 -85 L136 -85 L136 311 L272 -85 L362 -85 L362 590 Z M135 359 L121 357 L121 -70 L58 -70 L58 575 L123 575 L270 147 L284 149 L284 575 L347 575 L347 -70 L282 -70 L135 359 Z M136 605 C141 612 156 625 171 626 C179 626 187 623 196 618 C208 613 220 606 240 607 C270 607 306 647 311 652 L316 657 L273 700 L268 694 L265 691 C262 688 260 687 257 684 C248 677 242 674 237 674 C226 673 218 677 207 682 C195 687 182 693 165 693 C133 693 96 652 94 650 L89 645 L130 599 L136 605 Z M110 645 C122 657 146 678 165 678 C180 678 189 673 201 668 C212 663 222 658 237 659 C252 659 266 671 273 678 L295 657 C282 644 258 623 239 622 C223 621 214 627 203 632 C194 636 185 641 170 641 C154 640 139 628 130 621 L110 645 L110 645 Z " />
<glyph glyph-name="Ograve" unicode="&#xd2;" horiz-adv-x="393" d="M199 -89 C234 -89 262 -82 284 -69 C303 -59 317 -44 328 -24 C341 -2 347 23 347 51 L347 452 C347 479 341 505 328 528 C317 547 303 562 284 573 C261 586 233 592 199 592 C164 592 136 586 113 573 C94 562 80 547 69 528 C56 506 50 481 50 453 L50 51 C50 23 56 -2 69 -24 C80 -44 94 -58 113 -69 C135 -82 164 -89 199 -89 L199 -89 Z M199 577 C255 577 294 558 315 520 C326 501 332 478 332 452 L332 51 C332 25 326 2 315 -17 C294 -55 255 -74 199 -74 C142 -74 103 -55 82 -17 C71 2 65 25 65 51 L65 453 C65 478 71 501 82 520 C103 558 142 577 199 577 L199 577 Z M199 -19 C220 -19 237 -13 249 0 C269 20 269 48 269 51 L269 452 C269 455 269 483 249 503 C237 516 220 522 199 522 C162 522 145 503 137 487 C128 470 128 453 128 452 L128 51 C128 50 128 33 137 16 C145 0 162 -19 199 -19 L199 -19 Z M199 507 C215 507 228 502 239 493 C246 485 249 475 252 467 C253 462 254 458 254 453 L254 51 C254 46 253 42 252 37 C249 29 246 19 239 11 C229 1 216 -4 199 -4 C175 -4 159 5 150 23 C146 30 145 37 144 42 C143 45 143 48 143 51 L143 452 C143 453 143 465 150 480 C159 498 175 507 199 507 L199 507 Z M199 708 L100 708 L193 599 L266 599 L199 708 Z M133 692 L191 692 L239 614 L200 614 L133 692 Z " />
<glyph glyph-name="Oacute" unicode="&#xd3;" horiz-adv-x="385" d="M201 -88 C236 -88 264 -81 286 -68 C305 -58 320 -43 330 -23 C343 -1 349 24 349 52 L349 453 C349 480 343 506 330 529 C320 548 305 563 286 574 C263 587 235 593 201 593 C167 593 139 587 116 574 C97 563 82 548 71 529 C59 508 53 483 53 454 L53 52 C53 23 59 -2 71 -23 C82 -43 97 -58 116 -68 C138 -81 166 -88 201 -88 L201 -88 Z M201 578 C257 578 296 559 317 521 C328 502 334 479 334 453 L334 52 C334 26 328 3 317 -16 C296 -54 257 -73 201 -73 C144 -73 105 -54 84 -16 C73 3 68 25 68 52 L68 454 C68 478 73 502 84 521 C105 559 144 578 201 578 L201 578 Z M201 -18 C222 -18 239 -12 252 1 C271 21 271 49 271 52 L271 453 C271 456 271 484 252 504 C239 517 222 523 201 523 C164 523 147 504 139 488 C130 471 130 454 130 453 L130 52 C130 51 130 34 139 17 C147 1 164 -18 201 -18 L201 -18 Z M201 508 C218 508 232 503 241 494 C249 486 251 476 254 468 C255 463 256 459 256 454 L256 52 C256 47 255 43 254 38 C251 30 249 20 241 12 C232 2 218 -3 201 -3 C178 -3 162 6 153 24 C149 31 147 38 146 43 C145 46 145 49 145 52 L145 453 C145 454 145 466 152 481 C161 499 177 508 201 508 L201 508 Z M323 709 L224 709 L158 600 L230 600 L323 709 Z M233 693 L290 693 L223 615 L184 615 L233 693 Z " />
<glyph glyph-name="Ocircumflex" unicode="&#xd4;" horiz-adv-x="399" d="M203 -88 C236 -88 265 -81 288 -68 C307 -57 322 -42 333 -23 C345 -2 351 23 351 52 L351 453 C351 482 345 507 333 529 C322 548 307 563 288 574 C265 587 236 594 203 594 C170 594 141 587 118 574 C99 563 84 548 73 529 C61 508 55 483 55 454 L55 52 C55 25 61 -2 73 -23 C84 -42 99 -57 118 -68 C141 -81 170 -88 203 -88 L203 -88 Z M203 578 C259 578 298 559 319 522 C330 501 336 478 336 453 L336 52 C336 26 330 3 319 -16 C298 -54 259 -73 203 -73 C146 -73 107 -54 86 -16 C75 3 70 25 70 52 L70 454 C70 478 75 503 86 522 C107 559 146 578 203 578 L203 578 Z M203 -18 C223 -18 240 -12 254 1 C273 21 273 49 273 52 L273 453 C273 456 273 484 254 504 C241 517 224 523 203 523 C166 523 149 504 141 488 C132 471 132 454 132 453 L132 52 C132 51 132 34 141 18 C149 1 166 -18 203 -18 L203 -18 Z M203 508 C220 508 234 503 243 494 C251 486 253 476 256 468 C257 463 258 459 258 454 L258 52 C259 52 259 28 243 12 C234 2 220 -3 203 -3 C180 -3 164 6 155 24 C152 30 149 36 148 43 C147 46 147 49 147 52 L147 453 C147 454 147 466 154 481 C164 499 180 508 203 508 L203 508 Z M313 596 L248 713 L159 713 L93 597 L173 597 L203 657 L233 596 L313 596 Z M164 612 L118 612 L168 697 L239 697 L287 611 L242 611 L203 691 L164 612 Z " />
<glyph glyph-name="Otilde" unicode="&#xd5;" horiz-adv-x="384" d="M192 -87 C227 -87 255 -80 277 -67 C296 -57 311 -42 321 -22 C334 -1 340 24 340 53 L340 454 C340 483 334 509 321 530 C311 549 296 564 277 575 C254 588 226 594 192 594 C158 594 130 588 107 575 C88 564 73 549 62 530 C50 509 44 484 44 455 L44 53 C44 24 50 -1 62 -22 C73 -42 88 -57 107 -67 C129 -80 157 -87 192 -87 L192 -87 Z M192 579 C248 579 287 560 308 522 C319 503 325 480 325 454 L325 53 C325 27 319 4 308 -15 C287 -53 248 -72 192 -72 C135 -72 96 -53 75 -15 C64 4 59 26 59 53 L59 455 C59 479 64 503 75 522 C96 560 135 579 192 579 L192 579 Z M192 -17 C213 -17 230 -11 243 2 C262 22 262 50 262 53 L262 454 C262 457 262 485 243 505 C230 518 213 524 192 524 C155 524 138 505 130 489 C121 472 121 455 121 454 L121 53 C121 52 121 35 130 18 C138 2 155 -17 192 -17 L192 -17 Z M192 509 C208 509 221 504 232 495 C239 487 242 477 245 469 C246 464 247 460 247 455 L247 53 C247 48 246 44 245 39 C242 31 240 21 232 13 C222 3 209 -2 192 -2 C169 -2 153 7 144 25 C140 32 138 39 137 44 C136 47 136 50 136 53 L136 454 C136 455 136 467 143 482 C153 500 169 509 192 509 L192 509 Z M125 606 C130 611 145 626 160 626 C171 627 177 623 186 619 C197 612 210 607 229 608 C259 608 295 647 300 652 L305 658 L262 700 L257 695 C256 694 255 692 254 691 C251 688 249 687 246 684 C237 677 231 674 226 674 C215 674 207 678 196 683 C184 688 171 693 155 693 C123 693 85 653 83 651 L79 646 L114 606 L119 599 L125 606 Z M99 646 C112 658 136 678 155 678 C168 678 179 674 190 669 C201 664 213 659 226 659 C241 660 255 672 263 679 L284 657 C271 645 246 623 229 623 C213 622 203 627 192 632 C183 637 174 642 159 642 C143 641 128 629 120 622 L99 646 L99 646 Z " />
<glyph glyph-name="Odieresis" unicode="&#xd6;" horiz-adv-x="399" d="M206 -88 C240 -88 268 -81 291 -68 C310 -57 325 -42 336 -23 C349 -1 355 24 355 52 L355 453 C355 480 349 506 336 529 C325 548 310 563 291 574 C268 587 240 594 206 594 C173 594 144 587 121 574 C102 563 87 548 77 529 C64 507 58 482 58 454 L58 52 C58 24 64 -1 77 -23 C88 -43 102 -58 121 -68 C144 -81 173 -88 206 -88 L206 -88 Z M206 578 C263 578 302 559 323 522 C334 503 339 480 339 453 L339 52 C339 25 334 3 323 -16 C302 -54 263 -73 206 -73 C149 -73 111 -54 90 -16 C79 3 73 26 73 52 L73 454 C73 478 79 503 90 522 C111 559 150 578 206 578 L206 578 Z M206 -18 C227 -18 244 -12 257 1 C277 21 277 49 277 52 L277 453 C277 456 277 484 257 504 C245 517 228 523 206 523 C170 523 153 504 145 488 C136 471 136 454 136 453 L136 52 C136 51 136 34 145 18 C153 1 170 -18 206 -18 L206 -18 Z M206 508 C223 508 237 503 246 494 C254 486 257 476 260 468 C261 463 262 459 262 454 L262 52 C262 47 261 43 260 38 C257 30 254 19 246 12 C237 2 223 -3 206 -3 C183 -3 167 6 158 24 C154 31 153 38 152 43 C151 46 151 49 151 52 L151 453 C151 454 151 466 158 481 C167 499 183 508 206 508 L206 508 Z M201 697 L118 697 L118 611 L201 611 L201 697 Z M133 683 L186 683 L186 626 L133 626 L133 683 Z M293 697 L211 697 L211 611 L293 611 L293 697 Z M225 683 L278 683 L278 626 L225 626 L225 683 Z " />
<glyph glyph-name="Oslash" unicode="&#xd8;" horiz-adv-x="371" d="M113 -74 C132 -83 156 -87 185 -87 C220 -87 248 -80 270 -67 C289 -57 304 -42 315 -22 C327 -1 333 24 333 53 L333 454 C333 485 326 512 312 534 L339 617 L278 617 L265 577 C245 588 218 594 185 594 C151 594 123 588 100 575 C81 564 66 549 55 530 C43 509 37 484 37 455 L37 53 C37 33 41 -5 65 -37 L41 -110 L101 -110 L113 -74 Z M82 -33 L79 -30 C55 -2 52 34 52 53 L52 455 C52 480 58 503 69 522 C90 560 128 579 185 579 C218 579 245 573 266 560 L274 555 L289 602 L318 602 L296 532 L298 529 C311 508 318 483 318 454 L318 53 C318 26 313 4 302 -15 C280 -53 241 -72 185 -72 C156 -72 132 -67 112 -57 L104 -53 L90 -95 L61 -94 L82 -33 Z M185 -17 C207 -17 224 -11 236 2 C256 22 256 50 256 53 L256 364 L241 366 L126 14 L128 11 C141 -8 160 -17 185 -17 L185 -17 Z M241 317 L241 53 C241 48 240 43 239 38 C236 30 233 20 225 12 C216 3 202 -2 185 -2 C166 -2 152 4 142 16 L241 317 Z M250 482 L249 485 C242 504 225 524 185 524 C149 524 132 505 123 489 C115 472 115 455 115 454 L115 115 L129 113 L250 482 Z M185 509 C210 509 226 500 234 482 L130 162 L130 454 C130 455 130 467 137 482 C146 500 162 509 185 509 L185 509 Z " />
<glyph glyph-name="Ugrave" unicode="&#xd9;" horiz-adv-x="376" d="M191 -87 C224 -87 253 -80 276 -67 C295 -56 310 -41 321 -22 C333 -1 339 24 339 53 L339 591 L247 591 L246 53 C246 48 245 44 244 39 C241 31 239 21 231 13 C222 3 208 -2 191 -2 C168 -2 152 7 142 25 C138 32 137 39 136 44 C135 47 135 50 135 53 L136 591 L43 591 L43 53 C43 26 49 -1 61 -22 C72 -41 87 -56 106 -67 C129 -80 158 -87 191 -87 L191 -87 Z M121 576 L120 53 C120 52 120 35 129 18 C137 2 155 -17 191 -17 C212 -17 229 -11 242 2 C261 22 261 50 261 53 L262 576 L324 576 L324 53 C324 27 318 4 307 -15 C286 -53 247 -72 191 -72 C134 -72 95 -53 74 -15 C63 5 58 28 58 53 L58 576 L121 576 Z M182 703 L82 703 L175 595 L248 595 L182 703 Z M115 689 L173 689 L221 610 L182 610 L115 689 Z " />
<glyph glyph-name="Uacute" unicode="&#xda;" horiz-adv-x="386" d="M198 -87 C231 -87 260 -80 283 -67 C302 -56 316 -41 327 -22 C340 0 346 25 346 53 L346 591 L254 591 L253 53 C253 48 252 44 251 39 C248 31 246 21 238 13 C228 3 215 -2 198 -2 C174 -2 158 7 149 25 C145 32 144 39 143 44 C142 47 142 50 142 53 L143 591 L49 591 L49 53 C49 25 55 0 68 -22 C79 -41 93 -56 113 -67 C136 -80 164 -87 198 -87 L198 -87 Z M127 576 L127 53 C127 52 127 35 136 18 C144 2 161 -17 198 -17 C219 -17 235 -11 248 2 C268 22 268 50 268 53 L269 576 L331 576 L331 53 C331 27 325 4 314 -15 C293 -53 254 -72 198 -72 C141 -72 102 -53 81 -15 C70 4 64 27 64 53 L64 576 L127 576 Z M321 703 L222 703 L156 595 L228 595 L321 703 Z M231 689 L288 689 L221 610 L182 610 L231 689 Z " />
<glyph glyph-name="Ucircumflex" unicode="&#xdb;" horiz-adv-x="386" d="M192 -87 C226 -87 254 -81 277 -68 C296 -57 311 -42 322 -23 C334 -1 340 24 340 53 L340 591 L248 591 L248 53 L248 52 C248 47 247 43 246 38 C243 30 240 20 232 12 C223 3 209 -2 192 -2 C169 -2 153 7 144 24 C137 39 137 52 137 53 L137 591 L44 591 L44 52 C44 24 50 -1 62 -23 C73 -42 88 -57 107 -68 C130 -81 158 -87 192 -87 L192 -87 Z M122 576 L121 53 C121 52 122 35 130 18 C138 2 156 -17 192 -17 C214 -17 231 -11 243 2 C263 22 263 50 263 53 L263 576 L325 576 L325 53 C325 28 320 5 309 -15 C287 -53 248 -72 192 -72 C136 -72 97 -53 75 -15 C64 5 59 27 59 52 L59 576 L122 576 Z M301 595 L236 711 L148 711 L80 596 L161 596 L191 656 L221 595 L301 595 Z M152 610 L107 610 L156 696 L227 696 L275 610 L230 610 L191 690 L152 610 Z " />
<glyph glyph-name="Udieresis" unicode="&#xdc;" horiz-adv-x="386" d="M194 -87 C227 -87 256 -80 279 -67 C298 -56 313 -41 323 -22 C336 0 342 25 342 53 L342 592 L250 592 L249 53 C249 48 248 44 247 39 C244 31 241 21 234 13 C224 3 211 -2 194 -2 C171 -2 155 7 146 25 C143 31 140 37 139 44 C138 47 138 50 138 53 L139 592 L46 592 L46 53 C46 26 52 -1 64 -22 C75 -41 90 -56 109 -67 C132 -80 160 -87 194 -87 L194 -87 Z M124 576 L123 53 C123 52 123 36 132 19 C140 2 157 -17 194 -17 C214 -17 231 -11 245 2 C264 22 264 50 264 53 L265 576 L327 576 L327 53 C327 27 321 4 310 -15 C289 -53 250 -72 194 -72 C137 -72 98 -53 77 -15 C66 4 60 27 60 53 L60 576 L124 576 Z M192 693 L110 693 L110 606 L192 606 L192 693 Z M124 678 L178 678 L178 621 L124 621 L124 678 Z M287 693 L204 693 L204 606 L287 606 L287 693 Z M219 678 L272 678 L272 621 L219 621 L219 678 Z " />
<glyph glyph-name="Yacute" unicode="&#xdd;" horiz-adv-x="436" d="M263 -87 L264 193 L418 589 L317 589 L217 321 L118 589 L17 589 L171 194 L171 -87 L263 -87 L263 -87 Z M186 -72 L186 196 L39 574 L108 574 L217 278 L327 574 L396 574 L249 196 L249 -72 L186 -72 L186 -72 Z M231 590 L324 698 L225 698 L158 590 L231 590 L231 590 Z M185 605 L233 683 L292 683 L224 605 L185 605 L185 605 Z " />
<glyph glyph-name="agrave" unicode="&#xe0;" horiz-adv-x="398" d="M241 591 L157 591 L20 -85 L115 -85 L135 17 L266 17 L287 -85 L383 -85 L241 591 Z M279 32 L122 32 L103 -70 L38 -70 L169 576 L229 576 L364 -70 L300 -70 L279 32 Z M206 390 L191 390 L136 94 L267 94 L206 390 Z M199 350 L249 109 L154 109 L199 350 Z M172 709 L73 709 L166 600 L239 600 L172 709 Z M106 694 L164 694 L212 615 L173 615 L106 694 Z " />
<glyph glyph-name="aacute" unicode="&#xe1;" horiz-adv-x="398" d="M241 594 L157 594 L20 -82 L115 -82 L135 20 L266 20 L287 -82 L382 -82 L241 594 Z M278 35 L122 35 L103 -67 L38 -67 L169 579 L229 579 L364 -67 L299 -67 L278 35 Z M206 393 L191 393 L135 97 L267 97 L206 393 Z M199 353 L249 112 L153 112 L199 353 Z M320 712 L221 712 L155 603 L227 603 L320 712 Z M230 697 L288 697 L220 618 L181 618 L230 697 Z " />
<glyph glyph-name="acircumflex" unicode="&#xe2;" horiz-adv-x="398" d="M238 590 L154 590 L17 -86 L112 -86 L132 16 L263 16 L284 -86 L379 -86 L238 590 Z M275 31 L119 31 L100 -71 L36 -71 L166 575 L226 575 L361 -71 L297 -71 L275 31 Z M203 389 L188 389 L132 93 L264 93 L203 389 Z M196 349 L246 108 L151 108 L196 349 Z M306 596 L241 712 L153 712 L86 596 L166 596 L196 656 L226 595 L306 596 Z M157 611 L112 611 L161 697 L233 697 L281 610 L236 610 L196 690 L157 611 Z " />
<glyph glyph-name="atilde" unicode="&#xe3;" horiz-adv-x="398" d="M237 593 L153 593 L16 -83 L112 -83 L131 19 L263 19 L284 -83 L379 -83 L237 593 Z M275 34 L118 34 L99 -68 L35 -68 L165 578 L225 578 L360 -68 L296 -68 L275 34 Z M202 392 L188 392 L132 96 L263 96 L202 392 Z M195 352 L245 111 L150 111 L195 352 Z M131 607 C136 614 151 627 166 628 C175 628 183 624 191 620 C203 613 215 608 235 609 C265 609 301 649 306 654 L311 659 L268 702 L263 696 C256 688 241 676 232 675 C221 675 213 679 202 684 C190 689 177 695 160 695 C128 695 91 654 89 652 L84 647 L125 600 L131 607 Z M105 647 C117 659 141 680 160 680 L161 680 C174 680 184 675 196 670 C207 665 219 660 232 661 C247 661 261 673 268 680 L290 659 C277 646 251 624 234 624 C219 623 209 627 198 634 C189 638 180 643 165 643 C149 642 134 631 126 623 L105 647 L105 647 Z " />
<glyph glyph-name="adieresis" unicode="&#xe4;" horiz-adv-x="398" d="M192 694 L109 694 L109 608 L192 608 L192 694 Z M124 679 L177 679 L177 623 L124 623 L124 679 Z M288 694 L205 694 L205 608 L288 608 L288 694 Z M219 679 L273 679 L273 623 L219 623 L219 679 Z M238 592 L154 592 L17 -84 L112 -84 L132 18 L264 18 L284 -84 L380 -84 L238 592 Z M276 33 L119 33 L100 -69 L36 -69 L166 577 L226 577 L361 -69 L297 -69 L276 33 Z M203 392 L189 392 L133 96 L264 96 L203 392 Z M196 351 L246 111 L151 111 L196 351 Z " />
<glyph glyph-name="aring" unicode="&#xe5;" horiz-adv-x="398" d="M245 577 C266 592 280 615 280 642 C280 685 245 720 202 720 C159 720 124 685 124 642 C124 615 134 595 155 580 L21 -84 L116 -84 L135 18 L267 18 L288 -84 L383 -84 L245 577 Z M279 33 L123 33 L103 -69 L39 -69 L171 586 L167 589 C148 602 139 619 139 642 C139 677 167 705 202 705 C237 705 265 677 265 642 C265 619 252 598 233 587 L228 584 L364 -69 L300 -69 L279 33 Z M207 391 L192 391 L136 95 L268 95 L207 391 Z M199 351 L249 110 L154 110 L199 351 Z M202 586 C233 586 257 611 257 642 C257 673 233 697 202 697 C171 697 146 673 146 642 C146 611 171 586 202 586 L202 586 Z M202 683 C225 683 242 665 242 642 C242 619 225 601 202 601 C179 601 161 619 161 642 C161 665 179 683 202 683 L202 683 Z " />
<glyph glyph-name="ae" unicode="&#xe6;" horiz-adv-x="474" d="M122 18 L179 18 L179 -84 L448 -84 L448 9 L272 9 L272 152 L366 152 L366 245 L272 245 L272 499 L448 499 L448 592 L145 592 L8 -84 L103 -84 L122 18 Z M157 577 L433 577 L433 514 L257 514 L257 230 L351 230 L351 167 L257 167 L257 -6 L433 -6 L433 -69 L194 -69 L194 33 L110 33 L91 -69 L26 -69 L157 577 Z M194 390 L179 391 L123 95 L194 95 L194 390 Z M179 310 L179 110 L141 110 L179 310 Z " />
<glyph glyph-name="ccedilla" unicode="&#xe7;" horiz-adv-x="329" d="M144 -207 C200 -204 220 -177 228 -161 C237 -141 237 -118 226 -105 C218 -96 211 -90 204 -85 C224 -80 242 -73 257 -62 C272 -51 285 -37 294 -18 C301 -3 310 20 310 51 L310 59 L217 59 L217 51 C217 46 216 42 215 37 C212 29 209 19 202 11 C191 2 178 -3 161 -3 C138 -3 122 6 113 23 C109 30 108 37 107 42 C106 45 106 48 106 51 L106 453 C106 456 106 459 107 462 C108 467 109 474 113 481 C122 499 138 508 161 508 C178 508 192 503 202 493 C217 478 217 454 217 453 L217 445 L310 445 L310 453 C310 480 304 506 291 529 C280 548 266 562 247 573 C224 586 195 593 162 593 C128 593 99 586 76 573 C57 563 43 548 32 529 C19 506 13 480 13 453 L13 51 C13 25 19 1 30 -20 C39 -39 52 -53 69 -64 C88 -77 111 -85 138 -87 C141 -91 140 -94 143 -97 C151 -106 161 -112 170 -117 C182 -124 188 -130 188 -135 C188 -150 181 -159 144 -163 L138 -163 L136 -207 L144 -207 Z M152 -177 C177 -173 203 -166 203 -135 C203 -120 190 -112 178 -104 C168 -99 160 -94 155 -87 C154 -86 153 -83 151 -78 L150 -73 L145 -73 C95 -69 61 -49 43 -13 C34 6 28 28 28 51 L28 453 C28 479 34 502 45 521 C66 559 105 578 162 578 C218 578 257 559 278 521 C288 504 294 484 295 461 L232 461 C231 472 227 489 212 504 C200 517 183 523 161 523 C125 523 108 504 100 488 C91 471 91 454 91 453 L91 51 C91 47 91 43 92 40 C93 33 95 25 100 17 C108 1 125 -18 161 -18 C183 -18 200 -12 212 1 C227 16 231 33 232 44 L295 44 C292 19 288 0 281 -12 C262 -48 230 -68 184 -72 L167 -74 L180 -85 C183 -88 186 -90 190 -93 C197 -98 206 -104 214 -115 C221 -122 222 -138 215 -154 C208 -167 193 -188 152 -192 L152 -177 L152 -177 Z " />
<glyph glyph-name="egrave" unicode="&#xe8;" horiz-adv-x="327" d="M301 5 L125 5 L125 149 L219 149 L219 241 L125 241 L125 496 L301 496 L301 588 L32 588 L32 -87 L301 -87 L301 5 Z M47 573 L286 573 L286 511 L110 511 L110 226 L204 226 L204 164 L110 164 L110 -10 L286 -10 L286 -72 L47 -72 L47 573 Z M138 712 L39 712 L132 604 L204 604 L138 712 Z M72 697 L130 697 L178 619 L139 619 L72 697 Z " />
<glyph glyph-name="eacute" unicode="&#xe9;" horiz-adv-x="359" d="M325 10 L149 10 L149 154 L243 154 L243 246 L149 246 L149 501 L325 501 L325 593 L56 593 L56 -82 L325 -82 L325 10 Z M71 578 L310 578 L310 516 L134 516 L134 231 L228 231 L228 169 L134 169 L134 -5 L310 -5 L310 -67 L71 -67 L71 578 Z M310 717 L211 717 L145 609 L217 609 L310 717 Z M220 702 L278 702 L210 624 L171 624 L220 702 Z " />
<glyph glyph-name="ecircumflex" unicode="&#xea;" horiz-adv-x="359" d="M316 10 L139 10 L139 154 L233 154 L233 247 L139 247 L139 501 L316 501 L316 593 L47 593 L47 -82 L316 -82 L316 10 Z M62 578 L301 578 L301 516 L124 516 L124 231 L218 231 L218 169 L124 169 L124 -5 L301 -5 L301 -67 L62 -67 L62 578 Z M290 605 L225 721 L136 721 L69 606 L150 606 L179 666 L209 605 L290 605 Z M140 621 L95 621 L145 706 L216 706 L264 620 L219 620 L180 700 L140 621 Z " />
<glyph glyph-name="edieresis" unicode="&#xeb;" horiz-adv-x="359" d="M316 6 L139 6 L139 150 L233 150 L233 243 L139 243 L139 497 L316 497 L316 589 L47 589 L47 -86 L316 -86 L316 6 Z M62 575 L301 575 L301 512 L124 512 L124 227 L218 227 L218 165 L124 165 L124 -8 L301 -8 L301 -71 L62 -71 L62 575 Z M175 702 L92 702 L92 616 L175 616 L175 702 Z M107 687 L160 687 L160 631 L107 631 L107 687 Z M266 702 L182 702 L182 616 L266 616 L266 702 Z M197 687 L250 687 L250 631 L197 631 L197 687 Z " />
<glyph glyph-name="igrave" unicode="&#xec;" horiz-adv-x="188" d="M142 591 L50 591 L50 -84 L142 -84 L142 591 Z M64 576 L127 576 L127 -69 L64 -69 L64 576 Z M76 723 L-23 723 L70 614 L142 614 L76 723 Z M9 708 L67 708 L116 629 L76 629 L9 708 Z " />
<glyph glyph-name="iacute" unicode="&#xed;" horiz-adv-x="176" d="M135 591 L43 591 L43 -84 L135 -84 L135 591 Z M57 576 L120 576 L120 -69 L57 -69 L57 576 Z M208 722 L109 722 L43 614 L115 614 L208 722 Z M117 707 L176 707 L108 629 L69 629 L117 707 Z " />
<glyph glyph-name="icircumflex" unicode="&#xee;" horiz-adv-x="214" d="M154 591 L62 591 L62 -84 L154 -84 L154 591 Z M76 576 L139 576 L139 -69 L76 -69 L76 576 Z M218 610 L153 726 L64 726 L-2 611 L78 611 L108 671 L138 610 L218 610 Z M69 626 L23 626 L73 711 L144 711 L192 625 L147 625 L108 705 L69 626 Z " />
<glyph glyph-name="idieresis" unicode="&#xef;" horiz-adv-x="212" d="M150 592 L57 592 L57 -84 L150 -84 L150 592 Z M72 576 L135 576 L135 -69 L72 -69 L72 576 Z M99 712 L16 712 L16 625 L99 625 L99 712 Z M32 697 L85 697 L85 641 L32 641 L32 697 Z M190 712 L107 712 L107 625 L190 625 L190 712 Z M122 697 L175 697 L175 641 L122 641 L122 697 Z " />
<glyph glyph-name="ntilde" unicode="&#xf1;" horiz-adv-x="389" d="M362 590 L269 590 L269 194 L134 590 L43 590 L43 -85 L136 -85 L136 311 L272 -85 L362 -85 L362 590 Z M135 359 L121 357 L121 -70 L58 -70 L58 575 L123 575 L270 147 L284 149 L284 575 L347 575 L347 -70 L282 -70 L135 359 Z M136 605 C141 612 156 625 171 626 C179 626 187 623 196 618 C208 613 220 606 240 607 C270 607 306 647 311 652 L316 657 L273 700 L268 694 L265 691 C262 688 260 687 257 684 C248 677 242 674 237 674 C226 673 218 677 207 682 C195 687 182 693 165 693 C133 693 96 652 94 650 L89 645 L130 599 L136 605 Z M110 645 C122 657 146 678 165 678 C180 678 189 673 201 668 C212 663 222 658 237 659 C252 659 266 671 273 678 L295 657 C282 644 258 623 239 622 C223 621 214 627 203 632 C194 636 185 641 170 641 C154 640 139 628 130 621 L110 645 L110 645 Z " />
<glyph glyph-name="ograve" unicode="&#xf2;" horiz-adv-x="393" d="M199 -89 C234 -89 262 -82 284 -69 C303 -59 317 -44 328 -24 C341 -2 347 23 347 51 L347 452 C347 479 341 505 328 528 C317 547 303 562 284 573 C261 586 233 592 199 592 C164 592 136 586 113 573 C94 562 80 547 69 528 C56 506 50 481 50 453 L50 51 C50 23 56 -2 69 -24 C80 -44 94 -58 113 -69 C135 -82 164 -89 199 -89 L199 -89 Z M199 577 C255 577 294 558 315 520 C326 501 332 478 332 452 L332 51 C332 25 326 2 315 -17 C294 -55 255 -74 199 -74 C142 -74 103 -55 82 -17 C71 2 65 25 65 51 L65 453 C65 478 71 501 82 520 C103 558 142 577 199 577 L199 577 Z M199 -19 C220 -19 237 -13 249 0 C269 20 269 48 269 51 L269 452 C269 455 269 483 249 503 C237 516 220 522 199 522 C162 522 145 503 137 487 C128 470 128 453 128 452 L128 51 C128 50 128 33 137 16 C145 0 162 -19 199 -19 L199 -19 Z M199 507 C215 507 228 502 239 493 C246 485 249 475 252 467 C253 462 254 458 254 453 L254 51 C254 46 253 42 252 37 C249 29 246 19 239 11 C229 1 216 -4 199 -4 C175 -4 159 5 150 23 C146 30 145 37 144 42 C143 45 143 48 143 51 L143 452 C143 453 143 465 150 480 C159 498 175 507 199 507 L199 507 Z M199 708 L100 708 L193 599 L266 599 L199 708 Z M133 692 L191 692 L239 614 L200 614 L133 692 Z " />
<glyph glyph-name="oacute" unicode="&#xf3;" horiz-adv-x="385" d="M201 -88 C236 -88 264 -81 286 -68 C305 -58 320 -43 330 -23 C343 -1 349 24 349 52 L349 453 C349 480 343 506 330 529 C320 548 305 563 286 574 C263 587 235 593 201 593 C167 593 139 587 116 574 C97 563 82 548 71 529 C59 508 53 483 53 454 L53 52 C53 23 59 -2 71 -23 C82 -43 97 -58 116 -68 C138 -81 166 -88 201 -88 L201 -88 Z M201 578 C257 578 296 559 317 521 C328 502 334 479 334 453 L334 52 C334 26 328 3 317 -16 C296 -54 257 -73 201 -73 C144 -73 105 -54 84 -16 C73 3 68 25 68 52 L68 454 C68 478 73 502 84 521 C105 559 144 578 201 578 L201 578 Z M201 -18 C222 -18 239 -12 252 1 C271 21 271 49 271 52 L271 453 C271 456 271 484 252 504 C239 517 222 523 201 523 C164 523 147 504 139 488 C130 471 130 454 130 453 L130 52 C130 51 130 34 139 17 C147 1 164 -18 201 -18 L201 -18 Z M201 508 C218 508 232 503 241 494 C249 486 251 476 254 468 C255 463 256 459 256 454 L256 52 C256 47 255 43 254 38 C251 30 249 20 241 12 C232 2 218 -3 201 -3 C178 -3 162 6 153 24 C149 31 147 38 146 43 C145 46 145 49 145 52 L145 453 C145 454 145 466 152 481 C161 499 177 508 201 508 L201 508 Z M323 709 L224 709 L158 600 L230 600 L323 709 Z M233 693 L290 693 L223 615 L184 615 L233 693 Z " />
<glyph glyph-name="ocircumflex" unicode="&#xf4;" horiz-adv-x="399" d="M203 -88 C236 -88 265 -81 288 -68 C307 -57 322 -42 333 -23 C345 -2 351 23 351 52 L351 453 C351 482 345 507 333 529 C322 548 307 563 288 574 C265 587 236 594 203 594 C170 594 141 587 118 574 C99 563 84 548 73 529 C61 508 55 483 55 454 L55 52 C55 25 61 -2 73 -23 C84 -42 99 -57 118 -68 C141 -81 170 -88 203 -88 L203 -88 Z M203 578 C259 578 298 559 319 522 C330 501 336 478 336 453 L336 52 C336 26 330 3 319 -16 C298 -54 259 -73 203 -73 C146 -73 107 -54 86 -16 C75 3 70 25 70 52 L70 454 C70 478 75 503 86 522 C107 559 146 578 203 578 L203 578 Z M203 -18 C223 -18 240 -12 254 1 C273 21 273 49 273 52 L273 453 C273 456 273 484 254 504 C241 517 224 523 203 523 C166 523 149 504 141 488 C132 471 132 454 132 453 L132 52 C132 51 132 34 141 18 C149 1 166 -18 203 -18 L203 -18 Z M203 508 C220 508 234 503 243 494 C251 486 253 476 256 468 C257 463 258 459 258 454 L258 52 C259 52 259 28 243 12 C234 2 220 -3 203 -3 C180 -3 164 6 155 24 C152 30 149 36 148 43 C147 46 147 49 147 52 L147 453 C147 454 147 466 154 481 C164 499 180 508 203 508 L203 508 Z M313 596 L248 713 L159 713 L93 597 L173 597 L203 657 L233 596 L313 596 Z M164 612 L118 612 L168 697 L239 697 L287 611 L242 611 L203 691 L164 612 Z " />
<glyph glyph-name="otilde" unicode="&#xf5;" horiz-adv-x="384" d="M192 -87 C227 -87 255 -80 277 -67 C296 -57 311 -42 321 -22 C334 -1 340 24 340 53 L340 454 C340 483 334 509 321 530 C311 549 296 564 277 575 C254 588 226 594 192 594 C158 594 130 588 107 575 C88 564 73 549 62 530 C50 509 44 484 44 455 L44 53 C44 24 50 -1 62 -22 C73 -42 88 -57 107 -67 C129 -80 157 -87 192 -87 L192 -87 Z M192 579 C248 579 287 560 308 522 C319 503 325 480 325 454 L325 53 C325 27 319 4 308 -15 C287 -53 248 -72 192 -72 C135 -72 96 -53 75 -15 C64 4 59 26 59 53 L59 455 C59 479 64 503 75 522 C96 560 135 579 192 579 L192 579 Z M192 -17 C213 -17 230 -11 243 2 C262 22 262 50 262 53 L262 454 C262 457 262 485 243 505 C230 518 213 524 192 524 C155 524 138 505 130 489 C121 472 121 455 121 454 L121 53 C121 52 121 35 130 18 C138 2 155 -17 192 -17 L192 -17 Z M192 509 C208 509 221 504 232 495 C239 487 242 477 245 469 C246 464 247 460 247 455 L247 53 C247 48 246 44 245 39 C242 31 240 21 232 13 C222 3 209 -2 192 -2 C169 -2 153 7 144 25 C140 32 138 39 137 44 C136 47 136 50 136 53 L136 454 C136 455 136 467 143 482 C153 500 169 509 192 509 L192 509 Z M125 606 C130 611 145 626 160 626 C171 627 177 623 186 619 C197 612 210 607 229 608 C259 608 295 647 300 652 L305 658 L262 700 L257 695 C256 694 255 692 254 691 C251 688 249 687 246 684 C237 677 231 674 226 674 C215 674 207 678 196 683 C184 688 171 693 155 693 C123 693 85 653 83 651 L79 646 L114 606 L119 599 L125 606 Z M99 646 C112 658 136 678 155 678 C168 678 179 674 190 669 C201 664 213 659 226 659 C241 660 255 672 263 679 L284 657 C271 645 246 623 229 623 C213 622 203 627 192 632 C183 637 174 642 159 642 C143 641 128 629 120 622 L99 646 L99 646 Z " />
<glyph glyph-name="odieresis" unicode="&#xf6;" horiz-adv-x="399" d="M206 -88 C240 -88 268 -81 291 -68 C310 -57 325 -42 336 -23 C349 -1 355 24 355 52 L355 453 C355 480 349 506 336 529 C325 548 310 563 291 574 C268 587 240 594 206 594 C173 594 144 587 121 574 C102 563 87 548 77 529 C64 507 58 482 58 454 L58 52 C58 24 64 -1 77 -23 C88 -43 102 -58 121 -68 C144 -81 173 -88 206 -88 L206 -88 Z M206 578 C263 578 302 559 323 522 C334 503 339 480 339 453 L339 52 C339 25 334 3 323 -16 C302 -54 263 -73 206 -73 C149 -73 111 -54 90 -16 C79 3 73 26 73 52 L73 454 C73 478 79 503 90 522 C111 559 150 578 206 578 L206 578 Z M206 -18 C227 -18 244 -12 257 1 C277 21 277 49 277 52 L277 453 C277 456 277 484 257 504 C245 517 228 523 206 523 C170 523 153 504 145 488 C136 471 136 454 136 453 L136 52 C136 51 136 34 145 18 C153 1 170 -18 206 -18 L206 -18 Z M206 508 C223 508 237 503 246 494 C254 486 257 476 260 468 C261 463 262 459 262 454 L262 52 C262 47 261 43 260 38 C257 30 254 19 246 12 C237 2 223 -3 206 -3 C183 -3 167 6 158 24 C154 31 153 38 152 43 C151 46 151 49 151 52 L151 453 C151 454 151 466 158 481 C167 499 183 508 206 508 L206 508 Z M201 697 L118 697 L118 611 L201 611 L201 697 Z M133 683 L186 683 L186 626 L133 626 L133 683 Z M293 697 L211 697 L211 611 L293 611 L293 697 Z M225 683 L278 683 L278 626 L225 626 L225 683 Z " />
<glyph glyph-name="oslash" unicode="&#xf8;" horiz-adv-x="371" d="M113 -74 C132 -83 156 -87 185 -87 C220 -87 248 -80 270 -67 C289 -57 304 -42 315 -22 C327 -1 333 24 333 53 L333 454 C333 485 326 512 312 534 L339 617 L278 617 L265 577 C245 588 218 594 185 594 C151 594 123 588 100 575 C81 564 66 549 55 530 C43 509 37 484 37 455 L37 53 C37 33 41 -5 65 -37 L41 -110 L101 -110 L113 -74 Z M82 -33 L79 -30 C55 -2 52 34 52 53 L52 455 C52 480 58 503 69 522 C90 560 128 579 185 579 C218 579 245 573 266 560 L274 555 L289 602 L318 602 L296 532 L298 529 C311 508 318 483 318 454 L318 53 C318 26 313 4 302 -15 C280 -53 241 -72 185 -72 C156 -72 132 -67 112 -57 L104 -53 L90 -95 L61 -94 L82 -33 Z M185 -17 C207 -17 224 -11 236 2 C256 22 256 50 256 53 L256 364 L241 366 L126 14 L128 11 C141 -8 160 -17 185 -17 L185 -17 Z M241 317 L241 53 C241 48 240 43 239 38 C236 30 233 20 225 12 C216 3 202 -2 185 -2 C166 -2 152 4 142 16 L241 317 Z M250 482 L249 485 C242 504 225 524 185 524 C149 524 132 505 123 489 C115 472 115 455 115 454 L115 115 L129 113 L250 482 Z M185 509 C210 509 226 500 234 482 L130 162 L130 454 C130 455 130 467 137 482 C146 500 162 509 185 509 L185 509 Z " />
<glyph glyph-name="ugrave" unicode="&#xf9;" horiz-adv-x="376" d="M191 -87 C224 -87 253 -80 276 -67 C295 -56 310 -41 321 -22 C333 -1 339 24 339 53 L339 591 L247 591 L246 53 C246 48 245 44 244 39 C241 31 239 21 231 13 C222 3 208 -2 191 -2 C168 -2 152 7 142 25 C138 32 137 39 136 44 C135 47 135 50 135 53 L136 591 L43 591 L43 53 C43 26 49 -1 61 -22 C72 -41 87 -56 106 -67 C129 -80 158 -87 191 -87 L191 -87 Z M121 576 L120 53 C120 52 120 35 129 18 C137 2 155 -17 191 -17 C212 -17 229 -11 242 2 C261 22 261 50 261 53 L262 576 L324 576 L324 53 C324 27 318 4 307 -15 C286 -53 247 -72 191 -72 C134 -72 95 -53 74 -15 C63 5 58 28 58 53 L58 576 L121 576 Z M182 703 L82 703 L175 595 L248 595 L182 703 Z M115 689 L173 689 L221 610 L182 610 L115 689 Z " />
<glyph glyph-name="uacute" unicode="&#xfa;" horiz-adv-x="386" d="M198 -87 C231 -87 260 -80 283 -67 C302 -56 316 -41 327 -22 C340 0 346 25 346 53 L346 591 L254 591 L253 53 C253 48 252 44 251 39 C248 31 246 21 238 13 C228 3 215 -2 198 -2 C174 -2 158 7 149 25 C145 32 144 39 143 44 C142 47 142 50 142 53 L143 591 L49 591 L49 53 C49 25 55 0 68 -22 C79 -41 93 -56 113 -67 C136 -80 164 -87 198 -87 L198 -87 Z M127 576 L127 53 C127 52 127 35 136 18 C144 2 161 -17 198 -17 C219 -17 235 -11 248 2 C268 22 268 50 268 53 L269 576 L331 576 L331 53 C331 27 325 4 314 -15 C293 -53 254 -72 198 -72 C141 -72 102 -53 81 -15 C70 4 64 27 64 53 L64 576 L127 576 Z M321 703 L222 703 L156 595 L228 595 L321 703 Z M231 689 L288 689 L221 610 L182 610 L231 689 Z " />
<glyph glyph-name="ucircumflex" unicode="&#xfb;" horiz-adv-x="386" d="M192 -87 C226 -87 254 -81 277 -68 C296 -57 311 -42 322 -23 C334 -1 340 24 340 53 L340 591 L248 591 L248 53 L248 52 C248 47 247 43 246 38 C243 30 240 20 232 12 C223 3 209 -2 192 -2 C169 -2 153 7 144 24 C137 39 137 52 137 53 L137 591 L44 591 L44 52 C44 24 50 -1 62 -23 C73 -42 88 -57 107 -68 C130 -81 158 -87 192 -87 L192 -87 Z M122 576 L121 53 C121 52 122 35 130 18 C138 2 156 -17 192 -17 C214 -17 231 -11 243 2 C263 22 263 50 263 53 L263 576 L325 576 L325 53 C325 28 320 5 309 -15 C287 -53 248 -72 192 -72 C136 -72 97 -53 75 -15 C64 5 59 27 59 52 L59 576 L122 576 Z M301 595 L236 711 L148 711 L80 596 L161 596 L191 656 L221 595 L301 595 Z M152 610 L107 610 L156 696 L227 696 L275 610 L230 610 L191 690 L152 610 Z " />
<glyph glyph-name="udieresis" unicode="&#xfc;" horiz-adv-x="386" d="M194 -87 C227 -87 256 -80 279 -67 C298 -56 313 -41 323 -22 C336 0 342 25 342 53 L342 592 L250 592 L249 53 C249 48 248 44 247 39 C244 31 241 21 234 13 C224 3 211 -2 194 -2 C171 -2 155 7 146 25 C143 31 140 37 139 44 C138 47 138 50 138 53 L139 592 L46 592 L46 53 C46 26 52 -1 64 -22 C75 -41 90 -56 109 -67 C132 -80 160 -87 194 -87 L194 -87 Z M124 576 L123 53 C123 52 123 36 132 19 C140 2 157 -17 194 -17 C214 -17 231 -11 245 2 C264 22 264 50 264 53 L265 576 L327 576 L327 53 C327 27 321 4 310 -15 C289 -53 250 -72 194 -72 C137 -72 98 -53 77 -15 C66 4 60 27 60 53 L60 576 L124 576 Z M192 693 L110 693 L110 606 L192 606 L192 693 Z M124 678 L178 678 L178 621 L124 621 L124 678 Z M287 693 L204 693 L204 606 L287 606 L287 693 Z M219 678 L272 678 L272 621 L219 621 L219 678 Z " />
<glyph glyph-name="yacute" unicode="&#xfd;" horiz-adv-x="436" d="M264 193 L418 589 L317 589 L217 321 L118 589 L17 589 L171 194 L171 -87 L263 -87 L264 193 Z M186 196 L39 574 L108 574 L217 278 L327 574 L396 574 L249 196 L249 -72 L186 -72 L186 196 Z M324 698 L225 698 L158 590 L231 590 L324 698 Z M233 683 L292 683 L224 605 L185 605 L233 683 Z " />
<glyph glyph-name="ydieresis" unicode="&#xff;" horiz-adv-x="436" d="M215 699 L132 699 L132 612 L215 612 L215 699 Z M147 684 L200 684 L200 627 L147 627 L147 684 Z M306 699 L223 699 L223 612 L306 612 L306 699 Z M238 684 L291 684 L291 627 L238 627 L238 684 Z M265 194 L419 590 L318 590 L219 322 L120 590 L18 590 L172 194 L172 -86 L265 -86 L265 194 Z M187 197 L40 575 L109 575 L219 279 L328 575 L397 575 L250 197 L250 -71 L187 -71 L187 197 Z " />
<glyph glyph-name="Lslash" unicode="&#x141;" horiz-adv-x="340" d="M318 -79 L318 14 L186 14 L186 239 L328 350 L253 365 L186 313 L186 596 L93 596 L93 241 L-8 162 L66 147 L93 167 L93 -79 L318 -79 L318 -79 Z M108 -64 L108 198 L62 163 L27 170 L108 234 L108 581 L171 581 L171 282 L257 349 L293 342 L171 247 L171 -1 L304 -1 L304 -64 L108 -64 L108 -64 Z " />
<glyph glyph-name="lslash" unicode="&#x142;" horiz-adv-x="340" d="M332 14 L200 14 L200 239 L342 350 L267 365 L200 313 L200 596 L107 596 L107 241 L6 162 L80 147 L107 167 L107 -79 L332 -79 L332 14 Z M122 198 L76 163 L41 170 L122 234 L122 581 L185 581 L185 282 L271 349 L307 342 L185 247 L185 -1 L318 -1 L318 -64 L122 -64 L122 198 Z " />
<glyph glyph-name="OE" unicode="&#x152;" horiz-adv-x="464" d="M170 -91 C183 -91 195 -90 206 -88 L453 -88 L453 4 L276 4 L276 148 L370 148 L370 240 L276 240 L276 495 L452 495 L452 587 L207 587 C196 589 183 590 170 590 C122 590 85 577 60 551 C25 516 22 469 22 451 L22 49 C22 30 26 -18 60 -52 C85 -78 121 -91 170 -91 L170 -91 Z M170 575 C182 575 194 574 205 572 L438 572 L438 510 L261 510 L261 225 L355 225 L355 163 L261 163 L261 -10 L438 -10 L438 -73 L205 -73 L204 -73 C193 -75 181 -76 170 -76 C126 -76 93 -65 70 -42 C41 -10 37 31 37 49 L37 451 C37 467 40 510 71 541 C93 564 126 575 170 575 L170 575 Z M170 -21 C178 -21 186 -20 193 -18 L199 -17 L199 516 L193 517 C186 519 178 520 170 520 C134 520 116 501 108 485 C99 468 99 451 99 450 L99 49 C99 48 99 31 108 14 C116 -2 134 -21 170 -21 L170 -21 Z M170 505 C176 505 180 505 183 504 L183 -5 C180 -6 176 -6 170 -6 C147 -6 131 3 122 20 C119 26 116 33 115 40 C114 43 114 46 114 49 L114 450 C114 453 114 456 115 459 C116 466 119 472 122 478 C131 496 147 505 170 505 L170 505 Z " />
<glyph glyph-name="oe" unicode="&#x153;" horiz-adv-x="467" d="M170 -91 C183 -91 195 -90 206 -88 L453 -88 L453 4 L276 4 L276 148 L370 148 L370 240 L276 240 L276 495 L452 495 L452 587 L207 587 C196 589 183 590 170 590 C122 590 85 577 60 551 C25 516 22 469 22 451 L22 49 C22 30 26 -18 60 -52 C85 -78 121 -91 170 -91 L170 -91 Z M170 575 C182 575 194 574 205 572 L438 572 L438 510 L261 510 L261 225 L355 225 L355 163 L261 163 L261 -10 L438 -10 L438 -73 L205 -73 L204 -73 C193 -75 181 -76 170 -76 C126 -76 93 -65 70 -42 C41 -10 37 31 37 49 L37 451 C37 467 40 510 71 541 C93 564 126 575 170 575 L170 575 Z M170 -21 C178 -21 186 -20 193 -18 L199 -17 L199 516 L193 517 C186 519 178 520 170 520 C134 520 116 501 108 485 C99 468 99 451 99 450 L99 49 C99 48 99 31 108 14 C116 -2 134 -21 170 -21 L170 -21 Z M170 505 C176 505 180 505 183 504 L183 -5 C180 -6 176 -6 170 -6 C147 -6 131 3 122 20 C119 26 116 33 115 40 C114 43 114 46 114 49 L114 450 C114 453 114 456 115 459 C116 466 119 472 122 478 C131 496 147 505 170 505 L170 505 Z " />
<glyph glyph-name="Scaron" unicode="&#x160;" horiz-adv-x="331" d="M164 -89 C199 -89 227 -82 249 -69 C268 -59 283 -44 294 -25 C306 -3 312 22 312 51 L312 167 C313 210 294 237 278 253 C262 268 246 274 243 277 C239 280 216 292 165 295 C117 298 109 319 109 321 L109 452 C109 455 109 458 110 461 C111 466 112 473 116 480 C125 498 141 507 164 507 C181 507 195 502 204 493 C220 477 220 453 220 452 L220 339 L312 339 L312 452 C312 481 306 506 294 528 C283 547 268 562 249 573 C226 586 198 592 164 592 C130 592 102 586 79 573 C60 562 45 547 34 528 C23 505 16 480 16 453 L16 317 C16 292 26 269 46 248 C61 233 76 227 77 227 C79 227 121 207 164 204 C189 203 205 197 213 187 C220 180 220 173 220 172 L220 51 C220 50 220 26 204 11 C195 1 181 -4 164 -4 C141 -4 125 5 116 22 C112 29 111 35 110 42 C109 45 109 48 109 51 L109 157 L16 157 L16 51 L16 50 C16 23 23 -2 34 -25 C45 -44 60 -59 79 -69 C101 -82 129 -89 164 -89 L164 -89 Z M94 142 L94 51 C94 50 94 33 102 16 C110 0 128 -19 164 -19 C186 -19 203 -13 215 0 C235 20 235 48 235 51 L235 171 C235 174 236 185 225 197 C214 210 194 218 165 219 C145 220 124 225 109 230 C100 233 91 236 83 240 C83 241 31 265 31 317 L31 452 L31 453 C31 478 36 500 47 520 C69 558 108 577 164 577 C221 577 260 558 281 520 C292 501 297 479 297 452 L297 354 L235 354 L235 452 C235 455 235 483 215 503 C203 516 186 522 164 522 C128 522 110 503 102 487 C94 470 94 453 94 452 L94 320 C94 318 100 284 164 281 C189 278 208 275 219 271 C226 268 231 266 235 264 L236 264 L237 263 C248 258 258 251 267 242 C282 227 297 202 297 167 L297 51 C297 24 292 2 281 -17 C260 -55 221 -74 164 -74 C108 -74 69 -55 47 -17 C36 3 31 25 31 50 L31 142 L94 142 Z M274 710 L194 711 L164 649 L134 710 L54 710 L121 594 L209 594 L274 710 Z M80 695 L125 695 L164 616 L204 695 L249 695 L200 609 L129 609 L80 695 Z " />
<glyph glyph-name="scaron" unicode="&#x161;" horiz-adv-x="331" d="M6940 -96 C6953 -96 6965 -95 6976 -93 L7222 -93 L7222 -1 L7046 -1 L7046 143 L7140 143 L7140 235 L7046 235 L7046 490 L7222 490 L7222 582 L6977 582 C6966 584 6953 585 6940 585 C6891 585 6855 572 6830 546 C6795 511 6792 466 6792 446 L6792 43 C6792 25 6795 -22 6830 -57 C6855 -83 6891 -96 6940 -96 L6940 -96 Z M6940 570 C6952 570 6964 569 6975 567 L7207 567 L7207 505 L7031 505 L7031 220 L7125 220 L7125 158 L7031 158 L7031 -16 L7208 -16 L7208 -78 L6975 -78 L6974 -78 C6963 -80 6951 -81 6940 -81 C6897 -81 6864 -70 6840 -47 C6811 -15 6807 26 6807 43 L6807 446 C6807 463 6811 507 6840 536 C6863 559 6896 570 6940 570 L6940 570 Z M6940 -26 C6948 -26 6956 -25 6963 -23 L6969 -21 L6969 511 L6963 512 C6956 514 6948 515 6940 515 C6904 515 6886 496 6878 480 C6870 463 6869 446 6869 445 L6869 44 C6869 43 6870 26 6878 9 C6886 -7 6904 -26 6940 -26 L6940 -26 Z M6940 500 C6946 500 6951 500 6954 499 L6954 -10 C6951 -11 6946 -11 6940 -11 C6917 -11 6901 -2 6892 16 C6888 23 6886 30 6885 35 C6884 38 6884 41 6884 44 L6884 445 C6884 448 6884 451 6885 454 C6886 461 6889 467 6892 473 C6901 491 6917 500 6940 500 L6940 500 Z M6940 -96 C6953 -96 6965 -95 6976 -93 L7222 -93 L7222 -1 L7046 -1 L7046 143 L7140 143 L7140 235 L7046 235 L7046 490 L7222 490 L7222 582 L6977 582 C6966 584 6953 585 6940 585 C6891 585 6855 572 6830 546 C6795 511 6792 466 6792 446 L6792 43 C6792 25 6795 -22 6830 -57 C6855 -83 6891 -96 6940 -96 L6940 -96 Z M6940 570 C6952 570 6964 569 6975 567 L7207 567 L7207 505 L7031 505 L7031 220 L7125 220 L7125 158 L7031 158 L7031 -16 L7208 -16 L7208 -78 L6975 -78 L6974 -78 C6963 -80 6951 -81 6940 -81 C6897 -81 6864 -70 6840 -47 C6811 -15 6807 26 6807 43 L6807 446 C6807 463 6811 507 6840 536 C6863 559 6896 570 6940 570 L6940 570 Z M6940 -26 C6948 -26 6956 -25 6963 -23 L6969 -21 L6969 511 L6963 512 C6956 514 6948 515 6940 515 C6904 515 6886 496 6878 480 C6870 463 6869 446 6869 445 L6869 44 C6869 43 6870 26 6878 9 C6886 -7 6904 -26 6940 -26 L6940 -26 Z M6940 500 C6946 500 6951 500 6954 499 L6954 -10 C6951 -11 6946 -11 6940 -11 C6917 -11 6901 -2 6892 16 C6888 23 6886 30 6885 35 C6884 38 6884 41 6884 44 L6884 445 C6884 448 6884 451 6885 454 C6886 461 6889 467 6892 473 C6901 491 6917 500 6940 500 L6940 500 Z M164 -89 C199 -89 227 -82 249 -69 C268 -59 283 -44 294 -25 C306 -3 312 22 312 51 L312 167 C313 210 294 237 278 253 C262 268 246 274 243 277 C239 280 216 292 165 295 C117 298 109 319 109 321 L109 452 C109 455 109 458 110 461 C111 466 112 473 116 480 C125 498 141 507 164 507 C181 507 195 502 204 493 C220 477 220 453 220 452 L220 339 L312 339 L312 452 C312 481 306 506 294 528 C283 547 268 562 249 573 C226 586 198 592 164 592 C130 592 102 586 79 573 C60 562 45 547 34 528 C23 505 16 480 16 453 L16 317 C16 292 26 269 46 248 C61 233 76 227 77 227 C79 227 121 207 164 204 C189 203 205 197 213 187 C220 180 220 173 220 172 L220 51 C220 50 220 26 204 11 C195 1 181 -4 164 -4 C141 -4 125 5 116 22 C112 29 111 35 110 42 C109 45 109 48 109 51 L109 157 L16 157 L16 51 L16 50 C16 23 23 -2 34 -25 C45 -44 60 -59 79 -69 C101 -82 129 -89 164 -89 L164 -89 Z M94 142 L94 51 C94 50 94 33 102 16 C110 0 128 -19 164 -19 C186 -19 203 -13 215 0 C235 20 235 48 235 51 L235 171 C235 174 236 185 225 197 C214 210 194 218 165 219 C145 220 124 225 109 230 C100 233 91 236 83 240 C83 241 31 265 31 317 L31 452 L31 453 C31 478 36 500 47 520 C69 558 108 577 164 577 C221 577 260 558 281 520 C292 501 297 479 297 452 L297 354 L235 354 L235 452 C235 455 235 483 215 503 C203 516 186 522 164 522 C128 522 110 503 102 487 C94 470 94 453 94 452 L94 320 C94 318 100 284 164 281 C189 278 208 275 219 271 C226 268 231 266 235 264 L236 264 L237 263 C248 258 258 251 267 242 C282 227 297 202 297 167 L297 51 C297 24 292 2 281 -17 C260 -55 221 -74 164 -74 C108 -74 69 -55 47 -17 C36 3 31 25 31 50 L31 142 L94 142 Z M274 710 L194 711 L164 649 L134 710 L54 710 L121 594 L209 594 L274 710 Z M80 695 L125 695 L164 616 L204 695 L249 695 L200 609 L129 609 L80 695 Z " />
<glyph glyph-name="Ydieresis" unicode="&#x178;" horiz-adv-x="436" d="M215 612 L215 699 L132 699 L132 612 L215 612 L215 612 Z M147 627 L147 684 L200 684 L200 627 L147 627 L147 627 Z M306 612 L306 699 L223 699 L223 612 L306 612 L306 612 Z M238 627 L238 684 L291 684 L291 627 L238 627 L238 627 Z M265 -86 L265 194 L419 590 L318 590 L219 322 L120 590 L18 590 L172 194 L172 -86 L265 -86 L265 -86 Z M187 -71 L187 197 L40 575 L109 575 L219 279 L328 575 L397 575 L250 197 L250 -71 L187 -71 L187 -71 Z " />
<glyph glyph-name="Zcaron" unicode="&#x17d;" horiz-adv-x="441" d="M400 -81 L400 12 L156 12 L399 507 L400 508 L400 595 L41 595 L41 503 L285 503 L41 6 L41 -81 L400 -81 L400 -81 Z M56 -66 L56 3 L309 518 L56 518 L56 580 L385 580 L385 512 L132 -3 L385 -3 L385 -66 L56 -66 L56 -66 Z M265 601 L331 718 L250 718 L220 657 L190 717 L110 717 L177 601 L265 601 L265 601 Z M186 616 L136 702 L181 702 L220 623 L260 703 L305 703 L257 616 L186 616 L186 616 Z " />
<glyph glyph-name="zcaron" unicode="&#x17e;" horiz-adv-x="441" d="M400 12 L156 12 L399 507 L400 508 L400 595 L41 595 L41 503 L285 503 L41 6 L41 -81 L400 -81 L400 12 Z M56 3 L309 518 L56 518 L56 580 L385 580 L385 512 L132 -3 L385 -3 L385 -66 L56 -66 L56 3 Z M331 718 L250 718 L220 657 L190 717 L110 717 L177 601 L265 601 L331 718 Z M136 702 L181 702 L220 623 L260 703 L305 703 L257 616 L186 616 L136 702 Z " />
<glyph glyph-name="quoteleft" unicode="&#x2018;" horiz-adv-x="175" d="M81 436 L170 587 L73 587 L9 436 L81 436 L81 436 Z M32 451 L83 572 L143 572 L72 451 L32 451 L32 451 Z " />
<glyph glyph-name="quoteright" unicode="&#x2019;" horiz-adv-x="179" d="M81 436 L170 587 L73 587 L9 436 L81 436 L81 436 Z M32 451 L83 572 L143 572 L72 451 L32 451 L32 451 Z " />
<glyph glyph-name="quotedblleft" unicode="&#x201c;" horiz-adv-x="280" d="M83 442 L171 593 L75 593 L11 442 L83 442 L83 442 Z M34 457 L85 578 L145 578 L74 457 L34 457 L34 457 Z M181 442 L270 593 L173 593 L109 442 L181 442 L181 442 Z M132 457 L183 578 L243 578 L172 457 L132 457 L132 457 Z " />
<glyph glyph-name="quotedblright" unicode="&#x201d;" horiz-adv-x="284" d="M83 442 L171 593 L75 593 L11 442 L83 442 L83 442 Z M34 457 L85 578 L145 578 L74 457 L34 457 L34 457 Z M181 442 L270 593 L173 593 L109 442 L181 442 L181 442 Z M132 457 L183 578 L243 578 L172 457 L132 457 L132 457 Z " />
<glyph glyph-name="Euro" unicode="&#x20ac;" horiz-adv-x="346" d="M182 -90 C215 -90 244 -84 267 -72 C286 -62 301 -48 312 -31 C320 -16 331 6 331 39 L331 47 L238 47 L238 39 C237 36 237 32 236 29 C233 22 233 17 226 10 C217 1 202 -4 182 -4 C159 -4 143 5 134 22 C127 37 127 50 127 51 L127 149 L292 149 L292 232 L127 232 L127 273 L292 273 L292 355 L127 355 L127 452 C127 455 127 458 128 461 C129 466 130 473 134 480 C143 498 159 507 182 507 C201 507 216 502 226 492 C233 485 233 478 236 473 C237 470 237 467 238 464 L238 456 L331 456 L331 463 C331 496 320 520 312 533 C301 550 286 564 267 574 C244 586 215 592 182 592 C149 592 120 585 97 572 C78 562 64 547 53 527 C40 505 34 480 34 452 L35 355 L13 355 L13 273 L34 273 L34 232 L13 232 L13 149 L34 149 L34 51 L34 50 C34 22 40 -3 53 -25 C63 -44 78 -59 97 -70 C120 -83 149 -90 182 -90 L182 -90 Z M29 217 L49 217 L49 288 L29 288 L29 341 L50 341 L49 452 C49 478 55 501 66 520 C87 558 125 577 182 577 C294 577 312 507 315 471 L252 471 C251 479 248 492 237 503 C223 516 205 522 182 522 C146 522 129 503 120 486 C112 469 112 453 112 452 L112 341 L277 341 L277 288 L112 288 L112 217 L277 217 L277 164 L112 164 L112 51 C112 50 112 33 120 16 C129 0 146 -19 182 -19 C206 -19 224 -13 237 0 C248 11 251 24 252 32 L315 32 C312 -5 294 -75 182 -75 C126 -75 87 -56 66 -17 C55 2 49 24 49 50 L49 164 L29 164 L29 217 Z " />
</font>
</svg>
