<?xml version="1.0" encoding="UTF-8"?>
<svg xmlns="http://www.w3.org/2000/svg" xmlns:xlink="http://www.w3.org/1999/xlink" version="1.2" >
<font id="Pollistons Script">
<font-face  font-family="Pollistons" units-per-em="1000" ascent="750" descent="-250" font-style="normal" font-weight="400" font-stretch="normal" cap-height="700" x-height="377" underline-position="-75" underline-thickness="50" />
<missing-glyph  horiz-adv-x="183" d="" />
<glyph glyph-name="NULL" d="" />
<glyph glyph-name="CR" unicode="&#xd;" horiz-adv-x="183" d="" />
<glyph glyph-name="space" unicode="&#x20;" horiz-adv-x="183" d="" />
<glyph glyph-name="exclam" unicode="&#x21;" horiz-adv-x="108" d="M48 185 C48 173 67 173 67 185 C67 265 66 345 63 425 C62 448 61 470 60 493 C60 505 40 505 41 493 C44 413 46 333 47 253 C48 230 48 208 48 185 L48 185 Z M63 144 C62 146 59 147 57 147 C56 147 56 147 55 147 C54 147 53 147 52 146 C50 146 49 145 48 144 C47 143 47 142 46 141 C46 140 45 139 45 137 C46 137 46 135 46 135 C46 133 47 132 48 130 C50 129 53 127 55 127 C56 127 56 127 57 127 C58 127 59 128 60 128 C62 129 63 130 63 130 C65 131 65 132 66 133 C66 135 67 136 66 137 C66 138 66 139 66 140 C66 141 65 143 63 144 L63 144 Z " />
<glyph glyph-name="quotedbl" unicode="&#x22;" horiz-adv-x="96" d="M18 560 C18 547 18 534 18 522 C18 509 38 509 38 522 C38 534 38 547 38 560 C38 572 18 572 18 560 L18 560 L18 560 Z M48 560 C48 547 48 534 48 522 C48 509 68 509 68 522 C68 534 68 547 68 560 C68 572 48 572 48 560 L48 560 L48 560 Z " />
<glyph glyph-name="numbersign" unicode="&#x23;" horiz-adv-x="211" d="M179 259 C167 260 155 261 142 261 C143 272 144 284 145 295 C156 295 168 294 179 294 C192 293 192 312 179 313 C168 314 157 314 146 315 C147 327 148 339 150 351 C150 356 145 360 140 360 C134 360 131 356 130 351 C129 339 128 327 127 316 C115 316 103 316 91 316 C92 328 93 339 94 351 C95 356 90 360 85 360 C79 360 75 356 75 351 C74 339 73 328 72 317 C61 317 50 317 40 317 C27 316 27 297 40 297 C50 297 60 297 70 297 C69 285 68 274 67 263 C58 263 49 263 40 262 C27 262 27 243 40 243 C49 243 57 243 66 243 C66 231 65 219 64 207 C64 194 83 194 84 207 C84 219 85 231 86 243 C98 243 110 242 122 242 C121 230 120 218 120 207 C119 194 139 194 139 207 C140 218 140 230 141 241 C154 241 166 240 179 240 C192 239 192 258 179 259 L179 259 Z M87 262 C88 274 88 285 90 297 C101 297 113 296 125 296 C125 285 124 273 123 262 C111 262 99 262 87 262 L87 262 Z " />
<glyph glyph-name="dollar" unicode="&#x24;" horiz-adv-x="208" d="M176 224 C164 255 140 275 114 294 C114 348 114 402 114 456 C114 474 114 491 114 508 C122 511 133 510 136 501 C140 491 135 478 132 469 C130 464 134 458 139 457 C144 455 149 458 151 463 C158 484 162 513 139 525 C131 530 122 530 114 529 C114 539 114 550 114 560 C114 573 94 573 94 560 C94 547 94 533 94 520 C86 515 79 509 72 503 C36 469 7 419 21 368 C32 329 63 307 94 284 C94 254 94 224 94 193 C94 176 94 160 94 143 C91 143 88 144 85 144 C66 148 41 160 40 182 C39 194 19 195 20 182 C22 144 59 126 94 124 C94 112 94 101 94 89 C94 77 114 77 114 89 C114 101 114 113 114 124 C116 125 118 125 120 125 C140 129 159 140 171 157 C184 176 184 202 176 224 L176 224 Z M73 325 C56 340 41 360 38 383 C35 408 42 432 55 452 C62 463 70 474 79 483 C84 487 89 492 94 497 C94 434 94 371 94 308 C87 313 80 319 73 325 L73 325 Z M145 157 C136 150 125 146 114 144 C114 186 114 228 114 270 C117 268 119 266 121 264 C139 249 155 231 161 208 C165 189 160 169 145 157 L145 157 Z " />
<glyph glyph-name="percent" unicode="&#x25;" horiz-adv-x="254" d="M219 503 C164 402 105 301 45 202 C28 174 10 146 -8 118 C-14 108 3 98 9 108 C71 206 131 306 188 407 C204 436 220 465 236 494 C242 505 225 515 219 503 L219 503 Z M138 233 C134 233 131 231 130 226 C125 204 122 180 125 157 C126 147 128 137 136 130 C144 124 153 122 162 124 C183 128 193 148 195 167 C197 186 195 210 183 226 C172 239 152 243 138 233 L138 233 Z M176 171 C175 160 171 146 159 143 C147 140 144 152 144 163 C143 180 144 198 147 216 C148 216 148 216 148 216 C150 219 154 219 157 219 C162 218 166 216 169 212 C176 201 176 184 176 171 L176 171 Z M41 410 C42 391 43 362 62 351 C72 345 83 350 89 360 C95 369 97 380 99 390 C101 402 103 414 103 426 C103 437 102 448 99 459 C95 469 89 479 78 483 C74 485 69 486 65 486 C59 489 52 488 50 481 C49 481 49 480 49 480 C49 480 48 479 47 478 C44 475 44 470 46 467 C42 448 41 429 41 410 L41 410 Z M81 449 C85 433 84 416 81 400 C79 391 78 382 74 374 C74 373 73 372 73 370 C72 370 72 369 71 368 C70 369 70 369 69 370 C65 375 64 383 63 389 C61 398 61 406 61 415 C60 432 62 449 66 467 C68 467 70 466 72 464 C78 461 80 455 81 449 L81 449 Z " />
<glyph glyph-name="ampersand" unicode="&#x26;" horiz-adv-x="226" d="M155 371 C163 382 171 396 166 413 C164 427 152 442 136 446 C116 451 105 436 99 423 C93 409 91 392 94 375 C95 365 99 354 107 345 C66 332 33 305 26 261 C24 238 29 212 44 189 C59 165 85 146 111 148 C136 149 154 166 165 185 C176 178 186 172 196 167 C208 161 214 178 201 184 C192 189 183 194 174 200 C182 216 186 233 187 252 C188 275 184 309 154 322 C128 335 107 316 101 296 C96 273 105 246 121 224 C129 214 139 205 148 198 C140 185 129 173 114 169 C105 166 96 166 86 171 C76 176 69 184 63 192 C49 210 45 231 46 249 C49 295 89 320 131 331 C139 333 136 344 128 348 C116 355 113 370 112 380 C112 394 115 409 123 420 C124 424 129 429 136 427 C140 426 143 422 145 419 C153 405 144 393 138 384 C132 375 149 361 155 371 L155 371 Z M121 272 C119 287 125 305 141 307 C149 308 157 301 161 294 C167 284 167 272 166 261 C166 244 163 227 156 213 C137 229 122 249 121 272 L121 272 Z " />
<glyph glyph-name="quotesingle" unicode="&#x27;" horiz-adv-x="65" d="M22 562 C22 549 22 536 22 524 C22 511 42 511 42 524 C42 536 42 549 42 562 C42 574 22 574 22 562 L22 562 L22 562 Z " />
<glyph glyph-name="parenleft" unicode="&#x28;" horiz-adv-x="108" d="M83 621 C59 532 44 439 39 347 C34 254 38 161 52 70 C60 18 70 -33 84 -83 C87 -95 106 -90 103 -78 C79 11 64 101 59 193 C54 283 57 375 70 465 C78 516 88 567 102 616 C105 628 86 634 83 621 L83 621 L83 621 Z " />
<glyph glyph-name="parenright" unicode="&#x29;" horiz-adv-x="108" d="M7 612 C30 524 44 433 49 342 C54 251 49 159 36 69 C28 18 17 -32 4 -82 C0 -94 19 -99 22 -87 C47 3 62 95 68 188 C73 280 69 373 56 465 C49 516 38 567 25 617 C22 630 3 624 7 612 L7 612 L7 612 Z " />
<glyph glyph-name="asterisk" unicode="&#x2a;" horiz-adv-x="164" d="M136 531 C124 531 112 531 101 531 C113 543 125 554 136 567 C146 576 132 589 123 580 C113 570 103 560 93 550 C93 563 93 576 93 589 C93 602 73 602 73 589 C73 576 73 562 73 549 C64 558 55 566 47 576 C38 584 24 571 33 561 C43 551 54 541 64 530 C51 530 39 530 26 530 C13 530 13 510 26 510 C35 511 44 511 53 511 C43 501 33 491 23 481 C14 471 28 458 37 466 C49 479 61 491 73 503 C73 486 73 469 73 451 C73 439 93 439 93 451 C93 468 93 485 93 502 C103 492 113 482 123 472 C132 463 146 477 136 485 C128 494 119 503 111 511 C119 511 128 511 136 512 C148 512 149 531 136 531 L136 531 Z " />
<glyph glyph-name="plus" unicode="&#x2b;" horiz-adv-x="139" d="M98 298 C84 299 69 299 54 298 C54 309 54 319 54 329 C55 342 35 342 35 329 C35 318 35 307 35 297 C22 296 8 294 -5 291 C-10 290 -13 284 -12 279 C-10 274 -5 271 0 272 C12 275 24 276 36 277 C36 263 38 248 40 233 C40 228 44 223 49 223 C54 223 60 228 59 233 C57 248 56 264 55 279 C69 279 84 279 98 279 C111 278 111 298 98 298 L98 298 Z " />
<glyph glyph-name="comma" unicode="&#x2c;" horiz-adv-x="94" d="M36 251 C36 250 36 249 36 248 C35 246 35 246 36 247 C36 247 35 246 35 245 C35 243 34 241 34 239 C32 234 36 228 40 227 C46 226 51 229 53 234 C54 239 55 245 55 251 C55 256 51 261 46 260 C40 260 36 256 36 251 L36 251 L36 251 Z " />
<glyph glyph-name="hyphen" unicode="&#x2d;" horiz-adv-x="120" d="M-6 295 C24 297 54 296 84 293 C89 292 93 298 93 303 C93 308 89 312 84 312 C54 315 24 316 -6 315 C-19 314 -19 295 -6 295 L-6 295 L-6 295 Z " />
<glyph glyph-name="period" unicode="&#x2e;" horiz-adv-x="91" d="M35 246 C35 246 35 246 35 245 C35 244 35 243 35 242 C36 240 37 239 37 239 C38 238 39 237 40 237 C42 236 43 236 44 236 C45 236 46 236 47 236 C49 237 50 237 51 239 C53 240 54 243 54 245 C54 246 54 246 54 246 C54 247 54 248 53 250 C53 251 52 252 51 253 C50 254 49 254 48 255 C47 255 46 256 44 256 C43 256 43 255 42 255 C40 255 39 254 37 253 C36 251 35 249 35 246 L35 246 L35 246 Z " />
<glyph glyph-name="slash" unicode="&#x2f;" horiz-adv-x="196" d="M165 463 C125 389 85 316 44 244 C32 223 20 203 9 182 C2 172 19 162 25 173 C67 244 108 317 148 390 C159 411 170 432 181 453 C187 464 170 474 165 463 L165 463 L165 463 Z " />
<glyph glyph-name="zero" unicode="0" horiz-adv-x="144" d="M127 373 C126 384 123 394 116 403 C110 410 101 415 92 419 C71 427 48 421 26 415 C15 411 20 393 32 396 C34 396 36 397 38 398 C26 366 20 332 20 298 C20 278 23 259 27 240 C29 231 32 222 35 213 C38 204 42 195 51 191 C70 182 88 195 98 210 C108 225 115 244 120 261 C125 280 128 299 129 318 C130 336 130 355 127 373 L127 373 Z M110 329 C109 313 108 297 105 281 C101 265 97 250 90 235 C85 225 76 205 62 207 C56 208 55 215 53 219 C50 227 48 236 46 244 C42 260 40 276 40 292 C38 329 45 366 59 400 C60 401 60 402 60 402 C67 403 74 403 80 402 C94 399 104 390 107 376 C111 361 110 344 110 329 L110 329 Z " />
<glyph glyph-name="one" unicode="1" horiz-adv-x="77" d="M30 396 C32 334 33 273 35 212 C35 199 54 199 54 212 C53 273 51 334 50 396 C49 408 30 408 30 396 L30 396 L30 396 Z " />
<glyph glyph-name="two" unicode="2" horiz-adv-x="178" d="M151 218 C122 231 89 236 58 232 C68 242 77 251 87 260 C103 276 119 295 128 317 C137 337 141 362 132 384 C123 403 104 417 83 409 C59 400 42 376 38 352 C37 347 39 342 45 340 C49 339 56 342 57 347 C60 364 69 380 84 388 C91 392 98 393 104 389 C110 385 113 378 115 372 C121 354 116 334 108 319 C99 301 86 286 72 272 C54 255 35 238 18 221 C11 215 18 201 27 205 C64 218 105 218 141 202 C146 199 151 200 154 205 C157 209 156 216 151 218 L151 218 Z " />
<glyph glyph-name="three" unicode="3" horiz-adv-x="166" d="M145 265 C144 284 124 299 109 306 C103 308 97 310 91 311 C105 327 116 346 118 368 C121 386 116 404 98 410 C80 416 63 406 50 394 C34 381 21 362 31 341 C33 336 40 335 44 338 C49 341 50 346 48 351 C41 365 62 380 71 387 C77 390 84 394 91 392 C98 390 100 385 100 378 C100 346 75 319 52 300 C51 299 51 299 50 298 C46 295 47 288 50 285 C54 280 60 281 64 285 C73 293 86 293 97 290 C103 288 108 284 113 281 C118 277 123 273 125 267 C129 257 110 248 103 244 C91 237 78 231 64 226 C56 224 48 222 40 220 C37 220 35 219 32 220 C32 220 32 220 31 220 C30 225 24 228 19 226 C14 225 12 219 13 214 C16 194 43 201 57 204 C76 209 94 216 111 226 C126 234 146 246 145 265 L145 265 Z " />
<glyph glyph-name="four" unicode="4" horiz-adv-x="142" d="M117 410 C117 415 112 419 107 419 C101 419 98 415 97 410 C97 404 96 398 96 393 C92 372 84 351 72 333 C69 328 65 322 60 318 C59 317 57 314 55 314 C53 314 50 316 49 318 C40 327 37 341 34 353 C29 370 27 388 26 405 C26 418 6 418 7 405 C8 387 10 368 15 349 C19 333 23 316 35 304 C42 297 50 293 60 295 C68 297 74 304 79 310 C82 314 85 318 88 322 C84 280 79 238 75 196 C75 191 80 186 85 186 C90 186 94 191 94 196 C101 260 108 325 114 389 C116 396 116 403 117 410 L117 410 Z " />
<glyph glyph-name="five" unicode="5" horiz-adv-x="160" d="M104 309 C85 324 60 331 36 329 C39 346 41 362 42 379 C42 384 43 388 43 393 C62 395 81 398 100 400 C105 400 110 404 110 410 C110 414 105 420 100 419 C82 417 65 415 47 413 L47 413 C25 410 24 396 24 396 L24 396 C24 396 24 396 24 395 C23 392 23 389 23 386 C23 378 22 371 21 363 C20 349 18 335 15 320 C13 313 19 307 27 309 C45 312 65 310 82 301 C99 292 114 276 117 256 C120 237 106 224 90 217 C82 214 73 211 63 209 C54 207 43 206 35 212 C35 212 34 212 34 212 C35 213 36 214 37 214 C43 217 49 218 55 220 C68 224 82 225 95 224 C108 224 108 243 95 244 C80 244 65 243 50 239 C37 236 18 231 14 217 C10 201 28 191 41 189 C54 187 68 190 82 194 C105 200 129 213 135 238 C143 265 125 293 104 309 L104 309 Z " />
<glyph glyph-name="six" unicode="6" horiz-adv-x="160" d="M134 288 C127 302 113 313 97 313 C80 313 66 303 60 287 C57 275 75 270 79 282 C82 290 90 293 98 293 C107 293 115 286 118 277 C127 255 112 229 94 217 C84 210 73 207 63 213 C52 219 45 229 41 240 C32 266 35 295 38 322 C40 339 42 356 46 373 C49 388 53 403 62 416 C69 427 52 437 45 426 C35 411 31 395 27 378 C23 360 20 341 18 322 C15 289 12 253 28 222 C35 209 47 197 63 192 C79 187 95 193 108 204 C133 223 150 258 134 288 L134 288 Z " />
<glyph glyph-name="seven" unicode="7" horiz-adv-x="134" d="M111 315 C106 315 101 315 96 315 C96 316 97 318 97 320 C101 335 106 351 104 368 C102 384 92 398 75 402 C56 405 34 400 19 388 C14 385 12 380 15 375 C18 370 24 368 28 371 C40 379 55 385 69 383 C81 381 85 372 85 361 C85 346 80 332 77 318 C76 317 76 315 76 314 C67 314 58 314 49 314 C37 314 37 295 49 295 C57 294 64 294 71 294 C69 285 67 276 65 266 C60 247 55 228 51 208 C47 196 66 191 69 203 C77 234 84 264 92 295 C98 295 105 295 111 296 C116 296 121 300 121 306 C121 311 116 316 111 315 L111 315 Z " />
<glyph glyph-name="eight" unicode="8" horiz-adv-x="149" d="M126 272 C120 283 111 292 102 300 C105 311 109 321 112 332 C116 343 120 355 123 366 C127 386 123 411 101 418 C90 421 79 419 69 417 C59 415 48 412 39 406 C22 395 12 375 17 355 C21 340 31 328 43 319 C42 317 41 315 40 313 C36 303 33 293 31 283 C27 261 27 239 38 220 C47 204 63 191 83 191 C100 191 117 200 127 215 C138 232 135 254 126 272 L126 272 Z M37 355 C30 373 43 388 59 394 C69 398 81 401 92 400 C101 399 105 390 105 382 C105 369 99 355 95 343 C92 333 89 322 86 312 C84 313 83 314 81 315 C80 316 78 317 76 318 C76 318 76 318 76 318 C75 319 73 320 71 321 C71 321 71 321 71 321 L71 321 C66 325 61 328 59 331 C56 333 54 334 53 335 C53 335 53 335 53 335 C53 335 53 335 53 335 C53 335 53 335 53 335 C53 335 53 335 53 335 C53 335 53 335 53 335 C53 335 53 335 53 335 C47 341 41 347 37 355 L37 355 Z M111 227 C104 215 89 208 76 211 C59 216 49 235 48 252 C47 265 50 277 53 289 C54 295 56 301 58 306 C58 306 58 306 59 307 C74 296 91 287 102 272 C112 260 120 241 111 227 L111 227 Z " />
<glyph glyph-name="nine" unicode="9" horiz-adv-x="139" d="M119 277 C117 297 114 316 113 336 C113 347 112 358 113 369 C117 380 119 392 119 404 C119 409 116 412 112 413 C107 422 99 427 89 428 C77 429 66 424 57 418 C39 405 24 386 18 365 C12 345 18 318 41 311 C62 305 82 319 94 334 C95 322 96 310 97 298 C99 280 101 262 101 244 C100 230 100 214 86 206 C71 197 53 203 39 212 C29 219 19 202 30 196 C45 185 64 179 82 184 C99 188 113 201 118 218 C122 237 120 258 119 277 L119 277 Z M57 330 C44 326 35 338 35 350 C35 366 46 381 57 392 C63 398 70 404 78 407 C82 409 92 411 94 405 C95 403 96 401 98 400 C96 391 94 382 94 373 C92 369 90 365 88 360 C82 348 71 334 57 330 L57 330 Z " />
<glyph glyph-name="colon" unicode="&#x3a;" horiz-adv-x="74" d="M33 327 C33 327 33 326 33 326 C33 325 33 324 34 323 C34 321 35 320 36 319 C37 319 38 318 39 318 C40 317 41 317 43 317 C44 317 44 317 45 317 C47 318 48 318 49 319 C51 321 52 324 52 326 C52 326 52 327 52 327 C53 328 52 329 52 331 C51 332 51 333 49 334 C49 335 48 335 46 336 C45 336 44 337 43 337 C42 336 41 336 40 336 C38 336 37 335 36 334 C34 332 33 329 33 327 L33 327 L33 327 Z M36 262 C36 262 35 262 35 262 C34 261 34 260 33 259 C33 258 33 256 33 255 C33 254 33 252 33 251 C34 250 34 249 35 248 C37 246 40 245 42 245 C43 245 44 245 45 246 C47 246 48 247 49 248 C49 248 49 248 49 249 C51 249 51 250 52 252 C52 253 53 254 52 255 C53 257 52 258 52 259 C51 260 51 261 49 262 C48 264 45 265 43 265 C42 265 41 265 40 265 C38 264 37 263 36 262 L36 262 L36 262 Z " />
<glyph glyph-name="semicolon" unicode="&#x3b;" horiz-adv-x="81" d="M52 332 C52 333 51 334 50 335 C49 336 48 336 47 337 C46 337 45 338 43 338 C42 337 42 337 41 337 C39 337 38 336 36 335 C35 333 34 330 34 328 C34 328 34 327 34 327 C34 326 34 325 34 324 C35 322 35 321 36 320 C37 320 38 319 40 319 C41 318 42 318 43 318 C44 318 45 318 46 318 C48 319 49 319 50 320 C52 322 53 325 53 327 C53 327 53 328 53 328 C53 329 53 330 52 332 L52 332 Z M42 266 C37 266 33 262 32 256 C32 255 32 254 32 253 C32 252 32 252 32 252 C32 252 32 251 32 251 C32 249 31 247 30 245 C29 240 32 234 37 233 C43 232 47 234 49 240 C51 245 52 251 52 256 C52 261 47 266 42 266 L42 266 Z " />
<glyph glyph-name="less" unicode="&#x3c;" horiz-adv-x="203" d="M179 219 C137 245 94 271 52 296 C95 318 138 339 180 360 C191 366 181 383 170 377 C123 353 75 329 27 306 C20 302 22 292 27 289 C74 260 122 231 169 202 C180 196 189 213 179 219 L179 219 Z " />
<glyph glyph-name="equal" unicode="&#x3d;" horiz-adv-x="178" d="M55 309 C77 310 98 310 120 308 C125 308 129 313 129 318 C129 323 125 327 120 328 C98 329 77 330 55 329 C43 329 43 309 55 309 L55 309 Z M154 289 C113 288 71 288 30 287 C17 287 17 267 30 267 C71 268 113 269 154 269 C167 269 167 289 154 289 L154 289 Z " />
<glyph glyph-name="greater" unicode="&#x3e;" horiz-adv-x="203" d="M174 310 C126 333 79 357 31 381 C20 387 10 370 21 364 C64 343 106 322 149 300 C107 275 65 249 23 223 C12 217 22 200 32 206 C80 235 127 264 174 293 C180 296 181 306 174 310 L174 310 Z " />
<glyph glyph-name="question" unicode="&#x3f;" horiz-adv-x="139" d="M107 418 C106 444 100 472 78 487 C67 495 52 497 40 493 C27 487 17 476 16 462 C16 457 21 452 26 452 C31 452 35 457 36 462 C36 469 44 475 51 476 C59 477 68 471 74 465 C88 449 88 423 87 403 C85 356 69 311 59 266 C54 240 50 213 52 187 C53 181 57 177 62 177 C67 177 72 181 72 187 C68 240 86 290 98 341 C103 366 108 392 107 418 L107 418 Z M65 148 C52 148 52 129 65 129 C77 129 77 148 65 148 L65 148 Z " />
<glyph glyph-name="at" unicode="&#x40;" horiz-adv-x="231" d="M157 220 C158 220 158 220 158 220 C159 221 159 221 159 221 C178 232 190 257 192 263 C202 285 206 311 198 334 C186 368 148 381 115 376 C51 367 12 301 21 240 C24 219 33 198 50 185 C66 172 87 169 107 172 C112 173 115 180 113 184 C112 190 107 192 101 191 C88 189 74 191 63 199 C50 208 44 224 41 238 C36 262 40 288 52 310 C64 331 83 348 107 355 C130 361 161 358 175 336 C184 323 184 305 181 290 C178 277 172 264 165 253 C162 250 160 247 157 244 C154 241 151 238 147 236 C145 235 143 235 141 234 C141 234 141 234 141 234 C141 244 141 268 141 270 C141 278 130 284 124 277 C119 271 114 265 108 258 C103 253 99 246 93 241 C92 240 88 237 86 238 C86 238 86 237 86 237 C86 238 85 238 85 239 C83 243 84 251 84 256 C87 278 104 298 125 305 C137 308 132 327 120 324 C95 316 75 296 68 271 C64 260 62 245 66 233 C72 217 89 215 102 224 C109 229 114 235 119 242 C120 242 120 243 121 243 C121 238 121 233 121 228 C122 212 139 212 151 217 C153 218 155 219 157 220 L157 220 Z " />
<glyph glyph-name="A" unicode="A" horiz-adv-x="232" d="M169 601 C163 601 159 597 159 591 C150 517 136 443 114 371 C111 359 107 347 103 335 C81 334 59 327 39 319 C6 305 -26 286 -55 264 C-83 244 -110 220 -129 190 C-148 161 -161 124 -154 89 C-151 71 -141 55 -124 46 C-108 38 -89 37 -72 42 C-34 52 -8 87 14 117 C58 178 91 245 116 315 C117 315 118 315 119 315 C127 313 135 310 142 306 C148 302 153 305 155 309 C154 250 154 190 153 131 C152 87 152 44 151 1 C151 -11 171 -11 171 1 C172 78 173 155 174 231 C175 308 176 385 177 462 C177 505 178 548 178 591 C178 597 174 601 169 601 L169 601 Z M-8 121 C-18 106 -30 92 -43 80 C-55 69 -69 61 -85 59 C-99 57 -115 60 -125 71 C-136 83 -138 100 -136 116 C-135 131 -130 146 -124 160 C-110 189 -88 213 -64 233 C-38 254 -10 271 19 287 C35 295 51 303 68 309 C77 312 86 314 96 315 C77 264 53 214 24 167 C14 152 4 136 -8 121 L-8 121 Z M152 323 C142 328 133 332 123 334 C137 376 148 418 157 462 C157 428 156 395 156 361 C156 347 155 333 155 319 C154 321 153 322 152 323 L152 323 Z " />
<glyph glyph-name="B" unicode="B" horiz-adv-x="327" d="M262 373 C235 396 200 386 170 375 C149 367 129 357 109 345 C135 385 155 430 168 476 C173 491 177 509 166 523 C157 535 140 536 126 534 C94 531 64 521 36 506 C6 489 -21 466 -42 438 C-46 433 -43 427 -39 424 C-34 421 -29 423 -26 428 C7 472 58 502 111 513 C118 514 124 515 131 516 C136 516 142 516 147 514 C159 509 152 491 150 482 C142 453 130 424 117 397 C107 377 95 358 82 339 C85 357 86 376 87 394 C88 406 88 418 88 430 C90 431 90 433 91 434 C92 443 91 450 87 457 C83 466 69 461 69 452 C69 404 66 355 59 308 C58 306 58 304 58 302 C55 286 53 269 49 252 C46 233 41 215 37 196 C34 184 52 179 55 191 C65 227 72 263 77 299 C101 319 128 335 157 348 C171 355 187 361 202 365 C216 369 231 370 243 363 C251 358 257 350 260 341 C264 330 265 320 264 308 C264 284 255 261 245 239 C224 191 193 149 159 109 C124 68 87 30 53 -12 C19 -53 -12 -97 -33 -146 C-35 -152 -38 -158 -40 -164 C-42 -169 -38 -175 -33 -176 C-28 -178 -23 -174 -21 -170 C-3 -119 27 -73 61 -32 C96 11 135 51 171 93 C206 135 239 179 262 229 C273 253 283 279 284 306 C285 329 280 356 262 373 L262 373 Z " />
<glyph glyph-name="C" unicode="C" horiz-adv-x="320" d="M256 521 C252 536 247 551 239 564 C231 577 222 589 208 596 C173 612 139 581 119 555 C95 525 80 490 65 456 C48 416 33 377 19 337 C-8 258 -28 175 -35 92 C-38 52 -35 11 -9 -21 C2 -34 17 -44 34 -48 C54 -52 74 -48 93 -39 C111 -31 128 -20 143 -8 C159 3 174 15 189 28 C217 54 243 82 266 113 C272 121 277 129 282 137 C289 147 272 157 266 146 C226 87 175 36 116 -4 C88 -23 52 -42 20 -21 C-9 -2 -17 35 -16 67 C-16 106 -10 145 -2 183 C5 222 15 260 27 298 C39 336 52 373 67 409 C81 443 95 478 113 510 C121 525 130 539 141 552 C152 563 166 577 182 580 C193 583 203 578 211 569 C220 560 226 548 231 536 C234 529 236 523 237 516 C241 504 260 509 256 521 L256 521 L256 521 Z " />
<glyph glyph-name="D" unicode="D" horiz-adv-x="295" d="M35 475 C37 408 35 341 31 275 C30 255 28 236 27 217 C26 212 31 207 36 207 C42 207 46 212 46 217 C52 284 55 350 55 417 C55 437 55 456 55 475 C54 487 35 488 35 475 L35 475 L35 475 Z M-157 431 C-117 505 -57 568 14 611 C32 622 51 632 71 641 C92 650 115 657 138 658 C159 659 179 655 196 643 C209 634 218 621 225 607 C241 575 244 538 242 503 C240 460 231 418 220 377 C196 291 160 210 125 129 C89 47 55 -36 37 -124 C35 -135 33 -146 31 -157 C31 -162 33 -167 38 -169 C43 -170 49 -167 50 -162 C64 -71 97 15 133 99 C169 183 208 267 234 355 C247 398 256 443 261 488 C264 526 263 565 249 600 C236 636 209 667 170 675 C122 685 74 666 33 644 C-45 604 -111 542 -158 468 C-164 460 -169 450 -174 441 C-180 430 -163 420 -157 431 L-157 431 L-157 431 Z " />
<glyph glyph-name="E" unicode="E" horiz-adv-x="226" d="M272 73 C270 77 263 80 259 76 C227 54 194 33 158 17 C139 8 119 0 98 -5 C74 -10 46 -12 23 -1 C4 9 -11 26 -17 47 C-26 79 -17 115 -1 144 C4 154 10 163 17 172 C28 187 43 201 59 211 C74 220 90 227 107 227 C111 227 116 227 120 227 C131 225 134 244 123 246 C67 253 31 306 12 354 C-9 407 -20 470 -2 525 C5 548 21 569 44 577 C71 586 104 577 124 558 C145 538 153 508 159 480 C160 474 162 467 168 465 C171 464 175 465 178 468 C181 472 180 477 179 482 C175 501 170 520 161 538 C152 555 140 571 124 582 C108 594 88 599 68 599 C31 600 1 581 -14 548 C-31 512 -33 470 -28 431 C-22 387 -8 343 15 305 C30 280 51 256 77 241 C52 233 30 216 13 197 C-17 165 -38 123 -40 79 C-42 37 -21 -4 19 -21 C59 -37 106 -25 144 -10 C185 6 223 28 258 53 C262 55 265 57 269 60 C273 63 275 68 272 73 L272 73 Z M-8 430 C-8 432 -8 430 -8 430 L-8 430 L-8 430 Z M44 296 C45 295 45 295 44 296 L44 296 L44 296 Z " />
<glyph glyph-name="F" unicode="F" horiz-adv-x="425" d="M587 588 C585 593 580 595 575 594 C496 582 418 567 340 551 C308 545 276 538 244 531 C245 555 247 579 249 603 C249 609 244 613 239 613 C234 613 230 609 230 603 C228 577 226 552 224 526 C185 517 146 508 107 498 C64 487 20 475 -23 463 C-32 461 -33 446 -23 444 C4 440 31 436 59 432 C64 431 69 433 70 439 C72 443 69 450 64 451 C51 453 39 455 26 456 C88 473 151 489 214 504 C217 504 220 505 223 506 C220 464 217 421 215 379 C193 373 171 367 149 360 C130 355 111 349 92 342 C80 339 85 320 97 323 C136 336 175 348 214 359 C214 352 213 344 213 337 C209 249 205 160 203 72 C202 22 201 -28 201 -78 C201 -90 221 -90 221 -78 C221 11 223 99 226 188 C228 247 231 305 234 364 C255 370 277 375 299 380 C318 385 338 389 358 393 C363 394 366 400 365 405 C363 410 358 413 353 412 C313 404 274 395 235 384 C236 408 237 431 239 454 C240 473 241 492 242 510 C310 526 379 540 447 553 C492 561 536 569 580 576 C585 577 588 583 587 588 L587 588 Z " />
<glyph glyph-name="G" unicode="G" horiz-adv-x="439" d="M374 493 C372 506 355 506 354 493 C349 431 310 376 263 338 C217 301 155 272 95 280 C67 283 40 297 23 320 C6 344 -1 373 0 402 C3 465 51 515 103 545 C135 563 171 575 206 585 C244 594 282 603 321 611 C330 613 340 615 350 618 C362 620 357 639 345 636 C304 627 263 618 222 609 C183 599 145 588 109 570 C49 540 -7 488 -17 420 C-22 388 -18 354 -3 326 C12 297 38 275 69 266 C100 256 134 258 165 266 C197 274 228 289 255 308 C300 339 340 382 360 434 C365 373 369 313 364 252 C358 185 340 117 305 59 C272 6 219 -48 154 -52 C124 -55 92 -48 70 -27 C59 -18 50 -5 52 9 C54 21 64 32 73 39 C84 48 96 55 108 59 C126 66 145 72 163 78 C200 88 237 96 275 99 C284 100 294 101 303 102 C308 102 313 106 313 112 C313 117 308 122 303 121 C262 119 222 113 182 103 C162 98 143 92 124 86 C108 80 91 74 77 65 C51 50 25 23 34 -10 C39 -27 53 -40 68 -50 C82 -60 98 -66 114 -70 C187 -84 253 -41 297 14 C342 70 367 140 378 211 C391 294 385 378 377 462 C376 472 375 483 374 493 L374 493 Z " />
<glyph glyph-name="H" unicode="H" horiz-adv-x="469" d="M446 337 C412 334 378 331 344 329 C344 366 344 403 345 440 C346 481 349 523 351 564 C352 576 332 582 331 569 C326 495 324 421 324 346 C324 340 324 334 324 328 C267 324 210 323 152 324 C154 349 156 374 158 400 C159 424 160 449 161 474 C161 486 161 498 161 511 C161 522 162 533 160 544 C158 553 155 563 148 570 C139 580 127 583 116 580 C105 577 96 571 86 566 C77 561 68 555 59 550 C24 527 -8 498 -34 465 C-47 450 -60 432 -68 413 C-73 402 -75 390 -72 378 C-69 367 -63 357 -54 348 C-36 331 -11 322 12 316 C37 310 62 308 86 307 C101 306 116 305 130 305 C130 295 129 285 128 275 C121 182 116 87 129 -10 C131 -22 133 -33 135 -45 C137 -57 156 -57 154 -45 C136 56 140 155 147 252 C148 270 149 287 151 304 C209 303 267 305 324 308 C325 245 327 182 331 119 C334 77 338 34 342 -9 C342 -14 348 -18 353 -18 C359 -18 362 -14 361 -9 C354 66 349 141 346 215 C345 247 344 278 344 309 C366 310 388 312 410 314 C423 315 436 316 449 317 C454 318 458 322 457 327 C457 332 451 337 446 337 L446 337 Z M61 328 C39 329 15 333 -7 341 C-24 348 -48 360 -53 379 C-55 389 -52 399 -48 407 C-43 416 -38 425 -32 433 C-9 465 18 494 50 517 C66 529 83 540 101 550 C105 552 109 554 114 556 C118 558 123 562 128 562 C130 562 131 561 132 560 C132 560 134 559 134 559 C136 557 137 554 139 551 C142 541 141 532 141 523 C141 511 141 499 141 488 C141 464 140 440 139 416 C137 385 135 355 132 324 C108 325 85 326 61 328 L61 328 Z " />
<glyph glyph-name="I" unicode="I" horiz-adv-x="177" d="M135 437 C133 464 131 491 126 517 C122 540 115 564 102 583 C90 600 72 613 50 611 C13 607 -16 576 -31 544 C-35 536 -38 527 -41 518 C-44 506 -25 501 -22 513 C-18 529 -10 545 1 559 C10 572 23 583 38 588 C41 590 45 590 47 591 C48 591 48 591 48 591 C49 591 49 591 50 591 C51 591 52 591 53 591 C55 591 56 591 58 591 C58 591 60 591 60 591 C62 591 63 590 64 590 C65 590 66 589 66 589 C67 589 67 589 67 589 C67 589 67 589 68 588 C69 588 71 587 73 586 C73 585 75 584 75 584 C75 584 76 583 76 583 C78 582 79 580 81 578 C82 577 82 577 83 576 C83 576 83 575 83 575 C84 575 84 575 84 575 C85 573 87 570 88 568 C91 564 93 560 95 555 C95 555 95 555 95 555 C95 555 95 555 95 555 C95 554 95 554 96 553 C96 552 97 551 97 550 C98 547 99 544 100 542 C101 536 103 530 104 525 C106 519 107 513 108 507 C109 504 109 501 110 498 C110 497 110 495 110 494 C110 493 110 493 110 492 C111 491 111 491 111 491 C111 491 111 490 111 490 C112 478 113 466 114 453 C117 403 116 351 111 301 C106 254 97 208 85 162 C78 136 73 109 64 83 C56 58 45 31 24 14 C23 12 24 13 22 12 C21 11 20 11 19 10 C17 9 16 8 15 8 C15 8 14 7 14 7 C13 7 12 7 12 7 C9 6 6 5 4 5 C3 5 3 5 2 5 C1 5 0 5 0 5 C0 5 0 5 -1 5 C-1 5 -1 5 -2 5 C-2 5 -2 5 -2 5 C-2 6 -3 6 -3 6 C-3 6 -3 6 -3 6 C-3 6 -3 6 -4 6 C-4 7 -6 9 -5 8 C-7 11 -7 11 -8 15 C-9 19 -10 25 -9 31 C-9 32 -8 36 -7 39 C-6 43 -6 43 -4 46 C2 57 -15 67 -21 56 C-34 33 -33 -14 2 -15 C17 -15 31 -7 42 3 C52 13 60 26 67 39 C81 68 90 99 97 130 C107 170 117 209 123 249 C133 311 137 374 135 437 L135 437 Z " />
<glyph glyph-name="J" unicode="J" horiz-adv-x="195" d="M140 528 C139 538 138 549 137 559 C136 564 131 567 126 566 C87 557 47 547 8 537 C-5 534 -2 516 10 519 C46 527 82 536 118 545 C126 468 129 391 128 313 C126 234 121 152 89 74 C64 13 21 -46 -38 -80 C-67 -97 -106 -112 -132 -92 C-151 -77 -156 -48 -149 -24 C-140 6 -114 31 -87 47 C-53 66 -16 74 21 78 C31 79 41 80 51 81 C56 82 61 85 62 91 C63 96 59 101 54 100 C12 97 -30 92 -71 75 C-104 62 -136 38 -155 7 C-173 -22 -177 -57 -164 -84 C-158 -97 -148 -108 -135 -114 C-118 -122 -99 -122 -79 -118 C-43 -109 -8 -85 20 -59 C48 -33 70 -3 88 29 C131 106 142 190 146 271 C150 357 148 443 140 528 L140 528 Z " />
<glyph glyph-name="K" unicode="K" horiz-adv-x="260" d="M285 518 C309 544 333 571 356 598 C360 602 360 607 356 611 C353 615 346 616 343 611 C302 564 259 517 214 473 C170 429 124 386 76 346 C67 337 57 329 47 321 C39 321 31 319 24 316 C29 358 35 400 42 441 C48 479 56 517 63 555 C66 567 47 572 45 560 C30 492 19 424 9 356 C7 339 5 321 3 303 C-5 295 -10 284 -9 271 C-9 266 -6 263 -2 262 C-5 225 -8 188 -10 152 C-12 113 -14 74 -14 35 C-14 23 5 23 5 35 C6 104 10 172 16 239 C17 251 18 262 19 274 C31 283 43 292 54 302 C56 302 57 301 59 301 C90 295 105 259 114 232 C120 213 126 194 132 174 C139 154 146 134 153 114 C168 73 185 32 202 -7 C222 -51 244 -95 267 -138 C273 -149 290 -139 284 -128 C240 -48 202 36 171 121 C163 143 156 164 149 186 C142 205 137 225 130 244 C120 273 103 306 73 317 C100 340 126 363 152 386 C198 428 242 472 285 518 L285 518 Z " />
<glyph glyph-name="L" unicode="L" horiz-adv-x="157" d="M293 33 C208 49 123 55 37 52 C48 71 56 91 61 112 C73 156 76 203 78 249 C83 345 78 441 62 536 C61 547 58 559 56 570 C55 576 49 578 44 577 C39 576 37 570 37 565 C54 476 62 386 60 295 C60 251 57 206 51 161 C46 123 36 84 14 52 C11 51 8 51 5 51 C-18 50 -42 48 -65 45 C-87 42 -109 39 -130 32 C-149 26 -170 18 -183 2 C-195 -11 -204 -30 -195 -48 C-185 -66 -163 -68 -145 -66 C-126 -63 -108 -58 -91 -51 C-56 -37 -23 -18 4 9 C11 17 18 24 24 32 C101 36 178 32 255 20 C266 18 277 17 287 15 C293 13 298 16 299 21 C301 26 298 32 293 33 L293 33 Z M-63 -16 C-78 -25 -94 -32 -110 -37 C-125 -42 -142 -48 -159 -47 C-165 -47 -173 -45 -176 -40 C-180 -35 -179 -29 -177 -23 C-170 -7 -155 2 -140 8 C-121 16 -101 20 -81 23 C-60 26 -38 29 -16 30 C-12 30 -7 31 -2 31 C-19 12 -40 -4 -63 -16 L-63 -16 Z " />
<glyph glyph-name="M" unicode="M" horiz-adv-x="659" d="M680 10 C635 32 611 76 599 123 C584 181 588 244 582 304 C581 320 580 335 577 351 C574 365 571 380 563 392 C549 415 524 424 494 420 C442 413 401 365 375 321 C361 299 349 275 339 251 C326 222 317 192 309 162 C302 190 300 219 296 247 C291 278 285 309 278 339 C270 374 260 408 247 440 C236 465 223 492 200 506 C189 514 173 518 159 509 C143 498 132 477 123 460 C115 442 108 422 102 403 C88 363 77 323 66 283 C62 263 57 243 52 223 C47 198 41 173 35 148 C29 114 22 82 17 49 C18 91 19 134 21 177 C25 258 31 338 40 419 C45 465 52 511 56 557 C58 569 38 569 37 557 C33 515 27 474 22 433 C17 392 14 352 10 311 C4 230 0 149 -1 69 C-2 23 -2 -23 -2 -68 C-2 -73 3 -76 7 -75 C12 -75 16 -71 16 -66 C31 22 46 110 66 198 C81 264 97 329 118 394 C127 419 136 443 148 467 C155 480 167 502 184 493 C205 482 218 458 227 436 C238 409 247 381 254 352 C262 321 268 289 273 257 C279 226 281 193 288 163 C292 150 296 137 301 126 C304 119 316 119 320 128 C329 160 335 193 349 225 C357 248 368 272 380 294 C392 316 406 338 423 357 C439 375 459 391 482 398 C505 405 531 403 543 384 C551 373 554 360 556 347 C559 332 561 317 563 301 C568 242 565 181 578 124 C589 76 610 30 652 2 C656 -1 662 -4 667 -6 C671 -9 677 -8 681 -3 C683 1 683 8 680 10 L680 10 Z " />
<glyph glyph-name="N" unicode="N" horiz-adv-x="359" d="M326 73 C307 161 303 252 301 342 C299 387 298 432 296 477 C294 498 293 519 290 540 C288 555 283 572 271 583 C258 595 239 597 223 589 C207 581 196 565 187 549 C167 514 150 477 136 439 C108 363 92 284 82 204 C74 144 70 85 67 25 C66 33 65 42 64 50 C60 91 56 133 52 174 C44 257 36 339 28 421 C24 468 19 514 15 560 C14 566 11 570 5 570 C0 570 -5 566 -4 560 C4 478 11 395 19 312 C27 229 36 146 44 63 C48 17 51 -29 63 -73 C66 -84 82 -81 82 -71 C85 9 89 88 97 167 C105 244 119 321 142 396 C154 433 168 469 185 504 C193 520 201 538 212 553 C220 563 232 577 247 574 C260 572 266 558 269 546 C274 529 274 510 275 492 C278 449 280 405 281 361 C283 274 285 186 301 100 C303 89 305 79 307 68 C310 56 329 61 326 73 L326 73 Z " />
<glyph glyph-name="O" unicode="O" horiz-adv-x="357" d="M308 399 C302 462 290 529 251 581 C234 602 214 621 191 633 C166 646 138 652 110 651 C82 651 50 645 26 628 C7 615 -7 594 -12 571 C-22 523 -5 471 22 431 C25 426 29 421 33 415 C10 337 1 255 -4 174 C-8 109 -11 35 28 -22 C36 -36 47 -47 62 -55 C76 -61 91 -65 106 -64 C139 -64 170 -50 194 -29 C221 -5 240 26 255 58 C271 93 284 131 294 169 C312 244 317 322 308 399 L308 399 Z M285 226 C280 189 271 153 259 119 C247 85 233 52 213 23 C196 -3 173 -26 144 -37 C119 -47 90 -49 67 -35 C55 -28 46 -16 39 -3 C31 10 26 25 22 40 C14 71 13 103 14 135 C15 171 17 207 21 243 C24 282 30 320 38 359 C42 372 45 384 48 397 C87 354 138 321 194 305 C210 300 227 296 244 294 C249 294 253 299 253 304 C253 310 249 313 244 314 C178 321 116 355 71 402 C64 409 58 415 53 422 C52 423 52 423 51 424 C39 439 29 455 21 473 C12 492 6 516 5 536 C4 557 7 577 19 594 C24 601 31 609 40 614 C50 621 62 625 75 627 C101 633 129 633 154 626 C177 620 198 608 215 592 C256 553 273 498 283 444 C295 372 297 298 285 226 L285 226 Z " />
<glyph glyph-name="P" unicode="P" horiz-adv-x="346" d="M373 636 C351 666 317 679 281 681 C245 683 208 675 174 664 C136 651 99 636 63 617 C-8 581 -73 533 -129 475 C-136 468 -142 461 -149 454 C-157 444 -144 431 -135 440 C-84 497 -23 546 44 584 C77 603 111 620 147 634 C180 646 214 658 250 661 C280 664 315 662 340 642 C368 621 376 585 372 552 C367 514 345 481 320 453 C293 422 264 394 233 368 C179 321 121 280 60 243 C58 274 57 305 55 337 C53 375 51 413 48 451 C48 456 44 461 38 461 C33 461 28 456 29 451 C33 383 37 316 40 248 C40 243 40 237 41 232 C38 230 35 228 32 226 C23 221 14 216 5 211 C-6 205 4 189 15 195 C24 199 33 204 42 210 C44 155 45 100 46 46 C47 7 48 -31 48 -69 C48 -82 67 -82 67 -69 C67 -1 66 67 64 134 C63 163 62 192 61 221 C119 256 176 295 228 338 C260 365 292 394 321 425 C348 454 375 488 387 527 C397 563 395 605 373 636 L373 636 Z " />
<glyph glyph-name="Q" unicode="Q" horiz-adv-x="385" d="M242 20 C277 52 302 93 317 137 C341 205 343 279 334 350 C329 388 321 425 310 462 C302 492 293 521 277 548 C251 592 207 639 151 635 C120 633 94 616 72 595 C52 576 36 552 24 526 C1 474 -5 415 2 358 C4 345 7 331 10 318 C13 305 6 290 2 277 C-2 266 -4 256 -5 244 C-7 226 -7 208 -5 190 C-2 148 8 107 25 68 C40 35 62 1 95 -17 C111 -25 128 -30 146 -29 C167 -27 188 -19 206 -8 C213 -3 220 2 227 8 L254 -23 C279 -52 302 -84 319 -118 C325 -129 342 -119 336 -108 C312 -61 278 -19 242 20 L242 20 L242 20 Z M29 481 C36 506 46 530 61 552 C76 575 97 595 121 607 C142 618 166 618 188 609 C211 600 229 582 244 563 C260 542 272 518 281 493 C292 460 301 425 307 390 C321 322 325 249 309 180 C297 125 271 73 229 35 L208 57 C161 107 111 157 75 217 C54 250 39 286 29 323 C16 374 15 430 29 481 L29 481 L29 481 Z M190 6 C181 1 174 -3 164 -5 C112 -21 74 17 51 60 C33 93 23 129 17 166 C12 203 10 242 23 278 C30 259 39 240 49 221 C66 191 87 163 110 136 C143 96 179 60 214 22 C207 16 199 11 190 6 L190 6 Z " />
<glyph glyph-name="R" unicode="R" horiz-adv-x="342" d="M73 456 C73 373 73 290 73 207 C73 183 73 160 73 136 C73 123 93 123 93 136 C93 219 93 302 93 385 C93 409 93 432 93 456 C93 468 73 468 73 456 L73 456 Z M313 598 C301 608 286 612 270 614 C257 615 244 615 232 615 C179 613 128 594 85 563 C42 532 8 490 -11 440 C-13 434 -15 428 -17 422 C-20 410 -2 405 2 417 C16 464 44 504 81 535 C118 566 164 587 212 594 C235 597 262 598 285 591 C297 587 306 580 311 569 C316 559 316 547 316 536 C315 523 311 510 308 498 C304 484 299 471 294 457 C283 430 269 404 254 379 C226 333 193 291 159 249 C155 249 152 248 149 246 C136 240 127 225 132 211 C135 205 144 201 149 207 C155 214 161 222 168 230 C176 228 185 221 190 215 C206 200 217 180 225 159 C243 112 245 62 252 13 C256 -17 262 -47 274 -75 C277 -80 284 -81 288 -78 C293 -75 293 -70 291 -65 C268 -12 269 48 260 104 C255 129 249 154 238 178 C228 201 213 224 192 239 C189 242 185 244 181 246 C210 281 238 317 262 356 C279 382 294 409 306 437 C318 464 329 493 334 523 C337 549 336 580 313 598 L313 598 Z " />
<glyph glyph-name="S" unicode="S" horiz-adv-x="285" d="M434 627 C324 598 217 552 121 490 C81 465 40 433 21 388 C9 363 6 336 10 309 C15 281 27 254 40 229 C80 155 144 115 202 59 C215 47 228 33 238 18 C250 0 252 -16 231 -26 C140 -69 39 -84 -60 -73 C-77 -72 -120 -70 -110 -42 C-106 -31 -97 -22 -88 -14 C-39 29 21 61 85 77 C89 78 94 79 97 82 C101 85 103 91 100 95 C97 99 90 99 85 97 C42 88 1 69 -36 47 C-63 32 -89 14 -110 -8 C-118 -18 -126 -27 -129 -39 C-133 -51 -132 -64 -124 -73 C-116 -83 -102 -86 -90 -88 C8 -105 111 -95 204 -59 C212 -55 221 -52 230 -48 C243 -42 258 -35 264 -21 C278 13 238 52 216 73 C160 127 95 168 55 238 C31 280 21 333 39 379 C60 431 113 463 159 490 C184 505 209 519 235 532 C287 557 341 579 397 596 C411 600 425 604 439 608 C451 611 446 630 434 627 L434 627 Z " />
<glyph glyph-name="T" unicode="T" horiz-adv-x="134" d="M315 647 C300 669 275 681 249 683 C202 688 160 661 131 626 C99 587 79 541 61 494 C58 485 55 476 52 467 C-35 466 -122 482 -203 515 C-215 520 -226 525 -238 531 C-243 533 -249 532 -251 527 C-254 523 -253 516 -248 514 C-156 470 -55 447 46 447 C34 409 25 370 19 331 C0 219 2 104 25 -7 C28 -20 31 -34 34 -47 C38 -59 56 -54 53 -42 C26 63 19 172 31 279 C37 332 48 385 63 436 C64 440 65 444 66 448 C72 448 77 448 82 448 C111 450 139 453 167 459 C192 463 217 470 241 480 C263 489 285 503 301 522 C316 540 325 561 328 584 C331 605 327 628 315 647 L315 647 Z M299 555 C290 535 274 520 256 509 C235 497 213 489 189 483 C165 477 140 473 114 471 C100 469 87 468 73 467 C85 505 100 542 120 575 C140 610 169 647 209 660 C230 666 254 667 274 657 C292 648 304 632 308 612 C312 593 308 572 299 555 L299 555 Z " />
<glyph glyph-name="U" unicode="U" horiz-adv-x="426" d="M370 548 C367 553 360 554 356 552 C351 549 351 543 353 539 C373 495 372 445 367 398 C363 353 356 308 346 264 C336 222 323 180 304 141 C285 102 259 63 224 38 C208 26 188 15 167 15 C148 14 129 20 115 32 C80 60 70 105 68 147 C68 173 70 198 71 223 C73 249 74 274 74 299 C74 350 70 400 59 450 C49 494 33 545 -5 573 C-23 586 -46 593 -68 590 C-89 587 -107 574 -117 555 C-122 546 -125 536 -126 526 C-126 521 -121 516 -116 516 C-110 516 -107 521 -106 526 C-105 544 -93 561 -76 568 C-57 576 -36 570 -20 560 C-1 548 11 528 20 509 C30 487 36 463 41 439 C52 390 55 339 54 289 C54 264 53 238 51 213 C50 188 48 162 49 137 C52 93 66 47 102 18 C118 5 137 -3 158 -5 C181 -6 203 1 222 13 C260 36 289 74 311 112 C333 151 348 194 359 237 C371 281 378 325 383 370 C389 418 394 467 382 515 C379 526 375 538 370 548 L370 548 Z " />
<glyph glyph-name="V" unicode="V" horiz-adv-x="455" d="M384 361 C381 366 375 367 371 364 C355 357 338 358 323 364 C329 402 332 447 301 475 C298 479 291 479 288 475 C267 454 260 421 270 393 C276 377 286 363 301 354 C293 314 282 274 271 236 C244 149 210 65 174 -18 C165 -39 156 -61 146 -82 C138 -98 128 -114 114 -125 C100 -110 89 -92 80 -73 C69 -50 61 -26 54 -2 C39 48 30 99 25 150 C15 259 22 368 27 477 C29 541 31 604 28 668 C27 680 8 680 8 668 C14 553 4 438 1 323 C-1 217 2 109 31 6 C39 -22 49 -50 61 -77 C72 -102 84 -128 107 -145 C111 -148 114 -149 118 -146 C151 -121 168 -82 183 -46 C202 -2 220 41 238 85 C271 170 300 256 319 345 C323 343 328 342 332 341 C349 339 365 341 381 348 C385 350 387 357 384 361 L384 361 Z M286 428 C287 437 290 445 295 453 C311 431 309 401 305 375 C290 388 283 408 286 428 L286 428 Z " />
<glyph glyph-name="W" unicode="W" horiz-adv-x="549" d="M500 356 C494 357 490 354 489 349 C475 294 450 241 414 200 C406 190 397 181 384 177 C374 175 364 176 354 182 C334 193 320 216 312 237 C298 272 293 309 294 345 C294 349 293 353 289 356 C285 358 279 357 277 354 C234 304 205 244 180 183 C154 122 131 59 97 1 C91 -9 82 -25 67 -25 C52 -25 40 -11 35 2 C28 20 27 41 25 59 C22 80 20 100 19 121 C13 202 13 283 21 363 C25 403 31 442 38 481 C44 517 52 552 68 583 C72 590 76 598 81 604 C84 608 84 614 80 618 C76 622 69 622 66 618 C44 588 33 553 24 516 C16 477 9 436 5 396 C-5 313 -7 229 -2 145 C-1 123 0 102 3 80 C5 60 7 39 11 19 C14 0 22 -19 38 -32 C53 -44 72 -48 88 -40 C103 -32 111 -15 120 -1 C128 14 136 29 143 45 C158 76 171 108 184 140 C209 202 235 266 275 319 C277 293 282 267 290 241 C299 215 314 188 337 171 C348 163 361 157 375 157 C390 156 404 162 414 171 C426 181 435 193 444 205 C454 218 462 231 470 245 C487 276 500 309 508 344 C509 349 505 355 500 356 L500 356 Z " />
<glyph glyph-name="X" unicode="X" horiz-adv-x="331" d="M300 559 C283 481 241 411 187 353 C175 339 162 327 149 315 C133 346 117 377 101 408 C79 449 56 490 31 530 C25 541 8 531 15 521 C57 449 97 376 133 302 C86 262 32 228 -22 198 C-67 173 -113 151 -159 128 C-164 126 -165 119 -163 115 C-160 110 -154 109 -150 112 C-66 152 17 193 93 246 C110 258 126 271 142 284 C175 215 206 145 234 74 C252 30 268 -13 283 -58 C285 -63 290 -66 295 -65 C300 -64 304 -58 302 -53 C275 26 244 105 210 182 C194 221 176 259 158 297 C200 335 238 378 268 427 C291 467 309 509 319 554 C321 567 302 572 300 559 L300 559 Z " />
<glyph glyph-name="Y" unicode="Y" horiz-adv-x="396" d="M379 632 C368 654 347 669 322 668 C279 667 264 622 254 588 C238 535 227 480 217 425 C211 390 206 354 201 319 C198 297 195 274 192 252 C192 252 192 252 192 252 C130 252 87 312 61 361 C28 423 13 493 8 562 C5 590 5 619 5 647 C6 660 -14 660 -14 647 C-15 591 -12 534 0 479 C18 391 64 270 158 237 C168 234 179 232 190 232 C189 224 188 216 187 207 C179 143 173 79 166 15 C166 13 166 11 166 9 L164 -5 C163 -22 161 -38 160 -55 L153 -133 C153 -133 150 -142 154 -147 C157 -149 161 -150 164 -148 C169 -146 171 -139 171 -133 C176 -87 180 -40 185 7 C190 51 194 99 199 143 C202 173 206 203 210 233 C231 235 252 241 271 252 C302 270 323 302 338 333 C354 366 367 401 376 436 C385 472 391 508 393 545 C393 574 391 605 379 632 L379 632 Z M373 549 C373 536 372 524 370 512 C367 485 362 459 355 434 C351 420 347 407 342 394 C332 364 320 335 301 307 C298 303 294 298 290 293 C283 285 275 277 266 271 C249 261 231 255 212 253 C216 288 220 320 226 356 C231 389 236 422 242 456 C248 485 254 514 261 543 C267 565 273 588 281 609 C287 625 297 644 315 648 C333 651 349 642 358 627 C365 616 369 603 371 590 C373 577 374 563 373 549 L373 549 Z " />
<glyph glyph-name="Z" unicode="Z" horiz-adv-x="328" d="M830 16 C763 25 695 32 627 37 C559 42 492 46 424 47 C356 49 287 48 219 46 C152 43 84 39 16 33 C0 32 -17 30 -34 28 C-50 27 -66 24 -82 23 C-91 23 -102 25 -109 29 C-112 31 -114 33 -114 35 C-114 36 -114 36 -114 36 C-114 39 -112 41 -110 43 C-109 44 -109 44 -108 45 C-58 92 -7 137 44 184 C95 230 147 277 198 323 C237 359 280 401 292 455 C297 481 294 508 282 532 C270 555 252 573 231 587 C178 621 115 620 55 612 C39 610 23 607 7 604 C2 603 -1 597 0 592 C2 587 7 585 12 585 C72 596 138 608 196 583 C240 564 278 524 274 474 C273 448 261 425 246 404 C230 381 211 362 191 344 C141 297 90 251 39 205 C-12 159 -62 113 -113 66 C-123 57 -136 47 -134 32 C-132 21 -123 14 -113 10 C-103 5 -91 3 -80 4 C-64 5 -48 8 -31 9 C36 16 104 21 171 24 C239 28 307 29 375 28 C442 28 510 25 578 21 C645 17 713 11 780 3 C797 1 813 -1 830 -4 C835 -4 840 1 840 6 C840 12 835 15 830 16 L830 16 Z " />
<glyph glyph-name="bracketleft" unicode="&#x5b;" horiz-adv-x="134" d="M116 646 C99 664 70 653 59 634 C52 623 51 610 50 597 C49 583 49 569 49 555 C48 494 47 434 46 373 C45 252 45 131 48 10 C48 -5 48 -21 49 -36 C50 -48 52 -60 58 -71 C64 -82 74 -91 86 -93 C102 -95 117 -88 131 -81 C142 -76 132 -59 121 -65 C112 -69 100 -75 89 -73 C81 -72 76 -66 73 -59 C70 -51 69 -41 68 -32 C68 -19 68 -6 67 7 C66 63 65 119 65 176 C65 287 66 399 68 511 C68 527 68 543 69 559 C69 573 68 587 70 602 C71 612 73 624 81 631 C88 636 97 638 103 632 C112 623 125 637 116 646 L116 646 L116 646 Z " />
<glyph glyph-name="backslash" unicode="&#x5c;" horiz-adv-x="234" d="M31 459 C70 385 110 312 152 240 C163 219 175 199 187 179 C193 168 210 178 204 188 C162 260 121 333 81 406 C70 427 59 448 48 469 C42 480 25 470 31 459 L31 459 L31 459 Z " />
<glyph glyph-name="bracketright" unicode="&#x5d;" horiz-adv-x="140" d="M31 630 C36 635 43 634 49 631 C58 626 61 617 63 608 C65 596 65 583 65 572 C65 558 65 544 66 530 C66 474 67 418 68 361 C69 250 70 138 67 26 C67 10 66 -6 66 -22 C65 -33 65 -43 63 -54 C60 -62 57 -71 48 -74 C37 -79 23 -72 13 -67 C2 -61 -8 -78 3 -83 C15 -89 28 -96 42 -95 C54 -95 65 -89 73 -79 C86 -61 85 -35 85 -14 C87 47 88 107 89 168 C89 289 87 410 85 531 C85 548 85 564 84 581 C84 595 84 610 79 624 C73 637 65 646 52 651 C40 655 26 653 17 644 C9 635 22 621 31 630 L31 630 L31 630 Z " />
<glyph glyph-name="asciicircum" unicode="&#x5e;" horiz-adv-x="168" d="M154 507 C151 508 150 509 149 511 C147 515 144 519 142 523 C137 530 133 538 129 545 C119 560 110 575 101 590 C96 596 88 596 84 590 C61 559 38 527 15 496 C12 492 15 485 19 483 C24 480 29 482 32 486 C52 513 72 540 91 568 C99 555 107 542 115 530 C120 522 125 513 130 505 C135 498 140 490 148 488 C161 486 166 504 154 507 L154 507 Z " />
<glyph glyph-name="underscore" unicode="&#x5f;" horiz-adv-x="175" d="M-2 215 C41 215 84 215 127 215 C140 215 140 235 127 235 C84 235 41 235 -2 235 C-15 235 -15 215 -2 215 L-2 215 L-2 215 Z " />
<glyph glyph-name="grave" unicode="&#x60;" horiz-adv-x="80" d="M20 476 C28 466 37 457 45 447 C54 438 68 451 60 460 C51 470 43 479 35 488 C26 498 12 485 20 476 L20 476 L20 476 Z " />
<glyph glyph-name="a" unicode="a" horiz-adv-x="144" d="M144 299 C121 285 98 272 74 259 C71 257 65 252 61 253 C58 253 56 257 55 259 C53 263 54 268 54 273 C54 280 54 287 53 293 C51 299 45 301 40 300 C42 304 40 309 36 311 C20 322 4 304 -4 292 C-8 285 -12 278 -15 270 C-17 263 -19 256 -18 248 C-17 240 -11 233 -2 233 C7 233 14 240 20 246 C25 251 30 257 35 262 C35 257 36 253 39 248 C45 235 59 230 72 236 C86 242 100 251 113 258 C126 266 140 274 153 282 C164 289 154 306 144 299 L144 299 Z M14 269 C11 264 7 261 3 257 C2 256 2 256 1 255 C2 258 3 261 3 263 C5 268 8 273 10 278 C13 282 16 287 20 290 C21 292 23 293 24 294 C25 294 25 295 26 295 C26 295 26 295 26 294 C28 293 31 293 33 293 C28 284 21 276 14 269 L14 269 Z " />
<glyph glyph-name="b" unicode="b" horiz-adv-x="172" d="M172 299 C166 296 160 293 154 289 C131 276 107 264 83 252 C87 259 88 265 89 268 C89 269 90 271 90 271 C92 280 91 289 83 296 C79 299 74 299 70 296 C49 277 30 255 15 232 C20 302 24 372 27 441 C27 454 8 454 7 441 C4 360 0 279 -8 199 C-8 196 -6 193 -4 191 C-1 184 9 181 13 189 C27 218 46 245 69 268 C67 263 64 258 62 254 C60 251 59 249 57 247 C48 240 41 232 34 223 C31 219 33 213 37 210 C41 207 46 208 49 211 C50 211 51 212 51 212 C94 237 139 257 182 282 C192 289 183 305 172 299 L172 299 Z " />
<glyph glyph-name="c" unicode="c" horiz-adv-x="130" d="M139 282 C150 289 141 305 130 298 C102 280 72 267 41 254 C35 251 28 247 21 245 C17 244 10 241 5 244 C1 246 1 253 1 258 C2 264 3 270 6 275 C9 281 13 286 18 290 C18 290 18 289 18 289 C17 288 16 287 15 286 C6 276 20 263 29 272 C36 279 41 289 37 299 C33 310 22 315 11 309 C-5 300 -16 279 -18 261 C-19 252 -18 242 -12 234 C-6 226 4 222 14 224 C24 225 34 229 44 233 C54 238 64 242 73 246 C96 257 118 269 139 282 L139 282 Z " />
<glyph glyph-name="d" unicode="d" horiz-adv-x="149" d="M102 421 C103 443 105 466 106 488 C107 501 88 501 87 488 C84 460 79 432 74 404 C69 380 63 356 55 333 C52 324 48 316 44 307 C43 309 40 310 37 310 C11 309 -14 294 -29 271 C-37 258 -42 241 -29 231 C-18 222 -2 225 10 233 C33 250 50 275 61 299 C68 313 73 327 78 341 C76 310 74 280 72 249 C71 226 69 204 68 181 C67 168 87 168 88 181 C92 261 97 341 102 421 L102 421 Z M22 272 C16 263 7 254 -2 248 C-6 246 -10 244 -14 245 C-17 246 -18 248 -17 252 C-14 263 -5 273 4 279 C13 285 24 290 35 291 C31 284 27 278 22 272 L22 272 Z " />
<glyph glyph-name="e" unicode="e" horiz-adv-x="145" d="M158 297 C154 300 146 302 142 295 C137 288 132 282 127 276 C117 266 107 257 95 251 C76 240 56 234 34 239 C25 242 14 247 9 253 C15 255 24 255 32 259 C40 263 49 270 52 279 C55 291 44 301 33 304 C22 307 2 304 -6 295 C-15 285 -17 270 -14 258 C-11 246 -3 236 8 229 C13 225 20 222 28 220 C28 220 28 220 28 220 C54 215 83 221 105 234 C112 238 119 242 125 247 C138 258 149 271 159 286 C162 290 160 294 158 297 L158 297 Z M4 272 C5 278 11 282 17 284 C21 285 30 284 32 283 C32 282 27 278 22 277 C14 273 5 272 4 272 L4 272 Z " />
<glyph glyph-name="f" unicode="f" horiz-adv-x="132" d="M144 293 C143 298 137 301 132 299 C111 292 29 266 17 262 C18 286 21 311 23 335 C29 387 39 439 52 490 C55 502 36 507 33 495 C13 415 1 333 -3 250 C-5 248 -8 246 -10 243 C-19 230 -14 214 -4 202 C-4 191 -4 179 -4 168 C-4 157 -4 145 -2 133 C-1 123 5 113 16 110 C26 107 38 111 45 119 C60 135 66 163 53 181 C43 194 27 200 15 210 C15 219 16 231 16 241 C56 257 98 266 138 281 C143 283 146 287 144 293 L144 293 Z M40 161 C41 152 38 141 33 134 C30 130 21 125 18 132 C13 146 14 169 15 186 C26 180 39 173 40 161 L40 161 Z " />
<glyph glyph-name="g" unicode="g" horiz-adv-x="142" d="M142 298 C113 271 86 243 62 212 C65 246 66 279 66 313 C66 318 63 321 59 322 C58 326 53 330 47 328 C13 320 -16 291 -25 257 C-27 248 -28 239 -26 231 C-23 221 -15 214 -5 214 C6 215 15 222 23 228 C30 233 36 240 42 247 C43 248 44 250 45 251 C44 228 42 206 41 184 C9 140 -17 93 -37 43 C-48 18 -60 -10 -58 -37 C-57 -51 -48 -63 -33 -61 C-21 -60 -9 -55 0 -48 C22 -32 33 -6 38 20 C45 48 48 78 52 107 C55 130 58 153 60 177 C88 216 120 251 155 284 C165 292 151 306 142 298 L142 298 Z M36 140 C33 112 29 84 25 57 C21 32 18 5 4 -16 C-2 -24 -9 -32 -18 -37 C-27 -41 -37 -45 -39 -38 C-42 -27 -37 -13 -34 -3 C-30 10 -25 22 -20 33 C-5 71 14 108 37 143 C36 142 36 141 36 140 L36 140 Z M45 305 C45 304 45 303 45 302 C41 275 25 251 2 237 C0 236 -4 233 -6 234 C-7 234 -7 235 -7 237 C-8 242 -7 248 -5 253 C-1 266 5 278 14 287 C23 296 34 303 46 307 C46 307 46 306 45 305 L45 305 Z " />
<glyph glyph-name="h" unicode="h" horiz-adv-x="190" d="M201 295 C199 300 193 301 188 299 C179 295 169 291 159 287 C139 279 119 273 99 266 C99 266 99 266 99 266 C100 270 100 274 100 278 C100 286 98 294 94 300 C87 309 78 307 70 302 C64 297 57 292 51 287 C39 276 26 264 16 251 C21 319 25 387 27 455 C28 468 8 468 8 455 C5 377 0 299 -6 221 C-6 221 -8 201 0 201 L0 201 C7 202 8 205 13 213 C16 218 19 222 22 227 C28 236 35 244 42 252 C49 259 56 265 63 271 C66 274 70 277 73 280 C75 281 77 282 78 284 C79 284 79 284 80 285 C80 285 80 285 80 284 C80 282 81 281 81 278 C81 274 80 269 79 265 C79 264 79 263 79 263 C79 258 78 239 109 249 C139 259 169 269 198 282 C203 284 204 291 201 295 L201 295 Z " />
<glyph glyph-name="i" unicode="i" horiz-adv-x="105" d="M119 297 C115 301 109 301 105 297 C96 290 87 282 77 276 C72 272 66 268 60 265 C55 262 49 258 43 256 C35 254 21 253 17 262 C13 271 16 282 18 291 C21 304 2 309 -1 297 C-4 283 -7 268 -1 254 C6 239 23 234 39 236 C55 238 70 247 83 256 C96 264 107 274 119 283 C123 287 122 294 119 297 L119 297 Z M15 326 C28 326 28 346 15 346 C3 346 3 326 15 326 L15 326 Z " />
<glyph glyph-name="j" unicode="j" horiz-adv-x="95" d="M8 348 C20 348 21 368 8 368 C-5 368 -5 348 8 348 L8 348 Z M95 298 C67 271 40 243 16 212 C18 246 19 279 19 313 C19 326 0 326 0 313 C0 270 -2 227 -5 184 C-37 140 -63 93 -84 43 C-94 18 -106 -10 -104 -37 C-103 -51 -94 -63 -79 -61 C-67 -60 -55 -55 -46 -48 C-24 -32 -14 -6 -8 20 C-2 48 2 78 6 107 C9 130 11 153 13 177 C41 216 74 251 109 284 C119 292 105 306 95 298 L95 298 Z M-10 140 C-13 112 -17 84 -21 57 C-25 32 -28 5 -42 -16 C-48 -24 -55 -32 -64 -37 C-68 -39 -72 -40 -77 -41 C-79 -42 -83 -43 -84 -41 C-84 -40 -85 -39 -85 -38 C-87 -27 -83 -13 -80 -3 C-76 10 -71 22 -66 33 C-51 71 -32 108 -10 143 C-10 142 -10 141 -10 140 L-10 140 Z " />
<glyph glyph-name="k" unicode="k" horiz-adv-x="169" d="M182 299 C177 302 172 300 169 296 C146 265 124 235 102 205 C97 197 91 190 86 182 C84 180 82 177 79 175 C79 175 78 174 77 174 C77 174 77 174 76 174 C76 175 76 175 75 176 C75 176 75 178 75 178 C74 180 75 184 75 186 C75 193 75 199 73 206 C71 217 65 227 57 233 C64 245 70 258 75 272 C78 280 81 289 79 298 C77 306 70 314 61 314 C51 315 43 308 36 302 C31 297 25 292 21 286 C20 285 20 284 19 284 C24 351 28 418 30 486 C31 498 11 498 11 486 C8 406 3 327 -4 247 C-4 247 -4 247 -4 247 C-5 237 0 230 7 230 C15 230 15 239 22 252 C25 258 28 264 32 269 C39 278 48 288 57 294 C58 294 59 294 59 295 C59 294 59 294 59 294 C60 292 60 291 59 289 C58 282 56 275 53 269 C48 257 42 245 34 234 C30 229 34 221 40 220 C50 217 55 204 55 194 C56 180 53 163 68 157 C87 148 100 169 110 182 C122 199 134 215 145 231 L185 286 C189 290 186 297 182 299 L182 299 Z " />
<glyph glyph-name="l" unicode="l" horiz-adv-x="141" d="M140 295 C124 270 106 245 83 226 C67 212 29 191 20 223 C18 230 18 238 18 245 C18 247 18 248 18 249 C20 294 20 298 20 301 C21 330 23 359 25 387 C26 420 28 452 29 485 C30 497 10 497 10 485 C8 423 3 361 0 299 C-1 284 -1 268 -2 252 C-2 252 -2 251 -2 250 C-2 250 -2 250 -2 250 C-2 249 -2 249 -2 249 C-2 249 -2 249 -2 249 C-2 240 -1 230 0 222 C4 206 15 191 31 188 C48 184 66 191 81 200 C96 210 109 223 120 236 C134 252 146 268 157 286 C163 296 146 306 140 295 L140 295 Z " />
<glyph glyph-name="m" unicode="m" horiz-adv-x="184" d="M184 300 C175 298 166 296 157 296 C153 296 109 296 105 297 C100 298 97 300 93 302 C83 306 74 302 65 297 C61 295 57 293 54 291 C53 297 51 303 47 308 C39 316 28 310 21 303 C21 304 21 306 21 307 C22 312 20 317 15 319 C10 320 4 317 3 312 C-1 295 -3 277 -5 260 C-7 254 -8 247 -9 240 C-9 230 9 227 11 238 C12 244 13 250 14 256 C16 264 20 271 24 278 C26 281 28 283 30 285 C31 286 33 287 34 288 C34 288 34 288 34 288 C34 284 34 280 33 276 C30 268 39 261 47 265 C56 270 64 275 73 279 C76 281 81 284 84 284 C88 284 92 281 95 280 C112 273 172 277 189 281 C201 284 196 303 184 300 L184 300 Z " />
<glyph glyph-name="n" unicode="n" horiz-adv-x="190" d="M190 299 C178 290 166 279 153 271 C146 266 138 260 129 261 C116 262 112 274 106 283 C102 290 96 296 89 298 C74 304 58 295 48 285 C40 279 34 270 27 263 C26 268 25 272 24 277 C22 283 21 288 20 294 C20 295 18 314 8 312 C1 310 0 303 0 300 C0 296 3 281 4 275 C7 264 9 252 13 241 C16 235 24 232 30 237 C40 246 48 258 58 268 C62 273 68 277 73 279 C79 281 83 281 86 277 C90 273 93 266 96 261 C106 247 121 240 137 243 C142 244 147 245 152 248 C159 251 165 255 171 260 C178 265 184 270 191 275 C194 278 198 281 202 284 C211 293 199 305 190 299 L190 299 Z " />
<glyph glyph-name="o" unicode="o" horiz-adv-x="105" d="M105 299 C92 292 76 289 61 289 C56 289 50 289 46 290 C45 290 43 290 42 290 C39 295 35 298 29 298 C29 301 28 303 26 305 C20 312 10 311 4 305 C-1 300 -5 293 -7 286 C-10 279 -12 271 -12 263 C-13 249 -10 228 8 229 C24 230 34 249 39 262 C40 264 41 267 42 270 C47 270 53 269 58 269 C78 269 97 273 115 282 C126 288 116 305 105 299 L105 299 Z M23 276 C22 271 20 267 18 263 C16 259 14 255 11 252 C10 251 9 250 8 249 C7 252 7 255 7 258 C7 263 7 267 8 271 C9 276 11 280 13 284 C13 284 13 284 13 285 C15 283 18 282 20 282 C21 281 22 279 23 278 C23 277 23 277 23 276 L23 276 Z " />
<glyph glyph-name="p" unicode="p" horiz-adv-x="193" d="M205 293 C203 298 198 301 193 300 C184 298 176 297 167 295 C148 291 128 287 109 282 C109 282 109 282 109 282 C110 288 110 295 106 301 C99 313 85 320 71 319 C49 317 33 304 18 289 C19 292 19 295 19 298 C19 302 19 307 20 312 C20 316 20 320 20 323 C22 326 23 329 22 332 C21 336 18 338 14 340 C11 341 7 340 5 338 C-1 331 0 319 0 311 C0 302 -1 293 -1 283 C-2 265 -2 246 -3 228 C-5 192 -6 155 -11 119 C-13 99 -16 78 -20 58 C-21 53 -19 47 -13 46 C-9 45 -2 47 -1 53 C12 120 15 189 17 257 C18 258 18 259 19 259 C30 273 43 289 60 296 C67 299 78 301 85 296 C93 290 90 283 85 276 C85 275 85 275 84 274 C80 273 75 272 70 270 C57 267 43 263 33 254 C22 244 20 224 36 218 C50 213 63 224 72 232 C80 240 89 249 96 258 L96 258 C96 258 96 258 96 258 C129 268 163 275 198 281 C203 282 206 288 205 293 L205 293 Z M53 242 C51 240 50 239 48 238 C48 238 46 237 44 236 C45 237 46 239 46 239 C49 242 53 244 57 246 C56 244 54 243 53 242 L53 242 Z " />
<glyph glyph-name="q" unicode="q" horiz-adv-x="151" d="M150 295 C134 265 114 237 90 213 C79 200 66 189 53 178 C48 174 43 169 37 166 C38 171 39 177 40 183 C48 223 57 264 67 304 C68 310 65 314 61 315 C55 323 46 329 36 329 C15 328 2 308 -4 291 C-8 281 -10 271 -11 260 C-11 251 -11 239 -8 230 C-4 220 5 212 16 216 C22 218 26 222 29 227 C25 206 21 185 17 164 C16 164 14 164 13 164 C5 164 0 153 6 148 C8 145 11 144 14 143 C10 117 7 91 5 65 C4 45 3 25 8 6 C11 -3 14 -12 22 -17 C30 -21 39 -20 47 -15 C61 -6 68 13 73 29 C78 46 80 64 78 82 C75 104 66 133 48 150 C60 157 70 166 80 175 C102 195 122 218 140 242 C150 256 159 270 167 285 C173 296 156 306 150 295 L150 295 Z M20 247 C19 245 12 232 10 238 C5 258 14 291 27 305 C30 308 35 310 40 309 C42 308 43 306 45 304 C46 303 46 302 45 301 C45 300 44 299 44 298 C40 287 36 277 31 267 C27 260 24 254 20 247 L20 247 Z M58 86 C60 72 60 57 56 42 C55 35 53 28 50 21 C47 14 44 8 39 3 C37 2 35 1 33 0 C32 0 31 0 30 2 C27 8 26 17 25 24 C23 41 24 58 26 76 C27 96 29 117 33 137 C36 134 39 130 42 126 C50 115 55 100 58 86 L58 86 Z " />
<glyph glyph-name="r" unicode="r" horiz-adv-x="125" d="M137 299 C132 302 127 299 124 295 C113 280 102 265 91 250 C81 236 72 222 61 208 C56 202 51 196 45 190 C41 187 35 180 30 180 C28 180 28 180 28 181 C27 183 28 187 28 189 C29 196 30 203 32 210 C36 225 42 240 49 254 C52 260 55 267 54 273 C54 281 48 287 41 289 C34 291 26 293 19 296 C27 310 33 324 37 340 C38 347 39 356 35 362 C30 370 21 374 12 370 C6 367 1 361 -2 355 C-7 347 -11 338 -13 329 C-15 320 -16 311 -13 302 C-11 294 -5 288 2 283 C9 279 17 276 24 274 C27 273 30 272 33 271 C33 271 34 271 34 271 C28 255 21 240 16 224 C12 215 10 205 9 194 C8 187 7 179 10 172 C14 163 24 159 34 161 C42 162 50 168 56 174 C72 189 85 208 98 226 C112 245 126 265 141 285 C144 290 141 296 137 299 L137 299 Z M10 337 C12 342 15 346 18 350 C19 336 13 323 5 311 C3 319 7 330 10 337 L10 337 Z M35 272 C34 273 35 272 35 272 L35 272 L35 272 Z " />
<glyph glyph-name="s" unicode="s" horiz-adv-x="130" d="M143 295 C141 299 134 302 130 299 C104 280 75 265 47 247 C46 251 44 255 42 259 C36 270 28 279 22 289 C31 300 41 311 46 324 C49 331 49 340 43 345 C37 351 28 351 20 348 C5 342 -4 326 -3 310 C-3 295 4 281 13 268 C20 258 27 248 31 236 C27 234 24 232 21 229 C14 225 8 220 2 215 C-8 204 -13 186 -3 174 C7 161 24 164 35 174 C45 184 50 198 52 212 C53 217 53 222 52 227 C81 246 112 262 140 282 C144 285 146 290 143 295 L143 295 Z M30 330 C30 330 30 330 30 330 C30 330 30 330 30 330 L30 330 Z M22 326 C23 328 25 329 26 330 C27 330 27 330 27 330 C26 327 24 323 22 320 C20 318 18 315 16 313 C16 315 16 316 17 318 C18 321 20 324 22 326 L22 326 Z M15 184 C12 185 11 188 11 191 C12 198 17 202 22 206 C25 209 29 212 33 214 C32 206 29 197 24 191 C22 188 18 184 15 184 L15 184 Z " />
<glyph glyph-name="t" unicode="t" horiz-adv-x="82" d="M65 369 C51 367 36 366 22 364 C23 378 25 393 26 407 C27 412 21 417 16 417 C11 417 7 412 7 407 C5 392 4 377 3 362 C-10 360 -24 359 -37 357 C-42 356 -47 353 -47 347 C-47 342 -42 337 -37 337 C-24 339 -11 341 2 342 C-1 290 0 238 4 186 C5 165 7 144 10 123 C11 118 14 113 20 113 C24 113 30 118 29 123 C20 196 18 271 21 344 C36 346 51 348 65 349 C70 350 75 353 75 359 C75 364 70 369 65 369 L65 369 Z " />
<glyph glyph-name="u" unicode="u" horiz-adv-x="160" d="M174 298 C169 302 164 301 160 298 C153 293 147 288 141 283 C133 277 124 272 116 268 C103 260 73 249 73 257 C74 261 74 268 74 272 C75 279 64 288 58 283 C49 275 42 266 34 257 C28 250 13 234 11 237 C9 241 11 257 13 263 C16 277 22 288 19 305 C17 317 3 312 1 299 C0 293 -1 286 -3 281 C-6 274 -8 266 -9 258 C-10 245 -10 215 12 216 C26 217 37 229 46 238 C49 241 51 245 54 248 C56 245 63 239 68 238 C89 235 113 244 124 250 C136 255 146 263 157 271 C158 272 160 273 161 274 C164 276 167 278 169 280 C171 282 174 283 175 286 C177 289 177 295 174 298 L174 298 Z " />
<glyph glyph-name="v" unicode="v" horiz-adv-x="214" d="M227 295 C225 299 218 302 214 299 C193 284 169 274 144 273 C139 272 133 272 127 272 C130 279 133 285 132 292 C131 299 126 305 119 307 C104 312 90 302 89 286 C89 277 94 269 100 263 C96 255 90 246 84 238 C76 229 67 219 57 211 C54 208 49 203 45 202 C40 202 36 206 34 210 C31 216 30 223 29 230 C27 238 25 247 24 255 C22 272 20 288 19 305 C18 317 -1 318 0 305 C1 286 3 267 6 248 C7 238 9 229 11 220 C12 212 15 203 20 196 C25 189 32 184 40 183 C50 182 58 187 65 192 C77 202 89 214 99 226 C106 235 112 245 118 255 C136 251 156 253 173 258 C191 262 208 271 224 282 C228 285 230 290 227 295 L227 295 Z M109 286 C109 289 109 288 110 289 C110 288 110 288 110 289 C111 288 113 289 112 289 C112 289 112 289 113 289 C113 289 113 289 113 289 C112 289 112 289 113 289 C112 288 112 285 111 285 C111 284 111 283 110 282 C109 283 109 285 109 286 L109 286 Z " />
<glyph glyph-name="w" unicode="w" horiz-adv-x="316" d="M325 290 C325 295 321 300 316 300 C274 296 265 294 223 294 C214 309 182 302 189 282 C190 278 194 275 198 275 C200 275 202 275 204 275 C202 271 200 268 197 264 C187 249 174 235 160 223 C155 219 149 215 143 213 C138 212 134 211 132 216 C130 220 130 225 130 229 C130 234 129 239 129 244 C128 255 128 265 127 275 C126 284 117 288 110 282 C76 251 63 205 35 169 C32 165 28 160 24 156 C23 155 22 155 20 155 C21 155 20 155 19 155 C17 158 16 163 16 166 C15 173 15 180 15 187 C13 215 14 244 17 272 C20 303 26 334 34 365 C38 377 19 382 15 370 C-1 310 -8 248 -5 186 C-4 173 -5 159 1 148 C8 135 22 132 33 139 C44 146 52 158 59 168 C65 178 72 189 78 200 C87 218 97 236 109 252 C109 248 109 245 110 241 C110 231 110 219 114 209 C121 190 143 191 158 199 C167 203 174 209 181 215 C188 222 195 229 201 237 C208 245 214 253 219 262 C222 266 224 270 225 274 C266 274 275 276 316 280 C321 281 325 285 325 290 L325 290 Z " />
<glyph glyph-name="x" unicode="x" horiz-adv-x="165" d="M163 295 C154 281 144 267 134 253 C123 240 113 226 100 215 C96 211 90 206 84 206 C78 205 72 207 68 211 C58 220 52 232 47 244 C48 246 49 248 50 250 C59 266 71 283 70 301 C70 313 50 314 50 301 C51 293 47 286 43 278 C41 274 39 270 37 266 C30 280 24 295 18 309 C16 314 9 315 4 312 C0 309 -1 304 1 299 C9 281 17 263 25 245 C19 234 12 223 5 213 C-1 202 16 192 22 203 C27 210 31 217 35 224 C40 214 46 204 55 197 C69 185 87 183 103 192 C118 202 130 217 141 231 C155 248 168 266 180 285 C187 296 170 306 163 295 L163 295 Z " />
<glyph glyph-name="y" unicode="y" horiz-adv-x="168" d="M167 297 C139 272 113 244 89 214 C91 233 91 252 91 271 C91 278 85 281 80 281 L80 281 C80 281 80 281 80 281 C79 281 79 280 79 280 C79 280 79 280 79 280 C79 280 78 280 78 280 C74 279 71 276 69 273 C68 273 68 272 68 272 C68 271 67 271 67 271 C67 270 66 270 66 270 C59 257 51 244 44 232 L44 232 C44 231 43 231 43 230 C43 230 43 229 42 229 C39 223 30 209 24 212 C24 212 23 212 23 213 C19 216 18 222 18 227 C18 235 18 244 18 252 C19 268 19 285 19 301 C19 313 0 313 0 301 C-1 281 -1 262 -1 242 C-2 225 -3 203 16 194 C32 186 47 199 55 213 C61 221 66 230 71 239 C71 221 70 204 68 186 C36 142 10 93 -11 43 C-22 18 -34 -10 -32 -37 C-31 -52 -22 -63 -7 -61 C5 -60 17 -55 26 -48 C48 -32 59 -7 64 19 C70 46 73 73 78 100 C81 126 85 152 87 179 C115 217 146 252 181 283 C191 292 177 306 167 297 L167 297 Z M62 129 C59 105 55 81 51 56 C47 32 44 5 30 -16 C24 -25 17 -32 8 -37 C4 -39 0 -41 -5 -42 C-5 -42 -6 -42 -6 -42 C-11 -43 -12 -40 -13 -38 C-15 -27 -11 -13 -8 -3 C-4 9 1 21 5 33 C21 72 41 110 64 146 C64 140 63 135 62 129 L62 129 Z " />
<glyph glyph-name="z" unicode="z" horiz-adv-x="163" d="M133 199 C128 213 115 222 100 225 C83 229 64 227 46 226 C39 225 31 224 24 223 C55 245 86 267 117 288 C125 294 122 306 112 307 C77 310 41 309 7 304 C1 303 -2 296 0 292 C1 286 6 284 12 285 C35 289 60 290 84 289 C49 265 15 241 -19 217 C-29 211 -23 197 -12 199 C19 204 51 208 83 207 C93 207 105 206 112 197 C119 187 115 173 111 163 C94 118 57 81 14 61 C11 59 -1 54 -15 50 C-19 49 -23 48 -28 47 C-30 46 -33 46 -36 45 C-47 43 -58 44 -66 47 C-67 48 -68 48 -69 49 C-70 49 -71 50 -71 50 C-81 54 -89 38 -79 32 C-65 23 -48 24 -32 26 C-18 28 -4 32 8 37 C35 48 60 63 80 83 C101 103 117 127 128 154 C134 168 138 184 133 199 L133 199 Z " />
<glyph glyph-name="braceleft" unicode="&#x7b;" horiz-adv-x="168" d="M122 592 C126 604 132 621 145 624 C150 625 155 625 158 621 C167 612 181 626 172 635 C161 646 144 647 131 639 C117 632 110 616 105 602 C94 570 93 534 94 500 C95 465 97 429 96 393 C95 375 94 357 93 338 C91 325 90 312 87 298 C83 301 78 302 73 301 C58 299 45 287 39 275 C32 261 31 243 42 232 C52 222 68 223 78 230 C86 236 91 244 95 253 C102 228 99 201 97 175 C94 138 92 102 91 65 C90 47 90 28 91 9 C91 -7 91 -25 94 -41 C96 -56 103 -71 115 -80 C126 -88 139 -91 152 -88 C158 -87 164 -83 168 -78 C177 -69 163 -55 155 -65 C148 -72 137 -71 129 -66 C117 -59 113 -44 112 -32 C110 -14 110 4 110 21 C110 40 110 59 111 78 C112 114 115 150 118 187 C120 217 120 248 107 276 C106 278 105 279 104 282 C107 295 109 309 111 323 C114 360 116 398 116 435 C116 471 112 506 114 542 C114 559 117 576 122 592 L122 592 Z M69 248 C67 246 65 245 63 244 C61 244 60 244 58 244 C57 244 56 245 55 247 C54 248 53 250 53 252 C51 264 61 276 72 281 C77 283 79 282 83 277 C80 267 76 255 69 248 L69 248 Z " />
<glyph glyph-name="bar" unicode="&#x7c;" horiz-adv-x="103" d="M41 462 C41 386 41 309 41 233 C41 211 41 190 41 168 C41 156 61 156 61 168 C61 244 61 321 61 397 C61 419 61 440 61 462 C61 475 41 475 41 462 L41 462 L41 462 Z " />
<glyph glyph-name="braceright" unicode="&#x7d;" horiz-adv-x="180" d="M118 297 C108 305 95 309 84 304 C80 326 78 349 77 371 C75 407 75 443 76 479 C78 514 80 549 73 583 C68 610 54 652 19 649 C12 648 5 646 -1 640 C-10 631 4 617 13 626 C22 635 35 626 40 618 C49 605 53 588 55 572 C61 538 58 502 56 467 C55 430 56 393 58 356 C60 337 61 319 65 300 C66 296 66 291 67 286 C63 278 59 268 57 260 C53 245 52 230 53 215 C53 199 55 183 56 167 C58 148 59 129 60 111 C61 73 62 35 61 -2 C60 -25 59 -66 28 -65 C24 -65 20 -63 17 -60 C8 -50 -5 -64 3 -73 C23 -96 58 -81 70 -58 C78 -44 80 -28 80 -12 C81 6 81 24 81 42 C81 79 79 116 77 153 C74 183 69 215 74 245 C74 249 75 254 77 258 C77 256 78 255 79 253 C85 241 97 229 112 229 C127 230 137 242 138 257 C139 273 130 288 118 297 L118 297 Z M119 257 C118 255 118 253 117 252 C116 250 114 249 113 249 C112 249 111 249 108 249 C107 250 105 251 103 253 C98 257 95 263 93 269 C92 274 90 278 89 283 C92 287 95 288 100 286 C105 284 110 279 113 275 C117 270 120 263 119 257 L119 257 Z " />
<glyph glyph-name="asciitilde" unicode="&#x7e;" horiz-adv-x="254" d="M50 273 C68 294 100 287 123 281 C139 277 154 272 171 271 C187 270 205 273 220 279 C225 280 229 285 227 290 C226 295 220 299 215 297 C199 292 182 289 165 291 C149 293 133 299 118 303 C90 309 57 310 36 287 C28 278 42 264 50 273 L50 273 L50 273 Z " />
<glyph glyph-name="quoteleft" unicode="&#x2018;" horiz-adv-x="63" d="M22 562 L22 524 C22 511 42 511 42 524 L42 562 C42 574 22 574 22 562 L22 562 Z " />
<glyph glyph-name="quoteright" unicode="&#x2019;" horiz-adv-x="57" d="M22 562 L22 524 C22 511 42 511 42 524 L42 562 C42 574 22 574 22 562 L22 562 Z " />
<glyph glyph-name="quotedblleft" unicode="&#x201c;" horiz-adv-x="88" d="M18 560 L18 522 C18 509 38 509 38 522 L38 560 C38 572 18 572 18 560 L18 560 L18 560 Z M48 560 L48 522 C48 509 68 509 68 522 L68 560 C68 572 48 572 48 560 L48 560 Z " />
<glyph glyph-name="quotedblright" unicode="&#x201d;" horiz-adv-x="87" d="M18 560 L18 522 C18 509 38 509 38 522 L38 560 C38 572 18 572 18 560 L18 560 L18 560 Z M48 560 L48 522 C48 509 68 509 68 522 L68 560 C68 572 48 572 48 560 L48 560 Z " />
<glyph glyph-name="ll" unicode="&#xf6c0;" horiz-adv-x="185" d="M144 473 C145 474 145 475 144 476 C144 480 142 484 137 485 C133 487 126 484 125 479 C119 434 110 390 99 347 C89 308 76 270 52 238 C47 231 40 221 32 217 C31 217 31 217 31 217 C29 216 27 216 25 217 C24 217 23 217 22 218 C18 223 18 236 18 239 C18 245 18 252 18 259 C19 273 19 288 20 302 C21 331 23 359 25 388 C26 421 28 453 29 486 C30 498 10 498 10 486 C8 424 3 362 0 300 C0 285 -1 269 -2 253 C-2 249 -2 244 -2 240 C-2 232 -1 220 3 211 L3 211 L3 211 C3 211 3 211 3 210 C4 208 8 203 14 200 C14 200 14 200 14 199 C16 199 17 199 18 198 C27 195 37 197 46 203 C55 209 62 218 69 227 C75 236 81 246 86 256 C98 279 107 303 114 328 C113 286 113 245 114 204 C115 178 117 152 118 127 C119 122 123 117 128 117 C133 117 138 122 138 127 C131 217 131 307 137 397 C139 422 141 448 144 473 L144 473 Z " />
</font>
</svg>
