<?xml version="1.0" encoding="UTF-8"?>
<svg xmlns="http://www.w3.org/2000/svg" xmlns:xlink="http://www.w3.org/1999/xlink" version="1.2" >
<font id="Wowi Typeface">
<font-face  font-family="Wowi Typeface" units-per-em="1000" ascent="840" descent="-650" font-style="normal" font-weight="400" font-stretch="normal" cap-height="795" x-height="400" underline-position="0" underline-thickness="0" />
<missing-glyph  horiz-adv-x="579" d="" />
<glyph glyph-name="&amp;#x0;" d="" />
<glyph glyph-name="&amp;#xd;" unicode="&#xd;" d="" />
<glyph glyph-name="space" unicode="&#x20;" horiz-adv-x="234" d="" />
<glyph glyph-name="controlLF" unicode="&#xa;" d="" />
<glyph glyph-name="exclam" unicode="&#x21;" horiz-adv-x="229" d="M219 747 Q224 730 222 717 Q222 714 221 708 Q220 703 219.5 698.5 Q219 694 218 689 Q217 679 215.5 669.5 Q214 660 213 650 Q211 631 208.5 612 Q206 593 203 574 Q201 557 199 540 Q197 523 194 506 Q191 484 188.5 462.5 Q186 441 183 420 Q177 386 171 353 Q165 320 159 286 Q156 270 153.5 253 Q151 236 147 220 Q143 204 139 188 Q135 172 132 155 Q128 139 125 123 Q124 115 121.5 107 Q119 99 117 90 Q114 74 111 59 Q110 55 109 51 Q108 47 107 43 Q105 36 102 28 Q97 11 80 9 Q73 8 65.5 11 Q58 14 55 21 Q50 30 47 37 Q44 43 42 49.5 Q40 56 39 62 Q34 79 31 97 Q28 109 26.5 121 Q25 133 24 145 Q23 164 22 184 Q22 201 21 217.5 Q20 234 21 251 Q22 268 23 285 Q24 302 25 319 L29 388 Q30 405 31 422 Q32 439 34 456 Q37 490 40.5 524.5 Q44 559 48 593 Q50 610 51.5 627 Q53 644 55 661 Q56 669 57 677.5 Q58 686 59 695 Q59 700 59.5 704.5 Q60 709 60 713 L61 721 Q62 727 62.5 733.5 Q63 740 64 745 Q68 755 74 766 Q81 780 94 788 Q102 796 112 799 Q121 804 132 804 Q142 807 153 804 Q169 803 183 795 Q187 791 191 788 Q195 785 199 782 Q204 776 211 766 Q213 761 215 756.5 Q217 752 219 747 Z M81 -64 Q93 -66 103 -74 Q113 -82 116 -94 Q118 -101 119.5 -107 Q121 -113 121 -120 Q121 -124 121 -128 Q121 -132 121 -137 L121 -169 L121 -201 L121 -218 Q121 -231 118 -241 Q115 -250 110.5 -256.5 Q106 -263 100 -271 Q89 -282 73 -286 Q57 -291 41 -286 Q26 -282 15 -271 Q4 -260 -1 -244 Q-7 -229 -3.5 -214 Q0 -199 5 -184 Q7 -176 9 -168.5 Q11 -161 14 -153 Q16 -146 18.5 -138.5 Q21 -131 23 -123 Q24 -119 25 -115 Q26 -111 28 -107 Q30 -101 33 -95.5 Q36 -90 39 -84 Q54 -60 81 -64 Z " />
<glyph glyph-name="quotedbl" unicode="&#x22;" horiz-adv-x="191" d="M91 766 L91 768 Q87 741 87 716 Q87 703 87.5 690 Q88 677 88 664 Q87 651 79 641.5 Q71 632 58 630 Q46 629 35 635.5 Q24 642 21 655 Q17 670 17 686 Q17 702 17 718 Q19 747 24 781 Q26 787 30.5 792.5 Q35 798 40 801 Q51 808 66 805 Q79 802 87 789 Q92 780 91 766 Z M184 687 Q184 680 185 672 Q185 666 184.5 660 Q184 654 183 648 Q181 642 176.5 636 Q172 630 166 627 Q158 622 148 622 Q137 622 127 630 Q123 633 119 637.5 Q115 642 114 648 Q113 654 112.5 660 Q112 666 112 672 Q112 677 113 687 L114 718 Q114 727 115 736 Q116 745 117 755 Q118 763 119 770.5 Q120 778 122 785 Q122 790 126 795 Q130 800 134 802 Q141 806 148 806 Q157 806 165.5 800 Q174 794 175 785 Q176 778 177.5 770.5 Q179 763 180 755 Q181 745 181.5 736 Q182 727 183 718 L184 687 Z " />
<glyph glyph-name="numbersign" unicode="&#x23;" horiz-adv-x="589" d="M586 436 Q596 427 600 415 Q604 403 605 391 Q605 379 599.5 366.5 Q594 354 586 346 Q577 336 566 332 Q554 326 541 327 Q520 325 500 323 Q480 321 459 319 Q457 304 455 289 Q453 274 451 258 Q452 265 453 275 Q451 260 448.5 245.5 Q446 231 444 216 Q450 216 456 216.5 Q462 217 467 218 Q481 219 493.5 213 Q506 207 516 198 Q526 188 530.5 175 Q535 162 536 149 Q537 136 531 122.5 Q525 109 516 100 Q496 80 467 80 Q457 80 446.5 80 Q436 80 425 80 Q422 56 417.5 33 Q413 10 408 -13 Q403 -35 396.5 -59.5 Q390 -84 373 -101 Q357 -116 333.5 -120 Q310 -124 290 -112 Q274 -102 266 -88 Q259 -77 257 -61 Q256 -53 256 -47.5 Q256 -42 259 -33 Q263 -17 275 -5 L276 -1 Q280 14 284 30 Q290 53 295 78 Q285 78 274 78 Q263 78 252 78 Q227 78 202 78.5 Q177 79 151 80 Q144 80 137 80 Q130 80 123 81 Q119 62 114 43 Q111 29 107.5 15.5 Q104 2 101 -12 Q97 -28 93.5 -44 Q90 -60 82 -74 Q75 -86 61.5 -91 Q48 -96 34 -93 Q22 -90 12 -78 Q7 -72 5 -64 L3 -52 Q4 -39 8 -27 Q9 -23 10 -19.5 Q11 -16 12 -12 Q15 -5 17 3 Q19 11 21 18 Q31 50 39 79 L40 82 Q19 85 3 88 Q-20 93 -41 108 Q-56 118 -52 135 Q-51 143 -44 148 Q-37 153 -29 153 Q-23 153 -19 153 L-18 154 L-17 154 Q-7 156 9 158 L-1 156 Q11 158 22.5 160.5 Q34 163 45 167 Q50 168 55 169.5 Q60 171 65 173 Q81 232 97 295 Q98 297 98.5 298.5 Q99 300 99 302 Q82 304 65.5 306 Q49 308 32 310 Q14 312 12 327 Q10 344 27 349 Q73 362 117 376 Q119 383 120.5 390 Q122 397 124 404 Q130 431 136 459 Q139 473 142 486 Q144 494 147 501.5 Q150 509 153 516 Q157 523 164.5 525.5 Q172 528 179 527 Q187 525 191 518.5 Q195 512 196 504 Q196 500 196.5 496 Q197 492 197 488 Q197 483 196 478 Q195 473 195 468 Q192 452 190 436 Q187 416 183 394 L186 394 Q197 397 208.5 400 Q220 403 232 405 Q255 410 278 414 Q301 418 325 422 Q335 424 345.5 426 Q356 428 366 430 Q370 448 373 464 Q376 478 379.5 492 Q383 506 387 520 Q388 528 394.5 536 Q401 544 408 548 Q419 554 431 554 Q446 555 459 544.5 Q472 534 476 520 Q478 512 477 505 Q478 491 478 477.5 Q478 464 477 450 L476 447 Q493 449 509 451 Q525 453 541 454 Q553 456 565 450 Q577 444 586 436 Z M318 204 Q322 230 327 256 Q332 282 338 307 L328 306 Q304 304 280.5 301 Q257 298 233 298 Q210 297 185 296 Q180 296 175.5 296 Q171 296 166 296 Q157 242 146 186 Q157 188 168.5 189 Q180 190 191 192 Q214 195 237 197 Q260 199 283 201 Q292 202 300.5 203 Q309 204 318 204 Z " />
<glyph glyph-name="dollar" unicode="&#x24;" horiz-adv-x="458" d="M416 196 Q418 182 417 173 Q417 163 415.5 153 Q414 143 413 133 Q410 119 405 106 Q400 93 394 80 Q382 57 363.5 37.5 Q345 18 322 6 Q314 1 305.5 -2.5 Q297 -6 288 -10 Q278 -13 269 -14 Q260 -15 250 -16 Q243 -17 235 -17 Q234 -39 231.5 -60 Q229 -81 224 -102 Q221 -116 208.5 -123.5 Q196 -131 183 -129 Q171 -128 161 -119 Q155 -113 153 -106.5 Q151 -100 150 -92 Q149 -86 148.5 -79.5 Q148 -73 148 -67 Q148 -60 148 -54 Q148 -48 148 -41 Q148 -30 149 -19.5 Q150 -9 151 2 Q143 6 136 10 Q127 15 119 21 Q111 27 103 33 Q96 40 90 46 Q75 61 66 77 Q61 86 57 94.5 Q53 103 50 112 Q46 121 44 130 Q43 137 42 144 Q41 151 40 158 Q39 171 42.5 182 Q46 193 52 205 Q62 223 81 234 Q94 243 111 243 Q127 247 143 242 Q155 238 165 232 Q165 244 166 255.5 Q167 267 168 279 Q169 301 170.5 322.5 Q172 344 173 366 Q175 399 179 438 Q171 448 167 453 Q158 465 149 477.5 Q140 490 133 503 Q126 517 120.5 531.5 Q115 546 112 561 Q110 578 110 593.5 Q110 609 114 625 Q121 655 143 680 Q154 692 167 700 Q180 708 195 713 Q200 716 206 717 Q208 727 209 737.5 Q210 748 211 758 Q211 766 213 772.5 Q215 779 217 786 Q218 789 218.5 792.5 Q219 796 221 799 Q223 802 228 806 Q226 804 227.5 805 Q229 806 229 807 Q233 811 239.5 811.5 Q246 812 250 807 L252 805 Q246 809 254 803 Q258 799 259 794 Q260 788 260 788 L261 786 L261 782 Q262 774 263 767 Q264 760 264 752 Q264 743 264 734.5 Q264 726 264 717 Q289 713 309 701 Q323 694 333.5 683.5 Q344 673 354 661 Q368 641 375 616 Q378 603 377 589 Q376 575 373 562 Q369 547 353 540 Q346 534 334 534 L333 534 Q328 534 324 538 Q318 540 315 548 Q312 550 310 554 Q308 558 307 562.5 Q306 567 306 572 Q304 579 302 586 Q299 594 297 598 L301 588 Q297 597 291 606 Q286 611 281 615 Q276 619 270 622 Q266 623 262 624 Q262 620 262 615.5 Q262 611 262 606 Q261 574 260.5 543 Q260 512 260 480 Q267 473 270 469 Q322 416 360 353 Q370 335 379 316.5 Q388 298 396 279 Q403 262 407 245 Q410 237 411.5 229 Q413 221 414 212 Q415 204 416 196 L416 195 L416 196 Z M319 544 L318 545 Q322 542 322.5 541.5 Q323 541 319 544 Z M270 170 Q273 179 275 188 Q277 207 275 228 Q271 248 265.5 267.5 Q260 287 253 306 Q252 293 251.5 281 Q251 269 250 256 Q249 230 247.5 203.5 Q246 177 244 151 L249 151 L255 153 Q257 154 260 155 Q263 158 265 161 Q268 165 270 170 Z " />
<glyph glyph-name="percent" unicode="&#x25;" horiz-adv-x="366" d="M334 95 Q349 81 356.5 61 Q364 41 364 21 Q363 -19 341 -54 Q335 -63 328.5 -71.5 Q322 -80 315 -87 Q304 -97 291.5 -105.5 Q279 -114 264 -117 Q234 -123 207 -110 L203 -109 Q195 -108 187 -103 Q179 -98 173 -92 Q165 -85 160.5 -76.5 Q156 -68 152 -58 Q148 -46 146 -31 Q145 -28 144 -24 Q140 -39 136 -53 Q132 -67 128 -81 Q126 -89 123.5 -97.5 Q121 -106 119 -114 Q115 -127 112 -139 Q109 -151 101 -162 Q92 -173 83 -179 Q76 -183 67 -185 Q50 -190 33 -186 Q17 -181 5 -169 Q-7 -158 -11 -142 Q-15 -125 -11 -108.5 Q-7 -92 5 -80 L7 -79 Q17 -53 26.5 -26.5 Q36 0 45 26 Q88 142 133 258 Q144 288 156 317.5 Q168 347 181 376 Q164 363 143 355 Q127 349 109 348.5 Q91 348 75 354 Q42 365 22 394 Q14 405 11 418 Q8 429 8.5 437.5 Q9 446 11 457 Q16 487 35 514.5 Q54 542 86 549 Q112 554 138 546 Q164 538 181 518 Q196 502 200 482 Q211 474 217 461 L217 460 Q218 462 219 463 Q222 470 226 476.5 Q230 483 234 489 Q240 499 250 502 Q260 505 270 501 Q281 497 285 487.5 Q289 478 287 467 Q285 457 283.5 447.5 Q282 438 279 428 Q277 419 274 409.5 Q271 400 268 390 Q258 355 247 317 Q237 283 226.5 250.5 Q216 218 206 185 Q199 161 192 138 Q185 115 178 92 Q187 101 198 109 Q210 116 222.5 119 Q235 122 248 124 Q269 126 292 119 Q316 113 334 95 Z M122 456 L123 457 Q121 460 118 462 Q116 463 114 465 L110 466 L108 466 L107 466 L107 465 L105 464 Q103 461 102 457 Q99 450 97 442 L99 440 L102 440 L103 440 Q104 440 107 441 Q109 442 112 443 Q115 447 119 451 Q120 452 122 456 Z M256 9 Q258 15 259 20 Q257 20 254 20 L253 20 L252 17 Q249 8 247 -3 L247 -6 L248 -5 Q253 3 256 9 Z " />
<glyph glyph-name="ampersand" unicode="&#x26;" horiz-adv-x="332" d="M256 435 L259 431 Q258 432 257.5 432.5 Q257 433 257 433 Q257 434 256.5 434.5 Q256 435 256 435 Z M322 43 Q325 33 323 22.5 Q321 12 317 2 Q307 -17 289 -33 Q281 -40 272.5 -46.5 Q264 -53 254 -58 Q233 -69 208 -75 L209 -99 Q211 -113 210 -127 Q209 -141 209 -156 Q209 -167 201.5 -174 Q194 -181 183 -181 Q173 -182 165.5 -174 Q158 -166 158 -156 Q158 -141 157 -127 Q156 -113 157 -99 Q158 -95 158 -91 Q158 -87 159 -83 Q130 -85 96 -79 Q56 -71 23 -43 Q4 -27 -5.5 -3.5 Q-15 20 -16 45 Q-17 68 -10.5 90 Q-4 112 6 133 Q13 149 23.5 163.5 Q34 178 47 191 Q51 196 57 202 L54 206 Q49 213 45.5 221 Q42 229 39 237 Q34 248 32 260 Q26 291 28 320 Q29 337 31 354.5 Q33 372 40 388 Q46 404 55 418 Q64 432 78 443 Q90 453 102.5 460 Q115 467 130 471 Q129 517 123 564 Q122 571 121.5 577.5 Q121 584 120 591 Q120 597 119 603 Q118 609 118 615 Q119 635 137 641 Q146 643 154 639.5 Q162 636 167 629 Q171 623 173 615.5 Q175 608 178 601 Q182 591 184 580 Q190 558 194 536 Q200 504 203 470 Q218 465 229 458 Q237 453 244.5 447 Q252 441 257 433 Q265 422 271.5 410 Q278 398 281 385 Q284 370 284 356 Q284 342 280 328 Q275 312 258 314 Q243 316 241 333 Q241 329 241 331.5 Q241 334 240 334 Q240 336 239.5 337.5 Q239 339 239 341 L239 341 L239 342 Q238 343 238 344 Q238 345 237 346 L236 350 Q234 355 232 358 Q231 360 227 365 L225 367 Q221 372 215 377 Q205 384 195 389 Q189 391 183 392 Q177 393 171 392 Q163 391 157 389 Q148 384 140 379 Q135 375 132 371 Q129 366 126 361 Q123 352 121 340 Q118 315 121 291 Q123 278 127 268 Q129 263 132 259 Q134 256 137 254 L140 252 Q154 257 168 259 Q186 263 203.5 264.5 Q221 266 238 264 Q252 264 264 257 Q267 255 269.5 253 Q272 251 275 249 Q286 238 289 219 Q291 201 281 184.5 Q271 168 252 163 Q235 159 217.5 156 Q200 153 182 152 L182 152 L181 151 Q161 142 142 128 Q128 116 116 103 Q107 89 100 75 Q96 65 94 54 Q94 49 94 44 L95 41 L96 39 L99 36 Q103 34 107 32 Q117 28 129 26 Q147 24 166 26 Q182 29 196 34 Q205 39 213 44 Q223 53 234 66 Q240 74 250.5 77.5 Q261 81 271 82 Q287 82 303 70 Q316 60 322 43 Z " />
<glyph glyph-name="quotesingle" unicode="&#x27;" horiz-adv-x="106" d="M87 784 Q91 764 91 743.5 Q91 723 84 703 Q79 690 68.5 683.5 Q58 677 44 680 Q31 683 24.5 695.5 Q18 708 21 721 Q23 728 24.5 735.5 Q26 743 27 750 Q29 763 28 776 Q27 787 35.5 795.5 Q44 804 54 805 Q65 807 75 801 Q85 795 87 784 Z " />
<glyph glyph-name="parenleft" unicode="&#x28;" horiz-adv-x="300" d="M348 816 Q356 809 349.5 800.5 Q343 792 334 795 Q332 793 328 790 Q327 790 327 789 Q326 788 322 784 Q318 780 322 784 Q324 787 323.5 786 Q323 785 319 780 Q320 781 316 778 Q314 776 311 773 Q310 772 309 770.5 Q308 769 306 767 L306 767 L305 765 Q237 676 191 568 Q181 543 172 520 Q140 431 126 332 Q123 306 121 282 Q114 187 126 92 Q131 57 139.5 23 Q148 -11 161 -44 Q175 -75 193 -100 Q199 -107 204 -113 Q207 -115 209 -117.5 Q211 -120 214 -122 Q219 -127 222.5 -133 Q226 -139 230 -145 Q237 -156 238 -169 Q241 -182 237 -194 Q232 -210 220 -223 Q212 -232 200 -236 Q192 -241 183 -241 Q170 -243 158 -239 Q154 -238 150 -236.5 Q146 -235 142 -233 Q124 -223 110 -207 Q87 -181 70 -153 Q62 -139 55 -123.5 Q48 -108 42 -92 Q30 -64 24.5 -34.5 Q19 -5 15 25 Q7 80 7.5 135 Q8 190 15 245 Q22 304 35 361 Q48 418 68 474 Q88 528 113 580 Q138 632 169 682 Q201 731 238 777 Q247 788 255.5 798.5 Q264 809 275 817 Q278 820 281 822.5 Q284 825 288 826 Q294 829 295 830 Q301 832 307 833 Q315 834 321.5 833 Q328 832 335 827 Q336 825 338 823 Q344 821 348 816 Z " />
<glyph glyph-name="parenright" unicode="&#x29;" horiz-adv-x="266" d="M224 477 Q226 451 226 426 Q226 401 224 376 Q223 351 220 327 Q218 310 216 294 Q214 278 211 262 Q201 213 186 166 Q177 139 167 113 Q157 87 145 61 Q134 39 123 17 Q117 6 111.5 -5 Q106 -16 101 -27 Q77 -74 48.5 -117.5 Q20 -161 -13 -202 Q-18 -209 -27 -212 Q-36 -215 -44 -215 Q-52 -215 -60 -211.5 Q-68 -208 -74 -202 Q-80 -197 -83.5 -188.5 Q-87 -180 -87 -172 Q-87 -162 -83.5 -155 Q-80 -148 -74 -141 L-74 -140 Q-60 -122 -46 -102 Q0 -34 35 44 Q39 55 42.5 66 Q46 77 49 89 Q55 109 59.5 130 Q64 151 69 172 Q78 210 83 249 Q85 265 87 281.5 Q89 298 90 314 Q97 380 96 445 Q95 476 93.5 506.5 Q92 537 88 568 Q85 589 81 610.5 Q77 632 73 653 Q69 677 63 699 Q60 712 58 721 Q56 729 54.5 736.5 Q53 744 52 751 Q52 758 51 760 Q50 767 49 773 Q48 779 48 786 Q48 793 48 801 Q48 812 54 821 Q60 830 70 834 Q92 843 109 827 Q113 823 119 817 Q125 812 130.5 804 Q136 796 140 789 Q144 784 147.5 779 Q151 774 154 768 Q162 750 168 734 Q178 710 186 687 Q194 663 199.5 639 Q205 615 210 590 Q220 533 224 477 Z " />
<glyph glyph-name="asterisk" unicode="&#x2a;" horiz-adv-x="297" d="M276 625 Q280 611 276 597 Q272 583 262 572 Q252 562 238 558 Q223 555 209 558 Q192 562 180 572 Q180 570 181 564 Q181 562 181.5 559.5 Q182 557 183 555 Q188 528 171 511 Q157 497 138 497 Q116 497 102 515.5 Q88 534 94 555 Q97 564 98.5 573.5 Q100 583 101 592 Q94 586 86.5 580 Q79 574 71 568 Q62 561 52 560 Q42 560 33 568 Q25 576 25 587.5 Q25 599 33 607 Q50 624 69 643 Q74 648 79.5 653.5 Q85 659 90 664 Q84 671 77 678.5 Q70 686 64 693 Q61 695 59 697.5 Q57 700 54 703 Q50 707 47 712 Q44 717 41 722 Q39 726 36.5 730 Q34 734 32 739 Q29 751 35 765 Q39 772 47 776 Q55 780 62 780 Q67 780 72.5 779 Q78 778 83 776 Q86 775 89 774.5 Q92 774 95 773 Q101 771 106.5 768 Q112 765 117 762 Q119 761 121 760 Q123 759 125 758 Q128 781 128 809 Q128 816 133.5 821 Q139 826 146 827 Q154 827 158.5 821.5 Q163 816 164 809 Q166 792 167 776 Q168 760 170 744 L170 738 L175 742 Q184 751 192.5 759.5 Q201 768 211 775 Q218 779 226.5 777.5 Q235 776 241 771 Q247 765 248 756.5 Q249 748 245 741 Q241 734 236 728.5 Q231 723 226 718 Q222 713 217.5 708.5 Q213 704 209 699 Q218 693 222 689 Q232 681 244 670 Q251 665 256 660 Q272 646 276 625 Z " />
<glyph glyph-name="plus" unicode="&#x2b;" horiz-adv-x="515" d="M475 318 Q486 308 491 294 Q496 280 497 266 Q498 252 491.5 238 Q485 224 475 214 Q466 203 452 199 Q439 192 424 193 Q402 191 380 188.5 Q358 186 335 185 Q322 184 309.5 183.5 Q297 183 284 183 Q283 159 283 135.5 Q283 112 283 88 Q283 75 282.5 62.5 Q282 50 282 37 Q282 30 281.5 23.5 Q281 17 281 10 Q281 1 280.5 -8 Q280 -17 277 -25 Q273 -41 261 -49.5 Q249 -58 233 -59 Q219 -60 205 -49 Q198 -44 193 -36 Q192 -34 191 -31 Q190 -28 189 -25 Q186 -11 187 -1 Q187 3 187 6.5 Q187 10 187 14 Q188 21 188.5 28.5 Q189 36 189 44 Q190 72 192 100 Q193 141 194 181 L180 180 Q160 180 140.5 181.5 Q121 183 102 184 Q75 185 51 190 L31 193 Q21 195 14 200 Q12 201 10.5 202.5 Q9 204 7 205 Q-3 211 -8.5 221 Q-14 231 -14 242 Q-14 260 1 274 L0 272 Q3 276 7 279.5 Q11 283 15 286 Q20 288 25 290 Q30 292 35 293 Q40 295 45 296.5 Q50 298 55 300 Q65 303 76 305 Q87 307 97 309 Q107 310 116.5 312 Q126 314 135 315 Q149 318 162.5 319.5 Q176 321 190 322 Q191 323 192 323 Q193 323 193 323 Q193 345 192.5 366.5 Q192 388 192 410 Q191 435 190 461 Q190 468 191 475 Q192 482 193 488 Q194 496 194.5 503 Q195 510 199 516 Q201 520 204 523.5 Q207 527 210 530 Q219 540 232 539 Q245 538 255 530 Q260 525 264.5 519.5 Q269 514 271 507 Q272 504 272.5 500.5 Q273 497 274 493 Q276 483 277 473.5 Q278 464 279 455 Q281 424 282 398 Q283 367 284 331 Q299 333 314.5 334.5 Q330 336 346 336 Q365 337 384.5 337.5 Q404 338 424 339 Q438 339 451.5 333 Q465 327 475 318 Z " />
<glyph glyph-name="comma" unicode="&#x2c;" horiz-adv-x="163" d="M104 105 Q107 102 109.5 96.5 Q112 91 112 87 Q110 67 101 50 Q98 43 94 37 Q87 28 76 21 Q69 16 61 17.5 Q53 19 47 25 Q41 30 40 38.5 Q39 47 43 54 Q44 56 45 57.5 Q46 59 46 60 Q48 63 51 66 Q55 72 56 75 Q57 76 58 78 Q59 80 59 81 Q56 74 58 79 L59 82 Q61 87 62 93 Q63 103 72 108 Q81 113 90 112 Q98 111 104 105 Z " />
<glyph glyph-name="hyphen" unicode="&#x2d;" horiz-adv-x="465" d="M403 287 Q427 271 424 244 Q420 217 393 208 Q387 206 380.5 204 Q374 202 366 202 Q362 203 358 203.5 Q354 204 350 204 Q336 206 319 207 Q290 210 262 210 Q234 210 205 210 Q149 210 94 202 Q83 201 73 199 Q63 198 54 197 Q45 196 36 196 Q24 195 15 203 Q6 211 2 221 Q-1 231 4 244 Q6 250 11 255 Q13 256 18 260 Q24 263 30.5 265.5 Q37 268 43 271 Q48 273 53 274 Q58 275 63 277 Q81 281 100 285 Q136 293 172.5 298 Q209 303 246 304 Q281 305 316 304 Q335 303 351 302 Q365 301 374 299 Q383 298 389.5 294.5 Q396 291 403 287 Z " />
<glyph glyph-name="period" unicode="&#x2e;" horiz-adv-x="212" d="M154 83 Q155 73 156 66 Q157 52 151 40 Q146 28 137 19 Q128 9 116 5 Q104 -1 90 0 Q72 0 57 9 Q53 11 50 13.5 Q47 16 43 19 Q31 31 26 48 Q25 54 24 66 Q23 79 30 91 Q34 104 43 113 Q52 122 65 126 Q77 132 90 132 Q108 132 123 123 Q127 120 130.5 117.5 Q134 115 137 112 Q149 100 154 83 Z " />
<glyph glyph-name="slash" unicode="&#x2f;" horiz-adv-x="406" d="M394 807 Q395 800 395 797 Q395 789 394 780 Q393 771 391 763 Q377 713 362.5 664 Q348 615 332 566 Q316 516 299.5 467.5 Q283 419 265 370 Q231 274 193 177 Q173 125 152 74.5 Q131 24 109 -27 Q89 -74 67 -121 Q56 -147 45 -169 Q40 -181 35 -192.5 Q30 -204 22 -215 Q14 -229 0 -237 L-15 -243 Q-24 -246 -34.5 -245 Q-45 -244 -55 -240 Q-73 -232 -84 -215 Q-90 -205 -91.5 -192 Q-93 -179 -90 -168 Q-85 -149 -76.5 -132 Q-68 -115 -59 -99 Q-46 -72 -34 -45 Q-10 4 12 52.5 Q34 101 56 150 Q78 197 98.5 244 Q119 291 139 339 Q160 388 180 438 Q199 484 216.5 529.5 Q234 575 252 622 Q261 645 270 668 Q279 691 287 715 Q292 726 296.5 738 Q301 750 305 762 Q307 768 309.5 774 Q312 780 314 787 Q317 794 320.5 801 Q324 808 328 815 Q335 826 346 830 Q357 834 369 832 Q380 829 388 819 Q393 813 394 807 Z " />
<glyph glyph-name="zero" unicode="0" horiz-adv-x="441" d="M397 381 Q403 357 407 333.5 Q411 310 413 287 Q418 242 415 198 Q412 154 403 110 Q395 68 380.5 27.5 Q366 -13 340 -48 Q332 -59 324 -68.5 Q316 -78 307 -88 Q298 -97 287.5 -105 Q277 -113 267 -121 Q252 -131 235 -138 Q228 -142 220.5 -145 Q213 -148 205 -150 Q196 -153 184 -155 L190 -154 Q176 -157 161.5 -158 Q147 -159 133 -158 Q116 -156 101.5 -152 Q87 -148 72 -140 Q48 -128 31.5 -107 Q15 -86 5 -62 Q0 -50 -4 -38.5 Q-8 -27 -11 -15 Q-14 -3 -15.5 9 Q-17 21 -19 33 Q-24 72 -23 113 Q-20 200 8 285 Q37 373 87 448 Q94 458 101 468 Q108 478 115 487 Q114 494 114 500 Q113 517 121 532 Q126 547 138 558 Q149 569 164.5 575.5 Q180 582 196 582 Q215 582 231 577 Q247 572 265 564 Q277 558 288 550 Q299 542 309 534 Q324 522 336 508 Q345 498 352.5 488 Q360 478 367 466 Q378 447 385 424.5 Q392 402 397 381 Z M207 496 Q210 498 210 498.5 Q210 499 210 498 L209 498 L207 496 L207 496 Z M269 140 Q276 202 269 261 Q260 320 236 380 Q234 385 231 390 Q222 400 212 408 Q204 413 196 418 L194 418 Q173 419 154 431 Q152 428 148 421 Q123 381 104 336 Q74 264 63 188 Q55 121 63 57 Q65 38 69.5 20 Q74 2 80 -16 Q85 -25 90 -33 Q94 -38 99 -42 Q103 -45 108 -48 Q113 -50 119 -51 Q126 -51 135 -51 Q147 -48 159 -44 Q158 -44 156.5 -44.5 Q155 -45 154 -46 Q157 -45 160 -43.5 Q163 -42 166 -41 Q181 -34 194 -25 Q208 -13 220 2 Q234 22 245 45 Q254 68 259.5 91.5 Q265 115 269 140 Z " />
<glyph glyph-name="one" unicode="1" horiz-adv-x="228" d="M172 400 Q173 339 175.5 278 Q178 217 180 156 Q183 94 184.5 33 Q186 -28 188 -89 Q188 -104 182 -117.5 Q176 -131 166 -141 Q156 -152 142.5 -157 Q129 -162 114 -163 Q99 -164 86 -157 Q72 -152 62 -141 Q51 -131 47 -118 Q40 -104 40 -89 Q43 -54 46 -20 Q49 14 52 49 Q57 111 63 171.5 Q69 232 75 293 Q78 319 80 344 Q82 369 84 395 Q73 380 62.5 365 Q52 350 42 335 Q35 325 24 321.5 Q13 318 2 324 Q-9 330 -11.5 342 Q-14 354 -8 364 Q5 389 17.5 413 Q30 437 44 462 Q57 487 69.5 511 Q82 535 96 560 Q103 572 116.5 577 Q130 582 143 579 Q156 576 165.5 564 Q175 552 174 538 Q174 521 173.5 503.5 Q173 486 172 469 Q172 451 172 434 Q172 417 172 400 Z " />
<glyph glyph-name="two" unicode="2" horiz-adv-x="398" d="M356 96 Q373 85 383 68 Q394 50 394 29 Q394 8 383 -10 Q373 -26 357 -36 Q352 -41 348 -43 Q339 -49 331.5 -51 Q324 -53 315 -54 Q305 -55 298 -56 Q294 -56 292 -56 Q265 -61 238 -71 Q211 -84 187 -102 Q158 -125 136 -153 Q120 -170 98 -176 Q92 -177 86 -177.5 Q80 -178 75 -179 Q57 -180 41 -171 Q30 -168 22 -160 Q8 -151 0 -136 Q-2 -131 -4.5 -125.5 Q-7 -120 -9 -115 Q-14 -98 -11 -81 Q-10 -63 0 -48 Q8 -35 16 -22 Q24 -9 32 4 Q58 50 82 102 Q93 124 103.5 146.5 Q114 169 124 192 Q136 223 148 253 Q157 275 164.5 296.5 Q172 318 181 340 Q180 335 178 331 Q176 327 174 323 Q190 360 202 397.5 Q214 435 220 474 Q222 491 222 504 Q221 507 220 510 L218 513 L217 514 Q214 516 213 516 L213 517 Q208 517 202 516 Q193 515 184 511 Q177 508 169 503 Q165 501 160 497 L157 495 Q155 493 153 491.5 Q151 490 149 489 Q145 485 141 482 Q135 475 128 467 Q124 464 120.5 460 Q117 456 114 452 L112 449 L112 448 Q109 444 106 440 Q94 423 86 404 Q85 403 84.5 402 Q84 401 85 403 Q87 407 85 403 Q83 399 83 399 Q83 398 82 397 Q81 396 81 395 Q78 391 76 386 Q71 377 67 367 Q65 361 58.5 359 Q52 357 46 359 Q40 360 36 365.5 Q32 371 32 376 Q32 388 33 398 Q34 405 35 412 Q35 415 35 415.5 Q35 416 35 415 Q36 419 36 420 Q37 422 38 425 Q41 435 45 446 Q50 458 55.5 469 Q61 480 68 491 Q93 531 136 560 Q175 586 222 584 Q228 584 234.5 583 Q241 582 247 580 Q262 575 277 563 Q289 553 297 539 Q305 525 309 511 Q314 496 316.5 480 Q319 464 320 449 Q322 423 320 395 Q319 377 317 360 Q315 343 312 326 Q310 312 307.5 299 Q305 286 302 273 Q292 231 281 190 Q270 149 257 108 Q277 111 293 113 Q323 115 347 102 Q350 100 356 96 Z M112 449 Q114 452 114 452 Q114 452 112 449 Z " />
<glyph glyph-name="three" unicode="3" horiz-adv-x="416" d="M383 208 Q391 186 395 163 Q399 140 400 118 Q401 92 399 66 Q397 40 391 14 Q387 -8 379 -26 Q374 -40 368 -54 Q362 -68 354 -80 Q339 -105 318.5 -126 Q298 -147 273 -162 Q265 -167 256 -170.5 Q247 -174 238 -178 Q228 -182 220 -184 Q211 -186 201 -187.5 Q191 -189 182 -189 Q173 -190 165 -189 Q155 -189 145.5 -187.5 Q136 -186 126 -182 Q118 -179 109.5 -175.5 Q101 -172 93 -168 Q70 -155 50 -135 Q41 -125 32.5 -114 Q24 -103 18 -91 Q14 -82 10.5 -73.5 Q7 -65 6 -56 Q4 -47 3 -37.5 Q2 -28 2 -19 Q2 10 24 34 Q34 45 48 49 Q56 54 66 54 Q81 57 96 53 Q101 51 105 49 Q109 47 114 45 Q126 39 133.5 28.5 Q141 18 146 6 Q149 1 152 -5 Q154 -7 155 -9 Q156 -11 158 -13 L162 -18 Q165 -20 168 -21 Q173 -23 179 -24 Q182 -24 185 -24 Q190 -23 195 -21 Q202 -18 209 -13 Q217 -6 224 2 Q231 13 237 24 Q245 47 250 73 Q253 105 250 134 Q247 151 242 166 Q238 174 234 180 Q231 183 229 185 Q227 186 225 187 L219 189 Q213 189 208 189 Q199 187 189 184 Q183 180 177 177 Q173 174 168.5 171.5 Q164 169 160 166 L158 164 L158 164 Q150 160 141 157 L122 155 Q108 154 95.5 160 Q83 166 73 175 Q63 184 57.5 198 Q52 212 52 225 Q52 253 73 275 Q79 281 87.5 287 Q96 293 104 299 Q114 305 123 309 Q136 315 146 319 L151 323 Q181 347 206 378 Q216 392 225 406.5 Q234 421 242 437 Q246 448 248 461 Q249 474 248 485 Q246 495 243 503 Q240 510 236 516 Q233 519 230 522 Q227 524 224 526 Q220 527 217 527 Q211 528 203 527 Q194 526 184 523 Q179 521 174 519 L170 517 Q162 513 154 508 Q150 506 146 503 L142 500 Q126 487 115 473 L112 470 L112 469 Q109 466 106 462 Q101 453 96 445 Q93 439 92 435 L90 432 L89 431 Q86 422 83 412 Q80 403 72.5 398.5 Q65 394 56 396 Q46 398 42 406.5 Q38 415 40 424 Q52 488 99 536 Q121 558 149 573 Q177 588 208 591 Q228 594 246 587.5 Q264 581 280 569 Q293 558 302 543.5 Q311 529 316 513 Q322 497 323.5 480 Q325 463 323 447 Q321 429 317.5 411 Q314 393 308 375 Q299 345 286 318 Q287 318 293 315 Q302 311 311 305 Q318 299 324.5 294 Q331 289 337 283 Q343 276 348.5 269.5 Q354 263 359 256 Q367 245 372.5 232.5 Q378 220 383 208 Z " />
<glyph glyph-name="four" unicode="4" horiz-adv-x="342" d="M302 356 L305 351 Q311 339 311 325 Q310 320 309.5 315.5 Q309 311 308 306 Q307 301 305 296 Q307 234 308 168 Q309 103 306 38.5 Q303 -26 299 -91 Q299 -115 287 -135 Q279 -151 265 -160 Q252 -171 235 -176 Q218 -181 200 -177 Q183 -176 168 -167 Q148 -155 136 -135 Q134 -130 132 -125 Q130 -120 128 -115 Q121 -91 128 -68 Q137 -16 145 36 Q153 86 159 131 Q162 154 166 176 Q170 198 174 220 Q156 212 139 203 Q122 194 105 185 Q86 175 67 164 Q48 153 29 143 Q20 139 10 137 Q0 135 -9 138 Q-21 142 -31 151 Q-42 161 -44 179 Q-46 189 -43 198 Q-42 201 -41 204 Q-40 207 -38 210 Q-21 237 -6.5 265 Q8 293 21 323 Q65 428 95 540 Q98 551 108 556.5 Q118 562 128 559 Q139 557 145 547 Q150 538 147 526 Q140 484 131 446 Q116 379 96 315 Q103 320 110 324.5 Q117 329 124 334 Q146 350 167 364 Q178 371 190 379 Q194 382 199 384 Q200 390 200.5 396 Q201 402 202 408 L200 395 Q204 420 207.5 445 Q211 470 215 495 Q223 539 229 583 Q231 593 240.5 598 Q250 603 259 602 Q268 601 275 595 Q281 589 283 575 Q285 557 287 538.5 Q289 520 291 501 Q293 483 295 465 Q297 447 298 429 Q301 392 302 356 Z " />
<glyph glyph-name="five" unicode="5" horiz-adv-x="469" d="M424 200 Q429 185 431.5 169.5 Q434 154 435 138 Q438 114 435 89 Q432 60 426 32.5 Q420 5 409 -21 Q403 -36 396.5 -49.5 Q390 -63 382 -77 Q375 -90 366 -102 Q357 -114 347 -126 Q333 -142 318 -155 Q307 -164 295 -172.5 Q283 -181 270 -187 Q257 -193 243 -198.5 Q229 -204 215 -206 Q205 -208 195.5 -209 Q186 -210 176 -211 Q169 -211 161.5 -210 Q154 -209 147 -208 Q139 -207 132 -206 Q125 -205 118 -203 Q109 -200 100 -196.5 Q91 -193 82 -189 Q73 -184 65 -178 L62 -177 Q59 -174 53.5 -170.5 Q48 -167 46 -164 Q42 -159 38.5 -154.5 Q35 -150 31 -145 Q28 -141 26 -137 Q18 -124 17 -109 Q13 -94 18 -79 Q24 -60 38 -45 Q48 -34 62 -30 Q71 -25 81 -25 Q96 -21 111 -26 Q116 -28 120.5 -30 Q125 -32 129 -34 Q132 -35 135 -36.5 Q138 -38 140 -40 Q143 -41 145 -43 Q147 -45 149 -46 Q155 -50 161 -53 Q167 -55 173 -56 Q180 -57 188 -56 Q196 -54 203 -52 Q213 -47 223 -40 Q237 -28 250 -13 Q267 11 280 40 Q292 71 298 103 Q300 127 298 150 Q295 167 289 183 Q284 193 277 203 Q271 210 265 216 Q261 219 256 221 Q250 223 244 224 Q233 225 222 224 Q204 221 185 214 Q165 204 147 191 Q135 181 124 168 Q115 159 102 155 Q94 150 85 150 Q77 148 68 150 Q59 150 51 155 Q39 159 30 168 Q27 172 24.5 175.5 Q22 179 19 182 Q17 186 15.5 190 Q14 194 12 198 Q12 202 11.5 206.5 Q11 211 10 215 Q12 255 12 294 Q13 314 12 333 Q11 352 11 371 Q7 395 4 416 Q2 423 0.5 430 Q-1 437 -2 445 Q-4 457 -5 469 Q-6 481 -7 494 Q-8 510 -0.5 525 Q7 540 17 552 Q28 564 44 569 Q58 577 76 576 Q85 576 94.5 574.5 Q104 573 114 571 Q118 571 122 570.5 Q126 570 130 569 L148 566 Q156 565 164 564 Q172 563 180 562 Q189 561 199 560 L210 559 Q215 559 215 559 Q225 559 234 556 L235 556 Q257 551 283 547 L277 548 Q288 546 297 542 Q301 540 300 540 Q302 539 304.5 538 Q307 537 309 536 Q317 532 327 527 Q333 524 337 516.5 Q341 509 341 502 Q341 487 327 477 Q312 466 298 456 L300 458 Q295 455 290 453 Q285 450 281 449 L274 447 Q271 446 267.5 445 Q264 444 261 443 Q251 440 238 436 Q231 434 223 433 Q195 428 166 424 L159 423 Q158 410 157 397 Q156 384 154 372 Q154 357 154 342 Q173 349 192 352 Q202 354 212 355 Q222 356 232 357 Q242 357 252 356 Q262 355 272 353 Q284 351 295 347 Q303 344 311.5 340.5 Q320 337 328 332 Q335 328 342 322.5 Q349 317 355 312 Q363 306 370 298 Q407 257 424 200 Z " />
<glyph glyph-name="six" unicode="6" horiz-adv-x="398" d="M355 219 Q360 205 362 191 Q364 177 365 164 Q367 148 368.5 132 Q370 116 369 100 Q368 84 368 69 Q368 54 366 39 Q366 26 364 13 Q362 0 360 -13 Q359 -20 358 -28 Q358 -31 357 -36 Q356 -39 355 -43 L355 -41 Q352 -50 348.5 -58 Q345 -66 341 -74 Q322 -115 290 -150 Q266 -177 231 -188 Q227 -189 222 -190 Q215 -191 208 -192 Q201 -193 194 -193 Q185 -193 175.5 -192 Q166 -191 156 -189 Q147 -187 137 -184 Q128 -180 119.5 -176.5 Q111 -173 103 -167 Q87 -157 73 -145 Q68 -140 63.5 -134.5 Q59 -129 54 -123 Q49 -117 44.5 -110.5 Q40 -104 37 -97 Q28 -81 21 -60 Q14 -41 10 -15 Q6 12 4 38.5 Q2 65 3 93 Q4 120 7 147 Q10 174 15 200 Q24 249 40 296.5 Q56 344 80 387 Q103 428 131 465 Q140 476 149 487.5 Q158 499 168 510 Q177 519 185.5 528.5 Q194 538 205 546 L199 542 Q208 550 218 557 Q228 564 239 569 Q255 577 275 580.5 Q295 584 310 572 Q316 568 320 564 Q332 552 328 535 Q324 522 311 516 L311 515 Q312 516 310 515 Q305 511 300 509.5 Q295 508 289 506 Q286 504 282 502 Q274 494 265 484 Q264 482 262 479.5 Q260 477 259 475 Q260 478 262 480 Q264 482 266 484 Q221 427 190 355 Q189 352 186 346 L187 346 Q194 346 202 345 Q213 344 223 342 Q233 340 242 334 L240 336 Q249 331 261 322 Q259 323 256.5 324 Q254 325 251 327 Q299 306 332 261 Q347 241 355 219 Z M308 515 L309 515 L307 514 L308 515 Z M243 240 Q241 241 239 241.5 Q237 242 235 243 L243 240 Z M294 117 Q295 129 296 140.5 Q297 152 296 164 Q294 172 292 181 Q290 190 287 198 Q283 206 278 214 Q272 220 265 226 Q251 236 234 244 Q232 244 231 245 Q223 245 216 245 L217 245 Q212 245 207 246 Q202 247 197 248 Q191 248 187 248 Q172 247 157 258 Q148 223 142 186 Q134 115 142 45 Q144 31 147.5 17 Q151 3 156 -11 Q160 -20 165 -28 Q169 -32 172 -35 Q178 -39 185 -42 Q189 -43 191 -44 L196 -41 Q212 -28 226 -10 Q232 -2 236 5 Q241 12 246 18 Q251 24 256 30 Q262 39 267 47 Q272 55 278 63 L279 65 Q284 78 288 91 Q292 104 294 117 Z " />
<glyph glyph-name="seven" unicode="7" horiz-adv-x="343" d="M350 341 Q352 326 345 312 Q340 304 333 299.5 Q326 295 318 292 Q310 289 302 288 Q294 287 286 286 Q280 286 274.5 285.5 Q269 285 263 284 L261 284 Q250 242 239.5 200.5 Q229 159 218 118 Q200 50 182 -16.5 Q164 -83 146 -150 Q139 -175 114 -191 Q103 -199 89 -200 Q75 -201 62 -198 Q50 -195 38.5 -186 Q27 -177 21 -167 Q7 -142 14 -114 Q25 -78 35 -41.5 Q45 -5 55 31 Q73 95 90.5 157.5 Q108 220 127 283 Q107 287 104 306 Q103 317 108.5 325.5 Q114 334 124 337 Q129 338 134.5 339.5 Q140 341 145 343 Q151 361 156.5 379.5 Q162 398 167 416 Q172 432 176.5 448 Q181 464 186 480 Q188 486 190 492.5 Q192 499 194 505 Q172 507 150 508.5 Q128 510 106 511 Q102 511 98 511 L98 511 Q96 511 94.5 511.5 Q93 512 91 512 Q87 512 78 513 Q63 515 49 516 Q43 516 36 517 Q29 518 22 518 Q15 518 8 517.5 Q1 517 -6 517 Q-14 517 -15 525.5 Q-16 534 -8 536 Q-1 537 7 538.5 Q15 540 23 542 Q31 544 38.5 546 Q46 548 53 550 Q66 554 79 557.5 Q92 561 106 564 Q130 569 160 575 Q214 585 268 594 Q277 596 284.5 595.5 Q292 595 300 592 Q312 587 320 577 Q330 563 330 547 Q330 533 324 523 Q321 515 318 508 Q320 511 321 514 Q322 517 324 520 Q321 513 319 505.5 Q317 498 314 490 Q311 483 309 475.5 Q307 468 305 460 Q300 442 295.5 423.5 Q291 405 286 387 Q286 384 285.5 381.5 Q285 379 284 377 Q296 379 306 379 Q323 379 335.5 368 Q348 357 350 341 Z " />
<glyph glyph-name="eight" unicode="8" horiz-adv-x="414" d="M398 -14 Q401 -26 403 -38 Q405 -50 406 -63 Q408 -75 406.5 -87 Q405 -99 403 -111 Q400 -131 390 -148.5 Q380 -166 366 -181 Q363 -184 359 -187.5 Q355 -191 351 -194 Q347 -197 343 -200 Q339 -203 335 -205 Q317 -215 298 -221 Q287 -224 276.5 -225.5 Q266 -227 255 -227 Q244 -228 233.5 -226.5 Q223 -225 212 -223 Q200 -221 188 -217 Q177 -213 166.5 -208.5 Q156 -204 146 -198 Q135 -192 126 -185.5 Q117 -179 108 -171 Q97 -163 87 -152 Q74 -139 62.5 -124.5 Q51 -110 40 -94 Q31 -80 24 -66 Q17 -52 11 -37 Q4 -22 -1 -7.5 Q-6 7 -9 23 Q-16 58 -15 91 Q-13 158 15 214 Q22 227 30.5 239 Q39 251 49 262 Q60 274 78 283 Q83 285 89.5 288 Q96 291 102 293 Q116 299 133 297 Q124 322 115.5 347 Q107 372 101 399 Q98 416 95.5 433 Q93 450 94 467 Q94 487 98 505 Q100 513 103 521 Q106 529 110 537 Q109 536 108.5 534.5 Q108 533 108 532 Q111 540 116 546 Q124 558 130 565 Q142 578 157 586 Q173 596 188 598 Q211 602 234 598 Q247 596 259.5 589.5 Q272 583 282 575 Q303 559 320 534 Q323 529 325.5 524 Q328 519 331 515 Q338 505 342 495 Q348 483 352 471 Q356 459 359 446 Q364 415 358 387 Q353 360 337 334 Q326 316 311.5 300.5 Q297 285 280 272 Q298 234 315.5 197.5 Q333 161 349 123 Q363 89 376 55.5 Q389 22 398 -14 Z M274 481 Q265 490 256 498 Q248 503 239 508 Q234 510 228 511 Q225 511 222 511 L219 510 L216 508 L213 506 Q211 503 210 499 Q207 491 205 482 Q204 471 205 458 Q209 438 215 419.5 Q221 401 229 382 Q234 370 239 358 Q243 351 246.5 343 Q250 335 253 328 Q260 334 264 339 L268 345 L269 345 Q274 352 276 355 Q282 365 286 375 Q291 388 294 401 Q295 415 294 428 Q291 444 285 459 Q280 471 274 481 Z M180 -13 Q195 -33 214 -48 Q230 -60 244 -67 Q249 -68 254 -70 L256 -70 Q256 -64 256 -59 Q253 -45 249.5 -31.5 Q246 -18 242 -5 Q237 12 232.5 28 Q228 44 222 60 Q210 97 196 133.5 Q182 170 168 207 L167 207 Q165 204 163 201 Q161 197 159.5 193.5 Q158 190 156 186 Q152 180 148.5 174.5 Q145 169 142 163 Q138 150 135 136 Q133 116 135 95 Q141 64 153 33 Q164 9 180 -13 Z " />
<glyph glyph-name="nine" unicode="9" horiz-adv-x="366" d="M328 440 Q332 423 334.5 406 Q337 389 339 371 Q343 320 339 267 Q334 204 320 147 Q294 37 232 -56 Q200 -105 161 -147 Q151 -158 139.5 -168 Q128 -178 115 -186 Q99 -196 85 -199 Q75 -201 64 -202 Q57 -202 51 -201 Q43 -199 37 -193 Q31 -190 27 -185 Q14 -173 19 -156 Q23 -144 36 -137 L36 -137 Q34 -138 37 -136 Q44 -130 53 -129 Q54 -128 56 -128 Q59 -126 63 -124 Q70 -117 77 -109 Q99 -79 117 -47.5 Q135 -16 150 17 Q155 30 158 40 L158 40 Q138 39 117 44 Q108 47 98.5 53.5 Q89 60 81 66 Q38 95 19 139 Q14 151 9.5 162.5 Q5 174 1 187 Q-1 198 -3 210 Q-5 222 -6 234 Q-9 252 -10.5 270.5 Q-12 289 -11 308 L-10 297 Q-14 329 -10 362 Q-11 369 -10.5 375.5 Q-10 382 -9 388 Q-8 398 -7 408 Q-6 418 -4 428 Q-4 431 -3.5 435 Q-3 439 -2 442 Q-1 445 0 448 Q1 451 2 454 Q9 470 16 486 Q23 502 32 517 Q36 523 40.5 529 Q45 535 50 541 Q55 547 59 551 Q64 556 70 560.5 Q76 565 82 569 Q88 574 94.5 576.5 Q101 579 107 582 Q117 585 127 586.5 Q137 588 147 589 Q157 590 167 588.5 Q177 587 187 586 Q199 584 209 580 Q218 576 228 572 Q238 568 246 562 Q254 557 262 550.5 Q270 544 277 537 Q292 520 302 503 Q308 494 312 484 Q316 474 320 464 Q325 453 328 440 Z M146 138 Q152 138 158 138 Q172 139 187 129 Q195 163 200 198 Q210 275 201 352 Q198 366 195 380.5 Q192 395 187 409 Q182 419 177 427 Q173 431 171 433 Q165 437 160 439 Q157 440 154 441 L152 441 L150 440 L149 440 Q143 434 136 426 Q130 418 125 410 Q121 403 117 398 Q113 391 105 381 Q98 372 93 363 Q89 357 86 351.5 Q83 346 79 340 Q78 336 76.5 332 Q75 328 73 323 Q71 317 69.5 310.5 Q68 304 66 298 L65 294 Q63 280 62 265.5 Q61 251 63 237 Q67 209 76 187 Q81 176 88 167 Q95 157 104 150 Q111 145 119 141 L122 140 Q125 140 128 140 Q133 140 137 139.5 Q141 139 146 138 Z " />
<glyph glyph-name="colon" unicode="&#x3a;" horiz-adv-x="173" d="M35 305 Q32 310 30 316 Q28 325 30 334 Q30 340 33 345 Q35 354 42 360 L42 360 Q45 364 49 366 Q53 370 59 372 Q64 375 70 377 Q78 379 85 378 Q93 377 100 373 Q110 368 117 356 Q118 353 119 350 Q121 346 122 345 L122 344 L122 343 Q123 339 124 331 L124 330 Q124 320 120 312 Q118 306 114 301 Q109 294 101 289 Q97 288 90 285 Q83 282 74 282 Q65 282 57 286 Q48 289 42 296 Q37 302 35 305 Z M130 134 Q130 130 131 125.5 Q132 121 132 117 Q133 103 127 91 Q122 79 113 70 Q104 60 92 56 Q80 50 66 50 Q48 50 33 59 Q29 62 26 64.5 Q23 67 19 70 Q7 82 2 99 Q1 105 0 117 Q-1 130 6 142 Q10 154 19 163 Q28 173 41 177 Q52 183 66 183 Q84 183 99 174 Q103 171 106.5 168.5 Q110 166 113 163 Q125 151 130 134 Z " />
<glyph glyph-name="semicolon" unicode="&#x3b;" horiz-adv-x="160" d="M120 323 L120 322 Q119 318 119 315 Q119 312 118 308 Q118 309 117 305 Q116 303 115 301 Q114 299 113 297 Q109 287 102 280 Q100 277 96.5 274.5 Q93 272 89 270 Q82 264 72 263.5 Q62 263 54 265 Q46 267 38 273 Q30 279 26 287 Q24 290 22 294 Q20 298 19 303 Q17 312 17 320 Q17 325 18 329 Q18 336 22 342 Q24 347 24.5 348.5 Q25 350 29 354 Q33 360 36 363 Q56 383 83 375 Q95 372 104 363 Q113 354 116 342 Q120 333 120 323 Z M53 118 Q61 117 67 111 Q71 108 73 102.5 Q75 97 75 93 Q73 73 64 56 Q61 50 57 43 Q50 34 39 27 Q32 23 24 24.5 Q16 26 10 31 Q4 36 3 44.5 Q2 53 6 60 Q7 62 8 63.5 Q9 65 9 66 Q11 69 14 72 Q18 78 19 81 Q20 82 21 84 Q22 86 22 87 Q20 81 21 85 L22 89 Q24 93 25 100 Q26 109 35 114 Q44 119 53 118 Z " />
<glyph glyph-name="less" unicode="&#x3c;" horiz-adv-x="479" d="M437 101 Q440 89 437 77 Q437 64 431 53 Q425 36 411 23 Q407 19 402 15.5 Q397 12 392 8 Q387 6 381.5 3.5 Q376 1 370 -1 Q355 -3 345 -5 Q341 -5 339 -5 Q323 -5 313.5 -1.5 Q304 2 290 8 L281 12 Q277 14 272.5 16 Q268 18 264 20 Q247 27 227 36 Q219 39 211 42.5 Q203 46 195 49 Q187 52 179.5 56.5 Q172 61 165 64 Q152 71 139 78 Q126 85 113 91 Q102 97 91 102 Q80 107 69 112 Q55 119 42 128 Q29 137 17 146 Q6 152 -1 163 Q-7 168 -9 176 Q-13 184 -13 192 Q-15 200 -13 209 Q-12 221 -6 232 Q-3 235 -0.5 238.5 Q2 242 4 245 Q7 247 10.5 249.5 Q14 252 17 254 Q21 256 24.5 257.5 Q28 259 32 261 L36 262 Q49 265 62 263 Q66 265 70.5 266 Q75 267 79 269 Q94 276 108.5 284 Q123 292 138 300 Q167 316 196.5 331 Q226 346 255 362 Q266 368 276.5 373.5 Q287 379 297 385 Q313 393 326 399 Q335 403 342 406 L350 410 L353 411 Q360 415 366 416 L363 415 Q373 417 378 418 Q379 418 380 418 Q381 418 382 419 Q384 419 386 419 Q388 419 390 420 Q392 419 394 419 Q396 419 398 419 L393 419 L400 418 L403 418 Q415 416 420 402.5 Q425 389 419 379 Q418 378 417 377 Q416 376 416 375 Q413 371 411 369 Q409 367 406 365 Q410 369 406.5 366 Q403 363 402 362 Q399 359 395.5 356 Q392 353 389 350 Q386 349 384 347.5 Q382 346 379 345 Q364 336 345 324 Q334 317 322.5 309 Q311 301 299 293 Q285 284 269.5 275 Q254 266 238 258 Q229 252 220 247 Q211 242 202 236 Q212 234 222 231.5 Q232 229 242 226 Q250 224 258 221.5 Q266 219 275 217 Q283 214 291.5 211 Q300 208 308 205 Q316 202 324.5 199 Q333 196 341 193 Q349 191 359 187 Q366 184 373 181.5 Q380 179 387 175 Q395 171 400.5 166 Q406 161 411 155 Q425 142 431 125 Q437 114 437 101 Z " />
<glyph glyph-name="equal" unicode="&#x3d;" horiz-adv-x="502" d="M237 270 Q220 269 203 268.5 Q186 268 169 268 Q135 267 101 267 Q67 267 32 266 Q20 266 12 274.5 Q4 283 4 295 Q3 306 12 315 Q17 319 21.5 320.5 Q26 322 32 323 Q52 326 71 328.5 Q90 331 109 333 Q143 337 176.5 341.5 Q210 346 244 349 Q262 350 279 351.5 Q296 353 313 355 Q321 355 330 356 Q339 357 347 357 Q356 358 364.5 358 Q373 358 381 358 Q396 358 406.5 348 Q417 338 419 324 Q421 311 415 299 Q412 294 405 288 Q398 282 391 281 Q379 280 367 278 Q355 276 343 276 Q334 275 324.5 274.5 Q315 274 305 273 Q288 272 271 271.5 Q254 271 237 270 Z M460 207 Q479 193 479 172 Q479 162 474 152 Q469 142 459 137 Q451 133 446 132 Q443 131 440 130.5 Q437 130 434 130 Q432 130 430 129.5 Q428 129 426 129 Q422 129 418 128.5 Q414 128 410 128 Q393 129 377 129 Q348 130 319 129 Q290 128 261 127 Q204 125 147 117 L156 118 Q138 116 119.5 114 Q101 112 82 109 Q72 108 63.5 116 Q55 124 54 134 Q53 145 58.5 153 Q64 161 75 165 Q84 169 93.5 172.5 Q103 176 112 179 Q122 182 131.5 184.5 Q141 187 151 189 Q188 198 225 204.5 Q262 211 300 214 Q335 217 371 218 Q391 219 407 218 Q414 218 421 217.5 Q428 217 435 215 Q441 214 447.5 212.5 Q454 211 460 207 Z " />
<glyph glyph-name="greater" unicode="&#x3e;" horiz-adv-x="490" d="M444 241 Q448 233 449 225 Q451 216 449 208 Q448 196 441 185 Q439 182 436.5 178.5 Q434 175 431 172 Q428 170 425 167.5 Q422 165 419 162 Q415 161 411.5 159.5 Q408 158 404 156 L400 155 Q387 152 374 154 Q367 151 357 148 Q342 141 327.5 133 Q313 125 298 117 Q268 101 239 85.5 Q210 70 180 55 Q170 49 159.5 43.5 Q149 38 139 32 Q123 24 110 18 Q102 14 94 10 L86 7 L83 5 Q76 2 70 1 L72 2 Q69 1 65.5 0.5 Q62 0 58 -1 Q57 -1 56 -1.5 Q55 -2 54 -2 Q52 -2 50 -2.5 Q48 -3 46 -3 Q44 -3 42 -2.5 Q40 -2 38 -2 L43 -2 L35 -1 L33 -1 Q21 1 15.5 14.5 Q10 28 17 37 Q18 38 18.5 39.5 Q19 41 20 42 Q23 47 30 52 Q25 48 28.5 51 Q32 54 34 55 Q37 58 40 61 Q43 64 47 66 Q49 68 51.5 69 Q54 70 56 72 Q72 81 90 93 Q102 100 113.5 108 Q125 116 136 123 Q151 133 166.5 141.5 Q182 150 197 159 Q206 165 215.5 170 Q225 175 234 181 Q224 183 214 185.5 Q204 188 194 191 Q186 193 177.5 195 Q169 197 161 200 Q153 203 144.5 206 Q136 209 128 212 Q119 215 111 218 Q103 221 94 224 Q87 226 77 230 Q70 233 62.5 235.5 Q55 238 48 242 Q40 246 35 251 Q30 256 24 262 Q11 274 5 292 Q-1 303 -1 315 Q-5 328 -1 340 Q-1 353 5 364 Q11 381 24 394 Q29 398 33.5 401.5 Q38 405 43 409 Q49 411 54.5 413.5 Q60 416 66 418 Q72 419 78 420 Q84 421 90 422 Q94 422 96 422 Q112 422 122 418.5 Q132 415 146 409 L154 405 Q159 403 163 401 Q167 399 172 397 Q189 390 208 381 Q226 374 241 368 Q248 364 255.5 360 Q263 356 271 352 Q284 346 296.5 339 Q309 332 323 326 Q334 320 345 315 Q356 310 367 305 Q381 298 393.5 289 Q406 280 419 270 Q430 265 436 254 Q442 248 444 241 Z " />
<glyph glyph-name="question" unicode="&#x3f;" horiz-adv-x="393" d="M373 674 Q377 655 378.5 635 Q380 615 378 596 Q376 573 370.5 551.5 Q365 530 358 508 Q353 494 347.5 481 Q342 468 335 454 Q331 444 326.5 434.5 Q322 425 316 416 Q294 380 273 344 Q252 308 235 269 Q225 247 218 223 Q201 173 189 122.5 Q177 72 166 20 Q162 5 152 -6.5 Q142 -18 130 -26 Q117 -35 101 -36 Q85 -37 70 -34 Q55 -30 44 -20 Q31 -12 24 2 Q16 15 14.5 30.5 Q13 46 16 61 Q21 85 26.5 109 Q32 133 38 157 Q43 178 49 199.5 Q55 221 62 242 Q69 267 78.5 291 Q88 315 98 340 Q107 359 116.5 378.5 Q126 398 138 416 Q150 435 164 452.5 Q178 470 192 488 Q195 493 198.5 497 Q202 501 205 506 Q209 511 213.5 516 Q218 521 223 527 Q234 539 243 551 Q261 574 271 596 Q278 615 282 636 Q284 656 282 675 Q279 688 275 700 Q270 710 264 719 Q258 726 251 732 Q244 737 237 740 Q229 743 220 745 Q210 746 199 745 Q188 743 175 738 L172 737 Q169 735 166 733 Q160 730 153 726 Q151 724 148 722 L148 723 L148 722 L148 722 Q145 720 146 721 L145 720 Q140 716 135 710 Q135 709 134 708.5 Q133 708 133 707 Q132 706 131 704.5 Q130 703 129 701 Q125 695 122 688 Q120 683 113.5 681 Q107 679 102 680 Q97 681 93 686 Q89 691 89 697 Q95 741 126 772 Q140 786 160 795.5 Q180 805 200 808 Q223 811 246 808 Q256 807 265.5 803.5 Q275 800 284 796 Q302 787 317 773.5 Q332 760 343 743 Q354 728 361 710 Q368 692 373 674 Z M127 -170 Q128 -175 128.5 -181 Q129 -187 130 -192 Q130 -203 130 -214 Q130 -232 125 -253.5 Q120 -275 106 -288 Q97 -297 83.5 -301 Q70 -305 57 -301 Q34 -294 24 -271 Q16 -252 22 -232 Q22 -230 23 -227 Q24 -224 25 -221 Q27 -211 29.5 -201.5 Q32 -192 34 -182 L35 -174 Q37 -158 50 -145 Q63 -133 81 -132 Q90 -132 97 -135.5 Q104 -139 111 -145 Q123 -154 127 -170 Z " />
<glyph glyph-name="at" unicode="&#x40;" horiz-adv-x="623" d="M176 480 Q255 519 319.5 521.5 Q384 524 434 501 Q484 478 519 435 Q554 392 572.5 340.5 Q591 289 592.5 234 Q594 179 577.5 132.5 Q561 86 527 53.5 Q493 21 439 14 Q453 9 460.5 -3.5 Q468 -16 461 -29 Q438 -71 402 -92.5 Q366 -114 325 -118.5 Q284 -123 241.5 -113 Q199 -103 160.5 -82 Q122 -61 91 -32 Q60 -3 44 30 Q18 84 10 148 Q2 212 16 274.5 Q30 337 69 391.5 Q108 446 176 480 Z M493 160 Q500 192 498.5 225 Q497 258 487 289 Q476 321 456 350.5 Q436 380 406.5 398.5 Q377 417 339 420 Q301 423 255 404 Q218 388 194 364 Q170 340 156.5 311.5 Q143 283 138 252 Q133 221 133 191 Q134 153 141 112 Q148 71 172 38 Q189 14 217 -3 Q245 -20 277 -26.5 Q309 -33 342 -26 Q375 -19 402 6 Q406 10 412 13 Q410 13 408 14 Q396 13 387 15 Q366 19 356 33 Q345 47 339 63 Q336 71 334.5 79 Q333 87 332 95 Q330 105 330 116 Q330 127 330 138 Q330 143 330 147.5 Q330 152 330 157 Q329 156 327 154 Q325 152 324 151 Q313 140 299.5 131 Q286 122 268 117 Q248 111 226.5 115.5 Q205 120 190 133 Q164 155 163 188 Q162 202 167 216 Q172 230 180 243 Q187 255 196 265.5 Q205 276 216 286 Q227 296 241 303.5 Q255 311 271 315 Q280 317 289.5 317.5 Q299 318 308 315 Q317 313 323 309 Q331 305 334 297 Q336 288 326 286 Q326 286 323 286 Q319 284 315 284 Q314 284 312.5 284 Q311 284 310 284 L309 284 Q308 284 307 284 Q306 284 304 283 Q301 282 298 282 Q296 282 294 281.5 Q292 281 290 281 L289 281 Q288 280 287 280 Q286 280 285 279 Q282 278 281 277 L280 277 Q278 275 276 274 Q274 273 272 271 Q270 270 267 267 Q261 260 255.5 252.5 Q250 245 245 237 L246 239 Q245 236 243.5 233.5 Q242 231 240 228 Q233 215 230 203 Q229 195 230 188 Q231 183 234 178 Q235 176 237 173 L241 170 L243 170 L243 170 L246 171 Q252 175 257 180 Q262 185 267 191 Q272 197 277 203 Q283 210 288.5 217 Q294 224 300 231 Q321 259 338 288 Q346 303 352 318 Q357 329 368.5 335 Q380 341 394 339 Q406 338 416 331 Q421 328 424.5 322 Q428 316 427 311 Q425 299 424 286 Q423 280 423 274.5 Q423 269 423 263 Q424 222 427 179 Q428 168 428.5 157.5 Q429 147 429 137 Q429 128 429.5 120 Q430 112 432 104 Q434 92 439 82 Q442 77 445 73 Q446 73 446 73 Q446 73 446 72 Q455 83 463.5 96 Q472 109 478 122 Q484 135 488 145 Q492 155 493 160 Z " />
<glyph glyph-name="A" unicode="A" horiz-adv-x="551" d="M500 382 Q518 382 532.5 369.5 Q547 357 552 339 Q556 320 548.5 304.5 Q541 289 524 284 Q521 283 517.5 281.5 Q514 280 511 279 Q505 277 500 276.5 Q495 276 489 275 Q481 274 473.5 273 Q466 272 458 270 Q459 266 459 262 Q459 258 459 254 Q461 226 463 199 Q465 172 466 145 Q468 117 468.5 89.5 Q469 62 470 35 Q471 -18 472 -74 Q472 -102 471.5 -129 Q471 -156 460 -181 Q454 -194 444 -206.5 Q434 -219 421 -226 Q416 -229 411 -231.5 Q406 -234 400 -236 Q396 -237 391 -237.5 Q386 -238 381 -239 Q378 -239 376 -239 Q335 -238 308 -201 Q304 -196 301 -190 Q298 -184 296 -179 Q294 -175 293 -171 Q292 -167 291 -162 Q289 -155 287.5 -147 Q286 -139 284 -131 Q282 -122 280 -113 Q278 -104 276 -95 Q273 -82 270 -70 Q267 -58 264 -45 Q256 -17 249.5 11 Q243 39 236 67 Q230 94 224.5 121.5 Q219 149 219 176 L219 173 L218 175 Q216 187 219.5 197.5 Q223 208 229 216 Q205 209 183 202 Q174 199 164 204 Q154 209 149 218 Q138 183 128 150 Q119 116 110 83 Q100 49 92 18 Q88 0 82.5 -17.5 Q77 -35 71 -52 Q66 -68 62 -84 L61 -88 Q60 -91 59 -93.5 Q58 -96 57 -99 Q55 -103 53.5 -106.5 Q52 -110 51 -114 Q39 -146 29 -175 Q26 -181 20 -183 Q14 -185 8 -183 Q-6 -177 -5 -161 Q-2 -115 1 -74 Q1 -68 2 -61.5 Q3 -55 4 -48 L8 -24 Q9 -12 11 0.5 Q13 13 16 26 Q18 38 21 50.5 Q24 63 27 75 Q38 124 50 174 Q74 271 102 369 Q117 420 132.5 470.5 Q148 521 165 572 Q181 618 199 667 Q206 688 215 708 Q224 728 237 746 Q252 767 274 779.5 Q296 792 322 793 Q343 794 362 784 Q374 777 381.5 766.5 Q389 756 395 744 Q405 722 412 695 Q419 666 423 638 Q427 610 430 582 Q433 554 435.5 527 Q438 500 441 472 Q446 422 450 375 L454 376 Q461 378 468 379.5 Q475 381 483 382 Q487 382 491.5 382 Q496 382 500 382 Z M161 258 Q191 276 222 292 Q254 308 290 324 Q305 331 319.5 336.5 Q334 342 350 347 Q349 378 348 408.5 Q347 439 346 470 Q345 498 343.5 525.5 Q342 553 340 581 Q338 606 335.5 630.5 Q333 655 327 680 Q325 687 324 692 L321 690 Q314 683 308 675 Q303 666 299 656.5 Q295 647 291 638 Q286 623 280.5 608 Q275 593 270 578 Q250 525 231.5 471.5 Q213 418 195 363 Q178 313 161 258 Z M304 236 Q294 234 288 233 Q302 228 311 218 Q325 206 331 186 Q332 183 333 179.5 Q334 176 334 173 Q338 159 341 142 Q344 126 348 111 Q349 102 351 92 Q351 104 351 116 Q351 128 352 140 Q352 136 352 132 Q352 128 351 124 Q352 155 352 185.5 Q352 216 351 247 Q339 244 327.5 241.5 Q316 239 304 236 Z " />
<glyph glyph-name="&amp;#xc0;" unicode="&#xc0;" horiz-adv-x="551" d="M500 382 Q518 382 532.5 369.5 Q547 357 552 339 Q556 320 548.5 304.5 Q541 289 524 284 Q521 283 517.5 281.5 Q514 280 511 279 Q505 277 500 276.5 Q495 276 489 275 Q481 274 473.5 273 Q466 272 458 270 Q459 266 459 262 Q459 258 459 254 Q461 226 463 199 Q465 172 466 145 Q468 117 468.5 89.5 Q469 62 470 35 Q471 -18 472 -74 Q472 -102 471.5 -129 Q471 -156 460 -181 Q454 -194 444 -206.5 Q434 -219 421 -226 Q416 -229 411 -231.5 Q406 -234 400 -236 Q396 -237 391 -237.5 Q386 -238 381 -239 Q378 -239 376 -239 Q335 -238 308 -201 Q304 -196 301 -190 Q298 -184 296 -179 Q294 -175 293 -171 Q292 -167 291 -162 Q289 -155 287.5 -147 Q286 -139 284 -131 Q282 -122 280 -113 Q278 -104 276 -95 Q273 -82 270 -70 Q267 -58 264 -45 Q256 -17 249.5 11 Q243 39 236 67 Q230 94 224.5 121.5 Q219 149 219 176 L219 173 L218 175 Q216 187 219.5 197.5 Q223 208 229 216 Q205 209 183 202 Q174 199 164 204 Q154 209 149 218 Q138 183 128 150 Q119 116 110 83 Q100 49 92 18 Q88 0 82.5 -17.5 Q77 -35 71 -52 Q66 -68 62 -84 L61 -88 Q60 -91 59 -93.5 Q58 -96 57 -99 Q55 -103 53.5 -106.5 Q52 -110 51 -114 Q39 -146 29 -175 Q26 -181 20 -183 Q14 -185 8 -183 Q-6 -177 -5 -161 Q-2 -115 1 -74 Q1 -68 2 -61.5 Q3 -55 4 -48 L8 -24 Q9 -12 11 0.5 Q13 13 16 26 Q18 38 21 50.5 Q24 63 27 75 Q38 124 50 174 Q74 271 102 369 Q117 420 132.5 470.5 Q148 521 165 572 Q181 618 199 667 Q206 688 215 708 Q224 728 237 746 Q252 767 274 779.5 Q296 792 322 793 Q343 794 362 784 Q374 777 381.5 766.5 Q389 756 395 744 Q405 722 412 695 Q419 666 423 638 Q427 610 430 582 Q433 554 435.5 527 Q438 500 441 472 Q446 422 450 375 L454 376 Q461 378 468 379.5 Q475 381 483 382 Q487 382 491.5 382 Q496 382 500 382 Z M161 258 Q191 276 222 292 Q254 308 290 324 Q305 331 319.5 336.5 Q334 342 350 347 Q349 378 348 408.5 Q347 439 346 470 Q345 498 343.5 525.5 Q342 553 340 581 Q338 606 335.5 630.5 Q333 655 327 680 Q325 687 324 692 L321 690 Q314 683 308 675 Q303 666 299 656.5 Q295 647 291 638 Q286 623 280.5 608 Q275 593 270 578 Q250 525 231.5 471.5 Q213 418 195 363 Q178 313 161 258 Z M304 236 Q294 234 288 233 Q302 228 311 218 Q325 206 331 186 Q332 183 333 179.5 Q334 176 334 173 Q338 159 341 142 Q344 126 348 111 Q349 102 351 92 Q351 104 351 116 Q351 128 352 140 Q352 136 352 132 Q352 128 351 124 Q352 155 352 185.5 Q352 216 351 247 Q339 244 327.5 241.5 Q316 239 304 236 Z " />
<glyph glyph-name="&amp;#xc1;" unicode="&#xc1;" horiz-adv-x="551" d="M500 382 Q518 382 532.5 369.5 Q547 357 552 339 Q556 320 548.5 304.5 Q541 289 524 284 Q521 283 517.5 281.5 Q514 280 511 279 Q505 277 500 276.5 Q495 276 489 275 Q481 274 473.5 273 Q466 272 458 270 Q459 266 459 262 Q459 258 459 254 Q461 226 463 199 Q465 172 466 145 Q468 117 468.5 89.5 Q469 62 470 35 Q471 -18 472 -74 Q472 -102 471.5 -129 Q471 -156 460 -181 Q454 -194 444 -206.5 Q434 -219 421 -226 Q416 -229 411 -231.5 Q406 -234 400 -236 Q396 -237 391 -237.5 Q386 -238 381 -239 Q378 -239 376 -239 Q335 -238 308 -201 Q304 -196 301 -190 Q298 -184 296 -179 Q294 -175 293 -171 Q292 -167 291 -162 Q289 -155 287.5 -147 Q286 -139 284 -131 Q282 -122 280 -113 Q278 -104 276 -95 Q273 -82 270 -70 Q267 -58 264 -45 Q256 -17 249.5 11 Q243 39 236 67 Q230 94 224.5 121.5 Q219 149 219 176 L219 173 L218 175 Q216 187 219.5 197.5 Q223 208 229 216 Q205 209 183 202 Q174 199 164 204 Q154 209 149 218 Q138 183 128 150 Q119 116 110 83 Q100 49 92 18 Q88 0 82.5 -17.5 Q77 -35 71 -52 Q66 -68 62 -84 L61 -88 Q60 -91 59 -93.5 Q58 -96 57 -99 Q55 -103 53.5 -106.5 Q52 -110 51 -114 Q39 -146 29 -175 Q26 -181 20 -183 Q14 -185 8 -183 Q-6 -177 -5 -161 Q-2 -115 1 -74 Q1 -68 2 -61.5 Q3 -55 4 -48 L8 -24 Q9 -12 11 0.5 Q13 13 16 26 Q18 38 21 50.5 Q24 63 27 75 Q38 124 50 174 Q74 271 102 369 Q117 420 132.5 470.5 Q148 521 165 572 Q181 618 199 667 Q206 688 215 708 Q224 728 237 746 Q252 767 274 779.5 Q296 792 322 793 Q343 794 362 784 Q374 777 381.5 766.5 Q389 756 395 744 Q405 722 412 695 Q419 666 423 638 Q427 610 430 582 Q433 554 435.5 527 Q438 500 441 472 Q446 422 450 375 L454 376 Q461 378 468 379.5 Q475 381 483 382 Q487 382 491.5 382 Q496 382 500 382 Z M161 258 Q191 276 222 292 Q254 308 290 324 Q305 331 319.5 336.5 Q334 342 350 347 Q349 378 348 408.5 Q347 439 346 470 Q345 498 343.5 525.5 Q342 553 340 581 Q338 606 335.5 630.5 Q333 655 327 680 Q325 687 324 692 L321 690 Q314 683 308 675 Q303 666 299 656.5 Q295 647 291 638 Q286 623 280.5 608 Q275 593 270 578 Q250 525 231.5 471.5 Q213 418 195 363 Q178 313 161 258 Z M304 236 Q294 234 288 233 Q302 228 311 218 Q325 206 331 186 Q332 183 333 179.5 Q334 176 334 173 Q338 159 341 142 Q344 126 348 111 Q349 102 351 92 Q351 104 351 116 Q351 128 352 140 Q352 136 352 132 Q352 128 351 124 Q352 155 352 185.5 Q352 216 351 247 Q339 244 327.5 241.5 Q316 239 304 236 Z " />
<glyph glyph-name="&amp;#xc2;" unicode="&#xc2;" horiz-adv-x="551" d="M500 382 Q518 382 532.5 369.5 Q547 357 552 339 Q556 320 548.5 304.5 Q541 289 524 284 Q521 283 517.5 281.5 Q514 280 511 279 Q505 277 500 276.5 Q495 276 489 275 Q481 274 473.5 273 Q466 272 458 270 Q459 266 459 262 Q459 258 459 254 Q461 226 463 199 Q465 172 466 145 Q468 117 468.5 89.5 Q469 62 470 35 Q471 -18 472 -74 Q472 -102 471.5 -129 Q471 -156 460 -181 Q454 -194 444 -206.5 Q434 -219 421 -226 Q416 -229 411 -231.5 Q406 -234 400 -236 Q396 -237 391 -237.5 Q386 -238 381 -239 Q378 -239 376 -239 Q335 -238 308 -201 Q304 -196 301 -190 Q298 -184 296 -179 Q294 -175 293 -171 Q292 -167 291 -162 Q289 -155 287.5 -147 Q286 -139 284 -131 Q282 -122 280 -113 Q278 -104 276 -95 Q273 -82 270 -70 Q267 -58 264 -45 Q256 -17 249.5 11 Q243 39 236 67 Q230 94 224.5 121.5 Q219 149 219 176 L219 173 L218 175 Q216 187 219.5 197.5 Q223 208 229 216 Q205 209 183 202 Q174 199 164 204 Q154 209 149 218 Q138 183 128 150 Q119 116 110 83 Q100 49 92 18 Q88 0 82.5 -17.5 Q77 -35 71 -52 Q66 -68 62 -84 L61 -88 Q60 -91 59 -93.5 Q58 -96 57 -99 Q55 -103 53.5 -106.5 Q52 -110 51 -114 Q39 -146 29 -175 Q26 -181 20 -183 Q14 -185 8 -183 Q-6 -177 -5 -161 Q-2 -115 1 -74 Q1 -68 2 -61.5 Q3 -55 4 -48 L8 -24 Q9 -12 11 0.5 Q13 13 16 26 Q18 38 21 50.5 Q24 63 27 75 Q38 124 50 174 Q74 271 102 369 Q117 420 132.5 470.5 Q148 521 165 572 Q181 618 199 667 Q206 688 215 708 Q224 728 237 746 Q252 767 274 779.5 Q296 792 322 793 Q343 794 362 784 Q374 777 381.5 766.5 Q389 756 395 744 Q405 722 412 695 Q419 666 423 638 Q427 610 430 582 Q433 554 435.5 527 Q438 500 441 472 Q446 422 450 375 L454 376 Q461 378 468 379.5 Q475 381 483 382 Q487 382 491.5 382 Q496 382 500 382 Z M161 258 Q191 276 222 292 Q254 308 290 324 Q305 331 319.5 336.5 Q334 342 350 347 Q349 378 348 408.5 Q347 439 346 470 Q345 498 343.5 525.5 Q342 553 340 581 Q338 606 335.5 630.5 Q333 655 327 680 Q325 687 324 692 L321 690 Q314 683 308 675 Q303 666 299 656.5 Q295 647 291 638 Q286 623 280.5 608 Q275 593 270 578 Q250 525 231.5 471.5 Q213 418 195 363 Q178 313 161 258 Z M304 236 Q294 234 288 233 Q302 228 311 218 Q325 206 331 186 Q332 183 333 179.5 Q334 176 334 173 Q338 159 341 142 Q344 126 348 111 Q349 102 351 92 Q351 104 351 116 Q351 128 352 140 Q352 136 352 132 Q352 128 351 124 Q352 155 352 185.5 Q352 216 351 247 Q339 244 327.5 241.5 Q316 239 304 236 Z " />
<glyph glyph-name="&amp;#xc3;" unicode="&#xc3;" horiz-adv-x="551" d="M500 382 Q518 382 532.5 369.5 Q547 357 552 339 Q556 320 548.5 304.5 Q541 289 524 284 Q521 283 517.5 281.5 Q514 280 511 279 Q505 277 500 276.5 Q495 276 489 275 Q481 274 473.5 273 Q466 272 458 270 Q459 266 459 262 Q459 258 459 254 Q461 226 463 199 Q465 172 466 145 Q468 117 468.5 89.5 Q469 62 470 35 Q471 -18 472 -74 Q472 -102 471.5 -129 Q471 -156 460 -181 Q454 -194 444 -206.5 Q434 -219 421 -226 Q416 -229 411 -231.5 Q406 -234 400 -236 Q396 -237 391 -237.5 Q386 -238 381 -239 Q378 -239 376 -239 Q335 -238 308 -201 Q304 -196 301 -190 Q298 -184 296 -179 Q294 -175 293 -171 Q292 -167 291 -162 Q289 -155 287.5 -147 Q286 -139 284 -131 Q282 -122 280 -113 Q278 -104 276 -95 Q273 -82 270 -70 Q267 -58 264 -45 Q256 -17 249.5 11 Q243 39 236 67 Q230 94 224.5 121.5 Q219 149 219 176 L219 173 L218 175 Q216 187 219.5 197.5 Q223 208 229 216 Q205 209 183 202 Q174 199 164 204 Q154 209 149 218 Q138 183 128 150 Q119 116 110 83 Q100 49 92 18 Q88 0 82.5 -17.5 Q77 -35 71 -52 Q66 -68 62 -84 L61 -88 Q60 -91 59 -93.5 Q58 -96 57 -99 Q55 -103 53.5 -106.5 Q52 -110 51 -114 Q39 -146 29 -175 Q26 -181 20 -183 Q14 -185 8 -183 Q-6 -177 -5 -161 Q-2 -115 1 -74 Q1 -68 2 -61.5 Q3 -55 4 -48 L8 -24 Q9 -12 11 0.5 Q13 13 16 26 Q18 38 21 50.5 Q24 63 27 75 Q38 124 50 174 Q74 271 102 369 Q117 420 132.5 470.5 Q148 521 165 572 Q181 618 199 667 Q206 688 215 708 Q224 728 237 746 Q252 767 274 779.5 Q296 792 322 793 Q343 794 362 784 Q374 777 381.5 766.5 Q389 756 395 744 Q405 722 412 695 Q419 666 423 638 Q427 610 430 582 Q433 554 435.5 527 Q438 500 441 472 Q446 422 450 375 L454 376 Q461 378 468 379.5 Q475 381 483 382 Q487 382 491.5 382 Q496 382 500 382 Z M161 258 Q191 276 222 292 Q254 308 290 324 Q305 331 319.5 336.5 Q334 342 350 347 Q349 378 348 408.5 Q347 439 346 470 Q345 498 343.5 525.5 Q342 553 340 581 Q338 606 335.5 630.5 Q333 655 327 680 Q325 687 324 692 L321 690 Q314 683 308 675 Q303 666 299 656.5 Q295 647 291 638 Q286 623 280.5 608 Q275 593 270 578 Q250 525 231.5 471.5 Q213 418 195 363 Q178 313 161 258 Z M304 236 Q294 234 288 233 Q302 228 311 218 Q325 206 331 186 Q332 183 333 179.5 Q334 176 334 173 Q338 159 341 142 Q344 126 348 111 Q349 102 351 92 Q351 104 351 116 Q351 128 352 140 Q352 136 352 132 Q352 128 351 124 Q352 155 352 185.5 Q352 216 351 247 Q339 244 327.5 241.5 Q316 239 304 236 Z " />
<glyph glyph-name="&amp;#xc4;" unicode="&#xc4;" horiz-adv-x="551" d="M500 382 Q518 382 532.5 369.5 Q547 357 552 339 Q556 320 548.5 304.5 Q541 289 524 284 Q521 283 517.5 281.5 Q514 280 511 279 Q505 277 500 276.5 Q495 276 489 275 Q481 274 473.5 273 Q466 272 458 270 Q459 266 459 262 Q459 258 459 254 Q461 226 463 199 Q465 172 466 145 Q468 117 468.5 89.5 Q469 62 470 35 Q471 -18 472 -74 Q472 -102 471.5 -129 Q471 -156 460 -181 Q454 -194 444 -206.5 Q434 -219 421 -226 Q416 -229 411 -231.5 Q406 -234 400 -236 Q396 -237 391 -237.5 Q386 -238 381 -239 Q378 -239 376 -239 Q335 -238 308 -201 Q304 -196 301 -190 Q298 -184 296 -179 Q294 -175 293 -171 Q292 -167 291 -162 Q289 -155 287.5 -147 Q286 -139 284 -131 Q282 -122 280 -113 Q278 -104 276 -95 Q273 -82 270 -70 Q267 -58 264 -45 Q256 -17 249.5 11 Q243 39 236 67 Q230 94 224.5 121.5 Q219 149 219 176 L219 173 L218 175 Q216 187 219.5 197.5 Q223 208 229 216 Q205 209 183 202 Q174 199 164 204 Q154 209 149 218 Q138 183 128 150 Q119 116 110 83 Q100 49 92 18 Q88 0 82.5 -17.5 Q77 -35 71 -52 Q66 -68 62 -84 L61 -88 Q60 -91 59 -93.5 Q58 -96 57 -99 Q55 -103 53.5 -106.5 Q52 -110 51 -114 Q39 -146 29 -175 Q26 -181 20 -183 Q14 -185 8 -183 Q-6 -177 -5 -161 Q-2 -115 1 -74 Q1 -68 2 -61.5 Q3 -55 4 -48 L8 -24 Q9 -12 11 0.5 Q13 13 16 26 Q18 38 21 50.5 Q24 63 27 75 Q38 124 50 174 Q74 271 102 369 Q117 420 132.5 470.5 Q148 521 165 572 Q181 618 199 667 Q206 688 215 708 Q224 728 237 746 Q252 767 274 779.5 Q296 792 322 793 Q343 794 362 784 Q374 777 381.5 766.5 Q389 756 395 744 Q405 722 412 695 Q419 666 423 638 Q427 610 430 582 Q433 554 435.5 527 Q438 500 441 472 Q446 422 450 375 L454 376 Q461 378 468 379.5 Q475 381 483 382 Q487 382 491.5 382 Q496 382 500 382 Z M161 258 Q191 276 222 292 Q254 308 290 324 Q305 331 319.5 336.5 Q334 342 350 347 Q349 378 348 408.5 Q347 439 346 470 Q345 498 343.5 525.5 Q342 553 340 581 Q338 606 335.5 630.5 Q333 655 327 680 Q325 687 324 692 L321 690 Q314 683 308 675 Q303 666 299 656.5 Q295 647 291 638 Q286 623 280.5 608 Q275 593 270 578 Q250 525 231.5 471.5 Q213 418 195 363 Q178 313 161 258 Z M304 236 Q294 234 288 233 Q302 228 311 218 Q325 206 331 186 Q332 183 333 179.5 Q334 176 334 173 Q338 159 341 142 Q344 126 348 111 Q349 102 351 92 Q351 104 351 116 Q351 128 352 140 Q352 136 352 132 Q352 128 351 124 Q352 155 352 185.5 Q352 216 351 247 Q339 244 327.5 241.5 Q316 239 304 236 Z " />
<glyph glyph-name="&amp;#xc5;" unicode="&#xc5;" horiz-adv-x="551" d="M500 382 Q518 382 532.5 369.5 Q547 357 552 339 Q556 320 548.5 304.5 Q541 289 524 284 Q521 283 517.5 281.5 Q514 280 511 279 Q505 277 500 276.5 Q495 276 489 275 Q481 274 473.5 273 Q466 272 458 270 Q459 266 459 262 Q459 258 459 254 Q461 226 463 199 Q465 172 466 145 Q468 117 468.5 89.5 Q469 62 470 35 Q471 -18 472 -74 Q472 -102 471.5 -129 Q471 -156 460 -181 Q454 -194 444 -206.5 Q434 -219 421 -226 Q416 -229 411 -231.5 Q406 -234 400 -236 Q396 -237 391 -237.5 Q386 -238 381 -239 Q378 -239 376 -239 Q335 -238 308 -201 Q304 -196 301 -190 Q298 -184 296 -179 Q294 -175 293 -171 Q292 -167 291 -162 Q289 -155 287.5 -147 Q286 -139 284 -131 Q282 -122 280 -113 Q278 -104 276 -95 Q273 -82 270 -70 Q267 -58 264 -45 Q256 -17 249.5 11 Q243 39 236 67 Q230 94 224.5 121.5 Q219 149 219 176 L219 173 L218 175 Q216 187 219.5 197.5 Q223 208 229 216 Q205 209 183 202 Q174 199 164 204 Q154 209 149 218 Q138 183 128 150 Q119 116 110 83 Q100 49 92 18 Q88 0 82.5 -17.5 Q77 -35 71 -52 Q66 -68 62 -84 L61 -88 Q60 -91 59 -93.5 Q58 -96 57 -99 Q55 -103 53.5 -106.5 Q52 -110 51 -114 Q39 -146 29 -175 Q26 -181 20 -183 Q14 -185 8 -183 Q-6 -177 -5 -161 Q-2 -115 1 -74 Q1 -68 2 -61.5 Q3 -55 4 -48 L8 -24 Q9 -12 11 0.5 Q13 13 16 26 Q18 38 21 50.5 Q24 63 27 75 Q38 124 50 174 Q74 271 102 369 Q117 420 132.5 470.5 Q148 521 165 572 Q181 618 199 667 Q206 688 215 708 Q224 728 237 746 Q252 767 274 779.5 Q296 792 322 793 Q343 794 362 784 Q374 777 381.5 766.5 Q389 756 395 744 Q405 722 412 695 Q419 666 423 638 Q427 610 430 582 Q433 554 435.5 527 Q438 500 441 472 Q446 422 450 375 L454 376 Q461 378 468 379.5 Q475 381 483 382 Q487 382 491.5 382 Q496 382 500 382 Z M161 258 Q191 276 222 292 Q254 308 290 324 Q305 331 319.5 336.5 Q334 342 350 347 Q349 378 348 408.5 Q347 439 346 470 Q345 498 343.5 525.5 Q342 553 340 581 Q338 606 335.5 630.5 Q333 655 327 680 Q325 687 324 692 L321 690 Q314 683 308 675 Q303 666 299 656.5 Q295 647 291 638 Q286 623 280.5 608 Q275 593 270 578 Q250 525 231.5 471.5 Q213 418 195 363 Q178 313 161 258 Z M304 236 Q294 234 288 233 Q302 228 311 218 Q325 206 331 186 Q332 183 333 179.5 Q334 176 334 173 Q338 159 341 142 Q344 126 348 111 Q349 102 351 92 Q351 104 351 116 Q351 128 352 140 Q352 136 352 132 Q352 128 351 124 Q352 155 352 185.5 Q352 216 351 247 Q339 244 327.5 241.5 Q316 239 304 236 Z " />
<glyph glyph-name="B" unicode="B" horiz-adv-x="540" d="M483 266 Q490 236 493 200 Q495 170 492.5 140.5 Q490 111 484 82 Q472 25 445 -26.5 Q418 -78 380 -121 Q360 -144 336.5 -164 Q313 -184 287 -201 Q263 -217 232 -227 Q225 -230 217.5 -231.5 Q210 -233 202 -234 Q195 -235 187.5 -235.5 Q180 -236 173 -235 Q163 -234 153.5 -232.5 Q144 -231 134 -228 Q128 -225 121 -222.5 Q114 -220 108 -216 Q98 -209 86 -199 Q82 -195 78 -190 Q73 -185 68.5 -179.5 Q64 -174 61 -167 Q57 -161 54.5 -154.5 Q52 -148 49 -141 Q47 -136 46 -131 Q39 -99 41 -67 Q41 -57 42.5 -47 Q44 -37 45 -27 Q46 -20 47 -14 Q48 -8 49 -2 Q51 13 54 27.5 Q57 42 60 56 L71 113 Q74 128 77 142 Q80 156 82 170 Q84 178 85.5 185 Q87 192 88 199 Q89 206 90.5 213.5 Q92 221 94 228 L93 223 Q94 230 95 236.5 Q96 243 98 249 Q99 255 100 261 Q101 267 103 272 Q103 272 102.5 271 Q102 270 102 269 Q105 286 111 298 Q113 305 118 311 Q126 319 141 320 Q154 321 164 311 Q168 307 171 300.5 Q174 294 173 289 Q174 286 174 282.5 Q174 279 175 276 Q175 274 175.5 271 Q176 268 176 266 Q176 261 176 255.5 Q176 250 176 245 Q176 234 176.5 223.5 Q177 213 177 203 Q177 165 177 128 Q177 91 178 54 Q178 35 178 16.5 Q178 -2 178 -21 Q177 -34 177 -47 Q177 -60 178 -72 Q180 -81 182 -88 Q184 -91 185 -94 L187 -94 Q195 -92 202 -89 Q214 -84 225 -76.5 Q236 -69 246 -62 Q279 -35 305 -3 Q327 27 343 62 Q358 100 364 139 Q368 172 364 206 Q359 238 348 267 Q341 281 333 293 Q330 296 325 301 L321 303 L316 304 Q312 305 308 304 Q301 303 295 301 Q270 288 243 279 Q231 275 218 277.5 Q205 280 193 286 Q184 291 177.5 299 Q171 307 167 317 Q161 328 162 342 Q162 346 162.5 350 Q163 354 164 359 Q167 371 175 381 Q183 391 194 397 Q206 405 216 410 Q232 418 253 425 Q262 428 271 430 Q279 436 288 442 Q309 459 326 481 Q343 504 356 530 Q367 560 372 591 Q374 616 372 639 Q370 653 366 664 Q360 676 352 687 Q346 695 338 702 Q332 705 326 708 Q321 710 316 711 Q309 712 302 711 Q290 709 278 705 Q265 698 252.5 690.5 Q240 683 228 674 Q207 657 188 636.5 Q169 616 152 594 Q139 577 125 558 Q118 547 110.5 535.5 Q103 524 95 514 Q71 482 51 451 Q39 433 29 416 Q25 411 22 406 Q19 401 15 396 Q11 392 8.5 388.5 Q6 385 2 381 Q-2 377 -8.5 376.5 Q-15 376 -20 379 Q-26 382 -28 388 Q-30 394 -29 400 L-26 411 Q-26 412 -25.5 415.5 Q-25 419 -25 414 Q-25 419 -22 426 Q-23 422 -22 425 Q-21 428 -21 429 L-19 433 Q-17 437 -15.5 441 Q-14 445 -12 448 Q-4 469 6 490 Q15 509 24 527.5 Q33 546 43 564 Q54 581 64 597 Q74 613 85 629 Q97 646 109.5 662.5 Q122 679 136 694 Q159 720 189 744 Q224 771 261 784 Q282 791 305 792 Q328 793 349 785 Q383 772 406 746 Q419 731 427.5 715.5 Q436 700 443 682 Q457 647 458.5 610 Q460 573 454 536 Q444 479 417 425 Q411 415 404 404 Q416 395 425 384 Q436 372 445 358.5 Q454 345 460 330 Q467 314 473 298.5 Q479 283 483 266 Z " />
<glyph glyph-name="C" unicode="C" horiz-adv-x="544" d="M466 771 Q484 762 499 747 Q514 732 522 714 Q538 678 535 638 Q535 632 534.5 626.5 Q534 621 533 615 Q532 613 532 607 Q531 604 531 604 Q533 611 531.5 605 Q530 599 529 598 Q528 595 528 595 L527 592 L524 584 Q522 578 518 570 Q513 556 500 558 Q487 560 485 574 Q485 583 484 587 Q484 588 483.5 591 Q483 594 484 589 Q484 589 483 594 Q483 596 482.5 597.5 Q482 599 484 595 Q482 598 481.5 602.5 Q481 607 481 611 Q481 615 480 623 L479 629 L479 629 Q478 638 477 642 Q475 652 471 661 Q467 669 462 676 Q458 682 452 687 Q446 690 440 693 Q432 696 423 698 Q410 699 397 698 Q379 695 362 688 Q341 679 324 666 Q312 656 302 644 Q290 628 280.5 611 Q271 594 262 576 Q253 559 244.5 541.5 Q236 524 229 506 Q220 484 212 463 Q183 379 169 289 Q167 267 165 247 Q162 208 162 168.5 Q162 129 166 89 Q170 67 175.5 44.5 Q181 22 189 1 Q200 -22 213 -41 Q222 -52 231 -60 Q233 -61 235 -63 L237 -63 L238 -63 L241 -62 Q247 -59 253 -55 Q263 -47 271.5 -37.5 Q280 -28 288 -18 Q296 -7 305 5 Q316 21 327 37 Q338 53 349 69 Q355 78 361 86.5 Q367 95 373 104 Q379 112 384.5 120.5 Q390 129 396 137 Q399 141 401.5 144.5 Q404 148 407 152 Q409 156 412 159.5 Q415 163 418 167 Q423 174 428 181.5 Q433 189 438 196 L437 195 Q441 202 446 209.5 Q451 217 455 226 Q459 233 465.5 237.5 Q472 242 480 244 Q488 247 496 245.5 Q504 244 511 240 Q518 237 523 230 Q528 223 530 216 Q533 204 529 192 L530 193 Q528 189 526.5 185 Q525 181 523 177 Q521 173 519 168 Q517 163 516 159 Q513 151 510 143.5 Q507 136 504 129 Q502 125 500.5 120.5 Q499 116 497 112 Q495 107 493 101 Q491 95 489 90 Q485 81 480.5 71.5 Q476 62 472 53 Q459 22 444 -8 Q429 -38 412 -67 Q392 -103 368 -136 Q344 -169 309 -191 Q298 -198 286.5 -202.5 Q275 -207 263 -210 Q254 -211 245.5 -212.5 Q237 -214 228 -214 Q219 -214 210 -212.5 Q201 -211 193 -210 Q181 -208 169.5 -203 Q158 -198 147 -192 Q136 -186 126.5 -178.5 Q117 -171 108 -163 Q98 -155 90 -144 Q82 -133 74 -123 Q65 -109 56 -92 Q36 -52 25 -13 Q16 19 11.5 51.5 Q7 84 5 117 Q1 182 9 242 Q14 281 21 319.5 Q28 358 39 396 Q50 434 64 471 Q78 508 94 544 Q109 577 127 608 Q135 624 145 638.5 Q155 653 165 667 Q178 684 191 701.5 Q204 719 220 733 Q229 741 239 748.5 Q249 756 259 762 Q270 768 281 773 Q292 778 303 782 Q301 781 299.5 780.5 Q298 780 296 779 Q304 782 311 784 Q315 785 320 786 Q327 788 334.5 789 Q342 790 350 791 Q368 793 386 791 Q407 790 427 785.5 Q447 781 466 771 Z " />
<glyph glyph-name="&amp;#xc7;" unicode="&#xc7;" horiz-adv-x="544" d="M466 771 Q484 762 499 747 Q514 732 522 714 Q538 678 535 638 Q535 632 534.5 626.5 Q534 621 533 615 Q532 613 532 607 Q531 604 531 604 Q533 611 531.5 605 Q530 599 529 598 Q528 595 528 595 L527 592 L524 584 Q522 578 518 570 Q513 556 500 558 Q487 560 485 574 Q485 583 484 587 Q484 588 483.5 591 Q483 594 484 589 Q484 589 483 594 Q483 596 482.5 597.5 Q482 599 484 595 Q482 598 481.5 602.5 Q481 607 481 611 Q481 615 480 623 L479 629 L479 629 Q478 638 477 642 Q475 652 471 661 Q467 669 462 676 Q458 682 452 687 Q446 690 440 693 Q432 696 423 698 Q410 699 397 698 Q379 695 362 688 Q341 679 324 666 Q312 656 302 644 Q290 628 280.5 611 Q271 594 262 576 Q253 559 244.5 541.5 Q236 524 229 506 Q220 484 212 463 Q183 379 169 289 Q167 267 165 247 Q162 208 162 168.5 Q162 129 166 89 Q170 67 175.5 44.5 Q181 22 189 1 Q200 -22 213 -41 Q222 -52 231 -60 Q233 -61 235 -63 L237 -63 L238 -63 L241 -62 Q247 -59 253 -55 Q263 -47 271.5 -37.5 Q280 -28 288 -18 Q296 -7 305 5 Q316 21 327 37 Q338 53 349 69 Q355 78 361 86.5 Q367 95 373 104 Q379 112 384.5 120.5 Q390 129 396 137 Q399 141 401.5 144.5 Q404 148 407 152 Q409 156 412 159.5 Q415 163 418 167 Q423 174 428 181.5 Q433 189 438 196 L437 195 Q441 202 446 209.5 Q451 217 455 226 Q459 233 465.5 237.5 Q472 242 480 244 Q488 247 496 245.5 Q504 244 511 240 Q518 237 523 230 Q528 223 530 216 Q533 204 529 192 L530 193 Q528 189 526.5 185 Q525 181 523 177 Q521 173 519 168 Q517 163 516 159 Q513 151 510 143.5 Q507 136 504 129 Q502 125 500.5 120.5 Q499 116 497 112 Q495 107 493 101 Q491 95 489 90 Q485 81 480.5 71.5 Q476 62 472 53 Q459 22 444 -8 Q429 -38 412 -67 Q392 -103 368 -136 Q344 -169 309 -191 Q298 -198 286.5 -202.5 Q275 -207 263 -210 Q254 -211 245.5 -212.5 Q237 -214 228 -214 Q219 -214 210 -212.5 Q201 -211 193 -210 Q181 -208 169.5 -203 Q158 -198 147 -192 Q136 -186 126.5 -178.5 Q117 -171 108 -163 Q98 -155 90 -144 Q82 -133 74 -123 Q65 -109 56 -92 Q36 -52 25 -13 Q16 19 11.5 51.5 Q7 84 5 117 Q1 182 9 242 Q14 281 21 319.5 Q28 358 39 396 Q50 434 64 471 Q78 508 94 544 Q109 577 127 608 Q135 624 145 638.5 Q155 653 165 667 Q178 684 191 701.5 Q204 719 220 733 Q229 741 239 748.5 Q249 756 259 762 Q270 768 281 773 Q292 778 303 782 Q301 781 299.5 780.5 Q298 780 296 779 Q304 782 311 784 Q315 785 320 786 Q327 788 334.5 789 Q342 790 350 791 Q368 793 386 791 Q407 790 427 785.5 Q447 781 466 771 Z " />
<glyph glyph-name="D" unicode="D" horiz-adv-x="532" d="M511 447 L511 451 Q511 442 511 434 Q511 426 511 418 Q509 355 494.5 294 Q480 233 459 174 Q439 118 414.5 64.5 Q390 11 358 -39 Q326 -89 285 -135 Q268 -153 250 -170 Q240 -179 231 -187 Q222 -195 212.5 -201.5 Q203 -208 190 -210 Q186 -211 180 -212 Q174 -213 169 -212 Q166 -212 158.5 -211 Q151 -210 149 -210 Q138 -206 127 -200 Q117 -194 108.5 -185 Q100 -176 94 -166 Q91 -162 88 -154 Q83 -143 78.5 -131.5 Q74 -120 71 -109 Q66 -90 63.5 -71 Q61 -52 61 -32 Q61 -1 64 30.5 Q67 62 70 93 Q75 129 80 165 Q85 201 91 237 Q94 253 97 268.5 Q100 284 102 300 Q104 308 105.5 315.5 Q107 323 110 330 Q113 338 115.5 345 Q118 352 121 360 Q125 374 136 385 Q139 388 142 390 Q145 392 148 395 Q156 400 166 401.5 Q176 403 185 401 Q204 399 219 385 Q227 378 231 366.5 Q235 355 236 344 Q236 337 236 329.5 Q236 322 237 315 Q237 304 235.5 293.5 Q234 283 232 272 Q229 250 225 222 Q222 193 219 168 Q216 139 213 110 Q210 81 209 52 Q208 39 207.5 26 Q207 13 207 1 L208 2 Q210 5 212.5 8.5 Q215 12 218 15 L214 10 Q229 30 242 50 Q265 85 284.5 121.5 Q304 158 320 197 Q330 219 338 240 Q346 264 354 287 Q362 310 370 334 Q377 357 382.5 380 Q388 403 392 426 Q393 436 394 445.5 Q395 455 396 465 Q396 461 395.5 457 Q395 453 394 449 Q402 506 395 562 Q394 570 392.5 577.5 Q391 585 389 593 Q385 607 378 624 Q363 658 345 683 Q332 699 317 711 Q304 720 292 726 Q280 731 267 733 Q255 734 245 733 Q236 732 229 729 Q228 729 226.5 728.5 Q225 728 224 728 L221 726 L217 724 Q209 720 201 715 Q199 713 197 712 Q195 711 193 709 Q192 709 191.5 708 Q191 707 190 707 Q176 696 164.5 683.5 Q153 671 142 657 L141 656 Q141 655 140.5 654.5 Q140 654 139 653 Q136 648 134 646 Q129 639 124 631 Q114 616 105 600 Q95 583 85.5 567 Q76 551 68 534 Q63 525 59 517 Q55 509 51 500 Q49 497 47 495 L47 495 Q47 495 44 491 L39 483 Q37 479 34.5 475 Q32 471 29 467 Q23 457 12.5 462 Q2 467 4 478 Q5 483 6.5 488 Q8 493 9 498 Q10 501 11 507 L12 509 Q12 513 13 517 L14 518 Q14 520 15 521 L16 525 Q17 527 18 529.5 Q19 532 20 535 Q23 542 27 553 Q34 571 43 592 L47 601 Q48 603 49.5 606.5 Q51 610 49 605 Q51 610 53.5 615.5 Q56 621 59 626 Q75 656 94 683.5 Q113 711 136 735 Q161 760 191.5 777 Q222 794 258 795 Q293 795 325.5 780 Q358 765 383 742 Q411 718 430 686.5 Q449 655 463 621 L466 615 Q485 574 496 535 Q502 514 505.5 492 Q509 470 511 447 Z M224 727 L220 726 Q222 727 224 727 Z " />
<glyph glyph-name="E" unicode="E" horiz-adv-x="494" d="M455 216 Q466 214 472 203 Q476 195 474 182 Q471 160 466 138.5 Q461 117 455 96 Q453 86 450 71 Q439 18 419 -30 Q413 -44 406.5 -59.5 Q400 -75 391 -88 Q371 -119 350 -144 Q340 -155 331 -163 Q323 -170 314.5 -177 Q306 -184 296 -190 Q276 -202 256 -207 Q248 -209 240 -210 Q232 -211 224 -211 Q217 -212 211 -212 Q205 -212 199 -212 Q191 -211 183 -210 Q175 -209 167 -207 Q147 -202 125 -190 Q118 -186 111.5 -181 Q105 -176 99 -171 Q94 -167 91 -164 Q84 -157 77.5 -149 Q71 -141 65 -133 Q55 -119 48.5 -104 Q42 -89 36 -74 Q28 -53 23 -27 Q12 35 16 92 Q19 150 33.5 205.5 Q48 261 76 312 Q102 359 140 397 Q143 399 144 400 Q128 424 120 452.5 Q112 481 110 509 Q109 543 116.5 575 Q124 607 137 638 Q157 692 192 731 Q223 766 266 783 Q277 788 288 790 Q299 792 311 793 Q337 796 359 788 Q375 784 385 777 Q400 767 412 751 Q421 739 425 725 Q429 711 430 697 Q433 669 423 644 Q413 619 400 596 Q393 585 381 582 Q369 579 358 585 Q348 590 344 603 Q341 614 347 626 Q352 636 354 641 Q361 658 363 671 Q364 680 363 688 Q362 696 359 703 Q357 707 355 711 Q352 713 350 715 Q347 717 344 719 Q339 721 333 722 Q323 723 313 722 Q302 720 291 715 Q280 710 269 702 Q255 691 242 675 Q227 654 215 627 Q205 602 200 571 Q197 545 199 521 Q202 506 207 493 Q210 488 213 483 Q220 475 227 468 Q233 465 238 462 Q239 462 242 461 Q258 465 275 461 Q279 459 283 457.5 Q287 456 290 454 Q300 449 306.5 441 Q313 433 317 423 Q323 412 322 398 Q322 394 321.5 389.5 Q321 385 320 381 Q318 370 309.5 359 Q301 348 290 343 Q278 336 266 327 Q245 310 226 286 Q206 259 191 226 Q175 184 167 137 Q161 84 167 31 Q172 2 181 -23 Q186 -34 193 -44 Q196 -48 200 -52 Q204 -54 208 -56 L212 -57 Q216 -57 219 -57 Q227 -55 235 -53 Q246 -47 257 -39 Q268 -30 281 -18 Q288 -11 295 -4.5 Q302 2 309 9 Q334 34 357 63 Q367 76 375 88 Q381 96 385.5 104 Q390 112 395 120 Q411 157 422 197 Q425 208 434.5 213 Q444 218 455 216 Z M244 461 L248 462 L244 461 L244 461 Z " />
<glyph glyph-name="&amp;#xc8;" unicode="&#xc8;" horiz-adv-x="494" d="M455 216 Q466 214 472 203 Q476 195 474 182 Q471 160 466 138.5 Q461 117 455 96 Q453 86 450 71 Q439 18 419 -30 Q413 -44 406.5 -59.5 Q400 -75 391 -88 Q371 -119 350 -144 Q340 -155 331 -163 Q323 -170 314.5 -177 Q306 -184 296 -190 Q276 -202 256 -207 Q248 -209 240 -210 Q232 -211 224 -211 Q217 -212 211 -212 Q205 -212 199 -212 Q191 -211 183 -210 Q175 -209 167 -207 Q147 -202 125 -190 Q118 -186 111.5 -181 Q105 -176 99 -171 Q94 -167 91 -164 Q84 -157 77.5 -149 Q71 -141 65 -133 Q55 -119 48.5 -104 Q42 -89 36 -74 Q28 -53 23 -27 Q12 35 16 92 Q19 150 33.5 205.5 Q48 261 76 312 Q102 359 140 397 Q143 399 144 400 Q128 424 120 452.5 Q112 481 110 509 Q109 543 116.5 575 Q124 607 137 638 Q157 692 192 731 Q223 766 266 783 Q277 788 288 790 Q299 792 311 793 Q337 796 359 788 Q375 784 385 777 Q400 767 412 751 Q421 739 425 725 Q429 711 430 697 Q433 669 423 644 Q413 619 400 596 Q393 585 381 582 Q369 579 358 585 Q348 590 344 603 Q341 614 347 626 Q352 636 354 641 Q361 658 363 671 Q364 680 363 688 Q362 696 359 703 Q357 707 355 711 Q352 713 350 715 Q347 717 344 719 Q339 721 333 722 Q323 723 313 722 Q302 720 291 715 Q280 710 269 702 Q255 691 242 675 Q227 654 215 627 Q205 602 200 571 Q197 545 199 521 Q202 506 207 493 Q210 488 213 483 Q220 475 227 468 Q233 465 238 462 Q239 462 242 461 Q258 465 275 461 Q279 459 283 457.5 Q287 456 290 454 Q300 449 306.5 441 Q313 433 317 423 Q323 412 322 398 Q322 394 321.5 389.5 Q321 385 320 381 Q318 370 309.5 359 Q301 348 290 343 Q278 336 266 327 Q245 310 226 286 Q206 259 191 226 Q175 184 167 137 Q161 84 167 31 Q172 2 181 -23 Q186 -34 193 -44 Q196 -48 200 -52 Q204 -54 208 -56 L212 -57 Q216 -57 219 -57 Q227 -55 235 -53 Q246 -47 257 -39 Q268 -30 281 -18 Q288 -11 295 -4.5 Q302 2 309 9 Q334 34 357 63 Q367 76 375 88 Q381 96 385.5 104 Q390 112 395 120 Q411 157 422 197 Q425 208 434.5 213 Q444 218 455 216 Z M244 461 L248 462 L244 461 L244 461 Z " />
<glyph glyph-name="&amp;#xc9;" unicode="&#xc9;" horiz-adv-x="494" d="M455 216 Q466 214 472 203 Q476 195 474 182 Q471 160 466 138.5 Q461 117 455 96 Q453 86 450 71 Q439 18 419 -30 Q413 -44 406.5 -59.5 Q400 -75 391 -88 Q371 -119 350 -144 Q340 -155 331 -163 Q323 -170 314.5 -177 Q306 -184 296 -190 Q276 -202 256 -207 Q248 -209 240 -210 Q232 -211 224 -211 Q217 -212 211 -212 Q205 -212 199 -212 Q191 -211 183 -210 Q175 -209 167 -207 Q147 -202 125 -190 Q118 -186 111.5 -181 Q105 -176 99 -171 Q94 -167 91 -164 Q84 -157 77.5 -149 Q71 -141 65 -133 Q55 -119 48.5 -104 Q42 -89 36 -74 Q28 -53 23 -27 Q12 35 16 92 Q19 150 33.5 205.5 Q48 261 76 312 Q102 359 140 397 Q143 399 144 400 Q128 424 120 452.5 Q112 481 110 509 Q109 543 116.5 575 Q124 607 137 638 Q157 692 192 731 Q223 766 266 783 Q277 788 288 790 Q299 792 311 793 Q337 796 359 788 Q375 784 385 777 Q400 767 412 751 Q421 739 425 725 Q429 711 430 697 Q433 669 423 644 Q413 619 400 596 Q393 585 381 582 Q369 579 358 585 Q348 590 344 603 Q341 614 347 626 Q352 636 354 641 Q361 658 363 671 Q364 680 363 688 Q362 696 359 703 Q357 707 355 711 Q352 713 350 715 Q347 717 344 719 Q339 721 333 722 Q323 723 313 722 Q302 720 291 715 Q280 710 269 702 Q255 691 242 675 Q227 654 215 627 Q205 602 200 571 Q197 545 199 521 Q202 506 207 493 Q210 488 213 483 Q220 475 227 468 Q233 465 238 462 Q239 462 242 461 Q258 465 275 461 Q279 459 283 457.5 Q287 456 290 454 Q300 449 306.5 441 Q313 433 317 423 Q323 412 322 398 Q322 394 321.5 389.5 Q321 385 320 381 Q318 370 309.5 359 Q301 348 290 343 Q278 336 266 327 Q245 310 226 286 Q206 259 191 226 Q175 184 167 137 Q161 84 167 31 Q172 2 181 -23 Q186 -34 193 -44 Q196 -48 200 -52 Q204 -54 208 -56 L212 -57 Q216 -57 219 -57 Q227 -55 235 -53 Q246 -47 257 -39 Q268 -30 281 -18 Q288 -11 295 -4.5 Q302 2 309 9 Q334 34 357 63 Q367 76 375 88 Q381 96 385.5 104 Q390 112 395 120 Q411 157 422 197 Q425 208 434.5 213 Q444 218 455 216 Z M244 461 L248 462 L244 461 L244 461 Z " />
<glyph glyph-name="&amp;#xca;" unicode="&#xca;" horiz-adv-x="494" d="M455 216 Q466 214 472 203 Q476 195 474 182 Q471 160 466 138.5 Q461 117 455 96 Q453 86 450 71 Q439 18 419 -30 Q413 -44 406.5 -59.5 Q400 -75 391 -88 Q371 -119 350 -144 Q340 -155 331 -163 Q323 -170 314.5 -177 Q306 -184 296 -190 Q276 -202 256 -207 Q248 -209 240 -210 Q232 -211 224 -211 Q217 -212 211 -212 Q205 -212 199 -212 Q191 -211 183 -210 Q175 -209 167 -207 Q147 -202 125 -190 Q118 -186 111.5 -181 Q105 -176 99 -171 Q94 -167 91 -164 Q84 -157 77.5 -149 Q71 -141 65 -133 Q55 -119 48.5 -104 Q42 -89 36 -74 Q28 -53 23 -27 Q12 35 16 92 Q19 150 33.5 205.5 Q48 261 76 312 Q102 359 140 397 Q143 399 144 400 Q128 424 120 452.5 Q112 481 110 509 Q109 543 116.5 575 Q124 607 137 638 Q157 692 192 731 Q223 766 266 783 Q277 788 288 790 Q299 792 311 793 Q337 796 359 788 Q375 784 385 777 Q400 767 412 751 Q421 739 425 725 Q429 711 430 697 Q433 669 423 644 Q413 619 400 596 Q393 585 381 582 Q369 579 358 585 Q348 590 344 603 Q341 614 347 626 Q352 636 354 641 Q361 658 363 671 Q364 680 363 688 Q362 696 359 703 Q357 707 355 711 Q352 713 350 715 Q347 717 344 719 Q339 721 333 722 Q323 723 313 722 Q302 720 291 715 Q280 710 269 702 Q255 691 242 675 Q227 654 215 627 Q205 602 200 571 Q197 545 199 521 Q202 506 207 493 Q210 488 213 483 Q220 475 227 468 Q233 465 238 462 Q239 462 242 461 Q258 465 275 461 Q279 459 283 457.5 Q287 456 290 454 Q300 449 306.5 441 Q313 433 317 423 Q323 412 322 398 Q322 394 321.5 389.5 Q321 385 320 381 Q318 370 309.5 359 Q301 348 290 343 Q278 336 266 327 Q245 310 226 286 Q206 259 191 226 Q175 184 167 137 Q161 84 167 31 Q172 2 181 -23 Q186 -34 193 -44 Q196 -48 200 -52 Q204 -54 208 -56 L212 -57 Q216 -57 219 -57 Q227 -55 235 -53 Q246 -47 257 -39 Q268 -30 281 -18 Q288 -11 295 -4.5 Q302 2 309 9 Q334 34 357 63 Q367 76 375 88 Q381 96 385.5 104 Q390 112 395 120 Q411 157 422 197 Q425 208 434.5 213 Q444 218 455 216 Z M244 461 L248 462 L244 461 L244 461 Z " />
<glyph glyph-name="&amp;#xcb;" unicode="&#xcb;" horiz-adv-x="494" d="M455 216 Q466 214 472 203 Q476 195 474 182 Q471 160 466 138.5 Q461 117 455 96 Q453 86 450 71 Q439 18 419 -30 Q413 -44 406.5 -59.5 Q400 -75 391 -88 Q371 -119 350 -144 Q340 -155 331 -163 Q323 -170 314.5 -177 Q306 -184 296 -190 Q276 -202 256 -207 Q248 -209 240 -210 Q232 -211 224 -211 Q217 -212 211 -212 Q205 -212 199 -212 Q191 -211 183 -210 Q175 -209 167 -207 Q147 -202 125 -190 Q118 -186 111.5 -181 Q105 -176 99 -171 Q94 -167 91 -164 Q84 -157 77.5 -149 Q71 -141 65 -133 Q55 -119 48.5 -104 Q42 -89 36 -74 Q28 -53 23 -27 Q12 35 16 92 Q19 150 33.5 205.5 Q48 261 76 312 Q102 359 140 397 Q143 399 144 400 Q128 424 120 452.5 Q112 481 110 509 Q109 543 116.5 575 Q124 607 137 638 Q157 692 192 731 Q223 766 266 783 Q277 788 288 790 Q299 792 311 793 Q337 796 359 788 Q375 784 385 777 Q400 767 412 751 Q421 739 425 725 Q429 711 430 697 Q433 669 423 644 Q413 619 400 596 Q393 585 381 582 Q369 579 358 585 Q348 590 344 603 Q341 614 347 626 Q352 636 354 641 Q361 658 363 671 Q364 680 363 688 Q362 696 359 703 Q357 707 355 711 Q352 713 350 715 Q347 717 344 719 Q339 721 333 722 Q323 723 313 722 Q302 720 291 715 Q280 710 269 702 Q255 691 242 675 Q227 654 215 627 Q205 602 200 571 Q197 545 199 521 Q202 506 207 493 Q210 488 213 483 Q220 475 227 468 Q233 465 238 462 Q239 462 242 461 Q258 465 275 461 Q279 459 283 457.5 Q287 456 290 454 Q300 449 306.5 441 Q313 433 317 423 Q323 412 322 398 Q322 394 321.5 389.5 Q321 385 320 381 Q318 370 309.5 359 Q301 348 290 343 Q278 336 266 327 Q245 310 226 286 Q206 259 191 226 Q175 184 167 137 Q161 84 167 31 Q172 2 181 -23 Q186 -34 193 -44 Q196 -48 200 -52 Q204 -54 208 -56 L212 -57 Q216 -57 219 -57 Q227 -55 235 -53 Q246 -47 257 -39 Q268 -30 281 -18 Q288 -11 295 -4.5 Q302 2 309 9 Q334 34 357 63 Q367 76 375 88 Q381 96 385.5 104 Q390 112 395 120 Q411 157 422 197 Q425 208 434.5 213 Q444 218 455 216 Z M244 461 L248 462 L244 461 L244 461 Z " />
<glyph glyph-name="F" unicode="F" horiz-adv-x="382" d="M450 670 Q447 670 444 669.5 Q441 669 438 668 Q432 667 426.5 666.5 Q421 666 416 665 Q401 662 386.5 660 Q372 658 357 656 Q277 645 196 641 Q181 640 165.5 640 Q150 640 134 641 Q136 622 136 608 Q140 525 145 445 Q147 423 148.5 401 Q150 379 152 357 Q163 359 173.5 360.5 Q184 362 194 364 Q208 367 222 369.5 Q236 372 248 378 Q260 382 274 379.5 Q288 377 300 371 Q312 365 321 354.5 Q330 344 336 332 Q342 320 342 306.5 Q342 293 338 282 Q334 271 324 264 Q316 255 304 252 Q293 251 282 249.5 Q271 248 260 248 Q252 248 244.5 248.5 Q237 249 229 250 Q213 251 198 252.5 Q183 254 167 255 Q164 255 158 256 Q162 201 166 148 Q169 111 172 74 Q175 37 178 0 Q181 -36 184 -76 Q185 -87 186.5 -99 Q188 -111 186 -122 Q185 -129 183.5 -135.5 Q182 -142 179 -148 Q174 -158 168 -166 Q167 -167 164.5 -169 Q162 -171 161 -172 Q159 -174 157 -176 Q155 -178 153 -179 Q138 -188 119 -189 L100 -186 Q86 -183 73.5 -174 Q61 -165 52 -154 Q42 -141 39 -127 Q34 -113 36 -99 Q37 -86 45 -75 L45 -74 Q44 -32 42 9.5 Q40 51 40 93 Q40 130 40.5 166.5 Q41 203 42 240 Q42 248 42.5 256 Q43 264 43 272 Q38 273 30 278 Q15 285 12 301 Q10 316 22 325 Q27 329 33 331.5 Q39 334 46 336 Q47 349 48 361.5 Q49 374 50 387 Q57 460 65 531 Q69 568 74 603 Q76 622 81 644 Q66 646 51.5 648 Q37 650 22 653 Q16 654 9 659 Q2 664 -2 669 Q-7 677 -10 687 Q-12 698 -6 708 Q0 718 11 721 Q33 726 54 731 Q64 734 75 736 Q86 738 96 740 Q116 743 135 747 Q145 749 154.5 750.5 Q164 752 174 754 Q213 760 251 768 Q290 776 328 785 Q346 790 367 795 Q376 797 386 800 Q392 802 398 803.5 Q404 805 411 805 Q417 805 424 803.5 Q431 802 437 801 Q447 799 457 792 Q467 785 475 778 Q482 772 485 763 Q491 756 493 747 Q498 734 496 721 Q495 717 494 713 Q493 709 492 705 Q487 693 472 682 Q460 673 450 670 Z " />
<glyph glyph-name="G" unicode="G" horiz-adv-x="498" d="M439 704 Q440 700 442.5 696 Q445 692 447 688 Q455 671 457 653 Q459 635 457 617 Q456 600 451 583.5 Q446 567 440 552 Q436 543 432 536 Q430 532 427 528 Q424 524 422 521 Q419 517 416 513.5 Q413 510 410 507 Q407 505 403 504 Q399 503 395 502 Q390 500 389 506 Q388 508 388 510 Q388 512 387 513 Q387 515 386.5 518.5 Q386 522 387 525 Q389 528 390.5 532 Q392 536 393 539 L396 547 Q396 549 396 547 Q396 548 396.5 549 Q397 550 397 551 Q397 552 397.5 552.5 Q398 553 399 554 Q403 561 406 569 Q413 583 417 596 Q417 596 417 597.5 Q417 599 417 599 L418 602 L420 609 Q421 615 421 621 Q422 626 422 628 Q422 629 422 631.5 Q422 634 422 633 Q422 640 421 645 Q420 653 419 661 L418 662 L417 667 Q417 669 416.5 670.5 Q416 672 416 673 L415 675 L414 677 Q413 680 412 684 Q411 687 409 690 Q408 693 408.5 691.5 Q409 690 409 690 Q409 690 407 693 L406 693 L406 694 Q406 693 403 696 Q401 699 398 701 Q396 703 393 705 L391 706 Q391 706 388 708 L387 708 L388 709 Q394 706 383 710 L382 711 Q381 711 380.5 711.5 Q380 712 379 713 Q377 714 374 715 L372 716 Q360 720 352 721 Q343 722 335 722 Q323 719 310 714 L313 715 Q311 714 309 713 Q307 712 305 711 Q286 703 268 687 Q256 677 246 665.5 Q236 654 226 642 Q208 622 191 596 Q160 545 142 485 Q125 420 125 351 Q126 328 128 304.5 Q130 281 136 258 Q141 242 147 229 Q151 224 155 218 Q159 215 162 212 Q166 210 170 208 Q176 206 183 205 Q195 204 208 205 Q237 210 264 221 Q291 234 315 254 Q330 268 342.5 284 Q355 300 366 317 Q370 324 374 331.5 Q378 339 383 346 Q387 351 390 355.5 Q393 360 397 364 Q401 369 405.5 372 Q410 375 415 379 Q426 385 439 380 Q449 376 457 363 Q459 358 461 355 Q465 347 465 338 Q466 332 466 326 Q466 320 466 314 Q466 309 466 305 Q466 301 465 296 Q464 291 462.5 286 Q461 281 459 276 Q456 264 452 254 Q449 245 445 237.5 Q441 230 436 222 Q436 210 436 198 Q436 186 437 174 Q437 181 437 177.5 Q437 174 437 172 Q437 171 437 169.5 Q437 168 437 166 Q437 162 437 154 Q437 146 437 138 Q437 130 437 122 Q437 99 437 74 Q437 48 438.5 21.5 Q440 -5 442 -31 Q443 -45 445 -58.5 Q447 -72 448 -86 Q449 -93 449.5 -100 Q450 -107 451 -114 Q452 -124 452 -129 Q454 -139 453 -145 Q452 -150 451 -154 Q450 -158 449 -162 Q447 -168 441.5 -173 Q436 -178 430 -180 Q419 -185 407 -183 Q391 -181 379 -171 Q374 -167 371 -161.5 Q368 -156 365 -151 Q360 -142 358.5 -132 Q357 -122 356 -112 Q356 -106 355 -99.5 Q354 -93 354 -86 Q353 -70 353 -54.5 Q353 -39 354 -24 Q355 21 360 71 Q362 89 364 106 Q366 123 368 140 Q362 135 355 130 Q337 116 318 106 Q305 99 291 93 Q277 87 262 84 Q247 81 231 79.5 Q215 78 199 79 Q179 81 160 86 Q141 91 122 100 Q104 110 88.5 123.5 Q73 137 60 152 Q53 160 48 169 Q43 178 38 187 Q32 198 27 210 Q16 238 11 267.5 Q6 297 6 326 Q6 356 7.5 384.5 Q9 413 14 442 Q23 497 43 548 Q53 573 65 596.5 Q77 620 92 643 Q104 662 118.5 681 Q133 700 150 715 L149 714 Q167 730 186 745 Q205 760 227 770 Q241 777 255.5 783 Q270 789 287 790 Q313 792 338 786 L336 787 Q354 784 375 773 Q383 770 391 765 Q398 760 402 756 Q405 754 412 747 L416 743 L418 740 Q421 737 423 734 Q428 727 433 718 Q435 714 437 710 L438 706 Q439 706 439 704.5 Q439 703 439 704 Z " />
<glyph glyph-name="H" unicode="H" horiz-adv-x="578" d="M537 375 Q546 371 552 362.5 Q558 354 561 345 Q563 337 562 328 Q561 319 558 312 Q551 295 536.5 287 Q522 279 505 281 Q506 263 506.5 244.5 Q507 226 507 208 Q510 115 515 23 Q518 -25 521 -70 Q521 -77 521.5 -83 Q522 -89 522 -95 Q524 -129 497 -150 Q480 -163 458 -162 Q436 -161 420 -144 Q409 -133 405.5 -118 Q402 -103 407 -89 Q406 -81 406.5 -73 Q407 -65 407 -57 Q406 -35 406 -8 Q406 38 406 91 Q407 176 409 265 Q410 278 410 290 Q409 290 407.5 290 Q406 290 404 290 Q370 290 337 289 Q320 289 303 289.5 Q286 290 269 290 Q238 291 202 293 Q194 293 186 294 Q185 272 183 250.5 Q181 229 180 207 Q173 119 166 27 Q164 5 161 -17.5 Q158 -40 155 -62 Q154 -72 153.5 -81.5 Q153 -91 151 -100 Q149 -105 147.5 -110 Q146 -115 144 -120 Q140 -133 134 -146 Q128 -159 122 -171 Q119 -178 113 -183 Q107 -188 100 -190 Q89 -195 76 -194 Q60 -192 49 -181 Q47 -179 45.5 -176.5 Q44 -174 42 -171 L37 -160 Q34 -145 31.5 -130 Q29 -115 28 -99 Q27 -84 29 -74 L32 -49 Q35 -20 38.5 8.5 Q42 37 47 66 Q56 128 65 189.5 Q74 251 84 313 Q80 315 77 318 Q74 321 70 323 Q66 327 66.5 332.5 Q67 338 70 342 Q71 342 72.5 343.5 Q74 345 74 345 Q71 341 75 346 L77 348 Q79 351 83 352.5 Q87 354 90 355 Q93 372 95.5 388 Q98 404 100 420 Q108 465 114.5 509 Q121 553 128 598 Q132 620 135.5 642 Q139 664 142 687 Q144 698 145.5 708.5 Q147 719 148 730 L152 753 Q152 754 152.5 755.5 Q153 757 153 759 L153 763 Q154 764 154 765 Q154 766 155 767 Q157 771 159.5 774 Q162 777 165 781 Q172 789 184.5 787 Q197 785 202 776 L204 773 Q198 780 205 770 Q209 763 209 754 Q209 751 209 748 Q209 745 209 742 Q209 736 208.5 729.5 Q208 723 208 717 Q207 704 206.5 691.5 Q206 679 206 666 Q204 641 203 616 Q202 591 201 566 Q199 521 197 476.5 Q195 432 192 387 L192 380 Q209 383 226.5 384.5 Q244 386 261 387 Q272 388 282.5 389 Q293 390 304 391 Q315 392 326 392 Q337 392 347 393 Q365 393 382 393.5 Q399 394 416 394 Q417 405 418 416 Q419 427 420 438 Q426 525 434 612 Q438 655 443 699 Q444 711 445.5 723 Q447 735 449 746 Q451 752 452 757.5 Q453 763 455 768 Q456 773 458.5 778 Q461 783 463 788 Q465 792 469 793.5 Q473 795 477 795 Q486 794 488 785 Q490 778 492 771 Q494 764 494 757 Q495 750 496 744 Q497 738 497 732 Q498 725 498 718.5 Q498 712 498 705 Q498 699 497.5 692.5 Q497 686 497 680 Q497 629 498 578 Q498 530 499 483 Q500 436 502 389 Q506 388 508 387 Q516 385 523 381.5 Q530 378 537 375 Z " />
<glyph glyph-name="I" unicode="I" horiz-adv-x="283" d="M227 -30 Q247 -30 259.5 -43.5 Q272 -57 273 -76 Q273 -85 269 -94 Q265 -103 259 -109 Q248 -120 227 -122 Q224 -122 221 -122.5 Q218 -123 215 -123 Q209 -123 197 -121 Q193 -144 174 -158 Q156 -172 134 -170.5 Q112 -169 97 -153 Q85 -141 82 -126.5 Q79 -112 83 -98 L83 -94 Q73 -90 61 -84 Q58 -83 55.5 -82 Q53 -81 51 -80 Q48 -78 46 -76 Q44 -74 42 -71 Q40 -69 40 -65 Q40 -61 44 -59 Q47 -57 50 -55 Q53 -53 56 -53 Q59 -52 62 -51.5 Q65 -51 68 -51 Q72 -50 75.5 -49.5 Q79 -49 83 -48 Q83 -40 83 -32.5 Q83 -25 83 -17 Q83 31 83 82 Q83 169 86 256 Q87 300 90 343 Q93 386 96 430 Q102 517 111 604 Q115 647 119 690 Q120 702 121.5 714 Q123 726 126 738 Q127 741 127.5 744.5 Q128 748 129 752 Q98 758 67 761 Q56 762 56 773 Q56 784 67 785 Q106 787 144 784 Q148 787 154 787 Q158 786 161 783 Q178 782 199 779 Q210 777 221 775.5 Q232 774 243 770 Q264 763 259 741 Q257 732 248 727.5 Q239 723 230 725 Q219 727 208.5 730.5 Q198 734 187 737 Q180 740 172 742 Q172 737 172.5 732.5 Q173 728 174 723 Q175 717 174.5 710 Q174 703 174 696 L174 672 Q174 621 174 570 Q175 477 178 385 Q181 293 184 200 Q187 108 192 15 Q193 -9 194 -33 L197 -33 Q204 -31 211.5 -30.5 Q219 -30 227 -30 Z " />
<glyph glyph-name="&amp;#xcc;" unicode="&#xcc;" horiz-adv-x="283" d="M227 -30 Q247 -30 259.5 -43.5 Q272 -57 273 -76 Q273 -85 269 -94 Q265 -103 259 -109 Q248 -120 227 -122 Q224 -122 221 -122.5 Q218 -123 215 -123 Q209 -123 197 -121 Q193 -144 174 -158 Q156 -172 134 -170.5 Q112 -169 97 -153 Q85 -141 82 -126.5 Q79 -112 83 -98 L83 -94 Q73 -90 61 -84 Q58 -83 55.5 -82 Q53 -81 51 -80 Q48 -78 46 -76 Q44 -74 42 -71 Q40 -69 40 -65 Q40 -61 44 -59 Q47 -57 50 -55 Q53 -53 56 -53 Q59 -52 62 -51.5 Q65 -51 68 -51 Q72 -50 75.5 -49.5 Q79 -49 83 -48 Q83 -40 83 -32.5 Q83 -25 83 -17 Q83 31 83 82 Q83 169 86 256 Q87 300 90 343 Q93 386 96 430 Q102 517 111 604 Q115 647 119 690 Q120 702 121.5 714 Q123 726 126 738 Q127 741 127.5 744.5 Q128 748 129 752 Q98 758 67 761 Q56 762 56 773 Q56 784 67 785 Q106 787 144 784 Q148 787 154 787 Q158 786 161 783 Q178 782 199 779 Q210 777 221 775.5 Q232 774 243 770 Q264 763 259 741 Q257 732 248 727.5 Q239 723 230 725 Q219 727 208.5 730.5 Q198 734 187 737 Q180 740 172 742 Q172 737 172.5 732.5 Q173 728 174 723 Q175 717 174.5 710 Q174 703 174 696 L174 672 Q174 621 174 570 Q175 477 178 385 Q181 293 184 200 Q187 108 192 15 Q193 -9 194 -33 L197 -33 Q204 -31 211.5 -30.5 Q219 -30 227 -30 Z " />
<glyph glyph-name="&amp;#xcd;" unicode="&#xcd;" horiz-adv-x="283" d="M227 -30 Q247 -30 259.5 -43.5 Q272 -57 273 -76 Q273 -85 269 -94 Q265 -103 259 -109 Q248 -120 227 -122 Q224 -122 221 -122.5 Q218 -123 215 -123 Q209 -123 197 -121 Q193 -144 174 -158 Q156 -172 134 -170.5 Q112 -169 97 -153 Q85 -141 82 -126.5 Q79 -112 83 -98 L83 -94 Q73 -90 61 -84 Q58 -83 55.5 -82 Q53 -81 51 -80 Q48 -78 46 -76 Q44 -74 42 -71 Q40 -69 40 -65 Q40 -61 44 -59 Q47 -57 50 -55 Q53 -53 56 -53 Q59 -52 62 -51.5 Q65 -51 68 -51 Q72 -50 75.5 -49.5 Q79 -49 83 -48 Q83 -40 83 -32.5 Q83 -25 83 -17 Q83 31 83 82 Q83 169 86 256 Q87 300 90 343 Q93 386 96 430 Q102 517 111 604 Q115 647 119 690 Q120 702 121.5 714 Q123 726 126 738 Q127 741 127.5 744.5 Q128 748 129 752 Q98 758 67 761 Q56 762 56 773 Q56 784 67 785 Q106 787 144 784 Q148 787 154 787 Q158 786 161 783 Q178 782 199 779 Q210 777 221 775.5 Q232 774 243 770 Q264 763 259 741 Q257 732 248 727.5 Q239 723 230 725 Q219 727 208.5 730.5 Q198 734 187 737 Q180 740 172 742 Q172 737 172.5 732.5 Q173 728 174 723 Q175 717 174.5 710 Q174 703 174 696 L174 672 Q174 621 174 570 Q175 477 178 385 Q181 293 184 200 Q187 108 192 15 Q193 -9 194 -33 L197 -33 Q204 -31 211.5 -30.5 Q219 -30 227 -30 Z " />
<glyph glyph-name="&amp;#xce;" unicode="&#xce;" horiz-adv-x="283" d="M227 -30 Q247 -30 259.5 -43.5 Q272 -57 273 -76 Q273 -85 269 -94 Q265 -103 259 -109 Q248 -120 227 -122 Q224 -122 221 -122.5 Q218 -123 215 -123 Q209 -123 197 -121 Q193 -144 174 -158 Q156 -172 134 -170.5 Q112 -169 97 -153 Q85 -141 82 -126.5 Q79 -112 83 -98 L83 -94 Q73 -90 61 -84 Q58 -83 55.5 -82 Q53 -81 51 -80 Q48 -78 46 -76 Q44 -74 42 -71 Q40 -69 40 -65 Q40 -61 44 -59 Q47 -57 50 -55 Q53 -53 56 -53 Q59 -52 62 -51.5 Q65 -51 68 -51 Q72 -50 75.5 -49.5 Q79 -49 83 -48 Q83 -40 83 -32.5 Q83 -25 83 -17 Q83 31 83 82 Q83 169 86 256 Q87 300 90 343 Q93 386 96 430 Q102 517 111 604 Q115 647 119 690 Q120 702 121.5 714 Q123 726 126 738 Q127 741 127.5 744.5 Q128 748 129 752 Q98 758 67 761 Q56 762 56 773 Q56 784 67 785 Q106 787 144 784 Q148 787 154 787 Q158 786 161 783 Q178 782 199 779 Q210 777 221 775.5 Q232 774 243 770 Q264 763 259 741 Q257 732 248 727.5 Q239 723 230 725 Q219 727 208.5 730.5 Q198 734 187 737 Q180 740 172 742 Q172 737 172.5 732.5 Q173 728 174 723 Q175 717 174.5 710 Q174 703 174 696 L174 672 Q174 621 174 570 Q175 477 178 385 Q181 293 184 200 Q187 108 192 15 Q193 -9 194 -33 L197 -33 Q204 -31 211.5 -30.5 Q219 -30 227 -30 Z " />
<glyph glyph-name="&amp;#xcf;" unicode="&#xcf;" horiz-adv-x="283" d="M227 -30 Q247 -30 259.5 -43.5 Q272 -57 273 -76 Q273 -85 269 -94 Q265 -103 259 -109 Q248 -120 227 -122 Q224 -122 221 -122.5 Q218 -123 215 -123 Q209 -123 197 -121 Q193 -144 174 -158 Q156 -172 134 -170.5 Q112 -169 97 -153 Q85 -141 82 -126.5 Q79 -112 83 -98 L83 -94 Q73 -90 61 -84 Q58 -83 55.5 -82 Q53 -81 51 -80 Q48 -78 46 -76 Q44 -74 42 -71 Q40 -69 40 -65 Q40 -61 44 -59 Q47 -57 50 -55 Q53 -53 56 -53 Q59 -52 62 -51.5 Q65 -51 68 -51 Q72 -50 75.5 -49.5 Q79 -49 83 -48 Q83 -40 83 -32.5 Q83 -25 83 -17 Q83 31 83 82 Q83 169 86 256 Q87 300 90 343 Q93 386 96 430 Q102 517 111 604 Q115 647 119 690 Q120 702 121.5 714 Q123 726 126 738 Q127 741 127.5 744.5 Q128 748 129 752 Q98 758 67 761 Q56 762 56 773 Q56 784 67 785 Q106 787 144 784 Q148 787 154 787 Q158 786 161 783 Q178 782 199 779 Q210 777 221 775.5 Q232 774 243 770 Q264 763 259 741 Q257 732 248 727.5 Q239 723 230 725 Q219 727 208.5 730.5 Q198 734 187 737 Q180 740 172 742 Q172 737 172.5 732.5 Q173 728 174 723 Q175 717 174.5 710 Q174 703 174 696 L174 672 Q174 621 174 570 Q175 477 178 385 Q181 293 184 200 Q187 108 192 15 Q193 -9 194 -33 L197 -33 Q204 -31 211.5 -30.5 Q219 -30 227 -30 Z " />
<glyph glyph-name="J" unicode="J" horiz-adv-x="388" d="M314 790 Q329 794 342.5 783 Q356 772 353 756 Q351 742 349 727.5 Q347 713 345 699 Q340 657 338.5 615.5 Q337 574 336 532 Q336 527 336 523 Q336 519 336 515 Q336 470 336.5 425.5 Q337 381 338 337 Q339 279 338 222 Q337 165 330 108 Q327 82 322 56 Q317 30 309 4 Q305 -11 300 -26 Q295 -41 290 -56 Q285 -68 280 -79.5 Q275 -91 269 -102 Q264 -110 259.5 -117 Q255 -124 249 -130 Q233 -146 210 -155 Q198 -160 185.5 -160 Q173 -160 160 -158 Q154 -157 147.5 -154.5 Q141 -152 135 -150 Q131 -148 127 -145.5 Q123 -143 119 -140 Q99 -126 87 -109 Q81 -102 76 -93.5 Q71 -85 67 -76 Q59 -60 53.5 -43.5 Q48 -27 44 -10 Q36 20 34.5 50 Q33 80 35 110 Q39 163 53 217 Q58 235 72 245 Q79 250 88.5 250.5 Q98 251 108 249 Q117 248 125.5 241.5 Q134 235 139 228 Q150 213 148 192 Q146 170 144 147.5 Q142 125 142 102 Q142 80 144 58.5 Q146 37 151 16 Q159 -10 170 -32 L172 -34 Q179 -23 185 -10.5 Q191 2 196 14 Q208 42 218 73 Q230 113 237.5 154 Q245 195 250 236 Q254 275 256 313 Q258 351 260 389 Q262 420 264 450 Q266 480 269 510 Q271 541 273 571.5 Q275 602 278 633 Q279 657 281.5 681 Q284 705 288 729 Q281 728 270 726 Q213 715 155 702 Q126 695 99 688 Q84 684 70 681 Q56 678 42 675 Q32 673 27 681 Q25 685 26 689 Q27 693 30 695 Q45 702 60 709 Q75 716 91 721 Q200 761 314 790 Z " />
<glyph glyph-name="K" unicode="K" horiz-adv-x="536" d="M494 87 Q511 78 522 67 Q533 56 535.5 41 Q538 26 532 12 Q526 -4 512 -12 Q507 -14 500 -17 Q496 -18 486 -19 Q480 -19 474 -18.5 Q468 -18 462 -16 Q459 -15 456 -13.5 Q453 -12 450 -11 Q441 -7 432.5 -3 Q424 1 416 7 Q394 20 374 34 Q334 60 298 89.5 Q262 119 228 152 Q212 167 197.5 183 Q183 199 167 214 Q158 224 151 230 Q150 231 146 234 Q130 194 120.5 153 Q111 112 104 69 Q104 45 103.5 22 Q103 -1 103 -25 Q103 -39 102.5 -53 Q102 -67 102 -81 Q102 -107 100 -138 Q99 -156 88 -168 Q79 -177 64 -179 Q50 -181 37 -174 Q31 -171 25 -164 Q19 -157 18 -149 Q12 -119 12 -89 Q12 -59 15 -29 Q18 -7 21.5 14.5 Q25 36 28 58 Q29 70 30 82.5 Q31 95 32 108 Q36 157 39.5 205.5 Q43 254 47 303 Q50 347 53.5 391 Q57 435 60 479 Q64 520 67 560.5 Q70 601 73 641 Q75 661 76 680 Q76 684 76.5 689 Q77 694 77 698 Q77 700 78 703 L78 704 Q78 704 78 709 L80 718 Q82 736 84 754.5 Q86 773 88 792 Q89 796 93 796 Q97 796 97 792 Q98 787 98.5 782.5 Q99 778 99 774 Q101 756 103 737 L105 718 Q105 715 105.5 713 Q106 711 106 708 Q106 707 106 706 Q106 705 106 703 Q106 702 106 702.5 Q106 703 106 704 Q107 701 107 698 Q108 679 108 660 Q108 641 108 621 Q109 580 109.5 539.5 Q110 499 110 458 Q110 426 109.5 394 Q109 362 109 329 Q124 358 141.5 384.5 Q159 411 177 437 Q205 476 233.5 512.5 Q262 549 295 584 Q327 617 359 646 Q376 661 393 674 Q407 685 421 693 Q425 696 430 698.5 Q435 701 440 704 Q447 709 455.5 709.5 Q464 710 472 708 Q480 706 486.5 701 Q493 696 497 689 Q502 682 503 673 Q504 664 501 656 Q498 645 489 637 L489 637 Q486 633 481.5 629.5 Q477 626 474 623 Q461 612 450 603 Q452 605 454.5 606.5 Q457 608 459 610 Q430 588 403 562 Q379 540 356.5 516.5 Q334 493 312 469 Q291 445 271 420.5 Q251 396 231 371 Q214 349 198 326 Q182 303 168 279 Q182 272 197 261 Q213 250 228.5 238 Q244 226 260 215 Q292 192 327 171 Q361 151 395 133.5 Q429 116 464 100 Q472 97 479.5 94 Q487 91 494 87 Z " />
<glyph glyph-name="L" unicode="L" horiz-adv-x="471" d="M438 322 Q443 326 449.5 324 Q456 322 460 318 Q469 307 459 295 Q444 277 430 260 Q416 243 402 225 Q400 223 398.5 220 Q397 217 395 215 Q394 214 393 213 Q392 212 391 211 Q384 201 378 194 Q371 183 363 173 Q355 163 347 153 Q349 155 350 156.5 Q351 158 353 160 Q335 138 318 114 Q289 73 262.5 30 Q236 -13 212 -58 Q209 -65 206.5 -72 Q204 -79 201 -86 Q198 -93 196 -99.5 Q194 -106 191 -113 Q190 -137 180 -154 Q175 -162 168 -169 Q154 -182 135 -188 Q120 -193 105 -190 Q95 -190 87 -185 Q73 -180 63 -169 Q60 -165 57 -161.5 Q54 -158 51 -154 Q45 -143 42.5 -133.5 Q40 -124 40 -112 Q40 -111 40 -109.5 Q40 -108 40 -106 Q40 -102 40 -98.5 Q40 -95 40 -91 Q41 -84 41 -76.5 Q41 -69 41 -62 Q42 -47 43 -32.5 Q44 -18 45 -3 Q52 100 61 207 Q66 260 71 312 Q74 341 76.5 370 Q79 399 83 428 Q91 491 100 553.5 Q109 616 118 679 L117 667 Q118 679 121 691 Q124 703 127 716 Q129 725 131 735 Q133 745 136 754 L135 752 Q137 758 139 764 Q141 770 143 775 Q147 786 155.5 792 Q164 798 176 797 Q185 796 193 789 Q198 784 199.5 778.5 Q201 773 202 768 L204 750 Q205 743 205 735 Q205 727 206 719 Q206 714 206 708 Q206 702 206 696 Q207 684 207 672.5 Q207 661 207 649 Q205 603 204 555 Q203 512 202.5 470 Q202 428 200 386 Q197 302 196 218 Q194 156 194 90 Q220 121 246.5 150.5 Q273 180 302 209 Q317 225 333.5 239 Q350 253 366 267 Q401 296 438 322 Z " />
<glyph glyph-name="M" unicode="M" horiz-adv-x="706" d="M673 -5 Q676 -20 680.5 -33 Q685 -46 689 -59 Q693 -71 690 -85 Q687 -99 680 -113 Q673 -127 661 -139.5 Q649 -152 636 -161 Q623 -170 607.5 -174.5 Q592 -179 581 -177 Q557 -174 550 -152 Q544 -134 541 -114 Q538 -94 535 -74 Q526 -1 528 78 Q530 145 536.5 212.5 Q543 280 548 349 Q551 382 552.5 415 Q554 448 556 481 Q557 511 556.5 539.5 Q556 568 554 596 Q543 583 533.5 569.5 Q524 556 515 543 Q494 509 476 475 Q458 441 443 407 Q431 377 421 346 Q411 316 403 287 Q395 258 388 229 Q384 214 380 200 Q376 186 370 171 Q362 151 352 131.5 Q342 112 327 92 Q316 77 299 67.5 Q282 58 268 57 Q251 57 243 67 Q237 74 236 89 Q236 109 234.5 128.5 Q233 148 233 168 Q232 208 229 247 Q229 244 229.5 241.5 Q230 239 230 237 Q229 252 227.5 267 Q226 282 224 297 Q220 336 214 371 Q213 380 211 388 Q209 396 207 405 Q204 395 200 386 Q196 377 193 367 Q172 312 154 256 Q146 229 138.5 201.5 Q131 174 124 146 Q122 134 119.5 122.5 Q117 111 115 99 Q113 88 111 75 Q111 72 111 67 Q111 60 109.5 52.5 Q108 45 106 37 Q106 34 105 31 L104 29 L104 29 Q99 13 86 -1 Q73 -15 56 -23 Q37 -32 22 -24 Q15 -20 12.5 -13.5 Q10 -7 9 2 L8 17 Q8 21 8.5 25.5 Q9 30 10 34 Q11 42 12 50.5 Q13 59 14 68 Q18 100 22 135 Q26 169 29 203 Q30 211 31 219.5 Q32 228 33 236 Q34 244 34.5 252 Q35 260 36 269 Q44 325 50 376 Q52 390 53.5 403.5 Q55 417 57 431 Q57 435 59 439 L59 440 Q60 441 60.5 443 Q61 445 62 447 L65 460 Q67 467 69 473.5 Q71 480 73 487 Q75 493 80.5 495 Q86 497 87 493 Q89 488 90.5 482.5 Q92 477 94 472 Q95 469 95.5 466.5 Q96 464 97 461 L99 455 Q101 452 101 447 Q102 435 102.5 422.5 Q103 410 104 398 Q107 360 109 321 Q126 365 145 408 Q150 419 154 429.5 Q158 440 165 450 Q173 463 183.5 476.5 Q194 490 208 498 Q229 511 245 508 Q261 506 268 489 Q272 481 274 472 Q276 463 279 454 Q288 419 297.5 384.5 Q307 350 315 314 Q337 375 365 434 Q380 466 398 497.5 Q416 529 437 560 Q456 588 476 614 Q489 630 502.5 646 Q516 662 532 675 Q537 680 543 684 Q549 688 555 692 Q573 702 590 707 Q603 710 614 707 Q625 704 633 698 Q644 689 648.5 674.5 Q653 660 656 645 Q661 615 664.5 584 Q668 553 670 521 Q672 492 671 461 Q670 430 669 399 Q668 368 666 337.5 Q664 307 663 276 Q660 217 659 159 Q658 101 664 45 Q666 32 668 19.5 Q670 7 673 -5 Z " />
<glyph glyph-name="N" unicode="N" horiz-adv-x="548" d="M502 196 Q502 155 503 114 Q504 73 504 32 Q505 -10 505.5 -51 Q506 -92 505 -133 Q505 -166 481 -192 Q470 -204 454.5 -209.5 Q439 -215 422 -216 Q405 -217 390 -209 Q375 -204 364 -192 Q352 -180 346 -165 Q339 -150 339 -133 Q340 -88 342 -43 Q344 2 346 47 Q353 208 359 367 Q359 377 359.5 387 Q360 397 360 407 Q361 417 361 427 Q361 437 362 447 Q364 467 365 487 Q366 507 368 527 Q370 559 371.5 590 Q373 621 370 652 Q369 654 369 655 Q369 656 369 657 L369 655 Q367 674 361 689 Q358 695 354 701 Q352 704 349 707 Q345 709 343 710 Q340 711 337 712 L337 712 Q334 711 332 710 Q329 709 326 707 Q323 704 320 701 Q314 692 309.5 683.5 Q305 675 301 666 Q292 645 282 621 Q257 562 235 503 Q225 476 215 448.5 Q205 421 197 392 Q189 364 182 336.5 Q175 309 168 281 Q154 224 137 168.5 Q120 113 95 60 Q92 54 85.5 49 Q79 44 72 41 Q60 36 48 38 Q18 42 8 71 Q-1 102 0 134.5 Q1 167 4 198 Q6 214 7.5 229.5 Q9 245 11 261 Q12 277 14 294 Q16 311 18 327 Q20 343 22 358.5 Q24 374 26 390 Q30 420 34 450 Q38 480 42 511 Q44 527 46 543 Q48 559 51 575 Q54 590 57.5 604 Q61 618 64 633 Q65 639 70.5 642 Q76 645 82 644 Q95 643 96 629 Q97 614 98 600 Q99 586 100 572 Q100 571 100 570 Q100 569 100 568 Q99 575 101 563 Q101 562 101 560.5 Q101 559 101 557 Q101 553 101 549.5 Q101 546 101 542 L100 515 Q100 490 99.5 464.5 Q99 439 99 414 Q98 390 98 365.5 Q98 341 97 317 Q102 331 106.5 344.5 Q111 358 116 372 Q122 389 128 404.5 Q134 420 139 437 Q149 469 160 501 Q171 533 183 566 Q206 630 232 693 Q239 710 247 726.5 Q255 743 268 757 Q281 772 299 780 Q317 788 337 790 Q336 790 335 790 Q334 790 334 790 Q345 791 356.5 790.5 Q368 790 380 786 Q394 782 405 775.5 Q416 769 426 760 Q442 746 452.5 729 Q463 712 471 693 Q476 684 478.5 672.5 Q481 661 483 651 Q485 638 486.5 626 Q488 614 490 601 Q492 582 493 562.5 Q494 543 494 524 Q495 503 496.5 482.5 Q498 462 498 442 Q498 421 498.5 401 Q499 381 500 360 Q500 319 500.5 278 Q501 237 502 196 Z " />
<glyph glyph-name="&amp;#xd1;" unicode="&#xd1;" horiz-adv-x="548" d="M502 196 Q502 155 503 114 Q504 73 504 32 Q505 -10 505.5 -51 Q506 -92 505 -133 Q505 -166 481 -192 Q470 -204 454.5 -209.5 Q439 -215 422 -216 Q405 -217 390 -209 Q375 -204 364 -192 Q352 -180 346 -165 Q339 -150 339 -133 Q340 -88 342 -43 Q344 2 346 47 Q353 208 359 367 Q359 377 359.5 387 Q360 397 360 407 Q361 417 361 427 Q361 437 362 447 Q364 467 365 487 Q366 507 368 527 Q370 559 371.5 590 Q373 621 370 652 Q369 654 369 655 Q369 656 369 657 L369 655 Q367 674 361 689 Q358 695 354 701 Q352 704 349 707 Q345 709 343 710 Q340 711 337 712 L337 712 Q334 711 332 710 Q329 709 326 707 Q323 704 320 701 Q314 692 309.5 683.5 Q305 675 301 666 Q292 645 282 621 Q257 562 235 503 Q225 476 215 448.5 Q205 421 197 392 Q189 364 182 336.5 Q175 309 168 281 Q154 224 137 168.5 Q120 113 95 60 Q92 54 85.5 49 Q79 44 72 41 Q60 36 48 38 Q18 42 8 71 Q-1 102 0 134.5 Q1 167 4 198 Q6 214 7.5 229.5 Q9 245 11 261 Q12 277 14 294 Q16 311 18 327 Q20 343 22 358.5 Q24 374 26 390 Q30 420 34 450 Q38 480 42 511 Q44 527 46 543 Q48 559 51 575 Q54 590 57.5 604 Q61 618 64 633 Q65 639 70.5 642 Q76 645 82 644 Q95 643 96 629 Q97 614 98 600 Q99 586 100 572 Q100 571 100 570 Q100 569 100 568 Q99 575 101 563 Q101 562 101 560.5 Q101 559 101 557 Q101 553 101 549.5 Q101 546 101 542 L100 515 Q100 490 99.5 464.5 Q99 439 99 414 Q98 390 98 365.5 Q98 341 97 317 Q102 331 106.5 344.5 Q111 358 116 372 Q122 389 128 404.5 Q134 420 139 437 Q149 469 160 501 Q171 533 183 566 Q206 630 232 693 Q239 710 247 726.5 Q255 743 268 757 Q281 772 299 780 Q317 788 337 790 Q336 790 335 790 Q334 790 334 790 Q345 791 356.5 790.5 Q368 790 380 786 Q394 782 405 775.5 Q416 769 426 760 Q442 746 452.5 729 Q463 712 471 693 Q476 684 478.5 672.5 Q481 661 483 651 Q485 638 486.5 626 Q488 614 490 601 Q492 582 493 562.5 Q494 543 494 524 Q495 503 496.5 482.5 Q498 462 498 442 Q498 421 498.5 401 Q499 381 500 360 Q500 319 500.5 278 Q501 237 502 196 Z " />
<glyph glyph-name="O" unicode="O" horiz-adv-x="570" d="M500 631 Q514 597 520 558 Q528 514 530 469 Q532 424 532 379 Q531 332 526 285 Q521 238 514 191 Q507 147 497.5 104 Q488 61 475 19 Q461 -24 440.5 -65 Q420 -106 388 -139 Q380 -148 370 -156 Q360 -164 350 -171 Q335 -181 319 -189 Q308 -194 296.5 -198 Q285 -202 273 -205 Q260 -207 248 -208 Q236 -209 224 -208 L227 -208 L223 -208 Q218 -208 212 -207 Q200 -205 192 -202 Q184 -199 175.5 -195.5 Q167 -192 160 -188 Q143 -178 131 -165.5 Q119 -153 108 -138 Q92 -117 80.5 -93.5 Q69 -70 60 -46 Q44 -5 36 38 Q28 81 26 125 Q23 171 26 216 Q29 261 35 306 Q41 347 51 392 Q55 414 60.5 435 Q66 456 73 478 Q74 482 76 490 Q73 509 70 534 Q68 555 69 573 Q72 619 88.5 661.5 Q105 704 137 738 Q168 771 212 786.5 Q256 802 300 797 Q312 795 324 793 Q336 791 348 787 Q372 779 391 768 Q401 763 410.5 756 Q420 749 429 741 Q441 731 451 719 Q459 709 466.5 699 Q474 689 480 678 Q486 667 491 655 Q496 643 500 631 Z M407 315 Q411 367 411.5 418.5 Q412 470 405 522 Q403 540 398.5 557.5 Q394 575 388 592 Q379 612 367 629 Q358 639 348 648 Q337 656 324 662 Q312 666 298 669 Q287 670 275 669 Q266 667 257 664 Q249 660 242 655 Q232 647 224 637 Q216 626 210 612 Q203 595 200 576 Q198 553 200 527 Q203 514 205.5 500.5 Q208 487 211 473 Q218 444 226.5 415.5 Q235 387 243 358 Q251 329 260 298 Q263 289 264 279 Q265 269 266 259 Q266 253 266.5 247.5 Q267 242 267 237 Q271 224 263 212 Q255 200 243 197 Q230 192 217 200 Q210 204 205 211 Q203 214 201 217 L197 222 Q195 225 193 227.5 Q191 230 189 233 Q187 236 185 238.5 Q183 241 181 244 L178 249 Q176 252 174 256 Q171 261 168.5 267 Q166 273 164 278 Q161 284 158.5 289.5 Q156 295 153 301 Q148 312 142 324 Q136 336 131 348 Q127 357 123 366 Q119 375 115 384 Q114 386 113.5 387.5 Q113 389 112 391 Q109 368 107 345 Q102 296 101.5 247 Q101 198 107 150 Q112 116 120.5 83 Q129 50 142 18 Q161 -25 185 -58 Q195 -70 205 -79 Q210 -82 215 -85 Q219 -86 224 -87 Q232 -88 240 -87 Q251 -85 261 -81 Q274 -75 286 -67 Q298 -56 310 -43 Q326 -20 339 9 Q343 20 347 31.5 Q351 43 354 54 Q370 104 381.5 155 Q393 206 401 258 Q404 288 407 315 Z " />
<glyph glyph-name="&amp;#xd2;" unicode="&#xd2;" horiz-adv-x="570" d="M500 631 Q514 597 520 558 Q528 514 530 469 Q532 424 532 379 Q531 332 526 285 Q521 238 514 191 Q507 147 497.5 104 Q488 61 475 19 Q461 -24 440.5 -65 Q420 -106 388 -139 Q380 -148 370 -156 Q360 -164 350 -171 Q335 -181 319 -189 Q308 -194 296.5 -198 Q285 -202 273 -205 Q260 -207 248 -208 Q236 -209 224 -208 L227 -208 L223 -208 Q218 -208 212 -207 Q200 -205 192 -202 Q184 -199 175.5 -195.5 Q167 -192 160 -188 Q143 -178 131 -165.5 Q119 -153 108 -138 Q92 -117 80.5 -93.5 Q69 -70 60 -46 Q44 -5 36 38 Q28 81 26 125 Q23 171 26 216 Q29 261 35 306 Q41 347 51 392 Q55 414 60.5 435 Q66 456 73 478 Q74 482 76 490 Q73 509 70 534 Q68 555 69 573 Q72 619 88.5 661.5 Q105 704 137 738 Q168 771 212 786.5 Q256 802 300 797 Q312 795 324 793 Q336 791 348 787 Q372 779 391 768 Q401 763 410.5 756 Q420 749 429 741 Q441 731 451 719 Q459 709 466.5 699 Q474 689 480 678 Q486 667 491 655 Q496 643 500 631 Z M407 315 Q411 367 411.5 418.5 Q412 470 405 522 Q403 540 398.5 557.5 Q394 575 388 592 Q379 612 367 629 Q358 639 348 648 Q337 656 324 662 Q312 666 298 669 Q287 670 275 669 Q266 667 257 664 Q249 660 242 655 Q232 647 224 637 Q216 626 210 612 Q203 595 200 576 Q198 553 200 527 Q203 514 205.5 500.5 Q208 487 211 473 Q218 444 226.5 415.5 Q235 387 243 358 Q251 329 260 298 Q263 289 264 279 Q265 269 266 259 Q266 253 266.5 247.5 Q267 242 267 237 Q271 224 263 212 Q255 200 243 197 Q230 192 217 200 Q210 204 205 211 Q203 214 201 217 L197 222 Q195 225 193 227.5 Q191 230 189 233 Q187 236 185 238.5 Q183 241 181 244 L178 249 Q176 252 174 256 Q171 261 168.5 267 Q166 273 164 278 Q161 284 158.5 289.5 Q156 295 153 301 Q148 312 142 324 Q136 336 131 348 Q127 357 123 366 Q119 375 115 384 Q114 386 113.5 387.5 Q113 389 112 391 Q109 368 107 345 Q102 296 101.5 247 Q101 198 107 150 Q112 116 120.5 83 Q129 50 142 18 Q161 -25 185 -58 Q195 -70 205 -79 Q210 -82 215 -85 Q219 -86 224 -87 Q232 -88 240 -87 Q251 -85 261 -81 Q274 -75 286 -67 Q298 -56 310 -43 Q326 -20 339 9 Q343 20 347 31.5 Q351 43 354 54 Q370 104 381.5 155 Q393 206 401 258 Q404 288 407 315 Z " />
<glyph glyph-name="&amp;#xd3;" unicode="&#xd3;" horiz-adv-x="570" d="M500 631 Q514 597 520 558 Q528 514 530 469 Q532 424 532 379 Q531 332 526 285 Q521 238 514 191 Q507 147 497.5 104 Q488 61 475 19 Q461 -24 440.5 -65 Q420 -106 388 -139 Q380 -148 370 -156 Q360 -164 350 -171 Q335 -181 319 -189 Q308 -194 296.5 -198 Q285 -202 273 -205 Q260 -207 248 -208 Q236 -209 224 -208 L227 -208 L223 -208 Q218 -208 212 -207 Q200 -205 192 -202 Q184 -199 175.5 -195.5 Q167 -192 160 -188 Q143 -178 131 -165.5 Q119 -153 108 -138 Q92 -117 80.5 -93.5 Q69 -70 60 -46 Q44 -5 36 38 Q28 81 26 125 Q23 171 26 216 Q29 261 35 306 Q41 347 51 392 Q55 414 60.5 435 Q66 456 73 478 Q74 482 76 490 Q73 509 70 534 Q68 555 69 573 Q72 619 88.5 661.5 Q105 704 137 738 Q168 771 212 786.5 Q256 802 300 797 Q312 795 324 793 Q336 791 348 787 Q372 779 391 768 Q401 763 410.5 756 Q420 749 429 741 Q441 731 451 719 Q459 709 466.5 699 Q474 689 480 678 Q486 667 491 655 Q496 643 500 631 Z M407 315 Q411 367 411.5 418.5 Q412 470 405 522 Q403 540 398.5 557.5 Q394 575 388 592 Q379 612 367 629 Q358 639 348 648 Q337 656 324 662 Q312 666 298 669 Q287 670 275 669 Q266 667 257 664 Q249 660 242 655 Q232 647 224 637 Q216 626 210 612 Q203 595 200 576 Q198 553 200 527 Q203 514 205.5 500.5 Q208 487 211 473 Q218 444 226.5 415.5 Q235 387 243 358 Q251 329 260 298 Q263 289 264 279 Q265 269 266 259 Q266 253 266.5 247.5 Q267 242 267 237 Q271 224 263 212 Q255 200 243 197 Q230 192 217 200 Q210 204 205 211 Q203 214 201 217 L197 222 Q195 225 193 227.5 Q191 230 189 233 Q187 236 185 238.5 Q183 241 181 244 L178 249 Q176 252 174 256 Q171 261 168.5 267 Q166 273 164 278 Q161 284 158.5 289.5 Q156 295 153 301 Q148 312 142 324 Q136 336 131 348 Q127 357 123 366 Q119 375 115 384 Q114 386 113.5 387.5 Q113 389 112 391 Q109 368 107 345 Q102 296 101.5 247 Q101 198 107 150 Q112 116 120.5 83 Q129 50 142 18 Q161 -25 185 -58 Q195 -70 205 -79 Q210 -82 215 -85 Q219 -86 224 -87 Q232 -88 240 -87 Q251 -85 261 -81 Q274 -75 286 -67 Q298 -56 310 -43 Q326 -20 339 9 Q343 20 347 31.5 Q351 43 354 54 Q370 104 381.5 155 Q393 206 401 258 Q404 288 407 315 Z " />
<glyph glyph-name="&amp;#xd4;" unicode="&#xd4;" horiz-adv-x="570" d="M500 631 Q514 597 520 558 Q528 514 530 469 Q532 424 532 379 Q531 332 526 285 Q521 238 514 191 Q507 147 497.5 104 Q488 61 475 19 Q461 -24 440.5 -65 Q420 -106 388 -139 Q380 -148 370 -156 Q360 -164 350 -171 Q335 -181 319 -189 Q308 -194 296.5 -198 Q285 -202 273 -205 Q260 -207 248 -208 Q236 -209 224 -208 L227 -208 L223 -208 Q218 -208 212 -207 Q200 -205 192 -202 Q184 -199 175.5 -195.5 Q167 -192 160 -188 Q143 -178 131 -165.5 Q119 -153 108 -138 Q92 -117 80.5 -93.5 Q69 -70 60 -46 Q44 -5 36 38 Q28 81 26 125 Q23 171 26 216 Q29 261 35 306 Q41 347 51 392 Q55 414 60.5 435 Q66 456 73 478 Q74 482 76 490 Q73 509 70 534 Q68 555 69 573 Q72 619 88.5 661.5 Q105 704 137 738 Q168 771 212 786.5 Q256 802 300 797 Q312 795 324 793 Q336 791 348 787 Q372 779 391 768 Q401 763 410.5 756 Q420 749 429 741 Q441 731 451 719 Q459 709 466.5 699 Q474 689 480 678 Q486 667 491 655 Q496 643 500 631 Z M407 315 Q411 367 411.5 418.5 Q412 470 405 522 Q403 540 398.5 557.5 Q394 575 388 592 Q379 612 367 629 Q358 639 348 648 Q337 656 324 662 Q312 666 298 669 Q287 670 275 669 Q266 667 257 664 Q249 660 242 655 Q232 647 224 637 Q216 626 210 612 Q203 595 200 576 Q198 553 200 527 Q203 514 205.5 500.5 Q208 487 211 473 Q218 444 226.5 415.5 Q235 387 243 358 Q251 329 260 298 Q263 289 264 279 Q265 269 266 259 Q266 253 266.5 247.5 Q267 242 267 237 Q271 224 263 212 Q255 200 243 197 Q230 192 217 200 Q210 204 205 211 Q203 214 201 217 L197 222 Q195 225 193 227.5 Q191 230 189 233 Q187 236 185 238.5 Q183 241 181 244 L178 249 Q176 252 174 256 Q171 261 168.5 267 Q166 273 164 278 Q161 284 158.5 289.5 Q156 295 153 301 Q148 312 142 324 Q136 336 131 348 Q127 357 123 366 Q119 375 115 384 Q114 386 113.5 387.5 Q113 389 112 391 Q109 368 107 345 Q102 296 101.5 247 Q101 198 107 150 Q112 116 120.5 83 Q129 50 142 18 Q161 -25 185 -58 Q195 -70 205 -79 Q210 -82 215 -85 Q219 -86 224 -87 Q232 -88 240 -87 Q251 -85 261 -81 Q274 -75 286 -67 Q298 -56 310 -43 Q326 -20 339 9 Q343 20 347 31.5 Q351 43 354 54 Q370 104 381.5 155 Q393 206 401 258 Q404 288 407 315 Z " />
<glyph glyph-name="&amp;#xd5;" unicode="&#xd5;" horiz-adv-x="570" d="M500 631 Q514 597 520 558 Q528 514 530 469 Q532 424 532 379 Q531 332 526 285 Q521 238 514 191 Q507 147 497.5 104 Q488 61 475 19 Q461 -24 440.5 -65 Q420 -106 388 -139 Q380 -148 370 -156 Q360 -164 350 -171 Q335 -181 319 -189 Q308 -194 296.5 -198 Q285 -202 273 -205 Q260 -207 248 -208 Q236 -209 224 -208 L227 -208 L223 -208 Q218 -208 212 -207 Q200 -205 192 -202 Q184 -199 175.5 -195.5 Q167 -192 160 -188 Q143 -178 131 -165.5 Q119 -153 108 -138 Q92 -117 80.5 -93.5 Q69 -70 60 -46 Q44 -5 36 38 Q28 81 26 125 Q23 171 26 216 Q29 261 35 306 Q41 347 51 392 Q55 414 60.5 435 Q66 456 73 478 Q74 482 76 490 Q73 509 70 534 Q68 555 69 573 Q72 619 88.5 661.5 Q105 704 137 738 Q168 771 212 786.5 Q256 802 300 797 Q312 795 324 793 Q336 791 348 787 Q372 779 391 768 Q401 763 410.5 756 Q420 749 429 741 Q441 731 451 719 Q459 709 466.5 699 Q474 689 480 678 Q486 667 491 655 Q496 643 500 631 Z M407 315 Q411 367 411.5 418.5 Q412 470 405 522 Q403 540 398.5 557.5 Q394 575 388 592 Q379 612 367 629 Q358 639 348 648 Q337 656 324 662 Q312 666 298 669 Q287 670 275 669 Q266 667 257 664 Q249 660 242 655 Q232 647 224 637 Q216 626 210 612 Q203 595 200 576 Q198 553 200 527 Q203 514 205.5 500.5 Q208 487 211 473 Q218 444 226.5 415.5 Q235 387 243 358 Q251 329 260 298 Q263 289 264 279 Q265 269 266 259 Q266 253 266.5 247.5 Q267 242 267 237 Q271 224 263 212 Q255 200 243 197 Q230 192 217 200 Q210 204 205 211 Q203 214 201 217 L197 222 Q195 225 193 227.5 Q191 230 189 233 Q187 236 185 238.5 Q183 241 181 244 L178 249 Q176 252 174 256 Q171 261 168.5 267 Q166 273 164 278 Q161 284 158.5 289.5 Q156 295 153 301 Q148 312 142 324 Q136 336 131 348 Q127 357 123 366 Q119 375 115 384 Q114 386 113.5 387.5 Q113 389 112 391 Q109 368 107 345 Q102 296 101.5 247 Q101 198 107 150 Q112 116 120.5 83 Q129 50 142 18 Q161 -25 185 -58 Q195 -70 205 -79 Q210 -82 215 -85 Q219 -86 224 -87 Q232 -88 240 -87 Q251 -85 261 -81 Q274 -75 286 -67 Q298 -56 310 -43 Q326 -20 339 9 Q343 20 347 31.5 Q351 43 354 54 Q370 104 381.5 155 Q393 206 401 258 Q404 288 407 315 Z " />
<glyph glyph-name="&amp;#xd6;" unicode="&#xd6;" horiz-adv-x="570" d="M500 631 Q514 597 520 558 Q528 514 530 469 Q532 424 532 379 Q531 332 526 285 Q521 238 514 191 Q507 147 497.5 104 Q488 61 475 19 Q461 -24 440.5 -65 Q420 -106 388 -139 Q380 -148 370 -156 Q360 -164 350 -171 Q335 -181 319 -189 Q308 -194 296.5 -198 Q285 -202 273 -205 Q260 -207 248 -208 Q236 -209 224 -208 L227 -208 L223 -208 Q218 -208 212 -207 Q200 -205 192 -202 Q184 -199 175.5 -195.5 Q167 -192 160 -188 Q143 -178 131 -165.5 Q119 -153 108 -138 Q92 -117 80.5 -93.5 Q69 -70 60 -46 Q44 -5 36 38 Q28 81 26 125 Q23 171 26 216 Q29 261 35 306 Q41 347 51 392 Q55 414 60.5 435 Q66 456 73 478 Q74 482 76 490 Q73 509 70 534 Q68 555 69 573 Q72 619 88.5 661.5 Q105 704 137 738 Q168 771 212 786.5 Q256 802 300 797 Q312 795 324 793 Q336 791 348 787 Q372 779 391 768 Q401 763 410.5 756 Q420 749 429 741 Q441 731 451 719 Q459 709 466.5 699 Q474 689 480 678 Q486 667 491 655 Q496 643 500 631 Z M407 315 Q411 367 411.5 418.5 Q412 470 405 522 Q403 540 398.5 557.5 Q394 575 388 592 Q379 612 367 629 Q358 639 348 648 Q337 656 324 662 Q312 666 298 669 Q287 670 275 669 Q266 667 257 664 Q249 660 242 655 Q232 647 224 637 Q216 626 210 612 Q203 595 200 576 Q198 553 200 527 Q203 514 205.5 500.5 Q208 487 211 473 Q218 444 226.5 415.5 Q235 387 243 358 Q251 329 260 298 Q263 289 264 279 Q265 269 266 259 Q266 253 266.5 247.5 Q267 242 267 237 Q271 224 263 212 Q255 200 243 197 Q230 192 217 200 Q210 204 205 211 Q203 214 201 217 L197 222 Q195 225 193 227.5 Q191 230 189 233 Q187 236 185 238.5 Q183 241 181 244 L178 249 Q176 252 174 256 Q171 261 168.5 267 Q166 273 164 278 Q161 284 158.5 289.5 Q156 295 153 301 Q148 312 142 324 Q136 336 131 348 Q127 357 123 366 Q119 375 115 384 Q114 386 113.5 387.5 Q113 389 112 391 Q109 368 107 345 Q102 296 101.5 247 Q101 198 107 150 Q112 116 120.5 83 Q129 50 142 18 Q161 -25 185 -58 Q195 -70 205 -79 Q210 -82 215 -85 Q219 -86 224 -87 Q232 -88 240 -87 Q251 -85 261 -81 Q274 -75 286 -67 Q298 -56 310 -43 Q326 -20 339 9 Q343 20 347 31.5 Q351 43 354 54 Q370 104 381.5 155 Q393 206 401 258 Q404 288 407 315 Z " />
<glyph glyph-name="&amp;#xd8;" unicode="&#xd8;" horiz-adv-x="570" d="M500 631 Q514 597 520 558 Q528 514 530 469 Q532 424 532 379 Q531 332 526 285 Q521 238 514 191 Q507 147 497.5 104 Q488 61 475 19 Q461 -24 440.5 -65 Q420 -106 388 -139 Q380 -148 370 -156 Q360 -164 350 -171 Q335 -181 319 -189 Q308 -194 296.5 -198 Q285 -202 273 -205 Q260 -207 248 -208 Q236 -209 224 -208 L227 -208 L223 -208 Q218 -208 212 -207 Q200 -205 192 -202 Q184 -199 175.5 -195.5 Q167 -192 160 -188 Q143 -178 131 -165.5 Q119 -153 108 -138 Q92 -117 80.5 -93.5 Q69 -70 60 -46 Q44 -5 36 38 Q28 81 26 125 Q23 171 26 216 Q29 261 35 306 Q41 347 51 392 Q55 414 60.5 435 Q66 456 73 478 Q74 482 76 490 Q73 509 70 534 Q68 555 69 573 Q72 619 88.5 661.5 Q105 704 137 738 Q168 771 212 786.5 Q256 802 300 797 Q312 795 324 793 Q336 791 348 787 Q372 779 391 768 Q401 763 410.5 756 Q420 749 429 741 Q441 731 451 719 Q459 709 466.5 699 Q474 689 480 678 Q486 667 491 655 Q496 643 500 631 Z M407 315 Q411 367 411.5 418.5 Q412 470 405 522 Q403 540 398.5 557.5 Q394 575 388 592 Q379 612 367 629 Q358 639 348 648 Q337 656 324 662 Q312 666 298 669 Q287 670 275 669 Q266 667 257 664 Q249 660 242 655 Q232 647 224 637 Q216 626 210 612 Q203 595 200 576 Q198 553 200 527 Q203 514 205.5 500.5 Q208 487 211 473 Q218 444 226.5 415.5 Q235 387 243 358 Q251 329 260 298 Q263 289 264 279 Q265 269 266 259 Q266 253 266.5 247.5 Q267 242 267 237 Q271 224 263 212 Q255 200 243 197 Q230 192 217 200 Q210 204 205 211 Q203 214 201 217 L197 222 Q195 225 193 227.5 Q191 230 189 233 Q187 236 185 238.5 Q183 241 181 244 L178 249 Q176 252 174 256 Q171 261 168.5 267 Q166 273 164 278 Q161 284 158.5 289.5 Q156 295 153 301 Q148 312 142 324 Q136 336 131 348 Q127 357 123 366 Q119 375 115 384 Q114 386 113.5 387.5 Q113 389 112 391 Q109 368 107 345 Q102 296 101.5 247 Q101 198 107 150 Q112 116 120.5 83 Q129 50 142 18 Q161 -25 185 -58 Q195 -70 205 -79 Q210 -82 215 -85 Q219 -86 224 -87 Q232 -88 240 -87 Q251 -85 261 -81 Q274 -75 286 -67 Q298 -56 310 -43 Q326 -20 339 9 Q343 20 347 31.5 Q351 43 354 54 Q370 104 381.5 155 Q393 206 401 258 Q404 288 407 315 Z " />
<glyph glyph-name="P" unicode="P" horiz-adv-x="464" d="M332 753 Q371 739 396 707 Q421 675 430 640 Q444 584 443.5 529.5 Q443 475 431 424 Q425 399 415.5 375.5 Q406 352 394 330 Q373 290 343 260 Q322 239 298 220 Q274 201 242 196 Q221 193 197.5 203 Q174 213 159 231 Q147 246 143 265.5 Q139 285 152 298 Q160 305 170 307 Q180 309 193 304 Q196 303 195 303 L192 304 Q197 302 201 299 Q205 297 210 293 L207 296 Q208 295 208.5 294.5 Q209 294 210 293 Q212 291 215 288 L219 290 Q231 297 241.5 305 Q252 313 262 322 Q290 350 310 388 Q333 433 343 486 Q351 538 345 592 Q343 608 340 623 Q338 632 335.5 640.5 Q333 649 330 658 Q328 663 325 668 Q322 672 319 675 Q316 677 312 680 Q307 683 301 685 Q295 687 288 688 Q277 688 265 686 Q240 681 218 671 L213 669 L213 669 Q206 666 204 664 Q194 658 185 652 Q176 645 169 638 Q167 637 164 634 L162 633 Q163 633 161.5 631.5 Q160 630 159 630 Q158 629 156 626 Q148 618 141.5 609 Q135 600 127 591 Q123 586 118 578 Q118 565 118 548 Q118 461 119 374.5 Q120 288 124 200 Q125 157 127.5 113.5 Q130 70 133 27 Q137 -19 141 -61 Q141 -67 141.5 -72.5 Q142 -78 142 -84 Q142 -89 141.5 -94 Q141 -99 141 -104 Q141 -112 140.5 -119.5 Q140 -127 137 -134 Q135 -139 133.5 -143 Q132 -147 130 -152 Q122 -169 102 -168 Q81 -166 70 -147 Q66 -141 63 -136 Q60 -131 57 -125 Q52 -117 50.5 -108.5 Q49 -100 47 -92 Q45 -86 43.5 -79.5 Q42 -73 41 -67 Q40 -58 39 -49 Q38 -40 38 -31 Q34 17 30 66 Q25 154 22.5 241 Q20 328 20 415 Q20 459 20 502 Q20 545 21 589 Q21 610 22 631.5 Q23 653 24 674 Q25 685 25.5 696 Q26 707 26 718 Q27 723 27 729 Q27 735 27 740 Q28 747 30 754 Q32 761 33 768 Q36 780 47.5 784.5 Q59 789 72 787 Q84 785 95.5 774.5 Q107 764 109 753 Q111 744 112.5 736 Q114 728 114 719 Q115 713 115 707 Q115 701 115 695 Q115 686 115.5 677 Q116 668 116 659 Q122 669 128 677 Q141 696 158.5 712.5 Q176 729 197 741 Q227 759 261 763 Q294 768 332 753 Z M215 288 L211 292 L214 289 L215 288 Z " />
<glyph glyph-name="Q" unicode="Q" horiz-adv-x="548" d="M587 -140 Q605 -156 593 -177 Q588 -186 576 -189.5 Q564 -193 554 -188 Q550 -186 546.5 -184 Q543 -182 539 -180 Q531 -176 525 -172 Q520 -169 516 -165 Q512 -161 508 -157 Q501 -151 496 -145 Q481 -126 471 -110 Q461 -93 452.5 -75.5 Q444 -58 436 -40 Q431 -28 426 -15.5 Q421 -3 416 10 Q407 -3 395 -19 Q371 -47 337 -67 Q303 -88 264 -95.5 Q225 -103 186 -94 L187 -94 Q182 -92 178 -91 Q172 -88 166 -85.5 Q160 -83 154 -80 Q146 -76 138 -70 Q126 -61 115.5 -52 Q105 -43 96 -32 Q88 -21 80 -10 Q72 1 65 13 Q58 26 52.5 39.5 Q47 53 42 67 Q35 87 29.5 108.5 Q24 130 21 151 Q13 196 10.5 242.5 Q8 289 16 334 L16 333 Q18 348 20 358 Q26 386 34 409 Q40 423 46.5 437.5 Q53 452 63 464 Q68 472 73.5 479 Q79 486 86 493 Q92 499 99 504.5 Q106 510 114 516 Q123 523 133 528 Q148 535 160 539 Q161 547 162 556 Q166 594 176.5 630.5 Q187 667 206 700 Q222 728 246 752.5 Q270 777 302 785 Q320 789 340 787 Q360 785 375 774 Q392 762 402 745.5 Q412 729 419 711 Q426 693 431 675.5 Q436 658 440 639 Q444 621 447 600 Q449 589 451 573 L452 568 L452 568 Q452 566 452.5 564 Q453 562 453 560 Q459 517 463 474 Q467 431 471 387 Q474 346 474.5 304 Q475 262 472 220 Q469 183 465 151 Q470 130 474 113 Q484 75 494 38 Q504 1 519 -35 Q527 -53 536 -68 Q540 -78 546 -86 Q552 -94 558 -103 Q556 -101 554.5 -99 Q553 -97 552 -95 Q555 -99 558 -103 Q561 -107 564 -111 Q566 -114 568 -116.5 Q570 -119 572 -121 Q574 -123 578 -129 L581 -133 Q585 -138 587 -140 Z M300 712 Q288 701 275 685 Q258 663 245 632 Q228 590 221 545 Q257 541 287 521 Q311 505 330 484 Q349 463 365 439 Q375 422 384 404 Q393 386 400 367 Q401 383 402 396 Q403 421 402.5 446 Q402 471 400 497 Q398 523 396 548 L395 556 Q395 557 394.5 558 Q394 559 394 560 L395 557 Q395 558 394.5 560 Q394 562 394 563 Q394 564 393.5 565.5 Q393 567 393 569 Q391 582 389 592 Q384 616 378 639 Q372 662 364 684 L362 688 Q360 692 358 696 Q354 704 349 711 L348 713 L350 711 Q350 711 349 712 Q348 713 348 714 Q345 717 342 720 L344 718 L342 720 Q340 721 339 721.5 Q338 722 340 721 L338 722 L334 723 Q330 723 325 723 Q320 722 315 720 Q308 717 300 712 Z M314 52 Q328 63 337 74 Q348 90 357 108 Q364 128 370 154 Q359 190 347.5 225.5 Q336 261 322 295 Q310 322 296.5 347.5 Q283 373 265 397 Q253 412 239 424 Q231 429 223 433 L221 434 L221 433 Q222 429 222 425 Q222 421 223 417 Q224 405 225 395 L225 394 L225 394 Q225 393 225.5 391.5 Q226 390 226 389 Q226 385 228 377 Q231 356 212 350 Q203 347 195.5 352 Q188 357 185 366 Q178 384 172 401 Q170 409 168 418 Q164 414 159 409 Q151 397 144 382 Q138 367 134.5 351.5 Q131 336 129 320 Q126 298 127 275.5 Q128 253 130 230 Q135 200 142.5 170 Q150 140 162 111 Q168 96 175.5 82.5 Q183 69 192 56 Q200 46 209 39 Q215 35 220 32 Q225 30 228 29 Q233 28 238 27 Q248 26 258 27 Q271 29 284 34 Q300 42 314 52 Z M336 72 L336 73 L334 70 L336 72 Z " />
<glyph glyph-name="R" unicode="R" horiz-adv-x="439" d="M377 102 Q394 83 411 65.5 Q428 48 447 31 Q458 21 458 7.5 Q458 -6 449 -16 Q441 -26 426 -26 Q411 -26 401 -16 Q380 5 361 27.5 Q342 50 323 73 Q308 93 293.5 113 Q279 133 265 154 Q251 173 238.5 193 Q226 213 212 233 Q202 248 192 262.5 Q182 277 172 292 Q144 293 117 306 Q103 312 91 324 Q91 322 91 320.5 Q91 319 91 318 Q92 297 92 276.5 Q92 256 92 236 Q93 155 97 75.5 Q101 -4 115 -84 Q117 -90 118 -97 Q119 -104 120 -111 Q122 -126 111 -138 Q100 -150 85 -152 Q71 -153 58 -147 Q51 -143 45 -136 Q39 -129 37 -122 Q33 -108 31 -94 Q29 -80 27 -67 Q24 -43 22 -20 Q20 4 18.5 27 Q17 50 16 74 Q14 159 15.5 243 Q17 327 22 412 Q24 455 26 497.5 Q28 540 32 583 Q39 667 47 756 Q48 761 53.5 764 Q59 767 64 767 Q78 765 78 752 Q79 722 80 692.5 Q81 663 82 633 Q100 665 120 692 Q128 701 135.5 710.5 Q143 720 152 728 Q167 742 187 754 Q206 765 227.5 773.5 Q249 782 271 786 Q283 788 295 788 Q307 788 319 786 Q333 784 345 777 Q357 770 367 761 Q388 744 400.5 719 Q413 694 417 669 Q424 636 422 609 Q420 578 414 549 Q408 521 397 495 Q386 469 372 445 Q342 395 304 355 Q280 331 256 315 Q237 304 218 298 Q228 286 237.5 274.5 Q247 263 257 251 Q272 232 287.5 213 Q303 194 318 175 Q326 165 333.5 155.5 Q341 146 349 136 Q351 133 353 130.5 Q355 128 357 126 Q358 125 359 123.5 Q360 122 361 121 L361 121 Q371 110 377 102 Z M118 657 Q101 638 83 613 Q83 601 83.5 589.5 Q84 578 84 566 Q85 491 88 414 Q106 427 128 421 L129 421 Q133 421 135 420 Q142 419 148.5 414.5 Q155 410 161 406 L161 405 L162 405 Q164 404 166 404 Q174 404 183 405 Q193 407 203 410 Q221 419 240 433 Q282 468 313 508 Q336 540 349 572 Q357 594 359 619 Q361 643 357 666 Q355 678 351 688 Q350 693 347 699 L347 699 Q345 702 344 705 Q341 710 337 714 L336 716 Q335 717 334.5 718 Q334 719 333 719 Q330 723 324 727 L324 728 Q321 730 319 731 Q316 733 313 734 L313 734 Q311 734 309.5 735 Q308 736 306 736 Q302 737 297 738 L294 739 Q284 740 275 740 Q271 739 265 739 L260 739 L259 738 Q254 737 249 736.5 Q244 736 239 735 Q228 732 219 729 Q214 727 208 725 L204 723 L202 723 L202 723 Q197 721 193 718.5 Q189 716 184 714 Q175 709 169 704 L165 702 L162 700 Q157 695 153 691 Q135 675 118 657 Z " />
<glyph glyph-name="S" unicode="S" horiz-adv-x="519" d="M506 746 Q508 742 509.5 738.5 Q511 735 512 732 Q527 699 517 664 Q512 648 503.5 633.5 Q495 619 481 609 Q479 608 478.5 609.5 Q478 611 479 612 Q491 625 496.5 641.5 Q502 658 502 676 Q502 691 498 704 Q493 718 486 724 L483 727 L482 727 Q477 731 477 731 Q473 733 471 734 L470 735 L469 735 Q466 736 463.5 736.5 Q461 737 458 738 Q454 738 450 738 L448 739 Q445 739 442.5 739 Q440 739 437 739 L435 738 Q431 737 428 736 L427 736 Q422 734 421 733 Q418 731 415 729 Q415 729 412 727 Q409 725 411.5 727 Q414 729 415 729 Q411 727 408 724 Q405 721 403 718 Q401 717 398 714 Q398 713 397 711.5 Q396 710 395 710 L394 709 L393 706 Q391 704 389 700 Q386 695 383 690 Q377 673 374 654 Q371 630 374 604 Q377 583 383.5 562.5 Q390 542 397 521 Q404 502 411 483.5 Q418 465 425 445 Q438 407 448 367 Q460 324 467.5 281 Q475 238 480 194 Q479 197 478.5 200.5 Q478 204 478 207 Q480 189 482 167 Q485 106 477 45 Q469 -16 440 -70 Q411 -123 363 -156 Q340 -172 312 -180 Q282 -189 253 -185 Q243 -184 234 -182.5 Q225 -181 216 -178 Q200 -173 181 -164 Q166 -157 153 -147.5 Q140 -138 128 -127 Q116 -116 106 -104 Q96 -92 86 -79 Q71 -58 60 -33 Q53 -18 47 -2 Q41 14 36 31 Q32 46 29 61.5 Q26 77 24 93 Q14 161 28 225 Q33 250 43 273 Q48 288 54.5 302 Q61 316 70 329 Q75 337 80.5 344.5 Q86 352 92 359 Q100 368 108 375 Q120 384 131.5 392.5 Q143 401 156 407 L156 407 L157 408 Q175 418 198 413 Q208 411 216 404 Q224 397 230 389 Q235 380 236.5 368.5 Q238 357 235 348 Q230 330 215 318 Q212 316 209 313.5 Q206 311 203 308 Q195 300 187 290 Q192 297 196 302 Q192 296 188 291 Q184 286 180 281 Q165 261 154 237 Q143 210 138 180 Q135 144 139 106 Q145 65 161 25 Q168 8 177 -7.5 Q186 -23 196 -37 Q208 -52 221 -63 Q232 -71 244 -77 Q252 -79 261 -81 Q270 -82 278 -81 Q287 -80 295 -77 Q306 -72 315 -65 Q328 -54 340 -40 Q353 -21 364 2 Q377 35 383 76 Q386 105 386 134 Q386 163 386 192 Q385 222 383 252 Q381 282 377 312 Q370 357 360.5 401 Q351 445 337 488 Q324 527 314 567 Q304 607 309 649 Q313 689 332 727.5 Q351 766 390 783 Q412 793 432 793 Q442 794 454 791 Q457 791 461 789 L464 789 Q469 787 474 783 Q481 779 487 772.5 Q493 766 498 759 Q503 753 506 746 Z M437 739 Q441 739 440.5 739 Q440 739 438 739 L437 739 Z " />
<glyph glyph-name="T" unicode="T" horiz-adv-x="303" d="M474 792 Q482 793 488 786.5 Q494 780 495 773 Q496 766 492 758 Q488 750 480 749 Q443 744 407.5 738.5 Q372 733 336 728 Q328 727 320.5 726 Q313 725 305 724 Q301 724 297.5 723.5 Q294 723 290 722 Q287 722 281 721 Q281 721 280 721 Q279 721 278 720 L278 720 L278 720 Q245 716 216 712 Q209 711 203 710 Q197 709 191 708 Q195 675 198 642 Q201 609 204 575 Q207 534 209 492.5 Q211 451 212 409 Q215 328 217 242 Q218 159 218 76 Q217 34 217 -6 Q216 -17 215 -27.5 Q214 -38 213 -48 Q212 -62 211 -69 Q211 -72 210.5 -74.5 Q210 -77 210 -80 Q209 -90 208 -95 Q207 -100 204 -107 Q201 -121 192 -131 Q184 -143 172 -150 Q155 -159 136 -159 Q121 -160 108 -153 Q99 -151 92 -144 Q81 -137 74 -124 L67 -107 Q65 -100 64 -92.5 Q63 -85 63 -78 Q63 -75 63 -72 Q63 -69 63 -66 L64 -42 Q65 -20 68 4 Q73 50 78 96 Q95 263 104 429 Q107 471 108.5 512.5 Q110 554 112 595 Q114 621 115.5 646.5 Q117 672 118 698 Q108 696 92 694 Q61 689 30 684 Q-1 679 -32 674 Q-48 671 -64 668 Q-80 665 -96 663 Q-111 661 -126.5 659.5 Q-142 658 -158 657 Q-166 656 -167 665 Q-168 674 -160 676 Q-143 681 -126 686.5 Q-109 692 -92 696 Q-58 703 -23 710 Q47 724 121 738 L122 762 Q122 776 131 784.5 Q140 793 153 794 Q166 795 176 785 Q180 780 182 774.5 Q184 769 185 762 Q185 759 185.5 756 Q186 753 186 750 Q195 751 204 752.5 Q213 754 222 756 Q253 761 283.5 766.5 Q314 772 345 776 Q378 781 410 784.5 Q442 788 474 792 Z " />
<glyph glyph-name="U" unicode="U" horiz-adv-x="565" d="M531 785 Q557 773 555 745 Q554 740 553.5 735 Q553 730 552 726 L550 706 Q549 698 547.5 690 Q546 682 544 674 L538 653 Q536 643 533 632.5 Q530 622 527 612 Q521 591 515.5 570 Q510 549 504 528 Q503 524 502 521 Q501 518 500 515 Q499 489 498 460 Q496 424 495 388.5 Q494 353 494 317 Q494 178 511 42 Q515 17 518 -4 Q521 -18 523.5 -31 Q526 -44 528 -58 Q532 -71 528 -85 L523 -98 Q518 -107 509.5 -113 Q501 -119 491 -122 Q482 -125 471 -123 Q460 -121 451 -116 Q444 -112 436.5 -103 Q429 -94 427 -85 Q424 -60 422 -34.5 Q420 -9 418 17 Q415 61 415 107 Q414 172 417 239 Q399 185 379.5 132 Q360 79 339 26 Q325 -11 307 -45 Q289 -79 261 -107 Q246 -121 229 -132 Q212 -143 192 -148 Q148 -161 106 -140 Q91 -132 78 -118.5 Q65 -105 57 -89 Q42 -59 36 -25 Q33 -4 31.5 16 Q30 36 29 56 Q27 98 27 141 Q27 185 28 228.5 Q29 272 33 315 Q41 404 55 496 Q55 494 54.5 492 Q54 490 54 488 Q56 505 59 521.5 Q62 538 65 554 Q74 606 86 659 Q92 686 99 712 Q106 738 113 764 Q116 774 124.5 778.5 Q133 783 143 781 Q153 779 157.5 770 Q162 761 160 751 Q156 728 151 702 Q150 696 149 690 Q148 684 147 678 Q147 674 146 671 Q146 670 145.5 669 Q145 668 145 666 Q144 663 143.5 660 Q143 657 143 654 Q135 609 128 561 Q120 498 116 439 Q112 383 110 327.5 Q108 272 109 216 Q109 160 112 107 Q114 82 115.5 58 Q117 34 120 9 Q124 -16 131 -36 Q136 -45 140 -52 Q143 -55 146 -58 Q148 -59 150 -60 L153 -61 Q157 -61 161 -61 Q165 -60 170 -58 Q177 -55 184 -50 Q195 -41 205 -28 Q217 -12 226.5 5.5 Q236 23 244 41 Q259 79 273.5 116.5 Q288 154 302 192 Q327 263 349.5 333.5 Q372 404 394 476 Q404 512 414.5 547.5 Q425 583 435 618 Q440 636 444.5 653.5 Q449 671 454 689 Q455 694 456.5 699 Q458 704 459 708 Q461 713 462.5 716.5 Q464 720 466 724 Q468 729 470 733.5 Q472 738 474 742 Q476 747 478 753 Q480 759 483 764 Q488 776 499 782 Q510 788 524 787 Q527 786 531 785 L531 785 Z " />
<glyph glyph-name="&amp;#xd9;" unicode="&#xd9;" horiz-adv-x="565" d="M531 785 Q557 773 555 745 Q554 740 553.5 735 Q553 730 552 726 L550 706 Q549 698 547.5 690 Q546 682 544 674 L538 653 Q536 643 533 632.5 Q530 622 527 612 Q521 591 515.5 570 Q510 549 504 528 Q503 524 502 521 Q501 518 500 515 Q499 489 498 460 Q496 424 495 388.5 Q494 353 494 317 Q494 178 511 42 Q515 17 518 -4 Q521 -18 523.5 -31 Q526 -44 528 -58 Q532 -71 528 -85 L523 -98 Q518 -107 509.5 -113 Q501 -119 491 -122 Q482 -125 471 -123 Q460 -121 451 -116 Q444 -112 436.5 -103 Q429 -94 427 -85 Q424 -60 422 -34.5 Q420 -9 418 17 Q415 61 415 107 Q414 172 417 239 Q399 185 379.5 132 Q360 79 339 26 Q325 -11 307 -45 Q289 -79 261 -107 Q246 -121 229 -132 Q212 -143 192 -148 Q148 -161 106 -140 Q91 -132 78 -118.5 Q65 -105 57 -89 Q42 -59 36 -25 Q33 -4 31.5 16 Q30 36 29 56 Q27 98 27 141 Q27 185 28 228.5 Q29 272 33 315 Q41 404 55 496 Q55 494 54.5 492 Q54 490 54 488 Q56 505 59 521.5 Q62 538 65 554 Q74 606 86 659 Q92 686 99 712 Q106 738 113 764 Q116 774 124.5 778.5 Q133 783 143 781 Q153 779 157.5 770 Q162 761 160 751 Q156 728 151 702 Q150 696 149 690 Q148 684 147 678 Q147 674 146 671 Q146 670 145.5 669 Q145 668 145 666 Q144 663 143.5 660 Q143 657 143 654 Q135 609 128 561 Q120 498 116 439 Q112 383 110 327.5 Q108 272 109 216 Q109 160 112 107 Q114 82 115.5 58 Q117 34 120 9 Q124 -16 131 -36 Q136 -45 140 -52 Q143 -55 146 -58 Q148 -59 150 -60 L153 -61 Q157 -61 161 -61 Q165 -60 170 -58 Q177 -55 184 -50 Q195 -41 205 -28 Q217 -12 226.5 5.5 Q236 23 244 41 Q259 79 273.5 116.5 Q288 154 302 192 Q327 263 349.5 333.5 Q372 404 394 476 Q404 512 414.5 547.5 Q425 583 435 618 Q440 636 444.5 653.5 Q449 671 454 689 Q455 694 456.5 699 Q458 704 459 708 Q461 713 462.5 716.5 Q464 720 466 724 Q468 729 470 733.5 Q472 738 474 742 Q476 747 478 753 Q480 759 483 764 Q488 776 499 782 Q510 788 524 787 Q527 786 531 785 L531 785 Z " />
<glyph glyph-name="&amp;#xda;" unicode="&#xda;" horiz-adv-x="565" d="M531 785 Q557 773 555 745 Q554 740 553.5 735 Q553 730 552 726 L550 706 Q549 698 547.5 690 Q546 682 544 674 L538 653 Q536 643 533 632.5 Q530 622 527 612 Q521 591 515.5 570 Q510 549 504 528 Q503 524 502 521 Q501 518 500 515 Q499 489 498 460 Q496 424 495 388.5 Q494 353 494 317 Q494 178 511 42 Q515 17 518 -4 Q521 -18 523.5 -31 Q526 -44 528 -58 Q532 -71 528 -85 L523 -98 Q518 -107 509.5 -113 Q501 -119 491 -122 Q482 -125 471 -123 Q460 -121 451 -116 Q444 -112 436.5 -103 Q429 -94 427 -85 Q424 -60 422 -34.5 Q420 -9 418 17 Q415 61 415 107 Q414 172 417 239 Q399 185 379.5 132 Q360 79 339 26 Q325 -11 307 -45 Q289 -79 261 -107 Q246 -121 229 -132 Q212 -143 192 -148 Q148 -161 106 -140 Q91 -132 78 -118.5 Q65 -105 57 -89 Q42 -59 36 -25 Q33 -4 31.5 16 Q30 36 29 56 Q27 98 27 141 Q27 185 28 228.5 Q29 272 33 315 Q41 404 55 496 Q55 494 54.5 492 Q54 490 54 488 Q56 505 59 521.5 Q62 538 65 554 Q74 606 86 659 Q92 686 99 712 Q106 738 113 764 Q116 774 124.5 778.5 Q133 783 143 781 Q153 779 157.5 770 Q162 761 160 751 Q156 728 151 702 Q150 696 149 690 Q148 684 147 678 Q147 674 146 671 Q146 670 145.5 669 Q145 668 145 666 Q144 663 143.5 660 Q143 657 143 654 Q135 609 128 561 Q120 498 116 439 Q112 383 110 327.5 Q108 272 109 216 Q109 160 112 107 Q114 82 115.5 58 Q117 34 120 9 Q124 -16 131 -36 Q136 -45 140 -52 Q143 -55 146 -58 Q148 -59 150 -60 L153 -61 Q157 -61 161 -61 Q165 -60 170 -58 Q177 -55 184 -50 Q195 -41 205 -28 Q217 -12 226.5 5.5 Q236 23 244 41 Q259 79 273.5 116.5 Q288 154 302 192 Q327 263 349.5 333.5 Q372 404 394 476 Q404 512 414.5 547.5 Q425 583 435 618 Q440 636 444.5 653.5 Q449 671 454 689 Q455 694 456.5 699 Q458 704 459 708 Q461 713 462.5 716.5 Q464 720 466 724 Q468 729 470 733.5 Q472 738 474 742 Q476 747 478 753 Q480 759 483 764 Q488 776 499 782 Q510 788 524 787 Q527 786 531 785 L531 785 Z " />
<glyph glyph-name="&amp;#xdb;" unicode="&#xdb;" horiz-adv-x="565" d="M531 785 Q557 773 555 745 Q554 740 553.5 735 Q553 730 552 726 L550 706 Q549 698 547.5 690 Q546 682 544 674 L538 653 Q536 643 533 632.5 Q530 622 527 612 Q521 591 515.5 570 Q510 549 504 528 Q503 524 502 521 Q501 518 500 515 Q499 489 498 460 Q496 424 495 388.5 Q494 353 494 317 Q494 178 511 42 Q515 17 518 -4 Q521 -18 523.5 -31 Q526 -44 528 -58 Q532 -71 528 -85 L523 -98 Q518 -107 509.5 -113 Q501 -119 491 -122 Q482 -125 471 -123 Q460 -121 451 -116 Q444 -112 436.5 -103 Q429 -94 427 -85 Q424 -60 422 -34.5 Q420 -9 418 17 Q415 61 415 107 Q414 172 417 239 Q399 185 379.5 132 Q360 79 339 26 Q325 -11 307 -45 Q289 -79 261 -107 Q246 -121 229 -132 Q212 -143 192 -148 Q148 -161 106 -140 Q91 -132 78 -118.5 Q65 -105 57 -89 Q42 -59 36 -25 Q33 -4 31.5 16 Q30 36 29 56 Q27 98 27 141 Q27 185 28 228.5 Q29 272 33 315 Q41 404 55 496 Q55 494 54.5 492 Q54 490 54 488 Q56 505 59 521.5 Q62 538 65 554 Q74 606 86 659 Q92 686 99 712 Q106 738 113 764 Q116 774 124.5 778.5 Q133 783 143 781 Q153 779 157.5 770 Q162 761 160 751 Q156 728 151 702 Q150 696 149 690 Q148 684 147 678 Q147 674 146 671 Q146 670 145.5 669 Q145 668 145 666 Q144 663 143.5 660 Q143 657 143 654 Q135 609 128 561 Q120 498 116 439 Q112 383 110 327.5 Q108 272 109 216 Q109 160 112 107 Q114 82 115.5 58 Q117 34 120 9 Q124 -16 131 -36 Q136 -45 140 -52 Q143 -55 146 -58 Q148 -59 150 -60 L153 -61 Q157 -61 161 -61 Q165 -60 170 -58 Q177 -55 184 -50 Q195 -41 205 -28 Q217 -12 226.5 5.5 Q236 23 244 41 Q259 79 273.5 116.5 Q288 154 302 192 Q327 263 349.5 333.5 Q372 404 394 476 Q404 512 414.5 547.5 Q425 583 435 618 Q440 636 444.5 653.5 Q449 671 454 689 Q455 694 456.5 699 Q458 704 459 708 Q461 713 462.5 716.5 Q464 720 466 724 Q468 729 470 733.5 Q472 738 474 742 Q476 747 478 753 Q480 759 483 764 Q488 776 499 782 Q510 788 524 787 Q527 786 531 785 L531 785 Z " />
<glyph glyph-name="&amp;#xdc;" unicode="&#xdc;" horiz-adv-x="565" d="M531 785 Q557 773 555 745 Q554 740 553.5 735 Q553 730 552 726 L550 706 Q549 698 547.5 690 Q546 682 544 674 L538 653 Q536 643 533 632.5 Q530 622 527 612 Q521 591 515.5 570 Q510 549 504 528 Q503 524 502 521 Q501 518 500 515 Q499 489 498 460 Q496 424 495 388.5 Q494 353 494 317 Q494 178 511 42 Q515 17 518 -4 Q521 -18 523.5 -31 Q526 -44 528 -58 Q532 -71 528 -85 L523 -98 Q518 -107 509.5 -113 Q501 -119 491 -122 Q482 -125 471 -123 Q460 -121 451 -116 Q444 -112 436.5 -103 Q429 -94 427 -85 Q424 -60 422 -34.5 Q420 -9 418 17 Q415 61 415 107 Q414 172 417 239 Q399 185 379.5 132 Q360 79 339 26 Q325 -11 307 -45 Q289 -79 261 -107 Q246 -121 229 -132 Q212 -143 192 -148 Q148 -161 106 -140 Q91 -132 78 -118.5 Q65 -105 57 -89 Q42 -59 36 -25 Q33 -4 31.5 16 Q30 36 29 56 Q27 98 27 141 Q27 185 28 228.5 Q29 272 33 315 Q41 404 55 496 Q55 494 54.5 492 Q54 490 54 488 Q56 505 59 521.5 Q62 538 65 554 Q74 606 86 659 Q92 686 99 712 Q106 738 113 764 Q116 774 124.5 778.5 Q133 783 143 781 Q153 779 157.5 770 Q162 761 160 751 Q156 728 151 702 Q150 696 149 690 Q148 684 147 678 Q147 674 146 671 Q146 670 145.5 669 Q145 668 145 666 Q144 663 143.5 660 Q143 657 143 654 Q135 609 128 561 Q120 498 116 439 Q112 383 110 327.5 Q108 272 109 216 Q109 160 112 107 Q114 82 115.5 58 Q117 34 120 9 Q124 -16 131 -36 Q136 -45 140 -52 Q143 -55 146 -58 Q148 -59 150 -60 L153 -61 Q157 -61 161 -61 Q165 -60 170 -58 Q177 -55 184 -50 Q195 -41 205 -28 Q217 -12 226.5 5.5 Q236 23 244 41 Q259 79 273.5 116.5 Q288 154 302 192 Q327 263 349.5 333.5 Q372 404 394 476 Q404 512 414.5 547.5 Q425 583 435 618 Q440 636 444.5 653.5 Q449 671 454 689 Q455 694 456.5 699 Q458 704 459 708 Q461 713 462.5 716.5 Q464 720 466 724 Q468 729 470 733.5 Q472 738 474 742 Q476 747 478 753 Q480 759 483 764 Q488 776 499 782 Q510 788 524 787 Q527 786 531 785 L531 785 Z " />
<glyph glyph-name="V" unicode="V" horiz-adv-x="451" d="M465 758 Q472 747 473 734 Q476 721 472 708 Q466 690 459.5 673 Q453 656 447 639 Q434 604 422 571 Q380 448 350 320 Q321 196 303 69 Q297 18 292 -31 Q290 -58 288 -85 Q287 -99 286 -113.5 Q285 -128 284 -142 L284 -139 Q283 -146 283 -151 Q283 -168 274 -184 L263 -197 Q254 -207 242 -211.5 Q230 -216 217 -216 Q204 -217 191.5 -211.5 Q179 -206 170 -197 Q161 -188 157 -176 Q150 -164 151 -151 Q147 -112 142 -73.5 Q137 -35 133 4 Q129 29 125 54 Q121 79 117 104 Q103 195 88 286 Q80 332 72 377 Q68 400 64 423 Q62 434 59.5 445.5 Q57 457 56 469 Q51 497 46 527 Q39 576 29 631 Q27 644 24.5 657 Q22 670 21 684 Q19 697 17.5 709.5 Q16 722 15 735 Q14 742 22 743 Q28 744 31 737 Q35 726 40 714.5 Q45 703 49 691 Q54 679 57.5 667.5 Q61 656 65 644 Q81 596 96 549 Q103 528 109.5 507.5 Q116 487 122 465 Q133 425 146 379 Q157 337 168.5 295 Q180 253 191 211 Q209 314 234 412 Q256 497 284 581 Q298 624 312 664 Q321 688 330 711.5 Q339 735 352 758 Q358 770 368.5 777 Q379 784 391 788 Q404 792 417 790 Q426 789 434 785 Q446 781 455 771 Q457 768 459.5 764.5 Q462 761 465 758 Z " />
<glyph glyph-name="W" unicode="W" horiz-adv-x="663" d="M604 797 Q616 798 628 792.5 Q640 787 648 779 Q656 771 661.5 758.5 Q667 746 666 735 Q666 725 665 715.5 Q664 706 663 696 Q656 615 646.5 535 Q637 455 624 374 Q600 219 564 65 Q556 28 546 -11 Q542 -27 538 -42.5 Q534 -58 529 -74 Q522 -92 514.5 -110 Q507 -128 496 -144 Q489 -154 482 -163 Q475 -172 467 -180 Q461 -186 454 -191 Q448 -196 442 -201 Q436 -206 429 -209 Q418 -214 407.5 -217 Q397 -220 384 -221 Q371 -222 357 -217 Q346 -214 338 -209 Q330 -204 321 -196 Q316 -192 311.5 -186.5 Q307 -181 304 -176 Q298 -167 293.5 -157.5 Q289 -148 286 -138 Q283 -130 280.5 -121.5 Q278 -113 275 -105 Q264 -69 255 -33 Q246 3 238 39 Q235 54 232 69 Q229 84 226 100 Q225 98 224.5 96 Q224 94 224 92 Q218 75 212.5 57.5 Q207 40 199 24 Q191 3 179 -16.5 Q167 -36 146 -47 Q108 -68 69 -48 Q57 -42 47 -32 Q37 -22 30 -11 Q19 7 15 27.5 Q11 48 9 69 Q8 87 9 104.5 Q10 122 10 140 Q13 221 16 301 Q18 341 20 381 Q22 421 26 462 Q32 543 41 624 Q42 634 48 640.5 Q54 647 65 648 Q75 648 82 640.5 Q89 633 89 624 Q89 592 89.5 561 Q90 530 91 498 Q92 443 92.5 388 Q93 333 95 278 Q95 250 96 222.5 Q97 195 98 167 Q98 143 98.5 119.5 Q99 96 102 73 Q104 81 107 88.5 Q110 96 112 104 Q155 237 186 370 Q188 380 195.5 389.5 Q203 399 212 404 Q225 411 241 412 Q250 412 259 408.5 Q268 405 275 399 Q284 393 289 384 Q291 379 295 370 Q300 343 304 316.5 Q308 290 313 263 Q321 215 329.5 168 Q338 121 350 74 Q362 25 376 -18 Q379 -30 383 -42.5 Q387 -55 391 -67 Q395 -59 399 -51 Q409 -25 416 2 Q423 29 430 56 Q459 175 482 295 Q504 410 520 527 Q527 579 532.5 630.5 Q538 682 542 735 Q543 752 551 766 Q553 769 555.5 772.5 Q558 776 561 779 Q569 788 580.5 792 Q592 796 604 797 Z " />
<glyph glyph-name="X" unicode="X" horiz-adv-x="503" d="M489 787 Q496 783 502 775.5 Q508 768 510 760 Q512 752 511 742 Q510 732 505 725 Q480 687 455 649.5 Q430 612 405 574 Q367 516 329 459 Q291 402 253 344 Q265 316 276.5 288.5 Q288 261 299 233 Q335 145 368 54 Q377 31 385 8.5 Q393 -14 401 -38 Q409 -59 417 -84 Q420 -94 425 -107 Q427 -114 428 -118 Q431 -131 430.5 -138.5 Q430 -146 428 -159 L427 -164 Q422 -182 409 -195 Q396 -208 378 -213 Q361 -218 341.5 -213.5 Q322 -209 310 -195 Q309 -194 308 -192.5 Q307 -191 305 -190 Q297 -180 295 -177 Q293 -174 289 -164 Q286 -155 283 -146 Q281 -140 279.5 -134 Q278 -128 277 -122 Q270 -99 264 -75 Q250 -27 236 17 Q221 68 205 118 Q189 168 172 218 Q146 176 122.5 134 Q99 92 78 48 Q72 35 57.5 32.5 Q43 30 32 36 Q20 42 16 56 Q14 63 15 69.5 Q16 76 19 82 Q37 121 56.5 158.5 Q76 196 97 233 Q108 251 119 269 Q130 287 142 305 Q138 315 135 323.5 Q132 332 129 341 Q101 421 70 502 Q67 512 63 521.5 Q59 531 55 542 Q52 551 48.5 561 Q45 571 42 581 Q28 624 14 661 Q10 674 16.5 686 Q23 698 35 703 Q47 708 59.5 704 Q72 700 79 688 Q100 653 122 615 Q132 598 140.5 582 Q149 566 158 549 Q174 515 190 482 Q204 452 216 427 Q227 444 237.5 461.5 Q248 479 259 497 Q301 566 343 634 Q385 702 427 771 Q437 787 454.5 791.5 Q472 796 489 787 Z M253 344 L258 332 Q255 340 253 344 L253 344 Z " />
<glyph glyph-name="Y" unicode="Y" horiz-adv-x="460" d="M403 168 Q416 161 425 147 Q431 138 432.5 126 Q434 114 431 105 Q428 96 421.5 86 Q415 76 406 72 L404 71 Q403 52 402 33.5 Q401 15 398 -4 Q394 -36 388.5 -67.5 Q383 -99 369 -129 Q363 -141 354.5 -152 Q346 -163 338 -173 Q331 -181 325 -187 Q310 -201 296 -209 Q292 -211 289 -213 Q283 -216 277 -218.5 Q271 -221 265 -223 Q256 -225 247 -226 Q238 -227 228 -227 Q219 -227 209.5 -225.5 Q200 -224 191 -222 Q182 -221 173.5 -217.5 Q165 -214 157 -210 Q149 -207 142.5 -201.5 Q136 -196 129 -191 Q123 -187 118 -181 Q101 -161 94 -136 Q93 -132 92 -129 L92 -125 Q91 -120 90 -114.5 Q89 -109 89 -105 Q88 -94 89 -84.5 Q90 -75 92 -64 Q95 -45 102 -28 Q104 -22 106.5 -16.5 Q109 -11 112 -6 Q115 0 118 6 Q124 15 130.5 23.5 Q137 32 143 40 Q151 50 162 60 Q168 66 170 68 Q174 71 178.5 74.5 Q183 78 187 81 Q202 92 219 102 Q234 111 249.5 119.5 Q265 128 281 135 Q282 146 282.5 156.5 Q283 167 284 178 Q284 196 285 213.5 Q286 231 287 249 Q279 230 271 212 Q263 194 255 176 Q251 168 247.5 159.5 Q244 151 240 144 Q227 124 214 110 Q201 96 183.5 84.5 Q166 73 147 70 Q131 67 116 69 Q108 70 102 72 Q96 74 88 78 Q69 86 54 107 Q48 115 44 123 Q37 139 34 150 Q30 164 28.5 177.5 Q27 191 25 204 Q13 306 15 408 Q17 510 31 611 Q31 615 34.5 616.5 Q38 618 41 618 Q49 617 49 609 Q49 574 51 541 Q54 481 62 420 Q63 414 63 412 Q63 412 63 410 Q63 408 63 410 Q63 413 63 411.5 Q63 410 63 409 Q64 405 65 395 Q67 383 70 365 Q73 349 76 333 Q79 317 81 300 L80 309 Q84 290 88 271 Q92 252 96 234 Q100 219 103.5 204.5 Q107 190 112 176 Q116 169 119 164 L121 163 L121 163 Q124 166 127 169 Q136 182 143 199 L142 197 Q145 203 147.5 209 Q150 215 153 221 Q174 271 191 320 Q207 368 222.5 416 Q238 464 251 513 Q275 607 288 704 Q290 723 292 741 Q292 755 300 768 L308 779 Q315 786 325 790 Q335 794 346 794 Q356 795 366.5 790.5 Q377 786 384 779 Q391 771 395 761 Q399 751 399 741 Q399 736 398 728 Q395 700 392 674 Q392 664 392 660 Q392 646 391.5 632 Q391 618 391 604 Q391 590 391.5 575.5 Q392 561 392 547 Q393 519 393.5 491 Q394 463 394 435 Q395 379 397.5 322.5 Q400 266 402 210 Q402 199 402.5 188.5 Q403 178 403 168 Z M250 -56 Q254 -43 257.5 -30.5 Q261 -18 264 -6 L264 -4 L263 -5 Q255 -12 247 -22 Q237 -36 230 -50 Q229 -53 227 -60 Q227 -65 227 -68 Q228 -70 229 -76 L231 -79 Q238 -73 243 -66 Q247 -60 250 -56 Z " />
<glyph glyph-name="&amp;#xdd;" unicode="&#xdd;" horiz-adv-x="460" d="M403 168 Q416 161 425 147 Q431 138 432.5 126 Q434 114 431 105 Q428 96 421.5 86 Q415 76 406 72 L404 71 Q403 52 402 33.5 Q401 15 398 -4 Q394 -36 388.5 -67.5 Q383 -99 369 -129 Q363 -141 354.5 -152 Q346 -163 338 -173 Q331 -181 325 -187 Q310 -201 296 -209 Q292 -211 289 -213 Q283 -216 277 -218.5 Q271 -221 265 -223 Q256 -225 247 -226 Q238 -227 228 -227 Q219 -227 209.5 -225.5 Q200 -224 191 -222 Q182 -221 173.5 -217.5 Q165 -214 157 -210 Q149 -207 142.5 -201.5 Q136 -196 129 -191 Q123 -187 118 -181 Q101 -161 94 -136 Q93 -132 92 -129 L92 -125 Q91 -120 90 -114.5 Q89 -109 89 -105 Q88 -94 89 -84.5 Q90 -75 92 -64 Q95 -45 102 -28 Q104 -22 106.5 -16.5 Q109 -11 112 -6 Q115 0 118 6 Q124 15 130.5 23.5 Q137 32 143 40 Q151 50 162 60 Q168 66 170 68 Q174 71 178.5 74.5 Q183 78 187 81 Q202 92 219 102 Q234 111 249.5 119.5 Q265 128 281 135 Q282 146 282.5 156.5 Q283 167 284 178 Q284 196 285 213.5 Q286 231 287 249 Q279 230 271 212 Q263 194 255 176 Q251 168 247.5 159.5 Q244 151 240 144 Q227 124 214 110 Q201 96 183.5 84.5 Q166 73 147 70 Q131 67 116 69 Q108 70 102 72 Q96 74 88 78 Q69 86 54 107 Q48 115 44 123 Q37 139 34 150 Q30 164 28.5 177.5 Q27 191 25 204 Q13 306 15 408 Q17 510 31 611 Q31 615 34.5 616.5 Q38 618 41 618 Q49 617 49 609 Q49 574 51 541 Q54 481 62 420 Q63 414 63 412 Q63 412 63 410 Q63 408 63 410 Q63 413 63 411.5 Q63 410 63 409 Q64 405 65 395 Q67 383 70 365 Q73 349 76 333 Q79 317 81 300 L80 309 Q84 290 88 271 Q92 252 96 234 Q100 219 103.5 204.5 Q107 190 112 176 Q116 169 119 164 L121 163 L121 163 Q124 166 127 169 Q136 182 143 199 L142 197 Q145 203 147.5 209 Q150 215 153 221 Q174 271 191 320 Q207 368 222.5 416 Q238 464 251 513 Q275 607 288 704 Q290 723 292 741 Q292 755 300 768 L308 779 Q315 786 325 790 Q335 794 346 794 Q356 795 366.5 790.5 Q377 786 384 779 Q391 771 395 761 Q399 751 399 741 Q399 736 398 728 Q395 700 392 674 Q392 664 392 660 Q392 646 391.5 632 Q391 618 391 604 Q391 590 391.5 575.5 Q392 561 392 547 Q393 519 393.5 491 Q394 463 394 435 Q395 379 397.5 322.5 Q400 266 402 210 Q402 199 402.5 188.5 Q403 178 403 168 Z M250 -56 Q254 -43 257.5 -30.5 Q261 -18 264 -6 L264 -4 L263 -5 Q255 -12 247 -22 Q237 -36 230 -50 Q229 -53 227 -60 Q227 -65 227 -68 Q228 -70 229 -76 L231 -79 Q238 -73 243 -66 Q247 -60 250 -56 Z " />
<glyph glyph-name="Z" unicode="Z" horiz-adv-x="621" d="M601 54 Q602 40 595.5 26 Q589 12 580 2 Q570 -8 556 -13 Q543 -20 528 -19 Q495 -21 461 -26 Q432 -30 403 -35.5 Q374 -41 345 -48 Q321 -54 298 -60.5 Q275 -67 253 -76 Q222 -90 198 -108 Q186 -118 176 -128 Q168 -141 159 -156 Q142 -182 113 -191 Q98 -196 82.5 -193 Q67 -190 54 -183 Q40 -176 32 -164 Q22 -153 19 -138 Q14 -122 17 -107 Q18 -92 26 -79 Q33 -64 43 -50.5 Q53 -37 64 -25 Q69 -19 74 -14 Q91 10 107 35 Q141 86 171.5 139 Q202 192 230 247 Q258 303 283.5 359 Q309 415 333 472 Q332 469 330.5 466 Q329 463 328 460 Q334 476 341 491.5 Q348 507 354 523 Q363 547 372 571 Q381 595 390 619 Q363 603 339 590 Q299 566 258 542 Q238 529 218 518 Q208 511 197 506 Q186 501 175 495 Q135 474 91 451 Q81 446 71 448 Q61 450 54 459 Q48 467 48 478 Q48 489 56 496 Q96 531 136 564 Q147 574 157.5 582.5 Q168 591 180 599 Q197 612 218 626 Q238 640 257 653.5 Q276 667 296 680 Q316 694 336 706.5 Q356 719 376 732 Q386 738 396 744 Q406 750 416 756 Q427 762 437 769 Q447 776 458 780 Q467 786 477 786 Q487 789 497 786 Q510 781 519 772 Q531 762 533 743 Q536 727 527 711 Q527 709 526 707.5 Q525 706 524 704 Q515 677 505.5 650.5 Q496 624 487 596 Q478 571 468.5 545.5 Q459 520 450 495 Q441 469 432.5 443.5 Q424 418 415 393 Q379 291 337 193 Q334 185 330 177 Q322 158 314 139 Q306 120 297 101 L293 92 Q410 119 528 127 Q542 128 555.5 121.5 Q569 115 580 106 Q590 96 595 82 Q600 68 601 54 Z " />
<glyph glyph-name="bracketleft" unicode="&#x5b;" horiz-adv-x="308" d="M260 810 Q264 806 266 801.5 Q268 797 268 791 Q268 784 264 778 Q260 770 251 766.5 Q242 763 234 766 Q232 766 229 767 L227 767 Q224 767 221 767 L222 767 Q217 767 212 767 Q207 766 203 765 Q198 762 193 759 Q189 755 185 751 Q181 744 177 736 Q172 724 169 708 Q167 690 167.5 671.5 Q168 653 168 634 Q169 612 170 590.5 Q171 569 171 547 Q173 507 174.5 468.5 Q176 430 177 390 Q178 351 178.5 312 Q179 273 180 234 Q181 195 181.5 156 Q182 117 183 77 Q183 57 183 37.5 Q183 18 183 -1 Q183 -8 183 -14.5 Q183 -21 183 -28 Q186 -28 189 -28 Q207 -29 223 -37 Q235 -44 243 -55 Q249 -61 251 -70 Q258 -82 257 -96 Q257 -101 256 -105.5 Q255 -110 255 -114 Q253 -120 250.5 -126 Q248 -132 245 -137 Q240 -146 232 -154 Q231 -155 230 -156 Q219 -165 209 -171 Q199 -177 186 -181 Q179 -182 172.5 -183 Q166 -184 160 -185 Q155 -185 152 -185 Q143 -184 134.5 -183 Q126 -182 118 -179 Q104 -174 94.5 -168.5 Q85 -163 74 -153 Q69 -149 65.5 -144 Q62 -139 58 -134 Q55 -130 54 -127 Q41 -101 40 -71 Q40 -56 40.5 -41 Q41 -26 41 -11 Q42 20 44 50 Q46 80 48 111 Q50 141 52 171.5 Q54 202 56 233 Q58 264 60 294.5 Q62 325 64 356 Q66 386 69 416.5 Q72 447 74 478 Q77 509 79.5 539.5 Q82 570 84 600 Q86 616 87 631 Q88 646 89 662 Q91 677 92 692 Q93 707 95 722 Q100 751 114.5 777 Q129 803 155 819 Q181 834 208 834 Q215 834 226 832 Q229 832 230 831 Q232 831 236 830 Q240 828 244 825 L245 824 Q251 819 254 817 Q257 814 260 810 Z " />
<glyph glyph-name="backslash" unicode="&#x5c;" horiz-adv-x="499" d="M440 -51 Q444 -63 448 -74.5 Q452 -86 456 -98 Q458 -104 460 -110 Q462 -116 464 -122 Q466 -132 467.5 -141.5 Q469 -151 471 -161 Q472 -177 463 -190 Q457 -197 453 -200 Q444 -207 432 -208 Q424 -210 414 -208 Q401 -207 387 -200 Q383 -197 379 -194.5 Q375 -192 370 -190 Q358 -181 350 -169 Q340 -157 336 -143 Q333 -136 330 -129.5 Q327 -123 325 -116 Q323 -110 321 -103.5 Q319 -97 317 -91 Q309 -65 301 -38 Q293 -13 284.5 12.5 Q276 38 267 64 Q237 157 206.5 248.5 Q176 340 143 433 Q127 479 110 525 Q93 571 76 618 Q59 665 41 711 Q32 735 24 756 Q22 762 19.5 767.5 Q17 773 15 779 Q13 785 11.5 790.5 Q10 796 8 802 Q5 815 10 824.5 Q15 834 28 836 Q40 838 53 831 Q66 824 74 811 Q78 805 81.5 798.5 Q85 792 89 785 Q92 779 95 773 Q98 767 101 761 Q107 748 113.5 735 Q120 722 126 709 Q151 659 176 607 Q199 558 220 509.5 Q241 461 262 412 Q302 318 339 226 Q348 202 357.5 179.5 Q367 157 375 133 Q384 110 392 87 Q400 64 408 41 Q424 -5 440 -51 Z " />
<glyph glyph-name="bracketright" unicode="&#x5d;" horiz-adv-x="240" d="M175 683 Q177 670 177.5 657.5 Q178 645 179 633 Q180 605 181.5 578 Q183 551 185 524 Q188 469 189.5 414.5 Q191 360 192 305 L196 196 Q197 169 197 141.5 Q197 114 197 86 Q197 59 197.5 31.5 Q198 4 198 -23 Q198 -37 198 -50.5 Q198 -64 199 -77 Q199 -87 199 -97 Q199 -107 198 -116 Q197 -122 195 -128 Q193 -134 191 -140 Q189 -146 185.5 -151 Q182 -156 178 -160 L181 -156 Q177 -162 172.5 -167 Q168 -172 160 -176 Q149 -184 135 -185 Q126 -187 116 -185 Q102 -184 89 -176 Q85 -174 81.5 -171 Q78 -168 74 -165 Q67 -159 60.5 -152.5 Q54 -146 50 -138 L47 -133 Q45 -129 42 -124 Q39 -119 37 -114 Q37 -112 36 -110 Q35 -108 35 -105 Q29 -92 31 -79 Q30 -70 34 -63 Q35 -54 40 -48 Q44 -41 51 -36 Q56 -31 62 -28 Q62 0 62.5 28 Q63 56 64 84 Q65 127 66 169 Q67 211 69 254 Q70 293 72 331 Q74 369 75 408 Q77 446 79 484.5 Q81 523 83 561 Q84 580 85.5 599 Q87 618 88 638 Q89 646 89.5 655 Q90 664 90 673 Q91 680 91.5 687 Q92 694 93 702 Q93 721 90 737 Q87 746 84 753 L85 752 L83 754 Q82 756 82 757 Q80 759 78 762 L79 761 L78 762 L77 762 Q77 763 75 764 Q73 767 70 770 Q69 770 68 771 Q67 772 66 772 L65 773 Q64 774 63 774.5 Q62 775 61 776 Q59 777 54 779 L51 780 Q47 782 44 782 L43 783 L41 783 Q39 783 34.5 783.5 Q30 784 35 783 Q38 783 36.5 783 Q35 783 34 783 Q31 783 27 783 Q23 782 23 782 L21 782 L19 781 Q7 774 -3 785 Q-13 796 -4 808 Q1 815 9 822 Q28 834 51.5 831 Q75 828 95 817 Q119 804 135 783 Q151 762 161 738 Q166 724 169 710.5 Q172 697 175 683 Z " />
<glyph glyph-name="asciicircum" unicode="&#x5e;" horiz-adv-x="225" d="M129 574 L122 583 Q118 590 116 598 Q115 601 114.5 604 Q114 607 113 610 L109 632 Q107 643 103.5 653 Q100 663 97 673 Q86 644 76 614 Q72 602 62 596 Q52 590 39 593 Q27 596 21.5 607 Q16 618 19 630 Q28 671 39 709 Q44 728 51 748 Q53 755 55 761.5 Q57 768 60 774 Q62 779 64.5 783 Q67 787 69 792 Q71 797 76 800.5 Q81 804 86 806 Q94 810 104 809 Q125 806 132 784 Q135 776 137.5 768 Q140 760 143 752 Q145 745 148.5 737.5 Q152 730 155 723 Q160 710 165.5 697 Q171 684 176 671 Q179 665 182.5 659 Q186 653 190 647 Q191 643 193 640 Q195 637 197 634 Q199 630 200.5 627 Q202 624 203 620 Q206 608 203 592 Q201 582 194 575 Q187 568 178 564 Q169 560 158 560 Q147 560 139 566 L129 574 Z " />
<glyph glyph-name="underscore" unicode="&#x5f;" horiz-adv-x="404" d="M360 -81 Q365 -93 364 -106 Q361 -123 350 -134 Q348 -136 345.5 -138 Q343 -140 340 -142 Q337 -143 334 -144.5 Q331 -146 328 -147 Q324 -148 319 -149 Q314 -150 309 -150 Q305 -150 300.5 -149.5 Q296 -149 292 -148 Q266 -145 241 -144 Q226 -144 211 -143.5 Q196 -143 181 -144 Q166 -144 151 -145 Q143 -146 136 -146.5 Q129 -147 121 -147 Q106 -147 92 -148 Q86 -149 79 -149 Q71 -150 65.5 -148 Q60 -146 53 -143 Q43 -139 40.5 -126.5 Q38 -114 43 -106 Q52 -93 61 -88 Q69 -84 74 -82 Q82 -78 90.5 -74.5 Q99 -71 107 -67 Q119 -62 131.5 -59.5 Q144 -57 156 -54 Q184 -49 217 -46 Q230 -44 243 -44 Q256 -44 269 -45 Q282 -45 294 -46 Q302 -47 308 -47 Q311 -48 315 -48 Q319 -48 322 -49 Q325 -50 328.5 -51.5 Q332 -53 335 -55 Q337 -56 340 -57 Q347 -61 352 -67.5 Q357 -74 360 -81 Z " />
<glyph glyph-name="grave" unicode="&#x60;" horiz-adv-x="175" d="M145 728 Q150 723 153 718 Q156 713 158 707 Q161 698 157.5 689 Q154 680 147 675 Q132 663 113 672 Q106 676 100.5 682 Q95 688 89 694 Q85 699 81 704 Q77 709 72 714 Q62 725 53.5 736.5 Q45 748 36 760 Q30 768 33 779 Q36 790 43 796 Q52 802 62 801 Q72 800 80 793 Q85 789 90 784.5 Q95 780 100 776 Q105 771 109.5 766.5 Q114 762 118 757 Q123 752 127 747.5 Q131 743 136 738 Q138 736 140.5 733.5 Q143 731 145 728 Z " />
<glyph glyph-name="a" unicode="a" horiz-adv-x="374" d="M344 28 Q351 17 352 4 Q353 -9 350 -22 Q347 -34 339 -44 Q331 -54 320 -60 Q310 -67 296 -68.5 Q282 -70 271 -67 Q245 -60 232 -37 Q219 -15 211 12 Q208 24 206 37 Q204 50 202 63 Q200 80 200 97.5 Q200 115 200 133 Q200 141 200 148.5 Q200 156 200 164 Q198 161 193 154 Q179 136 162.5 121.5 Q146 107 124 99 Q98 90 71.5 97.5 Q45 105 27 124 Q10 143 1.5 166 Q-7 189 -7 214 Q-8 238 -1.5 260 Q5 282 14 303 Q23 323 34.5 340 Q46 357 59 373 Q72 389 89.5 402 Q107 415 127 421 Q138 424 150 425 Q162 426 173 421 Q185 417 192 412 Q202 404 205 391 Q206 386 203.5 380.5 Q201 375 195 374 L191 373 Q187 371 182 371 Q180 371 178.5 371 Q177 371 175 371 L174 371 Q173 370 171.5 370 Q170 370 169 369 Q165 368 161 368 Q158 367 155.5 366.5 Q153 366 150 365 L150 365 Q148 364 147 363.5 Q146 363 145 362 Q142 361 139 359 L138 358 Q136 356 133.5 354 Q131 352 129 350 Q126 347 123 343 Q114 331 107.5 319 Q101 307 95 294 L97 297 Q95 293 93 288.5 Q91 284 89 280 Q80 258 77 238 Q76 226 76 214 Q78 206 81 198 Q83 194 86 190 Q88 188 90 186 L92 184 L92 184 Q94 186 96 187 Q103 193 110 201 Q117 210 123 219.5 Q129 229 135 239 Q142 250 149 261.5 Q156 273 163 285 Q189 329 210 377 Q220 402 228 426 Q234 443 248 452.5 Q262 462 280 460 Q295 458 307 447 Q313 441 317.5 431.5 Q322 422 321 414 Q319 395 317 374 Q316 364 316 355 Q316 346 316 336 Q316 267 321 199 Q322 182 322.5 165 Q323 148 323 131 Q324 118 324.5 105 Q325 92 326 78 Q330 58 336 42 Q339 35 344 28 Z " />
<glyph glyph-name="&amp;#xe0;" unicode="&#xe0;" horiz-adv-x="374" d="M344 28 Q351 17 352 4 Q353 -9 350 -22 Q347 -34 339 -44 Q331 -54 320 -60 Q310 -67 296 -68.5 Q282 -70 271 -67 Q245 -60 232 -37 Q219 -15 211 12 Q208 24 206 37 Q204 50 202 63 Q200 80 200 97.5 Q200 115 200 133 Q200 141 200 148.5 Q200 156 200 164 Q198 161 193 154 Q179 136 162.5 121.5 Q146 107 124 99 Q98 90 71.5 97.5 Q45 105 27 124 Q10 143 1.5 166 Q-7 189 -7 214 Q-8 238 -1.5 260 Q5 282 14 303 Q23 323 34.5 340 Q46 357 59 373 Q72 389 89.5 402 Q107 415 127 421 Q138 424 150 425 Q162 426 173 421 Q185 417 192 412 Q202 404 205 391 Q206 386 203.5 380.5 Q201 375 195 374 L191 373 Q187 371 182 371 Q180 371 178.5 371 Q177 371 175 371 L174 371 Q173 370 171.5 370 Q170 370 169 369 Q165 368 161 368 Q158 367 155.5 366.5 Q153 366 150 365 L150 365 Q148 364 147 363.5 Q146 363 145 362 Q142 361 139 359 L138 358 Q136 356 133.5 354 Q131 352 129 350 Q126 347 123 343 Q114 331 107.5 319 Q101 307 95 294 L97 297 Q95 293 93 288.5 Q91 284 89 280 Q80 258 77 238 Q76 226 76 214 Q78 206 81 198 Q83 194 86 190 Q88 188 90 186 L92 184 L92 184 Q94 186 96 187 Q103 193 110 201 Q117 210 123 219.5 Q129 229 135 239 Q142 250 149 261.5 Q156 273 163 285 Q189 329 210 377 Q220 402 228 426 Q234 443 248 452.5 Q262 462 280 460 Q295 458 307 447 Q313 441 317.5 431.5 Q322 422 321 414 Q319 395 317 374 Q316 364 316 355 Q316 346 316 336 Q316 267 321 199 Q322 182 322.5 165 Q323 148 323 131 Q324 118 324.5 105 Q325 92 326 78 Q330 58 336 42 Q339 35 344 28 Z " />
<glyph glyph-name="&amp;#xe1;" unicode="&#xe1;" horiz-adv-x="374" d="M344 28 Q351 17 352 4 Q353 -9 350 -22 Q347 -34 339 -44 Q331 -54 320 -60 Q310 -67 296 -68.5 Q282 -70 271 -67 Q245 -60 232 -37 Q219 -15 211 12 Q208 24 206 37 Q204 50 202 63 Q200 80 200 97.5 Q200 115 200 133 Q200 141 200 148.5 Q200 156 200 164 Q198 161 193 154 Q179 136 162.5 121.5 Q146 107 124 99 Q98 90 71.5 97.5 Q45 105 27 124 Q10 143 1.5 166 Q-7 189 -7 214 Q-8 238 -1.5 260 Q5 282 14 303 Q23 323 34.5 340 Q46 357 59 373 Q72 389 89.5 402 Q107 415 127 421 Q138 424 150 425 Q162 426 173 421 Q185 417 192 412 Q202 404 205 391 Q206 386 203.5 380.5 Q201 375 195 374 L191 373 Q187 371 182 371 Q180 371 178.5 371 Q177 371 175 371 L174 371 Q173 370 171.5 370 Q170 370 169 369 Q165 368 161 368 Q158 367 155.5 366.5 Q153 366 150 365 L150 365 Q148 364 147 363.5 Q146 363 145 362 Q142 361 139 359 L138 358 Q136 356 133.5 354 Q131 352 129 350 Q126 347 123 343 Q114 331 107.5 319 Q101 307 95 294 L97 297 Q95 293 93 288.5 Q91 284 89 280 Q80 258 77 238 Q76 226 76 214 Q78 206 81 198 Q83 194 86 190 Q88 188 90 186 L92 184 L92 184 Q94 186 96 187 Q103 193 110 201 Q117 210 123 219.5 Q129 229 135 239 Q142 250 149 261.5 Q156 273 163 285 Q189 329 210 377 Q220 402 228 426 Q234 443 248 452.5 Q262 462 280 460 Q295 458 307 447 Q313 441 317.5 431.5 Q322 422 321 414 Q319 395 317 374 Q316 364 316 355 Q316 346 316 336 Q316 267 321 199 Q322 182 322.5 165 Q323 148 323 131 Q324 118 324.5 105 Q325 92 326 78 Q330 58 336 42 Q339 35 344 28 Z " />
<glyph glyph-name="&amp;#xe2;" unicode="&#xe2;" horiz-adv-x="374" d="M344 28 Q351 17 352 4 Q353 -9 350 -22 Q347 -34 339 -44 Q331 -54 320 -60 Q310 -67 296 -68.5 Q282 -70 271 -67 Q245 -60 232 -37 Q219 -15 211 12 Q208 24 206 37 Q204 50 202 63 Q200 80 200 97.5 Q200 115 200 133 Q200 141 200 148.5 Q200 156 200 164 Q198 161 193 154 Q179 136 162.5 121.5 Q146 107 124 99 Q98 90 71.5 97.5 Q45 105 27 124 Q10 143 1.5 166 Q-7 189 -7 214 Q-8 238 -1.5 260 Q5 282 14 303 Q23 323 34.5 340 Q46 357 59 373 Q72 389 89.5 402 Q107 415 127 421 Q138 424 150 425 Q162 426 173 421 Q185 417 192 412 Q202 404 205 391 Q206 386 203.5 380.5 Q201 375 195 374 L191 373 Q187 371 182 371 Q180 371 178.5 371 Q177 371 175 371 L174 371 Q173 370 171.5 370 Q170 370 169 369 Q165 368 161 368 Q158 367 155.5 366.5 Q153 366 150 365 L150 365 Q148 364 147 363.5 Q146 363 145 362 Q142 361 139 359 L138 358 Q136 356 133.5 354 Q131 352 129 350 Q126 347 123 343 Q114 331 107.5 319 Q101 307 95 294 L97 297 Q95 293 93 288.5 Q91 284 89 280 Q80 258 77 238 Q76 226 76 214 Q78 206 81 198 Q83 194 86 190 Q88 188 90 186 L92 184 L92 184 Q94 186 96 187 Q103 193 110 201 Q117 210 123 219.5 Q129 229 135 239 Q142 250 149 261.5 Q156 273 163 285 Q189 329 210 377 Q220 402 228 426 Q234 443 248 452.5 Q262 462 280 460 Q295 458 307 447 Q313 441 317.5 431.5 Q322 422 321 414 Q319 395 317 374 Q316 364 316 355 Q316 346 316 336 Q316 267 321 199 Q322 182 322.5 165 Q323 148 323 131 Q324 118 324.5 105 Q325 92 326 78 Q330 58 336 42 Q339 35 344 28 Z " />
<glyph glyph-name="&amp;#xe3;" unicode="&#xe3;" horiz-adv-x="374" d="M344 28 Q351 17 352 4 Q353 -9 350 -22 Q347 -34 339 -44 Q331 -54 320 -60 Q310 -67 296 -68.5 Q282 -70 271 -67 Q245 -60 232 -37 Q219 -15 211 12 Q208 24 206 37 Q204 50 202 63 Q200 80 200 97.5 Q200 115 200 133 Q200 141 200 148.5 Q200 156 200 164 Q198 161 193 154 Q179 136 162.5 121.5 Q146 107 124 99 Q98 90 71.5 97.5 Q45 105 27 124 Q10 143 1.5 166 Q-7 189 -7 214 Q-8 238 -1.5 260 Q5 282 14 303 Q23 323 34.5 340 Q46 357 59 373 Q72 389 89.5 402 Q107 415 127 421 Q138 424 150 425 Q162 426 173 421 Q185 417 192 412 Q202 404 205 391 Q206 386 203.5 380.5 Q201 375 195 374 L191 373 Q187 371 182 371 Q180 371 178.5 371 Q177 371 175 371 L174 371 Q173 370 171.5 370 Q170 370 169 369 Q165 368 161 368 Q158 367 155.5 366.5 Q153 366 150 365 L150 365 Q148 364 147 363.5 Q146 363 145 362 Q142 361 139 359 L138 358 Q136 356 133.5 354 Q131 352 129 350 Q126 347 123 343 Q114 331 107.5 319 Q101 307 95 294 L97 297 Q95 293 93 288.5 Q91 284 89 280 Q80 258 77 238 Q76 226 76 214 Q78 206 81 198 Q83 194 86 190 Q88 188 90 186 L92 184 L92 184 Q94 186 96 187 Q103 193 110 201 Q117 210 123 219.5 Q129 229 135 239 Q142 250 149 261.5 Q156 273 163 285 Q189 329 210 377 Q220 402 228 426 Q234 443 248 452.5 Q262 462 280 460 Q295 458 307 447 Q313 441 317.5 431.5 Q322 422 321 414 Q319 395 317 374 Q316 364 316 355 Q316 346 316 336 Q316 267 321 199 Q322 182 322.5 165 Q323 148 323 131 Q324 118 324.5 105 Q325 92 326 78 Q330 58 336 42 Q339 35 344 28 Z " />
<glyph glyph-name="&amp;#xe4;" unicode="&#xe4;" horiz-adv-x="374" d="M344 28 Q351 17 352 4 Q353 -9 350 -22 Q347 -34 339 -44 Q331 -54 320 -60 Q310 -67 296 -68.5 Q282 -70 271 -67 Q245 -60 232 -37 Q219 -15 211 12 Q208 24 206 37 Q204 50 202 63 Q200 80 200 97.5 Q200 115 200 133 Q200 141 200 148.5 Q200 156 200 164 Q198 161 193 154 Q179 136 162.5 121.5 Q146 107 124 99 Q98 90 71.5 97.5 Q45 105 27 124 Q10 143 1.5 166 Q-7 189 -7 214 Q-8 238 -1.5 260 Q5 282 14 303 Q23 323 34.5 340 Q46 357 59 373 Q72 389 89.5 402 Q107 415 127 421 Q138 424 150 425 Q162 426 173 421 Q185 417 192 412 Q202 404 205 391 Q206 386 203.5 380.5 Q201 375 195 374 L191 373 Q187 371 182 371 Q180 371 178.5 371 Q177 371 175 371 L174 371 Q173 370 171.5 370 Q170 370 169 369 Q165 368 161 368 Q158 367 155.5 366.5 Q153 366 150 365 L150 365 Q148 364 147 363.5 Q146 363 145 362 Q142 361 139 359 L138 358 Q136 356 133.5 354 Q131 352 129 350 Q126 347 123 343 Q114 331 107.5 319 Q101 307 95 294 L97 297 Q95 293 93 288.5 Q91 284 89 280 Q80 258 77 238 Q76 226 76 214 Q78 206 81 198 Q83 194 86 190 Q88 188 90 186 L92 184 L92 184 Q94 186 96 187 Q103 193 110 201 Q117 210 123 219.5 Q129 229 135 239 Q142 250 149 261.5 Q156 273 163 285 Q189 329 210 377 Q220 402 228 426 Q234 443 248 452.5 Q262 462 280 460 Q295 458 307 447 Q313 441 317.5 431.5 Q322 422 321 414 Q319 395 317 374 Q316 364 316 355 Q316 346 316 336 Q316 267 321 199 Q322 182 322.5 165 Q323 148 323 131 Q324 118 324.5 105 Q325 92 326 78 Q330 58 336 42 Q339 35 344 28 Z " />
<glyph glyph-name="&amp;#xe5;" unicode="&#xe5;" horiz-adv-x="374" d="M344 28 Q351 17 352 4 Q353 -9 350 -22 Q347 -34 339 -44 Q331 -54 320 -60 Q310 -67 296 -68.5 Q282 -70 271 -67 Q245 -60 232 -37 Q219 -15 211 12 Q208 24 206 37 Q204 50 202 63 Q200 80 200 97.5 Q200 115 200 133 Q200 141 200 148.5 Q200 156 200 164 Q198 161 193 154 Q179 136 162.5 121.5 Q146 107 124 99 Q98 90 71.5 97.5 Q45 105 27 124 Q10 143 1.5 166 Q-7 189 -7 214 Q-8 238 -1.5 260 Q5 282 14 303 Q23 323 34.5 340 Q46 357 59 373 Q72 389 89.5 402 Q107 415 127 421 Q138 424 150 425 Q162 426 173 421 Q185 417 192 412 Q202 404 205 391 Q206 386 203.5 380.5 Q201 375 195 374 L191 373 Q187 371 182 371 Q180 371 178.5 371 Q177 371 175 371 L174 371 Q173 370 171.5 370 Q170 370 169 369 Q165 368 161 368 Q158 367 155.5 366.5 Q153 366 150 365 L150 365 Q148 364 147 363.5 Q146 363 145 362 Q142 361 139 359 L138 358 Q136 356 133.5 354 Q131 352 129 350 Q126 347 123 343 Q114 331 107.5 319 Q101 307 95 294 L97 297 Q95 293 93 288.5 Q91 284 89 280 Q80 258 77 238 Q76 226 76 214 Q78 206 81 198 Q83 194 86 190 Q88 188 90 186 L92 184 L92 184 Q94 186 96 187 Q103 193 110 201 Q117 210 123 219.5 Q129 229 135 239 Q142 250 149 261.5 Q156 273 163 285 Q189 329 210 377 Q220 402 228 426 Q234 443 248 452.5 Q262 462 280 460 Q295 458 307 447 Q313 441 317.5 431.5 Q322 422 321 414 Q319 395 317 374 Q316 364 316 355 Q316 346 316 336 Q316 267 321 199 Q322 182 322.5 165 Q323 148 323 131 Q324 118 324.5 105 Q325 92 326 78 Q330 58 336 42 Q339 35 344 28 Z " />
<glyph glyph-name="b" unicode="b" horiz-adv-x="427" d="M394 362 Q396 351 395.5 341 Q395 331 393 321 Q393 314 391.5 308 Q390 302 388 296 Q381 272 373 249 Q353 196 327 151 Q313 127 297 105 Q281 83 263 62 Q248 43 230 26 Q219 15 207 5.5 Q195 -4 183 -14 Q175 -20 163 -21 Q163 -31 164 -42 Q166 -53 167 -64 Q168 -75 169 -86 Q169 -100 163 -113 Q157 -126 148 -136 Q138 -147 124.5 -151.5 Q111 -156 97 -157 Q83 -158 70 -151 Q57 -147 47 -136 Q36 -126 32 -113 Q25 -100 26 -86 Q22 -43 20 0 Q19 19 18.5 38.5 Q18 58 18 77 Q19 115 22 153 Q25 193 29 231.5 Q33 270 39 310 Q41 324 44 338.5 Q47 353 50 368 Q54 391 60 417 Q70 461 82.5 503.5 Q95 546 108 589 Q121 633 136 673 Q144 695 151 715 Q156 727 161 737.5 Q166 748 171 759 Q172 761 173 763 L178 769 L176 767 L177 768 L183 777 Q193 791 209 787 Q216 786 221.5 779 Q227 772 226 765 Q226 760 225 750 L225 752 Q225 746 224 738 Q223 737 222 731 L219 717 Q216 702 212 690 Q199 640 188 589 Q183 565 179 541 Q175 517 171 492 Q163 431 159 371 Q159 361 158 352 L160 354 Q178 373 200 388.5 Q222 404 247 413 Q259 418 271 421 Q283 424 296 425 Q328 428 355 415 Q370 408 380.5 393 Q391 378 394 362 Z M327 344 Q327 347 327 350 L327 350 L327 351 L325 351 L321 352 Q316 353 311 352 Q304 351 297 348 Q283 342 268 330 Q265 328 262.5 326 Q260 324 257 322 L259 324 Q248 314 237.5 304 Q227 294 218 282 Q207 267 198 251.5 Q189 236 182 219 Q178 208 174 197.5 Q170 187 168 176 Q162 154 158 127 Q157 119 156.5 110 Q156 101 156 92 Q180 113 202 135 Q224 157 244 182 Q286 239 314 303 Q318 313 321.5 323 Q325 333 327 344 Z M296 425 L296 425 L296 425 L296 425 Z " />
<glyph glyph-name="c" unicode="c" horiz-adv-x="359" d="M328 159 Q340 149 343 134.5 Q346 120 338 106 Q333 95 327 85 Q320 74 313 63 Q306 52 298 41 Q290 31 281 21.5 Q272 12 262 3 Q241 -16 218 -32 Q195 -48 167 -57 Q135 -67 101 -59 Q95 -57 90 -55 Q85 -53 79 -51 Q74 -48 71 -46 Q56 -37 47 -26 Q27 -4 16 28 Q12 40 10 53 Q8 66 7 78 Q1 129 4 179.5 Q7 230 17 280 Q26 330 43 377.5 Q60 425 83 471 Q89 482 96 493 Q103 504 112 513 Q139 539 174 541 Q188 541 201 537 Q219 531 231 518 Q239 510 245 501 Q251 492 255 481 Q257 477 258 474 L259 473 L258 474 Q259 470 260 464 Q262 445 262 430 Q261 415 248 409 Q241 407 234 408 Q227 409 222 414 Q213 424 204 431 Q199 435 197 438 Q195 439 193 442 Q191 444 188 446 Q186 447 184 449 Q176 438 170 425.5 Q164 413 159 400 Q127 324 115 241 Q110 203 109.5 164.5 Q109 126 114 88 Q116 71 121 58 Q123 54 125 51 L127 49 L127 49 L128 49 Q132 49 135 49 Q143 51 150 53 Q166 61 184 74 Q195 83 205.5 93 Q216 103 228 112 Q252 132 274 155 Q285 167 300.5 167.5 Q316 168 328 159 Z " />
<glyph glyph-name="&amp;#xe7;" unicode="&#xe7;" horiz-adv-x="359" d="M328 159 Q340 149 343 134.5 Q346 120 338 106 Q333 95 327 85 Q320 74 313 63 Q306 52 298 41 Q290 31 281 21.5 Q272 12 262 3 Q241 -16 218 -32 Q195 -48 167 -57 Q135 -67 101 -59 Q95 -57 90 -55 Q85 -53 79 -51 Q74 -48 71 -46 Q56 -37 47 -26 Q27 -4 16 28 Q12 40 10 53 Q8 66 7 78 Q1 129 4 179.5 Q7 230 17 280 Q26 330 43 377.5 Q60 425 83 471 Q89 482 96 493 Q103 504 112 513 Q139 539 174 541 Q188 541 201 537 Q219 531 231 518 Q239 510 245 501 Q251 492 255 481 Q257 477 258 474 L259 473 L258 474 Q259 470 260 464 Q262 445 262 430 Q261 415 248 409 Q241 407 234 408 Q227 409 222 414 Q213 424 204 431 Q199 435 197 438 Q195 439 193 442 Q191 444 188 446 Q186 447 184 449 Q176 438 170 425.5 Q164 413 159 400 Q127 324 115 241 Q110 203 109.5 164.5 Q109 126 114 88 Q116 71 121 58 Q123 54 125 51 L127 49 L127 49 L128 49 Q132 49 135 49 Q143 51 150 53 Q166 61 184 74 Q195 83 205.5 93 Q216 103 228 112 Q252 132 274 155 Q285 167 300.5 167.5 Q316 168 328 159 Z " />
<glyph glyph-name="d" unicode="d" horiz-adv-x="438" d="M445 -50 Q449 -59 449 -71 Q450 -81 445.5 -90 Q441 -99 434 -107 Q428 -114 418 -118 Q408 -122 398 -122 Q392 -122 385 -120 L380 -119 Q378 -118 375 -117 L369 -115 Q361 -112 353 -108 Q345 -104 339 -97 L342 -100 Q320 -82 308 -57 Q296 -34 288 -9 Q281 13 277.5 36 Q274 59 271 83 Q269 111 269 139.5 Q269 168 271 196 Q259 167 246.5 139 Q234 111 218 84 Q209 67 198.5 49.5 Q188 32 174.5 17 Q161 2 144.5 -7.5 Q128 -17 106 -18 Q101 -18 96 -17.5 Q91 -17 87 -16 Q84 -15 82 -15 Q77 -13 71.5 -10.5 Q66 -8 62 -5 Q41 9 32 27 Q24 42 20.5 58.5 Q17 75 16 93 Q15 127 16.5 160.5 Q18 194 22 228 Q25 262 31.5 296.5 Q38 331 58 360 Q78 390 106 407 Q121 416 138 421 Q143 423 150 424 Q161 426 165 426 Q169 426 173 426 Q204 423 228 405 Q237 437 245.5 469 Q254 501 263 533 Q271 562 278.5 590.5 Q286 619 294 648 Q298 663 301.5 677.5 Q305 692 310 706 Q314 721 319.5 734.5 Q325 748 330 762 Q337 781 352 790 Q360 795 369.5 796 Q379 797 388 795 Q396 793 404 787 Q412 781 416 773 Q425 759 421 737 L420 734 Q419 721 417 707.5 Q415 694 413 680 Q411 664 409 647.5 Q407 631 404 615 Q402 586 400.5 558 Q399 530 397 502 Q394 451 390.5 401 Q387 351 384 300 Q381 252 380 204.5 Q379 157 385 109 Q388 88 393 67.5 Q398 47 405 27 Q411 15 417 5 Q421 -2 425.5 -8.5 Q430 -15 434 -22 Q437 -26 438 -32 Q440 -35 441 -37 Q442 -39 442 -41 Q443 -46 444 -47 L445 -50 Z M203 323 Q204 326 205 328 Q206 330 206 333 Q203 335 201 337 Q200 338 199.5 338.5 Q199 339 199 340 L196 342 Q192 344 188 346 Q184 348 180 349 Q177 349 173 349 L170 348 Q165 347 159 345 Q153 342 147 338 Q141 333 135 325 Q128 316 124 306 Q117 289 113 267 Q111 246 111 224.5 Q111 203 111 182 Q112 166 112.5 150 Q113 134 114 117 Q119 126 124 134.5 Q129 143 133 152 Q150 182 165 217 Q176 243 185.5 269.5 Q195 296 203 323 Z " />
<glyph glyph-name="e" unicode="e" horiz-adv-x="338" d="M313 145 Q319 136 320.5 125.5 Q322 115 320 105 Q320 93 313 83 L308 76 Q304 71 302 68 L301 67 L301 68 Q297 62 292 58 Q287 53 282 49 Q271 39 261 29 Q251 19 240 10 Q231 3 222.5 -3 Q214 -9 205 -14 Q196 -19 186 -23 Q176 -27 166 -29 Q117 -41 72 -18 Q56 -9 43 4.5 Q30 18 20 33 Q16 41 12 50 Q8 59 5 67 Q1 78 -1 90 Q-8 121 -8 154 Q-9 213 9 269 Q18 296 30.5 322 Q43 348 60 371 Q79 396 100.5 418.5 Q122 441 150 455 Q167 463 185 467 Q203 471 222 469 Q243 466 260.5 454.5 Q278 443 289 424 Q306 395 302 359 Q301 350 299.5 341 Q298 332 295 323 Q290 310 282 292 Q258 240 221 202 Q211 192 198.5 184 Q186 176 173 170 Q168 168 163.5 166 Q159 164 154 163 Q149 162 143 161 Q136 160 128.5 159.5 Q121 159 114 159 Q112 159 110 159 Q110 154 111 145 Q114 125 120 109 Q123 103 127 98 L129 95 L129 95 L131 95 Q136 96 142 98 Q149 102 157 108 Q164 113 170.5 119.5 Q177 126 184 132 Q188 136 192 139.5 Q196 143 200 147 L205 151 Q208 154 212 157.5 Q216 161 221 163 Q226 166 232 168 Q238 170 244 173 Q256 177 268 174 Q280 173 291 167 Q304 158 313 145 Z M111 212 L111 212 Q117 217 122 223 Q124 227 127.5 230 Q131 233 134 236 Q138 241 143 247 Q150 256 156 263 Q176 289 190 322 Q194 332 197.5 343 Q201 354 203 365 Q204 368 204 371 L199 369 Q193 366 187 362 Q176 353 163 337 Q144 311 130 280 Q117 247 111 212 Z " />
<glyph glyph-name="&amp;#xe8;" unicode="&#xe8;" horiz-adv-x="338" d="M313 145 Q319 136 320.5 125.5 Q322 115 320 105 Q320 93 313 83 L308 76 Q304 71 302 68 L301 67 L301 68 Q297 62 292 58 Q287 53 282 49 Q271 39 261 29 Q251 19 240 10 Q231 3 222.5 -3 Q214 -9 205 -14 Q196 -19 186 -23 Q176 -27 166 -29 Q117 -41 72 -18 Q56 -9 43 4.5 Q30 18 20 33 Q16 41 12 50 Q8 59 5 67 Q1 78 -1 90 Q-8 121 -8 154 Q-9 213 9 269 Q18 296 30.5 322 Q43 348 60 371 Q79 396 100.5 418.5 Q122 441 150 455 Q167 463 185 467 Q203 471 222 469 Q243 466 260.5 454.5 Q278 443 289 424 Q306 395 302 359 Q301 350 299.5 341 Q298 332 295 323 Q290 310 282 292 Q258 240 221 202 Q211 192 198.5 184 Q186 176 173 170 Q168 168 163.5 166 Q159 164 154 163 Q149 162 143 161 Q136 160 128.5 159.5 Q121 159 114 159 Q112 159 110 159 Q110 154 111 145 Q114 125 120 109 Q123 103 127 98 L129 95 L129 95 L131 95 Q136 96 142 98 Q149 102 157 108 Q164 113 170.5 119.5 Q177 126 184 132 Q188 136 192 139.5 Q196 143 200 147 L205 151 Q208 154 212 157.5 Q216 161 221 163 Q226 166 232 168 Q238 170 244 173 Q256 177 268 174 Q280 173 291 167 Q304 158 313 145 Z M111 212 L111 212 Q117 217 122 223 Q124 227 127.5 230 Q131 233 134 236 Q138 241 143 247 Q150 256 156 263 Q176 289 190 322 Q194 332 197.5 343 Q201 354 203 365 Q204 368 204 371 L199 369 Q193 366 187 362 Q176 353 163 337 Q144 311 130 280 Q117 247 111 212 Z " />
<glyph glyph-name="&amp;#xe9;" unicode="&#xe9;" horiz-adv-x="338" d="M313 145 Q319 136 320.5 125.5 Q322 115 320 105 Q320 93 313 83 L308 76 Q304 71 302 68 L301 67 L301 68 Q297 62 292 58 Q287 53 282 49 Q271 39 261 29 Q251 19 240 10 Q231 3 222.5 -3 Q214 -9 205 -14 Q196 -19 186 -23 Q176 -27 166 -29 Q117 -41 72 -18 Q56 -9 43 4.5 Q30 18 20 33 Q16 41 12 50 Q8 59 5 67 Q1 78 -1 90 Q-8 121 -8 154 Q-9 213 9 269 Q18 296 30.5 322 Q43 348 60 371 Q79 396 100.5 418.5 Q122 441 150 455 Q167 463 185 467 Q203 471 222 469 Q243 466 260.5 454.5 Q278 443 289 424 Q306 395 302 359 Q301 350 299.5 341 Q298 332 295 323 Q290 310 282 292 Q258 240 221 202 Q211 192 198.5 184 Q186 176 173 170 Q168 168 163.5 166 Q159 164 154 163 Q149 162 143 161 Q136 160 128.5 159.5 Q121 159 114 159 Q112 159 110 159 Q110 154 111 145 Q114 125 120 109 Q123 103 127 98 L129 95 L129 95 L131 95 Q136 96 142 98 Q149 102 157 108 Q164 113 170.5 119.5 Q177 126 184 132 Q188 136 192 139.5 Q196 143 200 147 L205 151 Q208 154 212 157.5 Q216 161 221 163 Q226 166 232 168 Q238 170 244 173 Q256 177 268 174 Q280 173 291 167 Q304 158 313 145 Z M111 212 L111 212 Q117 217 122 223 Q124 227 127.5 230 Q131 233 134 236 Q138 241 143 247 Q150 256 156 263 Q176 289 190 322 Q194 332 197.5 343 Q201 354 203 365 Q204 368 204 371 L199 369 Q193 366 187 362 Q176 353 163 337 Q144 311 130 280 Q117 247 111 212 Z " />
<glyph glyph-name="&amp;#xea;" unicode="&#xea;" horiz-adv-x="338" d="M313 145 Q319 136 320.5 125.5 Q322 115 320 105 Q320 93 313 83 L308 76 Q304 71 302 68 L301 67 L301 68 Q297 62 292 58 Q287 53 282 49 Q271 39 261 29 Q251 19 240 10 Q231 3 222.5 -3 Q214 -9 205 -14 Q196 -19 186 -23 Q176 -27 166 -29 Q117 -41 72 -18 Q56 -9 43 4.5 Q30 18 20 33 Q16 41 12 50 Q8 59 5 67 Q1 78 -1 90 Q-8 121 -8 154 Q-9 213 9 269 Q18 296 30.5 322 Q43 348 60 371 Q79 396 100.5 418.5 Q122 441 150 455 Q167 463 185 467 Q203 471 222 469 Q243 466 260.5 454.5 Q278 443 289 424 Q306 395 302 359 Q301 350 299.5 341 Q298 332 295 323 Q290 310 282 292 Q258 240 221 202 Q211 192 198.5 184 Q186 176 173 170 Q168 168 163.5 166 Q159 164 154 163 Q149 162 143 161 Q136 160 128.5 159.5 Q121 159 114 159 Q112 159 110 159 Q110 154 111 145 Q114 125 120 109 Q123 103 127 98 L129 95 L129 95 L131 95 Q136 96 142 98 Q149 102 157 108 Q164 113 170.5 119.5 Q177 126 184 132 Q188 136 192 139.5 Q196 143 200 147 L205 151 Q208 154 212 157.5 Q216 161 221 163 Q226 166 232 168 Q238 170 244 173 Q256 177 268 174 Q280 173 291 167 Q304 158 313 145 Z M111 212 L111 212 Q117 217 122 223 Q124 227 127.5 230 Q131 233 134 236 Q138 241 143 247 Q150 256 156 263 Q176 289 190 322 Q194 332 197.5 343 Q201 354 203 365 Q204 368 204 371 L199 369 Q193 366 187 362 Q176 353 163 337 Q144 311 130 280 Q117 247 111 212 Z " />
<glyph glyph-name="&amp;#xeb;" unicode="&#xeb;" horiz-adv-x="338" d="M313 145 Q319 136 320.5 125.5 Q322 115 320 105 Q320 93 313 83 L308 76 Q304 71 302 68 L301 67 L301 68 Q297 62 292 58 Q287 53 282 49 Q271 39 261 29 Q251 19 240 10 Q231 3 222.5 -3 Q214 -9 205 -14 Q196 -19 186 -23 Q176 -27 166 -29 Q117 -41 72 -18 Q56 -9 43 4.5 Q30 18 20 33 Q16 41 12 50 Q8 59 5 67 Q1 78 -1 90 Q-8 121 -8 154 Q-9 213 9 269 Q18 296 30.5 322 Q43 348 60 371 Q79 396 100.5 418.5 Q122 441 150 455 Q167 463 185 467 Q203 471 222 469 Q243 466 260.5 454.5 Q278 443 289 424 Q306 395 302 359 Q301 350 299.5 341 Q298 332 295 323 Q290 310 282 292 Q258 240 221 202 Q211 192 198.5 184 Q186 176 173 170 Q168 168 163.5 166 Q159 164 154 163 Q149 162 143 161 Q136 160 128.5 159.5 Q121 159 114 159 Q112 159 110 159 Q110 154 111 145 Q114 125 120 109 Q123 103 127 98 L129 95 L129 95 L131 95 Q136 96 142 98 Q149 102 157 108 Q164 113 170.5 119.5 Q177 126 184 132 Q188 136 192 139.5 Q196 143 200 147 L205 151 Q208 154 212 157.5 Q216 161 221 163 Q226 166 232 168 Q238 170 244 173 Q256 177 268 174 Q280 173 291 167 Q304 158 313 145 Z M111 212 L111 212 Q117 217 122 223 Q124 227 127.5 230 Q131 233 134 236 Q138 241 143 247 Q150 256 156 263 Q176 289 190 322 Q194 332 197.5 343 Q201 354 203 365 Q204 368 204 371 L199 369 Q193 366 187 362 Q176 353 163 337 Q144 311 130 280 Q117 247 111 212 Z " />
<glyph glyph-name="f" unicode="f" horiz-adv-x="308" d="M308 718 Q319 708 313 693 Q310 688 303 684.5 Q296 681 290 684 Q286 685 283 686 L281 686 Q275 686 271 686 L269 686 Q262 685 255 682 Q249 679 245 676 Q239 671 234 664 Q225 651 217 631 Q211 614 206 594 Q195 557 188.5 518.5 Q182 480 179 441 L179 446 Q178 436 177 426.5 Q176 417 175 407 Q175 406 175 404 Q175 402 175 400 Q184 403 194 406.5 Q204 410 213 413 Q220 415 227 417 Q234 419 241 422 L256 426 Q258 427 259.5 427.5 Q261 428 263 428 Q269 430 275.5 430 Q282 430 289 428 Q299 426 307.5 418 Q316 410 319 400 Q327 377 311 361 Q301 351 288 347 Q283 346 281 345 Q277 344 272.5 343 Q268 342 264 341 Q256 338 248.5 336 Q241 334 233 331 Q218 327 204 323 Q190 319 176 315 L172 314 Q172 297 173 280 Q174 251 176 219 Q177 203 177.5 187.5 Q178 172 179 157 Q180 125 182 94.5 Q184 64 187 32 Q189 1 191 -30 Q193 -61 195 -92 Q196 -108 196.5 -123 Q197 -138 198 -153 Q199 -171 199 -184 Q200 -209 196 -232 Q193 -245 185 -255 Q180 -263 173 -268 Q167 -274 158 -276 Q150 -281 141 -281 Q127 -284 114 -280 Q109 -278 105 -276.5 Q101 -275 97 -273 Q93 -270 89.5 -267.5 Q86 -265 82 -262 L71 -248 L67 -243 Q55 -223 57 -201 Q56 -195 56 -190 Q54 -138 51 -86.5 Q48 -35 46 18 Q44 44 43 69.5 Q42 95 42 121 Q41 147 40.5 173 Q40 199 41 225 Q42 256 44 284 Q33 282 25 281 Q21 281 17.5 280.5 Q14 280 10 280 Q6 280 1 279.5 Q-4 279 -8 281 Q-18 284 -23 293.5 Q-28 303 -23 312 Q-17 320 -8 325.5 Q1 331 9 336 Q18 341 27.5 344.5 Q37 348 46 352 L51 354 Q56 399 64 440 Q69 465 75.5 489 Q82 513 91 536 Q100 562 110.5 587 Q121 612 134 636 Q146 660 161.5 683 Q177 706 200 721 Q223 737 253 739 Q284 740 308 718 Z " />
<glyph glyph-name="g" unicode="g" horiz-adv-x="443" d="M41 -311 L39 -311 Q39 -312 38.5 -312 Q38 -312 38 -312 Q38 -312 39 -311.5 Q40 -311 41 -311 Z M418 559 Q422 555 424.5 549 Q427 543 427 538 Q422 494 418 450.5 Q414 407 411 363 Q407 292 402.5 221 Q398 150 388 78 Q383 45 376 16 Q373 1 368 -13.5 Q363 -28 357 -43 Q350 -61 342.5 -78.5 Q335 -96 326 -113 Q314 -134 300 -151 Q294 -157 289 -163 Q283 -169 273 -177 L280 -172 Q275 -177 269.5 -181.5 Q264 -186 259 -191 Q253 -195 247.5 -199.5 Q242 -204 237 -208 Q235 -209 233 -210.5 Q231 -212 229 -214 Q221 -220 213.5 -225.5 Q206 -231 199 -236 Q192 -241 185 -245.5 Q178 -250 170 -254 Q161 -260 150.5 -265.5 Q140 -271 130 -274 Q121 -276 114 -278 Q111 -279 108 -280 Q105 -281 102 -281 Q95 -285 88 -288 Q81 -291 74 -295 Q65 -299 55.5 -303.5 Q46 -308 36 -313 Q24 -318 12 -314.5 Q0 -311 -7 -299 Q-15 -288 -11 -273.5 Q-7 -259 5 -253 Q20 -244 34.5 -234.5 Q49 -225 63 -216 Q66 -213 69 -210 Q72 -207 75 -205 Q78 -201 81 -197.5 Q84 -194 87 -191 Q97 -182 106.5 -174 Q116 -166 126 -158 Q123 -160 120.5 -162.5 Q118 -165 115 -167 Q120 -162 125.5 -157.5 Q131 -153 136 -148 Q140 -144 144 -140 Q148 -136 152 -132 Q155 -128 158 -124 Q161 -120 164 -115 Q168 -109 171 -103 Q173 -99 178 -93 Q181 -87 184 -80 Q188 -73 191 -66 Q195 -59 199 -52.5 Q203 -46 207 -39 Q220 -17 232 9 Q236 20 240 31 Q244 42 248 52 Q257 74 264 95.5 Q271 117 278 140 Q290 181 299.5 222 Q309 263 318 304 Q302 281 285 259 Q287 262 288.5 264 Q290 266 292 268 Q288 260 282.5 252.5 Q277 245 272 238 Q262 223 252 210 Q236 190 224 174 Q218 167 212 160 Q206 153 199 147 Q183 134 164.5 122 Q146 110 125 106 Q111 104 97.5 104 Q84 104 70 108 Q45 116 26 134 Q21 139 17 144 Q13 149 9 154 Q5 159 2 166 Q-2 174 -5.5 183.5 Q-9 193 -10 202 Q-12 214 -13 226 Q-14 238 -12 250 Q-11 262 -8.5 273 Q-6 284 -3 295 Q7 329 22 364 Q36 395 60 424 Q83 452 113 466 Q133 476 150 478 Q156 479 162.5 480 Q169 481 175 481 L181 481 Q191 481 200 477 Q220 470 239 455 L233 460 Q239 456 244.5 452 Q250 448 255 444 Q263 436 263 425 Q263 414 257 405 Q251 398 242 395 Q236 393 230.5 394.5 Q225 396 219 398 Q226 395 222.5 396.5 Q219 398 217 398 L215 399 L214 399 Q209 398 204 397 Q198 393 190 392 L192 392 Q185 390 177 387 Q163 381 151 373 Q143 366 135 357 Q124 340 115 320 Q108 303 102.5 285 Q97 267 94 248 Q93 238 94 228 Q94 224 96 220 Q97 217 99 215 L100 214 L103 214 Q106 215 109 216 Q119 221 130 228 Q134 231 138 234.5 Q142 238 146 241 Q143 239 140.5 237 Q138 235 135 232 Q151 245 165.5 258 Q180 271 195 285 Q209 298 223 312 Q228 318 233 324 Q238 330 243 336 Q259 358 274 380 Q302 420 325 463 Q337 484 347 507 Q353 518 358 529 Q360 534 364 540 Q366 542 367.5 544 Q369 546 370 548 Q374 558 382.5 563 Q391 568 401 567 Q411 565 418 559 Z M38 -312 L33 -314 Q34 -314 34.5 -313.5 Q35 -313 36 -313 Q36 -312 36.5 -312 Q37 -312 38 -312 Z " />
<glyph glyph-name="h" unicode="h" horiz-adv-x="474" d="M500 5 Q506 -7 505 -20 Q506 -24 505 -27 Q504 -37 500 -44 Q492 -62 477 -72 Q457 -83 435 -82 Q427 -82 419 -81 Q411 -80 404 -77 Q392 -74 385 -70.5 Q378 -67 368 -61 Q359 -56 352.5 -50.5 Q346 -45 338 -37 Q334 -32 330 -27 Q326 -22 323 -17 Q320 -12 317 -7 Q314 -2 311 3 Q308 10 305.5 17.5 Q303 25 300 33 Q297 43 296 48 Q294 60 293.5 71.5 Q293 83 292 95 Q291 112 291.5 128 Q292 144 294 160 Q296 174 298 193 Q300 202 301 212.5 Q302 223 305 232 Q307 242 308.5 251.5 Q310 261 312 271 Q314 282 315.5 293 Q317 304 317 316 Q316 330 314 344 Q312 358 308 372 Q306 376 305 379 L303 381 L303 381 L300 383 Q297 383 293 384 Q287 384 281 384 Q272 382 263 379 Q251 373 240 364 Q225 351 213 332 Q199 308 189.5 282 Q180 256 173 229 Q166 202 161 175 Q159 165 157.5 154.5 Q156 144 155 133 Q158 93 161 58 Q162 37 164.5 15.5 Q167 -6 168 -27 Q171 -71 174 -114 Q177 -157 180 -200 Q184 -221 177 -239 Q174 -243 171.5 -246.5 Q169 -250 167 -254 Q158 -266 143.5 -271 Q129 -276 113 -277 Q96 -278 80 -271 Q64 -266 50 -255 Q36 -245 28 -231 Q18 -217 15 -201 Q13 -182 13 -158 Q13 -157 13 -156 Q13 -155 13 -155 Q10 -101 7 -49 Q4 3 3 56 Q2 109 2 161.5 Q2 214 2 266 Q2 282 2.5 298 Q3 314 4 330 Q7 411 14 479.5 Q21 548 28 598 Q28 599 31.5 619 Q35 639 40 665 Q45 691 50.5 715.5 Q56 740 58 749 Q64 769 71 788 Q73 794 81 796.5 Q89 799 96 796 Q113 790 114 772 Q115 731 117 691 Q118 683 117.5 675.5 Q117 668 117 660 Q117 658 117.5 644 Q118 630 119 608.5 Q120 587 121 561 Q122 535 123 508 Q126 444 130 365 L141 382 L141 381 Q147 390 153.5 398.5 Q160 407 168 415 Q191 437 222 450 Q235 455 250 458 Q265 461 280 460 Q300 458 319 452 Q338 446 354 431 Q374 413 382 394 Q389 377 393 358 Q396 343 397.5 328 Q399 313 399 298 Q402 280 404 262.5 Q406 245 407 227 Q409 201 410 180 Q410 164 411 151 Q413 126 417 100.5 Q421 75 429 49 L428 52 L431 42 Q448 44 468 36 Q478 31 486.5 22.5 Q495 14 500 5 Z " />
<glyph glyph-name="i" unicode="i" horiz-adv-x="175" d="M132 26 Q133 14 135 3 Q135 0 135.5 -3 Q136 -6 136 -9 Q137 -23 130 -35 Q126 -48 116 -57 L113 -60 Q108 -66 100 -70 L85 -76 Q73 -80 59.5 -78 Q46 -76 36 -70 Q31 -67 27 -64.5 Q23 -62 19 -57 Q6 -45 1 -27 Q1 -25 0.5 -22.5 Q0 -20 0 -18 Q-2 -9 -2 2 Q-3 12 -4 25 Q-5 37 -5.5 49 Q-6 61 -6 74 Q-1 168 17 257 Q26 299 37 340 Q43 360 50 380 Q51 385 53 390 Q55 395 58 399 L64 407 Q71 418 76 425 Q89 443 109 438 Q119 436 124.5 427.5 Q130 419 130 410 Q132 394 134 379 Q134 372 133 366 Q132 360 131 354 Q131 351 130 345 Q126 316 124 288 Q116 181 129 72 L126 89 Q128 74 129.5 58 Q131 42 132 26 Z M166 566 Q167 558 166.5 548.5 Q166 539 161 531 Q155 521 145 514 Q131 506 115.5 509 Q100 512 89 522 Q84 527 78.5 532.5 Q73 538 69 544 Q65 551 62 558.5 Q59 566 57 574 Q52 589 51 606 Q51 610 51 614 Q51 618 52 622 Q53 634 59 644 Q62 650 67.5 655 Q73 660 79 664 Q86 669 95 670 Q104 671 113 670 Q123 670 132 664 Q135 662 137.5 660 Q140 658 143 656 Q152 648 155.5 636.5 Q159 625 160 614 Q160 612 160.5 609.5 Q161 607 161 605 Q161 599 161 593 L163 586 Q164 581 164.5 577 Q165 573 165 568 L166 566 Z " />
<glyph glyph-name="&amp;#xec;" unicode="&#xec;" horiz-adv-x="175" d="M132 26 Q133 14 135 3 Q135 0 135.5 -3 Q136 -6 136 -9 Q137 -23 130 -35 Q126 -48 116 -57 L113 -60 Q108 -66 100 -70 L85 -76 Q73 -80 59.5 -78 Q46 -76 36 -70 Q31 -67 27 -64.5 Q23 -62 19 -57 Q6 -45 1 -27 Q1 -25 0.5 -22.5 Q0 -20 0 -18 Q-2 -9 -2 2 Q-3 12 -4 25 Q-5 37 -5.5 49 Q-6 61 -6 74 Q-1 168 17 257 Q26 299 37 340 Q43 360 50 380 Q51 385 53 390 Q55 395 58 399 L64 407 Q71 418 76 425 Q89 443 109 438 Q119 436 124.5 427.5 Q130 419 130 410 Q132 394 134 379 Q134 372 133 366 Q132 360 131 354 Q131 351 130 345 Q126 316 124 288 Q116 181 129 72 L126 89 Q128 74 129.5 58 Q131 42 132 26 Z M166 566 Q167 558 166.5 548.5 Q166 539 161 531 Q155 521 145 514 Q131 506 115.5 509 Q100 512 89 522 Q84 527 78.5 532.5 Q73 538 69 544 Q65 551 62 558.5 Q59 566 57 574 Q52 589 51 606 Q51 610 51 614 Q51 618 52 622 Q53 634 59 644 Q62 650 67.5 655 Q73 660 79 664 Q86 669 95 670 Q104 671 113 670 Q123 670 132 664 Q135 662 137.5 660 Q140 658 143 656 Q152 648 155.5 636.5 Q159 625 160 614 Q160 612 160.5 609.5 Q161 607 161 605 Q161 599 161 593 L163 586 Q164 581 164.5 577 Q165 573 165 568 L166 566 Z " />
<glyph glyph-name="&amp;#xed;" unicode="&#xed;" horiz-adv-x="175" d="M132 26 Q133 14 135 3 Q135 0 135.5 -3 Q136 -6 136 -9 Q137 -23 130 -35 Q126 -48 116 -57 L113 -60 Q108 -66 100 -70 L85 -76 Q73 -80 59.5 -78 Q46 -76 36 -70 Q31 -67 27 -64.5 Q23 -62 19 -57 Q6 -45 1 -27 Q1 -25 0.5 -22.5 Q0 -20 0 -18 Q-2 -9 -2 2 Q-3 12 -4 25 Q-5 37 -5.5 49 Q-6 61 -6 74 Q-1 168 17 257 Q26 299 37 340 Q43 360 50 380 Q51 385 53 390 Q55 395 58 399 L64 407 Q71 418 76 425 Q89 443 109 438 Q119 436 124.5 427.5 Q130 419 130 410 Q132 394 134 379 Q134 372 133 366 Q132 360 131 354 Q131 351 130 345 Q126 316 124 288 Q116 181 129 72 L126 89 Q128 74 129.5 58 Q131 42 132 26 Z M166 566 Q167 558 166.5 548.5 Q166 539 161 531 Q155 521 145 514 Q131 506 115.5 509 Q100 512 89 522 Q84 527 78.5 532.5 Q73 538 69 544 Q65 551 62 558.5 Q59 566 57 574 Q52 589 51 606 Q51 610 51 614 Q51 618 52 622 Q53 634 59 644 Q62 650 67.5 655 Q73 660 79 664 Q86 669 95 670 Q104 671 113 670 Q123 670 132 664 Q135 662 137.5 660 Q140 658 143 656 Q152 648 155.5 636.5 Q159 625 160 614 Q160 612 160.5 609.5 Q161 607 161 605 Q161 599 161 593 L163 586 Q164 581 164.5 577 Q165 573 165 568 L166 566 Z " />
<glyph glyph-name="&amp;#xee;" unicode="&#xee;" horiz-adv-x="175" d="M132 26 Q133 14 135 3 Q135 0 135.5 -3 Q136 -6 136 -9 Q137 -23 130 -35 Q126 -48 116 -57 L113 -60 Q108 -66 100 -70 L85 -76 Q73 -80 59.5 -78 Q46 -76 36 -70 Q31 -67 27 -64.5 Q23 -62 19 -57 Q6 -45 1 -27 Q1 -25 0.5 -22.5 Q0 -20 0 -18 Q-2 -9 -2 2 Q-3 12 -4 25 Q-5 37 -5.5 49 Q-6 61 -6 74 Q-1 168 17 257 Q26 299 37 340 Q43 360 50 380 Q51 385 53 390 Q55 395 58 399 L64 407 Q71 418 76 425 Q89 443 109 438 Q119 436 124.5 427.5 Q130 419 130 410 Q132 394 134 379 Q134 372 133 366 Q132 360 131 354 Q131 351 130 345 Q126 316 124 288 Q116 181 129 72 L126 89 Q128 74 129.5 58 Q131 42 132 26 Z M166 566 Q167 558 166.5 548.5 Q166 539 161 531 Q155 521 145 514 Q131 506 115.5 509 Q100 512 89 522 Q84 527 78.5 532.5 Q73 538 69 544 Q65 551 62 558.5 Q59 566 57 574 Q52 589 51 606 Q51 610 51 614 Q51 618 52 622 Q53 634 59 644 Q62 650 67.5 655 Q73 660 79 664 Q86 669 95 670 Q104 671 113 670 Q123 670 132 664 Q135 662 137.5 660 Q140 658 143 656 Q152 648 155.5 636.5 Q159 625 160 614 Q160 612 160.5 609.5 Q161 607 161 605 Q161 599 161 593 L163 586 Q164 581 164.5 577 Q165 573 165 568 L166 566 Z " />
<glyph glyph-name="&amp;#xef;" unicode="&#xef;" horiz-adv-x="175" d="M132 26 Q133 14 135 3 Q135 0 135.5 -3 Q136 -6 136 -9 Q137 -23 130 -35 Q126 -48 116 -57 L113 -60 Q108 -66 100 -70 L85 -76 Q73 -80 59.5 -78 Q46 -76 36 -70 Q31 -67 27 -64.5 Q23 -62 19 -57 Q6 -45 1 -27 Q1 -25 0.5 -22.5 Q0 -20 0 -18 Q-2 -9 -2 2 Q-3 12 -4 25 Q-5 37 -5.5 49 Q-6 61 -6 74 Q-1 168 17 257 Q26 299 37 340 Q43 360 50 380 Q51 385 53 390 Q55 395 58 399 L64 407 Q71 418 76 425 Q89 443 109 438 Q119 436 124.5 427.5 Q130 419 130 410 Q132 394 134 379 Q134 372 133 366 Q132 360 131 354 Q131 351 130 345 Q126 316 124 288 Q116 181 129 72 L126 89 Q128 74 129.5 58 Q131 42 132 26 Z M166 566 Q167 558 166.5 548.5 Q166 539 161 531 Q155 521 145 514 Q131 506 115.5 509 Q100 512 89 522 Q84 527 78.5 532.5 Q73 538 69 544 Q65 551 62 558.5 Q59 566 57 574 Q52 589 51 606 Q51 610 51 614 Q51 618 52 622 Q53 634 59 644 Q62 650 67.5 655 Q73 660 79 664 Q86 669 95 670 Q104 671 113 670 Q123 670 132 664 Q135 662 137.5 660 Q140 658 143 656 Q152 648 155.5 636.5 Q159 625 160 614 Q160 612 160.5 609.5 Q161 607 161 605 Q161 599 161 593 L163 586 Q164 581 164.5 577 Q165 573 165 568 L166 566 Z " />
<glyph glyph-name="j" unicode="j" horiz-adv-x="194" d="M33 531 Q25 536 18 544.5 Q11 553 9 562 Q7 571 7 577 Q7 580 7.5 584 Q8 588 8 592 Q9 595 9.5 597.5 Q10 600 10 603 Q12 616 14 628 Q16 640 18 652 Q19 658 20 664 Q21 670 22 676 Q24 682 26 688 Q28 694 29 700 Q33 712 43 719.5 Q53 727 66 727 Q77 728 88 719 Q95 715 98 709 L102 700 Q103 691 105 681.5 Q107 672 107 663 Q108 656 108 649 Q108 642 108 635 Q109 622 109.5 610 Q110 598 110 585 Q111 565 103 550 Q98 542 89.5 535.5 Q81 529 72 526 Q52 521 33 531 Z M145 212 Q149 163 151 114 Q153 65 153 16 Q152 -37 149 -90 Q146 -143 137 -196 Q129 -246 118 -292 Q113 -313 107 -334 Q101 -355 92 -375 Q87 -388 81 -401.5 Q75 -415 66 -426 Q61 -434 55 -441.5 Q49 -449 42 -456 Q36 -462 28.5 -468 Q21 -474 13 -479 Q7 -484 -1 -487 Q-15 -493 -26 -497 Q-37 -501 -53 -502 Q-61 -502 -69.5 -501 Q-78 -500 -86 -498 Q-94 -497 -101 -495 Q-112 -491 -120.5 -485.5 Q-129 -480 -137 -473 Q-141 -469 -145 -465 Q-148 -462 -152 -456.5 Q-156 -451 -156 -450 Q-158 -447 -159 -447 Q-162 -442 -165 -436 Q-167 -432 -170 -425 Q-173 -416 -175 -409 Q-177 -404 -177.5 -398.5 Q-178 -393 -178 -388 Q-178 -380 -174.5 -371.5 Q-171 -363 -165 -357 Q-157 -350 -146 -346 Q-133 -342 -118 -348 Q-110 -351 -104 -357 Q-103 -358 -102.5 -359 Q-102 -360 -101 -361 L-98 -360 L-100 -360 Q-96 -359 -92 -359 Q-87 -358 -83 -356 Q-77 -354 -72 -352 L-71 -351 Q-67 -348 -64 -345 Q-55 -332 -48 -316 Q-43 -303 -39 -290 Q-35 -277 -31 -264 Q-22 -233 -14 -201 Q-11 -186 -8 -170.5 Q-5 -155 -1 -139 Q5 -110 10.5 -80.5 Q16 -51 20 -21 Q26 23 29 70 Q33 116 36 160.5 Q39 205 41 251 Q42 273 42.5 295.5 Q43 318 44 341 Q44 352 45.5 363.5 Q47 375 48 387 Q49 398 50 409 Q51 420 52 431 Q54 445 62 454 Q68 461 80 463 Q91 464 101 459 Q106 457 110.5 451 Q115 445 116 440 Q117 434 118 428 Q119 422 120 417 Q122 405 124 393 Q126 381 128 369 Q131 355 133 340 Q135 325 136 311 Q139 286 141 261.5 Q143 237 145 212 Z " />
<glyph glyph-name="k" unicode="k" horiz-adv-x="468" d="M450 168 Q456 158 459 145 Q462 132 459 121 Q457 113 455.5 105.5 Q454 98 453 90 Q451 83 449 75.5 Q447 68 445 60 Q442 45 438.5 30.5 Q435 16 431 2 Q428 -12 425 -25 Q422 -38 419 -51 Q418 -57 416.5 -62 Q415 -67 413 -72 Q411 -78 409 -84 Q407 -90 404 -95 Q402 -101 398.5 -105.5 Q395 -110 391 -115 Q387 -120 382.5 -124 Q378 -128 373 -131 Q369 -135 363.5 -137 Q358 -139 352 -141 L348 -143 Q336 -145 328 -145 Q324 -145 321 -144.5 Q318 -144 315 -144 Q311 -143 308 -143 Q305 -143 301 -142 Q285 -136 271 -126 Q267 -123 264 -120.5 Q261 -118 257 -114 Q245 -101 235 -83 Q206 -34 183 21 Q174 44 166 67 L167 17 Q168 -37 167 -90.5 Q166 -144 166 -198 Q168 -219 158 -237 Q156 -241 153 -245 Q150 -249 147 -253 Q137 -264 123 -269.5 Q109 -275 94 -276 Q78 -276 64 -269 Q49 -264 38 -253 Q27 -242 20 -227.5 Q13 -213 12 -198 Q12 -188 12.5 -178 Q13 -168 13 -158 Q14 -144 14 -130.5 Q14 -117 15 -104 Q15 -92 15.5 -80 Q16 -68 16 -56 Q17 -43 17 -29 Q17 -15 18 -2 L27 155 Q28 174 29 192.5 Q30 211 32 230 Q33 252 34 274 Q35 296 37 318 Q39 345 41.5 372.5 Q44 400 46 428 L46 428 L67 643 Q67 649 68 655 Q69 661 69 667 Q70 676 71 686 Q72 696 74 705 Q76 725 78 744.5 Q80 764 82 784 Q83 792 90.5 796.5 Q98 801 105 800 Q113 798 119 792 Q125 786 126 778 Q128 747 130 717 Q132 687 134 657 Q134 653 134 649 Q134 645 135 641 L146 372 Q149 376 152 381 Q155 386 159 391.5 Q163 397 167 403 Q170 407 177.5 416 Q185 425 196 435 Q207 445 221 454 Q235 463 251 467 Q276 471 296 463 Q304 460 311 455.5 Q318 451 322 444 Q328 434 329 423 Q331 410 322 397 Q318 391 311 387 Q309 386 306.5 384.5 Q304 383 301 382 Q291 381 280 377 Q271 372 262 365 Q252 357 243 346 Q239 338 235 330 Q230 313 228 294 Q228 280 229 267 Q230 254 232 241 Q237 216 245 192.5 Q253 169 262 146 L255 160 Q261 148 265.5 135.5 Q270 123 276 111 Q281 97 288 82 Q297 64 307 46 Q308 49 309 52.5 Q310 56 311 59 Q318 83 325 107 Q332 131 340 155 L339 152 L339 154 Q345 177 365 190 Q375 197 387.5 198 Q400 199 412 197 Q423 194 433.5 186 Q444 178 450 168 Z " />
<glyph glyph-name="l" unicode="l" horiz-adv-x="199" d="M171 799 Q177 801 183.5 795.5 Q190 790 188 783 Q185 772 183 760 Q182 752 178.5 745 Q175 738 172 731 L172 730 L170 726 Q169 720 167 715 Q166 709 164.5 703.5 Q163 698 162 693 Q157 672 153 647 Q150 623 147.5 599 Q145 575 144 551 Q142 530 142 509.5 Q142 489 141 468 Q140 446 139.5 424 Q139 402 140 380 Q140 341 142 302 Q143 282 143.5 262.5 Q144 243 145 224 Q145 200 147 176.5 Q149 153 150 129 Q152 114 153 98.5 Q154 83 155 68 Q157 48 159 28.5 Q161 9 163 -11 Q164 -21 165 -31 Q166 -41 167 -51 Q167 -58 169 -70 Q169 -77 169.5 -84 Q170 -91 168 -96 Q167 -99 166.5 -101 Q166 -103 165 -105 Q163 -118 155 -127 Q152 -134 145 -138 Q139 -144 131 -147 Q124 -151 115 -151 Q103 -154 90 -150 L74 -143 Q71 -141 67.5 -138.5 Q64 -136 61 -133 Q54 -125 50 -120 Q46 -114 42.5 -107.5 Q39 -101 37 -95 Q35 -87 34 -80 Q33 -73 32 -66 Q31 -53 29.5 -41 Q28 -29 27 -17 Q23 24 20.5 61.5 Q18 99 17 131 L17 135 L17 137 Q16 147 15.5 169.5 Q15 192 15 223 Q15 254 16 291 Q17 328 20 368 Q21 384 22.5 399 Q24 414 26 429 L27 436 Q33 488 43.5 538.5 Q54 589 68 639 Q76 664 85 690 Q88 701 92.5 711.5 Q97 722 102 732 Q114 754 129 773 Q132 776 135 779.5 Q138 783 141 785 Q143 787 150 790 Q160 795 171 799 Z " />
<glyph glyph-name="m" unicode="m" horiz-adv-x="600" d="M626 -81 Q631 -102 626 -123 Q624 -128 622 -132.5 Q620 -137 618 -142 Q610 -155 597.5 -164 Q585 -173 571 -178 Q555 -182 540 -179 Q524 -178 511 -170 Q497 -162 489 -150 Q479 -138 475 -123 Q459 -83 446 -41 Q432 7 421 56 L388 -34 Q382 -53 368 -68 Q364 -71 360 -74 Q356 -77 352 -80 Q339 -89 323 -90 Q313 -92 302 -90 Q287 -89 273 -80 Q269 -77 265 -74 Q261 -71 258 -68 Q246 -57 241 -43 Q234 -29 235 -13 Q236 10 237.5 32.5 Q239 55 241 78 Q244 118 247 158 Q250 198 251 239 Q252 251 252.5 263 Q253 275 254 287 L252 284 Q233 244 215 204 Q197 164 178 123 Q169 103 160 82.5 Q151 62 141 42 Q131 21 120 1.5 Q109 -18 99 -38 Q94 -47 84.5 -54 Q75 -61 66 -63 Q51 -67 37 -63 Q28 -61 21 -56 Q14 -51 9 -44 Q1 -36 -1 -25 Q-2 -16 -3 -11 L1 63 Q2 95 4 127 Q6 159 8 191 L14 255 Q14 263 14.5 271 Q15 279 16 287 Q17 297 17.5 307.5 Q18 318 20 328 Q21 337 22 345.5 Q23 354 25 363 Q25 368 26 373.5 Q27 379 27 385 L29 397 Q29 398 29 399 Q29 400 30 402 Q30 408 32 413 L32 412 Q34 422 37 431 Q40 440 42 449 Q47 464 63 465 Q70 465 76 460.5 Q82 456 83 449 Q85 440 87.5 431 Q90 422 92 412 Q92 413 91.5 414 Q91 415 90 416 Q93 408 94 402 Q94 400 94 398.5 Q94 397 94 395 Q95 391 95 385 Q96 379 96.5 373.5 Q97 368 97 363 Q98 352 99 341.5 Q100 331 101 320 Q102 311 102 301.5 Q102 292 102 283 Q102 274 102.5 264.5 Q103 255 103 246 Q103 241 103 234 Q112 253 121 271 Q130 289 139 308 Q148 327 157.5 346.5 Q167 366 178 384 Q192 406 211 429 Q220 439 229.5 448 Q239 457 251 463 Q264 469 278.5 472 Q293 475 307 470 Q334 462 349 439 Q358 426 360.5 411.5 Q363 397 363 382 Q363 370 362.5 358 Q362 346 363 334 L363 333 Q366 338 369.5 342 Q373 346 376 350 Q378 353 379 354 Q387 361 393.5 365 Q400 369 409 373 Q412 374 415.5 375.5 Q419 377 422 378 Q427 379 433 380 Q439 381 445 381 Q450 381 456 380 Q462 379 467 378 Q470 378 471 377 Q498 369 517 348.5 Q536 328 544 301 Q546 292 547 281.5 Q548 271 549 261 Q550 255 550 249 Q550 243 551 237 Q553 212 556 187 Q555 196 554 207 Q555 198 556 189.5 Q557 181 558 172 Q562 143 568 117 Q587 16 626 -81 Z " />
<glyph glyph-name="n" unicode="n" horiz-adv-x="472" d="M499 100 Q505 92 506.5 80.5 Q508 69 505 59 Q502 49 495 41 Q490 33 480 28 Q470 20 456 18.5 Q442 17 430 21 Q410 26 396 42 Q387 52 381 63 Q375 74 370 86 Q352 122 337 159 Q322 196 308 234 Q299 257 292 281 Q287 267 282.5 253 Q278 239 274 225 Q259 182 244.5 139.5 Q230 97 214 54 Q207 33 199 12 Q191 -9 183 -30 Q179 -40 175 -51 Q171 -62 167 -72 Q162 -87 155.5 -101 Q149 -115 142 -130 Q135 -142 124 -150 Q113 -159 99 -163 Q80 -167 61 -163 Q47 -159 36 -150 Q28 -145 24 -137 Q14 -126 11 -112 Q10 -108 9.5 -103 Q9 -98 8 -93 Q8 -49 8 -6 Q9 33 11 71.5 Q13 110 17 149 Q21 191 26 232 Q31 273 37 315 Q37 312 36.5 309.5 Q36 307 36 305 Q37 316 40 325 Q41 331 42 334 Q43 340 44.5 345 Q46 350 48 355 Q50 364 52.5 373 Q55 382 58 391 Q61 401 65 411 Q69 421 74 431 Q80 440 88 448 Q96 456 105 463 Q110 467 117 466 Q124 465 129 461 Q134 457 136.5 450.5 Q139 444 137 438 Q133 430 132 421 Q132 420 131.5 418 Q131 416 131 415 Q131 412 130 406 Q129 395 129 385 Q129 375 129 364 Q130 351 131 337 Q132 323 133 310 Q134 297 133.5 284.5 Q133 272 133 260 Q133 255 133 249.5 Q133 244 133 239 Q136 246 138 252 Q140 258 143 264 Q154 294 164 319 Q169 334 175 349 Q181 364 189 378 Q208 412 241 435 Q246 438 250 440 Q254 442 259 445 Q263 446 267.5 448 Q272 450 276 451 Q297 455 317 453 L312 454 Q319 453 325.5 452 Q332 451 339 449 Q359 443 370 428 Q382 413 383 391 Q384 385 384.5 378.5 Q385 372 385 366 Q389 344 394 323 Q399 302 405 280 Q411 259 418.5 238 Q426 217 435 197 Q445 173 454 154 Q460 141 466 131 Q466 129 467 127.5 Q468 126 469 125 Q479 122 486.5 115.5 Q494 109 499 100 Z " />
<glyph glyph-name="&amp;#xf1;" unicode="&#xf1;" horiz-adv-x="472" d="M499 100 Q505 92 506.5 80.5 Q508 69 505 59 Q502 49 495 41 Q490 33 480 28 Q470 20 456 18.5 Q442 17 430 21 Q410 26 396 42 Q387 52 381 63 Q375 74 370 86 Q352 122 337 159 Q322 196 308 234 Q299 257 292 281 Q287 267 282.5 253 Q278 239 274 225 Q259 182 244.5 139.5 Q230 97 214 54 Q207 33 199 12 Q191 -9 183 -30 Q179 -40 175 -51 Q171 -62 167 -72 Q162 -87 155.5 -101 Q149 -115 142 -130 Q135 -142 124 -150 Q113 -159 99 -163 Q80 -167 61 -163 Q47 -159 36 -150 Q28 -145 24 -137 Q14 -126 11 -112 Q10 -108 9.5 -103 Q9 -98 8 -93 Q8 -49 8 -6 Q9 33 11 71.5 Q13 110 17 149 Q21 191 26 232 Q31 273 37 315 Q37 312 36.5 309.5 Q36 307 36 305 Q37 316 40 325 Q41 331 42 334 Q43 340 44.5 345 Q46 350 48 355 Q50 364 52.5 373 Q55 382 58 391 Q61 401 65 411 Q69 421 74 431 Q80 440 88 448 Q96 456 105 463 Q110 467 117 466 Q124 465 129 461 Q134 457 136.5 450.5 Q139 444 137 438 Q133 430 132 421 Q132 420 131.5 418 Q131 416 131 415 Q131 412 130 406 Q129 395 129 385 Q129 375 129 364 Q130 351 131 337 Q132 323 133 310 Q134 297 133.5 284.5 Q133 272 133 260 Q133 255 133 249.5 Q133 244 133 239 Q136 246 138 252 Q140 258 143 264 Q154 294 164 319 Q169 334 175 349 Q181 364 189 378 Q208 412 241 435 Q246 438 250 440 Q254 442 259 445 Q263 446 267.5 448 Q272 450 276 451 Q297 455 317 453 L312 454 Q319 453 325.5 452 Q332 451 339 449 Q359 443 370 428 Q382 413 383 391 Q384 385 384.5 378.5 Q385 372 385 366 Q389 344 394 323 Q399 302 405 280 Q411 259 418.5 238 Q426 217 435 197 Q445 173 454 154 Q460 141 466 131 Q466 129 467 127.5 Q468 126 469 125 Q479 122 486.5 115.5 Q494 109 499 100 Z " />
</font>
</svg>
