<?xml version="1.0" encoding="UTF-8"?>
<svg xmlns="http://www.w3.org/2000/svg" xmlns:xlink="http://www.w3.org/1999/xlink" version="1.2" >
<font id="Ollister Alt">
<font-face  font-family="Ollister" units-per-em="1000" ascent="817" descent="-890" font-style="normal" font-weight="400" font-stretch="normal" cap-height="676" x-height="27" underline-position="0" underline-thickness="0" />
<missing-glyph  horiz-adv-x="400" d="" />
<glyph glyph-name="&amp;#x0;" d="" />
<glyph glyph-name="&amp;#xd;" unicode="&#xd;" d="" />
<glyph glyph-name="space" unicode="&#x20;" horiz-adv-x="221" d="" />
<glyph glyph-name="controlLF" unicode="&#xa;" d="" />
<glyph glyph-name="exclam" unicode="&#x21;" horiz-adv-x="173" d="M19 -199 Q27 -196 33 -203 Q39 -211 34 -218 Q29 -224 22 -223 Q15 -222 10 -214 L10 -210 Q13 -201 19 -199 Z M209 463 Q215 456 210 450 Q206 444 204.5 438 Q203 432 202 425 Q195 399 189.5 373 Q184 347 177 321 Q159 252 140 184.5 Q121 117 102 48 Q90 3 78.5 -41.5 Q67 -86 55 -131 Q53 -139 50 -146 Q47 -153 44 -161 Q41 -167 35 -168 Q27 -168 23 -162 Q19 -156 22 -150 Q25 -141 28 -132.5 Q31 -124 33 -115 Q47 -64 60.5 -14 Q74 36 87 86 Q106 155 124.5 223 Q143 291 162 359 Q167 380 171.5 400.5 Q176 421 180 442 Q182 448 186 458 Q188 465 196 467 Q203 469 209 463 Z " />
<glyph glyph-name="quotedbl" unicode="&#x22;" horiz-adv-x="275" d="M253 584 Q253 570 250.5 557 Q248 544 245 530 Q242 520 239 509.5 Q236 499 233 489 Q228 473 217 465 Q207 458 200 466 Q193 475 200 481 Q208 487 211 496 Q214 505 216 514 Q219 527 222 541 Q225 555 228 569 Q229 575 229 580.5 Q229 586 229 591 Q229 604 240 605 Q251 606 252 593 Q253 591 253 588.5 Q253 586 253 584 Z M272 568 Q283 567 283 552 Q282 547 281 540.5 Q280 534 278 527 Q272 501 265 477 Q263 470 259 465 Q252 456 243 463 Q235 469 240 480 Q242 483 244 491 Q251 518 258 547 Q258 549 259 556 Q260 568 272 568 Z " />
<glyph glyph-name="numbersign" unicode="&#x23;" horiz-adv-x="536" d="M500 23 Q502 11 489 11 Q472 12 455.5 12.5 Q439 13 422 13 Q409 13 396 12 Q383 11 370 11 Q367 11 367 8 Q358 -15 350.5 -38.5 Q343 -62 335 -86 L334 -89 Q341 -88 347.5 -88 Q354 -88 360 -87 Q367 -87 373.5 -86.5 Q380 -86 386 -85 Q399 -85 402 -97 Q406 -108 393 -109 Q376 -110 359.5 -111 Q343 -112 326 -114 Q324 -114 323 -116 Q314 -141 304.5 -166 Q295 -191 285 -216 Q280 -229 274.5 -242.5 Q269 -256 264 -270 Q262 -274 256 -278 Q249 -282 242 -274 Q235 -267 238 -260 Q244 -246 249.5 -232.5 Q255 -219 261 -206 Q269 -184 277.5 -162 Q286 -140 294 -118 Q294 -118 295 -115 Q290 -115 285 -115.5 Q280 -116 276 -116 Q267 -117 258.5 -117.5 Q250 -118 242 -119 Q230 -119 218 -120 Q206 -121 194 -122 Q187 -122 180.5 -122.5 Q174 -123 168 -124 Q165 -124 163 -127 Q150 -160 136.5 -192 Q123 -224 109 -256 Q105 -264 103 -269 Q98 -276 90 -274 Q83 -272 80 -266.5 Q77 -261 79 -256 Q92 -227 104.5 -198.5 Q117 -170 129 -141 Q131 -137 132.5 -133.5 Q134 -130 136 -125 Q121 -127 107 -128 Q93 -129 80 -130 Q68 -130 57 -131 Q46 -132 35 -132 Q26 -133 17 -133.5 Q8 -134 -1 -135 Q-8 -135 -12 -134 Q-24 -132 -25 -121 Q-26 -111 -15 -111 Q-1 -110 12.5 -109 Q26 -108 40 -108 Q48 -107 55.5 -106.5 Q63 -106 71 -106 Q82 -105 93 -104 Q104 -103 115 -103 Q122 -102 129 -101.5 Q136 -101 143 -101 Q146 -100 147 -98 Q157 -74 166.5 -49.5 Q176 -25 186 0 L186 2 Q182 1 178 1 Q174 1 170 0 Q154 -1 139 -3 Q128 -4 118 -5 Q108 -6 98 -7 Q94 -8 90 -8.5 Q86 -9 82 -9 Q71 -10 67 1 Q63 12 74 14 Q81 15 88 16 Q95 17 102 18 Q113 19 123.5 20 Q134 21 145 23 Q153 23 161.5 24 Q170 25 178 25 Q182 26 186 26 Q190 26 194 27 Q197 27 198 31 Q210 62 221 92.5 Q232 123 244 154 Q248 166 250 172 Q254 180 262 179 Q269 178 272.5 172 Q276 166 274 160 Q270 148 265.5 136.5 Q261 125 257 113 Q249 93 242 73 Q235 53 227 33 L226 29 Q228 29 230 29 Q232 29 234 29 Q250 30 266 31 Q282 32 298 32 Q310 33 321.5 33.5 Q333 34 345 35 Q347 35 348 37 Q356 68 364.5 99 Q373 130 381 161 Q382 164 382 168 Q382 172 382 176 Q384 188 395 185 Q408 182 407 169 Q405 159 403.5 149.5 Q402 140 400 130 Q394 107 388 84.5 Q382 62 375 38 Q375 38 375 36 Q384 36 392.5 36 Q401 36 409 36 Q421 36 432 36 Q443 36 455 36 Q462 36 469.5 35.5 Q477 35 484 35 Q497 34 500 23 Z M333 -13 Q335 -8 336.5 -2 Q338 4 340 10 Q336 10 336 10 Q325 10 313.5 9.5 Q302 9 290 8 Q284 8 274 7 Q260 7 246.5 6 Q233 5 220 4 Q216 4 215 1 Q205 -23 195.5 -47 Q186 -71 177 -95 Q176 -95 175 -99 Q193 -97 211 -96 Q229 -95 246 -94 Q261 -93 275 -92 Q289 -91 303 -90 Q305 -90 306 -88 Q313 -69 319.5 -50.5 Q326 -32 333 -13 Z " />
<glyph glyph-name="dollar" unicode="&#x24;" horiz-adv-x="303" d="M236 327 Q232 311 227.5 295 Q223 279 218 262 Q220 262 221.5 261.5 Q223 261 225 261 Q257 252 266 218 Q270 201 267 185.5 Q264 170 257 155 Q254 150 251 145 Q248 140 245 135 Q244 132 241 130 Q235 125 227 130 Q220 136 222 144 Q223 147 226 151 Q232 161 237 171.5 Q242 182 243 193 Q246 210 238 224 Q232 237 214 239 Q212 239 211 235 Q207 221 203 206.5 Q199 192 195 177 Q177 112 159 48 Q141 -16 123 -81 Q122 -85 124 -88 Q139 -110 153.5 -131.5 Q168 -153 180 -177 Q185 -186 189 -196 Q193 -206 195 -217 Q206 -270 178 -308 Q149 -348 95 -360 Q74 -365 50 -359 Q47 -368 44.5 -377 Q42 -386 40 -395 Q39 -399 38 -401 Q33 -409 24 -405 Q15 -402 16 -393 Q16 -391 17 -387 Q19 -378 21 -369.5 Q23 -361 26 -352 Q27 -349 24 -346 Q10 -336 2 -321 Q-5 -308 -9.5 -294 Q-14 -280 -16 -266 Q-18 -254 -16 -243.5 Q-14 -233 -5 -225 Q1 -220 7 -221 Q14 -223 17 -229.5 Q20 -236 15 -240 Q7 -248 7 -256.5 Q7 -265 9 -275 Q14 -294 24 -313 Q26 -316 28 -318.5 Q30 -321 32 -325 Q35 -314 37.5 -304.5 Q40 -295 42 -285 Q55 -236 68 -188 Q81 -140 94 -91 Q95 -87 93 -84 Q80 -65 68.5 -46 Q57 -27 48 -6 Q35 26 34 56 Q33 74 36 91 Q39 108 45 125 Q56 159 75.5 186.5 Q95 214 124 234 Q139 245 155.5 252 Q172 259 190 262 Q193 263 194 266 Q198 282 202.5 297.5 Q207 313 211 329 Q212 334 213 337 Q218 349 229 344 Q239 339 236 327 Z M104 -57 Q124 16 144.5 89 Q165 162 185 236 Q181 235 181 235 Q146 224 117 196 Q97 177 84 153 Q71 129 64 102 Q51 58 65 15 Q72 -4 81.5 -22 Q91 -40 103 -57 L104 -57 Z M113 -114 Q98 -170 83.5 -225 Q69 -280 54 -336 Q71 -340 86 -337 Q112 -333 135 -316 Q164 -295 172 -264 Q180 -233 164 -198 Q154 -176 141.5 -155.5 Q129 -135 115 -115 Q115 -115 113 -114 Z " />
<glyph glyph-name="percent" unicode="&#x25;" horiz-adv-x="321" d="M291 136 L292 126 Q287 108 277 92.5 Q267 77 256 63 Q229 23 201 -15 Q173 -53 145 -93 Q113 -139 81.5 -184.5 Q50 -230 18 -277 Q15 -280 13 -284 Q11 -288 10 -293 Q9 -302 -1 -301 Q-11 -300 -13 -290 Q-14 -281 -9 -274 Q-3 -264 3.5 -253.5 Q10 -243 17 -233 Q58 -175 98.5 -117.5 Q139 -60 180 -2 Q200 26 219 54 Q238 82 258 110 Q260 114 262.5 118 Q265 122 267 127 Q244 124 221.5 121 Q199 118 176 115 Q179 104 176.5 95 Q174 86 170 77 Q162 61 151 46.5 Q140 32 127 20 Q121 14 114 8.5 Q107 3 100 -2 Q91 -8 80 -8 Q63 -7 60 10 Q58 24 63 37 Q83 99 126 146 Q132 153 143 159 Q148 161 153 158.5 Q158 156 160 151 Q163 144 155 137 Q160 137 164.5 137.5 Q169 138 174 139 Q186 141 198 142.5 Q210 144 222 146 Q232 147 241.5 148 Q251 149 261 150 Q268 151 278 149 Q286 147 291 136 Z M153 104 Q155 112 146 112 Q143 112 139 112.5 Q135 113 131 113 Q117 94 105 72.5 Q93 51 85 27 Q84 25 84 22.5 Q84 20 83 17 Q85 18 87 19 Q89 20 90 21 Q94 24 98 27.5 Q102 31 106 34 Q118 45 128 57.5 Q138 70 146 84 Q150 91 153 104 Z M198 -148 Q214 -155 225 -170 Q233 -181 229 -194 Q226 -203 221.5 -210.5 Q217 -218 212 -226 Q202 -238 191.5 -249 Q181 -260 168 -268 Q157 -275 146 -277 Q133 -280 124.5 -272.5 Q116 -265 114 -252 L114 -250 Q113 -242 114.5 -235 Q116 -228 119 -220 Q131 -188 150 -164 Q155 -159 160.5 -155 Q166 -151 172 -147 Q183 -141 198 -148 Z M203 -192 Q207 -185 206 -183.5 Q205 -182 199 -176 Q192 -169 186 -169 Q184 -179 173 -180 Q170 -180 168 -182 Q150 -204 140 -234 Q139 -239 138 -244 Q137 -249 139 -255 Q142 -253 145 -252 Q148 -251 150 -250 Q184 -228 203 -192 Z " />
<glyph glyph-name="ampersand" unicode="&#x26;" horiz-adv-x="394" d="M411 407 Q415 389 413.5 372 Q412 355 409 338 Q403 310 393 284 Q383 258 370 233 Q365 223 356 225 Q350 226 347.5 231.5 Q345 237 348 242 Q350 247 352.5 252 Q355 257 357 262 Q367 284 374.5 306 Q382 328 386 351 Q388 361 389 372 Q390 383 389 393 Q387 404 383.5 413.5 Q380 423 371 430 Q368 433 364 434.5 Q360 436 356 438 Q351 440 350 434 Q342 409 334 383.5 Q326 358 318 332 Q299 272 280.5 213 Q262 154 243 94 L242 92 Q255 84 253 74 Q252 69 248 65 Q244 60 239.5 56 Q235 52 230 48 Q227 44 226 41 Q194 -58 162.5 -155.5 Q131 -253 100 -352 Q99 -355 98 -358 Q97 -361 96 -364 Q99 -363 99 -363 Q127 -347 153.5 -329.5 Q180 -312 204 -292 Q223 -276 236 -258 Q240 -253 245 -252 Q251 -249 256 -256 Q262 -262 258 -269 Q254 -275 248 -282 Q237 -296 223.5 -307.5 Q210 -319 196 -329 Q170 -348 143.5 -364.5 Q117 -381 89 -396 Q86 -398 85 -401 Q72 -444 60 -486.5 Q48 -529 35 -572 Q32 -585 27 -600 Q23 -610 14 -609 Q8 -609 5 -604 Q2 -599 4 -593 Q6 -583 9 -574 Q12 -565 15 -555 Q26 -519 36 -483.5 Q46 -448 56 -413 Q56 -413 56 -411 Q50 -412 43.5 -413.5 Q37 -415 30 -416 Q4 -421 -16.5 -408.5 Q-37 -396 -43 -367 Q-47 -350 -46 -334 Q-45 -318 -41 -302 Q-34 -272 -22 -243.5 Q-10 -215 4 -188 Q68 -68 167 24 Q176 32 185 40 Q194 48 202 56 Q204 58 205.5 60.5 Q207 63 209 65 Q200 65 192.5 65 Q185 65 177 65 Q152 66 134 76 Q100 93 92 134 Q87 158 90.5 181 Q94 204 101 226 Q113 263 132.5 295 Q152 327 177 357 Q197 380 218.5 399.5 Q240 419 266 435 Q280 444 294.5 451 Q309 458 325 461 Q333 462 336 471 Q353 522 372 576 Q375 585 382 596 Q385 601 391 603 Q397 605 402 598 Q407 592 404 585 Q388 556 379 525 Q370 494 359 463 Q365 460 371 457.5 Q377 455 382 451 Q394 443 401 431.5 Q408 420 411 407 Z M170 -53 Q175 -37 180.5 -20.5 Q186 -4 191 13 Q188 11 188 11 Q173 -4 158 -19 Q143 -34 128 -50 Q63 -124 17 -217 Q5 -241 -5 -266.5 Q-15 -292 -20 -320 Q-22 -331 -22 -342.5 Q-22 -354 -19 -365 Q-15 -382 -4.5 -388 Q6 -394 19 -394 Q30 -393 40.5 -389.5 Q51 -386 62 -382 Q66 -380 67 -376 Q118 -214 170 -53 Z M314 402 Q317 410 319.5 418.5 Q322 427 325 436 Q322 435 322 435 Q309 431 297 425 Q285 419 274 412 Q246 393 223 370 Q200 347 180 321 Q160 295 145.5 268 Q131 241 122 210 Q116 192 114 174 Q112 156 116 136 Q124 102 154 93 Q169 88 184 88.5 Q199 89 214 91 Q216 91 217 94 Q221 105 226 122 Q248 192 270 261.5 Q292 331 314 402 Z " />
<glyph glyph-name="quotesingle" unicode="&#x27;" horiz-adv-x="127" d="M110 255 Q110 253 110 251 Q110 249 110 247 Q108 211 95 177 Q91 166 82 161 Q70 154 64 163 Q58 172 68 181 Q72 184 74 189 Q83 214 87 245 Q87 248 86.5 251 Q86 254 87 257 Q88 269 99 268 Q110 267 110 255 Z " />
<glyph glyph-name="parenleft" unicode="&#x28;" horiz-adv-x="200" d="M381 762 Q388 755 382 747 Q356 714 339 676.5 Q322 639 304 602 Q242 475 190 346 Q138 217 94 83 Q53 -39 25 -160 Q17 -194 10.5 -228 Q4 -262 -2 -297 Q-4 -316 -6.5 -334.5 Q-9 -353 -11 -372 Q-13 -386 -13.5 -399 Q-14 -412 -15 -426 Q-16 -456 -16 -484 Q-17 -506 -17 -527.5 Q-17 -549 -16 -571 Q-16 -594 -14 -616.5 Q-12 -639 -6 -661 Q-2 -674 -14 -677 Q-26 -680 -29 -666 Q-31 -656 -33 -646.5 Q-35 -637 -36 -627 Q-38 -607 -39 -589 Q-40 -571 -41 -559 Q-41 -532 -41 -510.5 Q-41 -489 -40 -469 Q-40 -454 -39.5 -438.5 Q-39 -423 -38 -408 Q-35 -354 -26 -296 Q-12 -207 9.5 -121 Q31 -35 58 51 Q90 153 127.5 251 Q165 349 206 446 Q264 582 330 711 Q337 723 344 735 Q351 747 359 758 Q363 762 366 764 Q374 769 381 762 Z " />
<glyph glyph-name="parenright" unicode="&#x29;" horiz-adv-x="207" d="M204 656 Q204 656 205 652 Q205 637 204.5 622 Q204 607 204 592 Q203 588 203 588 Q202 575 201.5 563 Q201 551 200 538 Q199 526 197.5 513.5 Q196 501 195 489 Q193 475 191.5 462 Q190 449 188 436 Q186 417 183 398.5 Q180 380 177 362 Q174 344 171 326.5 Q168 309 165 291 Q161 269 156.5 247.5 Q152 226 148 204 Q142 176 136 148.5 Q130 121 124 94 Q104 6 82 -81 Q60 -168 31 -253 Q13 -306 -8 -357.5 Q-29 -409 -52 -460 Q-76 -513 -100 -564.5 Q-124 -616 -149 -668 Q-151 -672 -153 -675 Q-159 -681 -167 -677 Q-175 -672 -172 -664 Q-172 -661 -170 -658 Q-131 -577 -94.5 -497 Q-58 -417 -24 -335 Q-1 -276 18 -217 Q37 -158 53 -97 Q67 -43 79.5 10 Q92 63 105 117 Q112 148 118.5 179 Q125 210 131 241 Q136 266 140 290 Q144 314 149 339 Q152 358 155 377 Q158 396 161 416 Q164 432 166 448 Q168 464 170 480 Q171 493 172.5 506 Q174 519 175 532 Q178 561 179.5 590.5 Q181 620 181 649 Q181 668 180 686.5 Q179 705 178 724 Q177 734 175.5 744 Q174 754 173 764 Q172 772 174 779 Q176 788 187 786 Q195 784 196 775 Q197 766 198 758 Q199 750 200 741 Q201 731 202 721.5 Q203 712 203 702 Q204 690 204 678.5 Q204 667 204 656 Z " />
<glyph glyph-name="asterisk" unicode="&#x2a;" horiz-adv-x="272" d="M295 209 Q297 200 287 196 Q282 195 274 194 Q267 194 259.5 193.5 Q252 193 245 192 Q238 192 231.5 191.5 Q225 191 218 190 Q220 187 222.5 183.5 Q225 180 227 177 Q233 169 237.5 160.5 Q242 152 244 143 Q244 138 243 134 Q241 126 232 126 Q222 127 221 135 Q218 149 210 159.5 Q202 170 195 181 Q191 172 188 163.5 Q185 155 182 147 Q180 140 178 133.5 Q176 127 174 121 Q172 117 171 114 Q166 104 156 108 Q146 112 150 124 Q153 135 157 146.5 Q161 158 165 169 L167 175 Q154 167 142 159 Q130 151 118 144 Q108 137 97 132 Q93 130 88 130 Q80 130 78 138 Q75 146 82 150 Q83 152 85.5 153 Q88 154 90 155 Q103 163 116 171 Q129 179 142 187 L141 188 Q137 188 132 187.5 Q127 187 123 187 Q111 185 108 195 Q106 200 109 205 Q112 210 118 210 Q130 211 142 211.5 Q154 212 166 213 L170 213 Q166 218 162 222.5 Q158 227 155 231 Q150 237 146 243 Q142 249 137 256 Q136 258 135 261 Q131 271 141 275 Q149 280 156 271 Q163 262 170 252.5 Q177 243 184 234 Q184 233 187 230 Q189 236 191.5 241.5 Q194 247 196 253 Q199 260 201.5 268 Q204 276 207 284 Q211 293 219 293 Q228 293 230 284 Q231 279 230 275 Q227 266 223.5 257.5 Q220 249 217 240 Q217 239 216.5 238 Q216 237 216 236 L217 235 Q227 243 237.5 251 Q248 259 259 266 Q260 267 261 268 Q262 269 263 269 Q272 276 279 268 Q286 260 279 252 Q272 245 263 239 Q256 234 248.5 229 Q241 224 233 218 Q231 217 230 215 Q236 216 242 216 Q248 216 254 217 Q262 217 269 217.5 Q276 218 283 219 Q293 219 295 209 Z " />
<glyph glyph-name="plus" unicode="&#x2b;" horiz-adv-x="293" d="M222 -50 Q223 -62 212 -63 Q202 -63 191.5 -63.5 Q181 -64 171 -64 Q166 -65 162 -65 Q158 -65 153 -65 Q151 -66 150 -67 Q144 -89 139 -108 Q138 -109 139 -113 Q141 -123 133 -127 Q125 -130 118 -122 Q113 -114 114 -105 Q116 -96 118.5 -87.5 Q121 -79 123 -70 Q123 -70 124 -66 L99 -67 Q93 -68 87 -68.5 Q81 -69 75 -69 Q62 -68 61 -57 Q60 -45 71 -45 Q75 -44 80 -44 Q85 -44 89 -44 Q100 -43 110.5 -43 Q121 -43 131 -42 Q133 -42 134 -40 Q137 -29 140 -19 Q143 -9 146 1 Q146 1 146 1.5 Q146 2 146 3 Q150 15 161 12 Q173 8 170 -4 Q168 -12 166 -20 Q164 -28 162 -36 Q162 -36 160 -40 Q164 -40 168 -40.5 Q172 -41 176 -40 Q183 -40 190 -39.5 Q197 -39 204 -39 Q208 -39 210 -39 Q221 -39 222 -50 Z " />
<glyph glyph-name="comma" unicode="&#x2c;" horiz-adv-x="140" d="M54 -126 Q72 -127 66 -144 Q65 -146 63 -152 Q56 -166 49.5 -180.5 Q43 -195 38 -210 Q37 -215 33 -221 Q26 -228 17 -223 Q10 -217 13 -208 Q18 -195 23 -182.5 Q28 -170 33 -157 Q18 -148 26 -135 Q35 -117 51 -125 Q53 -125 54 -126 Z " />
<glyph glyph-name="hyphen" unicode="&#x2d;" horiz-adv-x="266" d="M187 -45 Q197 -47 196 -57 Q195 -67 184 -68 Q169 -69 154 -70 Q139 -71 124 -72 Q118 -72 111.5 -72 Q105 -72 96 -73 Q92 -72 85.5 -71.5 Q79 -71 72 -71 Q68 -70 64 -67 Q57 -61 62 -52 Q65 -45 75 -46 Q80 -47 85 -48 Q90 -49 95 -48 Q109 -48 122.5 -47.5 Q136 -47 150 -47 Q157 -46 164.5 -45.5 Q172 -45 179 -44 Q184 -44 187 -45 Z " />
<glyph glyph-name="period" unicode="&#x2e;" horiz-adv-x="201" d="M77 -132 Q81 -139 76 -147 Q66 -161 55 -162 Q45 -162 40.5 -156 Q36 -150 39 -142 Q41 -135 48.5 -129.5 Q56 -124 63 -124 Q72 -124 77 -132 Z " />
<glyph glyph-name="slash" unicode="&#x2f;" horiz-adv-x="277" d="M277 226 Q277 225 279 220 Q278 218 277.5 215.5 Q277 213 276 211 Q267 194 258 177.5 Q249 161 239 145 Q191 65 143.5 -14 Q96 -93 48 -173 Q34 -196 20.5 -220 Q7 -244 -7 -267 Q-10 -273 -11 -274 Q-18 -282 -27 -276 Q-36 -270 -32 -261 Q-31 -258 -27 -252 Q15 -180 57.5 -109 Q100 -38 143 34 Q169 78 195 122 Q221 166 247 211 Q250 214 252 223 Q254 233 265 234 Q273 234 277 226 Z " />
<glyph glyph-name="zero" unicode="0" horiz-adv-x="206" d="M117 38 L118 36 Q120 36 123 36.5 Q126 37 128 36 Q134 36 140 35 Q146 34 152 33 Q177 26 184 -1 Q188 -17 184 -36 Q181 -51 175 -65 Q169 -79 162 -92 Q148 -118 131 -141.5 Q114 -165 93 -185 Q78 -200 62 -207 Q53 -211 42 -210 Q28 -208 18 -196 Q9 -186 5 -173 Q-1 -154 -0.5 -136.5 Q0 -119 4 -102 Q25 -19 82 42 Q86 47 91.5 51.5 Q97 56 103 60 Q107 63 113 65 Q124 68 131 57 Q136 47 127 43 L117 38 Z M148 11 Q143 12 138.5 12.5 Q134 13 130 13 L130 13 Q127 13 124.5 13 Q122 13 120 12 Q97 9 82 -8 Q81 -10 79 -12 Q77 -14 75 -15 Q70 -16 66 -23 Q64 -26 62.5 -29 Q61 -32 59 -35 Q47 -56 38.5 -78 Q30 -100 26 -125 Q25 -137 25 -148.5 Q25 -160 29 -172 Q35 -191 49 -184 Q62 -177 71 -168 Q94 -147 111.5 -122.5 Q129 -98 143 -71 Q149 -60 154 -48 Q159 -36 160 -23 Q162 -13 160 -1 Q158 8 148 11 Z " />
<glyph glyph-name="one" unicode="1" horiz-adv-x="116" d="M65 29 Q65 31 65 34 Q65 37 66 41 Q50 35 42 24 Q41 23 40 20 Q39 8 29 11 Q23 12 19 16 Q15 20 16 25 Q16 34 20 40 Q34 59 57 65 Q69 67 77.5 61 Q86 55 88 44 Q90 34 90 27 Q89 11 85 -3.5 Q81 -18 76 -33 Q64 -66 53 -98.5 Q42 -131 30 -164 Q25 -178 20 -196 Q19 -200 18 -208 Q18 -217 11 -218 Q3 -219 -3 -211 Q-9 -203 -6 -193 Q-4 -185 -1.5 -177 Q1 -169 4 -161 Q15 -127 27 -93 Q39 -59 51 -25 Q55 -12 58 1.5 Q61 15 65 29 Z " />
<glyph glyph-name="two" unicode="2" horiz-adv-x="201" d="M27 -160 L27 -161 Q33 -160 39 -158.5 Q45 -157 51 -156 Q63 -154 75.5 -152 Q88 -150 101 -149 Q113 -148 125.5 -147.5 Q138 -147 150 -147 Q161 -147 165 -157 Q168 -168 157 -170 Q153 -171 150 -171 Q112 -170 76.5 -176.5 Q41 -183 7 -194 Q3 -195 -3 -196 Q-13 -198 -20 -190 Q-27 -181 -22 -174 Q-15 -165 -5 -154 Q19 -129 43.5 -104.5 Q68 -80 91 -55 Q106 -39 120 -22.5 Q134 -6 145 12 Q148 17 150 21.5 Q152 26 154 31 Q155 33 155.5 35.5 Q156 38 156 40 L155 42 Q151 41 146.5 40.5 Q142 40 138 39 Q90 26 64 -9 Q60 -13 62 -18 Q66 -27 57 -30 Q47 -34 39 -25 Q32 -17 35 -10 Q36 -6 37.5 -1.5 Q39 3 42 6 Q77 53 138 65 Q146 66 157 64 Q167 62 174 53.5 Q181 45 181 35 Q180 25 176.5 16 Q173 7 168 -1 Q159 -17 147.5 -31.5 Q136 -46 123 -59 Q100 -84 76.5 -108.5 Q53 -133 29 -157 L27 -160 Z " />
<glyph glyph-name="three" unicode="3" horiz-adv-x="175" d="M114 -42 L113 -40 Q108 -40 103 -40 Q98 -40 92 -40 Q85 -41 78 -42 Q71 -43 64 -44 Q54 -45 47 -36 Q40 -28 46 -21 Q49 -16 54 -13 Q68 -2 81.5 8 Q95 18 109 29 Q114 33 119 38 Q95 34 76 25 Q76 25 74 22 Q68 17 60 22 Q51 26 51 35 Q51 43 59 46 Q66 49 73.5 52 Q81 55 88 57 Q108 63 126 63 Q130 63 134 62 Q144 60 149.5 52 Q155 44 152 36 Q149 27 142 21 Q132 13 121.5 5 Q111 -3 100 -12 Q100 -12 95 -16 Q99 -16 103 -16 Q107 -16 111 -17 Q118 -18 123 -21 Q142 -29 140 -45 Q139 -53 135 -61 Q129 -70 121 -78 Q113 -86 105 -94 Q87 -110 69.5 -126 Q52 -142 34 -158 Q24 -168 14.5 -179 Q5 -190 -5 -201 Q-7 -204 -8.5 -207.5 Q-10 -211 -11 -214 Q-15 -226 -27 -220 Q-38 -214 -36 -202 Q-33 -193 -28 -186 Q-23 -179 -17 -172 Q1 -150 22 -131 Q43 -112 64 -93 Q75 -83 85.5 -73 Q96 -63 106 -53 Q109 -51 110.5 -47.5 Q112 -44 114 -42 Z " />
<glyph glyph-name="four" unicode="4" horiz-adv-x="184" d="M27 -24 L28 -25 Q34 -24 39.5 -22.5 Q45 -21 51 -19 Q72 -12 90.5 -3 Q109 6 123 21 Q129 26 132.5 33 Q136 40 140 47 Q143 52 145 54 Q151 61 162 53 Q173 46 169 37 Q167 29 163 24 Q153 11 146 -3.5 Q139 -18 133 -33 Q119 -63 107 -93.5 Q95 -124 86 -156 Q82 -169 80 -188 Q79 -192 82 -201 Q86 -214 76 -214 Q64 -214 58 -202 Q52 -189 54 -179 Q56 -166 58.5 -154 Q61 -142 65 -131 Q73 -106 82.5 -81 Q92 -56 102 -31 Q103 -30 102 -28 L91 -33 Q80 -38 68 -42 Q56 -46 43 -48 Q32 -49 22 -47 Q13 -46 7 -39 Q1 -32 0 -24 Q0 -17 2 -11 Q5 -2 8 7 Q11 16 14 25 Q15 28 13 31 Q10 38 15 44.5 Q20 51 28 49 Q34 47 39 42 Q44 37 44 31 Q44 24 41 15 Q38 6 34.5 -2.5 Q31 -11 28 -19 Q28 -19 27 -24 Z " />
<glyph glyph-name="five" unicode="5" horiz-adv-x="168" d="M38 -46 Q38 -46 38 -48 Q47 -47 56.5 -45.5 Q66 -44 75 -43 Q89 -42 100 -45 Q111 -48 117.5 -55.5 Q124 -63 123 -72 Q123 -80 119 -87 Q111 -102 100.5 -114.5 Q90 -127 79 -140 Q62 -157 46 -174 Q30 -191 13 -209 Q12 -210 10 -214 Q7 -222 -4 -217 Q-16 -211 -15 -201 Q-14 -196 -11 -193 Q0 -180 12 -168 Q24 -156 35 -143 Q49 -128 63 -113 Q77 -98 89 -81 Q90 -79 94 -72 Q94 -72 97 -67 Q93 -67 90.5 -67 Q88 -67 85 -67 Q75 -69 64 -70.5 Q53 -72 43 -74 Q33 -75 26 -74 Q18 -73 12 -67 Q6 -61 6 -54 Q6 -46 10 -40 Q16 -26 23.5 -12.5 Q31 1 37 15 Q41 24 44 33 Q47 42 50 51 Q54 64 69 54 Q71 52 73 53 Q82 53 91 53.5 Q100 54 109 55 Q122 55 132 60 Q141 63 149 53 Q157 42 149 38 Q141 33 133 32 Q121 31 108.5 30 Q96 29 83 29 Q80 28 79 29 Q73 31 72 26 Q68 12 62 -0.5 Q56 -13 49 -25 Q46 -30 43.5 -35.5 Q41 -41 38 -46 Z " />
<glyph glyph-name="six" unicode="6" horiz-adv-x="157" d="M53 -80 Q51 -85 48.5 -90 Q46 -95 43 -100 Q50 -98 55.5 -95.5 Q61 -93 67 -90 Q75 -88 82 -86 Q89 -84 98 -85 Q115 -86 120 -103 Q122 -114 118 -126 Q112 -141 103.5 -153.5 Q95 -166 84 -178 Q76 -187 67.5 -194.5 Q59 -202 49 -209 Q38 -216 27 -217 Q17 -219 8 -212.5 Q-1 -206 -3 -195 Q-7 -181 -4 -165 Q-4 -161 -6 -158 Q-13 -151 -8 -144 Q-6 -141 -4 -138 Q-2 -135 0 -132 Q2 -129 4 -126 Q6 -123 7 -120 Q18 -89 33 -61.5 Q48 -34 65 -8 Q74 5 82.5 17.5 Q91 30 100 42 Q104 48 110 53 Q117 59 126 54 Q132 51 133.5 44.5 Q135 38 130 35 Q125 32 121 27 Q117 22 114 17 Q98 -7 82.5 -30.5 Q67 -54 53 -80 Z M20 -172 Q19 -177 19 -182 Q19 -187 19 -192 L21 -193 Q24 -192 26.5 -191 Q29 -190 31 -189 Q38 -184 44.5 -179 Q51 -174 57 -168 Q79 -147 92 -119 Q93 -117 94 -114 Q95 -111 96 -108 Q56 -119 28 -141 Q27 -143 26 -145 Q24 -152 22.5 -158.5 Q21 -165 20 -172 Z " />
<glyph glyph-name="seven" unicode="7" horiz-adv-x="154" d="M127 24 Q129 27 130 30 Q131 33 133 36 Q125 36 119 36 Q113 36 107 36 Q99 35 91 34.5 Q83 34 75 33 Q67 32 58.5 31 Q50 30 42 29 Q29 26 24 38 Q19 50 33 52 Q42 54 51.5 55 Q61 56 71 57 Q79 58 86.5 59 Q94 60 102 60 Q110 60 118.5 60 Q127 60 135 58 Q146 56 152 48 Q158 40 156 30 Q154 15 144 1 Q122 -28 102 -55 Q80 -82 59.5 -110.5 Q39 -139 22 -170 Q19 -176 16.5 -183 Q14 -190 11 -198 Q7 -211 -4 -207 Q-16 -202 -12 -188 Q-8 -172 -1 -159 Q6 -146 14 -133 Q33 -102 54.5 -73.5 Q76 -45 98 -17 Q106 -7 113 3.5 Q120 14 127 24 Z " />
<glyph glyph-name="eight" unicode="8" horiz-adv-x="181" d="M43 -200 L43 -198 Q28 -199 17 -192 Q-2 -179 0 -156 Q1 -145 5.5 -136 Q10 -127 14 -118 Q23 -102 35.5 -89.5 Q48 -77 62 -67 Q66 -64 64 -60 Q60 -49 55.5 -38 Q51 -27 48 -16 Q44 -1 48.5 11.5 Q53 24 63 34 Q79 50 108 54 Q115 55 121.5 55 Q128 55 136 53 Q158 47 163 25 Q167 8 159 -6 Q154 -16 148.5 -25 Q143 -34 138 -43 Q130 -54 122.5 -65 Q115 -76 108 -87 Q102 -95 106 -106 Q120 -141 107 -162.5 Q94 -184 71 -193 Q64 -195 57 -196.5 Q50 -198 43 -200 Z M88 -59 Q88 -60 91 -63 Q100 -51 107.5 -40 Q115 -29 123 -18 Q127 -11 131 -3.5 Q135 4 138 11 Q140 15 139 23 Q138 30 130 31 Q102 32 83 17 Q66 3 73 -18 Q76 -28 80 -38.5 Q84 -49 88 -59 Z M88 -130 Q88 -119 84 -109.5 Q80 -100 76 -89 Q75 -90 75 -90 Q39 -117 26 -155 Q25 -159 25 -166 Q24 -172 31 -174 Q36 -175 38 -175 Q60 -173 74 -161 Q89 -149 88 -130 Z " />
<glyph glyph-name="nine" unicode="9" horiz-adv-x="162" d="M106 -26 Q106 -26 106 -25 Q98 -32 89.5 -39 Q81 -46 73 -53 Q64 -60 54 -66 Q44 -72 32 -75 Q24 -77 18 -76 Q9 -74 4 -67 Q-1 -60 0 -50 Q2 -39 7 -31 Q22 -3 42 20 Q62 43 89 59 Q95 63 101.5 65.5 Q108 68 115 70 Q123 73 131 69 Q140 64 142 57 Q144 50 138 43 Q150 37 146 22 Q142 8 138 -5 Q134 -18 130 -32 Q122 -57 114 -82.5 Q106 -108 98 -134 Q93 -149 86 -163 Q79 -177 70 -190 Q57 -206 40 -214 Q31 -218 23 -215 Q11 -211 11 -200 Q11 -191 12 -183 Q14 -172 25 -173 Q34 -175 36 -186 L36 -188 Q44 -183 52 -172 Q60 -160 66 -147 Q72 -134 76 -120 Q84 -97 91.5 -73 Q99 -49 106 -26 Z M102 9 Q109 17 115 25.5 Q121 34 128 42 Q122 49 115 45 Q111 43 107.5 41 Q104 39 101 37 Q77 22 59.5 2 Q42 -18 29 -42 Q27 -44 26.5 -46.5 Q26 -49 25 -51 L26 -52 Q30 -50 34 -48 Q38 -46 41 -44 Q59 -33 74 -19.5 Q89 -6 102 9 Z " />
<glyph glyph-name="colon" unicode="&#x3a;" horiz-adv-x="169" d="M73 -69 Q82 -69 87 -77 Q91 -84 86 -92 Q76 -106 65 -107 Q55 -107 50.5 -101 Q46 -95 49 -87 Q51 -80 58.5 -74.5 Q66 -69 73 -69 Z M109 35 Q113 27 108 20 Q98 6 87 5 Q77 5 72.5 11 Q68 17 71 24 Q73 31 80 37 Q87 43 94 43 Q104 43 109 35 Z " />
<glyph glyph-name="semicolon" unicode="&#x3b;" horiz-adv-x="180" d="M89 -71 Q106 -72 101 -89 Q100 -91 97 -97 Q90 -111 84 -125.5 Q78 -140 73 -155 Q72 -160 67 -166 Q61 -173 52 -168 Q44 -162 48 -153 Q53 -140 57.5 -127.5 Q62 -115 67 -102 Q53 -93 60 -80 Q69 -62 86 -70 Q88 -70 89 -71 Z M120 35 Q125 27 119 20 Q109 6 99 5 Q89 5 84.5 11 Q80 17 82 24 Q85 31 92 37 Q99 43 106 43 Q116 43 120 35 Z " />
<glyph glyph-name="less" unicode="&#x3c;" horiz-adv-x="400" d="M343 131 Q344 123 337 119 Q312 104 289.5 87 Q267 70 243 53 Q208 27 173.5 1.5 Q139 -24 105 -50 Q96 -57 88 -64 Q80 -71 72 -79 Q67 -83 67 -85 Q67 -87 72 -92 Q83 -102 94 -112 Q105 -122 117 -132 Q143 -155 169.5 -176.5 Q196 -198 222 -220 Q229 -227 235.5 -234.5 Q242 -242 248 -249 Q251 -252 252 -256 Q255 -265 247 -270 Q238 -276 232 -269 Q231 -268 229.5 -266 Q228 -264 227 -263 Q219 -254 211 -245 Q203 -236 193 -229 Q167 -206 141 -184.5 Q115 -163 88 -141 Q79 -134 70.5 -125.5 Q62 -117 53 -109 Q42 -98 43 -85 Q44 -76 53 -66 Q63 -55 74 -45.5 Q85 -36 97 -27 Q149 12 201 49.5 Q253 87 305 126 Q314 132 324 138 Q330 140 335 140 Q343 139 343 131 Z " />
<glyph glyph-name="equal" unicode="&#x3d;" horiz-adv-x="297" d="M226 -23 Q231 -35 216 -34 Q203 -34 190.5 -34.5 Q178 -35 165 -36 Q152 -37 140 -38 Q128 -39 115 -41 Q103 -42 94 -42 Q90 -42 86 -41 Q74 -38 72 -28 Q70 -19 79 -18 Q91 -17 102 -16 Q113 -15 124 -14 Q134 -13 143.5 -12.5 Q153 -12 163 -12 Q174 -11 185 -11 Q196 -11 207 -11 Q221 -11 226 -23 Z M187 -63 Q197 -62 204 -71 Q207 -76 207 -80 Q207 -84 204 -86 Q196 -89 187 -89 Q181 -90 174.5 -89.5 Q168 -89 162 -90 Q149 -90 136 -91 Q123 -92 109 -93 Q102 -93 95.5 -94 Q89 -95 82 -95 Q78 -96 75 -95 Q65 -93 61 -83 Q57 -73 67 -72 Q78 -71 89.5 -70 Q101 -69 112 -68 Q121 -67 129.5 -66.5 Q138 -66 147 -66 Q151 -66 155 -66 Q159 -66 163 -66 L164 -66 Q170 -66 175.5 -65 Q181 -64 187 -63 Z " />
<glyph glyph-name="greater" unicode="&#x3e;" horiz-adv-x="343" d="M276 -28 Q287 -41 275 -55 Q266 -67 255 -76 Q230 -96 206 -115.5 Q182 -135 158 -155 Q124 -183 90 -210.5 Q56 -238 22 -266 Q19 -268 16.5 -270 Q14 -272 12 -275 Q1 -284 -6 -276 Q-14 -268 -4 -258 Q7 -249 17 -240.5 Q27 -232 37 -223 Q83 -186 128 -150 Q173 -114 218 -77 Q227 -70 235.5 -62 Q244 -54 253 -47 Q253 -47 256 -43 Q252 -39 248.5 -35.5 Q245 -32 241 -28 Q210 1 179.5 30.5 Q149 60 118 90 Q108 99 97.5 107.5 Q87 116 76 125 Q71 129 68 134 Q61 144 72 152 Q80 158 88 149 Q94 142 103 136 Q122 122 138.5 106 Q155 90 172 73 Q197 50 221 26.5 Q245 3 269 -20 Q273 -24 276 -28 Z " />
<glyph glyph-name="question" unicode="&#x3f;" horiz-adv-x="398" d="M351 509 Q373 491 372 462 Q371 443 365 427 Q359 411 351 395 Q338 371 323 349 Q308 327 292 306 Q267 273 243 241 Q219 209 195 176 Q157 123 128.5 65.5 Q100 8 82 -55 Q79 -67 77 -78.5 Q75 -90 72 -101 Q71 -105 70 -108 Q66 -118 56 -114 Q46 -110 48 -99 Q55 -56 68 -15 Q88 43 116 96 Q144 149 179 198 Q200 227 222 255 Q244 283 265 312 Q283 336 300 360 Q317 384 331 411 Q337 422 341.5 434 Q346 446 347 459 Q349 469 347 476 Q344 487 336 492.5 Q328 498 318 501 Q304 503 291 501.5 Q278 500 266 496 Q226 483 194.5 460 Q163 437 139 404 Q119 378 110 350 Q107 338 110 328 Q114 316 103 313 Q93 310 88 322 Q82 336 85 352 Q89 369 96.5 384 Q104 399 114 413 Q167 488 252 517 Q278 526 298 526 Q313 526 326.5 522.5 Q340 519 351 509 Z M53 -202 Q58 -202 63 -206.5 Q68 -211 68 -217 Q69 -228 58 -228 Q52 -228 47 -223.5 Q42 -219 42 -214 Q41 -202 53 -202 Z " />
<glyph glyph-name="at" unicode="&#x40;" horiz-adv-x="577" d="M490 129 Q499 105 500 82.5 Q501 60 498 38 Q494 6 483.5 -22 Q473 -50 458 -76 Q443 -101 424.5 -123 Q406 -145 383 -163 Q372 -172 360 -178.5 Q348 -185 334 -188 Q317 -192 303 -187 Q281 -179 273 -157 Q268 -144 268 -132 Q268 -120 269 -109 Q270 -104 270.5 -99.5 Q271 -95 272 -90 Q267 -94 262 -98.5 Q257 -103 252 -108 Q238 -120 224 -130.5 Q210 -141 193 -149 Q187 -152 180.5 -154 Q174 -156 166 -156 Q156 -156 148 -148.5 Q140 -141 140 -130 Q139 -119 144 -107 Q154 -85 168.5 -67 Q183 -49 201 -34 Q211 -26 222 -19 Q233 -12 247 -9 Q257 -6 268 -6.5 Q279 -7 290 -13 Q313 -24 322 -48 Q324 -54 326 -64 Q327 -73 320 -75 Q312 -77 306 -70 L304 -69 Q300 -83 297 -97.5 Q294 -112 293 -127 Q292 -137 293 -145 Q294 -154 299 -160 Q304 -166 315 -165 Q324 -165 329 -163 Q342 -159 353 -151.5 Q364 -144 374 -135 Q411 -102 435.5 -61 Q460 -20 471 31 Q474 46 475.5 61.5 Q477 77 475 93 Q473 107 468.5 121 Q464 135 454 148 Q442 163 428 170.5 Q414 178 398 180 Q375 184 355 180 Q335 176 316 168 Q289 157 267 140.5 Q245 124 225 104 Q188 69 159 27.5 Q130 -14 107 -61 Q93 -90 81.5 -119.5 Q70 -149 63 -182 Q60 -199 58 -215.5 Q56 -232 57 -250 Q58 -261 60 -271.5 Q62 -282 67 -293 Q80 -323 112 -328 Q129 -331 144 -329.5 Q159 -328 173 -324 Q209 -313 241.5 -299 Q274 -285 304 -266 Q310 -261 315.5 -256 Q321 -251 327 -247 Q330 -244 330 -244 Q337 -239 346 -246 Q354 -254 349 -261 Q347 -264 343 -269 Q329 -282 313 -291.5 Q297 -301 280 -310 Q257 -321 233.5 -330.5 Q210 -340 184 -347 Q176 -349 167.5 -350.5 Q159 -352 151 -353 Q151 -353 148 -354 L126 -354 Q122 -353 117 -352.5 Q112 -352 108 -351 Q62 -339 43 -294 Q35 -276 33 -258 Q31 -240 32 -222 Q34 -190 41 -161 Q48 -132 59 -104 Q82 -44 114 8 Q146 60 188 106 Q210 130 235.5 150.5 Q261 171 292 186 Q305 192 319 197 Q333 202 348 204 Q369 207 390 205 Q411 203 433 192 Q473 171 490 129 Z M277 -49 Q281 -46 285 -44.5 Q289 -43 295 -45 Q287 -32 273 -31 Q260 -30 245 -37 Q230 -45 218 -55.5 Q206 -66 195 -78 Q186 -88 179 -98.5 Q172 -109 167 -121 Q166 -123 165.5 -126 Q165 -129 164 -132 Q171 -131 177 -128 Q183 -125 188 -122 Q204 -113 217.5 -101.5 Q231 -90 244 -78 Q252 -71 260.5 -63.5 Q269 -56 277 -49 Z " />
<glyph glyph-name="A" unicode="A" horiz-adv-x="460" d="M1566 -269 Q1572 -269 1574.5 -273 Q1577 -277 1577 -281.5 Q1577 -286 1574.5 -290 Q1572 -294 1566 -294 L1549 -294 L1444 -294 L1290 -294 L1097 -294 L882 -294 L655 -294 L428 -294 L313 -294 Q308 -317 303 -340 Q298 -363 293 -386 Q284 -424 276.5 -460.5 Q269 -497 261 -534 Q257 -554 253.5 -573 Q250 -592 246 -611 Q244 -622 235 -623 Q228 -623 224 -618 Q220 -613 222 -606 Q226 -582 231 -557.5 Q236 -533 241 -509 Q251 -461 261 -413.5 Q271 -366 282 -318 Q283 -312 284.5 -306 Q286 -300 287 -294 L216 -294 L33 -294 L-46 -294 Q-56 -314 -66.5 -334 Q-77 -354 -88 -374 Q-120 -433 -150.5 -492 Q-181 -551 -210 -612 Q-213 -617 -215.5 -622.5 Q-218 -628 -220 -633 Q-222 -637 -224 -639 Q-231 -648 -240 -643 Q-249 -637 -245 -626 Q-237 -610 -231 -597 Q-199 -531 -165.5 -466.5 Q-132 -402 -97 -337 Q-91 -326 -85.5 -315.5 Q-80 -305 -74 -294 L-111 -294 L-202 -294 Q-208 -294 -210.5 -290 Q-213 -286 -213 -281.5 Q-213 -277 -210 -273 Q-207 -269 -202 -269 L-185 -269 L-80 -269 L-61 -269 Q-11 -175 38.5 -82 Q88 11 139 105 Q187 195 235 284 Q283 373 334 461 Q364 514 395 565 Q426 616 459 667 Q467 678 474.5 688 Q482 698 491 709 Q495 715 503 719 Q511 724 518.5 721.5 Q526 719 529 711 Q531 705 532 697 Q533 678 530 659.5 Q527 641 524 622 Q513 568 500 514.5 Q487 461 474 407 Q455 326 436 246.5 Q417 167 398 87 Q384 26 370.5 -33.5 Q357 -93 344 -154 Q337 -183 330.5 -211.5 Q324 -240 318 -269 L482 -269 L709 -269 L936 -269 L1148 -269 L1331 -269 L1475 -269 L1566 -269 Z M267 -269 L292 -269 Q302 -224 312 -179 Q322 -134 333 -88 Q344 -39 354.5 9 Q365 57 377 106 Q390 164 403.5 221.5 Q417 279 431 337 Q445 396 459 453.5 Q473 511 487 570 Q492 592 496 614 Q500 636 504 658 Q506 666 506.5 673.5 Q507 681 507 688 L506 689 Q501 682 496 675.5 Q491 669 486 662 Q460 623 435.5 583 Q411 543 387 502 Q337 419 291 334.5 Q245 250 199 164 Q141 55 83.5 -52.5 Q26 -160 -33 -269 L74 -269 L267 -269 Z " />
<glyph glyph-name="&amp;#xc0;" unicode="&#xc0;" horiz-adv-x="460" d="M1566 -269 Q1572 -269 1574.5 -273 Q1577 -277 1577 -281.5 Q1577 -286 1574.5 -290 Q1572 -294 1566 -294 L1549 -294 L1444 -294 L1290 -294 L1097 -294 L882 -294 L655 -294 L428 -294 L313 -294 Q308 -317 303 -340 Q298 -363 293 -386 Q284 -424 276.5 -460.5 Q269 -497 261 -534 Q257 -554 253.5 -573 Q250 -592 246 -611 Q244 -622 235 -623 Q228 -623 224 -618 Q220 -613 222 -606 Q226 -582 231 -557.5 Q236 -533 241 -509 Q251 -461 261 -413.5 Q271 -366 282 -318 Q283 -312 284.5 -306 Q286 -300 287 -294 L216 -294 L33 -294 L-46 -294 Q-56 -314 -66.5 -334 Q-77 -354 -88 -374 Q-120 -433 -150.5 -492 Q-181 -551 -210 -612 Q-213 -617 -215.5 -622.5 Q-218 -628 -220 -633 Q-222 -637 -224 -639 Q-231 -648 -240 -643 Q-249 -637 -245 -626 Q-237 -610 -231 -597 Q-199 -531 -165.5 -466.5 Q-132 -402 -97 -337 Q-91 -326 -85.5 -315.5 Q-80 -305 -74 -294 L-111 -294 L-202 -294 Q-208 -294 -210.5 -290 Q-213 -286 -213 -281.5 Q-213 -277 -210 -273 Q-207 -269 -202 -269 L-185 -269 L-80 -269 L-61 -269 Q-11 -175 38.5 -82 Q88 11 139 105 Q187 195 235 284 Q283 373 334 461 Q364 514 395 565 Q426 616 459 667 Q467 678 474.5 688 Q482 698 491 709 Q495 715 503 719 Q511 724 518.5 721.5 Q526 719 529 711 Q531 705 532 697 Q533 678 530 659.5 Q527 641 524 622 Q513 568 500 514.5 Q487 461 474 407 Q455 326 436 246.5 Q417 167 398 87 Q384 26 370.5 -33.5 Q357 -93 344 -154 Q337 -183 330.5 -211.5 Q324 -240 318 -269 L482 -269 L709 -269 L936 -269 L1148 -269 L1331 -269 L1475 -269 L1566 -269 Z M267 -269 L292 -269 Q302 -224 312 -179 Q322 -134 333 -88 Q344 -39 354.5 9 Q365 57 377 106 Q390 164 403.5 221.5 Q417 279 431 337 Q445 396 459 453.5 Q473 511 487 570 Q492 592 496 614 Q500 636 504 658 Q506 666 506.5 673.5 Q507 681 507 688 L506 689 Q501 682 496 675.5 Q491 669 486 662 Q460 623 435.5 583 Q411 543 387 502 Q337 419 291 334.5 Q245 250 199 164 Q141 55 83.5 -52.5 Q26 -160 -33 -269 L74 -269 L267 -269 Z " />
<glyph glyph-name="&amp;#xc1;" unicode="&#xc1;" horiz-adv-x="460" d="M1566 -269 Q1572 -269 1574.5 -273 Q1577 -277 1577 -281.5 Q1577 -286 1574.5 -290 Q1572 -294 1566 -294 L1549 -294 L1444 -294 L1290 -294 L1097 -294 L882 -294 L655 -294 L428 -294 L313 -294 Q308 -317 303 -340 Q298 -363 293 -386 Q284 -424 276.5 -460.5 Q269 -497 261 -534 Q257 -554 253.5 -573 Q250 -592 246 -611 Q244 -622 235 -623 Q228 -623 224 -618 Q220 -613 222 -606 Q226 -582 231 -557.5 Q236 -533 241 -509 Q251 -461 261 -413.5 Q271 -366 282 -318 Q283 -312 284.5 -306 Q286 -300 287 -294 L216 -294 L33 -294 L-46 -294 Q-56 -314 -66.5 -334 Q-77 -354 -88 -374 Q-120 -433 -150.5 -492 Q-181 -551 -210 -612 Q-213 -617 -215.5 -622.5 Q-218 -628 -220 -633 Q-222 -637 -224 -639 Q-231 -648 -240 -643 Q-249 -637 -245 -626 Q-237 -610 -231 -597 Q-199 -531 -165.5 -466.5 Q-132 -402 -97 -337 Q-91 -326 -85.5 -315.5 Q-80 -305 -74 -294 L-111 -294 L-202 -294 Q-208 -294 -210.5 -290 Q-213 -286 -213 -281.5 Q-213 -277 -210 -273 Q-207 -269 -202 -269 L-185 -269 L-80 -269 L-61 -269 Q-11 -175 38.5 -82 Q88 11 139 105 Q187 195 235 284 Q283 373 334 461 Q364 514 395 565 Q426 616 459 667 Q467 678 474.5 688 Q482 698 491 709 Q495 715 503 719 Q511 724 518.5 721.5 Q526 719 529 711 Q531 705 532 697 Q533 678 530 659.5 Q527 641 524 622 Q513 568 500 514.5 Q487 461 474 407 Q455 326 436 246.5 Q417 167 398 87 Q384 26 370.5 -33.5 Q357 -93 344 -154 Q337 -183 330.5 -211.5 Q324 -240 318 -269 L482 -269 L709 -269 L936 -269 L1148 -269 L1331 -269 L1475 -269 L1566 -269 Z M267 -269 L292 -269 Q302 -224 312 -179 Q322 -134 333 -88 Q344 -39 354.5 9 Q365 57 377 106 Q390 164 403.5 221.5 Q417 279 431 337 Q445 396 459 453.5 Q473 511 487 570 Q492 592 496 614 Q500 636 504 658 Q506 666 506.5 673.5 Q507 681 507 688 L506 689 Q501 682 496 675.5 Q491 669 486 662 Q460 623 435.5 583 Q411 543 387 502 Q337 419 291 334.5 Q245 250 199 164 Q141 55 83.5 -52.5 Q26 -160 -33 -269 L74 -269 L267 -269 Z " />
<glyph glyph-name="&amp;#xc2;" unicode="&#xc2;" horiz-adv-x="460" d="M1566 -269 Q1572 -269 1574.5 -273 Q1577 -277 1577 -281.5 Q1577 -286 1574.5 -290 Q1572 -294 1566 -294 L1549 -294 L1444 -294 L1290 -294 L1097 -294 L882 -294 L655 -294 L428 -294 L313 -294 Q308 -317 303 -340 Q298 -363 293 -386 Q284 -424 276.5 -460.5 Q269 -497 261 -534 Q257 -554 253.5 -573 Q250 -592 246 -611 Q244 -622 235 -623 Q228 -623 224 -618 Q220 -613 222 -606 Q226 -582 231 -557.5 Q236 -533 241 -509 Q251 -461 261 -413.5 Q271 -366 282 -318 Q283 -312 284.5 -306 Q286 -300 287 -294 L216 -294 L33 -294 L-46 -294 Q-56 -314 -66.5 -334 Q-77 -354 -88 -374 Q-120 -433 -150.5 -492 Q-181 -551 -210 -612 Q-213 -617 -215.5 -622.5 Q-218 -628 -220 -633 Q-222 -637 -224 -639 Q-231 -648 -240 -643 Q-249 -637 -245 -626 Q-237 -610 -231 -597 Q-199 -531 -165.5 -466.5 Q-132 -402 -97 -337 Q-91 -326 -85.5 -315.5 Q-80 -305 -74 -294 L-111 -294 L-202 -294 Q-208 -294 -210.5 -290 Q-213 -286 -213 -281.5 Q-213 -277 -210 -273 Q-207 -269 -202 -269 L-185 -269 L-80 -269 L-61 -269 Q-11 -175 38.5 -82 Q88 11 139 105 Q187 195 235 284 Q283 373 334 461 Q364 514 395 565 Q426 616 459 667 Q467 678 474.5 688 Q482 698 491 709 Q495 715 503 719 Q511 724 518.5 721.5 Q526 719 529 711 Q531 705 532 697 Q533 678 530 659.5 Q527 641 524 622 Q513 568 500 514.5 Q487 461 474 407 Q455 326 436 246.5 Q417 167 398 87 Q384 26 370.5 -33.5 Q357 -93 344 -154 Q337 -183 330.5 -211.5 Q324 -240 318 -269 L482 -269 L709 -269 L936 -269 L1148 -269 L1331 -269 L1475 -269 L1566 -269 Z M267 -269 L292 -269 Q302 -224 312 -179 Q322 -134 333 -88 Q344 -39 354.5 9 Q365 57 377 106 Q390 164 403.5 221.5 Q417 279 431 337 Q445 396 459 453.5 Q473 511 487 570 Q492 592 496 614 Q500 636 504 658 Q506 666 506.5 673.5 Q507 681 507 688 L506 689 Q501 682 496 675.5 Q491 669 486 662 Q460 623 435.5 583 Q411 543 387 502 Q337 419 291 334.5 Q245 250 199 164 Q141 55 83.5 -52.5 Q26 -160 -33 -269 L74 -269 L267 -269 Z " />
<glyph glyph-name="&amp;#xc3;" unicode="&#xc3;" horiz-adv-x="460" d="M1566 -269 Q1572 -269 1574.5 -273 Q1577 -277 1577 -281.5 Q1577 -286 1574.5 -290 Q1572 -294 1566 -294 L1549 -294 L1444 -294 L1290 -294 L1097 -294 L882 -294 L655 -294 L428 -294 L313 -294 Q308 -317 303 -340 Q298 -363 293 -386 Q284 -424 276.5 -460.5 Q269 -497 261 -534 Q257 -554 253.5 -573 Q250 -592 246 -611 Q244 -622 235 -623 Q228 -623 224 -618 Q220 -613 222 -606 Q226 -582 231 -557.5 Q236 -533 241 -509 Q251 -461 261 -413.5 Q271 -366 282 -318 Q283 -312 284.5 -306 Q286 -300 287 -294 L216 -294 L33 -294 L-46 -294 Q-56 -314 -66.5 -334 Q-77 -354 -88 -374 Q-120 -433 -150.5 -492 Q-181 -551 -210 -612 Q-213 -617 -215.5 -622.5 Q-218 -628 -220 -633 Q-222 -637 -224 -639 Q-231 -648 -240 -643 Q-249 -637 -245 -626 Q-237 -610 -231 -597 Q-199 -531 -165.5 -466.5 Q-132 -402 -97 -337 Q-91 -326 -85.5 -315.5 Q-80 -305 -74 -294 L-111 -294 L-202 -294 Q-208 -294 -210.5 -290 Q-213 -286 -213 -281.5 Q-213 -277 -210 -273 Q-207 -269 -202 -269 L-185 -269 L-80 -269 L-61 -269 Q-11 -175 38.5 -82 Q88 11 139 105 Q187 195 235 284 Q283 373 334 461 Q364 514 395 565 Q426 616 459 667 Q467 678 474.5 688 Q482 698 491 709 Q495 715 503 719 Q511 724 518.5 721.5 Q526 719 529 711 Q531 705 532 697 Q533 678 530 659.5 Q527 641 524 622 Q513 568 500 514.5 Q487 461 474 407 Q455 326 436 246.5 Q417 167 398 87 Q384 26 370.5 -33.5 Q357 -93 344 -154 Q337 -183 330.5 -211.5 Q324 -240 318 -269 L482 -269 L709 -269 L936 -269 L1148 -269 L1331 -269 L1475 -269 L1566 -269 Z M267 -269 L292 -269 Q302 -224 312 -179 Q322 -134 333 -88 Q344 -39 354.5 9 Q365 57 377 106 Q390 164 403.5 221.5 Q417 279 431 337 Q445 396 459 453.5 Q473 511 487 570 Q492 592 496 614 Q500 636 504 658 Q506 666 506.5 673.5 Q507 681 507 688 L506 689 Q501 682 496 675.5 Q491 669 486 662 Q460 623 435.5 583 Q411 543 387 502 Q337 419 291 334.5 Q245 250 199 164 Q141 55 83.5 -52.5 Q26 -160 -33 -269 L74 -269 L267 -269 Z " />
<glyph glyph-name="&amp;#xc4;" unicode="&#xc4;" horiz-adv-x="460" d="M1566 -269 Q1572 -269 1574.5 -273 Q1577 -277 1577 -281.5 Q1577 -286 1574.5 -290 Q1572 -294 1566 -294 L1549 -294 L1444 -294 L1290 -294 L1097 -294 L882 -294 L655 -294 L428 -294 L313 -294 Q308 -317 303 -340 Q298 -363 293 -386 Q284 -424 276.5 -460.5 Q269 -497 261 -534 Q257 -554 253.5 -573 Q250 -592 246 -611 Q244 -622 235 -623 Q228 -623 224 -618 Q220 -613 222 -606 Q226 -582 231 -557.5 Q236 -533 241 -509 Q251 -461 261 -413.5 Q271 -366 282 -318 Q283 -312 284.5 -306 Q286 -300 287 -294 L216 -294 L33 -294 L-46 -294 Q-56 -314 -66.5 -334 Q-77 -354 -88 -374 Q-120 -433 -150.5 -492 Q-181 -551 -210 -612 Q-213 -617 -215.5 -622.5 Q-218 -628 -220 -633 Q-222 -637 -224 -639 Q-231 -648 -240 -643 Q-249 -637 -245 -626 Q-237 -610 -231 -597 Q-199 -531 -165.5 -466.5 Q-132 -402 -97 -337 Q-91 -326 -85.5 -315.5 Q-80 -305 -74 -294 L-111 -294 L-202 -294 Q-208 -294 -210.5 -290 Q-213 -286 -213 -281.5 Q-213 -277 -210 -273 Q-207 -269 -202 -269 L-185 -269 L-80 -269 L-61 -269 Q-11 -175 38.5 -82 Q88 11 139 105 Q187 195 235 284 Q283 373 334 461 Q364 514 395 565 Q426 616 459 667 Q467 678 474.5 688 Q482 698 491 709 Q495 715 503 719 Q511 724 518.5 721.5 Q526 719 529 711 Q531 705 532 697 Q533 678 530 659.5 Q527 641 524 622 Q513 568 500 514.5 Q487 461 474 407 Q455 326 436 246.5 Q417 167 398 87 Q384 26 370.5 -33.5 Q357 -93 344 -154 Q337 -183 330.5 -211.5 Q324 -240 318 -269 L482 -269 L709 -269 L936 -269 L1148 -269 L1331 -269 L1475 -269 L1566 -269 Z M267 -269 L292 -269 Q302 -224 312 -179 Q322 -134 333 -88 Q344 -39 354.5 9 Q365 57 377 106 Q390 164 403.5 221.5 Q417 279 431 337 Q445 396 459 453.5 Q473 511 487 570 Q492 592 496 614 Q500 636 504 658 Q506 666 506.5 673.5 Q507 681 507 688 L506 689 Q501 682 496 675.5 Q491 669 486 662 Q460 623 435.5 583 Q411 543 387 502 Q337 419 291 334.5 Q245 250 199 164 Q141 55 83.5 -52.5 Q26 -160 -33 -269 L74 -269 L267 -269 Z " />
<glyph glyph-name="&amp;#xc5;" unicode="&#xc5;" horiz-adv-x="460" d="M1566 -269 Q1572 -269 1574.5 -273 Q1577 -277 1577 -281.5 Q1577 -286 1574.5 -290 Q1572 -294 1566 -294 L1549 -294 L1444 -294 L1290 -294 L1097 -294 L882 -294 L655 -294 L428 -294 L313 -294 Q308 -317 303 -340 Q298 -363 293 -386 Q284 -424 276.5 -460.5 Q269 -497 261 -534 Q257 -554 253.5 -573 Q250 -592 246 -611 Q244 -622 235 -623 Q228 -623 224 -618 Q220 -613 222 -606 Q226 -582 231 -557.5 Q236 -533 241 -509 Q251 -461 261 -413.5 Q271 -366 282 -318 Q283 -312 284.5 -306 Q286 -300 287 -294 L216 -294 L33 -294 L-46 -294 Q-56 -314 -66.5 -334 Q-77 -354 -88 -374 Q-120 -433 -150.5 -492 Q-181 -551 -210 -612 Q-213 -617 -215.5 -622.5 Q-218 -628 -220 -633 Q-222 -637 -224 -639 Q-231 -648 -240 -643 Q-249 -637 -245 -626 Q-237 -610 -231 -597 Q-199 -531 -165.5 -466.5 Q-132 -402 -97 -337 Q-91 -326 -85.5 -315.5 Q-80 -305 -74 -294 L-111 -294 L-202 -294 Q-208 -294 -210.5 -290 Q-213 -286 -213 -281.5 Q-213 -277 -210 -273 Q-207 -269 -202 -269 L-185 -269 L-80 -269 L-61 -269 Q-11 -175 38.5 -82 Q88 11 139 105 Q187 195 235 284 Q283 373 334 461 Q364 514 395 565 Q426 616 459 667 Q467 678 474.5 688 Q482 698 491 709 Q495 715 503 719 Q511 724 518.5 721.5 Q526 719 529 711 Q531 705 532 697 Q533 678 530 659.5 Q527 641 524 622 Q513 568 500 514.5 Q487 461 474 407 Q455 326 436 246.5 Q417 167 398 87 Q384 26 370.5 -33.5 Q357 -93 344 -154 Q337 -183 330.5 -211.5 Q324 -240 318 -269 L482 -269 L709 -269 L936 -269 L1148 -269 L1331 -269 L1475 -269 L1566 -269 Z M267 -269 L292 -269 Q302 -224 312 -179 Q322 -134 333 -88 Q344 -39 354.5 9 Q365 57 377 106 Q390 164 403.5 221.5 Q417 279 431 337 Q445 396 459 453.5 Q473 511 487 570 Q492 592 496 614 Q500 636 504 658 Q506 666 506.5 673.5 Q507 681 507 688 L506 689 Q501 682 496 675.5 Q491 669 486 662 Q460 623 435.5 583 Q411 543 387 502 Q337 419 291 334.5 Q245 250 199 164 Q141 55 83.5 -52.5 Q26 -160 -33 -269 L74 -269 L267 -269 Z " />
<glyph glyph-name="B" unicode="B" horiz-adv-x="747" d="M15 -409 Q15 -409 17 -412 Q19 -407 21.5 -403 Q24 -399 25 -395 Q35 -369 44.5 -344 Q54 -319 63 -293 Q89 -219 112.5 -145 Q136 -71 158 5 Q172 49 185 93.5 Q198 138 211 183 Q217 206 222.5 228.5 Q228 251 231 275 Q232 282 232 289 Q232 296 233 303 Q233 305 232 307 Q230 316 236 321 Q242 325 249 322 Q256 319 257 310 Q257 298 256 286 Q255 274 253 262 Q246 220 235 179 Q224 138 211 97 Q189 24 167 -48 Q145 -120 122 -193 Q107 -241 91 -287.5 Q75 -334 57 -380 Q54 -390 49.5 -399 Q45 -408 41 -418 Q37 -426 31 -433 Q23 -442 13 -441 Q3 -440 -3 -428 Q-9 -414 -11 -397 Q-14 -379 -16 -361 Q-18 -343 -19 -325 Q-21 -288 -21 -249 Q-21 -233 -20 -216.5 Q-19 -200 -18 -183 Q-16 -154 -12 -125.5 Q-8 -97 -3 -69 Q13 30 43 128 Q65 197 92 262 Q119 327 156 389 Q186 440 221 486.5 Q256 533 298 574 Q330 606 366 632.5 Q402 659 443 679 Q462 688 481 695 Q500 702 521 705 Q537 708 552.5 708 Q568 708 585 704 Q634 690 648 637 Q653 622 653 606.5 Q653 591 651 576 Q647 538 634 504 Q621 470 603 437 Q582 396 556.5 358 Q531 320 502 283 Q464 234 423.5 188 Q383 142 340 97 Q333 90 326.5 84 Q320 78 313 71 L314 70 Q321 72 328 74.5 Q335 77 341 79 Q370 88 398.5 96.5 Q427 105 457 110 Q469 112 481.5 113.5 Q494 115 506 116 Q534 118 556 117 Q579 116 600.5 110.5 Q622 105 642 91 Q674 68 680 28 Q683 7 680.5 -14 Q678 -35 672 -55 Q662 -87 648 -116 Q634 -145 618 -173 Q595 -211 570 -245.5 Q545 -280 518 -314 Q455 -392 383 -459 Q328 -509 270 -552 Q212 -595 146 -629 Q124 -640 101 -650 Q78 -660 53 -666 Q35 -670 17.5 -671 Q0 -672 -18 -671 Q-29 -670 -40 -668 Q-51 -666 -62 -662 Q-78 -656 -87 -646 Q-101 -631 -100 -610 Q-99 -596 -94 -583.5 Q-89 -571 -81 -560 L-78 -557 Q-70 -548 -61 -556 Q-52 -563 -60 -573 Q-72 -588 -75 -605 Q-80 -627 -60 -637 Q-50 -642 -40.5 -644 Q-31 -646 -21 -647 Q-17 -647 -13 -647 Q-9 -647 -5 -648 Q18 -649 39 -644.5 Q60 -640 81 -632 Q119 -617 154 -597.5 Q189 -578 223 -555 Q281 -516 332.5 -471 Q384 -426 432 -375 Q470 -335 504 -293 Q538 -251 569 -205 Q591 -172 609.5 -138.5 Q628 -105 642 -68 Q647 -54 651 -39.5 Q655 -25 657 -9 Q660 15 655 34 Q650 53 637.5 64.5 Q625 76 607 83 Q587 91 564 93 Q555 93 546.5 93.5 Q538 94 530 94 Q507 93 484.5 90 Q462 87 439 82 Q407 75 376.5 65 Q346 55 315 44 Q304 40 290 38 Q280 36 274 44 Q269 52 274 60 Q283 73 292 82 Q317 109 342.5 135.5 Q368 162 392 189 Q439 242 482 296.5 Q525 351 561 412 Q579 441 593.5 470.5 Q608 500 618 533 Q622 548 625 563 Q628 578 629 594 Q630 619 623 638 Q610 676 570 683 Q550 686 531 683 Q512 680 493 674 Q462 663 434.5 647.5 Q407 632 381 613 Q345 587 314 556.5 Q283 526 256 491 Q202 425 162.5 352 Q123 279 94 200 Q70 137 52.5 73 Q35 9 23 -58 Q19 -82 15.5 -105 Q12 -128 10 -152 Q8 -168 6.5 -184 Q5 -200 5 -217 Q4 -228 3.5 -239 Q3 -250 3 -261 Q3 -274 3 -286.5 Q3 -299 4 -312 Q5 -327 6 -341.5 Q7 -356 9 -370 Q10 -380 12 -389.5 Q14 -399 15 -409 Z " />
<glyph glyph-name="C" unicode="C" horiz-adv-x="521" d="M477 662 Q478 653 479 644.5 Q480 636 481 627 Q480 597 475 568.5 Q470 540 462 512 Q448 466 429.5 422.5 Q411 379 389 336 Q364 287 337.5 240.5 Q311 194 280 148 Q271 135 261 122 Q251 109 241 97 Q239 93 234 89 Q224 83 217 92 Q211 99 219 109 Q226 117 233 125 Q240 133 246 142 Q271 176 292.5 212 Q314 248 335 285 Q358 328 379.5 371 Q401 414 418 459 Q428 485 436.5 511.5 Q445 538 450 566 Q453 584 455 602.5 Q457 621 456 639 Q455 651 452.5 662.5 Q450 674 445 684 Q443 689 440 693 Q424 717 396 709 Q385 705 376 699 Q367 693 358 686 Q340 670 324.5 651.5 Q309 633 295 613 Q266 573 242 529.5 Q218 486 197 441 Q166 377 140.5 312.5 Q115 248 92 181 Q37 21 0 -142 Q-9 -179 -16.5 -216 Q-24 -253 -31 -291 Q-36 -315 -39.5 -339 Q-43 -363 -46 -387 Q-49 -402 -50.5 -416.5 Q-52 -431 -53 -445 Q-55 -471 -56 -497 Q-56 -508 -56 -519.5 Q-56 -531 -55 -542 Q-54 -556 -52 -570 Q-50 -584 -44 -598 Q-42 -602 -39 -606 Q-30 -622 -12 -617 Q-3 -615 5 -610.5 Q13 -606 21 -600 Q41 -586 58 -569.5 Q75 -553 92 -535 Q124 -502 153.5 -467 Q183 -432 213 -396 Q241 -362 268.5 -328 Q296 -294 324 -260 Q335 -247 344.5 -234.5 Q354 -222 364 -209 Q367 -206 368 -204 Q376 -196 385 -203 Q394 -210 387 -220 Q382 -225 377.5 -230.5 Q373 -236 369 -242 Q321 -304 271.5 -364 Q222 -424 171 -484 Q148 -511 124 -537 Q100 -563 74 -588 Q60 -601 45 -613 Q30 -625 12 -633 Q-4 -642 -18 -642 Q-41 -643 -55 -625 Q-63 -615 -67 -604.5 Q-71 -594 -74 -582 Q-79 -557 -80 -532 Q-80 -521 -80 -510 Q-80 -499 -80 -488 Q-79 -475 -78 -462 Q-77 -449 -76 -436 Q-74 -410 -70 -386 Q-68 -370 -66 -354 Q-64 -338 -61 -323 Q-57 -298 -52.5 -273.5 Q-48 -249 -43 -224 Q-33 -174 -21 -125 Q-9 -76 4 -27 Q27 57 53 138.5 Q79 220 110 300 Q132 357 156.5 412 Q181 467 210 520 Q229 556 250 590 Q271 624 296 655 Q310 673 325.5 688.5 Q341 704 359 717 Q369 724 380 729 Q391 734 404 735 Q435 737 456 712 Q465 701 470 688.5 Q475 676 477 662 Z " />
<glyph glyph-name="&amp;#xc7;" unicode="&#xc7;" horiz-adv-x="521" d="M477 662 Q478 653 479 644.5 Q480 636 481 627 Q480 597 475 568.5 Q470 540 462 512 Q448 466 429.5 422.5 Q411 379 389 336 Q364 287 337.5 240.5 Q311 194 280 148 Q271 135 261 122 Q251 109 241 97 Q239 93 234 89 Q224 83 217 92 Q211 99 219 109 Q226 117 233 125 Q240 133 246 142 Q271 176 292.5 212 Q314 248 335 285 Q358 328 379.5 371 Q401 414 418 459 Q428 485 436.5 511.5 Q445 538 450 566 Q453 584 455 602.5 Q457 621 456 639 Q455 651 452.5 662.5 Q450 674 445 684 Q443 689 440 693 Q424 717 396 709 Q385 705 376 699 Q367 693 358 686 Q340 670 324.5 651.5 Q309 633 295 613 Q266 573 242 529.5 Q218 486 197 441 Q166 377 140.5 312.5 Q115 248 92 181 Q37 21 0 -142 Q-9 -179 -16.5 -216 Q-24 -253 -31 -291 Q-36 -315 -39.5 -339 Q-43 -363 -46 -387 Q-49 -402 -50.5 -416.5 Q-52 -431 -53 -445 Q-55 -471 -56 -497 Q-56 -508 -56 -519.5 Q-56 -531 -55 -542 Q-54 -556 -52 -570 Q-50 -584 -44 -598 Q-42 -602 -39 -606 Q-30 -622 -12 -617 Q-3 -615 5 -610.5 Q13 -606 21 -600 Q41 -586 58 -569.5 Q75 -553 92 -535 Q124 -502 153.5 -467 Q183 -432 213 -396 Q241 -362 268.5 -328 Q296 -294 324 -260 Q335 -247 344.5 -234.5 Q354 -222 364 -209 Q367 -206 368 -204 Q376 -196 385 -203 Q394 -210 387 -220 Q382 -225 377.5 -230.5 Q373 -236 369 -242 Q321 -304 271.5 -364 Q222 -424 171 -484 Q148 -511 124 -537 Q100 -563 74 -588 Q60 -601 45 -613 Q30 -625 12 -633 Q-4 -642 -18 -642 Q-41 -643 -55 -625 Q-63 -615 -67 -604.5 Q-71 -594 -74 -582 Q-79 -557 -80 -532 Q-80 -521 -80 -510 Q-80 -499 -80 -488 Q-79 -475 -78 -462 Q-77 -449 -76 -436 Q-74 -410 -70 -386 Q-68 -370 -66 -354 Q-64 -338 -61 -323 Q-57 -298 -52.5 -273.5 Q-48 -249 -43 -224 Q-33 -174 -21 -125 Q-9 -76 4 -27 Q27 57 53 138.5 Q79 220 110 300 Q132 357 156.5 412 Q181 467 210 520 Q229 556 250 590 Q271 624 296 655 Q310 673 325.5 688.5 Q341 704 359 717 Q369 724 380 729 Q391 734 404 735 Q435 737 456 712 Q465 701 470 688.5 Q475 676 477 662 Z " />
<glyph glyph-name="D" unicode="D" horiz-adv-x="574" d="M589 591 Q594 564 595 537.5 Q596 511 595 484 Q594 459 591 433.5 Q588 408 584 383 Q568 292 540 206 Q512 120 475 36 Q377 -186 237 -377 Q207 -417 175.5 -455 Q144 -493 108 -529 Q87 -550 64.5 -568.5 Q42 -587 17 -603 Q3 -611 -11 -617.5 Q-25 -624 -41 -628 Q-103 -641 -131 -583 Q-142 -560 -146 -530 Q-147 -523 -147.5 -516 Q-148 -509 -149 -502 Q-149 -502 -150 -499 L-150 -457 Q-150 -453 -149.5 -448.5 Q-149 -444 -148 -440 Q-146 -421 -144 -403 Q-142 -385 -139 -366 Q-125 -280 -89 -193 Q-75 -158 -57 -125 Q-39 -92 -17 -62 Q-14 -58 -11.5 -54.5 Q-9 -51 -5 -48 Q0 -42 1 -31 Q2 -19 2.5 -7 Q3 5 5 17 Q7 44 11 70 Q21 130 35 186 Q56 262 85 334 Q114 406 154 474 Q180 517 210 555.5 Q240 594 277 628 Q302 652 330.5 672.5 Q359 693 392 707 Q405 713 418.5 717 Q432 721 447 722 Q526 729 565 661 Q574 644 579.5 626.5 Q585 609 589 591 Z M23 -58 Q23 -83 24 -108 Q25 -133 28 -159 Q33 -191 39 -224 Q40 -231 42.5 -238 Q45 -245 47 -252 L49 -252 Q50 -250 51 -248.5 Q52 -247 52 -245 Q56 -236 59.5 -228 Q63 -220 65 -211 Q79 -166 92.5 -120.5 Q106 -75 120 -30 Q121 -27 122 -25 Q126 -5 118 0.5 Q110 6 107 7 L107 7 L106 7 L106 7 L105 7 L105 7 Q103 7 101 7 Q90 5 76 -4 Q63 -13 51 -23.5 Q39 -34 28 -46 Q23 -50 23 -58 Z M572 511 Q572 530 570.5 548 Q569 566 566 584 Q563 601 558 616.5 Q553 632 545 647 Q529 677 504 689.5 Q479 702 448 698 Q433 696 419 691.5 Q405 687 391 681 Q361 666 336 647 Q311 628 287 605 Q253 572 225 535.5 Q197 499 173 458 Q138 401 113 340.5 Q88 280 69 216 Q37 109 27 -1 Q27 -4 26.5 -7 Q26 -10 26 -13 Q27 -12 27 -12 Q28 -12 28.5 -11 Q29 -10 30 -10 Q43 1 56 11 Q69 21 85 27 Q102 33 116 29 Q125 26 133 17 Q135 20 135 20 Q159 104 182.5 186 Q206 268 230 351 Q232 355 233 358 Q238 365 246 363 Q255 360 254 352 Q254 348 253 344 Q245 317 237.5 291 Q230 265 223 238 Q201 163 180 89.5 Q159 16 137 -59 Q124 -101 111.5 -142 Q99 -183 86 -225 Q82 -236 78 -246.5 Q74 -257 68 -267 Q59 -280 47.5 -279.5 Q36 -279 29 -266 Q23 -255 18 -240 Q12 -220 9 -200 Q6 -180 4 -160 Q3 -140 2 -121 Q1 -102 0 -83 L-1 -80 Q-3 -83 -4.5 -85.5 Q-6 -88 -8 -91 Q-34 -129 -52.5 -169.5 Q-71 -210 -86 -253 Q-103 -303 -113 -354.5 Q-123 -406 -126 -459 Q-127 -479 -126 -499 Q-125 -519 -120 -540 Q-118 -552 -114 -563 Q-110 -574 -103 -585 Q-85 -609 -53 -606 Q-40 -604 -28.5 -599.5 Q-17 -595 -6 -589 Q20 -575 42 -556.5 Q64 -538 85 -518 Q116 -487 144.5 -454.5 Q173 -422 199 -387 Q258 -310 307.5 -229.5 Q357 -149 401 -64 Q441 14 473.5 93.5 Q506 173 531 257 Q540 288 547.5 319.5 Q555 351 560 383 Q565 421 569 454 Q572 484 572 511 Z " />
<glyph glyph-name="E" unicode="E" horiz-adv-x="435" d="M533 787 L553 787 Q555 786 557.5 785.5 Q560 785 563 784 Q588 775 595 746 Q598 733 597.5 720.5 Q597 708 595 695 Q588 651 572 610 Q556 569 537 528 Q506 461 470 398 Q467 393 465 391 Q459 384 450 389 Q443 393 446 402 Q447 404 451 411 Q478 461 503 511.5 Q528 562 548 615 Q555 633 561 651.5 Q567 670 570 689 Q573 701 574 713.5 Q575 726 572 739 Q569 748 562.5 756 Q556 764 540 763 Q528 762 518 758 Q499 753 483 743.5 Q467 734 451 723 Q422 702 396 677.5 Q370 653 346 626 Q199 464 102 270 Q85 235 70.5 200 Q56 165 46 128 Q41 113 37.5 97.5 Q34 82 31 66 Q28 51 27 33 Q26 3 32 -20 Q46 -72 99 -86 Q116 -91 134 -92 Q152 -93 170 -92 Q194 -90 218 -86.5 Q242 -83 266 -80 Q275 -78 288 -78 Q299 -78 303 -87 Q307 -96 299 -104 Q285 -117 272 -127 Q244 -149 215 -170.5 Q186 -192 158 -215 Q104 -257 55.5 -303.5 Q7 -350 -37 -403 Q-59 -431 -78.5 -460 Q-98 -489 -113 -521 Q-120 -534 -125 -548 Q-130 -562 -133 -577 Q-135 -589 -136 -601 Q-137 -613 -134 -625 Q-124 -663 -82 -673 Q-65 -677 -47 -675.5 Q-29 -674 -12 -669 Q14 -663 37.5 -652.5 Q61 -642 84 -630 Q131 -606 175.5 -579.5 Q220 -553 262 -522 Q280 -510 296.5 -496.5 Q313 -483 329 -470 Q331 -469 332 -468 Q333 -467 335 -466 Q345 -458 352 -467 Q359 -475 349 -484 Q343 -489 337 -493.5 Q331 -498 325 -503 Q267 -551 203.5 -589.5 Q140 -628 73 -662 Q50 -673 26.5 -682 Q3 -691 -22 -696 Q-42 -700 -61.5 -700 Q-81 -700 -99 -694 Q-156 -673 -160 -614 Q-161 -595 -157.5 -577 Q-154 -559 -147 -541 Q-137 -512 -121.5 -485.5 Q-106 -459 -88 -433 Q-64 -399 -37.5 -368.5 Q-11 -338 18 -308 Q62 -264 109.5 -224.5 Q157 -185 207 -147 Q220 -137 233.5 -127 Q247 -117 260 -107 Q260 -107 264 -104 Q257 -105 250.5 -106 Q244 -107 238 -108 Q226 -110 214.5 -111.5 Q203 -113 192 -114 Q179 -115 166.5 -115.5 Q154 -116 141 -116 Q122 -116 104 -113 Q86 -110 69 -102 Q19 -78 7 -20 Q3 -1 3 24 Q4 55 10.5 85 Q17 115 26 145 Q46 206 73 263 Q100 320 133 375 Q170 438 211.5 496.5 Q253 555 301 611 Q329 643 358.5 673 Q388 703 421 729 Q441 744 461.5 757.5 Q482 771 505 779 Q512 781 519 783 Q526 785 533 787 Z " />
<glyph glyph-name="&amp;#xc8;" unicode="&#xc8;" horiz-adv-x="435" d="M533 787 L553 787 Q555 786 557.5 785.5 Q560 785 563 784 Q588 775 595 746 Q598 733 597.5 720.5 Q597 708 595 695 Q588 651 572 610 Q556 569 537 528 Q506 461 470 398 Q467 393 465 391 Q459 384 450 389 Q443 393 446 402 Q447 404 451 411 Q478 461 503 511.5 Q528 562 548 615 Q555 633 561 651.5 Q567 670 570 689 Q573 701 574 713.5 Q575 726 572 739 Q569 748 562.5 756 Q556 764 540 763 Q528 762 518 758 Q499 753 483 743.5 Q467 734 451 723 Q422 702 396 677.5 Q370 653 346 626 Q199 464 102 270 Q85 235 70.5 200 Q56 165 46 128 Q41 113 37.5 97.5 Q34 82 31 66 Q28 51 27 33 Q26 3 32 -20 Q46 -72 99 -86 Q116 -91 134 -92 Q152 -93 170 -92 Q194 -90 218 -86.5 Q242 -83 266 -80 Q275 -78 288 -78 Q299 -78 303 -87 Q307 -96 299 -104 Q285 -117 272 -127 Q244 -149 215 -170.5 Q186 -192 158 -215 Q104 -257 55.5 -303.5 Q7 -350 -37 -403 Q-59 -431 -78.5 -460 Q-98 -489 -113 -521 Q-120 -534 -125 -548 Q-130 -562 -133 -577 Q-135 -589 -136 -601 Q-137 -613 -134 -625 Q-124 -663 -82 -673 Q-65 -677 -47 -675.5 Q-29 -674 -12 -669 Q14 -663 37.5 -652.5 Q61 -642 84 -630 Q131 -606 175.5 -579.5 Q220 -553 262 -522 Q280 -510 296.5 -496.5 Q313 -483 329 -470 Q331 -469 332 -468 Q333 -467 335 -466 Q345 -458 352 -467 Q359 -475 349 -484 Q343 -489 337 -493.5 Q331 -498 325 -503 Q267 -551 203.5 -589.5 Q140 -628 73 -662 Q50 -673 26.5 -682 Q3 -691 -22 -696 Q-42 -700 -61.5 -700 Q-81 -700 -99 -694 Q-156 -673 -160 -614 Q-161 -595 -157.5 -577 Q-154 -559 -147 -541 Q-137 -512 -121.5 -485.5 Q-106 -459 -88 -433 Q-64 -399 -37.5 -368.5 Q-11 -338 18 -308 Q62 -264 109.5 -224.5 Q157 -185 207 -147 Q220 -137 233.5 -127 Q247 -117 260 -107 Q260 -107 264 -104 Q257 -105 250.5 -106 Q244 -107 238 -108 Q226 -110 214.5 -111.5 Q203 -113 192 -114 Q179 -115 166.5 -115.5 Q154 -116 141 -116 Q122 -116 104 -113 Q86 -110 69 -102 Q19 -78 7 -20 Q3 -1 3 24 Q4 55 10.5 85 Q17 115 26 145 Q46 206 73 263 Q100 320 133 375 Q170 438 211.5 496.5 Q253 555 301 611 Q329 643 358.5 673 Q388 703 421 729 Q441 744 461.5 757.5 Q482 771 505 779 Q512 781 519 783 Q526 785 533 787 Z " />
<glyph glyph-name="&amp;#xc9;" unicode="&#xc9;" horiz-adv-x="435" d="M533 787 L553 787 Q555 786 557.5 785.5 Q560 785 563 784 Q588 775 595 746 Q598 733 597.5 720.5 Q597 708 595 695 Q588 651 572 610 Q556 569 537 528 Q506 461 470 398 Q467 393 465 391 Q459 384 450 389 Q443 393 446 402 Q447 404 451 411 Q478 461 503 511.5 Q528 562 548 615 Q555 633 561 651.5 Q567 670 570 689 Q573 701 574 713.5 Q575 726 572 739 Q569 748 562.5 756 Q556 764 540 763 Q528 762 518 758 Q499 753 483 743.5 Q467 734 451 723 Q422 702 396 677.5 Q370 653 346 626 Q199 464 102 270 Q85 235 70.5 200 Q56 165 46 128 Q41 113 37.5 97.5 Q34 82 31 66 Q28 51 27 33 Q26 3 32 -20 Q46 -72 99 -86 Q116 -91 134 -92 Q152 -93 170 -92 Q194 -90 218 -86.5 Q242 -83 266 -80 Q275 -78 288 -78 Q299 -78 303 -87 Q307 -96 299 -104 Q285 -117 272 -127 Q244 -149 215 -170.5 Q186 -192 158 -215 Q104 -257 55.5 -303.5 Q7 -350 -37 -403 Q-59 -431 -78.5 -460 Q-98 -489 -113 -521 Q-120 -534 -125 -548 Q-130 -562 -133 -577 Q-135 -589 -136 -601 Q-137 -613 -134 -625 Q-124 -663 -82 -673 Q-65 -677 -47 -675.5 Q-29 -674 -12 -669 Q14 -663 37.5 -652.5 Q61 -642 84 -630 Q131 -606 175.5 -579.5 Q220 -553 262 -522 Q280 -510 296.5 -496.5 Q313 -483 329 -470 Q331 -469 332 -468 Q333 -467 335 -466 Q345 -458 352 -467 Q359 -475 349 -484 Q343 -489 337 -493.5 Q331 -498 325 -503 Q267 -551 203.5 -589.5 Q140 -628 73 -662 Q50 -673 26.5 -682 Q3 -691 -22 -696 Q-42 -700 -61.5 -700 Q-81 -700 -99 -694 Q-156 -673 -160 -614 Q-161 -595 -157.5 -577 Q-154 -559 -147 -541 Q-137 -512 -121.5 -485.5 Q-106 -459 -88 -433 Q-64 -399 -37.5 -368.5 Q-11 -338 18 -308 Q62 -264 109.5 -224.5 Q157 -185 207 -147 Q220 -137 233.5 -127 Q247 -117 260 -107 Q260 -107 264 -104 Q257 -105 250.5 -106 Q244 -107 238 -108 Q226 -110 214.5 -111.5 Q203 -113 192 -114 Q179 -115 166.5 -115.5 Q154 -116 141 -116 Q122 -116 104 -113 Q86 -110 69 -102 Q19 -78 7 -20 Q3 -1 3 24 Q4 55 10.5 85 Q17 115 26 145 Q46 206 73 263 Q100 320 133 375 Q170 438 211.5 496.5 Q253 555 301 611 Q329 643 358.5 673 Q388 703 421 729 Q441 744 461.5 757.5 Q482 771 505 779 Q512 781 519 783 Q526 785 533 787 Z " />
<glyph glyph-name="&amp;#xca;" unicode="&#xca;" horiz-adv-x="435" d="M533 787 L553 787 Q555 786 557.5 785.5 Q560 785 563 784 Q588 775 595 746 Q598 733 597.5 720.5 Q597 708 595 695 Q588 651 572 610 Q556 569 537 528 Q506 461 470 398 Q467 393 465 391 Q459 384 450 389 Q443 393 446 402 Q447 404 451 411 Q478 461 503 511.5 Q528 562 548 615 Q555 633 561 651.5 Q567 670 570 689 Q573 701 574 713.5 Q575 726 572 739 Q569 748 562.5 756 Q556 764 540 763 Q528 762 518 758 Q499 753 483 743.5 Q467 734 451 723 Q422 702 396 677.5 Q370 653 346 626 Q199 464 102 270 Q85 235 70.5 200 Q56 165 46 128 Q41 113 37.5 97.5 Q34 82 31 66 Q28 51 27 33 Q26 3 32 -20 Q46 -72 99 -86 Q116 -91 134 -92 Q152 -93 170 -92 Q194 -90 218 -86.5 Q242 -83 266 -80 Q275 -78 288 -78 Q299 -78 303 -87 Q307 -96 299 -104 Q285 -117 272 -127 Q244 -149 215 -170.5 Q186 -192 158 -215 Q104 -257 55.5 -303.5 Q7 -350 -37 -403 Q-59 -431 -78.5 -460 Q-98 -489 -113 -521 Q-120 -534 -125 -548 Q-130 -562 -133 -577 Q-135 -589 -136 -601 Q-137 -613 -134 -625 Q-124 -663 -82 -673 Q-65 -677 -47 -675.5 Q-29 -674 -12 -669 Q14 -663 37.5 -652.5 Q61 -642 84 -630 Q131 -606 175.5 -579.5 Q220 -553 262 -522 Q280 -510 296.5 -496.5 Q313 -483 329 -470 Q331 -469 332 -468 Q333 -467 335 -466 Q345 -458 352 -467 Q359 -475 349 -484 Q343 -489 337 -493.5 Q331 -498 325 -503 Q267 -551 203.5 -589.5 Q140 -628 73 -662 Q50 -673 26.5 -682 Q3 -691 -22 -696 Q-42 -700 -61.5 -700 Q-81 -700 -99 -694 Q-156 -673 -160 -614 Q-161 -595 -157.5 -577 Q-154 -559 -147 -541 Q-137 -512 -121.5 -485.5 Q-106 -459 -88 -433 Q-64 -399 -37.5 -368.5 Q-11 -338 18 -308 Q62 -264 109.5 -224.5 Q157 -185 207 -147 Q220 -137 233.5 -127 Q247 -117 260 -107 Q260 -107 264 -104 Q257 -105 250.5 -106 Q244 -107 238 -108 Q226 -110 214.5 -111.5 Q203 -113 192 -114 Q179 -115 166.5 -115.5 Q154 -116 141 -116 Q122 -116 104 -113 Q86 -110 69 -102 Q19 -78 7 -20 Q3 -1 3 24 Q4 55 10.5 85 Q17 115 26 145 Q46 206 73 263 Q100 320 133 375 Q170 438 211.5 496.5 Q253 555 301 611 Q329 643 358.5 673 Q388 703 421 729 Q441 744 461.5 757.5 Q482 771 505 779 Q512 781 519 783 Q526 785 533 787 Z " />
<glyph glyph-name="&amp;#xcb;" unicode="&#xcb;" horiz-adv-x="435" d="M533 787 L553 787 Q555 786 557.5 785.5 Q560 785 563 784 Q588 775 595 746 Q598 733 597.5 720.5 Q597 708 595 695 Q588 651 572 610 Q556 569 537 528 Q506 461 470 398 Q467 393 465 391 Q459 384 450 389 Q443 393 446 402 Q447 404 451 411 Q478 461 503 511.5 Q528 562 548 615 Q555 633 561 651.5 Q567 670 570 689 Q573 701 574 713.5 Q575 726 572 739 Q569 748 562.5 756 Q556 764 540 763 Q528 762 518 758 Q499 753 483 743.5 Q467 734 451 723 Q422 702 396 677.5 Q370 653 346 626 Q199 464 102 270 Q85 235 70.5 200 Q56 165 46 128 Q41 113 37.5 97.5 Q34 82 31 66 Q28 51 27 33 Q26 3 32 -20 Q46 -72 99 -86 Q116 -91 134 -92 Q152 -93 170 -92 Q194 -90 218 -86.5 Q242 -83 266 -80 Q275 -78 288 -78 Q299 -78 303 -87 Q307 -96 299 -104 Q285 -117 272 -127 Q244 -149 215 -170.5 Q186 -192 158 -215 Q104 -257 55.5 -303.5 Q7 -350 -37 -403 Q-59 -431 -78.5 -460 Q-98 -489 -113 -521 Q-120 -534 -125 -548 Q-130 -562 -133 -577 Q-135 -589 -136 -601 Q-137 -613 -134 -625 Q-124 -663 -82 -673 Q-65 -677 -47 -675.5 Q-29 -674 -12 -669 Q14 -663 37.5 -652.5 Q61 -642 84 -630 Q131 -606 175.5 -579.5 Q220 -553 262 -522 Q280 -510 296.5 -496.5 Q313 -483 329 -470 Q331 -469 332 -468 Q333 -467 335 -466 Q345 -458 352 -467 Q359 -475 349 -484 Q343 -489 337 -493.5 Q331 -498 325 -503 Q267 -551 203.5 -589.5 Q140 -628 73 -662 Q50 -673 26.5 -682 Q3 -691 -22 -696 Q-42 -700 -61.5 -700 Q-81 -700 -99 -694 Q-156 -673 -160 -614 Q-161 -595 -157.5 -577 Q-154 -559 -147 -541 Q-137 -512 -121.5 -485.5 Q-106 -459 -88 -433 Q-64 -399 -37.5 -368.5 Q-11 -338 18 -308 Q62 -264 109.5 -224.5 Q157 -185 207 -147 Q220 -137 233.5 -127 Q247 -117 260 -107 Q260 -107 264 -104 Q257 -105 250.5 -106 Q244 -107 238 -108 Q226 -110 214.5 -111.5 Q203 -113 192 -114 Q179 -115 166.5 -115.5 Q154 -116 141 -116 Q122 -116 104 -113 Q86 -110 69 -102 Q19 -78 7 -20 Q3 -1 3 24 Q4 55 10.5 85 Q17 115 26 145 Q46 206 73 263 Q100 320 133 375 Q170 438 211.5 496.5 Q253 555 301 611 Q329 643 358.5 673 Q388 703 421 729 Q441 744 461.5 757.5 Q482 771 505 779 Q512 781 519 783 Q526 785 533 787 Z " />
<glyph glyph-name="F" unicode="F" horiz-adv-x="670" d="M1270 765 L1335 765 Q1337 764 1337 764 Q1345 759 1343 752 Q1341 743 1333 742 Q1329 741 1325 741 Q1319 741 1313 741 Q1307 741 1301 741 Q1285 741 1269 741 Q1253 741 1237 740 Q1222 740 1207.5 739 Q1193 738 1178 738 Q1162 737 1146.5 735.5 Q1131 734 1116 733 Q1087 731 1057 728 Q1043 727 1029.5 725.5 Q1016 724 1002 722 Q989 721 976.5 719.5 Q964 718 952 717 Q938 715 925 713.5 Q912 712 898 710 Q885 709 872.5 707.5 Q860 706 848 704 Q836 703 824 701 Q812 699 800 698 Q787 696 774.5 694 Q762 692 749 691 Q733 688 717 686 Q701 684 685 681 Q667 678 649.5 675.5 Q632 673 614 670 Q591 666 569 661.5 Q547 657 525 653 Q482 644 439.5 634.5 Q397 625 355 614 Q351 613 351 609 Q343 576 335 543 Q327 510 319 477 Q307 433 295 389 Q283 345 271 300 Q255 242 238.5 184 Q222 126 206 67 Q206 67 205 63 Q212 65 218 67 Q224 69 230 71 Q301 92 371.5 111.5 Q442 131 514 146 Q547 153 579 159.5 Q611 166 644 173 Q651 174 659 175 Q671 178 674 166 Q676 155 664 152 Q656 150 648 148.5 Q640 147 632 146 Q587 137 542.5 128 Q498 119 454 108 Q390 92 327.5 74 Q265 56 202 37 Q197 36 196 31 Q183 -13 165.5 -74 Q148 -135 129.5 -199.5 Q111 -264 93.5 -325 Q76 -386 63 -430 Q49 -480 34 -528.5 Q19 -577 4 -627 Q3 -632 0.5 -637 Q-2 -642 -4 -647 Q-7 -654 -13 -656 Q-19 -657 -24 -653.5 Q-29 -650 -29 -643 Q-28 -631 -24 -616 Q-14 -575 -2 -535 Q10 -495 22 -454 Q37 -406 50.5 -359 Q64 -312 78 -264 Q82 -250 90.5 -218.5 Q99 -187 108.5 -152.5 Q118 -118 125.5 -86.5 Q133 -55 136 -40 Q138 -26 139.5 -12.5 Q141 1 142 15 Q142 15 142 18 Q137 16 137 16 Q114 8 92 0.5 Q70 -7 48 -15 Q44 -16 39 -16 Q30 -16 28 -8 Q26 1 34 5 Q36 6 37.5 6.5 Q39 7 41 8 Q62 15 82 22 Q102 29 123 36 Q127 38 131.5 39.5 Q136 41 140 42 Q145 44 144 48 Q144 60 144 72 Q144 84 144 95 Q142 128 134 159 Q126 190 110 219 Q94 246 72.5 266 Q51 286 24 301 Q3 313 -19 322 Q-41 331 -63 341 Q-76 346 -89.5 352 Q-103 358 -116 365 Q-127 371 -137 381 Q-155 400 -143 425 Q-138 437 -130 445 Q-122 453 -112 460 Q-94 474 -75 484.5 Q-56 495 -35 505 Q9 526 54.5 543.5 Q100 561 146 576 Q192 592 237 605.5 Q282 619 328 631 Q332 632 333 635 Q335 643 341.5 644.5 Q348 646 354 640 Q356 639 358 639 Q387 646 414.5 653 Q442 660 471 666 Q502 672 532.5 678 Q563 684 595 690 Q615 694 635 697.5 Q655 701 675 704 Q693 707 711 709.5 Q729 712 747 714 Q765 717 783 719.5 Q801 722 819 725 Q833 726 847 728 Q861 730 875 732 Q888 733 901 735 Q914 737 927 738 Q939 740 951.5 741 Q964 742 976 744 Q987 745 998 746 Q1009 747 1021 749 Q1031 750 1040.5 750.5 Q1050 751 1060 752 Q1071 753 1082 754 Q1093 755 1104 756 Q1114 757 1129 758 Q1141 759 1153 760 Q1165 761 1178 761 Q1182 762 1186.5 762 Q1191 762 1196 762 Q1213 763 1230 763.5 Q1247 764 1264 764 Q1265 764 1270 765 Z M169 79 Q169 72 168.5 65.5 Q168 59 168 52 Q177 52 180 62 Q187 88 194 113.5 Q201 139 208 165 Q236 265 264 363.5 Q292 462 315 563 Q317 574 319.5 584 Q322 594 325 605 Q321 604 321 604 Q280 592 239.5 580 Q199 568 158 555 Q114 541 71 524.5 Q28 508 -14 489 Q-35 479 -55.5 468.5 Q-76 458 -95 444 Q-102 438 -108.5 432 Q-115 426 -120 418 Q-129 405 -117 394 Q-109 388 -102 385 Q-90 379 -77.5 373 Q-65 367 -52 362 Q-28 352 -5 342.5 Q18 333 39 320 Q75 299 101.5 271 Q128 243 144 205 Q157 174 162.5 142.5 Q168 111 169 79 Z " />
<glyph glyph-name="G" unicode="G" horiz-adv-x="520" d="M-19 -239 L-20 -213 Q-19 -208 -19 -208 Q-19 -193 -18.5 -179 Q-18 -165 -16 -151 Q-10 -93 3 -38 Q16 17 34 72 Q65 169 106.5 260 Q148 351 201 439 Q229 484 260 526.5 Q291 569 327 608 Q348 632 371 653.5 Q394 675 420 693 Q436 705 452.5 714 Q469 723 488 728 Q512 735 532 730 Q547 726 557 716 Q567 706 574 692 Q584 671 586 645 Q586 638 586.5 630.5 Q587 623 587 616 Q588 600 586.5 584.5 Q585 569 582 553 Q573 489 553.5 428.5 Q534 368 510 308 Q499 280 487.5 253 Q476 226 461 200 Q454 187 446 176 Q441 170 433.5 171.5 Q426 173 424 180 Q423 185 426 190 Q438 206 446.5 223.5 Q455 241 463 260 Q488 315 508.5 371.5 Q529 428 544 487 Q550 511 554.5 534 Q559 557 561 582 Q563 608 562 635 Q562 647 559.5 659 Q557 671 552 683 Q547 692 540.5 699 Q534 706 523 708 Q515 709 507.5 708 Q500 707 493 705 Q476 699 461 690.5 Q446 682 432 672 Q406 653 383 631 Q360 609 338 584 Q284 523 240.5 456 Q197 389 161 316 Q123 242 93 165.5 Q63 89 41 9 Q31 -25 23.5 -58.5 Q16 -92 11 -127 Q7 -155 6 -183 Q5 -196 5 -208.5 Q5 -221 6 -234 Q7 -251 10 -268 Q13 -285 21 -301 Q28 -316 37 -323 Q47 -331 58 -331.5 Q69 -332 80 -328 Q96 -324 109 -316 Q122 -308 135 -298 Q158 -281 178.5 -260.5 Q199 -240 217 -218 Q245 -186 271.5 -154 Q298 -122 325 -90 Q336 -76 347 -63 Q358 -50 371 -38 Q381 -31 388 -30 Q406 -29 408 -47 Q408 -57 406.5 -67.5 Q405 -78 402 -88 Q392 -124 381.5 -159 Q371 -194 360 -230 Q343 -285 326 -338.5 Q309 -392 291 -447 Q282 -477 271 -506.5 Q260 -536 246 -565 Q242 -574 236.5 -582 Q231 -590 226 -598 Q225 -601 221 -604 Q211 -611 202 -607 Q193 -603 191 -591 Q190 -580 192 -569 Q194 -558 196 -546 Q203 -518 211.5 -490 Q220 -462 231 -434 Q234 -427 238 -421 Q244 -410 254 -415 Q265 -420 260 -432 Q246 -463 236 -495 Q226 -527 218 -560 Q218 -564 218 -566 Q221 -561 223 -556 Q225 -551 228 -546 Q241 -516 252 -486.5 Q263 -457 273 -426 Q298 -343 323.5 -261 Q349 -179 374 -96 Q377 -89 378.5 -81 Q380 -73 382 -66 Q382 -65 382 -61 Q379 -64 376.5 -66.5 Q374 -69 372 -72 Q351 -96 330.5 -121 Q310 -146 290 -171 Q267 -199 243.5 -226 Q220 -253 194 -279 Q177 -295 159 -310 Q141 -325 120 -337 Q110 -343 99 -347.5 Q88 -352 76 -353 Q35 -360 10 -329 Q1 -317 -4.5 -304.5 Q-10 -292 -13 -278 Q-14 -269 -15 -260.5 Q-16 -252 -18 -243 Q-18 -243 -19 -239 Z " />
<glyph glyph-name="H" unicode="H" horiz-adv-x="752" d="M822 601 Q835 600 833 587 Q832 578 830.5 570 Q829 562 827 553 Q816 499 801 446.5 Q786 394 770 341 Q750 276 730 211.5 Q710 147 690 81 Q660 -23 632 -126 Q604 -229 578 -335 Q566 -384 555 -433 Q544 -482 535 -531 Q531 -551 528 -565 Q525 -578 514 -575 Q502 -572 504 -560 Q516 -500 528.5 -441.5 Q541 -383 555 -325 Q581 -218 610 -113.5 Q639 -9 669 96 Q669 96 670 101 Q666 100 661.5 100 Q657 100 653 100 Q643 99 634 98.5 Q625 98 616 98 Q605 97 594 96.5 Q583 96 572 95 Q553 93 534 92 Q525 91 515 89.5 Q505 88 496 87 Q476 85 453 82 Q439 80 424.5 78.5 Q410 77 396 75 Q380 72 364.5 70 Q349 68 333 65 Q307 61 281 56.5 Q255 52 229 48 Q226 47 224 43 Q188 -74 152.5 -190 Q117 -306 81 -423 Q70 -457 59 -490 Q48 -523 37 -556 Q35 -563 31 -572 Q25 -583 14 -579 Q4 -575 5 -562 Q7 -543 12.5 -524 Q18 -505 23 -486 Q35 -443 47 -400.5 Q59 -358 70 -314 Q85 -260 93 -210 Q95 -194 96 -178 Q97 -162 96 -146 Q95 -132 91.5 -119.5 Q88 -107 79 -95 Q70 -83 58.5 -77 Q47 -71 33 -68 Q15 -63 -2 -62.5 Q-19 -62 -37 -63 Q-45 -64 -53.5 -64 Q-62 -64 -71 -65 Q-75 -65 -79.5 -65 Q-84 -65 -89 -66 L-92 -66 Q-105 -65 -109 -55 Q-113 -44 -102 -37 Q-93 -31 -84 -26 Q-75 -21 -65 -17 Q-17 6 33 22.5 Q83 39 135 51 Q152 56 169 59.5 Q186 63 204 67 Q206 68 207 71 Q218 106 228.5 140 Q239 174 249 208 Q268 272 286 335 Q304 398 320 463 Q331 509 341.5 554.5 Q352 600 363 646 Q364 651 365.5 656.5 Q367 662 368 667 Q372 678 382 676 Q394 673 391 660 Q377 601 363.5 543 Q350 485 336 426 Q316 348 293.5 272.5 Q271 197 248 120 Q245 109 241.5 98 Q238 87 235 76 L234 73 Q239 74 243 75 Q247 76 252 76 Q274 80 296.5 83.5 Q319 87 341 91 Q378 96 412 101 Q428 103 444.5 105 Q461 107 478 109 Q493 111 508 112.5 Q523 114 539 116 Q557 118 579 119 Q587 120 595.5 120.5 Q604 121 613 121 L613 121 L678 126 Q699 194 720 262.5 Q741 331 762 400 Q774 440 785 479.5 Q796 519 804 560 Q807 573 809 589 Q810 603 822 601 Z M115 -230 Q136 -162 156.5 -94.5 Q177 -27 198 42 Q131 27 67.5 7.5 Q4 -12 -57 -40 Q-55 -40 -53 -40 Q-41 -40 -29 -39.5 Q-17 -39 -5 -39 Q21 -39 45 -46 Q65 -52 80.5 -63 Q96 -74 106 -93 Q112 -104 115 -116 Q118 -128 120 -140 Q121 -155 120.5 -169 Q120 -183 119 -197 Q118 -205 116.5 -213 Q115 -221 114 -230 L115 -230 Z " />
<glyph glyph-name="I" unicode="I" horiz-adv-x="124" d="M223 701 L224 698 Q226 683 224.5 668.5 Q223 654 220 640 Q212 600 201 562 Q190 524 178 485 Q145 377 111.5 270 Q78 163 44 55 Q13 -44 -16 -142.5 Q-45 -241 -73 -341 Q-88 -396 -102.5 -450.5 Q-117 -505 -130 -561 Q-134 -579 -137.5 -598 Q-141 -617 -144 -636 Q-147 -650 -146 -662 L-146 -665 L-146 -665 Q-145 -668 -145 -670 L-145 -670 Q-145 -678 -152 -683 Q-160 -688 -165 -683 Q-167 -680 -169 -676 Q-171 -664 -170 -652 Q-169 -640 -167 -629 Q-159 -579 -147.5 -531 Q-136 -483 -123 -435 Q-91 -314 -56.5 -196.5 Q-22 -79 15 40 Q50 154 85 266 Q120 378 155 491 Q166 525 175.5 558.5 Q185 592 193 627 Q197 642 199.5 657.5 Q202 673 201 688 Q201 692 200 694 L200 694 Q200 695 200.5 701 Q201 707 207 710 Q213 714 219 707 Q221 705 223 701 Z " />
<glyph glyph-name="&amp;#xcc;" unicode="&#xcc;" horiz-adv-x="124" d="M223 701 L224 698 Q226 683 224.5 668.5 Q223 654 220 640 Q212 600 201 562 Q190 524 178 485 Q145 377 111.5 270 Q78 163 44 55 Q13 -44 -16 -142.5 Q-45 -241 -73 -341 Q-88 -396 -102.5 -450.5 Q-117 -505 -130 -561 Q-134 -579 -137.5 -598 Q-141 -617 -144 -636 Q-147 -650 -146 -662 L-146 -665 L-146 -665 Q-145 -668 -145 -670 L-145 -670 Q-145 -678 -152 -683 Q-160 -688 -165 -683 Q-167 -680 -169 -676 Q-171 -664 -170 -652 Q-169 -640 -167 -629 Q-159 -579 -147.5 -531 Q-136 -483 -123 -435 Q-91 -314 -56.5 -196.5 Q-22 -79 15 40 Q50 154 85 266 Q120 378 155 491 Q166 525 175.5 558.5 Q185 592 193 627 Q197 642 199.5 657.5 Q202 673 201 688 Q201 692 200 694 L200 694 Q200 695 200.5 701 Q201 707 207 710 Q213 714 219 707 Q221 705 223 701 Z " />
<glyph glyph-name="&amp;#xcd;" unicode="&#xcd;" horiz-adv-x="124" d="M223 701 L224 698 Q226 683 224.5 668.5 Q223 654 220 640 Q212 600 201 562 Q190 524 178 485 Q145 377 111.5 270 Q78 163 44 55 Q13 -44 -16 -142.5 Q-45 -241 -73 -341 Q-88 -396 -102.5 -450.5 Q-117 -505 -130 -561 Q-134 -579 -137.5 -598 Q-141 -617 -144 -636 Q-147 -650 -146 -662 L-146 -665 L-146 -665 Q-145 -668 -145 -670 L-145 -670 Q-145 -678 -152 -683 Q-160 -688 -165 -683 Q-167 -680 -169 -676 Q-171 -664 -170 -652 Q-169 -640 -167 -629 Q-159 -579 -147.5 -531 Q-136 -483 -123 -435 Q-91 -314 -56.5 -196.5 Q-22 -79 15 40 Q50 154 85 266 Q120 378 155 491 Q166 525 175.5 558.5 Q185 592 193 627 Q197 642 199.5 657.5 Q202 673 201 688 Q201 692 200 694 L200 694 Q200 695 200.5 701 Q201 707 207 710 Q213 714 219 707 Q221 705 223 701 Z " />
<glyph glyph-name="&amp;#xce;" unicode="&#xce;" horiz-adv-x="124" d="M223 701 L224 698 Q226 683 224.5 668.5 Q223 654 220 640 Q212 600 201 562 Q190 524 178 485 Q145 377 111.5 270 Q78 163 44 55 Q13 -44 -16 -142.5 Q-45 -241 -73 -341 Q-88 -396 -102.5 -450.5 Q-117 -505 -130 -561 Q-134 -579 -137.5 -598 Q-141 -617 -144 -636 Q-147 -650 -146 -662 L-146 -665 L-146 -665 Q-145 -668 -145 -670 L-145 -670 Q-145 -678 -152 -683 Q-160 -688 -165 -683 Q-167 -680 -169 -676 Q-171 -664 -170 -652 Q-169 -640 -167 -629 Q-159 -579 -147.5 -531 Q-136 -483 -123 -435 Q-91 -314 -56.5 -196.5 Q-22 -79 15 40 Q50 154 85 266 Q120 378 155 491 Q166 525 175.5 558.5 Q185 592 193 627 Q197 642 199.5 657.5 Q202 673 201 688 Q201 692 200 694 L200 694 Q200 695 200.5 701 Q201 707 207 710 Q213 714 219 707 Q221 705 223 701 Z " />
<glyph glyph-name="&amp;#xcf;" unicode="&#xcf;" horiz-adv-x="124" d="M223 701 L224 698 Q226 683 224.5 668.5 Q223 654 220 640 Q212 600 201 562 Q190 524 178 485 Q145 377 111.5 270 Q78 163 44 55 Q13 -44 -16 -142.5 Q-45 -241 -73 -341 Q-88 -396 -102.5 -450.5 Q-117 -505 -130 -561 Q-134 -579 -137.5 -598 Q-141 -617 -144 -636 Q-147 -650 -146 -662 L-146 -665 L-146 -665 Q-145 -668 -145 -670 L-145 -670 Q-145 -678 -152 -683 Q-160 -688 -165 -683 Q-167 -680 -169 -676 Q-171 -664 -170 -652 Q-169 -640 -167 -629 Q-159 -579 -147.5 -531 Q-136 -483 -123 -435 Q-91 -314 -56.5 -196.5 Q-22 -79 15 40 Q50 154 85 266 Q120 378 155 491 Q166 525 175.5 558.5 Q185 592 193 627 Q197 642 199.5 657.5 Q202 673 201 688 Q201 692 200 694 L200 694 Q200 695 200.5 701 Q201 707 207 710 Q213 714 219 707 Q221 705 223 701 Z " />
<glyph glyph-name="J" unicode="J" horiz-adv-x="431" d="M529 694 Q539 689 539 679 Q539 670 538 661 Q537 652 536 643 Q529 601 519 561 Q509 521 498 481 Q476 401 452 323 Q428 245 403 166 Q367 52 329 -60 Q291 -172 248 -283 Q222 -351 195 -416.5 Q168 -482 137 -547 Q120 -583 101.5 -617.5 Q83 -652 61 -685 Q54 -697 45.5 -708 Q37 -719 28 -729 L28 -729 L27 -730 L27 -730 L27 -731 Q24 -733 16 -739.5 Q8 -746 -3 -751 L-3 -751 Q-15 -756 -26 -756 L-26 -756 Q-37 -756 -44 -749 Q-51 -742 -55.5 -733 Q-60 -724 -62.5 -716 Q-65 -708 -65 -706 L-65 -706 Q-70 -685 -72 -659 Q-74 -633 -74 -620 Q-74 -611 -74 -603 Q-74 -595 -74 -586 Q-73 -555 -70 -525.5 Q-67 -496 -63 -466 Q-56 -416 -47 -368 Q-38 -320 -27 -272 Q-18 -232 -8.5 -193.5 Q1 -155 10 -115 Q10 -114 10 -113 Q7 -118 5 -122.5 Q3 -127 1 -132 Q-13 -164 -24.5 -196.5 Q-36 -229 -46 -263 Q-47 -267 -48 -268 Q-52 -278 -62 -274 Q-73 -270 -71 -259 Q-68 -249 -65 -239.5 Q-62 -230 -59 -220 Q-45 -178 -28.5 -138 Q-12 -98 9 -60 Q13 -53 17 -48 Q20 -44 24 -42 Q31 -39 37 -42.5 Q43 -46 44 -54 Q46 -62 44.5 -70 Q43 -78 42 -86 Q34 -117 27 -147.5 Q20 -178 13 -209 Q-1 -267 -13.5 -325.5 Q-26 -384 -35 -444 Q-40 -473 -43.5 -503 Q-47 -533 -49 -563 Q-49 -578 -50 -592.5 Q-51 -607 -51 -622 Q-51 -646 -48 -671 Q-47 -682 -45 -693 Q-43 -704 -38 -714 Q-35 -721 -30 -728 Q-25 -734 -18 -732 Q-11 -730 -5.5 -725.5 Q0 -721 5 -716 Q19 -703 29 -688.5 Q39 -674 49 -658 Q74 -618 95 -576 Q116 -534 136 -491 Q170 -416 199.5 -340.5 Q229 -265 257 -188 Q305 -56 348 76.5 Q391 209 432 343 Q451 404 468 465 Q485 526 500 589 Q504 605 507 621 Q510 637 513 653 Q513 653 513 656 L511 656 Q504 658 500.5 663.5 Q497 669 501 675 Q505 682 514 691 Q520 698 529 694 Z " />
<glyph glyph-name="K" unicode="K" horiz-adv-x="381" d="M610 700 Q620 694 615 684 Q610 675 605 666 Q600 657 594 649 Q571 617 548 585.5 Q525 554 502 522 Q413 403 329.5 283 Q246 163 169 36 Q160 21 151 6.5 Q142 -8 133 -23 L135 -30 L139 -50 L139 -50 Q141 -59 145 -73 Q161 -131 176.5 -187.5 Q192 -244 207 -302 Q229 -381 252 -458 Q275 -535 301 -613 Q312 -647 324 -681 Q336 -715 349 -749 Q352 -759 357 -768.5 Q362 -778 366 -788 Q367 -788 367 -789 Q367 -790 368 -790 Q373 -801 363 -806 Q353 -812 347 -801 Q343 -794 339.5 -787 Q336 -780 333 -772 Q322 -745 312 -718 Q302 -691 293 -663 Q241 -509 197 -351 Q182 -298 167.5 -245 Q153 -192 138 -139 Q132 -118 126.5 -97 Q121 -76 115 -54 Q113 -57 113 -58 Q90 -97 68 -135.5 Q46 -174 24 -212 Q16 -225 7.5 -237.5 Q-1 -250 -9 -263 Q-13 -268 -21 -273 Q-28 -277 -34.5 -274 Q-41 -271 -44 -264 Q-47 -255 -46 -244 Q-44 -217 -38 -191 Q-32 -165 -26 -138 Q-9 -68 11.5 0 Q32 68 53 137 Q88 247 121.5 356.5 Q155 466 186 578 Q189 591 192.5 603 Q196 615 200 627 Q201 631 203 634 Q207 642 216 641 Q225 639 226 630 Q227 626 226.5 621.5 Q226 617 225 613 Q225 610 223 609 Q219 607 218 603.5 Q217 600 216 597 Q200 541 184.5 486.5 Q169 432 153 376 Q131 305 109 234.5 Q87 164 65 93 Q47 32 29 -28 Q11 -88 -4 -150 Q-8 -170 -12 -189.5 Q-16 -209 -21 -229 Q-21 -231 -21 -233 Q-21 -235 -21 -237 L-21 -237 Q-18 -234 -16 -230.5 Q-14 -227 -12 -223 Q5 -195 21.5 -167 Q38 -139 54 -110 Q119 4 187.5 113 Q256 222 332 329 Q377 393 423 455 Q469 517 515 581 Q529 600 542.5 618.5 Q556 637 570 657 Q574 663 577.5 670 Q581 677 585 684 Q588 687 590 691 Q592 695 594 698 Q601 706 610 700 Z " />
<glyph glyph-name="L" unicode="L" horiz-adv-x="290" d="M311 706 L310 706 Q305 698 300.5 689 Q296 680 292 671 Q273 632 257 592.5 Q241 553 226 512 Q200 442 176 372.5 Q152 303 129 232 Q84 94 41.5 -42.5 Q-1 -179 -41 -319 Q-56 -368 -69 -417 Q-82 -466 -93 -516 Q-98 -540 -102.5 -563.5 Q-107 -587 -111 -611 Q-115 -637 -113 -661 Q-112 -670 -110.5 -678 Q-109 -686 -105 -694 Q-95 -714 -70 -718 Q-58 -721 -46 -720.5 Q-34 -720 -22 -719 Q15 -714 50 -705 Q85 -696 121 -686 Q207 -662 293 -639.5 Q379 -617 466 -597 Q512 -587 557.5 -577 Q603 -567 649 -558 Q675 -552 701.5 -548 Q728 -544 754 -539 Q772 -536 790 -534 Q808 -532 826 -530 Q842 -528 857.5 -526.5 Q873 -525 889 -524 Q902 -523 914 -522 Q926 -521 939 -520 Q952 -519 953 -531 Q954 -543 942 -544 Q927 -545 913 -546 Q899 -547 885 -548 Q856 -551 829 -554 Q811 -556 794 -558 Q777 -560 760 -563 Q741 -565 723 -568 Q705 -571 686 -575 Q653 -582 620 -588.5 Q587 -595 554 -602 Q509 -612 465 -622.5 Q421 -633 376 -644 Q304 -661 234 -680.5 Q164 -700 93 -719 Q71 -725 48.5 -730 Q26 -735 3 -740 Q-26 -746 -56 -744 Q-70 -743 -82.5 -740 Q-95 -737 -106 -729 Q-127 -713 -134 -684 Q-137 -670 -137.5 -656.5 Q-138 -643 -137 -629 Q-132 -579 -121.5 -531.5 Q-111 -484 -99 -436 Q-77 -351 -52 -268 Q-27 -185 -2 -101 Q34 14 70 127.5 Q106 241 145 355 Q167 420 189.5 484 Q212 548 239 612 Q250 640 262.5 667 Q275 694 290 720 Q294 726 298 732 Q302 738 306 744 Q308 746 311 749 Q320 755 328 752 Q336 747 337 736 Q339 724 336.5 712 Q334 700 331 688 Q320 640 305.5 593.5 Q291 547 273 501 Q270 494 266 488 Q262 482 254 483 Q246 485 245 492 Q244 496 245 500 Q250 512 255 523.5 Q260 535 264 547 Q292 624 310 701 Q310 701 311 706 Z " />
<glyph glyph-name="M" unicode="M" horiz-adv-x="688" d="M685 269 Q682 255 678.5 241 Q675 227 672 213 Q666 193 661 173.5 Q656 154 650 134 Q645 114 639.5 94.5 Q634 75 628 55 Q623 38 618.5 20.5 Q614 3 609 -14 Q604 -32 599 -49 Q594 -66 589 -84 Q585 -99 581 -114 Q577 -129 572 -145 Q569 -155 565 -165.5 Q561 -176 557 -187 Q556 -191 551 -195 Q544 -200 538 -195 Q532 -190 535 -181 Q537 -176 539 -171.5 Q541 -167 542 -162 Q551 -134 559 -106 Q563 -90 567.5 -73.5 Q572 -57 577 -40 Q582 -21 587.5 -2.5 Q593 16 598 35 Q604 54 609.5 73.5 Q615 93 620 113 Q625 131 630 149 Q635 167 640 185 Q644 200 648 216 Q652 232 656 247 Q662 272 666 291 Q667 299 668 306.5 Q669 314 669 322 L669 322 Q670 327 663 322.5 Q656 318 653 315 Q643 306 634.5 296.5 Q626 287 617 276 Q583 236 554.5 193.5 Q526 151 500 106 Q449 20 408 -68 Q367 -156 333 -248 Q323 -274 313 -300.5 Q303 -327 293 -354 Q291 -359 288 -364 Q282 -372 273 -370 Q263 -367 265 -357 Q267 -346 269 -335 Q271 -324 273 -313 Q276 -301 279 -289 Q282 -277 285 -265 Q289 -250 293 -235 Q297 -220 301 -205 Q310 -172 321 -134 Q332 -95 343 -57 Q350 -33 356.5 -10 Q363 13 370 36 Q377 59 383.5 81.5 Q390 104 397 128 Q404 152 411.5 175.5 Q419 199 426 223 Q433 247 439.5 270 Q446 293 453 317 Q459 337 465 357.5 Q471 378 477 398 Q481 415 485.5 431.5 Q490 448 495 464 Q499 480 503 495.5 Q507 511 511 527 Q514 540 517.5 553 Q521 566 524 579 Q526 589 528 599 Q530 609 532 619 Q536 637 538.5 655 Q541 673 542 691 Q543 701 543 710.5 Q543 720 541 730 Q537 747 521 737 Q510 730 501 721.5 Q492 713 484 703 Q459 676 438 647 Q417 618 398 587 Q352 517 312 445 Q272 373 236 299 Q203 231 173.5 162.5 Q144 94 116 23 Q91 -41 68 -105 Q45 -169 24 -235 Q12 -274 0 -312.5 Q-12 -351 -24 -390 Q-32 -415 -39 -441 Q-46 -467 -53 -492 Q-65 -534 -75 -573 Q-79 -588 -83 -604 Q-87 -620 -91 -636 Q-93 -646 -96 -655.5 Q-99 -665 -101 -674 Q-105 -689 -117 -686 Q-128 -684 -126 -674 Q-125 -664 -123 -654 Q-121 -644 -119 -634 Q-118 -626 -116 -618 Q-114 -610 -113 -602 Q-111 -592 -108.5 -582 Q-106 -572 -104 -562 Q-102 -553 -100 -544.5 Q-98 -536 -96 -527 Q-94 -516 -91.5 -505 Q-89 -494 -87 -483 Q-84 -473 -82 -462.5 Q-80 -452 -77 -442 Q-75 -432 -72.5 -422 Q-70 -412 -68 -401 Q-66 -392 -63.5 -382 Q-61 -372 -59 -362 Q-56 -351 -53.5 -339 Q-51 -327 -48 -316 Q-46 -306 -43.5 -296.5 Q-41 -287 -39 -278 Q-36 -266 -33.5 -255 Q-31 -244 -28 -232 Q-25 -221 -22.5 -210 Q-20 -199 -17 -188 Q-15 -177 -12 -166 Q-9 -155 -7 -144 Q-4 -133 -1.5 -122.5 Q1 -112 4 -101 Q7 -89 9.5 -77 Q12 -65 15 -53 Q18 -41 21 -29 Q24 -17 27 -6 Q31 8 34 20.5 Q37 33 40 47 Q44 61 47.5 75 Q51 89 55 103 Q59 118 63 133 Q67 148 71 163 Q75 179 79.5 195 Q84 211 88 227 Q93 244 97.5 261 Q102 278 107 295 Q111 312 115.5 328.5 Q120 345 125 362 Q130 378 134.5 394.5 Q139 411 143 427 Q148 444 152.5 460.5 Q157 477 162 494 Q175 539 187 581 Q191 592 195 603.5 Q199 615 203 626 Q207 640 218 637 Q230 634 226 622 Q218 597 210 572.5 Q202 548 194 523 Q189 505 184 486.5 Q179 468 174 449 Q164 417 155 383 Q150 365 145 347.5 Q140 330 136 312 Q131 294 126 276 Q121 258 116 239 Q112 225 108 210.5 Q104 196 100 181 Q96 166 92 151 Q88 136 84 121 Q80 107 76.5 93.5 Q73 80 70 66 Q66 53 63 40 Q60 27 57 15 Q54 3 51 -8.5 Q48 -20 45 -32 Q42 -44 39 -56 Q36 -68 33 -80 Q30 -91 27.5 -101.5 Q25 -112 23 -123 Q20 -133 17.5 -144 Q15 -155 12 -166 Q9 -177 6.5 -188 Q4 -199 1 -210 Q-1 -221 -4 -232 Q-7 -243 -9 -255 Q-12 -267 -13 -274 Q-11 -266 -8.5 -259 Q-6 -252 -3 -245 Q10 -204 23.5 -164.5 Q37 -125 51 -85 Q98 48 154 176 Q196 271 242.5 362.5 Q289 454 343 544 Q366 582 391 619 Q416 656 444 692 Q455 705 466 717.5 Q477 730 490 741 Q499 750 508 756 L508 756 Q510 757 512 758 Q518 761 523 763 Q528 765 529 765 Q537 767 542 765 Q554 761 559 752.5 Q564 744 566 732 Q569 712 566 689 Q564 672 561 654.5 Q558 637 556 619 Q554 610 552.5 601.5 Q551 593 549 585 Q547 575 544.5 565 Q542 555 540 545 Q537 533 534 521 Q531 509 528 497 Q520 466 510 433 Q499 391 487 348 Q481 327 474.5 306 Q468 285 462 264 Q456 242 449.5 220.5 Q443 199 436 177 Q429 154 422.5 131.5 Q416 109 409 86 Q402 63 395.5 40 Q389 17 382 -6 Q376 -27 369.5 -48 Q363 -69 357 -90 Q352 -109 347 -127 Q342 -145 336 -164 Q335 -170 333 -176 Q331 -182 330 -188 Q331 -187 332 -185 Q393 -32 476 111 Q501 153 527.5 193.5 Q554 234 585 273 Q598 290 612 306 Q626 322 643 336 Q652 344 661 348 Q673 354 682 349.5 Q691 345 693 333 Q693 325 692 315 Q692 306 690 294.5 Q688 283 685 269 Z " />
<glyph glyph-name="N" unicode="N" horiz-adv-x="743" d="M780 628 Q780 615 780.5 602.5 Q781 590 781 577 Q780 555 778 532 Q776 519 774 506 Q772 493 770 481 Q768 469 766 458 Q764 447 762 436 Q759 421 756 407 Q753 393 749 379 Q739 337 728 297 Q721 272 714 247.5 Q707 223 700 198 Q691 163 681 129 Q671 95 661 61 Q652 29 643 -2 Q634 -33 625 -65 Q617 -94 609 -123 Q601 -152 593 -182 Q587 -203 581.5 -224.5 Q576 -246 570 -268 Q566 -286 561.5 -303.5 Q557 -321 553 -339 Q552 -342 551.5 -345 Q551 -348 550 -350 Q547 -363 536 -360 Q524 -358 527 -346 Q533 -321 539 -296 Q545 -271 551 -246 Q560 -215 568 -184.5 Q576 -154 584 -123 Q593 -91 602 -59.5 Q611 -28 620 4 Q629 34 637.5 64 Q646 94 655 124 Q664 156 673 187 Q682 218 691 250 Q698 275 704.5 299.5 Q711 324 717 349 Q722 368 726.5 387 Q731 406 735 426 Q739 440 741.5 455 Q744 470 747 485 Q749 498 751 516 Q753 529 754.5 542 Q756 555 757 568 Q758 590 757 611.5 Q756 633 750 654 Q747 664 742.5 673.5 Q738 683 730 690 Q715 703 691 701 Q673 698 656.5 691 Q640 684 624 674 Q600 659 579 642 Q558 625 538 606 Q494 566 456 521.5 Q418 477 383 430 Q330 359 284 285.5 Q238 212 196 134 Q141 34 94 -68.5 Q47 -171 7 -277 Q-17 -339 -38.5 -400.5 Q-60 -462 -83 -524 Q-88 -540 -94 -554.5 Q-100 -569 -106 -584 L-106 -585 L-106 -585 L-106 -586 L-106 -587 L-106 -587 Q-108 -591 -113.5 -598.5 Q-119 -606 -128 -604 Q-132 -603 -134 -600 L-134 -600 Q-137 -596 -137 -585 Q-138 -578 -136 -569 L-136 -567 L-136 -567 L-135 -562 L-135 -561 L-133 -554 Q-128 -529 -123 -505 Q-118 -481 -113 -456 Q-102 -413 -91.5 -370 Q-81 -327 -70 -283 Q-53 -221 -36 -159.5 Q-19 -98 0 -35 Q21 36 42.5 106.5 Q64 177 86 249 Q99 294 113 339 Q127 384 140 429 Q146 449 151 468.5 Q156 488 162 507 Q163 512 165 516 Q170 525 179 522 Q189 520 187 510 Q185 504 183.5 498.5 Q182 493 180 487 Q173 462 166.5 437 Q160 412 152 387 Q142 352 131.5 318 Q121 284 110 249 Q96 203 82 158 Q68 113 54 67 Q44 33 34 -0.5 Q24 -34 14 -68 Q6 -98 -2.5 -127 Q-11 -156 -19 -186 Q-26 -211 -32.5 -235.5 Q-39 -260 -46 -285 Q-52 -307 -57.5 -328.5 Q-63 -350 -68 -372 Q-73 -392 -78 -412 Q-83 -432 -88 -452 Q-92 -471 -95 -489 Q-93 -484 -91 -478 Q-89 -472 -87 -466 Q-57 -379 -25 -294 Q7 -209 44 -124 Q82 -38 123 45 Q164 128 211 210 Q250 278 293 342.5 Q336 407 384 470 Q411 504 439.5 537 Q468 570 499 601 Q525 626 552 649.5 Q579 673 610 692 Q625 702 641.5 710 Q658 718 676 722 Q680 723 684 723.5 Q688 724 693 725 L706 725 Q710 724 714 723.5 Q718 723 722 722 Q748 715 763 687 Q771 674 774.5 659 Q778 644 780 628 Z " />
<glyph glyph-name="&amp;#xd1;" unicode="&#xd1;" horiz-adv-x="743" d="M780 628 Q780 615 780.5 602.5 Q781 590 781 577 Q780 555 778 532 Q776 519 774 506 Q772 493 770 481 Q768 469 766 458 Q764 447 762 436 Q759 421 756 407 Q753 393 749 379 Q739 337 728 297 Q721 272 714 247.5 Q707 223 700 198 Q691 163 681 129 Q671 95 661 61 Q652 29 643 -2 Q634 -33 625 -65 Q617 -94 609 -123 Q601 -152 593 -182 Q587 -203 581.5 -224.5 Q576 -246 570 -268 Q566 -286 561.5 -303.5 Q557 -321 553 -339 Q552 -342 551.5 -345 Q551 -348 550 -350 Q547 -363 536 -360 Q524 -358 527 -346 Q533 -321 539 -296 Q545 -271 551 -246 Q560 -215 568 -184.5 Q576 -154 584 -123 Q593 -91 602 -59.5 Q611 -28 620 4 Q629 34 637.5 64 Q646 94 655 124 Q664 156 673 187 Q682 218 691 250 Q698 275 704.5 299.5 Q711 324 717 349 Q722 368 726.5 387 Q731 406 735 426 Q739 440 741.5 455 Q744 470 747 485 Q749 498 751 516 Q753 529 754.5 542 Q756 555 757 568 Q758 590 757 611.5 Q756 633 750 654 Q747 664 742.5 673.5 Q738 683 730 690 Q715 703 691 701 Q673 698 656.5 691 Q640 684 624 674 Q600 659 579 642 Q558 625 538 606 Q494 566 456 521.5 Q418 477 383 430 Q330 359 284 285.5 Q238 212 196 134 Q141 34 94 -68.5 Q47 -171 7 -277 Q-17 -339 -38.5 -400.5 Q-60 -462 -83 -524 Q-88 -540 -94 -554.5 Q-100 -569 -106 -584 L-106 -585 L-106 -585 L-106 -586 L-106 -587 L-106 -587 Q-108 -591 -113.5 -598.5 Q-119 -606 -128 -604 Q-132 -603 -134 -600 L-134 -600 Q-137 -596 -137 -585 Q-138 -578 -136 -569 L-136 -567 L-136 -567 L-135 -562 L-135 -561 L-133 -554 Q-128 -529 -123 -505 Q-118 -481 -113 -456 Q-102 -413 -91.5 -370 Q-81 -327 -70 -283 Q-53 -221 -36 -159.5 Q-19 -98 0 -35 Q21 36 42.5 106.5 Q64 177 86 249 Q99 294 113 339 Q127 384 140 429 Q146 449 151 468.5 Q156 488 162 507 Q163 512 165 516 Q170 525 179 522 Q189 520 187 510 Q185 504 183.5 498.5 Q182 493 180 487 Q173 462 166.5 437 Q160 412 152 387 Q142 352 131.5 318 Q121 284 110 249 Q96 203 82 158 Q68 113 54 67 Q44 33 34 -0.5 Q24 -34 14 -68 Q6 -98 -2.5 -127 Q-11 -156 -19 -186 Q-26 -211 -32.5 -235.5 Q-39 -260 -46 -285 Q-52 -307 -57.5 -328.5 Q-63 -350 -68 -372 Q-73 -392 -78 -412 Q-83 -432 -88 -452 Q-92 -471 -95 -489 Q-93 -484 -91 -478 Q-89 -472 -87 -466 Q-57 -379 -25 -294 Q7 -209 44 -124 Q82 -38 123 45 Q164 128 211 210 Q250 278 293 342.5 Q336 407 384 470 Q411 504 439.5 537 Q468 570 499 601 Q525 626 552 649.5 Q579 673 610 692 Q625 702 641.5 710 Q658 718 676 722 Q680 723 684 723.5 Q688 724 693 725 L706 725 Q710 724 714 723.5 Q718 723 722 722 Q748 715 763 687 Q771 674 774.5 659 Q778 644 780 628 Z " />
<glyph glyph-name="O" unicode="O" horiz-adv-x="603" d="M435 721 L464 721 Q469 720 474.5 719 Q480 718 486 716 Q509 710 527.5 696 Q546 682 560 662 Q577 641 587.5 616.5 Q598 592 604 566 Q609 549 612 531.5 Q615 514 616 496 Q619 471 619 446.5 Q619 422 618 397 Q617 380 615 363 Q613 346 611 328 Q598 226 569.5 128.5 Q541 31 503 -66 Q467 -159 423 -248 Q379 -337 327 -424 Q297 -473 265.5 -519.5 Q234 -566 197 -611 Q173 -641 146.5 -669 Q120 -697 90 -722 Q74 -735 57 -746 Q40 -757 20 -765 Q7 -769 -6 -770.5 Q-19 -772 -33 -767 Q-46 -763 -55.5 -754 Q-65 -745 -71 -733 Q-82 -711 -85 -685 Q-86 -672 -87 -659.5 Q-88 -647 -87 -634 Q-87 -619 -85.5 -604 Q-84 -589 -83 -574 Q-75 -516 -62 -460.5 Q-49 -405 -32 -350 Q1 -242 44 -140 Q87 -38 142 61 Q148 72 155.5 82.5 Q163 93 170 104 Q173 109 179 112 Q187 117 193 110 Q200 102 193 95 Q181 82 172 66.5 Q163 51 154 35 Q101 -65 58.5 -167.5 Q16 -270 -16 -378 Q-26 -415 -35 -451 Q-44 -487 -51 -524 Q-54 -540 -56 -555.5 Q-58 -571 -60 -586 Q-64 -618 -64 -646 Q-64 -663 -62 -679.5 Q-60 -696 -54 -712 Q-48 -727 -40 -735 Q-27 -748 -7 -746 Q11 -745 26.5 -736.5 Q42 -728 56 -717 Q82 -699 103.5 -678 Q125 -657 146 -634 Q193 -581 233 -524.5 Q273 -468 309 -408 Q443 -184 525 65 Q540 110 552 155.5 Q564 201 573 248 Q577 268 580.5 288.5 Q584 309 587 329 Q591 359 593 388 Q594 406 594.5 422.5 Q595 439 595 457 Q594 495 587.5 531.5 Q581 568 566 603 Q558 622 547 639 Q536 656 521 670 Q493 694 459 697 Q441 699 423.5 695.5 Q406 692 389 685 Q363 674 341 659 Q319 644 298 626 Q270 602 247 575.5 Q224 549 201 521 Q165 475 131.5 427.5 Q98 380 68 329 Q49 296 32 261.5 Q15 227 4 190 Q1 181 -1.5 171.5 Q-4 162 -7 153 Q-10 140 -21 142 Q-33 145 -30 158 Q-15 221 15 280 Q38 328 66.5 372 Q95 416 126 460 Q150 494 175.5 527 Q201 560 230 592 Q254 619 281 643 Q308 667 339 686 Q357 697 376.5 705.5 Q396 714 417 718 Q422 719 426 720 Q430 721 435 721 Z " />
<glyph glyph-name="&amp;#xd2;" unicode="&#xd2;" horiz-adv-x="603" d="M435 721 L464 721 Q469 720 474.5 719 Q480 718 486 716 Q509 710 527.5 696 Q546 682 560 662 Q577 641 587.5 616.5 Q598 592 604 566 Q609 549 612 531.5 Q615 514 616 496 Q619 471 619 446.5 Q619 422 618 397 Q617 380 615 363 Q613 346 611 328 Q598 226 569.5 128.5 Q541 31 503 -66 Q467 -159 423 -248 Q379 -337 327 -424 Q297 -473 265.5 -519.5 Q234 -566 197 -611 Q173 -641 146.5 -669 Q120 -697 90 -722 Q74 -735 57 -746 Q40 -757 20 -765 Q7 -769 -6 -770.5 Q-19 -772 -33 -767 Q-46 -763 -55.5 -754 Q-65 -745 -71 -733 Q-82 -711 -85 -685 Q-86 -672 -87 -659.5 Q-88 -647 -87 -634 Q-87 -619 -85.5 -604 Q-84 -589 -83 -574 Q-75 -516 -62 -460.5 Q-49 -405 -32 -350 Q1 -242 44 -140 Q87 -38 142 61 Q148 72 155.5 82.5 Q163 93 170 104 Q173 109 179 112 Q187 117 193 110 Q200 102 193 95 Q181 82 172 66.5 Q163 51 154 35 Q101 -65 58.5 -167.5 Q16 -270 -16 -378 Q-26 -415 -35 -451 Q-44 -487 -51 -524 Q-54 -540 -56 -555.5 Q-58 -571 -60 -586 Q-64 -618 -64 -646 Q-64 -663 -62 -679.5 Q-60 -696 -54 -712 Q-48 -727 -40 -735 Q-27 -748 -7 -746 Q11 -745 26.5 -736.5 Q42 -728 56 -717 Q82 -699 103.5 -678 Q125 -657 146 -634 Q193 -581 233 -524.5 Q273 -468 309 -408 Q443 -184 525 65 Q540 110 552 155.5 Q564 201 573 248 Q577 268 580.5 288.5 Q584 309 587 329 Q591 359 593 388 Q594 406 594.5 422.5 Q595 439 595 457 Q594 495 587.5 531.5 Q581 568 566 603 Q558 622 547 639 Q536 656 521 670 Q493 694 459 697 Q441 699 423.5 695.5 Q406 692 389 685 Q363 674 341 659 Q319 644 298 626 Q270 602 247 575.5 Q224 549 201 521 Q165 475 131.5 427.5 Q98 380 68 329 Q49 296 32 261.5 Q15 227 4 190 Q1 181 -1.5 171.5 Q-4 162 -7 153 Q-10 140 -21 142 Q-33 145 -30 158 Q-15 221 15 280 Q38 328 66.5 372 Q95 416 126 460 Q150 494 175.5 527 Q201 560 230 592 Q254 619 281 643 Q308 667 339 686 Q357 697 376.5 705.5 Q396 714 417 718 Q422 719 426 720 Q430 721 435 721 Z " />
<glyph glyph-name="&amp;#xd3;" unicode="&#xd3;" horiz-adv-x="603" d="M435 721 L464 721 Q469 720 474.5 719 Q480 718 486 716 Q509 710 527.5 696 Q546 682 560 662 Q577 641 587.5 616.5 Q598 592 604 566 Q609 549 612 531.5 Q615 514 616 496 Q619 471 619 446.5 Q619 422 618 397 Q617 380 615 363 Q613 346 611 328 Q598 226 569.5 128.5 Q541 31 503 -66 Q467 -159 423 -248 Q379 -337 327 -424 Q297 -473 265.5 -519.5 Q234 -566 197 -611 Q173 -641 146.5 -669 Q120 -697 90 -722 Q74 -735 57 -746 Q40 -757 20 -765 Q7 -769 -6 -770.5 Q-19 -772 -33 -767 Q-46 -763 -55.5 -754 Q-65 -745 -71 -733 Q-82 -711 -85 -685 Q-86 -672 -87 -659.5 Q-88 -647 -87 -634 Q-87 -619 -85.5 -604 Q-84 -589 -83 -574 Q-75 -516 -62 -460.5 Q-49 -405 -32 -350 Q1 -242 44 -140 Q87 -38 142 61 Q148 72 155.5 82.5 Q163 93 170 104 Q173 109 179 112 Q187 117 193 110 Q200 102 193 95 Q181 82 172 66.5 Q163 51 154 35 Q101 -65 58.5 -167.5 Q16 -270 -16 -378 Q-26 -415 -35 -451 Q-44 -487 -51 -524 Q-54 -540 -56 -555.5 Q-58 -571 -60 -586 Q-64 -618 -64 -646 Q-64 -663 -62 -679.5 Q-60 -696 -54 -712 Q-48 -727 -40 -735 Q-27 -748 -7 -746 Q11 -745 26.5 -736.5 Q42 -728 56 -717 Q82 -699 103.5 -678 Q125 -657 146 -634 Q193 -581 233 -524.5 Q273 -468 309 -408 Q443 -184 525 65 Q540 110 552 155.5 Q564 201 573 248 Q577 268 580.5 288.5 Q584 309 587 329 Q591 359 593 388 Q594 406 594.5 422.5 Q595 439 595 457 Q594 495 587.5 531.5 Q581 568 566 603 Q558 622 547 639 Q536 656 521 670 Q493 694 459 697 Q441 699 423.5 695.5 Q406 692 389 685 Q363 674 341 659 Q319 644 298 626 Q270 602 247 575.5 Q224 549 201 521 Q165 475 131.5 427.5 Q98 380 68 329 Q49 296 32 261.5 Q15 227 4 190 Q1 181 -1.5 171.5 Q-4 162 -7 153 Q-10 140 -21 142 Q-33 145 -30 158 Q-15 221 15 280 Q38 328 66.5 372 Q95 416 126 460 Q150 494 175.5 527 Q201 560 230 592 Q254 619 281 643 Q308 667 339 686 Q357 697 376.5 705.5 Q396 714 417 718 Q422 719 426 720 Q430 721 435 721 Z " />
<glyph glyph-name="&amp;#xd4;" unicode="&#xd4;" horiz-adv-x="603" d="M435 721 L464 721 Q469 720 474.5 719 Q480 718 486 716 Q509 710 527.5 696 Q546 682 560 662 Q577 641 587.5 616.5 Q598 592 604 566 Q609 549 612 531.5 Q615 514 616 496 Q619 471 619 446.5 Q619 422 618 397 Q617 380 615 363 Q613 346 611 328 Q598 226 569.5 128.5 Q541 31 503 -66 Q467 -159 423 -248 Q379 -337 327 -424 Q297 -473 265.5 -519.5 Q234 -566 197 -611 Q173 -641 146.5 -669 Q120 -697 90 -722 Q74 -735 57 -746 Q40 -757 20 -765 Q7 -769 -6 -770.5 Q-19 -772 -33 -767 Q-46 -763 -55.5 -754 Q-65 -745 -71 -733 Q-82 -711 -85 -685 Q-86 -672 -87 -659.5 Q-88 -647 -87 -634 Q-87 -619 -85.5 -604 Q-84 -589 -83 -574 Q-75 -516 -62 -460.5 Q-49 -405 -32 -350 Q1 -242 44 -140 Q87 -38 142 61 Q148 72 155.5 82.5 Q163 93 170 104 Q173 109 179 112 Q187 117 193 110 Q200 102 193 95 Q181 82 172 66.5 Q163 51 154 35 Q101 -65 58.5 -167.5 Q16 -270 -16 -378 Q-26 -415 -35 -451 Q-44 -487 -51 -524 Q-54 -540 -56 -555.5 Q-58 -571 -60 -586 Q-64 -618 -64 -646 Q-64 -663 -62 -679.5 Q-60 -696 -54 -712 Q-48 -727 -40 -735 Q-27 -748 -7 -746 Q11 -745 26.5 -736.5 Q42 -728 56 -717 Q82 -699 103.5 -678 Q125 -657 146 -634 Q193 -581 233 -524.5 Q273 -468 309 -408 Q443 -184 525 65 Q540 110 552 155.5 Q564 201 573 248 Q577 268 580.5 288.5 Q584 309 587 329 Q591 359 593 388 Q594 406 594.5 422.5 Q595 439 595 457 Q594 495 587.5 531.5 Q581 568 566 603 Q558 622 547 639 Q536 656 521 670 Q493 694 459 697 Q441 699 423.5 695.5 Q406 692 389 685 Q363 674 341 659 Q319 644 298 626 Q270 602 247 575.5 Q224 549 201 521 Q165 475 131.5 427.5 Q98 380 68 329 Q49 296 32 261.5 Q15 227 4 190 Q1 181 -1.5 171.5 Q-4 162 -7 153 Q-10 140 -21 142 Q-33 145 -30 158 Q-15 221 15 280 Q38 328 66.5 372 Q95 416 126 460 Q150 494 175.5 527 Q201 560 230 592 Q254 619 281 643 Q308 667 339 686 Q357 697 376.5 705.5 Q396 714 417 718 Q422 719 426 720 Q430 721 435 721 Z " />
<glyph glyph-name="&amp;#xd5;" unicode="&#xd5;" horiz-adv-x="603" d="M435 721 L464 721 Q469 720 474.5 719 Q480 718 486 716 Q509 710 527.5 696 Q546 682 560 662 Q577 641 587.5 616.5 Q598 592 604 566 Q609 549 612 531.5 Q615 514 616 496 Q619 471 619 446.5 Q619 422 618 397 Q617 380 615 363 Q613 346 611 328 Q598 226 569.5 128.5 Q541 31 503 -66 Q467 -159 423 -248 Q379 -337 327 -424 Q297 -473 265.5 -519.5 Q234 -566 197 -611 Q173 -641 146.5 -669 Q120 -697 90 -722 Q74 -735 57 -746 Q40 -757 20 -765 Q7 -769 -6 -770.5 Q-19 -772 -33 -767 Q-46 -763 -55.5 -754 Q-65 -745 -71 -733 Q-82 -711 -85 -685 Q-86 -672 -87 -659.5 Q-88 -647 -87 -634 Q-87 -619 -85.5 -604 Q-84 -589 -83 -574 Q-75 -516 -62 -460.5 Q-49 -405 -32 -350 Q1 -242 44 -140 Q87 -38 142 61 Q148 72 155.5 82.5 Q163 93 170 104 Q173 109 179 112 Q187 117 193 110 Q200 102 193 95 Q181 82 172 66.5 Q163 51 154 35 Q101 -65 58.5 -167.5 Q16 -270 -16 -378 Q-26 -415 -35 -451 Q-44 -487 -51 -524 Q-54 -540 -56 -555.5 Q-58 -571 -60 -586 Q-64 -618 -64 -646 Q-64 -663 -62 -679.5 Q-60 -696 -54 -712 Q-48 -727 -40 -735 Q-27 -748 -7 -746 Q11 -745 26.5 -736.5 Q42 -728 56 -717 Q82 -699 103.5 -678 Q125 -657 146 -634 Q193 -581 233 -524.5 Q273 -468 309 -408 Q443 -184 525 65 Q540 110 552 155.5 Q564 201 573 248 Q577 268 580.5 288.5 Q584 309 587 329 Q591 359 593 388 Q594 406 594.5 422.5 Q595 439 595 457 Q594 495 587.5 531.5 Q581 568 566 603 Q558 622 547 639 Q536 656 521 670 Q493 694 459 697 Q441 699 423.5 695.5 Q406 692 389 685 Q363 674 341 659 Q319 644 298 626 Q270 602 247 575.5 Q224 549 201 521 Q165 475 131.5 427.5 Q98 380 68 329 Q49 296 32 261.5 Q15 227 4 190 Q1 181 -1.5 171.5 Q-4 162 -7 153 Q-10 140 -21 142 Q-33 145 -30 158 Q-15 221 15 280 Q38 328 66.5 372 Q95 416 126 460 Q150 494 175.5 527 Q201 560 230 592 Q254 619 281 643 Q308 667 339 686 Q357 697 376.5 705.5 Q396 714 417 718 Q422 719 426 720 Q430 721 435 721 Z " />
<glyph glyph-name="&amp;#xd6;" unicode="&#xd6;" horiz-adv-x="603" d="M435 721 L464 721 Q469 720 474.5 719 Q480 718 486 716 Q509 710 527.5 696 Q546 682 560 662 Q577 641 587.5 616.5 Q598 592 604 566 Q609 549 612 531.5 Q615 514 616 496 Q619 471 619 446.5 Q619 422 618 397 Q617 380 615 363 Q613 346 611 328 Q598 226 569.5 128.5 Q541 31 503 -66 Q467 -159 423 -248 Q379 -337 327 -424 Q297 -473 265.5 -519.5 Q234 -566 197 -611 Q173 -641 146.5 -669 Q120 -697 90 -722 Q74 -735 57 -746 Q40 -757 20 -765 Q7 -769 -6 -770.5 Q-19 -772 -33 -767 Q-46 -763 -55.5 -754 Q-65 -745 -71 -733 Q-82 -711 -85 -685 Q-86 -672 -87 -659.5 Q-88 -647 -87 -634 Q-87 -619 -85.5 -604 Q-84 -589 -83 -574 Q-75 -516 -62 -460.5 Q-49 -405 -32 -350 Q1 -242 44 -140 Q87 -38 142 61 Q148 72 155.5 82.5 Q163 93 170 104 Q173 109 179 112 Q187 117 193 110 Q200 102 193 95 Q181 82 172 66.5 Q163 51 154 35 Q101 -65 58.5 -167.5 Q16 -270 -16 -378 Q-26 -415 -35 -451 Q-44 -487 -51 -524 Q-54 -540 -56 -555.5 Q-58 -571 -60 -586 Q-64 -618 -64 -646 Q-64 -663 -62 -679.5 Q-60 -696 -54 -712 Q-48 -727 -40 -735 Q-27 -748 -7 -746 Q11 -745 26.5 -736.5 Q42 -728 56 -717 Q82 -699 103.5 -678 Q125 -657 146 -634 Q193 -581 233 -524.5 Q273 -468 309 -408 Q443 -184 525 65 Q540 110 552 155.5 Q564 201 573 248 Q577 268 580.5 288.5 Q584 309 587 329 Q591 359 593 388 Q594 406 594.5 422.5 Q595 439 595 457 Q594 495 587.5 531.5 Q581 568 566 603 Q558 622 547 639 Q536 656 521 670 Q493 694 459 697 Q441 699 423.5 695.5 Q406 692 389 685 Q363 674 341 659 Q319 644 298 626 Q270 602 247 575.5 Q224 549 201 521 Q165 475 131.5 427.5 Q98 380 68 329 Q49 296 32 261.5 Q15 227 4 190 Q1 181 -1.5 171.5 Q-4 162 -7 153 Q-10 140 -21 142 Q-33 145 -30 158 Q-15 221 15 280 Q38 328 66.5 372 Q95 416 126 460 Q150 494 175.5 527 Q201 560 230 592 Q254 619 281 643 Q308 667 339 686 Q357 697 376.5 705.5 Q396 714 417 718 Q422 719 426 720 Q430 721 435 721 Z " />
<glyph glyph-name="&amp;#xd8;" unicode="&#xd8;" horiz-adv-x="603" d="M435 721 L464 721 Q469 720 474.5 719 Q480 718 486 716 Q509 710 527.5 696 Q546 682 560 662 Q577 641 587.5 616.5 Q598 592 604 566 Q609 549 612 531.5 Q615 514 616 496 Q619 471 619 446.5 Q619 422 618 397 Q617 380 615 363 Q613 346 611 328 Q598 226 569.5 128.5 Q541 31 503 -66 Q467 -159 423 -248 Q379 -337 327 -424 Q297 -473 265.5 -519.5 Q234 -566 197 -611 Q173 -641 146.5 -669 Q120 -697 90 -722 Q74 -735 57 -746 Q40 -757 20 -765 Q7 -769 -6 -770.5 Q-19 -772 -33 -767 Q-46 -763 -55.5 -754 Q-65 -745 -71 -733 Q-82 -711 -85 -685 Q-86 -672 -87 -659.5 Q-88 -647 -87 -634 Q-87 -619 -85.5 -604 Q-84 -589 -83 -574 Q-75 -516 -62 -460.5 Q-49 -405 -32 -350 Q1 -242 44 -140 Q87 -38 142 61 Q148 72 155.5 82.5 Q163 93 170 104 Q173 109 179 112 Q187 117 193 110 Q200 102 193 95 Q181 82 172 66.5 Q163 51 154 35 Q101 -65 58.5 -167.5 Q16 -270 -16 -378 Q-26 -415 -35 -451 Q-44 -487 -51 -524 Q-54 -540 -56 -555.5 Q-58 -571 -60 -586 Q-64 -618 -64 -646 Q-64 -663 -62 -679.5 Q-60 -696 -54 -712 Q-48 -727 -40 -735 Q-27 -748 -7 -746 Q11 -745 26.5 -736.5 Q42 -728 56 -717 Q82 -699 103.5 -678 Q125 -657 146 -634 Q193 -581 233 -524.5 Q273 -468 309 -408 Q443 -184 525 65 Q540 110 552 155.5 Q564 201 573 248 Q577 268 580.5 288.5 Q584 309 587 329 Q591 359 593 388 Q594 406 594.5 422.5 Q595 439 595 457 Q594 495 587.5 531.5 Q581 568 566 603 Q558 622 547 639 Q536 656 521 670 Q493 694 459 697 Q441 699 423.5 695.5 Q406 692 389 685 Q363 674 341 659 Q319 644 298 626 Q270 602 247 575.5 Q224 549 201 521 Q165 475 131.5 427.5 Q98 380 68 329 Q49 296 32 261.5 Q15 227 4 190 Q1 181 -1.5 171.5 Q-4 162 -7 153 Q-10 140 -21 142 Q-33 145 -30 158 Q-15 221 15 280 Q38 328 66.5 372 Q95 416 126 460 Q150 494 175.5 527 Q201 560 230 592 Q254 619 281 643 Q308 667 339 686 Q357 697 376.5 705.5 Q396 714 417 718 Q422 719 426 720 Q430 721 435 721 Z " />
<glyph glyph-name="P" unicode="P" horiz-adv-x="575" d="M637 489 Q637 489 638 484 L638 472 Q637 467 637 467 Q637 436 632 407 Q627 378 619 349 Q604 295 580 245.5 Q556 196 525 149 Q490 94 447.5 47 Q405 0 355 -40 Q325 -64 293 -83.5 Q261 -103 225 -117 Q210 -122 195.5 -126 Q181 -130 166 -132 Q140 -134 119.5 -131.5 Q99 -129 76 -117 Q74 -120 74 -121 Q40 -240 5.5 -358 Q-29 -476 -64 -595 Q-77 -641 -89 -686.5 Q-101 -732 -113 -778 Q-114 -780 -114 -782 Q-114 -784 -114 -785 Q-117 -796 -127 -795 Q-138 -793 -137 -783 Q-137 -775 -135 -768 Q-118 -704 -101 -641 Q-84 -578 -65 -514 Q-36 -411 -6.5 -310 Q23 -209 53 -107 Q55 -103 52 -100 Q36 -85 26 -67 Q16 -49 10 -28 Q2 -4 -0.5 23.5 Q-3 51 -2.5 76.5 Q-2 102 0.5 124.5 Q3 147 5 161 Q7 169 8 176 L9 180 L9 181 L9 181 Q12 194 15 207 Q21 230 30.5 251 Q40 272 55 291 Q61 297 65 301 Q74 310 82 302 Q91 294 82 285 Q62 263 51 237.5 Q40 212 34 184 L33 180 L33 180 Q26 148 23 114 Q21 82 22 48.5 Q23 15 32 -18 Q39 -49 58 -72 Q58 -73 62 -77 Q63 -72 64.5 -68.5 Q66 -65 67 -61 Q94 37 121 133.5 Q148 230 175 327 Q193 393 209.5 458.5 Q226 524 244 590 Q246 597 248.5 604.5 Q251 612 253 619 Q254 624 257 627 Q266 638 276 629 Q286 619 276 609 Q274 607 273 603 Q267 581 261 558.5 Q255 536 249 514 Q222 407 193.5 302 Q165 197 135 91 Q122 46 109 1.5 Q96 -43 83 -88 Q82 -94 87 -96 Q108 -107 133 -109 Q162 -110 188.5 -103 Q215 -96 240 -84 Q271 -70 298 -52 Q325 -34 351 -12 Q497 111 572 286 Q584 315 593 344.5 Q602 374 607 406 Q612 431 613 462 Q614 486 612 509 Q607 547 592.5 580.5 Q578 614 548 641 Q530 657 509 667 Q488 677 464 684 Q451 687 438 689.5 Q425 692 411 692 Q399 693 386.5 693.5 Q374 694 361 693 Q329 691 298 684.5 Q267 678 237 669 Q176 650 121.5 621.5 Q67 593 16 556 Q-3 542 -21.5 527 Q-40 512 -56 495 Q-62 489 -69 491 Q-76 493 -77 500 Q-79 507 -73 512 Q-65 519 -58 526 Q-51 533 -43 540 Q10 584 67.5 618.5 Q125 653 190 678 Q217 689 245.5 697 Q274 705 303 710 Q316 712 329 713.5 Q342 715 356 716 Q381 718 402 717 Q441 715 478 705 Q515 695 548 671 Q578 650 597 621 Q616 592 627 557 Q636 523 637 489 Z " />
<glyph glyph-name="Q" unicode="Q" horiz-adv-x="550" d="M-68 -534 L-69 -506 Q-69 -504 -68.5 -502 Q-68 -500 -68 -498 Q-68 -485 -68 -472.5 Q-68 -460 -67 -447 Q-67 -433 -66 -419.5 Q-65 -406 -64 -392 Q-62 -376 -61 -361 Q-60 -346 -58 -331 Q-56 -310 -53 -288.5 Q-50 -267 -47 -246 Q-41 -213 -35 -180.5 Q-29 -148 -22 -115 Q3 0 39 109 Q75 218 124 323 Q150 377 179 427.5 Q208 478 243 526 Q265 556 289.5 584.5 Q314 613 342 638 Q365 658 390 675.5 Q415 693 444 704 Q469 714 491 714 Q542 715 568 669 Q582 645 587 615 Q588 602 589.5 589.5 Q591 577 591 565 Q592 542 590 519.5 Q588 497 584 474 Q575 411 559 351 Q543 291 524 231 Q521 224 520.5 216 Q520 208 518 200 Q512 161 503.5 122.5 Q495 84 484 46 Q456 -55 419 -151 Q382 -247 336 -341 Q308 -399 277 -454.5 Q246 -510 211 -563 Q202 -577 193 -589.5 Q184 -602 175 -615 Q173 -617 173 -619.5 Q173 -622 174 -625 Q177 -639 180 -653 Q183 -667 186 -681 Q191 -699 204 -707 Q219 -717 232 -705 Q235 -702 242 -695 Q250 -685 259 -692 Q268 -700 261 -710 Q254 -720 245 -727 Q236 -734 223 -736 Q214 -737 205 -734 Q177 -725 167 -697 Q163 -685 160 -673 Q157 -661 154 -649 Q154 -649 153 -643 Q151 -645 148.5 -648 Q146 -651 144 -653 Q130 -670 114.5 -685 Q99 -700 81 -712 Q72 -719 62 -723.5 Q52 -728 41 -731 Q1 -739 -26 -703 Q-37 -689 -43 -673.5 Q-49 -658 -54 -641 Q-62 -608 -65 -575 Q-65 -566 -66 -557 Q-67 -548 -67 -539 Q-67 -539 -68 -534 Z M528 358 Q529 352 529 346.5 Q529 341 530 335 Q531 339 531 339 Q541 377 549.5 415 Q558 453 563 492 Q565 510 566.5 528 Q568 546 567 565 Q567 587 563 613 Q559 641 545 662 Q527 690 495 690 Q481 690 468.5 686.5 Q456 683 444 677 Q416 665 392 647 Q368 629 345 608 Q318 582 295 553.5 Q272 525 250 494 Q213 441 183 385 Q153 329 126 269 Q87 179 57 86 Q27 -7 5 -103 Q-12 -175 -23 -246 Q-26 -267 -28.5 -287.5 Q-31 -308 -34 -330 Q-38 -360 -40 -389 Q-42 -415 -43 -442 Q-44 -461 -44.5 -479 Q-45 -497 -45 -515 Q-44 -530 -43 -545 Q-42 -560 -41 -575 Q-39 -606 -30 -638 Q-26 -652 -21 -665 Q-16 -678 -7 -690 Q2 -701 13.5 -705.5 Q25 -710 39 -706 Q51 -702 60.5 -696 Q70 -690 80 -683 Q98 -668 113.5 -651 Q129 -634 144 -615 Q148 -610 147 -603 Q145 -585 143.5 -567 Q142 -549 141 -531 Q140 -512 140 -493 Q140 -474 141 -455 Q141 -437 142 -419.5 Q143 -402 144 -385 Q145 -372 146 -359 Q147 -346 148 -333 Q150 -314 152 -296 Q154 -278 156 -260 Q161 -229 165.5 -198 Q170 -167 176 -136 Q188 -70 204.5 -7 Q221 56 242 119 Q260 174 281.5 226.5 Q303 279 330 330 Q345 356 361 380.5 Q377 405 397 427 Q406 437 416.5 445 Q427 453 439 459 Q458 468 475 463 Q495 457 508 435 Q518 417 522 397.5 Q526 378 528 358 Z M170 -582 Q272 -429 345.5 -264.5 Q419 -100 468 79 Q460 75 454 78 Q447 82 448 89 Q448 92 450 96 Q460 126 471 155 Q482 184 492 213 Q494 219 496.5 224.5 Q499 230 499 236 Q502 256 503.5 275.5 Q505 295 506 315 Q507 335 505.5 354.5 Q504 374 499 394 Q496 404 492.5 413.5 Q489 423 482 431 Q472 443 457 439 Q446 437 434 428 Q423 419 413.5 409 Q404 399 395 387 Q375 361 359 332.5 Q343 304 329 274 Q303 219 283 163 Q263 107 245 49 Q214 -58 195 -164 Q191 -186 187.5 -208.5 Q184 -231 181 -254 Q179 -269 177 -284 Q175 -299 174 -314 Q172 -328 171 -342 Q170 -356 169 -369 Q168 -385 166.5 -400.5 Q165 -416 165 -432 Q164 -444 163.5 -456.5 Q163 -469 163 -482 Q164 -504 165 -526 Q166 -548 167 -570 Q167 -573 167.5 -576 Q168 -579 168 -581 L170 -582 Z " />
<glyph glyph-name="R" unicode="R" horiz-adv-x="431" d="M342 -896 L338 -896 Q331 -893 326 -884 Q315 -865 308 -845.5 Q301 -826 295 -806 Q286 -770 277 -735.5 Q268 -701 259 -665 Q252 -635 245.5 -605 Q239 -575 232 -544 Q222 -504 213 -464.5 Q204 -425 193 -385 Q184 -347 170.5 -311.5 Q157 -276 138 -242 Q133 -233 129 -223.5 Q125 -214 123 -204 Q117 -180 126 -155 Q132 -138 140.5 -122 Q149 -106 158 -91 Q182 -51 207.5 -12.5 Q233 26 260 64 Q311 137 361.5 208.5 Q412 280 462 353 Q493 398 522.5 442.5 Q552 487 579 534 Q589 552 598 570 Q607 588 613 608 Q617 618 618 632 Q620 650 599 652 Q583 654 569 651.5 Q555 649 540 645 Q503 635 468.5 620.5 Q434 606 400 589 Q236 508 95 391 Q73 373 52 353 Q31 333 13 311 Q6 302 -0.5 293 Q-7 284 -11 274 Q-14 267 -17 256 Q-19 244 -10 235 Q3 222 15 212 Q78 163 98 88 Q100 78 102 67.5 Q104 57 106 46 Q108 32 109 19 Q109 9 109.5 -0.5 Q110 -10 110 -20 Q110 -24 110 -28.5 Q110 -33 111 -37 Q114 -29 116.5 -20.5 Q119 -12 122 -3 Q140 54 157.5 111 Q175 168 193 226 Q196 236 200 246 Q204 256 214 254 Q227 250 222 236 Q220 228 217 219.5 Q214 211 211 202 Q182 111 154 20.5 Q126 -70 98 -161 Q93 -175 90.5 -189.5 Q88 -204 85 -218 Q75 -264 63 -309 Q51 -354 36 -399 Q33 -405 30 -411 Q26 -421 16 -419 Q5 -416 6 -405 Q8 -387 12 -374 Q26 -324 39.5 -275 Q53 -226 67 -176 Q72 -161 74.5 -146 Q77 -131 79 -116 Q83 -85 85 -54 Q86 -34 86 -8 Q86 3 85 14.5 Q84 26 83 38 Q79 71 68.5 102.5 Q58 134 35 161 Q25 172 14.5 181.5 Q4 191 -8 201 Q-15 207 -21 213 Q-49 238 -38 273 Q-33 287 -25.5 299.5 Q-18 312 -8 323 Q12 349 35.5 371 Q59 393 84 414 Q232 536 402 617 Q433 633 465.5 645.5 Q498 658 532 668 Q545 671 558 673.5 Q571 676 584 677 Q604 677 618 671 Q631 665 637 654 Q643 643 642 630 Q641 609 634 591 Q627 573 618 556 Q603 525 586 496 Q569 467 550 439 Q509 379 468.5 320 Q428 261 387 202 Q345 142 304 83 Q263 24 222 -36 Q205 -60 190 -84.5 Q175 -109 162 -135 Q156 -146 151.5 -157 Q147 -168 145 -181 Q143 -197 149 -210 Q155 -221 160.5 -232 Q166 -243 171 -254 Q185 -283 195.5 -312 Q206 -341 214 -371 Q223 -404 231 -437.5 Q239 -471 247 -505 Q255 -538 262 -570.5 Q269 -603 277 -636 Q287 -680 297.5 -723.5 Q308 -767 321 -810 Q327 -827 333 -844 Q339 -861 348 -877 Q355 -889 342 -896 Z " />
<glyph glyph-name="S" unicode="S" horiz-adv-x="753" d="M689 565 Q697 583 703.5 601.5 Q710 620 714 640 Q717 650 718 659.5 Q719 669 716 679 Q712 697 693 697 Q682 697 671.5 694 Q661 691 651 687 Q628 677 607 664.5 Q586 652 565 637 Q531 613 500 586 Q469 559 439 530 Q328 423 236 303 Q144 183 65 51 Q44 14 25 -23.5 Q6 -61 -10 -100 Q-17 -117 -22.5 -133.5 Q-28 -150 -31 -168 Q-32 -177 -32.5 -185.5 Q-33 -194 -31 -202 Q-26 -221 -6 -223 Q7 -225 19 -222 Q31 -219 43 -216 Q72 -207 99.5 -195 Q127 -183 154 -169 Q204 -142 253.5 -116 Q303 -90 353 -63 Q400 -38 447 -14 Q494 10 543 30 Q561 38 580 45 Q599 52 619 56 Q629 58 639.5 59 Q650 60 660 57 Q689 51 689 20 Q690 7 686.5 -5.5 Q683 -18 678 -30 Q667 -55 654 -79 Q641 -103 627 -127 Q531 -286 414 -429 Q389 -460 363 -489.5 Q337 -519 308 -547 Q290 -565 270.5 -581 Q251 -597 230 -611 Q221 -617 212.5 -621 Q204 -625 194 -627 Q177 -631 165.5 -623 Q154 -615 151 -598 Q150 -587 151 -575.5 Q152 -564 154 -552 Q162 -519 173 -487.5 Q184 -456 196 -425 Q216 -372 241 -322 Q266 -272 296 -223 Q298 -220 300 -218 Q307 -212 314 -216 Q322 -221 319 -230 Q318 -233 315 -238 Q273 -306 241.5 -378 Q210 -450 186 -527 Q181 -540 178 -553.5 Q175 -567 174 -581 Q174 -588 176 -598 Q178 -606 187 -604 Q195 -603 202.5 -599.5 Q210 -596 216 -592 Q232 -582 245.5 -571 Q259 -560 273 -547 Q310 -513 343.5 -475.5 Q377 -438 409 -398 Q521 -258 610 -108 Q623 -86 635 -64 Q647 -42 657 -18 Q660 -10 662.5 -1 Q665 8 665 17 Q666 35 648 35 Q636 35 624.5 32.5 Q613 30 602 27 Q572 17 543 4.5 Q514 -8 485 -22 Q435 -46 386.5 -72.5 Q338 -99 289 -125 Q246 -148 204 -170 Q162 -192 118 -212 Q97 -222 76 -230 Q55 -238 33 -243 Q21 -246 8.5 -247 Q-4 -248 -17 -246 Q-35 -241 -44.5 -229 Q-54 -217 -56 -200 Q-58 -179 -54 -160 Q-50 -141 -43 -121 Q-32 -87 -17 -55 Q-2 -23 15 9 Q50 74 89.5 135.5 Q129 197 173 257 Q209 308 248 356.5 Q287 405 330 452 Q374 500 420 545 Q466 590 518 631 Q543 651 569 669 Q595 687 624 701 Q635 706 645.5 710.5 Q656 715 667 718 Q669 718 675.5 719.5 Q682 721 690 721 Q694 721 699 720 Q711 719 719 715 Q736 705 740 681 Q743 666 741 651.5 Q739 637 735 622 Q726 589 712.5 558.5 Q699 528 683 498 Q664 463 644.5 429.5 Q625 396 606 362 Q602 355 599 350 Q592 339 582 344 Q571 350 578 362 Q587 378 596.5 393 Q606 408 615 424 Q635 458 654 493 Q673 528 689 565 Z " />
<glyph glyph-name="T" unicode="T" horiz-adv-x="202" d="M-236 615 L-236 620 Q-232 628 -220 630 Q-200 634 -180 637.5 Q-160 641 -139 644 Q-123 646 -107 648 Q-91 650 -74 651 Q-61 653 -47.5 654 Q-34 655 -21 656 Q9 658 42 660 Q66 662 89 663 Q105 663 121 664 Q137 665 153 665 Q173 666 192 666 Q211 666 231 667 L233 667 Q234 670 234.5 673.5 Q235 677 235 680 Q236 688 242 691.5 Q248 695 254 691 Q260 687 259 676 Q259 674 258.5 672 Q258 670 257 667 L262 667 Q278 667 293.5 667 Q309 667 325 667 Q339 667 353 666.5 Q367 666 382 666 Q411 665 437 664 Q451 664 465 663 Q479 662 493 662 Q508 661 522.5 660 Q537 659 552 657 Q578 655 603.5 651 Q629 647 654 639 Q659 638 661 637 Q670 632 666 622 Q662 612 652 615 Q644 617 636.5 619.5 Q629 622 621 623 Q592 629 565 632 Q551 633 536.5 634.5 Q522 636 507 637 Q498 637 488.5 637.5 Q479 638 470 639 Q449 639 428 640 Q407 641 386 642 L385 642 Q352 642 320 642.5 Q288 643 256 643 L254 643 Q252 637 251 631.5 Q250 626 248 620 Q239 584 229 548 Q219 512 209 476 Q182 384 155 293.5 Q128 203 103 112 Q81 34 60.5 -43 Q40 -120 19 -198 Q2 -264 -14 -329 Q-30 -394 -46 -459 Q-56 -502 -66 -543.5 Q-76 -585 -86 -627 Q-91 -649 -95.5 -671 Q-100 -693 -105 -715 Q-106 -719 -107 -721 Q-111 -730 -120 -728 Q-130 -725 -129 -716 Q-128 -711 -127 -706 Q-126 -701 -125 -697 Q-118 -666 -111.5 -636 Q-105 -606 -98 -575 Q-87 -530 -76.5 -485 Q-66 -440 -54 -394 Q-42 -343 -29.5 -292.5 Q-17 -242 -4 -191 Q12 -129 28.5 -67 Q45 -5 62 57 Q93 163 123.5 268 Q154 373 185 479 Q195 515 205 550.5 Q215 586 224 622 Q226 627 227 632 Q228 637 229 643 Q225 643 225 643 Q208 643 192 642.5 Q176 642 159 642 Q143 642 127 641 Q111 640 94 639 Q65 638 33 636 Q18 635 3.5 634 Q-11 633 -26 632 Q-43 630 -59.5 628.5 Q-76 627 -93 625 Q-109 623 -123.5 621.5 Q-138 620 -153 618 Q-169 615 -185 612.5 Q-201 610 -217 607 Q-225 605 -228.5 606.5 Q-232 608 -236 615 Z " />
<glyph glyph-name="U" unicode="U" horiz-adv-x="662" d="M284 693 L303 693 Q320 689 330 681 Q348 666 358 642 Q363 631 352 626 Q342 621 336 632 Q333 639 329 645.5 Q325 652 319 658 Q300 677 275 665 Q265 660 257 653 Q249 646 242 638 Q225 619 212 598 Q199 577 188 555 Q166 513 149.5 469 Q133 425 119 379 Q92 294 73 206 Q64 163 56 118 Q53 104 51 89.5 Q49 75 47 61 Q45 45 42.5 29.5 Q40 14 38 -2 Q37 -11 36 -20.5 Q35 -30 34 -39 Q32 -58 30.5 -76 Q29 -94 27 -113 Q26 -128 26 -142.5 Q26 -157 25 -171 Q25 -185 24.5 -199 Q24 -213 24 -227 Q25 -250 26 -270 Q28 -287 29.5 -303 Q31 -319 33 -335 Q37 -363 44.5 -390 Q52 -417 67 -442 Q73 -453 80 -462 Q87 -471 97 -478 Q125 -498 160 -485 Q177 -478 191 -467.5 Q205 -457 219 -444 Q244 -420 265.5 -393 Q287 -366 306 -337 Q334 -294 358.5 -250 Q383 -206 407 -161 Q435 -107 462.5 -54 Q490 -1 518 52 Q526 66 533.5 79.5 Q541 93 549 107 Q554 114 560 119 Q568 126 576.5 122.5 Q585 119 585 110 Q586 94 583 80 Q571 18 554 -42 Q537 -102 520 -163 Q499 -239 478 -313.5 Q457 -388 436 -464 Q424 -506 412.5 -548 Q401 -590 390 -632 Q383 -662 376 -691 Q369 -720 363 -750 Q362 -753 361 -759 Q358 -773 346 -770 Q334 -768 337 -755 Q339 -745 341 -734.5 Q343 -724 346 -714 Q358 -666 370 -619 Q382 -572 394 -525 Q410 -466 426.5 -407 Q443 -348 460 -289 Q480 -218 499.5 -148 Q519 -78 538 -7 Q544 13 548.5 33 Q553 53 558 73 L557 73 Q555 70 555 70 Q527 16 499 -36.5 Q471 -89 443 -143 Q420 -187 396.5 -231 Q373 -275 346 -318 Q328 -348 308 -376 Q288 -404 265 -431 Q248 -450 230 -466.5 Q212 -483 190 -496 Q166 -510 144 -513 Q106 -518 77 -493 Q61 -480 51 -463.5 Q41 -447 33 -429 Q24 -408 18.5 -386 Q13 -364 9 -341 Q7 -325 5.5 -309 Q4 -293 2 -277 Q1 -267 1 -256.5 Q1 -246 1 -236 Q1 -230 0.5 -223.5 Q0 -217 0 -211 L3 -113 Q4 -109 4 -109 Q5 -99 5.5 -89 Q6 -79 7 -69 Q9 -56 10 -43 Q11 -30 13 -17 Q14 -1 16 14.5 Q18 30 21 46 Q23 65 26 83 Q29 101 32 119 Q42 172 52 222 Q73 317 102 407 Q116 449 132 489.5 Q148 530 169 569 Q181 593 195 615 Q209 637 227 657 Q236 667 246.5 675 Q257 683 270 689 Q273 690 277 691 Q281 692 284 693 Z " />
<glyph glyph-name="&amp;#xd9;" unicode="&#xd9;" horiz-adv-x="662" d="M284 693 L303 693 Q320 689 330 681 Q348 666 358 642 Q363 631 352 626 Q342 621 336 632 Q333 639 329 645.5 Q325 652 319 658 Q300 677 275 665 Q265 660 257 653 Q249 646 242 638 Q225 619 212 598 Q199 577 188 555 Q166 513 149.5 469 Q133 425 119 379 Q92 294 73 206 Q64 163 56 118 Q53 104 51 89.5 Q49 75 47 61 Q45 45 42.5 29.5 Q40 14 38 -2 Q37 -11 36 -20.5 Q35 -30 34 -39 Q32 -58 30.5 -76 Q29 -94 27 -113 Q26 -128 26 -142.5 Q26 -157 25 -171 Q25 -185 24.5 -199 Q24 -213 24 -227 Q25 -250 26 -270 Q28 -287 29.5 -303 Q31 -319 33 -335 Q37 -363 44.5 -390 Q52 -417 67 -442 Q73 -453 80 -462 Q87 -471 97 -478 Q125 -498 160 -485 Q177 -478 191 -467.5 Q205 -457 219 -444 Q244 -420 265.5 -393 Q287 -366 306 -337 Q334 -294 358.5 -250 Q383 -206 407 -161 Q435 -107 462.5 -54 Q490 -1 518 52 Q526 66 533.5 79.5 Q541 93 549 107 Q554 114 560 119 Q568 126 576.5 122.5 Q585 119 585 110 Q586 94 583 80 Q571 18 554 -42 Q537 -102 520 -163 Q499 -239 478 -313.5 Q457 -388 436 -464 Q424 -506 412.5 -548 Q401 -590 390 -632 Q383 -662 376 -691 Q369 -720 363 -750 Q362 -753 361 -759 Q358 -773 346 -770 Q334 -768 337 -755 Q339 -745 341 -734.5 Q343 -724 346 -714 Q358 -666 370 -619 Q382 -572 394 -525 Q410 -466 426.5 -407 Q443 -348 460 -289 Q480 -218 499.5 -148 Q519 -78 538 -7 Q544 13 548.5 33 Q553 53 558 73 L557 73 Q555 70 555 70 Q527 16 499 -36.5 Q471 -89 443 -143 Q420 -187 396.5 -231 Q373 -275 346 -318 Q328 -348 308 -376 Q288 -404 265 -431 Q248 -450 230 -466.5 Q212 -483 190 -496 Q166 -510 144 -513 Q106 -518 77 -493 Q61 -480 51 -463.5 Q41 -447 33 -429 Q24 -408 18.5 -386 Q13 -364 9 -341 Q7 -325 5.5 -309 Q4 -293 2 -277 Q1 -267 1 -256.5 Q1 -246 1 -236 Q1 -230 0.5 -223.5 Q0 -217 0 -211 L3 -113 Q4 -109 4 -109 Q5 -99 5.5 -89 Q6 -79 7 -69 Q9 -56 10 -43 Q11 -30 13 -17 Q14 -1 16 14.5 Q18 30 21 46 Q23 65 26 83 Q29 101 32 119 Q42 172 52 222 Q73 317 102 407 Q116 449 132 489.5 Q148 530 169 569 Q181 593 195 615 Q209 637 227 657 Q236 667 246.5 675 Q257 683 270 689 Q273 690 277 691 Q281 692 284 693 Z " />
<glyph glyph-name="&amp;#xda;" unicode="&#xda;" horiz-adv-x="662" d="M284 693 L303 693 Q320 689 330 681 Q348 666 358 642 Q363 631 352 626 Q342 621 336 632 Q333 639 329 645.5 Q325 652 319 658 Q300 677 275 665 Q265 660 257 653 Q249 646 242 638 Q225 619 212 598 Q199 577 188 555 Q166 513 149.5 469 Q133 425 119 379 Q92 294 73 206 Q64 163 56 118 Q53 104 51 89.5 Q49 75 47 61 Q45 45 42.5 29.5 Q40 14 38 -2 Q37 -11 36 -20.5 Q35 -30 34 -39 Q32 -58 30.5 -76 Q29 -94 27 -113 Q26 -128 26 -142.5 Q26 -157 25 -171 Q25 -185 24.5 -199 Q24 -213 24 -227 Q25 -250 26 -270 Q28 -287 29.5 -303 Q31 -319 33 -335 Q37 -363 44.5 -390 Q52 -417 67 -442 Q73 -453 80 -462 Q87 -471 97 -478 Q125 -498 160 -485 Q177 -478 191 -467.5 Q205 -457 219 -444 Q244 -420 265.5 -393 Q287 -366 306 -337 Q334 -294 358.5 -250 Q383 -206 407 -161 Q435 -107 462.5 -54 Q490 -1 518 52 Q526 66 533.5 79.5 Q541 93 549 107 Q554 114 560 119 Q568 126 576.5 122.5 Q585 119 585 110 Q586 94 583 80 Q571 18 554 -42 Q537 -102 520 -163 Q499 -239 478 -313.5 Q457 -388 436 -464 Q424 -506 412.5 -548 Q401 -590 390 -632 Q383 -662 376 -691 Q369 -720 363 -750 Q362 -753 361 -759 Q358 -773 346 -770 Q334 -768 337 -755 Q339 -745 341 -734.5 Q343 -724 346 -714 Q358 -666 370 -619 Q382 -572 394 -525 Q410 -466 426.5 -407 Q443 -348 460 -289 Q480 -218 499.5 -148 Q519 -78 538 -7 Q544 13 548.5 33 Q553 53 558 73 L557 73 Q555 70 555 70 Q527 16 499 -36.5 Q471 -89 443 -143 Q420 -187 396.5 -231 Q373 -275 346 -318 Q328 -348 308 -376 Q288 -404 265 -431 Q248 -450 230 -466.5 Q212 -483 190 -496 Q166 -510 144 -513 Q106 -518 77 -493 Q61 -480 51 -463.5 Q41 -447 33 -429 Q24 -408 18.5 -386 Q13 -364 9 -341 Q7 -325 5.5 -309 Q4 -293 2 -277 Q1 -267 1 -256.5 Q1 -246 1 -236 Q1 -230 0.5 -223.5 Q0 -217 0 -211 L3 -113 Q4 -109 4 -109 Q5 -99 5.5 -89 Q6 -79 7 -69 Q9 -56 10 -43 Q11 -30 13 -17 Q14 -1 16 14.5 Q18 30 21 46 Q23 65 26 83 Q29 101 32 119 Q42 172 52 222 Q73 317 102 407 Q116 449 132 489.5 Q148 530 169 569 Q181 593 195 615 Q209 637 227 657 Q236 667 246.5 675 Q257 683 270 689 Q273 690 277 691 Q281 692 284 693 Z " />
<glyph glyph-name="&amp;#xdb;" unicode="&#xdb;" horiz-adv-x="662" d="M284 693 L303 693 Q320 689 330 681 Q348 666 358 642 Q363 631 352 626 Q342 621 336 632 Q333 639 329 645.5 Q325 652 319 658 Q300 677 275 665 Q265 660 257 653 Q249 646 242 638 Q225 619 212 598 Q199 577 188 555 Q166 513 149.5 469 Q133 425 119 379 Q92 294 73 206 Q64 163 56 118 Q53 104 51 89.5 Q49 75 47 61 Q45 45 42.5 29.5 Q40 14 38 -2 Q37 -11 36 -20.5 Q35 -30 34 -39 Q32 -58 30.5 -76 Q29 -94 27 -113 Q26 -128 26 -142.5 Q26 -157 25 -171 Q25 -185 24.5 -199 Q24 -213 24 -227 Q25 -250 26 -270 Q28 -287 29.5 -303 Q31 -319 33 -335 Q37 -363 44.5 -390 Q52 -417 67 -442 Q73 -453 80 -462 Q87 -471 97 -478 Q125 -498 160 -485 Q177 -478 191 -467.5 Q205 -457 219 -444 Q244 -420 265.5 -393 Q287 -366 306 -337 Q334 -294 358.5 -250 Q383 -206 407 -161 Q435 -107 462.5 -54 Q490 -1 518 52 Q526 66 533.5 79.5 Q541 93 549 107 Q554 114 560 119 Q568 126 576.5 122.5 Q585 119 585 110 Q586 94 583 80 Q571 18 554 -42 Q537 -102 520 -163 Q499 -239 478 -313.5 Q457 -388 436 -464 Q424 -506 412.5 -548 Q401 -590 390 -632 Q383 -662 376 -691 Q369 -720 363 -750 Q362 -753 361 -759 Q358 -773 346 -770 Q334 -768 337 -755 Q339 -745 341 -734.5 Q343 -724 346 -714 Q358 -666 370 -619 Q382 -572 394 -525 Q410 -466 426.5 -407 Q443 -348 460 -289 Q480 -218 499.5 -148 Q519 -78 538 -7 Q544 13 548.5 33 Q553 53 558 73 L557 73 Q555 70 555 70 Q527 16 499 -36.5 Q471 -89 443 -143 Q420 -187 396.5 -231 Q373 -275 346 -318 Q328 -348 308 -376 Q288 -404 265 -431 Q248 -450 230 -466.5 Q212 -483 190 -496 Q166 -510 144 -513 Q106 -518 77 -493 Q61 -480 51 -463.5 Q41 -447 33 -429 Q24 -408 18.5 -386 Q13 -364 9 -341 Q7 -325 5.5 -309 Q4 -293 2 -277 Q1 -267 1 -256.5 Q1 -246 1 -236 Q1 -230 0.5 -223.5 Q0 -217 0 -211 L3 -113 Q4 -109 4 -109 Q5 -99 5.5 -89 Q6 -79 7 -69 Q9 -56 10 -43 Q11 -30 13 -17 Q14 -1 16 14.5 Q18 30 21 46 Q23 65 26 83 Q29 101 32 119 Q42 172 52 222 Q73 317 102 407 Q116 449 132 489.5 Q148 530 169 569 Q181 593 195 615 Q209 637 227 657 Q236 667 246.5 675 Q257 683 270 689 Q273 690 277 691 Q281 692 284 693 Z " />
<glyph glyph-name="&amp;#xdc;" unicode="&#xdc;" horiz-adv-x="662" d="M284 693 L303 693 Q320 689 330 681 Q348 666 358 642 Q363 631 352 626 Q342 621 336 632 Q333 639 329 645.5 Q325 652 319 658 Q300 677 275 665 Q265 660 257 653 Q249 646 242 638 Q225 619 212 598 Q199 577 188 555 Q166 513 149.5 469 Q133 425 119 379 Q92 294 73 206 Q64 163 56 118 Q53 104 51 89.5 Q49 75 47 61 Q45 45 42.5 29.5 Q40 14 38 -2 Q37 -11 36 -20.5 Q35 -30 34 -39 Q32 -58 30.5 -76 Q29 -94 27 -113 Q26 -128 26 -142.5 Q26 -157 25 -171 Q25 -185 24.5 -199 Q24 -213 24 -227 Q25 -250 26 -270 Q28 -287 29.5 -303 Q31 -319 33 -335 Q37 -363 44.5 -390 Q52 -417 67 -442 Q73 -453 80 -462 Q87 -471 97 -478 Q125 -498 160 -485 Q177 -478 191 -467.5 Q205 -457 219 -444 Q244 -420 265.5 -393 Q287 -366 306 -337 Q334 -294 358.5 -250 Q383 -206 407 -161 Q435 -107 462.5 -54 Q490 -1 518 52 Q526 66 533.5 79.5 Q541 93 549 107 Q554 114 560 119 Q568 126 576.5 122.5 Q585 119 585 110 Q586 94 583 80 Q571 18 554 -42 Q537 -102 520 -163 Q499 -239 478 -313.5 Q457 -388 436 -464 Q424 -506 412.5 -548 Q401 -590 390 -632 Q383 -662 376 -691 Q369 -720 363 -750 Q362 -753 361 -759 Q358 -773 346 -770 Q334 -768 337 -755 Q339 -745 341 -734.5 Q343 -724 346 -714 Q358 -666 370 -619 Q382 -572 394 -525 Q410 -466 426.5 -407 Q443 -348 460 -289 Q480 -218 499.5 -148 Q519 -78 538 -7 Q544 13 548.5 33 Q553 53 558 73 L557 73 Q555 70 555 70 Q527 16 499 -36.5 Q471 -89 443 -143 Q420 -187 396.5 -231 Q373 -275 346 -318 Q328 -348 308 -376 Q288 -404 265 -431 Q248 -450 230 -466.5 Q212 -483 190 -496 Q166 -510 144 -513 Q106 -518 77 -493 Q61 -480 51 -463.5 Q41 -447 33 -429 Q24 -408 18.5 -386 Q13 -364 9 -341 Q7 -325 5.5 -309 Q4 -293 2 -277 Q1 -267 1 -256.5 Q1 -246 1 -236 Q1 -230 0.5 -223.5 Q0 -217 0 -211 L3 -113 Q4 -109 4 -109 Q5 -99 5.5 -89 Q6 -79 7 -69 Q9 -56 10 -43 Q11 -30 13 -17 Q14 -1 16 14.5 Q18 30 21 46 Q23 65 26 83 Q29 101 32 119 Q42 172 52 222 Q73 317 102 407 Q116 449 132 489.5 Q148 530 169 569 Q181 593 195 615 Q209 637 227 657 Q236 667 246.5 675 Q257 683 270 689 Q273 690 277 691 Q281 692 284 693 Z " />
<glyph glyph-name="V" unicode="V" horiz-adv-x="435" d="M-70 -691 Q-69 -692 -68 -694 Q-67 -696 -66 -698 Q-63 -694 -59.5 -691 Q-56 -688 -54 -684 Q-44 -670 -36 -655.5 Q-28 -641 -21 -626 Q-1 -578 19.5 -531.5 Q40 -485 60 -437 Q116 -302 173 -169 Q230 -36 291 97 Q340 203 389 308 Q438 413 488 519 Q510 565 532 609.5 Q554 654 576 699 Q582 712 589 724 Q596 736 602 748 Q604 752 606 754 Q612 761 621 756 Q630 751 626 742 L625 739 Q599 693 576 646 Q553 599 530 551 Q486 458 443 365.5 Q400 273 356 180 Q313 88 272 -3.5 Q231 -95 191 -189 Q153 -277 116.5 -364.5 Q80 -452 43 -540 Q29 -573 15 -605.5 Q1 -638 -16 -670 Q-22 -681 -28.5 -691.5 Q-35 -702 -44 -710 Q-49 -715 -54 -718 Q-72 -729 -86 -710 Q-94 -699 -96 -681 Q-98 -671 -99 -661 Q-100 -651 -100 -641 Q-100 -616 -98 -589 Q-97 -569 -95.5 -550 Q-94 -531 -92 -512 Q-89 -488 -85.5 -464.5 Q-82 -441 -78 -417 Q-71 -371 -63 -324.5 Q-55 -278 -46 -232 Q-33 -166 -19 -100.5 Q-5 -35 10 31 Q27 111 45 190.5 Q63 270 81 350 Q88 381 93.5 412.5 Q99 444 104 476 Q107 492 108 508 Q109 524 107 540 Q107 544 106 547 Q105 550 104 553 Q103 559 98 556 Q93 554 88.5 551.5 Q84 549 80 545 Q65 533 52.5 519.5 Q40 506 28 491 Q18 479 9 486 Q-1 494 9 506 Q22 522 35.5 537 Q49 552 65 565 Q71 570 78 574.5 Q85 579 94 580 Q114 585 124 567 Q130 555 131 545 Q133 526 131 509 Q126 443 112.5 380 Q99 317 85 253 Q65 165 45.5 79 Q26 -7 7 -94 Q-9 -164 -22.5 -234.5 Q-36 -305 -48 -376 Q-53 -408 -57.5 -440 Q-62 -472 -66 -504 Q-69 -523 -70.5 -542.5 Q-72 -562 -74 -582 Q-76 -601 -76.5 -620.5 Q-77 -640 -75 -659 Q-75 -667 -73 -675 Q-71 -683 -70 -691 Z " />
<glyph glyph-name="W" unicode="W" horiz-adv-x="932" d="M110 -755 L94 -755 Q90 -754 86 -753 Q82 -752 77 -750 Q65 -746 55.5 -737.5 Q46 -729 38 -718 Q26 -702 18 -683.5 Q10 -665 4 -645 Q-9 -602 -15 -553 Q-17 -538 -18.5 -523 Q-20 -508 -22 -493 Q-24 -467 -24 -438 Q-25 -415 -25 -392 Q-25 -369 -25 -345 Q-25 -327 -24 -309 Q-23 -291 -22 -273 Q-20 -243 -17 -212 Q-16 -196 -14 -180 Q-12 -164 -11 -147 Q-9 -133 -7 -118.5 Q-5 -104 -3 -89 Q-1 -74 1.5 -58.5 Q4 -43 6 -28 Q9 -10 12 8 Q15 26 19 44 Q25 75 32 105.5 Q39 136 47 167 Q77 293 125 413 Q147 467 172 518.5 Q197 570 229 619 Q245 645 263 668.5 Q281 692 303 714 Q317 728 333 739.5 Q349 751 369 757 Q394 765 417 763 Q421 763 425.5 762.5 Q430 762 434 762 Q447 761 446 750 Q445 737 431 738 Q426 739 421 739.5 Q416 740 411 740 Q372 741 337 712 Q317 696 301 677 Q285 658 270 638 Q240 596 216 551.5 Q192 507 171 460 Q144 399 122 336.5 Q100 274 82 210 Q60 129 44 46 Q39 22 35 -2 Q31 -26 27 -50 Q24 -67 22 -83 Q20 -99 17 -115 Q16 -129 14 -142.5 Q12 -156 11 -170 Q9 -182 8 -194 Q7 -206 6 -219 Q5 -236 3.5 -253 Q2 -270 2 -287 Q-1 -335 -2 -377 Q-2 -404 -1 -433 Q0 -451 1 -469 Q2 -487 4 -505 Q6 -533 10 -560 Q14 -587 21 -615 Q26 -635 32.5 -654.5 Q39 -674 50 -692 Q57 -704 66 -714 Q91 -740 125 -726 Q139 -720 151 -711 Q163 -702 174 -691 Q197 -668 216 -642 Q235 -616 253 -589 Q281 -544 305 -497.5 Q329 -451 351 -403 Q380 -338 408.5 -273.5 Q437 -209 465 -143 Q488 -92 509.5 -42 Q531 8 553 59 Q555 63 557.5 67.5 Q560 72 562 77 Q563 79 565 81 Q572 91 581 88 Q591 85 590 73 Q588 54 585 31 Q583 18 580.5 4 Q578 -10 576 -23 Q572 -48 569 -70 Q568 -78 567.5 -86.5 Q567 -95 566 -103 Q561 -138 562 -178 Q562 -193 564 -207 Q566 -221 571 -235 Q574 -242 577 -247 Q587 -264 607 -259 Q619 -256 628.5 -250 Q638 -244 647 -236 Q670 -219 688.5 -198.5 Q707 -178 723 -155 Q756 -111 784.5 -65.5 Q813 -20 837 30 Q842 41 846.5 52 Q851 63 855 74 Q858 81 863 83 Q870 86 875 82 Q882 76 879 69 Q874 56 869 44 Q864 32 858 19 Q837 -25 811.5 -66.5 Q786 -108 757 -149 Q740 -174 721 -197 Q702 -220 679 -241 Q666 -252 652.5 -262 Q639 -272 623 -279 Q602 -287 584 -282 Q563 -276 552 -252 Q547 -241 544 -229.5 Q541 -218 540 -206 Q538 -192 538 -177.5 Q538 -163 538 -149 Q539 -135 540 -121 Q541 -107 543 -93 Q544 -80 545.5 -66.5 Q547 -53 549 -40 Q550 -30 552 -20 Q554 -10 555 0 Q556 2 555 4 Q553 0 553 -1 Q517 -84 481.5 -166 Q446 -248 410 -331 Q385 -389 358 -444.5 Q331 -500 300 -555 Q282 -587 262.5 -618 Q243 -649 219 -677 Q205 -695 189 -710.5 Q173 -726 154 -738 Q144 -744 133.5 -748.5 Q123 -753 111 -754 Q111 -754 110 -755 Z " />
<glyph glyph-name="X" unicode="X" horiz-adv-x="330" d="M139 105 Q139 97 139.5 88.5 Q140 80 141 71 Q144 77 147 82 Q150 87 153 93 Q212 197 272 298.5 Q332 400 395 502 Q413 531 430.5 560 Q448 589 466 618 Q470 624 474 630 Q482 640 491 633 Q500 627 493 616 Q452 549 411 483 Q370 417 330 349 Q282 270 236.5 191 Q191 112 146 32 Q143 27 144 20 Q144 8 145 -3 Q146 -14 146 -26 Q147 -36 148 -46.5 Q149 -57 149 -67 Q150 -76 150.5 -85.5 Q151 -95 152 -104 Q153 -115 153.5 -126 Q154 -137 155 -148 Q156 -159 157.5 -170.5 Q159 -182 160 -194 Q161 -208 162.5 -221.5 Q164 -235 165 -249 Q167 -265 168.5 -281 Q170 -297 172 -313 Q174 -331 176 -348.5 Q178 -366 180 -384 Q185 -425 190 -462 Q193 -487 196.5 -511.5 Q200 -536 204 -561 Q213 -620 225 -684 Q234 -734 251 -782 Q253 -788 252 -793 Q251 -800 243 -802 Q236 -803 232 -797 Q230 -795 228 -790 Q217 -757 209 -724.5 Q201 -692 196 -659 Q189 -618 182.5 -578 Q176 -538 170 -497 Q166 -465 162 -433.5 Q158 -402 154 -370 Q151 -339 147.5 -308.5 Q144 -278 141 -247 Q139 -225 136.5 -202.5 Q134 -180 132 -158 Q129 -117 126 -80 Q125 -64 124 -48.5 Q123 -33 122 -17 Q122 -16 121 -13 Q119 -18 119 -18 Q56 -133 -5.5 -247.5 Q-67 -362 -126 -480 Q-155 -536 -181.5 -592 Q-208 -648 -235 -704 Q-244 -722 -253 -739.5 Q-262 -757 -271 -774 Q-276 -785 -285 -783 Q-291 -782 -293.5 -777 Q-296 -772 -293 -767 Q-291 -763 -289.5 -759.5 Q-288 -756 -286 -753 Q-265 -710 -244.5 -667.5 Q-224 -625 -204 -582 Q-168 -508 -131 -436 Q-94 -364 -55 -292 Q-12 -211 31 -131.5 Q74 -52 117 28 Q119 31 119 34.5 Q119 38 118 41 Q118 53 117.5 65.5 Q117 78 116 90 Q115 102 114.5 113.5 Q114 125 113 137 Q113 148 112.5 158 Q112 168 111 178 Q111 189 110.5 199 Q110 209 109 220 Q109 228 108.5 236 Q108 244 108 252 Q108 261 107.5 269.5 Q107 278 107 287 Q106 295 106 303 Q106 311 105 319 Q105 330 104.5 340.5 Q104 351 103 362 Q103 370 102.5 377 Q102 384 102 392 Q101 410 100 431 Q99 439 98.5 447 Q98 455 98 464 Q97 475 96 486 Q95 497 94 509 Q93 522 91.5 536 Q90 550 88 564 Q85 592 80.5 620 Q76 648 66 675 Q64 681 61.5 686 Q59 691 56 696 Q51 704 46 696 Q42 689 38 681.5 Q34 674 31 667 Q17 633 12 595 Q10 585 9.5 575 Q9 565 9 554 Q10 540 -3 540 Q-14 539 -15 554 Q-15 570 -13.5 585.5 Q-12 601 -9 617 Q-5 636 1 654.5 Q7 673 16 691 Q22 703 30 712 Q39 724 51 724.5 Q63 725 73 714 Q80 705 84.5 695 Q89 685 92 675 Q98 654 102 633 Q106 612 109 590 Q114 555 118 516 Q119 501 120 486 Q121 471 122 456 Q123 441 124 426 Q125 411 126 396 Q127 381 127.5 366 Q128 351 128 337 Q129 321 130 305.5 Q131 290 131 275 Q132 262 132.5 248.5 Q133 235 133 222 Q134 205 135 188 Q136 171 137 153 Q137 141 137.5 129 Q138 117 139 105 Z " />
<glyph glyph-name="Y" unicode="Y" horiz-adv-x="556" d="M534 210 Q535 199 530.5 185.5 Q526 172 526 172 L526 172 Q525 168 524 166 Q507 112 489.5 58.5 Q472 5 455 -49 Q424 -146 396 -242 Q368 -338 342 -437 Q321 -518 299.5 -598 Q278 -678 256 -759 Q251 -776 245.5 -793.5 Q240 -811 234 -828 L234 -830 L233 -830 Q230 -842 224 -849 Q219 -855 214 -856 L212 -856 L210 -857 L209 -857 L209 -856 Q204 -856 200 -854 Q198 -852 196 -849 Q192 -843 191 -834.5 Q190 -826 190 -820 L190 -816 L190 -815 Q190 -803 190.5 -792 Q191 -781 192 -770 Q193 -758 194 -746 Q195 -734 196 -721 Q198 -709 199 -696.5 Q200 -684 202 -672 Q203 -660 215 -662 Q226 -663 226 -675 Q225 -683 224 -691 Q223 -699 222 -708 Q221 -720 219.5 -732 Q218 -744 217 -756 Q215 -775 214 -797 Q213 -805 214 -814 Q216 -808 217.5 -802.5 Q219 -797 221 -792 Q235 -739 249.5 -687 Q264 -635 278 -583 Q306 -480 333.5 -378 Q361 -276 391 -174 Q415 -94 440.5 -15.5 Q466 63 492 142 Q494 150 496 157 Q498 164 500 171 Q498 168 498 168 Q463 116 430 63 Q397 10 366 -45 Q330 -108 295 -170 Q260 -232 224 -295 Q203 -333 182 -370.5 Q161 -408 137 -445 Q126 -462 114 -478.5 Q102 -495 88 -510 Q81 -518 73 -525 Q65 -532 55 -537 Q27 -551 5 -532 Q-6 -523 -14 -507 Q-26 -483 -30 -451 Q-32 -439 -33 -427 Q-34 -415 -35 -403 Q-35 -403 -36 -400 Q-37 -391 -37 -382 Q-37 -373 -37 -364 Q-37 -363 -37 -361.5 Q-37 -360 -37 -358 Q-36 -341 -36 -325 Q-36 -309 -35 -292 Q-33 -255 -29 -223 Q-27 -204 -24.5 -185 Q-22 -166 -19 -147 Q-14 -116 -8.5 -85.5 Q-3 -55 3 -24 Q26 87 59 193.5 Q92 300 137 403 Q154 441 172.5 477.5 Q191 514 213 548 Q225 567 238 584 Q251 601 267 616 Q273 621 279 625 Q285 629 291 633 Q297 637 305 634 Q311 631 312 624 Q313 616 307 614 Q286 604 272 587 Q258 570 245 551 Q221 518 202.5 482.5 Q184 447 167 410 Q132 334 105 256 Q78 178 56 96 Q28 -8 11 -111 Q7 -137 3.5 -163 Q0 -189 -4 -215 Q-6 -231 -7.5 -247 Q-9 -263 -10 -279 Q-12 -301 -12 -324 Q-13 -341 -13 -358.5 Q-13 -376 -12 -394 Q-11 -417 -8 -439.5 Q-5 -462 3 -484 Q7 -497 14 -508 Q26 -526 44 -515 Q55 -509 65 -498 Q80 -483 92.5 -466 Q105 -449 117 -431 Q143 -390 167 -348 Q191 -306 215 -263 Q257 -186 299.5 -110.5 Q342 -35 388 40 Q411 77 434.5 114 Q458 151 482 188 L482 188 Q483 190 489 198.5 Q495 207 503 215 L503 215 Q506 218 508 220 L509 220 Q513 224 517 224 Q519 224 520 224 Q524 224 526 224 L526 223 Q529 222 531 220 Q533 216 534 210 Z " />
<glyph glyph-name="&amp;#xdd;" unicode="&#xdd;" horiz-adv-x="556" d="M534 210 Q535 199 530.5 185.5 Q526 172 526 172 L526 172 Q525 168 524 166 Q507 112 489.5 58.5 Q472 5 455 -49 Q424 -146 396 -242 Q368 -338 342 -437 Q321 -518 299.5 -598 Q278 -678 256 -759 Q251 -776 245.5 -793.5 Q240 -811 234 -828 L234 -830 L233 -830 Q230 -842 224 -849 Q219 -855 214 -856 L212 -856 L210 -857 L209 -857 L209 -856 Q204 -856 200 -854 Q198 -852 196 -849 Q192 -843 191 -834.5 Q190 -826 190 -820 L190 -816 L190 -815 Q190 -803 190.5 -792 Q191 -781 192 -770 Q193 -758 194 -746 Q195 -734 196 -721 Q198 -709 199 -696.5 Q200 -684 202 -672 Q203 -660 215 -662 Q226 -663 226 -675 Q225 -683 224 -691 Q223 -699 222 -708 Q221 -720 219.5 -732 Q218 -744 217 -756 Q215 -775 214 -797 Q213 -805 214 -814 Q216 -808 217.5 -802.5 Q219 -797 221 -792 Q235 -739 249.5 -687 Q264 -635 278 -583 Q306 -480 333.5 -378 Q361 -276 391 -174 Q415 -94 440.5 -15.5 Q466 63 492 142 Q494 150 496 157 Q498 164 500 171 Q498 168 498 168 Q463 116 430 63 Q397 10 366 -45 Q330 -108 295 -170 Q260 -232 224 -295 Q203 -333 182 -370.5 Q161 -408 137 -445 Q126 -462 114 -478.5 Q102 -495 88 -510 Q81 -518 73 -525 Q65 -532 55 -537 Q27 -551 5 -532 Q-6 -523 -14 -507 Q-26 -483 -30 -451 Q-32 -439 -33 -427 Q-34 -415 -35 -403 Q-35 -403 -36 -400 Q-37 -391 -37 -382 Q-37 -373 -37 -364 Q-37 -363 -37 -361.5 Q-37 -360 -37 -358 Q-36 -341 -36 -325 Q-36 -309 -35 -292 Q-33 -255 -29 -223 Q-27 -204 -24.5 -185 Q-22 -166 -19 -147 Q-14 -116 -8.5 -85.5 Q-3 -55 3 -24 Q26 87 59 193.5 Q92 300 137 403 Q154 441 172.5 477.5 Q191 514 213 548 Q225 567 238 584 Q251 601 267 616 Q273 621 279 625 Q285 629 291 633 Q297 637 305 634 Q311 631 312 624 Q313 616 307 614 Q286 604 272 587 Q258 570 245 551 Q221 518 202.5 482.5 Q184 447 167 410 Q132 334 105 256 Q78 178 56 96 Q28 -8 11 -111 Q7 -137 3.5 -163 Q0 -189 -4 -215 Q-6 -231 -7.5 -247 Q-9 -263 -10 -279 Q-12 -301 -12 -324 Q-13 -341 -13 -358.5 Q-13 -376 -12 -394 Q-11 -417 -8 -439.5 Q-5 -462 3 -484 Q7 -497 14 -508 Q26 -526 44 -515 Q55 -509 65 -498 Q80 -483 92.5 -466 Q105 -449 117 -431 Q143 -390 167 -348 Q191 -306 215 -263 Q257 -186 299.5 -110.5 Q342 -35 388 40 Q411 77 434.5 114 Q458 151 482 188 L482 188 Q483 190 489 198.5 Q495 207 503 215 L503 215 Q506 218 508 220 L509 220 Q513 224 517 224 Q519 224 520 224 Q524 224 526 224 L526 223 Q529 222 531 220 Q533 216 534 210 Z " />
<glyph glyph-name="Z" unicode="Z" horiz-adv-x="730" d="M798 618 Q829 591 829 548 Q829 526 823 506 Q817 486 808 467 Q794 436 776 409 Q758 382 738 355 Q703 310 664.5 268 Q626 226 585 186 Q545 146 504 108 Q463 70 421 32 Q378 -5 336 -41.5 Q294 -78 252 -115 Q212 -148 173.5 -181 Q135 -214 95 -247 Q53 -282 11.5 -316.5 Q-30 -351 -72 -386 Q-120 -427 -168 -468.5 Q-216 -510 -264 -551 Q-270 -557 -276 -563 Q-282 -569 -288 -575 L-288 -575 L-288 -575 L-291 -578 Q-293 -581 -295.5 -584.5 Q-298 -588 -296 -588 Q-276 -585 -258.5 -580.5 Q-241 -576 -223 -571 Q-173 -557 -123 -543.5 Q-73 -530 -22 -519 Q7 -513 36.5 -507 Q66 -501 96 -496 Q117 -492 137.5 -488.5 Q158 -485 179 -482 Q193 -480 206.5 -478.5 Q220 -477 234 -475 Q248 -474 261.5 -472.5 Q275 -471 289 -469 Q312 -467 332 -467 Q352 -466 372.5 -465.5 Q393 -465 413 -465 Q432 -465 450 -466.5 Q468 -468 486 -473 Q500 -476 509 -483 Q524 -495 517 -514 Q515 -520 510.5 -525.5 Q506 -531 501 -536 Q486 -551 469.5 -562.5 Q453 -574 436 -586 Q385 -619 333.5 -650 Q282 -681 229 -712 Q188 -736 147 -759 Q106 -782 64 -805 Q55 -810 45.5 -814 Q36 -818 26 -822 Q19 -824 11 -823 Q4 -822 0.5 -816.5 Q-3 -811 -1 -804 Q0 -798 3.5 -792.5 Q7 -787 11 -782 Q52 -730 104 -682 Q111 -676 121 -665 Q130 -655 139 -662 Q149 -671 140 -680 Q131 -689 123 -697 Q115 -705 106 -713 Q67 -751 34 -791 Q34 -791 33 -794 Q37 -791 41 -789 Q45 -787 49 -785 Q102 -758 153 -728.5 Q204 -699 255 -668 Q299 -643 342 -617 Q385 -591 427 -563 Q440 -554 453 -544 Q466 -534 478 -524 Q483 -520 486 -517 Q487 -515 489 -513 Q496 -503 488 -498 Q482 -496 476 -494.5 Q470 -493 463 -492 Q437 -489 410 -488.5 Q383 -488 356 -489 Q339 -490 321.5 -491 Q304 -492 286 -494 Q271 -495 256 -496.5 Q241 -498 226 -500 Q208 -502 190.5 -504.5 Q173 -507 155 -510 Q127 -515 98.5 -519.5 Q70 -524 42 -530 Q3 -539 -35 -547.5 Q-73 -556 -111 -566 Q-146 -575 -181 -584.5 Q-216 -594 -251 -603 Q-261 -606 -271.5 -608 Q-282 -610 -292 -611 L-293 -611 Q-296 -612 -308 -611.5 Q-320 -611 -325 -600 L-325 -600 L-325 -599 Q-326 -597 -326 -594 L-326 -594 L-326 -593 L-326 -591 L-326 -591 Q-325 -585 -321.5 -579.5 Q-318 -574 -315 -569 Q-310 -563 -305 -558 Q-295 -546 -283.5 -535.5 Q-272 -525 -260 -515 Q-200 -464 -141 -414 Q-82 -364 -22 -313 Q38 -263 96.5 -214 Q155 -165 215 -114 Q307 -35 400 46 Q458 97 513.5 149.5 Q569 202 622 258 Q657 295 689.5 333.5 Q722 372 751 414 Q765 435 776.5 456.5 Q788 478 797 502 Q801 514 803.5 525.5 Q806 537 806 549 Q805 584 778 604 Q765 614 750.5 619 Q736 624 721 628 Q688 635 656 636 Q644 636 632 636 Q620 636 608 636 Q595 636 583 635 Q571 634 559 633 Q545 632 531.5 630.5 Q518 629 504 627 Q483 624 462.5 620.5 Q442 617 422 613 Q361 601 301.5 584 Q242 567 182 550 Q178 549 173.5 547.5 Q169 546 164 545 Q152 541 148 552 Q144 564 156 567 Q182 575 209 583 Q246 593 283 603 Q320 613 357 623 Q385 630 413.5 635 Q442 640 470 646 Q486 649 502.5 651 Q519 653 535 655 Q556 657 582 659 Q597 659 612.5 659.5 Q628 660 643 660 Q671 659 698 656 Q725 653 751 644 Q764 640 776 633.5 Q788 627 798 618 Z " />
<glyph glyph-name="bracketleft" unicode="&#x5b;" horiz-adv-x="229" d="M341 749 Q361 743 357 725 Q354 711 344 712 Q334 713 332 726 Q317 728 308 722 Q303 720 300 714 Q296 703 292 692.5 Q288 682 284 671 Q258 605 234 539.5 Q210 474 190 406 Q171 341 152.5 277.5 Q134 214 116 150 Q91 57 67 -34 Q43 -125 18 -217 Q5 -266 -8 -314.5 Q-21 -363 -33 -412 Q-41 -443 -47.5 -474 Q-54 -505 -60 -536 Q-64 -554 -66 -572.5 Q-68 -591 -67 -609 Q-66 -614 -65 -619 Q-64 -624 -63 -629 Q-61 -636 -53 -638 Q-27 -646 -6 -642 Q-2 -641 5 -636 Q12 -632 17 -633 Q24 -635 25.5 -642 Q27 -649 21 -654 Q12 -663 -1 -665 Q-29 -671 -60 -661 Q-73 -658 -79.5 -648.5 Q-86 -639 -88 -626 Q-91 -614 -91 -602 Q-91 -590 -90 -578 Q-85 -527 -74 -478 Q-63 -429 -50 -380 Q-28 -295 -5.5 -211.5 Q17 -128 40 -43 Q58 25 76 93 Q94 161 113 229 Q134 307 157 383.5 Q180 460 207 536 Q224 582 241 627 Q258 672 276 717 Q276 719 276.5 720 Q277 721 278 723 Q286 745 314 750 Q329 752 341 749 Z " />
<glyph glyph-name="backslash" unicode="&#x5c;" horiz-adv-x="292" d="M52 229 Q55 235 56 235 Q62 244 69 243 Q79 242 78 230 Q77 221 78 217 Q88 167 98 117 Q108 67 119 17 Q135 -64 152 -144 Q169 -224 186 -305 Q187 -311 187 -314 Q188 -325 178 -330 Q167 -336 164 -327 Q164 -325 163 -319 Q157 -293 152 -266.5 Q147 -240 141 -213 Q123 -123 104 -34 Q85 55 66 145 Q62 164 59 182.5 Q56 201 52 219 Q52 222 52 224.5 Q52 227 52 229 Z " />
<glyph glyph-name="bracketright" unicode="&#x5d;" horiz-adv-x="225" d="M290 708 Q292 696 292.5 684.5 Q293 673 291 661 Q287 610 275.5 561 Q264 512 252 463 Q230 378 207 294.5 Q184 211 162 126 Q143 57 125 -10.5 Q107 -78 89 -146 Q67 -224 44.5 -300.5 Q22 -377 -6 -453 Q-22 -499 -39.5 -544 Q-57 -589 -74 -635 Q-75 -636 -75.5 -637.5 Q-76 -639 -76 -640 Q-85 -663 -113 -667 Q-128 -670 -139 -666 Q-159 -660 -156 -642 Q-153 -629 -142 -630 Q-133 -630 -131 -644 Q-116 -645 -106 -640 Q-101 -637 -99 -631 Q-94 -620 -90 -609.5 Q-86 -599 -82 -588 Q-56 -523 -32 -457 Q-8 -391 12 -323 Q31 -259 49 -195.5 Q67 -132 85 -67 Q110 25 134.5 116.5 Q159 208 183 300 Q196 349 209 397 Q222 445 235 494 Q242 525 248.5 556 Q255 587 262 618 Q265 637 267 655 Q269 673 268 692 Q268 697 267 701.5 Q266 706 264 711 Q262 719 255 721 Q229 728 208 724 Q204 723 197 719 Q190 714 185 716 Q178 718 176.5 724.5 Q175 731 181 737 Q189 745 202 748 Q231 753 261 744 Q274 740 280.5 730.5 Q287 721 290 708 Z " />
<glyph glyph-name="asciicircum" unicode="&#x5e;" horiz-adv-x="270" d="M256 559 Q256 559 256 564 Q254 560 251.5 557.5 Q249 555 247 552 Q236 536 226 520 Q216 504 207 487 Q206 484 205 479 Q202 467 191 466 Q178 464 180 478 Q181 484 184 490 Q187 496 190 502 Q202 523 215.5 543.5 Q229 564 245 584 Q253 593 259 599 Q268 606 276 604.5 Q284 603 284 593 Q284 587 283.5 581 Q283 575 282 569 Q279 553 276 537 Q273 521 273 506 Q273 500 276 490 Q278 484 275 478.5 Q272 473 265 471 Q257 469 253 477 Q246 488 249 506 Q250 519 252 532 Q254 545 256 559 Z " />
<glyph glyph-name="underscore" unicode="&#x5f;" horiz-adv-x="333" d="M218 -133 Q222 -139 219 -145 Q215 -152 205 -152 Q181 -153 153 -154 Q139 -154 125.5 -154 Q112 -154 99 -155 Q86 -155 74 -156 Q62 -157 50 -158 Q38 -159 36 -148 Q35 -136 46 -134 Q52 -133 61 -133 Q69 -132 76 -132 Q97 -131 117.5 -130.5 Q138 -130 158 -130 Q170 -130 181.5 -129.5 Q193 -129 203 -128 Q214 -127 218 -133 Z " />
<glyph glyph-name="grave" unicode="&#x60;" horiz-adv-x="217" d="M236 525 Q239 519 235.5 513 Q232 507 225 507 Q218 508 214 515 Q210 524 206 532 Q202 540 197 549 Q193 556 189 562.5 Q185 569 181 576 Q175 585 183 592 Q192 599 200 591 Q204 587 206 582 Q214 568 221.5 553.5 Q229 539 236 525 Z " />
<glyph glyph-name="a" unicode="a" horiz-adv-x="227" d="M238 -11 Q239 -19 232 -27 Q227 -33 208.5 -55.5 Q190 -78 170 -102 L170 -102 L169 -104 Q159 -115 139.5 -133 Q120 -151 99 -155 Q91 -157 85 -156 Q81 -156 78 -155 L78 -155 L78 -155 Q74 -154 70 -152 Q57 -143 56.5 -127 Q56 -111 60 -97 L60 -96 Q64 -82 70 -67 L70 -67 L70 -67 L70 -67 L74 -59 Q62 -72 49.5 -84 Q37 -96 23 -107 Q16 -113 8.5 -117.5 Q1 -122 -9 -124 Q-22 -127 -32.5 -118.5 Q-43 -110 -44 -97 Q-45 -83 -40 -69 Q-21 -8 28 32 Q35 37 42.5 40.5 Q50 44 60 44 Q70 44 80 38 Q93 30 89 21 Q85 11 72 18 Q65 21 58 19 Q51 16 45 11 Q39 6 33 0 Q16 -17 3.5 -36.5 Q-9 -56 -16 -80 L-16 -80 L-16 -80 Q-17 -82 -19 -89 Q-21 -96 -20 -99 L-20 -100 L-20 -101 L-19 -101 L-19 -101 L-18 -101 Q-15 -101 -8.5 -96.5 Q-2 -92 0 -91 L0 -91 L0 -91 Q9 -84 17.5 -77 Q26 -70 34 -62 Q54 -42 72 -21.5 Q90 -1 107 21 Q112 27 115 30 Q122 38 132 33 L133 32 L134 31 L134 31 L135 31 L135 30 L135 30 Q139 27 139 23.5 Q139 20 139 18 L138 15 L137 15 Q115 -23 99 -61 Q96 -67 93 -75 Q90 -81 87.5 -88.5 Q85 -96 83 -104 L83 -104 L82 -108 Q80 -112 80 -117 Q80 -121 80.5 -124.5 Q81 -128 83 -130 Q88 -134 97 -132 Q101 -131 105 -129 L105 -129 Q114 -125 123 -118 Q132 -111 140 -103 Q142 -101 155 -86.5 Q168 -72 183 -54 Q200 -34 222 -9 L231 1 Q233 0 234 -2 Q238 -6 238 -11 L238 -11 Z " />
<glyph glyph-name="&amp;#xe0;" unicode="&#xe0;" horiz-adv-x="227" d="M238 -11 Q239 -19 232 -27 Q227 -33 208.5 -55.5 Q190 -78 170 -102 L170 -102 L169 -104 Q159 -115 139.5 -133 Q120 -151 99 -155 Q91 -157 85 -156 Q81 -156 78 -155 L78 -155 L78 -155 Q74 -154 70 -152 Q57 -143 56.5 -127 Q56 -111 60 -97 L60 -96 Q64 -82 70 -67 L70 -67 L70 -67 L70 -67 L74 -59 Q62 -72 49.5 -84 Q37 -96 23 -107 Q16 -113 8.5 -117.5 Q1 -122 -9 -124 Q-22 -127 -32.5 -118.5 Q-43 -110 -44 -97 Q-45 -83 -40 -69 Q-21 -8 28 32 Q35 37 42.5 40.5 Q50 44 60 44 Q70 44 80 38 Q93 30 89 21 Q85 11 72 18 Q65 21 58 19 Q51 16 45 11 Q39 6 33 0 Q16 -17 3.5 -36.5 Q-9 -56 -16 -80 L-16 -80 L-16 -80 Q-17 -82 -19 -89 Q-21 -96 -20 -99 L-20 -100 L-20 -101 L-19 -101 L-19 -101 L-18 -101 Q-15 -101 -8.5 -96.5 Q-2 -92 0 -91 L0 -91 L0 -91 Q9 -84 17.5 -77 Q26 -70 34 -62 Q54 -42 72 -21.5 Q90 -1 107 21 Q112 27 115 30 Q122 38 132 33 L133 32 L134 31 L134 31 L135 31 L135 30 L135 30 Q139 27 139 23.5 Q139 20 139 18 L138 15 L137 15 Q115 -23 99 -61 Q96 -67 93 -75 Q90 -81 87.5 -88.5 Q85 -96 83 -104 L83 -104 L82 -108 Q80 -112 80 -117 Q80 -121 80.5 -124.5 Q81 -128 83 -130 Q88 -134 97 -132 Q101 -131 105 -129 L105 -129 Q114 -125 123 -118 Q132 -111 140 -103 Q142 -101 155 -86.5 Q168 -72 183 -54 Q200 -34 222 -9 L231 1 Q233 0 234 -2 Q238 -6 238 -11 L238 -11 Z " />
<glyph glyph-name="&amp;#xe1;" unicode="&#xe1;" horiz-adv-x="227" d="M238 -11 Q239 -19 232 -27 Q227 -33 208.5 -55.5 Q190 -78 170 -102 L170 -102 L169 -104 Q159 -115 139.5 -133 Q120 -151 99 -155 Q91 -157 85 -156 Q81 -156 78 -155 L78 -155 L78 -155 Q74 -154 70 -152 Q57 -143 56.5 -127 Q56 -111 60 -97 L60 -96 Q64 -82 70 -67 L70 -67 L70 -67 L70 -67 L74 -59 Q62 -72 49.5 -84 Q37 -96 23 -107 Q16 -113 8.5 -117.5 Q1 -122 -9 -124 Q-22 -127 -32.5 -118.5 Q-43 -110 -44 -97 Q-45 -83 -40 -69 Q-21 -8 28 32 Q35 37 42.5 40.5 Q50 44 60 44 Q70 44 80 38 Q93 30 89 21 Q85 11 72 18 Q65 21 58 19 Q51 16 45 11 Q39 6 33 0 Q16 -17 3.5 -36.5 Q-9 -56 -16 -80 L-16 -80 L-16 -80 Q-17 -82 -19 -89 Q-21 -96 -20 -99 L-20 -100 L-20 -101 L-19 -101 L-19 -101 L-18 -101 Q-15 -101 -8.5 -96.5 Q-2 -92 0 -91 L0 -91 L0 -91 Q9 -84 17.5 -77 Q26 -70 34 -62 Q54 -42 72 -21.5 Q90 -1 107 21 Q112 27 115 30 Q122 38 132 33 L133 32 L134 31 L134 31 L135 31 L135 30 L135 30 Q139 27 139 23.5 Q139 20 139 18 L138 15 L137 15 Q115 -23 99 -61 Q96 -67 93 -75 Q90 -81 87.5 -88.5 Q85 -96 83 -104 L83 -104 L82 -108 Q80 -112 80 -117 Q80 -121 80.5 -124.5 Q81 -128 83 -130 Q88 -134 97 -132 Q101 -131 105 -129 L105 -129 Q114 -125 123 -118 Q132 -111 140 -103 Q142 -101 155 -86.5 Q168 -72 183 -54 Q200 -34 222 -9 L231 1 Q233 0 234 -2 Q238 -6 238 -11 L238 -11 Z " />
<glyph glyph-name="&amp;#xe2;" unicode="&#xe2;" horiz-adv-x="227" d="M238 -11 Q239 -19 232 -27 Q227 -33 208.5 -55.5 Q190 -78 170 -102 L170 -102 L169 -104 Q159 -115 139.5 -133 Q120 -151 99 -155 Q91 -157 85 -156 Q81 -156 78 -155 L78 -155 L78 -155 Q74 -154 70 -152 Q57 -143 56.5 -127 Q56 -111 60 -97 L60 -96 Q64 -82 70 -67 L70 -67 L70 -67 L70 -67 L74 -59 Q62 -72 49.5 -84 Q37 -96 23 -107 Q16 -113 8.5 -117.5 Q1 -122 -9 -124 Q-22 -127 -32.5 -118.5 Q-43 -110 -44 -97 Q-45 -83 -40 -69 Q-21 -8 28 32 Q35 37 42.5 40.5 Q50 44 60 44 Q70 44 80 38 Q93 30 89 21 Q85 11 72 18 Q65 21 58 19 Q51 16 45 11 Q39 6 33 0 Q16 -17 3.5 -36.5 Q-9 -56 -16 -80 L-16 -80 L-16 -80 Q-17 -82 -19 -89 Q-21 -96 -20 -99 L-20 -100 L-20 -101 L-19 -101 L-19 -101 L-18 -101 Q-15 -101 -8.5 -96.5 Q-2 -92 0 -91 L0 -91 L0 -91 Q9 -84 17.5 -77 Q26 -70 34 -62 Q54 -42 72 -21.5 Q90 -1 107 21 Q112 27 115 30 Q122 38 132 33 L133 32 L134 31 L134 31 L135 31 L135 30 L135 30 Q139 27 139 23.5 Q139 20 139 18 L138 15 L137 15 Q115 -23 99 -61 Q96 -67 93 -75 Q90 -81 87.5 -88.5 Q85 -96 83 -104 L83 -104 L82 -108 Q80 -112 80 -117 Q80 -121 80.5 -124.5 Q81 -128 83 -130 Q88 -134 97 -132 Q101 -131 105 -129 L105 -129 Q114 -125 123 -118 Q132 -111 140 -103 Q142 -101 155 -86.5 Q168 -72 183 -54 Q200 -34 222 -9 L231 1 Q233 0 234 -2 Q238 -6 238 -11 L238 -11 Z " />
<glyph glyph-name="&amp;#xe3;" unicode="&#xe3;" horiz-adv-x="227" d="M238 -11 Q239 -19 232 -27 Q227 -33 208.5 -55.5 Q190 -78 170 -102 L170 -102 L169 -104 Q159 -115 139.5 -133 Q120 -151 99 -155 Q91 -157 85 -156 Q81 -156 78 -155 L78 -155 L78 -155 Q74 -154 70 -152 Q57 -143 56.5 -127 Q56 -111 60 -97 L60 -96 Q64 -82 70 -67 L70 -67 L70 -67 L70 -67 L74 -59 Q62 -72 49.5 -84 Q37 -96 23 -107 Q16 -113 8.5 -117.5 Q1 -122 -9 -124 Q-22 -127 -32.5 -118.5 Q-43 -110 -44 -97 Q-45 -83 -40 -69 Q-21 -8 28 32 Q35 37 42.5 40.5 Q50 44 60 44 Q70 44 80 38 Q93 30 89 21 Q85 11 72 18 Q65 21 58 19 Q51 16 45 11 Q39 6 33 0 Q16 -17 3.5 -36.5 Q-9 -56 -16 -80 L-16 -80 L-16 -80 Q-17 -82 -19 -89 Q-21 -96 -20 -99 L-20 -100 L-20 -101 L-19 -101 L-19 -101 L-18 -101 Q-15 -101 -8.5 -96.5 Q-2 -92 0 -91 L0 -91 L0 -91 Q9 -84 17.5 -77 Q26 -70 34 -62 Q54 -42 72 -21.5 Q90 -1 107 21 Q112 27 115 30 Q122 38 132 33 L133 32 L134 31 L134 31 L135 31 L135 30 L135 30 Q139 27 139 23.5 Q139 20 139 18 L138 15 L137 15 Q115 -23 99 -61 Q96 -67 93 -75 Q90 -81 87.5 -88.5 Q85 -96 83 -104 L83 -104 L82 -108 Q80 -112 80 -117 Q80 -121 80.5 -124.5 Q81 -128 83 -130 Q88 -134 97 -132 Q101 -131 105 -129 L105 -129 Q114 -125 123 -118 Q132 -111 140 -103 Q142 -101 155 -86.5 Q168 -72 183 -54 Q200 -34 222 -9 L231 1 Q233 0 234 -2 Q238 -6 238 -11 L238 -11 Z " />
<glyph glyph-name="&amp;#xe4;" unicode="&#xe4;" horiz-adv-x="227" d="M238 -11 Q239 -19 232 -27 Q227 -33 208.5 -55.5 Q190 -78 170 -102 L170 -102 L169 -104 Q159 -115 139.5 -133 Q120 -151 99 -155 Q91 -157 85 -156 Q81 -156 78 -155 L78 -155 L78 -155 Q74 -154 70 -152 Q57 -143 56.5 -127 Q56 -111 60 -97 L60 -96 Q64 -82 70 -67 L70 -67 L70 -67 L70 -67 L74 -59 Q62 -72 49.5 -84 Q37 -96 23 -107 Q16 -113 8.5 -117.5 Q1 -122 -9 -124 Q-22 -127 -32.5 -118.5 Q-43 -110 -44 -97 Q-45 -83 -40 -69 Q-21 -8 28 32 Q35 37 42.5 40.5 Q50 44 60 44 Q70 44 80 38 Q93 30 89 21 Q85 11 72 18 Q65 21 58 19 Q51 16 45 11 Q39 6 33 0 Q16 -17 3.5 -36.5 Q-9 -56 -16 -80 L-16 -80 L-16 -80 Q-17 -82 -19 -89 Q-21 -96 -20 -99 L-20 -100 L-20 -101 L-19 -101 L-19 -101 L-18 -101 Q-15 -101 -8.5 -96.5 Q-2 -92 0 -91 L0 -91 L0 -91 Q9 -84 17.5 -77 Q26 -70 34 -62 Q54 -42 72 -21.5 Q90 -1 107 21 Q112 27 115 30 Q122 38 132 33 L133 32 L134 31 L134 31 L135 31 L135 30 L135 30 Q139 27 139 23.5 Q139 20 139 18 L138 15 L137 15 Q115 -23 99 -61 Q96 -67 93 -75 Q90 -81 87.5 -88.5 Q85 -96 83 -104 L83 -104 L82 -108 Q80 -112 80 -117 Q80 -121 80.5 -124.5 Q81 -128 83 -130 Q88 -134 97 -132 Q101 -131 105 -129 L105 -129 Q114 -125 123 -118 Q132 -111 140 -103 Q142 -101 155 -86.5 Q168 -72 183 -54 Q200 -34 222 -9 L231 1 Q233 0 234 -2 Q238 -6 238 -11 L238 -11 Z " />
<glyph glyph-name="&amp;#xe5;" unicode="&#xe5;" horiz-adv-x="227" d="M238 -11 Q239 -19 232 -27 Q227 -33 208.5 -55.5 Q190 -78 170 -102 L170 -102 L169 -104 Q159 -115 139.5 -133 Q120 -151 99 -155 Q91 -157 85 -156 Q81 -156 78 -155 L78 -155 L78 -155 Q74 -154 70 -152 Q57 -143 56.5 -127 Q56 -111 60 -97 L60 -96 Q64 -82 70 -67 L70 -67 L70 -67 L70 -67 L74 -59 Q62 -72 49.5 -84 Q37 -96 23 -107 Q16 -113 8.5 -117.5 Q1 -122 -9 -124 Q-22 -127 -32.5 -118.5 Q-43 -110 -44 -97 Q-45 -83 -40 -69 Q-21 -8 28 32 Q35 37 42.5 40.5 Q50 44 60 44 Q70 44 80 38 Q93 30 89 21 Q85 11 72 18 Q65 21 58 19 Q51 16 45 11 Q39 6 33 0 Q16 -17 3.5 -36.5 Q-9 -56 -16 -80 L-16 -80 L-16 -80 Q-17 -82 -19 -89 Q-21 -96 -20 -99 L-20 -100 L-20 -101 L-19 -101 L-19 -101 L-18 -101 Q-15 -101 -8.5 -96.5 Q-2 -92 0 -91 L0 -91 L0 -91 Q9 -84 17.5 -77 Q26 -70 34 -62 Q54 -42 72 -21.5 Q90 -1 107 21 Q112 27 115 30 Q122 38 132 33 L133 32 L134 31 L134 31 L135 31 L135 30 L135 30 Q139 27 139 23.5 Q139 20 139 18 L138 15 L137 15 Q115 -23 99 -61 Q96 -67 93 -75 Q90 -81 87.5 -88.5 Q85 -96 83 -104 L83 -104 L82 -108 Q80 -112 80 -117 Q80 -121 80.5 -124.5 Q81 -128 83 -130 Q88 -134 97 -132 Q101 -131 105 -129 L105 -129 Q114 -125 123 -118 Q132 -111 140 -103 Q142 -101 155 -86.5 Q168 -72 183 -54 Q200 -34 222 -9 L231 1 Q233 0 234 -2 Q238 -6 238 -11 L238 -11 Z " />
<glyph glyph-name="b" unicode="b" horiz-adv-x="245" d="M-1 -91 Q-2 -95 -3 -98 Q-4 -101 -5 -105 L-4 -105 L-2 -101 Q11 -81 25.5 -62.5 Q40 -44 58 -27 Q66 -19 74.5 -12 Q83 -5 93 0 Q102 5 109 6 Q120 7 126.5 0 Q133 -7 131 -19 Q129 -31 124.5 -42.5 Q120 -54 115 -65 L115 -65 L115 -65 Q114 -67 103.5 -85 Q93 -103 81 -120 Q100 -120 123.5 -106 Q147 -92 169.5 -74 Q192 -56 211 -37 Q230 -18 240 -8 L240 -8 L240 -8 L243 -4 L245 -2 L247 0 L247 1 L248 1 L249 2 Q252 0 253 -4 Q257 -11 253 -19 Q252 -22 249 -26 L249 -26 L247 -28 L247 -29 L246 -29 L240 -36 L240 -36 Q233 -44 225 -52 L225 -52 Q193 -87 165.5 -107 Q138 -127 116.5 -137.5 Q95 -148 79 -151 Q63 -154 54 -153 L51 -153 Q42 -152 39.5 -149 Q37 -146 37 -145 Q36 -141 38 -138 Q40 -134 42.5 -131 Q45 -128 47 -125 Q65 -102 80.5 -78 Q96 -54 105 -26 L106 -24 Q106 -22 106 -21 Q105 -20 101 -22 L101 -22 L99 -24 Q94 -28 91 -30 Q72 -45 56.5 -63 Q41 -81 28 -101 Q7 -130 -9 -161.5 Q-25 -193 -36 -228 Q-39 -236 -41 -250 L-41 -250 L-42 -255 Q-43 -259 -44 -265 Q-45 -271 -47 -276 Q-51 -290 -55 -293 Q-60 -297 -67 -295 Q-76 -291 -74 -280 Q-71 -267 -68.5 -254.5 Q-66 -242 -63 -230 Q-52 -183 -39 -137 Q-26 -91 -12 -45 L-12 -45 L-7 -28 L-7 -28 L-4 -15 L-4 -15 L5 15 L14 49 L14 50 Q33 119 52 188 Q71 257 93 325 Q109 376 127 424.5 Q145 473 166 521 Q174 538 182 554 Q190 570 200 586 Q210 599 220 608 Q238 624 254 609 Q263 601 267 586 Q271 566 269 541 Q266 504 256 469 Q246 434 233 400 Q210 334 180 272.5 Q150 211 115 151 Q94 116 73.5 81 Q53 46 30 12 Q28 10 27.5 7 Q27 4 26 2 Q21 -17 15 -39 L15 -39 L13 -45 L13 -45 L-1 -91 Z M72 169 Q66 149 61 129.5 Q56 110 50 91 L51 90 L65 114 Q96 165 123.5 215.5 Q151 266 175 320 Q194 363 210.5 406 Q227 449 238 495 Q242 513 244.5 532 Q247 551 245 571 Q244 575 243 580 Q243 583 241.5 586 Q240 589 239 591 L239 591 L238 591 L238 591 L238 591 L238 591 L238 591 Q235 591 229 583 Q227 581 225 578 Q224 577 223 576 Q216 567 210.5 556.5 Q205 546 200 536 Q181 499 166 460.5 Q151 422 138 383 Q119 330 103 276.5 Q87 223 72 169 Z " />
<glyph glyph-name="c" unicode="c" horiz-adv-x="163" d="M167 4 Q171 0 172 -4 Q174 -8 173 -13 Q172 -18 167 -24 Q163 -28 152.5 -40 Q142 -52 129 -68 Q126 -72 117.5 -83 Q109 -94 97 -106.5 Q85 -119 70.5 -132 Q56 -145 40 -153 Q36 -156 25 -160 Q13 -164 0 -165 Q-13 -166 -25 -163 Q-40 -159 -46 -146.5 Q-52 -134 -52 -119 Q-53 -100 -46 -81 Q-45 -75 -42 -70 L-42 -70 Q-32 -44 -18 -21.5 Q-4 1 14 21 L17 24 L17 24 Q18 25 22.5 29 Q27 33 33 36 Q40 40 46 41 Q50 41 54 40 L55 39 L57 38 L57 38 L57 38 L59 37 Q64 32 65 26 Q66 20 66 15 L66 15 Q66 12 65 9 L65 8 L65 8 L65 8 Q63 0 60 -7.5 Q57 -15 55 -22 Q53 -26 51 -29.5 Q49 -33 47 -37 Q42 -48 31 -41 Q19 -35 25 -23 Q27 -18 29.5 -13 Q32 -8 34 -3 Q35 -1 37 3 L37 4 L38 5 Q38 7 37 6 L33 2 Q31 -1 29 -3 Q-2 -39 -20 -86 L-21 -87 Q-23 -94 -25 -103 Q-27 -112 -26.5 -120 Q-26 -128 -22 -134 Q-18 -140 -8 -140 Q-5 -140 -2 -140 Q13 -139 29 -132 Q36 -129 45 -122 Q58 -113 76 -96 Q78 -94 83.5 -88.5 Q89 -83 95 -76 Q101 -69 106.5 -63 Q112 -57 114 -55 L119 -48 L121 -46 L134 -32 L167 4 Z " />
<glyph glyph-name="&amp;#xe7;" unicode="&#xe7;" horiz-adv-x="163" d="M167 4 Q171 0 172 -4 Q174 -8 173 -13 Q172 -18 167 -24 Q163 -28 152.5 -40 Q142 -52 129 -68 Q126 -72 117.5 -83 Q109 -94 97 -106.5 Q85 -119 70.5 -132 Q56 -145 40 -153 Q36 -156 25 -160 Q13 -164 0 -165 Q-13 -166 -25 -163 Q-40 -159 -46 -146.5 Q-52 -134 -52 -119 Q-53 -100 -46 -81 Q-45 -75 -42 -70 L-42 -70 Q-32 -44 -18 -21.5 Q-4 1 14 21 L17 24 L17 24 Q18 25 22.5 29 Q27 33 33 36 Q40 40 46 41 Q50 41 54 40 L55 39 L57 38 L57 38 L57 38 L59 37 Q64 32 65 26 Q66 20 66 15 L66 15 Q66 12 65 9 L65 8 L65 8 L65 8 Q63 0 60 -7.5 Q57 -15 55 -22 Q53 -26 51 -29.5 Q49 -33 47 -37 Q42 -48 31 -41 Q19 -35 25 -23 Q27 -18 29.5 -13 Q32 -8 34 -3 Q35 -1 37 3 L37 4 L38 5 Q38 7 37 6 L33 2 Q31 -1 29 -3 Q-2 -39 -20 -86 L-21 -87 Q-23 -94 -25 -103 Q-27 -112 -26.5 -120 Q-26 -128 -22 -134 Q-18 -140 -8 -140 Q-5 -140 -2 -140 Q13 -139 29 -132 Q36 -129 45 -122 Q58 -113 76 -96 Q78 -94 83.5 -88.5 Q89 -83 95 -76 Q101 -69 106.5 -63 Q112 -57 114 -55 L119 -48 L121 -46 L134 -32 L167 4 Z " />
<glyph glyph-name="d" unicode="d" horiz-adv-x="307" d="M366 573 Q367 570 368.5 556 Q370 542 370 529 Q369 522 369 518 Q366 499 362 482 Q358 465 352 447 Q342 411 329 377 Q316 343 301 308 Q294 292 287 276 Q280 260 273 244 Q252 200 230.5 156.5 Q209 113 184 71 Q172 52 160 34 Q148 16 135 -2 L134 -4 Q133 -7 132 -9 Q126 -38 121 -66 Q116 -94 113 -124 Q112 -135 112 -146 Q112 -157 112 -169 Q111 -189 118 -207 L118 -209 Q122 -217 129 -214 L129 -213 Q139 -208 146 -203 Q160 -191 172 -177.5 Q184 -164 195 -149 Q200 -143 204.5 -137.5 Q209 -132 214 -126 Q233 -101 252 -76 Q271 -51 290 -26 L312 1 L314 4 L315 3 Q314 4 319 -5.5 Q324 -15 313 -29 Q313 -29 304 -41.5 Q295 -54 281 -72.5 Q267 -91 250.5 -113.5 Q234 -136 218 -156 Q202 -176 189.5 -192 Q177 -208 171 -213 Q169 -215 167 -219 Q154 -232 140.5 -236 Q127 -240 121 -238 Q114 -237 109 -233 Q102 -228 99 -220 Q93 -207 91 -195 Q87 -174 88 -149 Q88 -138 89 -126.5 Q90 -115 92 -103 Q93 -93 94.5 -82.5 Q96 -72 98 -61 Q98 -56 100 -50 L96 -54 Q82 -69 67.5 -82.5 Q53 -96 37 -108 Q28 -114 19 -119 Q10 -124 -1 -125 Q-17 -128 -29 -122 Q-41 -116 -47 -100 Q-50 -90 -49 -77 Q-48 -61 -42 -48.5 Q-36 -36 -27 -25 Q-15 -10 0 2 Q15 14 34 20 Q58 28 82 20 Q100 14 110 0 L111 2 Q116 23 121 43.5 Q126 64 130 81 Q135 100 140 118 L140 118 Q154 169 168.5 219 Q183 269 198 320 Q200 328 203 337 Q217 384 232.5 429.5 Q248 475 265 521 Q270 537 277 552 Q284 567 293 581 L293 581 Q293 582 294.5 584.5 Q296 587 299 591 L300 592 Q305 599 314 607 Q323 615 333 615 Q336 615 339 614 Q348 612 356 600 L356 600 Q360 594 363 586 L363 585 L363 585 L363 585 L364 584 L364 584 Q365 579 366 573 Z M96 -16 Q93 -11 84 -6 Q81 -4 77.5 -2.5 Q74 -1 73 -1 L73 -1 Q59 3 44 -2 Q30 -6 19.5 -14 Q9 -22 0 -32 Q-11 -44 -18.5 -57 Q-26 -70 -26 -87 Q-26 -105 -8 -102 Q1 -101 8 -97 Q15 -93 22 -88 Q42 -74 58.5 -57 Q75 -40 91 -22 L96 -16 Z M341 499 Q345 517 346 534.5 Q347 552 343 570 Q341 577 340 580 L339 581 Q338 583 336 587.5 Q334 592 332 592 Q330 592 326 586.5 Q322 581 318 576 L318 575 L314 570 L314 569 L314 569 L313 568 L313 568 L313 568 Q307 557 301.5 546 Q296 535 292 524 Q289 518 287 512 Q251 416 224 322 L224 322 Q219 306 216 295 Q202 248 189 200.5 Q176 153 162 105 Q159 95 156 84.5 Q153 74 150 63 Q152 65 153 67 Q159 76 164.5 85 Q170 94 175 104 Q204 156 229.5 209 Q255 262 278 317 Q287 336 294 355 Q307 386 318 417.5 Q329 449 337 482 Q339 491 341 499 Z " />
<glyph glyph-name="e" unicode="e" horiz-adv-x="207" d="M212 3 Q216 0 218 -4 Q219 -8 218.5 -13 Q218 -18 212 -24 Q208 -30 192 -48.5 Q176 -67 157 -89 L157 -89 Q156 -90 149 -96.5 Q142 -103 132.5 -112 Q123 -121 112.5 -130.5 Q102 -140 94 -145 Q80 -155 69 -162 Q48 -174 30 -179 Q13 -185 -4.5 -181.5 Q-22 -178 -33 -162 Q-40 -152 -42 -140 Q-44 -128 -44 -116 Q-44 -86 -30 -54 Q-19 -29 -4 -8.5 Q11 12 33 29 Q54 44 76 48 Q91 50 100 39.5 Q109 29 107 19 Q106 14 105 9 Q104 4 101 0 Q81 -37 46 -54 Q36 -59 27.5 -60 Q19 -61 12 -60 Q4 -60 -2 -58 Q-5 -65 -7.5 -71 Q-10 -77 -12 -83 L-12 -84 Q-12 -85 -14 -94 Q-16 -103 -17 -114 Q-18 -125 -16.5 -136 Q-15 -147 -9 -153 Q-6 -155 -3 -156 L-3 -156 Q4 -159 12 -158 Q20 -157 28 -154 L28 -154 Q31 -153 34 -152 Q42 -148 50 -144 L50 -144 Q68 -134 84 -122 Q100 -110 112.5 -99 Q125 -88 134 -79.5 Q143 -71 145 -69 Q153 -61 161 -52 Q169 -43 178 -34 L179 -32 L212 3 Z M80 20 Q65 19 44 2 Q23 -15 10 -38 Q12 -39 16 -39 Q23 -39 31 -36 Q64 -22 81 10 Q82 12 83 16 Q84 19 80 20 Z " />
<glyph glyph-name="&amp;#xe8;" unicode="&#xe8;" horiz-adv-x="207" d="M212 3 Q216 0 218 -4 Q219 -8 218.5 -13 Q218 -18 212 -24 Q208 -30 192 -48.5 Q176 -67 157 -89 L157 -89 Q156 -90 149 -96.5 Q142 -103 132.5 -112 Q123 -121 112.5 -130.5 Q102 -140 94 -145 Q80 -155 69 -162 Q48 -174 30 -179 Q13 -185 -4.5 -181.5 Q-22 -178 -33 -162 Q-40 -152 -42 -140 Q-44 -128 -44 -116 Q-44 -86 -30 -54 Q-19 -29 -4 -8.5 Q11 12 33 29 Q54 44 76 48 Q91 50 100 39.5 Q109 29 107 19 Q106 14 105 9 Q104 4 101 0 Q81 -37 46 -54 Q36 -59 27.5 -60 Q19 -61 12 -60 Q4 -60 -2 -58 Q-5 -65 -7.5 -71 Q-10 -77 -12 -83 L-12 -84 Q-12 -85 -14 -94 Q-16 -103 -17 -114 Q-18 -125 -16.5 -136 Q-15 -147 -9 -153 Q-6 -155 -3 -156 L-3 -156 Q4 -159 12 -158 Q20 -157 28 -154 L28 -154 Q31 -153 34 -152 Q42 -148 50 -144 L50 -144 Q68 -134 84 -122 Q100 -110 112.5 -99 Q125 -88 134 -79.5 Q143 -71 145 -69 Q153 -61 161 -52 Q169 -43 178 -34 L179 -32 L212 3 Z M80 20 Q65 19 44 2 Q23 -15 10 -38 Q12 -39 16 -39 Q23 -39 31 -36 Q64 -22 81 10 Q82 12 83 16 Q84 19 80 20 Z " />
<glyph glyph-name="&amp;#xe9;" unicode="&#xe9;" horiz-adv-x="207" d="M212 3 Q216 0 218 -4 Q219 -8 218.5 -13 Q218 -18 212 -24 Q208 -30 192 -48.5 Q176 -67 157 -89 L157 -89 Q156 -90 149 -96.5 Q142 -103 132.5 -112 Q123 -121 112.5 -130.5 Q102 -140 94 -145 Q80 -155 69 -162 Q48 -174 30 -179 Q13 -185 -4.5 -181.5 Q-22 -178 -33 -162 Q-40 -152 -42 -140 Q-44 -128 -44 -116 Q-44 -86 -30 -54 Q-19 -29 -4 -8.5 Q11 12 33 29 Q54 44 76 48 Q91 50 100 39.5 Q109 29 107 19 Q106 14 105 9 Q104 4 101 0 Q81 -37 46 -54 Q36 -59 27.5 -60 Q19 -61 12 -60 Q4 -60 -2 -58 Q-5 -65 -7.5 -71 Q-10 -77 -12 -83 L-12 -84 Q-12 -85 -14 -94 Q-16 -103 -17 -114 Q-18 -125 -16.5 -136 Q-15 -147 -9 -153 Q-6 -155 -3 -156 L-3 -156 Q4 -159 12 -158 Q20 -157 28 -154 L28 -154 Q31 -153 34 -152 Q42 -148 50 -144 L50 -144 Q68 -134 84 -122 Q100 -110 112.5 -99 Q125 -88 134 -79.5 Q143 -71 145 -69 Q153 -61 161 -52 Q169 -43 178 -34 L179 -32 L212 3 Z M80 20 Q65 19 44 2 Q23 -15 10 -38 Q12 -39 16 -39 Q23 -39 31 -36 Q64 -22 81 10 Q82 12 83 16 Q84 19 80 20 Z " />
<glyph glyph-name="&amp;#xea;" unicode="&#xea;" horiz-adv-x="207" d="M212 3 Q216 0 218 -4 Q219 -8 218.5 -13 Q218 -18 212 -24 Q208 -30 192 -48.5 Q176 -67 157 -89 L157 -89 Q156 -90 149 -96.5 Q142 -103 132.5 -112 Q123 -121 112.5 -130.5 Q102 -140 94 -145 Q80 -155 69 -162 Q48 -174 30 -179 Q13 -185 -4.5 -181.5 Q-22 -178 -33 -162 Q-40 -152 -42 -140 Q-44 -128 -44 -116 Q-44 -86 -30 -54 Q-19 -29 -4 -8.5 Q11 12 33 29 Q54 44 76 48 Q91 50 100 39.5 Q109 29 107 19 Q106 14 105 9 Q104 4 101 0 Q81 -37 46 -54 Q36 -59 27.5 -60 Q19 -61 12 -60 Q4 -60 -2 -58 Q-5 -65 -7.5 -71 Q-10 -77 -12 -83 L-12 -84 Q-12 -85 -14 -94 Q-16 -103 -17 -114 Q-18 -125 -16.5 -136 Q-15 -147 -9 -153 Q-6 -155 -3 -156 L-3 -156 Q4 -159 12 -158 Q20 -157 28 -154 L28 -154 Q31 -153 34 -152 Q42 -148 50 -144 L50 -144 Q68 -134 84 -122 Q100 -110 112.5 -99 Q125 -88 134 -79.5 Q143 -71 145 -69 Q153 -61 161 -52 Q169 -43 178 -34 L179 -32 L212 3 Z M80 20 Q65 19 44 2 Q23 -15 10 -38 Q12 -39 16 -39 Q23 -39 31 -36 Q64 -22 81 10 Q82 12 83 16 Q84 19 80 20 Z " />
<glyph glyph-name="&amp;#xeb;" unicode="&#xeb;" horiz-adv-x="207" d="M212 3 Q216 0 218 -4 Q219 -8 218.5 -13 Q218 -18 212 -24 Q208 -30 192 -48.5 Q176 -67 157 -89 L157 -89 Q156 -90 149 -96.5 Q142 -103 132.5 -112 Q123 -121 112.5 -130.5 Q102 -140 94 -145 Q80 -155 69 -162 Q48 -174 30 -179 Q13 -185 -4.5 -181.5 Q-22 -178 -33 -162 Q-40 -152 -42 -140 Q-44 -128 -44 -116 Q-44 -86 -30 -54 Q-19 -29 -4 -8.5 Q11 12 33 29 Q54 44 76 48 Q91 50 100 39.5 Q109 29 107 19 Q106 14 105 9 Q104 4 101 0 Q81 -37 46 -54 Q36 -59 27.5 -60 Q19 -61 12 -60 Q4 -60 -2 -58 Q-5 -65 -7.5 -71 Q-10 -77 -12 -83 L-12 -84 Q-12 -85 -14 -94 Q-16 -103 -17 -114 Q-18 -125 -16.5 -136 Q-15 -147 -9 -153 Q-6 -155 -3 -156 L-3 -156 Q4 -159 12 -158 Q20 -157 28 -154 L28 -154 Q31 -153 34 -152 Q42 -148 50 -144 L50 -144 Q68 -134 84 -122 Q100 -110 112.5 -99 Q125 -88 134 -79.5 Q143 -71 145 -69 Q153 -61 161 -52 Q169 -43 178 -34 L179 -32 L212 3 Z M80 20 Q65 19 44 2 Q23 -15 10 -38 Q12 -39 16 -39 Q23 -39 31 -36 Q64 -22 81 10 Q82 12 83 16 Q84 19 80 20 Z " />
<glyph glyph-name="f" unicode="f" horiz-adv-x="180" d="M237 562 Q238 554 230 549 Q227 548 226 544 Q221 533 216.5 521.5 Q212 510 208 499 Q192 460 176.5 421 Q161 382 146 343 Q133 312 116 262.5 Q99 213 80 157.5 Q61 102 43 47.5 Q25 -7 11 -48 L10 -50 L-2 -89 L-16 -130 L-27 -165 L-28 -170 L-28 -170 L-33 -184 L-33 -184 L-36 -195 Q-38 -201 -40 -206.5 Q-42 -212 -43 -218 L-44 -219 Q-41 -217 -31 -208 Q-21 -199 -7 -185.5 Q7 -172 24 -155 Q41 -138 59 -121 Q101 -81 152 -31 L184 4 L184 4 Q188 1 190 -3 Q192 -7 191 -12 Q190 -17 185 -23 Q183 -25 170 -39 Q157 -53 137.5 -73 Q118 -93 95.5 -117 Q73 -141 52 -163 Q31 -185 14.5 -202 Q-2 -219 -9 -226 Q-30 -249 -39 -273 Q-44 -283 -46 -295 Q-49 -308 -49.5 -320.5 Q-50 -333 -50 -346 Q-50 -358 -49.5 -369 Q-49 -380 -49 -390 Q-49 -421 -48.5 -451.5 Q-48 -482 -49 -512 Q-49 -520 -50 -529.5 Q-51 -539 -53 -548 Q-57 -564 -64.5 -577.5 Q-72 -591 -87 -597 Q-91 -599 -97 -599 Q-103 -599 -104 -599 L-104 -599 L-106 -599 L-106 -599 L-106 -599 Q-115 -597 -121 -590 Q-127 -583 -130 -573 Q-133 -562 -133 -541 Q-133 -522 -131.5 -504 Q-130 -486 -129 -477 Q-127 -465 -125 -452.5 Q-123 -440 -121 -428 Q-110 -372 -96 -318 Q-82 -264 -66 -210 Q-63 -200 -59 -186 Q-51 -159 -43 -133 Q-38 -119 -34 -107 Q-28 -88 -21.5 -69.5 Q-15 -51 -9 -32 Q7 15 31 84.5 Q55 154 81 228 Q107 302 132.5 371 Q158 440 176 486 Q183 501 188.5 516.5 Q194 532 201 547 Q204 556 211 566 Q217 574 226 573 Q236 571 237 562 Z M-100 -575 Q-100 -575 -94 -573.5 Q-88 -572 -80 -553 Q-75 -542 -74 -529 Q-73 -516 -73 -504 Q-73 -489 -73 -475 Q-73 -461 -73 -447 Q-74 -418 -74.5 -389 Q-75 -360 -74 -331 L-74 -329 Q-83 -363 -90 -397 Q-97 -431 -103 -466 Q-106 -483 -108 -499.5 Q-110 -516 -110 -533 L-110 -533 Q-110 -537 -110 -541 Q-110 -545 -109.5 -549.5 Q-109 -554 -109 -558 L-108 -562 L-108 -563 Q-107 -566 -105.5 -570 Q-104 -574 -100 -575 Z " />
<glyph glyph-name="g" unicode="g" horiz-adv-x="204" d="M121 1 Q125 -4 125.5 -10 Q126 -16 126 -17 Q120 -63 107 -106 Q94 -149 80 -192 Q61 -248 40 -302.5 Q19 -357 -6 -409 Q-22 -443 -39.5 -475.5 Q-57 -508 -74 -541 Q-82 -555 -89.5 -569.5 Q-97 -584 -104 -598 Q-108 -607 -116 -605 Q-125 -603 -128 -595 Q-131 -589 -128 -583 Q-122 -572 -116 -560.5 Q-110 -549 -104 -538 Q-84 -498 -63.5 -459.5 Q-43 -421 -24 -381 Q52 -217 95 -41 L96 -35 L96 -34 Q90 -40 84.5 -45.5 Q79 -51 73 -56 Q55 -73 36.5 -89.5 Q18 -106 -1 -122 Q-8 -128 -16.5 -133 Q-25 -138 -33 -143 Q-38 -145 -46 -147 Q-57 -149 -66 -142 Q-75 -135 -75 -123 Q-75 -114 -73 -107 Q-71 -100 -68 -92 Q-57 -65 -34 -38 Q-23 -24 -11.5 -11 Q0 2 12 15 Q26 30 41 35 Q44 36 50.5 35.5 Q57 35 67 28 Q74 22 71 13 Q67 5 59 9 Q53 11 47 7 Q44 5 41.5 3 Q39 1 37 -1 Q-8 -42 -37 -92 Q-40 -98 -42.5 -103.5 Q-45 -109 -47 -115 L-47 -115 Q-48 -117 -48 -118 L-48 -118 Q-48 -119 -47 -119 Q-44 -117 -44 -117 Q-37 -112 -29 -107.5 Q-21 -103 -15 -97 Q7 -77 28.5 -57.5 Q50 -38 72 -18 Q77 -13 82.5 -7.5 Q88 -2 94 3 Q99 7 104 8 Q110 9 115 6 L115 6 Q118 4 121 1 Z " />
<glyph glyph-name="h" unicode="h" horiz-adv-x="269" d="M274 4 Q278 0 279 -4 Q281 -8 280 -13 Q279 -18 274 -24 Q270 -29 256.5 -44.5 Q243 -60 226 -80 Q226 -80 220 -86.5 Q214 -93 205 -102 Q196 -111 185.5 -120.5 Q175 -130 165 -136 L165 -136 L163 -137 Q154 -142 145.5 -144 Q137 -146 129 -145 L129 -145 L129 -145 L128 -144 L127 -144 L127 -144 L127 -144 L127 -144 Q116 -140 113 -127 Q110 -114 111 -99 Q111 -82 116 -63 Q119 -46 122.5 -30.5 Q126 -15 129 1 Q130 7 130.5 12.5 Q131 18 132 23 L131 23 Q132 25 130 24 Q128 23 127 23 L125 22 Q113 12 103 1 Q93 -10 84 -22 Q58 -55 38.5 -90 Q19 -125 2 -163 Q-9 -189 -20 -214 Q-31 -239 -42 -265 Q-45 -272 -48 -277 Q-54 -286 -63 -282 Q-73 -278 -71 -267 Q-66 -247 -60.5 -227.5 Q-55 -208 -50 -188 Q-39 -147 -28 -107 Q-17 -67 -6 -26 L-2 -14 L-2 -13 L6 16 L15 51 L15 52 Q35 121 53.5 189.5 Q72 258 94 327 Q110 377 128 426 Q146 475 167 523 Q175 540 183 556 Q191 572 202 587 Q211 601 221 610 Q239 626 256 611 Q264 603 268 587 Q272 568 270 543 Q268 506 257.5 471 Q247 436 235 401 Q211 336 181 274.5 Q151 213 116 153 Q96 117 75 82.5 Q54 48 31 14 Q30 12 29 9 Q28 6 27 3 Q19 -28 10.5 -59.5 Q2 -91 -7 -122 Q-7 -123 -8 -125 L-7 -125 Q-2 -114 4 -103.5 Q10 -93 16 -82 Q31 -55 48.5 -29 Q66 -3 88 20 Q98 31 114 43 Q122 49 131 50 Q141 52 147.5 45.5 Q154 39 155 29 Q156 16 154 3.5 Q152 -9 150 -21 Q147 -34 144 -47 Q141 -60 139 -73 L138 -73 Q138 -77 135.5 -92.5 Q133 -108 134 -117 L134 -117 L134 -117 Q135 -120 136 -121 L136 -121 Q139 -123 148.5 -118.5 Q158 -114 175 -100 L175 -100 Q184 -93 194 -83 Q204 -73 217 -59 L217 -59 L225 -49 L228 -46 L241 -32 L274 4 Z M73 170 Q68 151 62.5 131.5 Q57 112 52 93 L52 92 Q56 98 59.5 104 Q63 110 67 116 Q97 166 124.5 217 Q152 268 176 322 Q195 364 211.5 407.5 Q228 451 239 496 Q243 515 246 534 Q249 553 246 572 Q246 577 244.5 581.5 Q243 586 241 590 Q240 595 237 592 Q235 590 232.5 588 Q230 586 229 584 Q220 573 213.5 561.5 Q207 550 201 537 Q182 500 167.5 462 Q153 424 139 385 Q120 332 104 278.5 Q88 225 73 170 Z " />
<glyph glyph-name="i" unicode="i" horiz-adv-x="145" d="M37 80 Q31 80 28 84 Q25 88 25 92.5 Q25 97 28 100.5 Q31 104 37 104 Q43 104 46 100.5 Q49 97 49 92.5 Q49 88 46 84 Q43 80 37 80 Z M148 4 Q149 3 153.5 -4.5 Q158 -12 147 -24 Q141 -31 121 -53.5 Q101 -76 79 -100 Q79 -100 68 -113 Q57 -126 42 -140.5 Q27 -155 11 -167 Q-5 -179 -17 -178 Q-22 -178 -26 -175 L-26 -175 Q-32 -170 -33.5 -160.5 Q-35 -151 -34.5 -140 Q-34 -129 -32 -117.5 Q-30 -106 -28 -98 L-28 -98 Q-26 -93 -25 -87 Q-18 -61 -9.5 -35 Q-1 -9 6 11 Q6 13 8 16 Q13 26 23 22 Q33 18 29 7 Q27 1 24 -9.5 Q21 -20 17.5 -31 Q14 -42 10.5 -52 Q7 -62 5 -69 L3 -78 L3 -78 L3 -78 L3 -79 L3 -79 Q2 -82 0.5 -87 Q-1 -92 -2 -98 Q-6 -116 -9.5 -134 Q-13 -152 -7 -152 Q-3 -153 3 -148.5 Q9 -144 16 -138 Q23 -132 29.5 -125 Q36 -118 40 -113 L43 -110 L43 -110 Q55 -97 65.5 -85.5 Q76 -74 83 -65 Q93 -54 100 -46 L114 -32 L148 4 L148 4 Z " />
<glyph glyph-name="&amp;#xec;" unicode="&#xec;" horiz-adv-x="145" d="M37 80 Q31 80 28 84 Q25 88 25 92.5 Q25 97 28 100.5 Q31 104 37 104 Q43 104 46 100.5 Q49 97 49 92.5 Q49 88 46 84 Q43 80 37 80 Z M148 4 Q149 3 153.5 -4.5 Q158 -12 147 -24 Q141 -31 121 -53.5 Q101 -76 79 -100 Q79 -100 68 -113 Q57 -126 42 -140.5 Q27 -155 11 -167 Q-5 -179 -17 -178 Q-22 -178 -26 -175 L-26 -175 Q-32 -170 -33.5 -160.5 Q-35 -151 -34.5 -140 Q-34 -129 -32 -117.5 Q-30 -106 -28 -98 L-28 -98 Q-26 -93 -25 -87 Q-18 -61 -9.5 -35 Q-1 -9 6 11 Q6 13 8 16 Q13 26 23 22 Q33 18 29 7 Q27 1 24 -9.5 Q21 -20 17.5 -31 Q14 -42 10.5 -52 Q7 -62 5 -69 L3 -78 L3 -78 L3 -78 L3 -79 L3 -79 Q2 -82 0.5 -87 Q-1 -92 -2 -98 Q-6 -116 -9.5 -134 Q-13 -152 -7 -152 Q-3 -153 3 -148.5 Q9 -144 16 -138 Q23 -132 29.5 -125 Q36 -118 40 -113 L43 -110 L43 -110 Q55 -97 65.5 -85.5 Q76 -74 83 -65 Q93 -54 100 -46 L114 -32 L148 4 L148 4 Z " />
<glyph glyph-name="&amp;#xed;" unicode="&#xed;" horiz-adv-x="145" d="M37 80 Q31 80 28 84 Q25 88 25 92.5 Q25 97 28 100.5 Q31 104 37 104 Q43 104 46 100.5 Q49 97 49 92.5 Q49 88 46 84 Q43 80 37 80 Z M148 4 Q149 3 153.5 -4.5 Q158 -12 147 -24 Q141 -31 121 -53.5 Q101 -76 79 -100 Q79 -100 68 -113 Q57 -126 42 -140.5 Q27 -155 11 -167 Q-5 -179 -17 -178 Q-22 -178 -26 -175 L-26 -175 Q-32 -170 -33.5 -160.5 Q-35 -151 -34.5 -140 Q-34 -129 -32 -117.5 Q-30 -106 -28 -98 L-28 -98 Q-26 -93 -25 -87 Q-18 -61 -9.5 -35 Q-1 -9 6 11 Q6 13 8 16 Q13 26 23 22 Q33 18 29 7 Q27 1 24 -9.5 Q21 -20 17.5 -31 Q14 -42 10.5 -52 Q7 -62 5 -69 L3 -78 L3 -78 L3 -78 L3 -79 L3 -79 Q2 -82 0.5 -87 Q-1 -92 -2 -98 Q-6 -116 -9.5 -134 Q-13 -152 -7 -152 Q-3 -153 3 -148.5 Q9 -144 16 -138 Q23 -132 29.5 -125 Q36 -118 40 -113 L43 -110 L43 -110 Q55 -97 65.5 -85.5 Q76 -74 83 -65 Q93 -54 100 -46 L114 -32 L148 4 L148 4 Z " />
<glyph glyph-name="&amp;#xee;" unicode="&#xee;" horiz-adv-x="145" d="M37 80 Q31 80 28 84 Q25 88 25 92.5 Q25 97 28 100.5 Q31 104 37 104 Q43 104 46 100.5 Q49 97 49 92.5 Q49 88 46 84 Q43 80 37 80 Z M148 4 Q149 3 153.5 -4.5 Q158 -12 147 -24 Q141 -31 121 -53.5 Q101 -76 79 -100 Q79 -100 68 -113 Q57 -126 42 -140.5 Q27 -155 11 -167 Q-5 -179 -17 -178 Q-22 -178 -26 -175 L-26 -175 Q-32 -170 -33.5 -160.5 Q-35 -151 -34.5 -140 Q-34 -129 -32 -117.5 Q-30 -106 -28 -98 L-28 -98 Q-26 -93 -25 -87 Q-18 -61 -9.5 -35 Q-1 -9 6 11 Q6 13 8 16 Q13 26 23 22 Q33 18 29 7 Q27 1 24 -9.5 Q21 -20 17.5 -31 Q14 -42 10.5 -52 Q7 -62 5 -69 L3 -78 L3 -78 L3 -78 L3 -79 L3 -79 Q2 -82 0.5 -87 Q-1 -92 -2 -98 Q-6 -116 -9.5 -134 Q-13 -152 -7 -152 Q-3 -153 3 -148.5 Q9 -144 16 -138 Q23 -132 29.5 -125 Q36 -118 40 -113 L43 -110 L43 -110 Q55 -97 65.5 -85.5 Q76 -74 83 -65 Q93 -54 100 -46 L114 -32 L148 4 L148 4 Z " />
<glyph glyph-name="&amp;#xef;" unicode="&#xef;" horiz-adv-x="145" d="M37 80 Q31 80 28 84 Q25 88 25 92.5 Q25 97 28 100.5 Q31 104 37 104 Q43 104 46 100.5 Q49 97 49 92.5 Q49 88 46 84 Q43 80 37 80 Z M148 4 Q149 3 153.5 -4.5 Q158 -12 147 -24 Q141 -31 121 -53.5 Q101 -76 79 -100 Q79 -100 68 -113 Q57 -126 42 -140.5 Q27 -155 11 -167 Q-5 -179 -17 -178 Q-22 -178 -26 -175 L-26 -175 Q-32 -170 -33.5 -160.5 Q-35 -151 -34.5 -140 Q-34 -129 -32 -117.5 Q-30 -106 -28 -98 L-28 -98 Q-26 -93 -25 -87 Q-18 -61 -9.5 -35 Q-1 -9 6 11 Q6 13 8 16 Q13 26 23 22 Q33 18 29 7 Q27 1 24 -9.5 Q21 -20 17.5 -31 Q14 -42 10.5 -52 Q7 -62 5 -69 L3 -78 L3 -78 L3 -78 L3 -79 L3 -79 Q2 -82 0.5 -87 Q-1 -92 -2 -98 Q-6 -116 -9.5 -134 Q-13 -152 -7 -152 Q-3 -153 3 -148.5 Q9 -144 16 -138 Q23 -132 29.5 -125 Q36 -118 40 -113 L43 -110 L43 -110 Q55 -97 65.5 -85.5 Q76 -74 83 -65 Q93 -54 100 -46 L114 -32 L148 4 L148 4 Z " />
<glyph glyph-name="j" unicode="j" horiz-adv-x="130" d="M134 2 Q136 -1 139 -7 Q142 -13 138 -20 Q138 -20 120 -41.5 Q102 -63 76.5 -92.5 Q51 -122 25 -152.5 Q-1 -183 -17 -201 Q-27 -239 -36 -274 Q-45 -307 -54 -337.5 Q-63 -368 -71 -389 Q-89 -437 -110.5 -482 Q-132 -527 -160 -570 Q-169 -584 -179 -597.5 Q-189 -611 -202 -622 Q-208 -628 -213 -630 Q-224 -636 -234 -630.5 Q-244 -625 -245 -612 Q-247 -603 -245.5 -593.5 Q-244 -584 -242 -575 Q-234 -534 -219.5 -496 Q-205 -458 -187 -421 Q-162 -372 -133 -327 Q-104 -282 -73 -237 Q-65 -227 -58 -217 Q-51 -207 -43 -197 Q-41 -194 -40 -192 Q-31 -152 -21.5 -111.5 Q-12 -71 -3 -30 Q-1 -22 -0.5 -14 Q0 -6 1 3 Q2 14 12 14 Q17 13 21 9.5 Q25 6 25 2 Q25 -7 24.5 -15 Q24 -23 22 -31 Q16 -59 10 -86.5 Q4 -114 -2 -141 L-3 -146 Q-3 -146 -4.5 -152.5 Q-6 -159 -6 -159 Q-2 -154 1.5 -150 Q5 -146 8 -142 Q29 -118 52 -91 Q75 -64 97 -38 L100 -34 Q104 -30 107.5 -26 Q111 -22 115 -18 L118 -13 L133 4 L134 2 Z M-57 -259 L-63 -267 L-63 -268 Q-70 -278 -77 -288 Q-84 -298 -91 -309 Q-116 -347 -139 -386 Q-162 -425 -181 -467 Q-202 -515 -214 -560 L-214 -561 L-214 -561 Q-214 -563 -215.5 -569 Q-217 -575 -218.5 -581.5 Q-220 -588 -221 -594.5 Q-222 -601 -222 -604 L-221 -605 L-221 -605 L-221 -605 L-220 -605 Q-218 -603 -213 -598 Q-208 -593 -203 -587 L-202 -585 Q-199 -581 -196 -577 Q-193 -573 -192 -572 L-192 -572 L-191 -571 L-191 -571 L-191 -571 Q-182 -559 -174.5 -546.5 Q-167 -534 -159 -520 Q-130 -469 -108 -415.5 Q-86 -362 -70 -305 Q-67 -296 -64.5 -286.5 Q-62 -277 -60 -268 L-60 -268 L-58 -262 L-57 -259 Z M30 80 Q24 80 21 84 Q18 88 18 92.5 Q18 97 21 100.5 Q24 104 30 104 Q36 104 39 100.5 Q42 97 42 92.5 Q42 88 39 84 Q36 80 30 80 Z " />
<glyph glyph-name="k" unicode="k" horiz-adv-x="242" d="M249 576 Q257 566 259 550.5 Q261 535 261 527 L261 527 Q261 521 260 514 Q258 475 246.5 438 Q235 401 221 364 Q202 317 179.5 271 Q157 225 133 180 Q83 84 26 -6 Q24 -8 23.5 -11 Q23 -14 22 -17 L16 -39 Q24 -29 32 -18.5 Q40 -8 49 1 Q56 10 64.5 18 Q73 26 83 31 Q91 36 99.5 37.5 Q108 39 117 36 Q127 32 132 23.5 Q137 15 138 5 Q140 -17 132.5 -37 Q125 -57 112 -74 Q98 -92 82.5 -109 Q67 -126 50 -141 Q54 -148 56 -156.5 Q58 -165 60 -174 L61 -178 Q61 -178 61.5 -181.5 Q62 -185 64 -189 Q66 -193 68.5 -194.5 Q71 -196 75 -192 Q81 -185 87.5 -177.5 Q94 -170 97 -167 Q114 -146 132 -124.5 Q150 -103 166 -86 Q183 -65 200 -46 L212 -32 L245 4 L245 4 Q246 3 251 -4.5 Q256 -12 245 -24 Q241 -30 224.5 -49 Q208 -68 189 -90 L181 -100 Q177 -104 168 -115 Q159 -126 149.5 -138 Q140 -150 130.5 -162 Q121 -174 116 -181 L110 -188 Q107 -193 101 -201 Q92 -211 84 -215 Q76 -219 69.5 -219.5 Q63 -220 58.5 -218 Q54 -216 53 -216 Q45 -210 42 -201 Q39 -192 37 -182.5 Q35 -173 33 -163.5 Q31 -154 25 -147 Q22 -143 21.5 -138 Q21 -133 25 -129 Q62 -100 92 -60 Q102 -47 109 -30 Q116 -13 114 4 Q113 10 111 11 Q109 14 103 13 Q100 13 93 9 Q87 5 80 -1 Q63 -17 49 -35 Q35 -53 22 -72 Q9 -89 1.5 -109.5 Q-6 -130 -12 -150 L-12 -151 L-14 -160 L-34 -240 L-34 -240 L-38 -258 Q-41 -269 -44 -278 Q-47 -286 -56 -285 Q-65 -285 -67 -277 Q-67 -274 -67 -270 Q-61 -245 -55 -220.5 Q-49 -196 -43 -171 Q-36 -143 -29 -115.5 Q-22 -88 -15 -60 L17 61 Q35 128 55 193.5 Q75 259 97 325 Q115 378 135 428 Q155 478 179 528 L179 528 L179 529 L180 530 L180 530 Q181 534 186.5 543 Q192 552 199 561 Q206 570 215 577 Q224 584 234 584 Q243 584 249 576 Z M235 498 Q235 503 236.5 513 Q238 523 238 533 Q238 543 237 551 Q236 559 232 560 Q231 560 230 559 Q224 557 217 545.5 Q210 534 204 524 L204 524 Q202 520 200 516 L199 515 L199 514 L196 508 L195 505 L195 505 Q177 467 161 428 Q145 389 131 349 Q109 286 90 223.5 Q71 161 53 97 L50 87 Q49 85 48.5 82.5 Q48 80 47 78 Q48 78 49 79 Q122 201 178 326 Q193 359 206 392.5 Q219 426 227 462 Q232 481 234 494 L234 494 L234 495 L234 495 L234 496 L234 496 L235 497 L235 498 Z " />
<glyph glyph-name="l" unicode="l" horiz-adv-x="200" d="M266 573 Q266 570 267.5 556 Q269 542 268 528 Q268 522 267 518 Q265 499 260 482 Q255 465 250 447 Q239 411 225.5 377 Q212 343 197 308 Q190 292 182.5 276 Q175 260 167 244 Q146 200 124 156.5 Q102 113 76 71 Q64 52 51.5 34 Q39 16 26 -3 L25 -4 Q23 -7 23 -9 Q16 -38 11 -66.5 Q6 -95 2 -124 Q1 -135 0.5 -146 Q0 -157 0 -169 Q-1 -189 5 -207 L6 -209 Q10 -217 17 -214 L17 -214 Q27 -208 33 -203 Q48 -191 60 -177.5 Q72 -164 84 -149 Q89 -143 93.5 -137.5 Q98 -132 103 -126 Q122 -101 141.5 -76 Q161 -51 181 -26 L203 1 L205 4 L206 3 Q205 3 210 -6 Q215 -15 204 -29 Q203 -29 194 -41.5 Q185 -54 171 -72.5 Q157 -91 140 -113.5 Q123 -136 106.5 -156 Q90 -176 77.5 -192 Q65 -208 59 -213 Q57 -216 54 -219 Q41 -232 28 -236 Q15 -240 8 -238 Q1 -237 -4 -233 Q-10 -228 -14 -220 Q-19 -207 -21 -196 Q-25 -174 -24 -149 Q-23 -138 -22 -126.5 Q-21 -115 -19 -103 Q-18 -93 -16 -82.5 Q-14 -72 -12 -61 Q-9 -41 -1.5 -10.5 Q6 20 14 49 Q23 82 33 118 L33 118 Q48 169 63 219 Q78 269 93 320 Q96 328 99 337 Q113 384 129.5 429.5 Q146 475 163 521 Q169 537 176 552 Q183 567 192 581 L192 581 Q193 582 194.5 584.5 Q196 587 199 591 L199 592 Q205 599 214 607 Q223 615 233 615 Q236 615 239 614 Q248 611 256 600 L256 600 Q260 594 262 586 L263 585 L263 585 L263 584 L263 584 L263 584 Q265 579 266 573 Z M239 499 Q244 517 245 534.5 Q246 552 242 570 Q240 576 239 580 L239 581 Q238 583 236 587.5 Q234 592 232 592 Q230 592 225.5 586.5 Q221 581 218 575 L217 575 L214 570 L213 569 L213 569 L213 568 L213 568 L213 568 Q206 557 200.5 546 Q195 535 190 524 Q188 518 186 512 Q149 416 119 322 L119 322 Q114 306 111 295 Q97 248 83 200.5 Q69 153 55 105 Q51 95 48 84.5 Q45 74 42 63 Q44 65 45 67 Q51 76 56.5 85 Q62 94 67 104 Q97 156 123.5 209 Q150 262 174 317 Q183 336 190 355 Q204 386 215 417.5 Q226 449 235 482 Q237 490 239 499 Z " />
<glyph glyph-name="m" unicode="m" horiz-adv-x="300" d="M311 -8 Q312 -16 305 -24 Q302 -27 287 -45 Q272 -63 255 -83 Q238 -103 224 -119.5 Q210 -136 210 -137 L210 -137 Q199 -149 183.5 -162.5 Q168 -176 156 -176 L155 -176 Q148 -176 145 -170.5 Q142 -165 141 -157 Q141 -150 143 -138.5 Q145 -127 148 -116 Q151 -105 154 -97 Q157 -89 157 -88 Q160 -79 163.5 -70 Q167 -61 170 -52 Q172 -45 173.5 -38.5 Q175 -32 176 -25 L176 -25 Q177 -23 174 -23.5 Q171 -24 171 -24 L170 -25 Q160 -30 151.5 -36.5 Q143 -43 134 -50 Q123 -61 112 -72 Q101 -83 90 -94 Q86 -97 81 -99 Q74 -102 67 -97 Q60 -92 61 -84 Q62 -76 64 -69 Q67 -58 70.5 -47.5 Q74 -37 77 -26 Q78 -24 77 -22 Q77 -21 75.5 -22.5 Q74 -24 74 -24 Q70 -27 67 -30 Q52 -45 39 -62 Q26 -79 14 -97 Q8 -107 2.5 -116.5 Q-3 -126 -9 -136 Q-12 -140 -14 -142 Q-20 -149 -29 -144 Q-38 -139 -36 -129 Q-35 -125 -33 -120 Q-24 -92 -15.5 -64 Q-7 -36 0 -8 Q2 -1 5 6 Q10 15 21 10 Q32 5 28 -6 Q24 -18 20 -31 Q19 -35 18 -39.5 Q17 -44 16 -49 L16 -49 Q19 -45 22 -41.5 Q25 -38 28 -34 Q36 -24 44.5 -15.5 Q53 -7 63 1 Q68 4 73 6.5 Q78 9 84 8 Q99 8 102 -7 Q104 -15 103 -22 Q102 -29 100 -37 Q99 -40 98.5 -43 Q98 -46 98 -49 Q100 -47 101 -47 Q112 -36 124 -25.5 Q136 -15 150 -7 Q158 -2 169 1 Q180 3 190 -4 Q200 -11 200 -26 Q200 -37 197.5 -47 Q195 -57 192 -66 Q187 -79 182.5 -91.5 Q178 -104 173 -117 L173 -118 Q173 -120 171 -125 Q169 -130 168 -135 Q167 -140 167 -143.5 Q167 -147 170 -146 L170 -146 Q173 -146 187 -130 Q201 -114 217 -95 Q236 -73 259 -46 L272 -32 L304 3 L305 4 L305 4 L305 3 L305 3 Q306 2 308.5 -1 Q311 -4 311 -8 L311 -8 Z " />
<glyph glyph-name="n" unicode="n" horiz-adv-x="232" d="M242 -8 Q243 -16 236 -24 Q232 -29 221 -42 Q210 -55 195 -72 Q193 -74 190 -78 Q188 -81 184.5 -85 Q181 -89 177 -93 L177 -93 Q162 -109 141.5 -127 Q121 -145 102 -149 L98 -150 Q95 -151 92 -150 L92 -150 L90 -150 Q74 -146 75 -130 Q76 -120 79 -109 Q84 -92 90.5 -70.5 Q97 -49 101 -32 Q103 -27 103.5 -22 Q104 -17 105 -11 Q105 -7 96.5 -11.5 Q88 -16 88 -17 L82 -21 Q64 -35 49.5 -52.5 Q35 -70 22 -89 Q18 -95 14.5 -101 Q11 -107 7 -114 Q4 -118 -3.5 -126.5 Q-11 -135 -18 -133 L-19 -133 L-19 -133 Q-20 -132 -22 -132 Q-27 -128 -27.5 -120 Q-28 -112 -28 -107 Q-25 -92 -21 -78 Q-17 -64 -14 -50 Q-11 -39 -7.5 -27.5 Q-4 -16 -1 -5 Q1 0 3 3 Q9 13 20 5 Q28 -1 25 -11 Q22 -19 19.5 -27 Q17 -35 15 -43 Q14 -47 13 -50 Q12 -53 11 -57 Q14 -54 15.5 -52 Q17 -50 19 -48 Q33 -30 49 -14.5 Q65 1 86 13 Q93 18 102 20 Q111 22 118.5 16.5 Q126 11 128 2 Q132 -11 128 -26 Q126 -36 122 -50 Q118 -64 115 -76 L115 -77 Q114 -78 112.5 -83 Q111 -88 110 -94 Q108 -102 107.5 -109 Q107 -116 111 -117 L111 -117 Q120 -119 135.5 -105 Q151 -91 162 -79 Q164 -76 167 -72.5 Q170 -69 172 -67 L172 -66 L185 -51 L190 -46 L203 -32 L236 4 L236 4 L236 3 L236 3 L237 3 Q238 1 240 -1.5 Q242 -4 242 -8 Z " />
<glyph glyph-name="&amp;#xf1;" unicode="&#xf1;" horiz-adv-x="232" d="M242 -8 Q243 -16 236 -24 Q232 -29 221 -42 Q210 -55 195 -72 Q193 -74 190 -78 Q188 -81 184.5 -85 Q181 -89 177 -93 L177 -93 Q162 -109 141.5 -127 Q121 -145 102 -149 L98 -150 Q95 -151 92 -150 L92 -150 L90 -150 Q74 -146 75 -130 Q76 -120 79 -109 Q84 -92 90.5 -70.5 Q97 -49 101 -32 Q103 -27 103.5 -22 Q104 -17 105 -11 Q105 -7 96.5 -11.5 Q88 -16 88 -17 L82 -21 Q64 -35 49.5 -52.5 Q35 -70 22 -89 Q18 -95 14.5 -101 Q11 -107 7 -114 Q4 -118 -3.5 -126.5 Q-11 -135 -18 -133 L-19 -133 L-19 -133 Q-20 -132 -22 -132 Q-27 -128 -27.5 -120 Q-28 -112 -28 -107 Q-25 -92 -21 -78 Q-17 -64 -14 -50 Q-11 -39 -7.5 -27.5 Q-4 -16 -1 -5 Q1 0 3 3 Q9 13 20 5 Q28 -1 25 -11 Q22 -19 19.5 -27 Q17 -35 15 -43 Q14 -47 13 -50 Q12 -53 11 -57 Q14 -54 15.5 -52 Q17 -50 19 -48 Q33 -30 49 -14.5 Q65 1 86 13 Q93 18 102 20 Q111 22 118.5 16.5 Q126 11 128 2 Q132 -11 128 -26 Q126 -36 122 -50 Q118 -64 115 -76 L115 -77 Q114 -78 112.5 -83 Q111 -88 110 -94 Q108 -102 107.5 -109 Q107 -116 111 -117 L111 -117 Q120 -119 135.5 -105 Q151 -91 162 -79 Q164 -76 167 -72.5 Q170 -69 172 -67 L172 -66 L185 -51 L190 -46 L203 -32 L236 4 L236 4 L236 3 L236 3 L237 3 Q238 1 240 -1.5 Q242 -4 242 -8 Z " />
<glyph glyph-name="o" unicode="o" horiz-adv-x="210" d="M216 3 Q217 1 221 -6 Q225 -13 216 -25 Q213 -29 205 -36.5 Q197 -44 186.5 -51.5 Q176 -59 162.5 -65.5 Q149 -72 134 -75 L133 -75 Q126 -77 119 -77 Q113 -89 104 -100 Q91 -116 73.5 -128.5 Q56 -141 36 -147 Q25 -150 12.5 -150 Q0 -150 -10 -143 Q-19 -137 -24.5 -127 Q-30 -117 -32 -106 Q-39 -74 -25 -42 Q-11 -10 14 12 Q12 24 16 35.5 Q20 47 31 54 Q47 65 69.5 63.5 Q92 62 107 51 Q122 41 129 23 Q136 5 136 -13 L136 -13 L136 -13 Q136 -15 135.5 -23 Q135 -31 133 -39 L133 -40 L132 -45 L132 -45 L130 -51 L130 -53 Q155 -48 176 -32.5 Q197 -17 207 -6 L215 3 L215 3 L216 3 L216 3 Z M46 -116 Q74 -101 92 -75 Q67 -70 48 -53.5 Q29 -37 23 -13 Q5 -32 -4.5 -56.5 Q-14 -81 -7 -106 Q-4 -114 0.5 -119.5 Q5 -125 14 -125 Q23 -126 31 -123 Q39 -120 46 -116 Z M111 -16 L111 -14 L111 -13 Q111 1 106 14.5 Q101 28 87 34 Q79 38 67 39 Q55 40 46 35 L46 35 L46 35 Q45 34 43 33 L42 30 Q39 27 38.5 21 Q38 15 41 3 L41 3 Q42 2 43.5 -3 Q45 -8 49 -14 L49 -15 Q52 -20 56 -25 Q63 -34 74.5 -42.5 Q86 -51 104 -53 L104 -52 L106 -47 Q109 -38 110 -29 Q111 -20 111 -16 Z " />
<glyph glyph-name="&amp;#xf2;" unicode="&#xf2;" horiz-adv-x="210" d="M216 3 Q217 1 221 -6 Q225 -13 216 -25 Q213 -29 205 -36.5 Q197 -44 186.5 -51.5 Q176 -59 162.5 -65.5 Q149 -72 134 -75 L133 -75 Q126 -77 119 -77 Q113 -89 104 -100 Q91 -116 73.5 -128.5 Q56 -141 36 -147 Q25 -150 12.5 -150 Q0 -150 -10 -143 Q-19 -137 -24.5 -127 Q-30 -117 -32 -106 Q-39 -74 -25 -42 Q-11 -10 14 12 Q12 24 16 35.5 Q20 47 31 54 Q47 65 69.5 63.5 Q92 62 107 51 Q122 41 129 23 Q136 5 136 -13 L136 -13 L136 -13 Q136 -15 135.5 -23 Q135 -31 133 -39 L133 -40 L132 -45 L132 -45 L130 -51 L130 -53 Q155 -48 176 -32.5 Q197 -17 207 -6 L215 3 L215 3 L216 3 L216 3 Z M46 -116 Q74 -101 92 -75 Q67 -70 48 -53.5 Q29 -37 23 -13 Q5 -32 -4.5 -56.5 Q-14 -81 -7 -106 Q-4 -114 0.5 -119.5 Q5 -125 14 -125 Q23 -126 31 -123 Q39 -120 46 -116 Z M111 -16 L111 -14 L111 -13 Q111 1 106 14.5 Q101 28 87 34 Q79 38 67 39 Q55 40 46 35 L46 35 L46 35 Q45 34 43 33 L42 30 Q39 27 38.5 21 Q38 15 41 3 L41 3 Q42 2 43.5 -3 Q45 -8 49 -14 L49 -15 Q52 -20 56 -25 Q63 -34 74.5 -42.5 Q86 -51 104 -53 L104 -52 L106 -47 Q109 -38 110 -29 Q111 -20 111 -16 Z " />
<glyph glyph-name="&amp;#xf3;" unicode="&#xf3;" horiz-adv-x="210" d="M216 3 Q217 1 221 -6 Q225 -13 216 -25 Q213 -29 205 -36.5 Q197 -44 186.5 -51.5 Q176 -59 162.5 -65.5 Q149 -72 134 -75 L133 -75 Q126 -77 119 -77 Q113 -89 104 -100 Q91 -116 73.5 -128.5 Q56 -141 36 -147 Q25 -150 12.5 -150 Q0 -150 -10 -143 Q-19 -137 -24.5 -127 Q-30 -117 -32 -106 Q-39 -74 -25 -42 Q-11 -10 14 12 Q12 24 16 35.5 Q20 47 31 54 Q47 65 69.5 63.5 Q92 62 107 51 Q122 41 129 23 Q136 5 136 -13 L136 -13 L136 -13 Q136 -15 135.5 -23 Q135 -31 133 -39 L133 -40 L132 -45 L132 -45 L130 -51 L130 -53 Q155 -48 176 -32.5 Q197 -17 207 -6 L215 3 L215 3 L216 3 L216 3 Z M46 -116 Q74 -101 92 -75 Q67 -70 48 -53.5 Q29 -37 23 -13 Q5 -32 -4.5 -56.5 Q-14 -81 -7 -106 Q-4 -114 0.5 -119.5 Q5 -125 14 -125 Q23 -126 31 -123 Q39 -120 46 -116 Z M111 -16 L111 -14 L111 -13 Q111 1 106 14.5 Q101 28 87 34 Q79 38 67 39 Q55 40 46 35 L46 35 L46 35 Q45 34 43 33 L42 30 Q39 27 38.5 21 Q38 15 41 3 L41 3 Q42 2 43.5 -3 Q45 -8 49 -14 L49 -15 Q52 -20 56 -25 Q63 -34 74.5 -42.5 Q86 -51 104 -53 L104 -52 L106 -47 Q109 -38 110 -29 Q111 -20 111 -16 Z " />
<glyph glyph-name="&amp;#xf4;" unicode="&#xf4;" horiz-adv-x="210" d="M216 3 Q217 1 221 -6 Q225 -13 216 -25 Q213 -29 205 -36.5 Q197 -44 186.5 -51.5 Q176 -59 162.5 -65.5 Q149 -72 134 -75 L133 -75 Q126 -77 119 -77 Q113 -89 104 -100 Q91 -116 73.5 -128.5 Q56 -141 36 -147 Q25 -150 12.5 -150 Q0 -150 -10 -143 Q-19 -137 -24.5 -127 Q-30 -117 -32 -106 Q-39 -74 -25 -42 Q-11 -10 14 12 Q12 24 16 35.5 Q20 47 31 54 Q47 65 69.5 63.5 Q92 62 107 51 Q122 41 129 23 Q136 5 136 -13 L136 -13 L136 -13 Q136 -15 135.5 -23 Q135 -31 133 -39 L133 -40 L132 -45 L132 -45 L130 -51 L130 -53 Q155 -48 176 -32.5 Q197 -17 207 -6 L215 3 L215 3 L216 3 L216 3 Z M46 -116 Q74 -101 92 -75 Q67 -70 48 -53.5 Q29 -37 23 -13 Q5 -32 -4.5 -56.5 Q-14 -81 -7 -106 Q-4 -114 0.5 -119.5 Q5 -125 14 -125 Q23 -126 31 -123 Q39 -120 46 -116 Z M111 -16 L111 -14 L111 -13 Q111 1 106 14.5 Q101 28 87 34 Q79 38 67 39 Q55 40 46 35 L46 35 L46 35 Q45 34 43 33 L42 30 Q39 27 38.5 21 Q38 15 41 3 L41 3 Q42 2 43.5 -3 Q45 -8 49 -14 L49 -15 Q52 -20 56 -25 Q63 -34 74.5 -42.5 Q86 -51 104 -53 L104 -52 L106 -47 Q109 -38 110 -29 Q111 -20 111 -16 Z " />
<glyph glyph-name="&amp;#xf5;" unicode="&#xf5;" horiz-adv-x="210" d="M216 3 Q217 1 221 -6 Q225 -13 216 -25 Q213 -29 205 -36.5 Q197 -44 186.5 -51.5 Q176 -59 162.5 -65.5 Q149 -72 134 -75 L133 -75 Q126 -77 119 -77 Q113 -89 104 -100 Q91 -116 73.5 -128.5 Q56 -141 36 -147 Q25 -150 12.5 -150 Q0 -150 -10 -143 Q-19 -137 -24.5 -127 Q-30 -117 -32 -106 Q-39 -74 -25 -42 Q-11 -10 14 12 Q12 24 16 35.5 Q20 47 31 54 Q47 65 69.5 63.5 Q92 62 107 51 Q122 41 129 23 Q136 5 136 -13 L136 -13 L136 -13 Q136 -15 135.5 -23 Q135 -31 133 -39 L133 -40 L132 -45 L132 -45 L130 -51 L130 -53 Q155 -48 176 -32.5 Q197 -17 207 -6 L215 3 L215 3 L216 3 L216 3 Z M46 -116 Q74 -101 92 -75 Q67 -70 48 -53.5 Q29 -37 23 -13 Q5 -32 -4.5 -56.5 Q-14 -81 -7 -106 Q-4 -114 0.5 -119.5 Q5 -125 14 -125 Q23 -126 31 -123 Q39 -120 46 -116 Z M111 -16 L111 -14 L111 -13 Q111 1 106 14.5 Q101 28 87 34 Q79 38 67 39 Q55 40 46 35 L46 35 L46 35 Q45 34 43 33 L42 30 Q39 27 38.5 21 Q38 15 41 3 L41 3 Q42 2 43.5 -3 Q45 -8 49 -14 L49 -15 Q52 -20 56 -25 Q63 -34 74.5 -42.5 Q86 -51 104 -53 L104 -52 L106 -47 Q109 -38 110 -29 Q111 -20 111 -16 Z " />
<glyph glyph-name="&amp;#xf6;" unicode="&#xf6;" horiz-adv-x="210" d="M216 3 Q217 1 221 -6 Q225 -13 216 -25 Q213 -29 205 -36.5 Q197 -44 186.5 -51.5 Q176 -59 162.5 -65.5 Q149 -72 134 -75 L133 -75 Q126 -77 119 -77 Q113 -89 104 -100 Q91 -116 73.5 -128.5 Q56 -141 36 -147 Q25 -150 12.5 -150 Q0 -150 -10 -143 Q-19 -137 -24.5 -127 Q-30 -117 -32 -106 Q-39 -74 -25 -42 Q-11 -10 14 12 Q12 24 16 35.5 Q20 47 31 54 Q47 65 69.5 63.5 Q92 62 107 51 Q122 41 129 23 Q136 5 136 -13 L136 -13 L136 -13 Q136 -15 135.5 -23 Q135 -31 133 -39 L133 -40 L132 -45 L132 -45 L130 -51 L130 -53 Q155 -48 176 -32.5 Q197 -17 207 -6 L215 3 L215 3 L216 3 L216 3 Z M46 -116 Q74 -101 92 -75 Q67 -70 48 -53.5 Q29 -37 23 -13 Q5 -32 -4.5 -56.5 Q-14 -81 -7 -106 Q-4 -114 0.5 -119.5 Q5 -125 14 -125 Q23 -126 31 -123 Q39 -120 46 -116 Z M111 -16 L111 -14 L111 -13 Q111 1 106 14.5 Q101 28 87 34 Q79 38 67 39 Q55 40 46 35 L46 35 L46 35 Q45 34 43 33 L42 30 Q39 27 38.5 21 Q38 15 41 3 L41 3 Q42 2 43.5 -3 Q45 -8 49 -14 L49 -15 Q52 -20 56 -25 Q63 -34 74.5 -42.5 Q86 -51 104 -53 L104 -52 L106 -47 Q109 -38 110 -29 Q111 -20 111 -16 Z " />
<glyph glyph-name="&amp;#xf8;" unicode="&#xf8;" horiz-adv-x="210" d="M216 3 Q217 1 221 -6 Q225 -13 216 -25 Q213 -29 205 -36.5 Q197 -44 186.5 -51.5 Q176 -59 162.5 -65.5 Q149 -72 134 -75 L133 -75 Q126 -77 119 -77 Q113 -89 104 -100 Q91 -116 73.5 -128.5 Q56 -141 36 -147 Q25 -150 12.5 -150 Q0 -150 -10 -143 Q-19 -137 -24.5 -127 Q-30 -117 -32 -106 Q-39 -74 -25 -42 Q-11 -10 14 12 Q12 24 16 35.5 Q20 47 31 54 Q47 65 69.5 63.5 Q92 62 107 51 Q122 41 129 23 Q136 5 136 -13 L136 -13 L136 -13 Q136 -15 135.5 -23 Q135 -31 133 -39 L133 -40 L132 -45 L132 -45 L130 -51 L130 -53 Q155 -48 176 -32.5 Q197 -17 207 -6 L215 3 L215 3 L216 3 L216 3 Z M46 -116 Q74 -101 92 -75 Q67 -70 48 -53.5 Q29 -37 23 -13 Q5 -32 -4.5 -56.5 Q-14 -81 -7 -106 Q-4 -114 0.5 -119.5 Q5 -125 14 -125 Q23 -126 31 -123 Q39 -120 46 -116 Z M111 -16 L111 -14 L111 -13 Q111 1 106 14.5 Q101 28 87 34 Q79 38 67 39 Q55 40 46 35 L46 35 L46 35 Q45 34 43 33 L42 30 Q39 27 38.5 21 Q38 15 41 3 L41 3 Q42 2 43.5 -3 Q45 -8 49 -14 L49 -15 Q52 -20 56 -25 Q63 -34 74.5 -42.5 Q86 -51 104 -53 L104 -52 L106 -47 Q109 -38 110 -29 Q111 -20 111 -16 Z " />
<glyph glyph-name="p" unicode="p" horiz-adv-x="246" d="M251 4 Q255 1 257 -3 Q258 -7 257.5 -12 Q257 -17 251 -24 Q246 -30 226.5 -52.5 Q207 -75 187 -99 Q182 -104 169 -120 Q159 -132 148 -142 Q138 -150 127.5 -156.5 Q117 -163 106 -163 Q97 -162 90 -156 Q86 -152 84 -146 Q80 -137 82 -124 L82 -124 L83 -119 Q84 -115 85 -111 Q88 -101 90.5 -92 Q93 -83 96 -73 Q99 -64 101.5 -55.5 Q104 -47 107 -39 Q109 -31 111 -23 Q113 -15 113 -6 Q113 -3 106.5 -8 Q100 -13 98 -15 Q83 -29 71 -46 Q59 -63 47 -81 Q15 -131 -9.5 -185 Q-34 -239 -53 -296 Q-70 -345 -83 -394 Q-96 -443 -109 -493 Q-112 -507 -115.5 -520.5 Q-119 -534 -123 -548 Q-124 -550 -124 -551 Q-128 -563 -139 -560 Q-150 -556 -148 -544 Q-143 -521 -138 -500 Q-126 -442 -110.5 -385.5 Q-95 -329 -80 -273 Q-64 -215 -47.5 -158 Q-31 -101 -15 -43 Q-12 -32 -8 -20.5 Q-4 -9 0 2 Q3 11 12 10 Q21 9 23 1 Q23 -3 22 -9 Q12 -43 1.5 -77 Q-9 -111 -19 -146 Q-19 -146 -20 -150 L-20 -150 Q-17 -146 -15 -141.5 Q-13 -137 -10 -132 Q5 -103 21.5 -75.5 Q38 -48 59 -22 Q66 -12 74.5 -3 Q83 6 93 14 Q98 17 103.5 19.5 Q109 22 115 22 Q133 22 136 4 Q138 -7 136.5 -17.5 Q135 -28 132 -37 Q129 -48 126 -58 Q123 -68 120 -79 L118 -83 Q115 -95 112 -104 Q110 -109 109 -116 L109 -117 Q108 -118 106 -127 Q104 -136 107 -138 Q109 -141 120.5 -135 Q132 -129 150 -110 L150 -110 Q153 -107 156 -103 L157 -102 Q167 -90 176 -79.5 Q185 -69 191 -62 Q199 -53 206 -45 L218 -31 L251 4 Z " />
<glyph glyph-name="q" unicode="q" horiz-adv-x="189" d="M193 3 Q197 0 199 -4 Q201 -8 200.5 -13 Q200 -18 194 -25 Q190 -30 177.5 -45 Q165 -60 150 -79 Q146 -84 141.5 -89.5 Q137 -95 133 -100 Q130 -104 124 -112 Q118 -120 110.5 -129.5 Q103 -139 95.5 -149.5 Q88 -160 81 -168 L81 -168 L81 -168 Q81 -169 75 -177 Q69 -185 60 -197 Q51 -209 41 -224.5 Q31 -240 23 -255 Q14 -270 9 -283 L9 -283 Q5 -292 3 -299 Q-5 -329 -6.5 -360.5 Q-8 -392 -8 -423 Q-9 -447 -9 -470.5 Q-9 -494 -12 -519 Q-13 -538 -16 -552 Q-18 -567 -22 -581.5 Q-26 -596 -33 -609 Q-37 -618 -43.5 -625 Q-50 -632 -60 -634 Q-70 -636 -78 -631 Q-86 -626 -91 -617 Q-100 -601 -102 -581 Q-103 -566 -101.5 -551.5 Q-100 -537 -98 -522 L-97 -521 Q-94 -493 -88 -466.5 Q-82 -440 -75 -413 Q-60 -356 -42 -301.5 Q-24 -247 -4 -193 Q7 -164 18 -135.5 Q29 -107 40 -78 Q40 -78 41 -75 Q35 -81 29.5 -86.5 Q24 -92 19 -98 Q12 -104 5 -108.5 Q-2 -113 -11 -115 Q-21 -117 -30 -111 Q-39 -105 -41 -95 Q-43 -82 -39 -69 Q-35 -55 -28.5 -42.5 Q-22 -30 -14 -19 Q-2 -2 11.5 14 Q25 30 41 43 Q49 49 57 53 Q74 60 84 44 Q86 42 87 39 Q88 36 89 34 L91 33 Q98 33 102.5 28 Q107 23 105 16 Q103 8 99 -4 Q88 -28 78 -52 Q68 -76 58 -101 Q45 -134 32.5 -166.5 Q20 -199 9 -232 Q15 -223 25 -210 Q43 -185 61 -160 Q79 -135 97 -111 Q108 -97 117.5 -85.5 Q127 -74 134 -65 L145 -51 L150 -46 L162 -32 L193 3 Z M7 -72 Q23 -56 36 -38 Q49 -20 63 -1 Q67 5 71 11 Q75 17 79 23 Q76 24 73.5 25.5 Q71 27 68 29 Q66 29 65 28 Q59 24 55 21 Q23 -7 0 -46 Q-6 -55 -10.5 -64 Q-15 -73 -17 -84 Q-17 -86 -17 -87.5 Q-17 -89 -18 -91 Q-9 -88 -3.5 -83 Q2 -78 7 -72 Z M-31 -356 Q-30 -351 -30 -346 L-30 -348 Q-43 -389 -53.5 -430 Q-64 -471 -71 -514 Q-73 -522 -74 -529 L-74 -529 L-74 -529 Q-76 -541 -77.5 -553.5 Q-79 -566 -78 -578 L-78 -581 Q-77 -585 -74 -598 Q-71 -611 -64 -610 Q-57 -608 -53.5 -597 Q-50 -586 -48 -581 Q-41 -556 -38 -532 Q-32 -488 -33 -444 Q-34 -400 -31 -356 Z " />
<glyph glyph-name="r" unicode="r" horiz-adv-x="265" d="M267 5 Q267 5 273 -2.5 Q279 -10 272 -25 Q267 -33 262 -40 Q239 -75 217 -113 Q195 -151 171 -186 Q153 -212 134 -238.5 Q115 -265 93 -289 Q87 -296 74 -306 Q70 -309 64 -310 Q44 -311 40 -290 Q37 -278 38 -266.5 Q39 -255 40 -244 Q43 -211 48.5 -179 Q54 -147 60 -115 Q62 -105 63 -95.5 Q64 -86 65 -76 Q66 -68 61 -61 Q54 -50 64 -41 Q70 -36 76 -31 Q82 -26 87 -20 Q106 -2 122.5 18 Q139 38 152 60 Q154 63 155.5 66 Q157 69 158 71 L158 71 Q159 73 156 71.5 Q153 70 153 70 Q150 68 148 66 Q132 54 119 40 Q106 26 94 10 Q66 -27 44 -67 Q22 -107 3 -149 Q-4 -165 -11 -180 Q-18 -195 -25 -210 Q-28 -218 -30 -221 Q-36 -230 -46 -225 Q-56 -220 -54 -209 Q-53 -203 -52 -197.5 Q-51 -192 -49 -186 Q-36 -130 -21 -75 Q-6 -20 10 34 Q12 41 13 44 Q16 55 28 51 Q40 46 37 34 Q36 28 34 21.5 Q32 15 30 9 Q24 -13 18 -33.5 Q12 -54 6 -75 Q5 -78 6 -81 L9 -76 Q25 -45 43 -16 Q61 13 83 40 Q91 50 100.5 59.5 Q110 69 120 79 Q135 93 152 100 Q157 101 164 101.5 Q171 102 178 97 Q189 89 187 76 Q185 65 180 55 Q170 35 157 17.5 Q144 0 129 -16 Q119 -27 108.5 -36.5 Q98 -46 88 -56 Q86 -58 87 -59 Q91 -70 90.5 -80.5 Q90 -91 89 -101 Q85 -123 81 -143.5 Q77 -164 74 -186 Q71 -206 68.5 -226 Q66 -246 64 -266 L64 -266 Q64 -270 64 -273 Q64 -280 66 -278 L66 -278 Q69 -274 72.5 -271 Q76 -268 78 -265 Q91 -249 103.5 -233 Q116 -217 127 -201 Q158 -157 187.5 -113.5 Q217 -70 246 -26 L267 5 L267 5 Z " />
<glyph glyph-name="s" unicode="s" horiz-adv-x="317" d="M323 3 Q325 0 327.5 -8.5 Q330 -17 317 -28 Q313 -32 309 -35.5 Q305 -39 300 -42 Q271 -67 241.5 -91 Q212 -115 181 -138 Q151 -161 122 -184 Q93 -207 61 -225 L59 -227 L57 -229 L57 -229 Q48 -235 41 -228 Q33 -220 42 -210 Q47 -205 51 -199.5 Q55 -194 60 -189 Q67 -178 69 -166 Q70 -151 59 -139 Q54 -135 48.5 -130.5 Q43 -126 38 -122 Q30 -117 22 -112 Q14 -107 6 -101 Q-20 -81 -18 -49 Q-17 -33 -7 -13 Q1 3 12 17.5 Q23 32 36 45 Q59 68 83.5 87.5 Q108 107 136 121 Q146 127 157 131 Q168 135 180 137 Q199 140 213 133 Q236 122 232 96 Q230 82 224.5 70.5 Q219 59 212 48 Q201 28 187 10.5 Q173 -7 158 -24 Q143 -41 128 -57 Q113 -73 98 -89 Q98 -90 94 -94 Q85 -104 76 -96 Q67 -88 76 -78 Q88 -65 97 -55 Q120 -32 141 -8 Q162 16 180 42 Q188 53 195 64.5 Q202 76 206 90 Q208 96 208 101 Q209 110 200 113 Q194 115 188.5 114.5 Q183 114 178 112 Q161 108 147 100.5 Q133 93 119 84 Q93 65 69.5 44 Q46 23 27 -3 Q15 -20 9 -36 Q-1 -66 25 -85 Q31 -90 38 -94 Q45 -98 52 -103 Q60 -109 67 -114 Q84 -128 90 -146 L90 -146 L90 -146 Q90 -147 91 -149.5 Q92 -152 92 -156 L92 -157 Q93 -168 90 -179 Q100 -173 112 -164 Q143 -142 172.5 -119 Q202 -96 231 -72 Q246 -61 260 -49.5 Q274 -38 288 -26 L290 -24 L323 4 L323 3 Z " />
<glyph glyph-name="&amp;#xdf;" unicode="&#xdf;" horiz-adv-x="317" d="M323 3 Q325 0 327.5 -8.5 Q330 -17 317 -28 Q313 -32 309 -35.5 Q305 -39 300 -42 Q271 -67 241.5 -91 Q212 -115 181 -138 Q151 -161 122 -184 Q93 -207 61 -225 L59 -227 L57 -229 L57 -229 Q48 -235 41 -228 Q33 -220 42 -210 Q47 -205 51 -199.5 Q55 -194 60 -189 Q67 -178 69 -166 Q70 -151 59 -139 Q54 -135 48.5 -130.5 Q43 -126 38 -122 Q30 -117 22 -112 Q14 -107 6 -101 Q-20 -81 -18 -49 Q-17 -33 -7 -13 Q1 3 12 17.5 Q23 32 36 45 Q59 68 83.5 87.5 Q108 107 136 121 Q146 127 157 131 Q168 135 180 137 Q199 140 213 133 Q236 122 232 96 Q230 82 224.5 70.5 Q219 59 212 48 Q201 28 187 10.5 Q173 -7 158 -24 Q143 -41 128 -57 Q113 -73 98 -89 Q98 -90 94 -94 Q85 -104 76 -96 Q67 -88 76 -78 Q88 -65 97 -55 Q120 -32 141 -8 Q162 16 180 42 Q188 53 195 64.5 Q202 76 206 90 Q208 96 208 101 Q209 110 200 113 Q194 115 188.5 114.5 Q183 114 178 112 Q161 108 147 100.5 Q133 93 119 84 Q93 65 69.5 44 Q46 23 27 -3 Q15 -20 9 -36 Q-1 -66 25 -85 Q31 -90 38 -94 Q45 -98 52 -103 Q60 -109 67 -114 Q84 -128 90 -146 L90 -146 L90 -146 Q90 -147 91 -149.5 Q92 -152 92 -156 L92 -157 Q93 -168 90 -179 Q100 -173 112 -164 Q143 -142 172.5 -119 Q202 -96 231 -72 Q246 -61 260 -49.5 Q274 -38 288 -26 L290 -24 L323 4 L323 3 Z " />
<glyph glyph-name="t" unicode="t" horiz-adv-x="110" d="M967 266 Q973 266 976 262 Q979 258 979 253.5 Q979 249 976 245 Q973 241 967 241 L952 241 L784 241 L565 241 L329 241 L115 241 L97 241 Q64 123 29 7 Q-6 -109 -41 -226 Q-48 -248 -60 -289 Q-72 -330 -86 -379.5 Q-100 -429 -114.5 -481 Q-129 -533 -141 -575.5 Q-153 -618 -161 -645 Q-169 -672 -169 -673 Q-173 -689 -183 -689 Q-191 -688 -192.5 -682.5 Q-194 -677 -192 -669 Q-192 -664 -183.5 -634.5 Q-175 -605 -162.5 -561.5 Q-150 -518 -135 -465 Q-120 -412 -105.5 -361 Q-91 -310 -78 -265.5 Q-65 -221 -57 -195 Q-24 -86 8.5 22.5 Q41 131 72 241 L-44 241 Q-50 241 -53 245 Q-56 249 -56 253.5 Q-56 258 -53 262 Q-50 266 -44 266 L-29 266 L79 266 Q80 269 81 273 Q82 277 83 281 Q91 308 98 335 Q105 362 112 390 L112 390 L119 414 L119 416 Q120 420 121 422 Q123 428 127.5 434.5 Q132 441 140 439 Q147 438 148 431 Q149 424 146 417 Q143 410 142 410 L142 410 L137 391 L137 390 Q129 359 120.5 328 Q112 297 103 266 L139 266 L358 266 L594 266 L809 266 L967 266 Z " />
<glyph glyph-name="u" unicode="u" horiz-adv-x="263" d="M275 -5 Q277 -14 269 -23 Q260 -33 235 -63 Q229 -69 211 -89 Q193 -109 171 -130 Q149 -151 127 -167.5 Q105 -184 90 -184 Q87 -184 85 -183 Q74 -178 75 -158 Q76 -138 80 -122 L80 -122 Q82 -115 83.5 -109.5 Q85 -104 85 -103 L85 -103 L85 -103 Q88 -94 90.5 -86 Q93 -78 95 -69 Q96 -69 96.5 -66.5 Q97 -64 97 -63 L93 -67 L93 -68 Q75 -89 56 -110.5 Q37 -132 13 -148 Q7 -152 1 -155 Q-13 -162 -25 -159 Q-31 -158 -36 -154 Q-42 -149 -44.5 -141 Q-47 -133 -47 -125 Q-46 -112 -43 -97 Q-38 -82 -32 -67.5 Q-26 -53 -19 -40 L-11 -24 L-11 -24 Q-9 -18 -6.5 -13 Q-4 -8 -1 -3 L-1 -3 Q2 3 5 9 Q8 15 11 21 Q14 28 19.5 28 Q25 28 29 24 L29 24 Q30 22 31 21 L32 20 Q35 15 32 9 Q24 -7 16.5 -22.5 Q9 -38 1 -54 L-1 -60 Q-7 -72 -12 -86 L-13 -86 Q-17 -99 -20 -109 Q-21 -115 -22 -119 Q-23 -123 -22 -128 L-22 -131 L-22 -131 Q-22 -133 -21 -135 Q-21 -135 -21 -135 L-21 -135 L-20 -135 L-19 -136 L-19 -136 L-18 -136 L-17 -136 L-17 -136 L-17 -136 L-14 -135 Q-14 -135 -13 -134.5 Q-12 -134 -11 -134 L-11 -134 L-11 -134 L-11 -134 L-9 -133 Q-5 -131 -1 -128 Q6 -123 15 -116 Q34 -99 51 -79.5 Q68 -60 84 -40 Q92 -29 99.5 -18.5 Q107 -8 114 3 Q119 9 124 14 Q132 22 141 16 Q149 11 146 1 Q143 -8 140 -16.5 Q137 -25 134 -34 Q127 -53 120.5 -71.5 Q114 -90 108 -109 L108 -109 Q106 -115 104 -123 Q102 -131 100.5 -138.5 Q99 -146 99 -152 Q99 -158 101 -158 L102 -158 L103 -157 L103 -157 Q105 -157 107 -156 L107 -156 L108 -155 Q118 -151 133 -137.5 Q148 -124 164.5 -107.5 Q181 -91 195.5 -75 Q210 -59 219 -49 L223 -45 L228 -39 L236 -31 L269 5 L270 3 Q272 2 274 0 Q276 -2 275 -5 Z " />
<glyph glyph-name="&amp;#xf9;" unicode="&#xf9;" horiz-adv-x="263" d="M275 -5 Q277 -14 269 -23 Q260 -33 235 -63 Q229 -69 211 -89 Q193 -109 171 -130 Q149 -151 127 -167.5 Q105 -184 90 -184 Q87 -184 85 -183 Q74 -178 75 -158 Q76 -138 80 -122 L80 -122 Q82 -115 83.5 -109.5 Q85 -104 85 -103 L85 -103 L85 -103 Q88 -94 90.5 -86 Q93 -78 95 -69 Q96 -69 96.5 -66.5 Q97 -64 97 -63 L93 -67 L93 -68 Q75 -89 56 -110.5 Q37 -132 13 -148 Q7 -152 1 -155 Q-13 -162 -25 -159 Q-31 -158 -36 -154 Q-42 -149 -44.5 -141 Q-47 -133 -47 -125 Q-46 -112 -43 -97 Q-38 -82 -32 -67.5 Q-26 -53 -19 -40 L-11 -24 L-11 -24 Q-9 -18 -6.5 -13 Q-4 -8 -1 -3 L-1 -3 Q2 3 5 9 Q8 15 11 21 Q14 28 19.5 28 Q25 28 29 24 L29 24 Q30 22 31 21 L32 20 Q35 15 32 9 Q24 -7 16.5 -22.5 Q9 -38 1 -54 L-1 -60 Q-7 -72 -12 -86 L-13 -86 Q-17 -99 -20 -109 Q-21 -115 -22 -119 Q-23 -123 -22 -128 L-22 -131 L-22 -131 Q-22 -133 -21 -135 Q-21 -135 -21 -135 L-21 -135 L-20 -135 L-19 -136 L-19 -136 L-18 -136 L-17 -136 L-17 -136 L-17 -136 L-14 -135 Q-14 -135 -13 -134.5 Q-12 -134 -11 -134 L-11 -134 L-11 -134 L-11 -134 L-9 -133 Q-5 -131 -1 -128 Q6 -123 15 -116 Q34 -99 51 -79.5 Q68 -60 84 -40 Q92 -29 99.5 -18.5 Q107 -8 114 3 Q119 9 124 14 Q132 22 141 16 Q149 11 146 1 Q143 -8 140 -16.5 Q137 -25 134 -34 Q127 -53 120.5 -71.5 Q114 -90 108 -109 L108 -109 Q106 -115 104 -123 Q102 -131 100.5 -138.5 Q99 -146 99 -152 Q99 -158 101 -158 L102 -158 L103 -157 L103 -157 Q105 -157 107 -156 L107 -156 L108 -155 Q118 -151 133 -137.5 Q148 -124 164.5 -107.5 Q181 -91 195.5 -75 Q210 -59 219 -49 L223 -45 L228 -39 L236 -31 L269 5 L270 3 Q272 2 274 0 Q276 -2 275 -5 Z " />
<glyph glyph-name="&amp;#xfa;" unicode="&#xfa;" horiz-adv-x="263" d="M275 -5 Q277 -14 269 -23 Q260 -33 235 -63 Q229 -69 211 -89 Q193 -109 171 -130 Q149 -151 127 -167.5 Q105 -184 90 -184 Q87 -184 85 -183 Q74 -178 75 -158 Q76 -138 80 -122 L80 -122 Q82 -115 83.5 -109.5 Q85 -104 85 -103 L85 -103 L85 -103 Q88 -94 90.5 -86 Q93 -78 95 -69 Q96 -69 96.5 -66.5 Q97 -64 97 -63 L93 -67 L93 -68 Q75 -89 56 -110.5 Q37 -132 13 -148 Q7 -152 1 -155 Q-13 -162 -25 -159 Q-31 -158 -36 -154 Q-42 -149 -44.5 -141 Q-47 -133 -47 -125 Q-46 -112 -43 -97 Q-38 -82 -32 -67.5 Q-26 -53 -19 -40 L-11 -24 L-11 -24 Q-9 -18 -6.5 -13 Q-4 -8 -1 -3 L-1 -3 Q2 3 5 9 Q8 15 11 21 Q14 28 19.5 28 Q25 28 29 24 L29 24 Q30 22 31 21 L32 20 Q35 15 32 9 Q24 -7 16.5 -22.5 Q9 -38 1 -54 L-1 -60 Q-7 -72 -12 -86 L-13 -86 Q-17 -99 -20 -109 Q-21 -115 -22 -119 Q-23 -123 -22 -128 L-22 -131 L-22 -131 Q-22 -133 -21 -135 Q-21 -135 -21 -135 L-21 -135 L-20 -135 L-19 -136 L-19 -136 L-18 -136 L-17 -136 L-17 -136 L-17 -136 L-14 -135 Q-14 -135 -13 -134.5 Q-12 -134 -11 -134 L-11 -134 L-11 -134 L-11 -134 L-9 -133 Q-5 -131 -1 -128 Q6 -123 15 -116 Q34 -99 51 -79.5 Q68 -60 84 -40 Q92 -29 99.5 -18.5 Q107 -8 114 3 Q119 9 124 14 Q132 22 141 16 Q149 11 146 1 Q143 -8 140 -16.5 Q137 -25 134 -34 Q127 -53 120.5 -71.5 Q114 -90 108 -109 L108 -109 Q106 -115 104 -123 Q102 -131 100.5 -138.5 Q99 -146 99 -152 Q99 -158 101 -158 L102 -158 L103 -157 L103 -157 Q105 -157 107 -156 L107 -156 L108 -155 Q118 -151 133 -137.5 Q148 -124 164.5 -107.5 Q181 -91 195.5 -75 Q210 -59 219 -49 L223 -45 L228 -39 L236 -31 L269 5 L270 3 Q272 2 274 0 Q276 -2 275 -5 Z " />
</font>
</svg>
