<?xml version="1.0" encoding="UTF-8"?>
<svg xmlns="http://www.w3.org/2000/svg" xmlns:xlink="http://www.w3.org/1999/xlink" version="1.2" >
<font id="Fractis Sans Outline">
<font-face  font-family="Fractis" units-per-em="1000" ascent="750" descent="-250" font-style="normal" font-weight="400" font-stretch="normal" cap-height="716" x-height="716" underline-position="-75" underline-thickness="50" />
<missing-glyph  horiz-adv-x="191" d="" />
<glyph glyph-name="NULL" d="" />
<glyph glyph-name="CR" unicode="&#xd;" horiz-adv-x="191" d="" />
<glyph glyph-name="space" unicode="&#x20;" horiz-adv-x="191" d="" />
<glyph glyph-name="exclam" unicode="&#x21;" horiz-adv-x="220" d="M45 -10 L175 -10 L175 723 L45 723 L45 -10 L45 -10 Z M54 714 L166 714 L166 0 L54 0 L54 714 L54 714 Z M45 -198 L175 -198 L175 -89 L45 -89 L45 -198 L45 -198 Z M54 -99 L166 -99 L166 -189 L54 -189 L54 -99 L54 -99 Z " />
<glyph glyph-name="quotedbl" unicode="&#x22;" horiz-adv-x="315" d="M23 606 L60 606 L53 506 L107 506 L153 609 L154 728 L23 728 L23 606 L23 606 Z M32 718 L144 718 L144 612 L101 516 L63 516 L70 615 L32 615 L32 718 L32 718 Z M160 606 L197 606 L190 506 L245 506 L290 609 L291 728 L160 728 L160 606 L160 606 Z M170 718 L281 718 L281 612 L238 516 L200 516 L208 615 L170 615 L170 718 L170 718 Z " />
<glyph glyph-name="numbersign" unicode="&#x23;" horiz-adv-x="465" d="M376 505 L282 505 L273 414 L218 414 L227 505 L133 505 L124 414 L59 414 L50 335 L115 335 L107 260 L43 260 L34 181 L99 181 L88 77 L181 77 L192 181 L247 181 L236 77 L330 77 L342 181 L401 181 L409 260 L350 260 L358 335 L417 335 L426 414 L366 414 L376 505 L376 505 Z M415 404 L408 345 L350 345 L340 250 L398 250 L393 191 L333 191 L322 87 L247 87 L258 191 L184 191 L172 87 L98 87 L110 191 L45 191 L52 250 L116 250 L125 345 L61 345 L67 404 L132 404 L142 495 L216 495 L207 404 L282 404 L291 495 L365 495 L356 404 L415 404 L415 404 Z M190 250 L265 250 L275 345 L200 345 L190 250 L190 250 Z M209 335 L264 335 L256 260 L201 260 L209 335 L209 335 Z " />
<glyph glyph-name="dollar" unicode="&#x24;" horiz-adv-x="417" d="M330 632 C314 645 296 655 277 662 L277 720 L147 720 L147 663 C127 656 109 646 93 632 C60 605 43 573 43 534 L43 340 C43 304 58 273 87 247 C120 216 161 201 208 201 L216 201 C237 201 247 192 247 173 L247 -29 C247 -37 244 -43 237 -48 C230 -54 221 -57 211 -57 C201 -57 193 -54 186 -48 C180 -43 176 -37 176 -29 L176 167 L43 167 L43 -31 C47 -66 66 -96 98 -120 C113 -131 129 -139 147 -145 L147 -201 L277 -201 L277 -145 C294 -139 310 -131 325 -120 C357 -96 376 -66 380 -30 L380 173 C381 198 375 223 363 247 C353 269 338 286 319 299 C296 314 266 322 231 322 L208 322 C198 322 191 325 184 330 C179 336 176 342 176 350 L176 546 C176 554 180 560 186 566 C193 571 201 574 211 574 C221 574 230 571 237 566 C244 560 247 554 247 546 L247 349 L380 349 L380 534 C380 573 363 605 330 632 L330 632 Z M370 359 L257 359 L257 546 C257 557 252 566 243 573 C234 580 223 584 211 584 C199 584 189 580 180 573 C171 566 167 557 167 546 L167 350 C167 339 170 330 178 323 C186 316 196 312 208 312 L231 312 C264 312 292 305 314 291 C331 279 345 263 355 243 C366 220 371 197 370 173 L370 -29 C367 -62 350 -90 319 -112 C305 -123 288 -132 271 -137 L268 -138 L268 -191 L156 -191 L156 -139 L153 -138 C135 -132 119 -123 104 -112 C74 -90 57 -62 53 -30 L53 157 L167 157 L167 -29 C167 -40 171 -49 180 -56 C189 -63 199 -66 211 -66 C223 -66 234 -63 243 -56 C252 -49 257 -40 257 -29 L257 173 C257 190 249 211 216 211 L208 211 C163 211 124 225 93 254 C67 279 53 307 53 340 L53 534 C53 569 69 600 99 625 C115 638 133 648 153 655 L156 656 L156 711 L268 711 L268 655 L271 654 C290 648 308 638 324 625 C355 600 370 569 370 534 L370 359 L370 359 Z " />
<glyph glyph-name="percent" unicode="&#x25;" horiz-adv-x="613" d="M499 719 L411 719 L103 -194 L101 -201 L189 -201 L497 713 L499 719 L499 719 Z M182 -191 L115 -191 L418 710 L486 710 L182 -191 L182 -191 Z M537 131 C513 145 485 153 453 153 C419 153 390 145 366 131 C342 117 330 98 330 77 L330 -126 C330 -147 342 -165 366 -179 C390 -194 419 -201 453 -201 C485 -201 513 -194 537 -179 C561 -165 574 -147 574 -126 L574 77 C574 98 561 117 537 131 L537 131 Z M564 -126 C564 -144 553 -159 532 -171 C510 -184 483 -191 453 -191 C421 -191 394 -184 371 -171 C350 -159 340 -144 340 -126 L340 77 C340 95 350 110 371 123 C394 136 421 143 453 143 C483 143 510 136 532 123 L532 123 C553 110 564 95 564 77 L564 -126 L564 -126 Z M475 100 C460 108 442 107 429 100 C422 96 418 90 418 83 L418 -132 C418 -139 422 -144 429 -149 C436 -152 444 -154 453 -154 C461 -154 468 -152 475 -149 C482 -144 485 -139 485 -132 L485 83 C485 90 482 95 475 100 L475 100 Z M476 -132 C476 -134 476 -137 471 -140 C459 -146 443 -145 434 -140 C428 -137 428 -133 428 -132 L428 83 C428 84 428 88 434 92 C439 95 445 96 453 96 C459 96 465 94 470 92 C474 89 476 86 476 83 L476 -132 L476 -132 Z M179 418 C186 422 190 428 190 434 L190 649 C190 656 186 662 179 667 C164 674 146 674 133 666 C126 662 122 656 122 649 L122 434 C122 428 126 422 133 418 C140 414 148 412 157 412 C165 412 172 414 179 418 L179 418 Z M138 426 C132 430 132 433 132 434 L132 649 C132 651 132 654 138 658 C143 661 149 662 157 662 C163 662 169 661 174 659 C178 656 180 653 180 649 L180 434 C180 433 180 430 175 426 C163 420 147 421 138 426 L138 426 Z M241 387 C265 401 278 419 278 440 L278 643 C278 665 265 683 241 697 C217 712 189 719 157 719 C123 719 94 712 71 697 C46 683 34 665 34 643 L34 440 C34 419 46 401 71 387 C94 373 123 366 157 366 C189 366 217 373 241 387 L241 387 Z M44 440 L44 643 C44 661 54 676 76 689 C98 703 125 710 157 710 C187 710 214 703 236 689 C257 676 268 661 268 643 L268 440 C268 422 257 408 236 395 L236 395 C214 382 187 375 157 375 C125 375 98 382 75 395 C54 408 44 422 44 440 L44 440 Z " />
<glyph glyph-name="ampersand" unicode="&#x26;" horiz-adv-x="458" d="M154 171 L154 -63 C154 -75 158 -86 167 -94 C176 -103 187 -107 200 -107 C213 -107 223 -103 232 -94 C241 -86 246 -75 246 -63 L246 214 L203 214 C170 210 154 196 154 171 L154 171 Z M236 205 L236 -63 C236 -73 232 -81 225 -87 C218 -94 210 -98 200 -98 C189 -98 181 -94 173 -87 C167 -81 163 -73 163 -63 L163 171 C163 190 177 201 203 205 L236 205 L236 205 Z M362 324 L236 324 L236 313 L220 313 C199 313 183 317 174 324 C167 331 163 339 163 349 L163 582 C163 592 167 600 173 606 C181 613 189 617 200 617 C210 617 218 613 225 606 C232 599 236 592 236 582 L236 391 L362 391 L362 568 C362 611 346 648 315 679 C283 709 244 725 200 725 C155 725 116 709 84 679 C53 648 37 611 37 568 L37 362 C37 324 50 289 76 260 C50 231 37 197 37 157 L37 -49 C37 -92 53 -130 84 -160 C116 -191 155 -206 200 -206 C237 -206 272 -194 302 -171 C342 -135 361 -98 362 -53 L362 205 L413 205 L413 313 L362 313 L362 324 L362 324 Z M403 303 L403 214 L353 214 L352 -53 C352 -95 334 -130 296 -164 C268 -185 235 -196 200 -196 C157 -196 121 -182 91 -153 C61 -125 47 -89 47 -49 L47 157 C47 196 60 229 86 257 L89 260 L86 264 C60 292 47 325 47 362 L47 568 C47 608 61 643 91 672 C121 701 157 715 200 715 C242 715 278 701 308 672 C338 643 353 608 353 568 L353 401 L246 401 L246 582 C246 594 241 605 232 613 C223 622 213 626 200 626 C187 626 176 622 167 613 C158 605 154 594 154 582 L154 349 C154 336 158 325 168 317 C179 308 197 303 220 303 L246 303 L246 314 L353 314 L353 303 L403 303 L403 303 Z " />
<glyph glyph-name="quotesingle" unicode="&#x27;" horiz-adv-x="156" d="M42 506 L96 506 L142 609 L143 728 L12 728 L12 606 L49 606 L42 506 L42 506 Z M22 615 L22 718 L133 718 L133 612 L90 516 L52 516 L60 615 L22 615 L22 615 Z " />
<glyph glyph-name="parenleft" unicode="&#x28;" horiz-adv-x="252" d="M208 733 C162 733 122 720 89 693 C56 665 40 632 40 594 L40 -77 C40 -115 56 -148 89 -175 C122 -202 162 -215 208 -215 C208 -215 208 -215 208 -215 L227 -214 L227 -113 L217 -115 L215 -116 C212 -116 210 -116 208 -116 C198 -116 189 -114 182 -108 C175 -103 172 -96 172 -89 L172 606 C172 614 175 620 182 626 C189 632 198 635 208 635 C210 635 213 634 216 634 L227 629 L227 732 L216 733 L208 733 L208 733 Z M217 643 C214 644 211 644 208 644 C196 644 185 641 176 633 C167 626 162 617 162 606 L162 -89 C162 -99 167 -108 176 -115 C185 -122 196 -126 208 -126 C210 -126 213 -126 217 -125 L217 -125 L217 -205 L208 -206 C164 -206 126 -193 95 -168 C65 -142 50 -112 50 -77 L50 594 C50 629 65 660 95 685 C126 711 164 723 208 723 L216 723 L217 723 L217 643 L217 643 Z " />
<glyph glyph-name="parenright" unicode="&#x29;" horiz-adv-x="253" d="M163 692 C131 718 91 732 45 732 L36 732 L25 731 L25 628 L32 631 L37 632 C40 633 42 633 45 633 C55 633 63 630 71 624 C77 619 80 613 80 605 L80 -90 C80 -97 77 -104 71 -109 C63 -115 55 -118 45 -118 C43 -118 40 -117 37 -117 L25 -114 L25 -215 L45 -216 C91 -216 131 -203 163 -176 C196 -149 213 -116 213 -78 L213 593 C213 631 196 664 163 692 L163 692 Z M203 -78 C203 -113 187 -144 157 -169 C126 -194 89 -207 45 -207 L35 -206 L35 -127 L36 -127 C39 -127 42 -127 45 -127 C57 -127 67 -124 77 -116 C85 -109 90 -100 90 -90 L90 605 C90 616 85 625 77 632 C68 639 57 643 45 643 C41 643 38 643 35 642 L35 722 L45 722 C89 722 126 709 157 684 C187 659 203 628 203 593 L203 -78 L203 -78 Z " />
<glyph glyph-name="asterisk" unicode="&#x2a;" horiz-adv-x="299" d="M282 665 L226 715 L191 680 L192 728 L112 728 L112 680 L78 715 L22 665 L95 601 L22 538 L78 487 L112 524 L112 474 L192 474 L191 524 L225 487 L282 538 L207 601 L282 665 L282 665 Z M269 537 L226 499 L182 548 L183 483 L121 483 L121 548 L78 499 L35 538 L108 601 L35 665 L78 703 L121 657 L121 719 L183 719 L182 657 L226 703 L269 665 L193 601 L269 537 L269 537 Z " />
<glyph glyph-name="plus" unicode="&#x2b;" horiz-adv-x="325" d="M223 399 L103 399 L103 315 L10 315 L10 206 L103 206 L103 122 L223 122 L223 206 L316 206 L316 315 L223 315 L223 399 L223 399 Z M306 306 L306 216 L213 216 L213 132 L113 132 L113 216 L19 216 L19 306 L113 306 L113 390 L213 390 L213 306 L306 306 L306 306 Z " />
<glyph glyph-name="comma" unicode="&#x2c;" horiz-adv-x="158" d="M15 -212 L50 -212 L43 -300 L94 -300 L137 -209 L138 -103 L15 -103 L15 -212 L15 -212 Z M25 -112 L128 -112 L128 -206 L88 -291 L53 -291 L60 -202 L25 -202 L25 -112 L25 -112 Z " />
<glyph glyph-name="hyphen" unicode="&#x2d;" horiz-adv-x="280" d="M14 206 L264 206 L264 315 L14 315 L14 206 L14 206 Z M24 306 L255 306 L255 216 L24 216 L24 306 L24 306 Z " />
<glyph glyph-name="period" unicode="&#x2e;" horiz-adv-x="130" d="M3 -212 L126 -212 L126 -103 L3 -103 L3 -212 L3 -212 Z M13 -113 L116 -113 L116 -203 L13 -203 L13 -113 L13 -113 Z " />
<glyph glyph-name="slash" unicode="&#x2f;" horiz-adv-x="334" d="M166 771 L43 -264 L42 -270 L166 -270 L289 765 L289 771 L166 771 L166 771 Z M157 -260 L53 -260 L174 761 L279 761 L157 -260 L157 -260 Z " />
<glyph glyph-name="zero" unicode="0" horiz-adv-x="458" d="M260 629 C251 636 241 640 228 640 C216 640 206 636 197 629 C188 622 183 613 183 602 L183 -86 C183 -97 188 -106 197 -113 C206 -120 216 -124 228 -124 C240 -124 251 -120 260 -113 C269 -106 274 -97 274 -86 L274 602 C274 612 269 621 260 629 L260 629 Z M264 -86 C264 -94 261 -100 254 -106 C247 -111 238 -114 228 -114 C218 -114 210 -111 203 -106 C196 -100 193 -94 193 -86 L193 602 C193 610 196 616 203 621 C210 627 218 630 228 630 C238 630 247 627 254 621 C261 616 264 610 264 602 L264 -86 L264 -86 Z M347 688 C315 714 275 728 228 728 C183 728 143 714 109 688 C76 661 60 628 60 590 L60 -75 C60 -112 76 -145 109 -172 C143 -199 183 -212 228 -212 C275 -212 315 -199 347 -172 C381 -145 398 -112 398 -75 L398 590 C398 628 381 661 347 688 L347 688 Z M388 -75 C388 -109 372 -140 341 -165 C310 -190 272 -203 228 -203 C185 -203 147 -190 115 -165 C85 -140 69 -109 69 -75 L69 590 C69 625 85 655 115 680 C147 705 185 718 228 718 C272 718 310 705 341 680 C372 655 388 625 388 590 L388 -75 L388 -75 Z " />
<glyph glyph-name="one" unicode="1" horiz-adv-x="251" d="M13 608 L60 608 L60 -197 L191 -197 L191 716 L70 716 L13 608 L13 608 Z M182 707 L182 -187 L69 -187 L69 618 L29 618 L75 707 L182 707 L182 707 Z " />
<glyph glyph-name="two" unicode="2" horiz-adv-x="451" d="M58 591 L58 350 L191 350 L191 603 C191 610 194 617 202 622 C209 628 217 631 227 631 C237 631 245 628 253 622 C259 617 263 610 263 603 L263 561 L263 519 C263 447 263 399 263 377 C261 328 237 284 191 246 C142 205 110 170 88 133 C70 101 57 67 57 -85 L57 -199 L395 -199 L395 -91 L188 -91 L188 36 C188 58 199 83 221 109 C238 130 298 181 299 182 C350 226 381 278 391 338 C394 355 395 373 395 392 L396 507 L395 563 L395 591 C395 629 379 662 346 689 C313 715 273 728 227 728 C181 728 141 715 108 689 C75 662 58 629 58 591 L58 591 Z M227 719 C271 719 309 706 340 681 C370 656 386 626 386 591 L387 507 L386 392 C386 374 384 357 382 340 C372 282 342 231 293 189 C290 187 231 136 214 116 C190 87 179 60 179 36 L179 -100 L385 -100 L385 -189 L66 -189 L66 -85 C66 65 79 98 96 128 C118 165 149 199 197 238 C245 278 271 325 272 377 C273 399 273 447 273 519 L272 561 L272 603 C272 613 268 622 259 629 C250 637 239 640 227 640 C215 640 204 637 196 629 C186 622 181 613 181 603 L181 359 L68 359 L68 591 C68 626 83 656 114 681 C145 706 183 719 227 719 L227 719 Z " />
<glyph glyph-name="three" unicode="3" horiz-adv-x="445" d="M61 570 C61 357 61 354 62 353 L62 349 L190 349 L190 584 C190 594 193 602 201 609 C208 616 217 619 227 619 C238 619 247 616 254 609 C262 602 265 594 265 584 L265 350 C265 339 261 331 254 325 C246 318 226 313 219 312 L215 311 L215 205 L219 204 C219 204 265 198 265 170 L265 -66 C265 -76 262 -84 254 -91 C247 -98 238 -101 227 -101 C217 -101 208 -98 201 -91 C193 -84 190 -76 190 -66 L190 146 L61 146 L61 -52 C61 -96 77 -134 109 -165 C142 -195 182 -211 227 -211 C273 -211 313 -195 346 -165 C378 -134 394 -96 394 -52 L394 156 C394 195 380 230 353 260 C380 289 394 324 394 363 L394 570 C394 614 378 651 346 682 C313 713 273 729 227 729 C182 729 142 713 109 682 C77 651 61 614 61 570 L61 570 Z M227 719 C271 719 308 704 339 675 C369 646 385 611 385 570 L385 363 C385 325 371 292 343 263 L340 260 L343 257 C371 228 385 194 385 156 L385 -52 C385 -93 369 -129 339 -158 C308 -187 271 -202 227 -202 C184 -202 147 -187 116 -158 C86 -129 70 -93 70 -52 L70 136 L180 136 L180 -66 C180 -78 185 -89 194 -98 C203 -106 214 -111 227 -111 C240 -111 252 -106 261 -98 C270 -89 275 -78 275 -66 L275 170 C274 201 237 211 224 213 L224 304 C232 305 251 310 260 317 C270 325 275 336 275 350 L275 584 C275 596 270 607 261 616 C252 625 240 629 227 629 C214 629 203 625 194 616 C185 607 180 596 180 584 L180 359 L71 359 C70 376 70 447 70 570 C70 611 86 646 116 675 C147 704 184 719 227 719 L227 719 Z " />
<glyph glyph-name="four" unicode="4" horiz-adv-x="457" d="M60 716 L60 108 C60 78 71 76 90 76 L266 76 L266 -197 L397 -197 L397 76 L430 76 L430 186 L397 186 L397 716 L266 716 L266 186 L191 186 L191 716 L60 716 L60 716 Z M275 177 L275 707 L387 707 L388 177 L420 177 L420 86 L388 86 L388 -187 L276 -187 L275 86 L90 86 C74 86 69 86 69 108 L69 707 L182 707 L182 177 L275 177 L275 177 Z " />
<glyph glyph-name="five" unicode="5" horiz-adv-x="435" d="M388 716 L61 716 L60 260 L60 255 L211 255 C245 255 262 245 263 227 L263 -65 C263 -75 259 -83 252 -90 C245 -97 236 -100 225 -100 C215 -100 206 -97 198 -90 C191 -83 187 -75 187 -65 L187 213 L58 213 L58 -51 C58 -95 75 -133 108 -164 C140 -194 179 -210 225 -210 C271 -210 311 -194 343 -164 C376 -133 392 -95 392 -51 L392 227 C392 263 373 304 345 330 C320 352 291 363 258 363 L248 363 C223 363 204 363 190 363 L189 608 L388 608 L388 716 L388 716 Z M378 618 L180 618 L180 353 L185 353 C200 354 220 354 248 354 L258 354 C289 354 316 343 338 323 L338 323 C365 299 382 261 382 227 L382 -51 C382 -92 367 -128 337 -157 C306 -186 268 -201 225 -201 C182 -201 145 -186 114 -157 C84 -128 68 -92 68 -51 L68 204 L178 204 L178 -65 C178 -77 183 -88 192 -97 C201 -105 213 -110 225 -110 C238 -110 249 -105 258 -97 C268 -88 272 -77 272 -65 L272 227 C272 244 261 264 211 265 L69 265 L70 707 L378 707 L378 618 L378 618 Z " />
<glyph glyph-name="six" unicode="6" horiz-adv-x="465" d="M349 277 C312 306 268 310 230 310 C218 310 206 309 194 307 L194 421 L194 602 C194 610 197 616 203 622 C211 627 219 630 230 630 C240 630 248 627 255 622 C262 616 265 610 265 603 L266 398 L398 398 L398 591 C398 628 381 661 348 688 C315 715 275 728 230 728 C183 728 143 715 111 688 C77 661 60 628 60 591 L60 -73 C60 -111 77 -144 111 -171 C143 -197 183 -211 230 -211 C275 -211 315 -197 348 -171 C381 -144 398 -111 398 -73 L398 172 C398 213 380 251 349 277 L349 277 Z M389 -73 C389 -108 373 -139 342 -163 C311 -189 273 -202 230 -202 C185 -202 147 -189 117 -163 C85 -139 70 -108 70 -73 L70 591 C70 625 86 656 117 681 C147 706 185 718 230 718 C273 718 311 706 342 681 C373 656 389 625 389 591 L389 407 L275 407 L275 603 C275 613 270 622 261 629 C252 636 242 639 230 639 C217 639 207 636 198 629 C189 622 184 613 184 602 L184 295 L190 296 C203 299 216 300 230 300 C267 300 309 297 343 269 C372 245 389 210 389 172 L389 -73 L389 -73 Z M261 211 C253 218 242 221 230 221 C218 221 207 218 198 211 C189 204 185 195 185 184 L185 -89 C186 -98 190 -105 198 -112 C207 -119 217 -123 230 -123 C242 -123 252 -119 261 -112 C270 -105 275 -95 275 -85 L275 71 L275 71 L275 184 C275 195 270 204 261 211 L261 211 Z M266 96 L265 -85 C265 -92 262 -99 255 -105 C248 -110 240 -113 230 -113 C219 -113 211 -110 204 -105 C198 -100 195 -94 194 -88 L194 184 C194 192 197 198 204 203 C211 209 220 212 230 212 C240 212 248 209 255 203 C262 198 266 192 266 184 L266 96 L266 96 Z " />
<glyph glyph-name="seven" unicode="7" horiz-adv-x="352" d="M213 -197 L322 716 L39 716 L39 608 L176 608 L82 -197 L213 -197 L213 -197 Z M49 618 L49 707 L312 707 L205 -187 L93 -187 L187 618 L49 618 L49 618 Z " />
<glyph glyph-name="eight" unicode="8" horiz-adv-x="420" d="M206 325 C206 325 206 325 206 325 C228 325 252 334 252 354 L252 611 C252 622 247 631 238 638 C229 646 218 650 206 650 C193 650 183 646 174 638 C165 631 160 622 160 611 L160 355 C160 334 184 325 206 325 L206 325 Z M169 611 C169 619 173 625 180 631 L180 631 C187 637 196 640 206 640 C216 640 224 637 232 631 C239 625 242 619 242 611 L242 354 C242 341 224 334 206 334 C206 334 206 334 206 334 C188 334 169 341 169 355 L169 611 L169 611 Z M240 219 C223 228 195 228 178 218 C169 213 164 205 164 196 L164 -86 C164 -96 169 -105 178 -112 C187 -119 197 -123 209 -123 C221 -123 232 -119 241 -112 L241 -112 C250 -105 255 -96 255 -86 L255 195 C255 205 250 213 240 219 L240 219 Z M235 -105 C228 -110 219 -113 209 -113 C199 -113 191 -110 184 -105 C177 -99 173 -93 173 -86 L173 196 C173 202 177 207 183 210 C190 214 200 216 210 216 C219 216 228 215 235 211 C242 207 245 202 245 195 L245 -86 C245 -93 242 -99 235 -105 L235 -105 Z M379 591 C379 629 362 662 328 689 C296 715 256 728 209 728 C163 728 123 715 90 689 C57 662 41 629 41 591 L41 402 C41 352 73 309 83 297 C41 253 41 178 41 174 L41 -74 C41 -112 57 -144 90 -171 C123 -198 163 -211 209 -211 C256 -211 296 -198 328 -171 C362 -144 379 -112 379 -74 L378 174 C378 178 378 253 337 297 C347 309 379 352 379 402 L379 591 L379 591 Z M369 402 C369 348 327 301 327 300 L323 297 L327 294 C368 252 369 175 369 174 L369 -74 C369 -109 353 -139 322 -164 C291 -189 253 -202 209 -202 C166 -202 128 -189 96 -164 C66 -139 50 -109 50 -74 L51 174 C51 175 51 252 93 294 L96 297 L93 300 C92 301 50 347 50 402 L50 591 C50 626 66 656 96 681 C128 706 166 719 209 719 C253 719 291 706 322 681 C353 656 369 626 369 591 L369 402 L369 402 Z " />
<glyph glyph-name="nine" unicode="9" horiz-adv-x="452" d="M255 640 C246 647 235 650 223 650 C211 650 200 646 191 639 C182 632 177 623 177 612 L177 340 C177 329 181 320 191 313 C200 306 210 302 222 302 C235 302 246 306 255 313 C264 320 268 329 268 340 L268 616 C267 625 263 633 255 640 L255 640 Z M259 340 C259 332 255 326 249 321 C241 315 233 312 222 312 C212 312 204 315 197 321 C190 326 186 332 186 340 L187 612 C187 620 190 626 197 632 C204 638 213 640 223 640 C233 640 242 638 249 632 C255 627 258 621 259 615 L259 340 L259 340 Z M341 688 C309 714 269 728 222 728 C176 728 136 714 103 688 C70 661 54 628 54 590 L53 344 C54 296 72 272 103 247 C136 221 176 207 222 207 C234 207 246 208 258 210 L258 -85 C258 -93 255 -99 248 -105 C241 -110 232 -113 222 -113 C212 -113 204 -110 197 -105 C190 -99 186 -88 186 -80 L186 133 L53 133 L54 -74 C54 -111 70 -144 103 -171 C136 -198 176 -211 222 -211 C269 -211 309 -198 341 -171 C375 -144 392 -111 392 -74 L392 590 C392 628 375 661 341 688 L341 688 Z M382 -74 C382 -108 366 -139 335 -164 C304 -189 266 -202 222 -202 C179 -202 141 -189 109 -164 C79 -139 63 -108 63 -74 L63 124 L177 124 L176 -80 C176 -90 181 -105 191 -112 C200 -119 210 -123 222 -123 C234 -123 245 -119 254 -112 C263 -105 268 -96 268 -85 L268 222 L262 221 C249 218 235 217 222 217 C178 217 140 229 109 254 C80 278 64 300 63 344 L63 590 C63 625 79 656 109 680 C141 706 179 718 222 718 C266 718 304 706 335 680 L335 680 C366 655 382 625 382 590 L382 -74 L382 -74 Z " />
<glyph glyph-name="colon" unicode="&#x3a;" horiz-adv-x="178" d="M32 -3 L149 -3 L149 106 L32 106 L32 -3 L32 -3 Z M42 96 L139 96 L139 6 L42 6 L42 96 L42 96 Z M32 410 L149 410 L149 519 L32 519 L32 410 L32 410 Z M42 509 L139 509 L139 419 L42 419 L42 509 L42 509 Z " />
<glyph glyph-name="semicolon" unicode="&#x3b;" horiz-adv-x="179" d="M34 411 L149 411 L149 520 L34 520 L34 411 L34 411 Z M44 510 L139 510 L139 420 L44 420 L44 510 L44 510 Z M34 -2 L66 -2 L60 -91 L108 -91 L148 1 L149 107 L34 107 L34 -2 L34 -2 Z M44 97 L139 97 L139 3 L102 -81 L70 -81 L77 7 L44 7 L44 97 L44 97 Z " />
<glyph glyph-name="less" unicode="&#x3c;" horiz-adv-x="446" d="M25 300 C25 280 38 262 57 258 L407 148 L407 253 L256 300 L407 347 L407 451 L57 342 C38 338 25 320 25 300 L25 300 Z M397 438 L397 354 L223 300 L397 246 L397 162 L60 267 C45 271 34 284 34 300 C34 316 45 329 60 333 L397 438 L397 438 Z " />
<glyph glyph-name="equal" unicode="&#x3d;" horiz-adv-x="294" d="M22 273 L272 273 L272 382 L22 382 L22 273 L22 273 Z M31 372 L262 372 L262 283 L31 283 L31 372 L31 372 Z M22 119 L272 119 L272 228 L22 228 L22 119 L22 119 Z M31 219 L262 219 L262 129 L31 129 L31 219 L31 219 Z " />
<glyph glyph-name="greater" unicode="&#x3e;" horiz-adv-x="446" d="M388 342 L39 451 L39 347 L190 300 L39 253 L39 148 L388 258 C407 262 421 280 421 300 C421 320 407 338 388 342 L388 342 Z M385 267 L48 162 L48 246 L222 300 L48 354 L48 438 L386 333 C401 329 411 316 411 300 C411 284 401 271 385 267 L385 267 Z " />
<glyph glyph-name="question" unicode="&#x3f;" horiz-adv-x="419" d="M127 -208 L258 -208 L258 -99 L127 -99 L127 -208 L127 -208 Z M137 -109 L249 -109 L249 -199 L137 -199 L137 -109 L137 -109 Z M328 686 C295 713 256 726 209 726 C164 726 124 713 91 686 C58 659 42 626 42 588 L42 343 L175 343 L175 600 C175 607 178 614 184 619 C191 625 199 627 209 627 C219 627 228 625 235 619 C242 614 245 607 245 600 L245 340 C245 323 244 310 241 303 C239 296 234 289 226 283 L191 256 C181 248 170 237 159 222 C150 209 143 196 138 182 C131 165 127 148 127 130 L127 -20 L258 -20 L258 145 C258 154 262 161 270 168 L349 251 C360 262 368 277 373 294 C376 308 377 323 377 341 L378 588 C378 626 361 659 328 686 L328 686 Z M368 341 C368 324 366 309 363 297 C359 281 352 267 342 257 L263 175 C254 167 249 157 249 145 L249 -10 L137 -10 L137 130 C137 146 140 163 147 179 C151 192 158 204 167 216 C177 230 187 241 197 248 L232 275 C241 283 247 292 250 300 C253 308 254 320 255 338 L255 600 C255 610 250 619 241 627 C232 633 222 637 209 637 C197 637 187 633 178 626 C169 619 165 610 165 600 L165 353 L51 353 L51 588 C51 623 67 653 97 679 C128 704 166 717 209 717 C253 717 291 704 322 679 C353 653 368 623 368 588 L368 341 L368 341 Z " />
<glyph glyph-name="at" unicode="&#x40;" horiz-adv-x="785" d="M421 283 L414 280 C399 274 386 266 377 258 C368 252 362 244 357 235 C353 225 352 217 352 210 L352 75 C352 70 352 61 358 53 C365 43 377 38 394 38 C408 38 419 42 426 49 C432 55 435 64 435 74 L435 291 L421 283 L421 283 Z M419 56 C414 51 406 48 394 48 C380 48 371 51 366 59 C362 64 362 71 362 75 L362 211 C362 216 363 223 366 231 C370 238 375 245 383 251 C392 259 404 266 417 272 L425 275 L425 275 L425 74 C425 71 426 62 419 56 L419 56 Z M641 670 L641 670 C572 724 489 751 392 751 C296 751 212 724 144 670 C75 616 40 550 40 474 L40 26 C40 -50 75 -116 144 -170 C212 -223 296 -250 392 -250 L685 -250 L687 -146 L392 -148 C331 -148 278 -130 233 -97 C190 -63 168 -21 168 26 L168 474 C168 521 190 562 233 596 C278 630 331 648 392 648 C453 648 507 630 552 596 C595 562 617 521 617 474 L617 179 C617 121 610 82 597 63 C593 56 588 51 584 48 C582 48 580 48 578 48 L546 48 L546 444 C546 478 531 507 501 530 C471 553 435 565 393 565 C352 565 315 553 286 530 C255 507 240 478 240 444 L240 385 L362 439 L362 454 C362 461 365 466 370 471 C377 476 385 478 393 478 C402 478 410 476 416 471 C422 466 425 461 425 454 L425 387 C407 378 306 329 293 320 C265 298 248 274 242 248 C241 241 240 235 240 230 L240 54 C240 30 248 8 265 -12 C280 -30 303 -57 457 -56 L572 -56 C641 -56 689 -30 716 22 C735 58 745 111 745 179 L745 474 C745 550 710 616 641 670 L641 670 Z M735 179 C735 113 726 61 708 27 C682 -22 637 -46 572 -46 L457 -46 C308 -47 286 -23 272 -6 C257 12 249 32 249 54 L249 230 C249 235 250 240 252 246 C257 270 273 292 299 312 C309 320 399 364 432 379 L435 381 L435 454 C435 464 430 472 422 479 C414 485 404 488 393 488 C383 488 373 485 364 479 C356 472 352 463 352 454 L352 445 L249 400 L249 444 C249 475 263 501 292 522 C319 544 354 555 393 555 C433 555 467 544 495 522 C523 501 536 475 536 444 L536 38 L578 38 C581 38 583 38 586 39 L588 39 C594 43 600 49 605 57 C620 79 627 119 627 179 L627 474 C627 524 603 568 558 604 C511 639 456 657 392 657 C329 657 274 639 227 603 C182 568 158 524 158 474 L158 26 C158 -25 182 -68 227 -104 C274 -139 329 -157 392 -157 L677 -156 L676 -241 L392 -241 C298 -241 217 -214 149 -163 C83 -111 50 -47 50 26 L50 474 C50 547 83 610 149 663 C217 715 298 741 392 741 C486 741 568 715 635 663 C702 610 735 547 735 474 L735 179 L735 179 Z " />
<glyph glyph-name="A" unicode="A" horiz-adv-x="391" d="M131 716 L9 -192 L8 -198 L139 -198 L153 -108 L238 -108 L252 -198 L383 -198 L260 716 L131 716 L131 716 Z M260 -188 L247 -99 L145 -99 L131 -188 L19 -188 L139 706 L252 706 L373 -188 L260 -188 L260 -188 Z M191 366 L159 -10 L232 -10 L200 366 L191 366 L191 366 Z M169 -1 L196 309 L222 -1 L169 -1 L169 -1 Z " />
<glyph glyph-name="B" unicode="B" horiz-adv-x="423" d="M240 620 C231 627 220 631 208 631 L163 631 L163 333 L167 333 C170 333 171 333 173 333 C210 333 230 338 242 350 C250 357 253 368 253 384 L253 594 C253 604 249 613 240 620 L240 620 Z M244 384 C244 371 241 362 235 356 C226 347 206 343 173 343 C173 343 173 343 172 343 L172 621 L208 621 C218 621 227 618 234 612 C241 607 244 601 244 594 L244 384 L244 384 Z M377 366 L377 583 C377 621 360 656 328 681 C295 708 266 716 208 716 L40 716 L40 -197 L208 -197 C258 -197 292 -186 327 -159 C360 -132 377 -100 377 -64 L377 217 C377 263 354 282 340 290 C354 299 377 322 377 366 L377 366 Z M328 293 L316 288 L329 284 C330 284 368 274 368 217 L368 -64 C368 -97 352 -127 321 -151 C292 -174 264 -188 208 -188 L49 -188 L49 707 L208 707 C264 707 290 699 322 674 C352 651 368 618 368 583 L368 366 C368 312 330 294 328 293 L328 293 Z M253 201 C253 216 250 226 243 234 C230 247 206 248 168 248 C168 248 168 248 167 248 L163 248 L163 -111 L208 -111 C220 -111 231 -108 240 -101 C249 -94 253 -85 253 -75 L253 -75 C253 -73 253 126 253 201 L253 201 Z M234 -93 C227 -99 218 -102 208 -102 L172 -102 L172 238 C205 238 226 237 236 227 C241 221 244 213 244 201 C243 126 244 -73 244 -75 C244 -82 241 -88 234 -93 L234 -93 Z " />
<glyph glyph-name="C" unicode="C" horiz-adv-x="437" d="M342 688 C309 714 269 728 223 728 C177 728 137 714 104 688 C71 661 55 628 55 590 L55 -75 C55 -112 71 -145 104 -172 C137 -199 177 -212 223 -212 C269 -212 309 -199 342 -172 C375 -145 392 -112 392 -75 L392 184 L259 184 L259 -86 C259 -94 256 -100 249 -106 C242 -111 233 -114 223 -114 C213 -114 205 -111 198 -106 C191 -100 187 -94 187 -86 L187 602 C187 610 191 616 198 621 C205 627 213 630 223 630 C233 630 242 627 249 621 C256 616 259 610 259 602 L259 332 L392 332 L392 590 C392 628 375 661 342 688 L342 688 Z M383 342 L268 342 L268 602 C268 613 264 622 255 629 C246 636 235 640 223 640 C211 640 200 636 192 629 C182 622 178 613 178 602 L178 -86 C178 -97 182 -106 192 -113 C200 -120 211 -124 223 -124 C235 -124 246 -120 255 -113 C264 -106 268 -97 268 -86 L268 174 L383 174 L383 -75 C383 -109 367 -140 336 -165 C305 -190 267 -203 223 -203 C179 -203 142 -190 110 -165 C80 -140 64 -109 64 -75 L64 590 C64 625 80 656 110 681 C142 706 179 718 223 718 C267 718 305 706 336 681 C367 655 383 625 383 590 L383 342 L383 342 Z " />
<glyph glyph-name="D" unicode="D" horiz-adv-x="438" d="M340 681 C307 707 277 716 219 716 L50 716 L50 -198 L219 -198 C272 -198 307 -187 341 -161 C372 -136 388 -103 388 -64 L388 582 C388 622 372 656 340 681 L340 681 Z M379 -64 C379 -100 364 -130 335 -153 C303 -178 270 -188 219 -188 L60 -188 L60 706 L219 706 C275 706 303 698 334 674 C371 645 379 608 379 582 L379 -64 L379 -64 Z M251 620 C242 627 231 630 219 630 L173 630 L173 -112 L219 -112 C231 -112 242 -108 251 -101 C260 -94 264 -86 264 -75 L264 594 C264 604 260 613 251 620 L251 620 Z M255 -75 C255 -83 251 -89 245 -94 C238 -99 229 -102 219 -102 L183 -102 L183 621 L219 621 C229 621 238 618 245 612 C251 607 255 601 255 594 L255 -75 L255 -75 Z " />
<glyph glyph-name="E" unicode="E" horiz-adv-x="363" d="M60 -198 L312 -198 L312 -90 L191 -90 L191 205 L263 205 L263 313 L191 313 L191 608 L312 608 L312 716 L60 716 L60 -198 L60 -198 Z M70 706 L303 706 L303 617 L182 617 L182 303 L254 303 L254 214 L182 214 L182 -99 L303 -99 L303 -188 L70 -188 L70 706 L70 706 Z " />
<glyph glyph-name="F" unicode="F" horiz-adv-x="332" d="M65 -198 L196 -198 L196 205 L267 205 L267 313 L196 313 L196 608 L317 608 L317 716 L65 716 L65 -198 L65 -198 Z M74 706 L307 706 L307 617 L186 617 L186 303 L258 303 L258 214 L186 214 L186 -188 L74 -188 L74 706 L74 706 Z " />
<glyph glyph-name="G" unicode="G" horiz-adv-x="468" d="M352 688 C320 714 280 728 233 728 C187 728 147 714 114 688 C81 661 65 628 65 590 L65 -75 C65 -112 81 -145 114 -172 C147 -199 187 -212 233 -212 C280 -212 320 -199 352 -172 C386 -145 403 -112 403 -75 L403 313 L252 312 L251 204 L269 204 L269 -86 C269 -94 266 -100 259 -106 C252 -111 243 -114 233 -114 C223 -114 215 -111 208 -106 C201 -100 197 -94 197 -86 L197 602 C197 610 201 616 208 621 C215 627 223 630 233 630 C243 630 252 627 259 621 C266 616 269 610 269 602 L269 349 L403 349 L403 590 C403 628 386 661 352 688 L352 688 Z M393 358 L279 358 L279 602 C279 613 274 622 265 629 C256 636 245 640 233 640 C221 640 210 636 202 629 C193 622 188 613 188 602 L188 -86 C188 -97 193 -106 202 -113 C211 -120 221 -124 233 -124 C245 -124 256 -120 265 -113 C274 -106 279 -97 279 -86 L279 214 L261 214 L261 303 L393 303 L393 -75 C393 -109 377 -140 346 -165 C315 -190 277 -203 233 -203 C190 -203 152 -190 120 -165 C90 -140 74 -109 74 -75 L74 590 C74 625 90 656 120 681 C152 706 190 718 233 718 C277 718 315 706 346 681 C377 655 393 625 393 590 L393 358 L393 358 Z " />
<glyph glyph-name="H" unicode="H" horiz-adv-x="435" d="M254 313 L177 313 L177 716 L45 716 L45 -198 L177 -198 L177 205 L254 205 L254 -198 L385 -198 L385 716 L254 716 L254 313 L254 313 Z M264 706 L376 706 L376 -188 L264 -188 L264 215 L167 215 L167 -188 L55 -188 L55 706 L167 706 L167 303 L264 303 L264 706 L264 706 Z " />
<glyph glyph-name="I" unicode="I" horiz-adv-x="281" d="M75 -198 L206 -198 L206 716 L75 716 L75 -198 L75 -198 Z M84 706 L197 706 L197 -188 L84 -188 L84 706 L84 706 Z " />
<glyph glyph-name="J" unicode="J" horiz-adv-x="346" d="M140 -60 C140 -105 118 -112 95 -113 C74 -113 56 -110 39 -102 L33 -99 L33 -199 L36 -200 C56 -207 80 -210 106 -211 C109 -211 113 -211 116 -211 C177 -211 200 -204 232 -178 C266 -151 271 -110 271 -73 L271 716 L140 716 L140 -60 L140 -60 Z M149 706 L261 706 L261 -73 C261 -109 257 -146 226 -171 C194 -196 172 -202 106 -201 C82 -201 60 -198 42 -192 L42 -114 C58 -120 75 -123 95 -122 C121 -121 149 -113 149 -60 L149 706 L149 706 Z " />
<glyph glyph-name="K" unicode="K" horiz-adv-x="476" d="M306 716 L207 355 L207 716 L75 716 L75 -198 L207 -198 L207 164 L306 -198 L437 -198 L315 259 L437 716 L306 716 L306 716 Z M425 -188 L314 -188 L197 234 L197 -188 L85 -188 L85 706 L197 706 L197 284 L314 706 L425 706 L305 260 L305 259 L425 -188 L425 -188 Z " />
<glyph glyph-name="L" unicode="L" horiz-adv-x="327" d="M197 716 L65 716 L65 -198 L318 -198 L318 -90 L197 -90 L197 716 L197 716 Z M308 -99 L308 -188 L75 -188 L75 706 L187 706 L187 -99 L308 -99 L308 -99 Z " />
<glyph glyph-name="M" unicode="M" horiz-adv-x="588" d="M294 213 L191 712 L190 716 L60 716 L60 -198 L191 -198 L191 139 L236 -198 L349 -198 L396 147 L396 -198 L528 -198 L528 716 L396 716 L294 213 L294 213 Z M518 706 L518 -188 L406 -188 L406 211 L396 211 L341 -188 L244 -188 L191 204 L182 203 L182 -188 L69 -188 L69 706 L183 706 L294 170 L403 706 L518 706 L518 706 Z " />
<glyph glyph-name="N" unicode="N" horiz-adv-x="463" d="M267 366 L195 716 L65 716 L65 -198 L196 -198 L196 156 L267 -194 L268 -198 L398 -198 L398 716 L267 716 L267 366 L267 366 Z M277 706 L389 706 L389 -188 L276 -188 L187 250 L187 -188 L74 -188 L74 706 L187 706 L277 272 L277 706 L277 706 Z " />
<glyph glyph-name="O" unicode="O" horiz-adv-x="438" d="M338 688 C305 714 265 728 219 728 C173 728 133 714 100 688 C67 661 50 628 50 590 L50 -75 C50 -112 67 -145 100 -172 C133 -199 173 -212 219 -212 C265 -212 305 -199 338 -172 C371 -145 388 -112 388 -75 L388 590 C388 628 371 661 338 688 L338 688 Z M378 -75 C378 -109 363 -140 332 -165 C301 -190 263 -203 219 -203 C175 -203 137 -190 106 -165 C75 -140 59 -109 59 -75 L59 590 C59 625 75 656 106 681 C137 706 175 718 219 718 C263 718 301 706 332 681 C363 655 378 625 378 590 L378 -75 L378 -75 Z M251 629 C241 636 231 640 219 640 C206 640 196 636 188 629 C178 622 173 613 173 602 L173 -86 C173 -97 178 -106 187 -113 C196 -120 206 -124 219 -124 C231 -124 241 -120 251 -113 C259 -106 264 -97 264 -86 L264 602 C264 613 259 622 251 629 L251 629 Z M254 -86 C254 -94 251 -100 245 -106 C237 -111 229 -114 219 -114 C208 -114 200 -111 193 -106 C186 -100 183 -94 183 -86 L183 602 C183 610 186 616 193 621 C200 627 208 630 219 630 C229 630 237 627 245 621 C251 616 254 610 254 602 L254 -86 L254 -86 Z " />
<glyph glyph-name="P" unicode="P" horiz-adv-x="437" d="M218 630 L173 630 L173 271 L178 271 C178 271 178 271 178 271 C216 271 240 272 253 285 C260 292 263 303 263 318 C263 371 263 411 264 455 C264 493 264 535 264 591 C264 602 259 613 250 620 C241 627 230 630 218 630 L218 630 Z M254 455 C254 411 254 371 254 318 C254 305 251 297 246 292 C236 282 215 281 182 281 L182 620 L218 620 C228 620 237 618 244 612 C250 607 254 599 254 591 C254 535 254 493 254 455 L254 455 Z M340 680 C307 706 273 716 218 716 L50 716 L50 -197 L182 -197 L182 187 C248 187 387 190 387 302 L387 582 C387 622 371 656 340 680 L340 680 Z M378 302 C378 209 271 197 178 197 L173 197 L173 -188 L59 -188 L59 706 L218 706 C271 706 303 697 334 673 C363 650 378 619 378 582 L378 302 L378 302 Z " />
<glyph glyph-name="Q" unicode="Q" horiz-adv-x="468" d="M403 -75 L403 590 C403 628 386 661 353 688 C320 714 280 728 234 728 C188 728 148 714 115 688 C82 661 65 628 65 590 L65 -75 C65 -102 74 -127 92 -150 C117 -180 143 -198 168 -204 C191 -208 231 -210 263 -208 L326 -264 L420 -195 L381 -142 C395 -122 403 -99 403 -75 L403 -75 Z M406 -193 L327 -252 L267 -198 L265 -198 C233 -200 192 -199 170 -194 C147 -189 123 -173 100 -144 C83 -123 75 -100 75 -75 L75 590 C75 625 90 656 121 681 C152 706 190 718 234 718 C278 718 316 706 347 681 C378 656 393 625 393 590 L393 -75 C393 -98 386 -120 371 -140 L369 -142 L406 -193 L406 -193 Z M266 629 C256 636 246 640 234 640 C221 640 211 636 202 629 C193 622 189 613 189 602 L189 -86 C189 -97 193 -106 202 -113 C211 -120 221 -124 234 -124 C246 -124 256 -120 265 -113 L266 -113 C274 -106 279 -97 279 -86 L279 602 C279 613 274 622 266 629 L266 629 Z M269 -86 C269 -94 266 -100 260 -106 C252 -111 244 -114 234 -114 C224 -114 215 -111 208 -106 C202 -100 198 -94 198 -86 L198 602 C198 610 202 616 208 621 C215 627 224 630 234 630 C244 630 252 627 260 621 C266 616 269 610 269 602 L269 -86 L269 -86 Z " />
<glyph glyph-name="R" unicode="R" horiz-adv-x="458" d="M352 680 C319 706 283 716 229 716 L60 716 L60 -197 L193 -197 L193 177 C193 177 194 177 194 177 C227 177 246 172 256 163 C262 157 265 148 265 136 L265 -197 L398 -197 L398 153 C398 197 374 220 361 229 C374 237 398 256 398 302 L398 583 C398 623 382 656 352 680 L352 680 Z M389 302 C389 246 351 235 349 235 L336 231 L349 226 C350 225 389 207 389 153 L389 -187 L274 -187 L274 136 C274 151 270 162 263 170 C250 182 228 186 188 186 L183 186 L183 -187 L70 -187 L70 707 L229 707 C281 707 315 697 346 673 C374 650 389 620 389 583 L389 302 L389 302 Z M261 620 C252 627 241 630 229 630 L183 630 L183 272 L188 272 C188 272 188 272 189 272 C226 272 250 272 263 285 C271 293 274 303 274 319 C274 393 274 592 274 594 C274 605 270 613 261 620 L261 620 Z M264 319 C265 306 262 298 257 292 C247 282 226 281 193 281 L193 621 L229 621 C239 621 247 618 255 613 C262 608 265 602 265 594 C265 592 264 393 264 319 L264 319 Z " />
<glyph glyph-name="S" unicode="S" horiz-adv-x="446" d="M391 405 L391 590 C391 628 374 661 341 687 C308 714 268 728 222 728 C176 728 136 714 103 687 C70 661 53 628 53 590 L53 339 C53 304 68 273 97 247 C130 216 171 201 218 201 L226 201 C247 201 257 192 257 173 L257 -85 C257 -93 254 -99 248 -105 C240 -110 232 -113 222 -113 C212 -113 203 -110 196 -105 C190 -99 187 -93 187 -85 L187 149 L53 148 L53 -87 C57 -122 76 -152 108 -175 C140 -199 178 -211 222 -211 C265 -211 304 -199 336 -175 C368 -152 387 -122 391 -85 L391 174 C392 198 386 223 374 247 C364 268 349 285 330 298 C306 313 276 321 241 321 L218 321 C209 321 201 324 194 329 C189 334 187 341 187 349 L187 601 C187 609 190 616 196 621 C203 627 212 629 222 629 C232 629 240 627 248 621 C254 616 257 609 257 601 L257 405 L391 405 L391 405 Z M253 629 C244 636 234 639 222 639 C209 639 199 635 190 629 C181 621 177 612 177 601 L177 349 C177 338 181 329 188 322 C196 315 206 311 218 311 L241 311 C274 311 303 304 325 290 C342 278 356 262 366 243 C377 220 382 197 381 174 L381 -85 C378 -118 361 -146 330 -168 C300 -190 263 -202 222 -202 C180 -202 144 -190 113 -168 C83 -146 66 -118 63 -87 L63 138 L177 139 L177 -85 C177 -96 181 -105 190 -112 C199 -119 209 -123 222 -123 C234 -123 244 -119 254 -112 C262 -105 267 -96 267 -85 L267 173 C267 190 260 211 226 211 L218 211 C173 211 134 225 103 253 C76 278 63 307 63 339 L63 590 C63 625 78 655 109 680 C140 705 178 718 222 718 C266 718 304 705 335 680 C366 655 381 625 381 590 L382 415 L267 415 L267 601 C267 612 262 621 253 629 L253 629 Z " />
<glyph glyph-name="T" unicode="T" horiz-adv-x="370" d="M39 608 L120 608 L120 -198 L250 -198 L250 608 L331 608 L331 716 L39 716 L39 608 L39 608 Z M48 706 L322 706 L322 617 L241 617 L241 -188 L129 -188 L129 617 L48 617 L48 706 L48 706 Z " />
<glyph glyph-name="U" unicode="U" horiz-adv-x="468" d="M270 -85 C270 -93 266 -99 260 -105 C252 -110 244 -113 234 -113 C224 -113 215 -110 208 -105 C201 -99 198 -93 198 -85 L198 716 L65 716 L65 -74 C65 -111 82 -144 115 -171 C148 -198 188 -211 234 -211 C280 -211 320 -198 353 -171 C386 -144 403 -111 403 -74 L403 716 L270 716 L270 -85 L270 -85 Z M279 -85 L279 706 L393 706 L393 -74 C393 -108 378 -139 347 -164 C316 -189 278 -202 234 -202 C190 -202 152 -189 121 -164 C90 -139 75 -108 75 -74 L75 706 L188 706 L188 -85 C188 -96 193 -105 203 -112 C211 -119 221 -123 234 -123 C246 -123 257 -119 266 -112 C275 -105 279 -96 279 -85 L279 -85 Z " />
<glyph glyph-name="V" unicode="V" horiz-adv-x="414" d="M207 295 L150 716 L19 716 L142 -198 L272 -198 L394 710 L394 716 L263 716 L207 295 L207 295 Z M384 706 L263 -188 L150 -188 L30 706 L142 706 L207 223 L272 706 L384 706 L384 706 Z " />
<glyph glyph-name="W" unicode="W" horiz-adv-x="629" d="M429 305 L380 716 L249 716 L200 305 L163 716 L32 716 L127 -193 L127 -198 L257 -198 L314 217 L372 -198 L502 -198 L596 710 L597 716 L466 716 L429 305 L429 305 Z M586 706 L493 -188 L380 -188 L314 287 L249 -188 L136 -188 L43 706 L155 706 L199 213 L257 706 L372 706 L431 213 L474 706 L586 706 L586 706 Z " />
<glyph glyph-name="X" unicode="X" horiz-adv-x="411" d="M256 716 L205 489 L156 716 L24 716 L140 259 L24 -198 L156 -198 L205 29 L256 -198 L387 -198 L271 259 L387 716 L256 716 L256 716 Z M375 -188 L264 -188 L205 73 L148 -188 L36 -188 L149 258 L149 259 L36 706 L148 706 L205 445 L264 706 L375 706 L262 261 L261 259 L375 -188 L375 -188 Z " />
<glyph glyph-name="Y" unicode="Y" horiz-adv-x="456" d="M228 379 L158 716 L26 716 L162 116 L163 114 L163 -198 L294 -198 L294 113 L429 710 L431 716 L299 716 L228 379 L228 379 Z M419 706 L286 122 L285 122 L285 -188 L172 -188 L172 117 L172 122 L171 122 L38 706 L150 706 L228 332 L307 706 L419 706 L419 706 Z " />
<glyph glyph-name="Z" unicode="Z" horiz-adv-x="372" d="M323 611 L323 716 L30 716 L30 608 L191 608 L30 -94 L30 -198 L323 -198 L323 -90 L163 -90 L323 611 L323 611 Z M314 -99 L314 -188 L40 -188 L40 -95 L203 617 L40 617 L40 706 L314 706 L314 613 L152 -93 L151 -99 L314 -99 L314 -99 Z " />
<glyph glyph-name="bracketleft" unicode="&#x5b;" horiz-adv-x="261" d="M50 -201 L224 -201 L224 -92 L181 -92 L181 611 L224 611 L224 720 L50 720 L50 -201 L50 -201 Z M60 711 L215 711 L215 621 L171 621 L171 -102 L215 -102 L215 -192 L60 -192 L60 711 L60 711 Z " />
<glyph glyph-name="backslash" unicode="&#x5c;" horiz-adv-x="274" d="M147 771 L24 771 L147 -265 L148 -270 L271 -270 L148 766 L147 771 L147 771 Z M156 -260 L35 761 L139 761 L260 -260 L156 -260 L156 -260 Z " />
<glyph glyph-name="bracketright" unicode="&#x5d;" horiz-adv-x="261" d="M37 610 L80 610 L80 -93 L37 -93 L37 -202 L211 -202 L211 719 L37 719 L37 610 L37 610 Z M46 710 L201 710 L201 -193 L46 -193 L46 -103 L89 -103 L89 620 L46 620 L46 710 L46 710 Z " />
<glyph glyph-name="asciicircum" unicode="&#x5e;" horiz-adv-x="358" d="M249 698 C247 702 246 705 244 707 C234 729 224 750 197 750 L167 750 C133 750 126 733 114 704 L31 524 L141 524 L180 608 L219 524 L329 524 L249 698 L249 698 L249 698 Z M225 534 L180 631 L135 534 L46 534 L120 695 L123 700 C135 729 140 741 167 741 L197 741 C218 741 225 724 236 703 C237 700 238 697 240 694 L314 534 L225 534 L225 534 Z " />
<glyph glyph-name="underscore" unicode="&#x5f;" horiz-adv-x="367" d="M34 -212 L334 -212 L334 -103 L34 -103 L34 -212 L34 -212 Z M44 -112 L324 -112 L324 -202 L44 -202 L44 -112 L44 -112 Z " />
<glyph glyph-name="grave" unicode="&#x60;" horiz-adv-x="185" d="M14 820 L80 593 L170 593 L121 820 L14 820 L14 820 Z M87 602 L27 811 L113 811 L158 602 L87 602 L87 602 Z " />
<glyph glyph-name="a" unicode="a" horiz-adv-x="391" d="M131 716 L9 -192 L8 -198 L139 -198 L153 -108 L238 -108 L252 -198 L383 -198 L260 716 L131 716 L131 716 Z M260 -188 L247 -99 L145 -99 L131 -188 L19 -188 L139 706 L252 706 L373 -188 L260 -188 L260 -188 Z M191 366 L159 -10 L232 -10 L200 366 L191 366 L191 366 Z M169 -1 L196 309 L222 -1 L169 -1 L169 -1 Z " />
<glyph glyph-name="b" unicode="b" horiz-adv-x="423" d="M240 620 C231 627 220 631 208 631 L163 631 L163 333 L167 333 C170 333 171 333 173 333 C210 333 230 338 242 350 C250 357 253 368 253 384 L253 594 C253 604 249 613 240 620 L240 620 Z M244 384 C244 371 241 362 235 356 C226 347 206 343 173 343 C173 343 173 343 172 343 L172 621 L208 621 C218 621 227 618 234 612 C241 607 244 601 244 594 L244 384 L244 384 Z M377 366 L377 583 C377 621 360 656 328 681 C295 708 266 716 208 716 L40 716 L40 -197 L208 -197 C258 -197 292 -186 327 -159 C360 -132 377 -100 377 -64 L377 217 C377 263 354 282 340 290 C354 299 377 322 377 366 L377 366 Z M328 293 L316 288 L329 284 C330 284 368 274 368 217 L368 -64 C368 -97 352 -127 321 -151 C292 -174 264 -188 208 -188 L49 -188 L49 707 L208 707 C264 707 290 699 322 674 C352 651 368 618 368 583 L368 366 C368 312 330 294 328 293 L328 293 Z M253 201 C253 216 250 226 243 234 C230 247 206 248 168 248 C168 248 168 248 167 248 L163 248 L163 -111 L208 -111 C220 -111 231 -108 240 -101 C249 -94 253 -85 253 -75 L253 -75 C253 -73 253 126 253 201 L253 201 Z M234 -93 C227 -99 218 -102 208 -102 L172 -102 L172 238 C205 238 226 237 236 227 C241 221 244 213 244 201 C243 126 244 -73 244 -75 C244 -82 241 -88 234 -93 L234 -93 Z " />
<glyph glyph-name="c" unicode="c" horiz-adv-x="437" d="M342 688 C309 714 269 728 223 728 C177 728 137 714 104 688 C71 661 55 628 55 590 L55 -75 C55 -112 71 -145 104 -172 C137 -199 177 -212 223 -212 C269 -212 309 -199 342 -172 C375 -145 392 -112 392 -75 L392 184 L259 184 L259 -86 C259 -94 256 -100 249 -106 C242 -111 233 -114 223 -114 C213 -114 205 -111 198 -106 C191 -100 187 -94 187 -86 L187 602 C187 610 191 616 198 621 C205 627 213 630 223 630 C233 630 242 627 249 621 C256 616 259 610 259 602 L259 332 L392 332 L392 590 C392 628 375 661 342 688 L342 688 Z M383 342 L268 342 L268 602 C268 613 264 622 255 629 C246 636 235 640 223 640 C211 640 200 636 192 629 C182 622 178 613 178 602 L178 -86 C178 -97 182 -106 192 -113 C200 -120 211 -124 223 -124 C235 -124 246 -120 255 -113 C264 -106 268 -97 268 -86 L268 174 L383 174 L383 -75 C383 -109 367 -140 336 -165 C305 -190 267 -203 223 -203 C179 -203 142 -190 110 -165 C80 -140 64 -109 64 -75 L64 590 C64 625 80 656 110 681 C142 706 179 718 223 718 C267 718 305 706 336 681 C367 655 383 625 383 590 L383 342 L383 342 Z " />
<glyph glyph-name="d" unicode="d" horiz-adv-x="438" d="M340 681 C307 707 277 716 219 716 L50 716 L50 -198 L219 -198 C272 -198 307 -187 341 -161 C372 -136 388 -103 388 -64 L388 582 C388 622 372 656 340 681 L340 681 Z M379 -64 C379 -100 364 -130 335 -153 C303 -178 270 -188 219 -188 L60 -188 L60 706 L219 706 C275 706 303 698 334 674 C371 645 379 608 379 582 L379 -64 L379 -64 Z M251 620 C242 627 231 630 219 630 L173 630 L173 -112 L219 -112 C231 -112 242 -108 251 -101 C260 -94 264 -86 264 -75 L264 594 C264 604 260 613 251 620 L251 620 Z M255 -75 C255 -83 251 -89 245 -94 C238 -99 229 -102 219 -102 L183 -102 L183 621 L219 621 C229 621 238 618 245 612 C251 607 255 601 255 594 L255 -75 L255 -75 Z " />
<glyph glyph-name="e" unicode="e" horiz-adv-x="363" d="M60 -198 L312 -198 L312 -90 L191 -90 L191 205 L263 205 L263 313 L191 313 L191 608 L312 608 L312 716 L60 716 L60 -198 Z M70 706 L303 706 L303 617 L182 617 L182 303 L254 303 L254 214 L182 214 L182 -99 L303 -99 L303 -188 L70 -188 L70 706 Z " />
<glyph glyph-name="f" unicode="f" horiz-adv-x="332" d="M65 -198 L196 -198 L196 205 L267 205 L267 313 L196 313 L196 608 L317 608 L317 716 L65 716 L65 -198 L65 -198 Z M74 706 L307 706 L307 617 L186 617 L186 303 L258 303 L258 214 L186 214 L186 -188 L74 -188 L74 706 L74 706 Z " />
<glyph glyph-name="g" unicode="g" horiz-adv-x="468" d="M352 688 C320 714 280 728 233 728 C187 728 147 714 114 688 C81 661 65 628 65 590 L65 -75 C65 -112 81 -145 114 -172 C147 -199 187 -212 233 -212 C280 -212 320 -199 352 -172 C386 -145 403 -112 403 -75 L403 313 L252 312 L251 204 L269 204 L269 -86 C269 -94 266 -100 259 -106 C252 -111 243 -114 233 -114 C223 -114 215 -111 208 -106 C201 -100 197 -94 197 -86 L197 602 C197 610 201 616 208 621 C215 627 223 630 233 630 C243 630 252 627 259 621 C266 616 269 610 269 602 L269 349 L403 349 L403 590 C403 628 386 661 352 688 L352 688 Z M393 358 L279 358 L279 602 C279 613 274 622 265 629 C256 636 245 640 233 640 C221 640 210 636 202 629 C193 622 188 613 188 602 L188 -86 C188 -97 193 -106 202 -113 C211 -120 221 -124 233 -124 C245 -124 256 -120 265 -113 C274 -106 279 -97 279 -86 L279 214 L261 214 L261 303 L393 303 L393 -75 C393 -109 377 -140 346 -165 C315 -190 277 -203 233 -203 C190 -203 152 -190 120 -165 C90 -140 74 -109 74 -75 L74 590 C74 625 90 656 120 681 C152 706 190 718 233 718 C277 718 315 706 346 681 C377 655 393 625 393 590 L393 358 L393 358 Z " />
<glyph glyph-name="h" unicode="h" horiz-adv-x="435" d="M254 313 L177 313 L177 716 L45 716 L45 -198 L177 -198 L177 205 L254 205 L254 -198 L385 -198 L385 716 L254 716 L254 313 L254 313 Z M264 706 L376 706 L376 -188 L264 -188 L264 215 L167 215 L167 -188 L55 -188 L55 706 L167 706 L167 303 L264 303 L264 706 L264 706 Z " />
<glyph glyph-name="i" unicode="i" horiz-adv-x="281" d="M75 -198 L206 -198 L206 716 L75 716 L75 -198 L75 -198 Z M84 706 L197 706 L197 -188 L84 -188 L84 706 L84 706 Z " />
<glyph glyph-name="j" unicode="j" horiz-adv-x="346" d="M140 -60 C140 -105 118 -112 95 -113 C74 -113 56 -110 39 -102 L33 -99 L33 -199 L36 -200 C56 -207 80 -210 106 -211 C109 -211 113 -211 116 -211 C177 -211 200 -204 232 -178 C266 -151 271 -110 271 -73 L271 716 L140 716 L140 -60 L140 -60 Z M149 706 L261 706 L261 -73 C261 -109 257 -146 226 -171 C194 -196 172 -202 106 -201 C82 -201 60 -198 42 -192 L42 -114 C58 -120 75 -123 95 -122 C121 -121 149 -113 149 -60 L149 706 L149 706 Z " />
<glyph glyph-name="k" unicode="k" horiz-adv-x="476" d="M306 716 L207 355 L207 716 L75 716 L75 -198 L207 -198 L207 164 L306 -198 L437 -198 L315 259 L437 716 L306 716 L306 716 Z M425 -188 L314 -188 L197 234 L197 -188 L85 -188 L85 706 L197 706 L197 284 L314 706 L425 706 L305 260 L305 259 L425 -188 L425 -188 Z " />
<glyph glyph-name="l" unicode="l" horiz-adv-x="327" d="M197 716 L65 716 L65 -198 L318 -198 L318 -90 L197 -90 L197 716 L197 716 Z M308 -99 L308 -188 L75 -188 L75 706 L187 706 L187 -99 L308 -99 L308 -99 Z " />
<glyph glyph-name="m" unicode="m" horiz-adv-x="588" d="M294 213 L191 712 L190 716 L60 716 L60 -198 L191 -198 L191 139 L236 -198 L349 -198 L396 147 L396 -198 L528 -198 L528 716 L396 716 L294 213 Z M518 706 L518 -188 L406 -188 L406 211 L396 211 L341 -188 L244 -188 L191 204 L182 203 L182 -188 L69 -188 L69 706 L183 706 L294 170 L403 706 L518 706 Z " />
<glyph glyph-name="n" unicode="n" horiz-adv-x="463" d="M267 366 L195 716 L65 716 L65 -198 L196 -198 L196 156 L267 -194 L268 -198 L398 -198 L398 716 L267 716 L267 366 L267 366 Z M277 706 L389 706 L389 -188 L276 -188 L187 250 L187 -188 L74 -188 L74 706 L187 706 L277 272 L277 706 L277 706 Z " />
<glyph glyph-name="o" unicode="o" horiz-adv-x="433" d="M338 688 C305 714 265 728 219 728 C173 728 133 714 100 688 C67 661 50 628 50 590 L50 -75 C50 -112 67 -145 100 -172 C133 -199 173 -212 219 -212 C265 -212 305 -199 338 -172 C371 -145 388 -112 388 -75 L388 590 C388 628 371 661 338 688 L338 688 Z M378 -75 C378 -109 363 -140 332 -165 C301 -190 263 -203 219 -203 C175 -203 137 -190 106 -165 C75 -140 59 -109 59 -75 L59 590 C59 625 75 656 106 681 C137 706 175 718 219 718 C263 718 301 706 332 681 C363 655 378 625 378 590 L378 -75 L378 -75 Z M251 629 C241 636 231 640 219 640 C206 640 196 636 188 629 C178 622 173 613 173 602 L173 -86 C173 -97 178 -106 187 -113 C196 -120 206 -124 219 -124 C231 -124 241 -120 251 -113 C259 -106 264 -97 264 -86 L264 602 C264 613 259 622 251 629 L251 629 Z M254 -86 C254 -94 251 -100 245 -106 C237 -111 229 -114 219 -114 C208 -114 200 -111 193 -106 C186 -100 183 -94 183 -86 L183 602 C183 610 186 616 193 621 C200 627 208 630 219 630 C229 630 237 627 245 621 C251 616 254 610 254 602 L254 -86 L254 -86 Z " />
<glyph glyph-name="p" unicode="p" horiz-adv-x="437" d="M218 630 L173 630 L173 271 L178 271 C178 271 178 271 178 271 C216 271 240 272 253 285 C260 292 263 303 263 318 C263 371 263 411 264 455 C264 493 264 535 264 591 C264 602 259 613 250 620 C241 627 230 630 218 630 L218 630 Z M254 455 C254 411 254 371 254 318 C254 305 251 297 246 292 C236 282 215 281 182 281 L182 620 L218 620 C228 620 237 618 244 612 C250 607 254 599 254 591 C254 535 254 493 254 455 L254 455 Z M340 680 C307 706 273 716 218 716 L50 716 L50 -197 L182 -197 L182 187 C248 187 387 190 387 302 L387 582 C387 622 371 656 340 680 L340 680 Z M378 302 C378 209 271 197 178 197 L173 197 L173 -188 L59 -188 L59 706 L218 706 C271 706 303 697 334 673 C363 650 378 619 378 582 L378 302 L378 302 Z " />
<glyph glyph-name="q" unicode="q" horiz-adv-x="468" d="M403 -75 L403 590 C403 628 386 661 353 688 C320 714 280 728 234 728 C188 728 148 714 115 688 C82 661 65 628 65 590 L65 -75 C65 -102 74 -127 92 -150 C117 -180 143 -198 168 -204 C191 -208 231 -210 263 -208 L326 -264 L420 -195 L381 -142 C395 -122 403 -99 403 -75 L403 -75 Z M406 -193 L327 -252 L267 -198 L265 -198 C233 -200 192 -199 170 -194 C147 -189 123 -173 100 -144 C83 -123 75 -100 75 -75 L75 590 C75 625 90 656 121 681 C152 706 190 718 234 718 C278 718 316 706 347 681 C378 656 393 625 393 590 L393 -75 C393 -98 386 -120 371 -140 L369 -142 L406 -193 L406 -193 Z M266 629 C256 636 246 640 234 640 C221 640 211 636 202 629 C193 622 189 613 189 602 L189 -86 C189 -97 193 -106 202 -113 C211 -120 221 -124 234 -124 C246 -124 256 -120 265 -113 L266 -113 C274 -106 279 -97 279 -86 L279 602 C279 613 274 622 266 629 L266 629 Z M269 -86 C269 -94 266 -100 260 -106 C252 -111 244 -114 234 -114 C224 -114 215 -111 208 -106 C202 -100 198 -94 198 -86 L198 602 C198 610 202 616 208 621 C215 627 224 630 234 630 C244 630 252 627 260 621 C266 616 269 610 269 602 L269 -86 L269 -86 Z " />
<glyph glyph-name="r" unicode="r" horiz-adv-x="458" d="M352 680 C319 706 283 716 229 716 L60 716 L60 -197 L193 -197 L193 177 C193 177 194 177 194 177 C227 177 246 172 256 163 C262 157 265 148 265 136 L265 -197 L398 -197 L398 153 C398 197 374 220 361 229 C374 237 398 256 398 302 L398 583 C398 623 382 656 352 680 L352 680 Z M389 302 C389 246 351 235 349 235 L336 231 L349 226 C350 225 389 207 389 153 L389 -187 L274 -187 L274 136 C274 151 270 162 263 170 C250 182 228 186 188 186 L183 186 L183 -187 L70 -187 L70 707 L229 707 C281 707 315 697 346 673 C374 650 389 620 389 583 L389 302 L389 302 Z M261 620 C252 627 241 630 229 630 L183 630 L183 272 L188 272 C188 272 188 272 189 272 C226 272 250 272 263 285 C271 293 274 303 274 319 C274 393 274 592 274 594 C274 605 270 613 261 620 L261 620 Z M264 319 C265 306 262 298 257 292 C247 282 226 281 193 281 L193 621 L229 621 C239 621 247 618 255 613 C262 608 265 602 265 594 C265 592 264 393 264 319 L264 319 Z " />
<glyph glyph-name="s" unicode="s" horiz-adv-x="446" d="M391 405 L391 590 C391 628 374 661 341 687 C308 714 268 728 222 728 C176 728 136 714 103 687 C70 661 53 628 53 590 L53 339 C53 304 68 273 97 247 C130 216 171 201 218 201 L226 201 C247 201 257 192 257 173 L257 -85 C257 -93 254 -99 248 -105 C240 -110 232 -113 222 -113 C212 -113 203 -110 196 -105 C190 -99 187 -93 187 -85 L187 149 L53 148 L53 -87 C57 -122 76 -152 108 -175 C140 -199 178 -211 222 -211 C265 -211 304 -199 336 -175 C368 -152 387 -122 391 -85 L391 174 C392 198 386 223 374 247 C364 268 349 285 330 298 C306 313 276 321 241 321 L218 321 C209 321 201 324 194 329 C189 334 187 341 187 349 L187 601 C187 609 190 616 196 621 C203 627 212 629 222 629 C232 629 240 627 248 621 C254 616 257 609 257 601 L257 405 L391 405 L391 405 Z M253 629 C244 636 234 639 222 639 C209 639 199 635 190 629 C181 621 177 612 177 601 L177 349 C177 338 181 329 188 322 C196 315 206 311 218 311 L241 311 C274 311 303 304 325 290 C342 278 356 262 366 243 C377 220 382 197 381 174 L381 -85 C378 -118 361 -146 330 -168 C300 -190 263 -202 222 -202 C180 -202 144 -190 113 -168 C83 -146 66 -118 63 -87 L63 138 L177 139 L177 -85 C177 -96 181 -105 190 -112 C199 -119 209 -123 222 -123 C234 -123 244 -119 254 -112 C262 -105 267 -96 267 -85 L267 173 C267 190 260 211 226 211 L218 211 C173 211 134 225 103 253 C76 278 63 307 63 339 L63 590 C63 625 78 655 109 680 C140 705 178 718 222 718 C266 718 304 705 335 680 C366 655 381 625 381 590 L382 415 L267 415 L267 601 C267 612 262 621 253 629 L253 629 Z " />
<glyph glyph-name="t" unicode="t" horiz-adv-x="370" d="M39 608 L120 608 L120 -198 L250 -198 L250 608 L331 608 L331 716 L39 716 L39 608 L39 608 Z M48 706 L322 706 L322 617 L241 617 L241 -188 L129 -188 L129 617 L48 617 L48 706 L48 706 Z " />
<glyph glyph-name="u" unicode="u" horiz-adv-x="468" d="M270 -85 C270 -93 266 -99 260 -105 C252 -110 244 -113 234 -113 C224 -113 215 -110 208 -105 C201 -99 198 -93 198 -85 L198 716 L65 716 L65 -74 C65 -111 82 -144 115 -171 C148 -198 188 -211 234 -211 C280 -211 320 -198 353 -171 C386 -144 403 -111 403 -74 L403 716 L270 716 L270 -85 L270 -85 Z M279 -85 L279 706 L393 706 L393 -74 C393 -108 378 -139 347 -164 C316 -189 278 -202 234 -202 C190 -202 152 -189 121 -164 C90 -139 75 -108 75 -74 L75 706 L188 706 L188 -85 C188 -96 193 -105 203 -112 C211 -119 221 -123 234 -123 C246 -123 257 -119 266 -112 C275 -105 279 -96 279 -85 L279 -85 Z " />
<glyph glyph-name="v" unicode="v" horiz-adv-x="414" d="M207 295 L150 716 L19 716 L142 -198 L272 -198 L394 710 L394 716 L263 716 L207 295 L207 295 Z M384 706 L263 -188 L150 -188 L30 706 L142 706 L207 223 L272 706 L384 706 L384 706 Z " />
<glyph glyph-name="w" unicode="w" horiz-adv-x="629" d="M429 305 L380 716 L249 716 L200 305 L163 716 L32 716 L127 -193 L127 -198 L257 -198 L314 217 L372 -198 L502 -198 L596 710 L597 716 L466 716 L429 305 L429 305 Z M586 706 L493 -188 L380 -188 L314 287 L249 -188 L136 -188 L43 706 L155 706 L199 213 L257 706 L372 706 L431 213 L474 706 L586 706 L586 706 Z " />
<glyph glyph-name="x" unicode="x" horiz-adv-x="411" d="M256 716 L205 489 L156 716 L24 716 L140 259 L24 -198 L156 -198 L205 29 L256 -198 L387 -198 L271 259 L387 716 L256 716 L256 716 Z M375 -188 L264 -188 L205 73 L148 -188 L36 -188 L149 258 L149 259 L36 706 L148 706 L205 445 L264 706 L375 706 L262 261 L261 259 L375 -188 L375 -188 Z " />
<glyph glyph-name="y" unicode="y" horiz-adv-x="456" d="M228 379 L158 716 L26 716 L162 116 L163 114 L163 -198 L294 -198 L294 113 L429 710 L431 716 L299 716 L228 379 L228 379 Z M419 706 L286 122 L285 122 L285 -188 L172 -188 L172 117 L172 122 L171 122 L38 706 L150 706 L228 332 L307 706 L419 706 L419 706 Z " />
<glyph glyph-name="z" unicode="z" horiz-adv-x="372" d="M323 611 L323 716 L30 716 L30 608 L191 608 L30 -94 L30 -198 L323 -198 L323 -90 L163 -90 L323 611 L323 611 Z M314 -99 L314 -188 L40 -188 L40 -95 L203 617 L40 617 L40 706 L314 706 L314 613 L152 -93 L151 -99 L314 -99 L314 -99 Z " />
<glyph glyph-name="braceleft" unicode="&#x7b;" horiz-adv-x="319" d="M144 691 C111 663 94 630 94 592 L94 344 C94 343 94 341 94 338 C94 336 93 334 92 331 C91 325 88 320 84 317 L84 317 C80 314 64 310 54 309 L50 308 L50 201 L55 201 C69 201 78 199 84 194 C88 191 91 187 92 180 C93 178 94 175 94 172 C94 170 94 169 94 168 L94 -79 C94 -117 111 -150 144 -177 C176 -204 216 -217 262 -217 C262 -217 262 -217 262 -217 L279 -217 L279 -116 L273 -117 C269 -118 265 -119 262 -119 C252 -119 244 -116 236 -110 C230 -105 227 -98 227 -91 L227 178 C226 186 224 194 222 202 C217 222 208 240 194 256 C208 271 217 289 222 310 C224 318 226 325 227 334 L227 604 C227 612 230 618 236 623 C244 629 252 632 262 632 C266 632 269 632 272 631 L279 629 L279 730 L262 731 C216 731 176 717 144 691 L144 691 Z M269 641 C254 644 241 640 230 631 C222 624 217 615 217 604 L217 334 C216 327 215 320 213 312 C208 292 198 274 184 259 L181 256 L184 253 C198 238 208 220 213 199 C215 192 216 185 217 178 L217 -91 C217 -101 222 -110 230 -118 C239 -125 250 -128 262 -128 C264 -128 267 -128 269 -128 L269 -208 L262 -208 C218 -208 180 -195 150 -170 C119 -145 104 -114 104 -79 L104 168 C104 170 104 172 103 173 C103 176 103 180 102 183 C99 191 95 198 90 202 C84 207 73 210 59 211 L59 300 C68 301 84 305 90 310 C96 314 99 320 101 328 C103 332 103 335 103 337 C104 340 104 342 104 344 L104 592 C104 627 119 658 150 683 C180 708 218 721 262 721 L269 721 L269 641 L269 641 Z " />
<glyph glyph-name="bar" unicode="&#x7c;" horiz-adv-x="221" d="M45 -335 L176 -335 L176 824 L45 824 L45 -335 L45 -335 Z M55 814 L166 814 L166 -325 L55 -325 L55 814 L55 814 Z " />
<glyph glyph-name="braceright" unicode="&#x7d;" horiz-adv-x="319" d="M268 311 C254 311 244 313 238 318 C235 321 232 326 230 333 C229 335 229 337 229 340 C229 345 228 508 228 593 C228 631 212 664 179 692 C146 718 106 732 60 732 C60 732 60 732 60 732 L44 731 L44 630 L50 632 C54 633 57 633 60 633 C70 633 79 630 86 624 C93 619 96 613 96 605 L96 334 C97 326 98 318 100 311 C106 290 115 272 128 257 C115 241 106 223 100 203 C98 195 97 187 96 179 L96 -90 C96 -97 93 -104 86 -109 C79 -115 70 -118 60 -118 C57 -118 54 -117 50 -116 L44 -115 L44 -216 L60 -216 C106 -216 146 -203 179 -176 C212 -149 228 -116 228 -78 L228 169 C228 170 229 179 230 181 C232 188 235 192 239 195 C244 200 254 202 268 202 L273 202 L274 306 L273 311 L268 311 L268 311 Z M263 212 C249 211 239 208 233 203 C227 199 223 192 221 184 C220 181 219 171 219 169 L219 -78 C219 -113 203 -144 173 -169 C142 -194 104 -207 61 -207 L54 -207 L54 -127 C56 -127 58 -127 60 -127 C72 -127 83 -124 92 -116 C101 -109 106 -100 106 -90 L106 178 C106 186 108 193 110 200 C115 221 124 239 138 254 L141 257 L138 260 C124 275 115 293 110 313 C108 320 106 328 106 335 L106 605 C106 616 101 625 92 632 C82 641 68 645 54 642 L54 722 L60 722 C104 722 142 709 173 684 C203 659 219 628 219 593 C219 426 219 340 219 339 C219 336 220 333 221 330 C223 321 227 315 232 311 C239 305 249 302 264 301 L263 212 L263 212 Z " />
<glyph glyph-name="asciitilde" unicode="&#x7e;" horiz-adv-x="401" d="M330 246 C311 264 289 275 267 280 L267 280 C254 282 240 282 226 279 C208 274 190 265 175 252 C164 243 154 239 145 241 C140 242 131 246 123 259 L122 260 C121 261 120 263 119 265 L116 273 L50 232 L51 229 L55 221 C66 207 93 169 130 162 C135 160 141 160 147 160 C154 160 162 161 170 163 C188 166 206 175 223 189 C251 212 267 197 277 188 C280 185 288 174 289 173 L291 167 L357 209 L354 215 C354 216 350 225 330 246 L330 246 Z M295 181 C291 186 286 193 284 194 L283 195 C273 204 251 224 217 197 C201 184 184 176 168 172 C155 169 143 169 131 171 C99 177 73 213 63 227 L62 229 L112 259 C112 257 114 255 115 254 C125 238 136 233 144 231 C156 229 168 234 181 245 C195 257 211 265 228 270 C241 272 253 272 265 270 C286 266 305 256 323 239 C337 225 342 216 345 213 L295 181 L295 181 Z " />
<glyph glyph-name="quoteleft" unicode="&#x2018;" horiz-adv-x="157" d="M42 506 L96 506 L142 609 L143 728 L12 728 L12 606 L49 606 L42 506 Z M22 615 L22 718 L133 718 L133 612 L90 516 L52 516 L60 615 L22 615 Z " />
<glyph glyph-name="quoteright" unicode="&#x2019;" horiz-adv-x="158" d="M42 506 L96 506 L142 609 L143 728 L12 728 L12 606 L49 606 L42 506 Z M22 615 L22 718 L133 718 L133 612 L90 516 L52 516 L60 615 L22 615 Z " />
<glyph glyph-name="quotedblleft" unicode="&#x201c;" horiz-adv-x="310" d="M23 606 L60 606 L53 506 L107 506 L153 609 L154 728 L23 728 L23 606 Z M32 718 L144 718 L144 612 L101 516 L63 516 L70 615 L32 615 L32 718 Z M160 606 L197 606 L190 506 L245 506 L290 609 L291 728 L160 728 L160 606 Z M170 718 L281 718 L281 612 L238 516 L200 516 L208 615 L170 615 L170 718 Z " />
<glyph glyph-name="quotedblright" unicode="&#x201d;" horiz-adv-x="314" d="M23 606 L60 606 L53 506 L107 506 L153 609 L154 728 L23 728 L23 606 Z M32 718 L144 718 L144 612 L101 516 L63 516 L70 615 L32 615 L32 718 Z M160 606 L197 606 L190 506 L245 506 L290 609 L291 728 L160 728 L160 606 Z M170 718 L281 718 L281 612 L238 516 L200 516 L208 615 L170 615 L170 718 Z " />
</font>
</svg>
