<?xml version="1.0" encoding="UTF-8"?>
<svg xmlns="http://www.w3.org/2000/svg" xmlns:xlink="http://www.w3.org/1999/xlink" version="1.2" >
<font id="Rottles Script">
<font-face  font-family="Rottles Script" units-per-em="1000" ascent="750" descent="-250" font-style="normal" font-weight="400" font-stretch="normal" cap-height="700" x-height="500" underline-position="-75" underline-thickness="50" />
<missing-glyph  horiz-adv-x="208" d="" />
<glyph glyph-name="NULL" d="" />
<glyph glyph-name="CR" unicode="&#xd;" horiz-adv-x="208" d="" />
<glyph glyph-name="space" unicode="&#x20;" horiz-adv-x="208" d="" />
<glyph glyph-name="exclam" unicode="&#x21;" horiz-adv-x="160" d="M34 180 C38 180 41 183 43 188 C46 198 49 208 52 219 C62 253 71 288 82 322 C105 391 128 460 150 529 C153 536 155 543 157 550 C158 555 156 559 151 560 C147 561 142 558 140 553 C140 552 139 550 139 549 C125 506 111 464 97 421 C85 383 72 346 61 309 C51 278 42 247 33 216 C31 207 28 198 26 189 C25 184 28 180 34 180 L34 180 Z M27 126 C27 131 24 135 19 135 C14 135 9 130 8 124 C8 120 11 116 16 116 C21 116 26 121 27 126 L27 126 Z " />
<glyph glyph-name="quotedbl" unicode="&#x22;" horiz-adv-x="151" d="M81 498 C81 495 80 492 79 489 C79 484 79 479 83 476 C86 473 90 473 94 476 C98 479 99 483 97 487 C97 488 96 489 97 491 C100 503 103 515 107 527 C109 534 113 542 117 549 C119 554 118 558 114 560 C111 562 106 560 103 556 C102 554 101 553 100 552 C90 534 85 516 81 498 L81 498 Z M83 556 C79 556 76 553 73 549 C71 544 69 538 67 533 C66 529 64 525 64 520 C63 514 68 511 73 512 C79 513 82 517 82 523 C82 525 82 527 83 529 C85 534 87 540 89 546 C91 551 88 555 83 556 L83 556 Z " />
<glyph glyph-name="numbersign" unicode="&#x23;" horiz-adv-x="351" d="M288 325 C263 325 239 325 214 325 C217 335 221 345 224 356 C227 365 229 373 232 382 C236 393 219 397 216 387 C209 366 203 346 196 325 C184 325 173 325 161 325 C164 335 167 344 170 354 C173 362 176 371 179 379 C183 390 166 394 163 384 C156 364 149 344 143 325 C128 325 112 325 97 325 C88 325 79 325 70 325 C59 325 59 308 70 308 C92 308 115 308 137 308 C131 290 125 272 119 255 C102 255 86 255 69 255 C60 255 50 255 41 255 C30 255 30 238 41 238 C65 238 89 238 113 238 C109 226 105 214 101 202 C98 194 95 185 92 177 C89 166 106 162 109 172 C116 194 124 216 131 238 C143 238 156 238 168 238 C164 225 160 212 156 198 C153 190 150 180 147 172 C144 161 160 156 163 167 C171 191 179 214 186 238 C205 238 223 238 241 238 C251 238 260 238 270 238 C281 238 281 255 270 255 C244 255 218 255 193 255 C192 255 192 255 191 255 C197 272 203 290 208 308 C226 308 244 308 261 308 C270 308 279 308 288 308 C299 308 299 325 288 325 L288 325 Z M174 255 C161 255 149 255 137 255 C143 272 149 290 155 308 C167 308 179 308 190 308 C185 290 179 272 174 255 L174 255 Z " />
<glyph glyph-name="dollar" unicode="&#x24;" horiz-adv-x="200" d="M124 357 C118 349 131 341 138 349 C146 360 152 374 156 387 C160 402 163 422 150 433 C148 435 144 436 142 437 C142 437 143 442 144 444 C149 454 133 457 130 447 C129 444 127 438 127 438 C116 437 104 431 95 424 C68 402 48 366 44 335 C42 316 49 298 63 286 C66 283 73 279 73 279 C66 258 60 237 54 217 C51 206 48 194 44 183 C26 201 35 227 49 241 C58 246 51 260 42 255 C10 236 10 180 40 167 C38 161 37 155 35 149 C32 139 48 135 51 145 C52 151 54 157 56 163 C76 163 98 178 111 194 C124 209 133 231 128 250 C125 261 119 269 111 276 C105 281 99 284 92 287 C101 318 111 348 122 379 C127 393 132 407 137 421 C156 406 136 375 124 357 L124 357 Z M98 265 C106 259 111 252 113 242 C115 225 104 207 91 196 C83 188 71 182 60 180 C69 210 78 241 87 271 C91 269 95 267 98 265 L98 265 Z M65 354 C74 378 96 417 121 422 C106 381 91 338 78 296 C57 306 58 337 65 354 L65 354 Z " />
<glyph glyph-name="percent" unicode="&#x25;" horiz-adv-x="197" d="M145 357 C142 349 135 342 130 335 C89 278 52 219 16 159 C14 155 11 151 10 146 C8 141 10 137 14 135 C19 134 23 136 25 141 C27 145 30 150 33 154 C62 203 92 251 125 298 C135 314 146 329 157 344 C163 352 170 372 154 373 C141 375 123 374 109 371 C108 371 107 372 106 373 C104 380 99 382 93 381 C78 377 59 357 56 342 C54 332 59 324 68 323 C73 323 77 324 82 325 C94 331 103 340 109 352 C110 354 111 355 113 355 C123 355 134 357 145 357 L145 357 Z M91 362 C92 360 93 359 94 358 C88 350 82 344 73 341 C77 350 83 356 91 362 L91 362 Z M80 208 C75 188 92 183 108 189 C116 192 122 198 127 206 C133 215 134 224 131 233 C129 238 126 242 122 246 C116 251 111 252 105 247 C93 237 83 224 80 208 L80 208 Z M113 230 C119 220 108 200 97 203 C93 205 106 228 113 230 L113 230 Z " />
<glyph glyph-name="ampersand" unicode="&#x26;" horiz-adv-x="285" d="M230 283 C227 285 223 284 220 282 C219 281 218 279 217 278 C211 269 205 261 198 252 C192 244 186 236 179 228 C172 237 169 246 163 254 C144 285 130 318 125 355 C124 358 125 361 127 364 C140 385 153 405 166 426 C183 456 200 486 207 520 C209 529 209 538 206 546 C202 557 192 562 179 560 C171 558 164 554 157 548 C142 535 131 520 124 503 C111 474 105 445 104 415 C104 398 104 381 106 365 C106 363 105 361 104 360 C82 325 60 291 40 255 C23 223 6 190 -1 155 C-7 123 1 86 39 90 C51 91 64 96 75 102 C93 113 109 126 123 141 C141 160 161 181 175 199 C182 188 189 178 196 168 C198 165 201 162 205 160 C209 158 214 160 216 164 C218 167 218 172 215 174 C210 177 207 182 204 187 C198 196 193 205 187 213 C202 230 217 249 230 268 C231 270 232 272 233 273 C234 277 233 281 230 283 L230 283 Z M151 518 C157 526 163 533 171 538 C174 540 177 542 181 543 C186 544 188 543 190 539 C191 533 191 527 190 521 C185 494 171 469 157 444 C149 430 141 418 133 404 L122 386 C120 393 121 402 121 410 C124 449 129 486 151 518 L151 518 Z M164 211 C144 188 125 165 104 145 C94 135 83 126 71 119 C61 113 51 108 40 107 C29 106 20 107 16 121 C14 126 14 132 14 138 C15 160 23 181 32 202 C48 238 68 272 90 306 C97 316 104 328 110 338 C116 312 124 288 136 265 C145 249 155 233 165 217 C166 214 166 213 164 211 L164 211 Z " />
<glyph glyph-name="quotesingle" unicode="&#x27;" horiz-adv-x="173" d="M94 510 C92 503 92 499 94 496 C97 492 101 492 105 494 C109 496 111 500 111 505 C111 507 111 509 111 511 C113 515 114 519 115 523 C119 532 122 541 127 549 C130 554 130 558 127 560 C123 562 118 561 115 557 C113 555 111 553 110 551 C103 537 99 523 94 510 L94 510 Z " />
<glyph glyph-name="parenleft" unicode="&#x28;" horiz-adv-x="157" d="M238 653 C230 647 223 640 217 632 C206 620 196 607 186 594 C158 556 133 514 112 472 C86 420 64 365 50 309 C40 267 34 225 31 183 C26 119 26 53 41 -10 C44 -20 60 -16 57 -5 C44 49 42 106 46 161 C48 206 54 251 63 294 C75 346 95 397 117 444 C138 489 162 532 190 572 C201 587 212 602 224 616 C229 621 233 626 238 631 C239 633 241 634 243 636 C244 637 244 637 245 638 C245 638 246 639 246 639 C248 640 245 638 246 639 C254 645 246 659 238 653 L238 653 L238 653 Z " />
<glyph glyph-name="parenright" unicode="&#x29;" horiz-adv-x="147" d="M77 642 C77 641 78 639 79 638 C79 637 79 637 80 636 C80 635 81 632 80 635 C83 630 86 625 88 620 C93 606 97 591 99 576 C111 528 112 479 112 431 C109 381 103 332 90 285 C77 244 62 203 47 164 C22 105 -9 49 -45 -2 C-52 -10 -38 -21 -33 -13 C2 33 29 84 53 136 C72 179 88 223 101 269 C116 313 123 360 127 407 C130 459 129 512 119 564 C115 583 110 602 105 621 C100 630 97 642 91 650 C83 658 70 650 77 642 L77 642 L77 642 Z " />
<glyph glyph-name="asterisk" unicode="&#x2a;" horiz-adv-x="150" d="M98 554 C99 555 100 556 101 557 C112 565 122 573 133 582 C135 583 136 585 138 587 C140 590 140 594 139 596 C137 598 133 599 129 597 C128 597 126 595 124 594 C118 589 111 583 104 578 C103 577 103 577 102 576 C103 580 104 584 105 588 C106 592 104 595 100 596 C97 596 92 594 90 590 C89 588 88 586 87 584 C86 580 85 577 83 572 C79 577 75 582 71 586 C69 590 64 590 60 587 C56 584 54 579 55 575 C56 574 57 572 58 571 C63 565 68 559 73 553 C67 548 62 544 56 540 C52 537 49 535 46 532 C41 528 39 523 42 520 C44 516 49 516 54 520 C57 523 61 525 64 527 C66 529 68 531 71 533 C69 527 67 522 65 517 C63 513 64 510 67 508 C70 507 75 508 78 511 C80 513 81 516 82 518 C85 524 86 529 88 534 C89 533 90 532 90 531 C93 529 95 526 98 524 C101 521 106 522 110 526 C113 529 114 534 112 537 C111 538 111 538 110 539 C106 544 102 549 98 554 L98 554 Z " />
<glyph glyph-name="plus" unicode="&#x2b;" horiz-adv-x="191" d="M109 275 C112 275 116 275 119 276 C124 276 129 277 133 279 C138 281 141 286 140 290 C139 294 135 295 129 294 C125 293 120 293 114 292 C115 295 116 297 116 299 C119 304 117 309 112 309 C108 310 103 307 101 302 C99 298 98 295 96 291 C90 291 84 291 78 291 C72 291 67 287 66 282 C65 277 68 274 74 274 C80 274 85 274 90 274 C90 270 89 266 88 262 C87 257 90 254 94 254 C99 254 103 257 105 262 C106 267 107 271 109 275 L109 275 Z " />
<glyph glyph-name="comma" unicode="&#x2c;" horiz-adv-x="120" d="M45 259 C46 263 45 266 42 269 C39 270 36 271 33 269 C30 267 28 264 28 261 C28 255 26 250 21 246 C17 242 17 237 19 233 C22 230 27 229 32 232 C41 239 45 248 45 259 L45 259 Z " />
<glyph glyph-name="hyphen" unicode="&#x2d;" horiz-adv-x="150" d="M60 276 C60 276 75 276 83 276 C87 276 91 277 95 278 C99 280 100 284 99 288 C97 292 94 294 90 294 C82 293 74 293 66 293 C60 293 55 293 49 293 C44 294 40 290 40 285 C40 281 43 277 48 277 C52 276 56 276 60 276 L60 276 Z " />
<glyph glyph-name="period" unicode="&#x2e;" horiz-adv-x="95" d="M32 242 C32 247 28 251 23 250 C18 250 15 246 15 242 C15 237 19 234 23 234 C28 234 32 238 32 242 L32 242 Z " />
<glyph glyph-name="slash" unicode="&#x2f;" horiz-adv-x="154" d="M142 426 C142 430 141 433 138 435 C135 436 132 436 129 434 C127 432 126 430 125 428 L107 386 C75 320 44 255 14 189 C9 179 4 170 0 160 C-2 156 -1 151 3 149 C7 147 12 148 15 153 L18 158 L91 313 L140 421 C141 423 142 425 142 426 L142 426 Z " />
<glyph glyph-name="zero" unicode="0" horiz-adv-x="71" d="M47 336 C46 336 45 336 44 336 C42 337 38 337 36 334 C22 321 12 305 5 287 C0 274 -7 256 2 243 C14 224 36 235 47 247 C60 261 68 280 69 300 C69 312 65 339 47 336 L47 336 Z M21 249 C8 247 18 274 20 279 C26 294 33 308 47 321 C50 317 51 313 52 310 C55 291 42 252 21 249 L21 249 Z " />
<glyph glyph-name="one" unicode="1" horiz-adv-x="53" d="M31 329 C22 300 12 271 4 241 C1 231 17 227 20 237 C28 267 38 296 47 325 C49 329 45 334 41 335 C36 336 32 333 31 329 L31 329 L31 329 Z " />
<glyph glyph-name="two" unicode="2" horiz-adv-x="76" d="M15 254 C24 263 32 270 41 279 C50 287 58 296 65 306 C68 311 72 317 72 323 C71 331 64 337 57 337 C45 338 30 324 25 315 C21 305 34 297 39 306 C42 312 46 315 51 318 C52 319 54 320 53 318 C47 308 39 299 30 291 C22 282 12 274 3 266 C-3 260 -12 253 -16 245 C-19 240 -16 233 -9 233 C13 233 20 232 42 233 C52 234 52 250 42 249 C28 249 30 250 16 250 C14 250 11 250 12 252 C13 253 14 253 15 254 L15 254 Z " />
<glyph glyph-name="three" unicode="3" horiz-adv-x="68" d="M52 291 C50 293 46 295 43 296 C52 304 63 314 60 327 C59 335 49 338 41 336 C32 333 23 326 17 320 C9 312 19 300 27 308 C31 312 34 315 39 318 C40 318 43 320 42 318 C37 309 25 301 17 293 C13 288 18 282 23 281 C26 280 29 280 31 280 C31 280 31 280 32 280 C32 280 36 279 35 278 C34 277 34 277 34 277 C31 275 28 273 25 271 C11 263 -2 254 -15 245 C-24 239 -13 227 -4 234 C6 241 15 248 25 253 C33 258 43 263 49 270 C56 276 59 285 52 291 L52 291 Z " />
<glyph glyph-name="four" unicode="4" horiz-adv-x="83" d="M64 332 C62 322 59 313 56 303 C45 302 35 300 25 299 C24 299 23 299 23 299 C17 298 25 317 26 318 C29 327 14 335 10 326 C-2 295 5 280 37 284 C41 285 46 285 50 286 C45 272 41 259 36 245 C34 235 49 227 52 237 C61 266 71 294 80 323 C83 333 67 341 64 332 L64 332 Z " />
<glyph glyph-name="five" unicode="5" horiz-adv-x="81" d="M67 336 C60 336 52 335 45 335 C39 334 30 336 25 331 C17 318 12 306 7 294 C5 288 10 281 18 283 C22 284 30 285 34 281 C37 277 36 269 34 265 C28 256 15 252 7 248 C-2 245 3 229 13 233 C28 239 49 248 52 267 C53 276 51 287 43 294 C39 297 34 298 29 299 C27 302 35 318 40 318 C52 318 60 319 68 320 C78 321 77 337 67 336 L67 336 Z " />
<glyph glyph-name="six" unicode="6" horiz-adv-x="66" d="M61 274 C56 290 39 290 25 287 C32 300 40 311 49 323 C55 331 43 342 37 334 C26 320 15 305 7 288 C0 274 -6 257 4 241 C14 226 33 234 44 242 C53 249 65 261 61 274 L61 274 Z M44 267 C40 261 26 246 18 249 C11 252 15 264 17 268 C20 276 49 274 44 267 L44 267 Z " />
<glyph glyph-name="seven" unicode="7" horiz-adv-x="61" d="M58 325 C54 343 29 337 18 329 C9 323 16 309 26 315 C30 318 35 319 40 320 C41 320 42 320 42 318 C42 300 11 260 3 244 C-2 235 11 227 16 236 C26 254 64 304 58 325 L58 325 Z " />
<glyph glyph-name="eight" unicode="8" horiz-adv-x="76" d="M54 336 C33 340 14 311 25 295 C21 294 17 292 14 290 C1 280 -6 263 3 246 C12 227 32 229 44 239 C51 245 54 254 54 263 C54 274 50 279 46 286 C53 289 61 293 65 300 C71 311 72 331 54 336 L54 336 Z M26 247 C20 246 17 251 16 256 C13 268 24 276 32 280 C42 270 41 252 26 247 L26 247 Z M52 313 C50 308 45 304 40 301 C38 319 57 328 52 313 L52 313 Z " />
<glyph glyph-name="nine" unicode="9" horiz-adv-x="81" d="M73 334 C70 336 65 338 62 335 C61 334 55 324 53 320 C53 323 51 325 49 327 C36 335 22 328 14 319 C8 311 -1 296 8 285 C19 272 43 281 52 290 C50 287 49 284 48 282 C44 272 29 242 25 249 C19 259 6 250 12 241 C19 231 32 230 40 236 C48 242 53 253 58 263 C63 273 67 283 72 294 C78 308 79 330 73 334 L73 334 Z M25 295 C25 295 24 295 24 295 C20 295 23 300 23 301 C27 307 34 318 42 313 C45 312 46 312 48 312 C42 303 35 296 25 295 L25 295 Z " />
<glyph glyph-name="colon" unicode="&#x3a;" horiz-adv-x="115" d="M65 309 C70 309 76 313 78 318 C79 323 76 326 72 326 C67 326 61 322 59 317 C58 312 61 309 65 309 L65 309 Z M50 261 C45 261 40 257 38 252 C37 247 40 243 44 243 C49 243 54 248 56 252 C57 257 55 261 50 261 L50 261 Z " />
<glyph glyph-name="semicolon" unicode="&#x3b;" horiz-adv-x="120" d="M67 261 C69 267 68 270 65 271 C60 273 55 270 51 264 C48 258 45 252 39 246 C36 243 36 240 37 237 C38 235 41 233 44 234 C47 235 50 237 53 239 C60 246 64 254 67 261 L67 261 Z M76 327 C70 327 65 323 64 318 C63 314 65 310 70 310 C75 310 81 314 83 319 C84 324 81 327 76 327 L76 327 Z " />
<glyph glyph-name="less" unicode="&#x3c;" horiz-adv-x="167" d="M59 276 C83 291 109 305 133 321 C137 324 139 328 138 332 C135 338 129 336 124 333 C103 320 82 308 62 295 C55 291 48 287 42 283 C35 278 33 271 38 267 C40 265 42 263 45 262 C60 252 75 243 90 233 C94 231 99 232 102 236 C106 240 107 245 103 248 C102 249 101 249 100 250 C86 258 72 266 59 276 L59 276 Z " />
<glyph glyph-name="equal" unicode="&#x3d;" horiz-adv-x="153" d="M110 304 C110 304 110 304 104 304 C94 303 84 303 74 302 C69 302 64 301 58 300 C53 299 48 295 48 290 C47 285 51 283 57 284 C71 286 85 287 106 287 C110 287 115 291 116 295 C117 300 115 303 110 304 L110 304 Z M60 260 C65 261 72 262 78 263 C82 264 85 264 88 266 C92 267 95 271 95 275 C95 279 93 281 88 281 C80 281 71 278 62 277 C57 276 53 272 52 268 C51 263 54 260 60 260 L60 260 Z " />
<glyph glyph-name="greater" unicode="&#x3e;" horiz-adv-x="141" d="M89 288 C82 282 73 277 62 270 C50 263 39 256 27 248 C22 245 21 240 23 236 C26 232 30 232 36 235 C55 247 75 260 95 273 C99 275 103 278 106 280 C112 285 113 292 108 296 C95 308 82 320 66 329 C65 330 63 331 61 332 C57 333 52 331 50 327 C48 322 49 318 53 316 C67 308 77 298 89 288 L89 288 Z " />
<glyph glyph-name="question" unicode="&#x3f;" horiz-adv-x="196" d="M149 521 C143 521 138 519 132 516 C118 510 106 500 95 488 C87 479 79 469 75 457 C74 455 73 452 73 449 C73 444 78 440 83 440 C88 440 91 444 91 449 C91 451 91 452 92 454 C97 461 102 469 107 476 C117 487 128 497 142 502 C151 506 154 503 152 494 C151 486 149 477 147 469 C139 442 127 415 115 388 C97 349 78 310 60 271 C48 245 36 218 27 190 C25 183 23 175 21 168 C21 163 23 159 28 158 C31 157 36 159 37 163 C38 164 38 165 39 167 C42 177 44 187 47 197 C59 229 74 260 88 291 C106 330 124 368 141 406 C151 428 160 450 166 474 C168 483 171 494 169 504 C167 514 159 521 149 521 L149 521 Z M23 90 C28 90 33 95 33 100 C33 105 29 109 23 109 C18 109 14 104 14 99 C14 94 18 90 23 90 L23 90 Z " />
<glyph glyph-name="at" unicode="&#x40;" horiz-adv-x="245" d="M207 356 C200 378 184 395 161 400 C139 405 116 401 97 389 C57 364 33 312 38 267 C41 239 55 213 80 199 C102 187 131 187 152 202 C161 208 152 223 143 216 C129 206 110 205 93 212 C75 219 63 236 58 254 C47 291 63 335 90 361 C102 374 119 383 137 385 C154 386 173 381 183 366 C193 352 195 335 193 318 C189 281 172 275 162 275 C157 275 156 281 156 284 C156 285 156 285 156 286 C156 301 162 318 169 327 C172 333 169 337 165 339 C165 341 164 343 163 344 C151 357 132 357 117 349 C102 341 92 323 87 307 C84 294 83 277 92 266 C103 253 122 262 132 273 C134 275 136 278 139 281 C139 272 142 264 150 260 C160 256 172 259 181 264 C191 270 198 280 203 291 C211 311 213 335 207 356 L207 356 Z M106 277 C100 282 101 290 102 295 C105 308 111 322 121 331 C130 340 144 339 152 331 C144 318 117 273 106 277 L106 277 Z " />
<glyph glyph-name="A" unicode="A" horiz-adv-x="665" d="M737 776 C733 788 726 796 713 798 C705 800 696 799 687 796 C671 790 657 781 642 771 C614 752 588 729 563 706 C504 653 448 597 394 540 C343 487 294 433 246 378 C200 325 156 272 112 217 C110 215 108 214 106 214 C103 214 101 213 99 213 C42 208 -101 190 -125 186 C-130 186 -133 182 -133 177 C-133 173 -130 170 -125 170 C-123 170 -121 170 -119 170 C-93 174 82 195 94 196 C91 191 87 187 84 183 C5 84 -71 -18 -144 -121 C-168 -156 -192 -190 -216 -224 C-218 -226 -219 -228 -221 -229 C-225 -231 -228 -236 -227 -241 C-225 -245 -222 -248 -217 -247 C-214 -247 -211 -245 -209 -242 C-204 -236 -200 -231 -196 -225 C-118 -112 -37 0 47 109 C70 138 93 167 116 196 C117 197 118 198 119 198 C126 199 132 199 138 200 C174 204 464 220 479 220 C480 220 481 220 482 220 C487 221 491 224 491 229 C491 234 488 237 482 237 C455 238 202 224 133 217 C134 218 134 218 135 219 C163 253 191 288 220 321 C259 367 298 412 338 456 C376 497 415 538 454 578 C504 629 556 679 611 726 C629 741 648 756 669 768 C678 774 688 779 699 781 C706 783 711 782 715 780 C715 780 715 780 715 780 C734 768 715 697 715 697 C715 697 715 697 715 697 C709 672 701 647 693 623 C672 562 650 501 629 440 C571 284 429 -126 384 -280 C382 -285 384 -289 388 -291 C393 -292 397 -290 399 -285 C401 -282 403 -278 404 -273 C475 -42 572 231 637 413 C661 480 685 548 708 616 C722 657 736 699 740 743 C741 754 741 765 737 776 L737 776 Z " />
<glyph glyph-name="B" unicode="B" horiz-adv-x="1059" d="M103 237 C103 235 101 234 101 233 C55 123 11 14 -34 -96 C-38 -105 -41 -115 -48 -124 C-50 -127 -49 -131 -45 -134 C-43 -136 -39 -137 -35 -133 C-32 -131 -30 -128 -29 -125 C-25 -118 -23 -112 -20 -106 C26 9 74 124 122 240 C123 242 124 244 127 244 C164 256 201 267 239 279 C325 304 412 326 499 344 C550 353 600 363 650 370 C670 372 691 375 711 377 C727 378 743 380 760 380 C780 381 801 382 822 382 C835 383 848 382 861 381 C874 380 888 379 901 378 C918 376 935 373 951 368 C966 364 979 358 992 348 C1006 337 1009 323 1001 304 C996 294 991 285 983 277 C966 257 947 241 926 225 C891 200 853 178 815 158 C742 119 667 86 590 57 C497 20 403 -15 309 -49 C172 -99 34 -148 -101 -197 C-115 -202 -128 -207 -142 -213 C-146 -215 -149 -217 -151 -220 C-155 -223 -154 -228 -151 -231 C-148 -233 -144 -233 -140 -231 C-138 -230 -136 -228 -133 -228 C-83 -209 -33 -191 15 -173 C158 -121 300 -70 442 -18 C514 7 585 35 657 65 C723 93 787 123 851 159 C891 181 930 206 966 236 C982 250 997 265 1008 284 C1015 294 1020 305 1022 316 C1025 334 1019 347 1007 358 C996 370 982 377 966 382 C940 390 914 394 888 397 C871 398 854 399 837 399 C813 399 790 398 768 397 C752 397 736 395 721 394 C707 393 693 392 679 390 C659 388 641 385 621 383 C593 378 566 374 538 369 C490 360 443 350 396 338 C309 318 224 293 140 266 C138 265 135 264 132 264 C133 265 133 266 133 267 C138 280 144 292 149 304 C149 307 151 308 154 310 C186 329 219 348 252 368 C332 416 413 464 492 514 C540 545 587 575 631 610 C653 628 674 646 692 666 C703 678 711 690 717 703 C725 724 721 741 706 753 C700 759 693 762 687 765 C665 774 641 777 616 777 C602 778 589 777 575 776 C557 775 540 773 523 771 C493 766 462 760 432 751 C359 733 288 708 218 677 C164 651 111 623 63 588 C51 578 39 569 29 558 C26 555 24 552 23 549 C22 544 24 540 28 538 C31 537 36 538 37 542 C41 548 45 551 49 555 C69 571 89 586 110 600 C166 635 224 662 284 686 C286 687 288 688 290 688 C286 678 281 667 278 657 C231 546 185 434 139 323 C137 321 136 319 134 318 C108 303 82 288 57 272 C25 254 -4 235 -36 215 C-40 212 -45 209 -50 205 C-53 202 -54 198 -53 194 C-51 190 -47 188 -42 189 C-39 190 -35 190 -31 191 C3 203 38 214 73 226 C82 230 91 233 103 237 L103 237 Z M161 334 C164 341 167 348 169 354 C215 467 262 578 309 690 C311 695 314 697 318 699 C374 720 432 736 489 747 C508 750 527 753 546 755 C560 758 574 759 587 760 C601 760 614 760 627 760 C646 759 664 755 681 748 C685 746 690 743 693 740 C704 733 706 723 702 711 C697 698 689 688 680 678 C664 659 645 643 625 627 C580 591 532 560 484 529 C402 476 318 427 233 377 C211 364 188 350 165 336 C164 336 163 335 161 334 L161 334 Z M4 222 C44 246 84 269 126 294 C125 292 125 291 125 290 C120 280 116 269 112 259 C111 258 110 257 109 256 C74 245 40 234 6 222 C6 221 5 221 5 221 C5 221 5 222 4 222 L4 222 Z " />
<glyph glyph-name="C" unicode="C" horiz-adv-x="533" d="M720 -146 C652 -165 581 -180 512 -194 C430 -210 348 -223 264 -227 C227 -229 188 -230 150 -228 C112 -226 73 -221 38 -206 C3 -190 -26 -166 -45 -134 C-65 -100 -75 -61 -78 -22 C-81 13 -76 48 -68 83 C-61 113 -52 143 -41 174 C-17 239 16 301 53 361 C93 424 139 483 191 537 C242 591 299 639 362 680 C422 718 488 749 557 766 C587 774 620 780 650 771 C674 763 689 745 689 721 C690 705 685 689 679 673 C678 670 681 665 685 664 C689 663 693 665 694 669 C705 697 712 733 693 760 C676 783 646 790 618 791 C583 791 547 781 514 770 C478 759 444 743 412 726 C345 691 282 646 227 595 C170 542 119 483 74 421 C32 360 -5 296 -36 228 C-62 169 -84 105 -92 39 C-97 -1 -94 -44 -83 -83 C-73 -121 -55 -157 -26 -183 C35 -240 121 -245 200 -245 C283 -244 366 -235 448 -222 C526 -209 604 -192 681 -173 C696 -169 710 -165 724 -161 C734 -159 730 -144 720 -146 L720 -146 Z " />
<glyph glyph-name="D" unicode="D" horiz-adv-x="816" d="M771 715 C745 743 710 762 672 770 C630 778 587 772 546 759 C461 733 384 681 314 628 C273 597 233 565 196 530 C210 577 225 625 239 673 C246 697 253 722 259 746 C263 758 270 787 272 800 C273 806 260 808 258 803 C253 791 234 722 231 711 C213 644 196 590 179 534 C176 523 172 509 165 501 C149 483 132 467 116 449 C85 415 56 379 30 342 C-22 266 -64 183 -88 95 C-101 49 -107 2 -112 -45 C-114 -69 -117 -93 -118 -117 C-119 -141 -120 -165 -116 -188 C-114 -202 -106 -222 -88 -214 C-70 -206 -61 -180 -54 -164 C-34 -119 -17 -72 1 -27 C37 66 71 159 104 253 C120 300 136 347 152 394 C160 417 173 480 185 496 C188 501 194 505 197 508 C202 513 207 517 212 522 C280 584 354 641 433 688 C505 732 599 774 685 749 C721 738 753 714 774 683 C796 649 803 608 801 567 C797 477 750 391 701 317 C597 160 450 39 292 -58 C209 -109 124 -153 38 -197 C16 -208 -7 -220 -30 -231 C-36 -234 -51 -238 -44 -248 C-39 -258 -25 -247 -18 -244 C27 -223 71 -200 114 -178 C282 -90 447 9 582 145 C647 210 704 283 749 364 C791 437 827 523 817 610 C812 649 797 686 771 715 L771 715 Z M121 357 C92 271 62 185 30 100 C14 56 -3 12 -19 -31 C-43 -93 -59 -141 -83 -184 C-86 -188 -92 -202 -97 -193 C-105 -179 -102 -153 -102 -141 C-101 -94 -95 -49 -90 -3 C-79 82 -52 164 -11 240 C33 325 92 401 159 470 C147 432 134 395 121 357 L121 357 Z " />
<glyph glyph-name="E" unicode="E" horiz-adv-x="397" d="M624 -77 C586 -100 545 -118 503 -134 C454 -153 403 -169 352 -183 C298 -197 244 -208 189 -216 C138 -224 87 -228 36 -227 C-7 -226 -49 -222 -89 -208 C-105 -203 -121 -195 -135 -185 C-138 -183 -140 -181 -144 -178 C-146 -175 -149 -173 -152 -170 C-158 -164 -161 -160 -165 -152 C-181 -126 -185 -91 -180 -61 C-174 -20 -151 31 -128 66 C-97 111 -57 152 -15 187 C40 235 101 275 163 312 C181 323 199 332 217 341 C223 345 222 354 216 356 C159 369 90 393 62 447 C52 467 48 489 52 512 C56 539 68 564 84 587 C103 617 128 642 154 666 C187 695 222 720 259 742 C291 761 325 775 360 784 C387 790 416 794 442 788 C453 785 462 782 471 776 C475 774 479 771 482 767 C484 765 487 760 489 756 C491 752 492 746 494 741 C494 736 495 731 495 725 C494 710 490 697 485 683 C483 674 479 666 475 658 C471 649 484 641 488 650 C502 679 514 711 509 744 C505 767 492 785 470 795 C445 807 414 808 387 805 C351 800 316 788 283 772 C243 753 205 727 171 699 C139 675 109 647 85 616 C51 572 23 514 41 458 C60 398 124 366 181 349 C185 347 188 346 192 345 C129 312 67 272 11 229 C-37 191 -82 150 -120 103 C-148 67 -177 13 -190 -32 C-199 -65 -201 -103 -190 -136 C-178 -169 -154 -194 -123 -210 C-87 -229 -45 -237 -4 -241 C46 -245 97 -243 147 -237 C202 -231 258 -221 312 -208 C366 -196 419 -181 471 -162 C517 -146 563 -128 606 -105 C615 -101 623 -96 632 -91 C640 -86 633 -72 624 -77 L624 -77 Z " />
<glyph glyph-name="F" unicode="F" horiz-adv-x="395" d="M133 211 C127 191 93 91 80 53 C71 20 62 -13 53 -46 C46 -70 41 -95 36 -120 C30 -138 27 -156 24 -174 C20 -193 15 -211 11 -230 C11 -235 11 -240 15 -244 C18 -247 23 -247 26 -245 C30 -242 31 -238 29 -234 C29 -233 28 -232 28 -231 C30 -223 31 -215 33 -207 C39 -181 45 -156 50 -130 C57 -103 62 -77 69 -51 C81 -7 94 38 108 82 C120 125 136 168 151 211 C152 213 152 214 155 215 C162 215 168 217 175 218 C199 221 224 225 248 229 C253 230 259 231 265 232 C269 233 272 236 272 240 C272 244 269 247 266 248 C264 248 261 248 259 248 C245 246 230 243 215 241 C201 239 188 237 174 235 C169 234 164 233 159 232 C160 240 165 250 168 260 C204 355 243 448 288 538 C310 583 332 628 354 672 C355 673 356 674 358 675 C385 680 411 685 437 689 C458 693 479 697 502 701 C518 704 535 707 551 709 C570 712 588 715 606 718 C621 721 636 723 652 725 C664 727 677 729 690 731 C702 732 714 734 727 736 C737 737 747 738 757 739 C769 740 781 742 793 743 C803 743 813 744 823 745 C839 746 855 746 872 747 C883 748 893 748 904 748 C909 748 913 751 914 755 C914 759 912 763 907 764 C906 765 904 765 903 765 C892 765 881 764 870 764 C864 764 857 764 851 763 C837 763 824 762 810 761 C803 760 797 760 791 759 C779 758 767 757 755 756 C743 754 731 753 719 752 C707 750 694 748 682 747 C668 745 654 743 640 741 C621 738 604 735 587 732 C568 729 549 726 529 723 C505 719 481 714 457 710 C431 705 403 700 377 696 C372 695 368 694 363 693 C368 705 386 745 393 761 C395 767 399 774 401 780 C402 785 399 789 395 791 C391 792 387 789 385 785 C380 774 375 763 371 752 C361 732 353 712 345 692 C343 687 334 687 329 686 C281 677 233 668 186 656 C133 643 81 628 31 609 C20 605 11 600 3 596 C-1 593 -2 588 0 584 C0 580 4 579 9 581 C17 584 23 588 30 590 C90 614 150 631 211 645 C243 652 276 658 307 665 C316 667 325 668 334 670 C329 658 309 616 299 599 C259 521 223 442 190 362 C172 319 158 276 141 233 C140 231 140 229 137 229 C116 225 94 221 73 217 C53 214 34 211 14 207 C12 207 8 205 6 203 C4 201 3 198 5 195 C6 192 9 190 12 190 C21 191 30 193 39 194 C64 199 90 203 116 208 C121 209 127 210 133 211 L133 211 Z " />
<glyph glyph-name="G" unicode="G" horiz-adv-x="458" d="M452 622 C453 622 453 622 453 622 C452 618 451 614 451 610 C448 600 446 591 445 581 C443 578 445 575 448 573 C450 572 450 571 450 569 C442 547 435 525 428 503 C406 440 386 374 359 313 C333 294 308 276 281 257 C244 229 210 198 178 163 C121 100 77 30 46 -47 C32 -80 23 -113 17 -148 C15 -163 13 -179 14 -194 C15 -205 16 -216 21 -225 C30 -239 45 -245 62 -240 C75 -236 87 -228 97 -220 C115 -205 129 -188 143 -170 C172 -131 197 -89 220 -47 C261 29 297 107 329 186 C345 225 360 264 375 303 C384 312 396 317 407 326 C409 327 411 328 414 328 C418 329 423 333 423 337 C423 342 418 345 413 345 C405 347 394 338 386 333 C398 363 410 396 422 428 C433 463 446 498 457 534 C463 554 469 575 474 596 C478 606 479 617 480 627 C480 632 480 638 478 643 C477 644 477 645 477 646 C478 653 479 661 480 667 C481 679 482 691 482 702 C482 716 481 729 476 742 C465 773 439 787 404 781 C387 778 371 771 356 763 C319 743 287 718 257 689 C222 656 191 620 163 582 C103 502 55 416 18 325 C4 294 -7 262 -16 230 C-21 214 -24 198 -28 182 C-29 168 -31 154 -29 139 C-29 130 -26 122 -21 116 C-11 107 0 107 13 112 C26 116 39 124 49 133 C71 153 92 174 111 195 C143 232 174 272 203 311 C255 379 307 448 360 515 C384 547 409 577 436 606 C441 612 447 617 452 622 L452 622 Z M463 680 C462 668 461 659 459 648 C459 648 459 647 458 646 C446 640 436 631 428 621 C404 597 384 570 362 544 C308 477 256 409 204 339 C171 296 139 253 103 211 C82 189 63 166 39 147 C31 141 24 136 16 131 C12 128 7 127 3 126 C-2 125 -5 127 -8 130 C-11 136 -12 143 -12 149 C-13 166 -10 184 -5 202 C10 265 35 326 65 386 C100 459 141 528 192 592 C224 633 259 672 300 705 C323 724 346 740 371 752 C384 758 397 763 410 765 C429 767 445 762 454 747 C460 736 464 724 464 711 C464 700 464 688 463 680 L463 680 Z M351 287 C347 275 341 263 337 251 C310 184 282 117 252 52 C224 -6 193 -64 157 -120 C142 -144 125 -167 105 -189 C93 -204 78 -218 55 -224 C48 -225 43 -223 39 -218 C28 -207 30 -179 32 -164 C42 -98 66 -36 99 24 C125 73 158 118 199 161 C228 193 261 221 298 248 C313 260 330 272 347 284 C348 285 349 286 351 287 L351 287 Z " />
<glyph glyph-name="H" unicode="H" horiz-adv-x="599" d="M685 786 L507 253 L110 227 C109 227 109 227 108 227 C101 226 94 226 87 225 L84 225 L86 231 C103 283 250 724 256 743 C258 748 255 753 250 754 C245 755 240 752 238 746 C217 672 65 224 65 224 C61 223 58 223 55 223 C42 222 30 220 18 220 C6 218 -6 218 -19 217 C-35 215 -50 214 -66 212 C-82 211 -98 209 -113 208 C-132 205 -152 203 -171 200 C-196 195 -222 191 -247 185 C-264 182 -280 177 -296 169 C-301 166 -306 162 -311 158 C-316 152 -319 146 -317 139 C-316 133 -313 129 -309 125 C-299 115 -288 109 -275 103 C-253 93 -230 83 -208 73 C-180 61 -153 48 -128 31 C-111 18 -95 4 -83 -14 C-61 -47 -56 -85 -61 -127 C-62 -132 -62 -138 -63 -143 C-71 -164 -78 -186 -86 -208 C-88 -216 -91 -225 -93 -234 C-94 -238 -92 -241 -88 -243 C-85 -244 -81 -243 -79 -240 C-77 -238 -76 -236 -75 -234 C-65 -212 -58 -189 -51 -166 C-49 -158 -49 -150 -46 -142 C8 9 38 91 77 205 C78 207 78 207 80 208 L501 235 L356 -203 C352 -214 369 -221 373 -210 L703 783 C706 795 689 798 685 786 L685 786 Z M-42 -82 C-45 -51 -54 -23 -71 1 C-85 20 -103 35 -123 48 C-149 66 -177 79 -207 92 C-229 102 -251 112 -272 122 C-281 126 -289 132 -296 137 C-303 143 -302 146 -293 151 C-282 158 -271 162 -259 165 C-235 172 -211 177 -188 180 C-170 183 -153 186 -135 188 C-121 190 -107 191 -93 193 C-79 194 -64 196 -50 197 C-38 198 -27 199 -15 200 C-3 201 9 202 21 203 C31 204 41 204 50 205 C53 205 56 206 60 206 C28 109 -7 13 -42 -82 L-42 -82 Z " />
<glyph glyph-name="I" unicode="I" horiz-adv-x="188" d="M255 765 C204 635 157 504 112 371 C71 253 32 135 -7 16 C-26 -40 -43 -97 -60 -153 C-65 -167 -69 -181 -73 -195 C-77 -209 -87 -206 -101 -208 C-131 -211 -161 -214 -192 -218 C-201 -219 -227 -217 -233 -227 C-239 -239 -224 -238 -217 -237 C-187 -235 -157 -231 -128 -228 C-120 -227 -113 -226 -105 -225 C-99 -224 -88 -221 -82 -223 C-79 -224 -77 -227 -73 -228 C-67 -229 -66 -223 -62 -221 C-51 -216 -32 -218 -21 -217 C-7 -215 7 -214 21 -213 C51 -210 81 -208 110 -205 C119 -204 150 -205 149 -191 C147 -179 127 -186 120 -187 C61 -195 1 -197 -58 -203 C-48 -153 -28 -103 -13 -54 C3 -3 20 47 37 98 C98 279 160 460 224 640 C234 668 265 748 275 767 C276 769 341 770 354 770 C367 771 477 767 476 779 C474 792 431 789 419 789 C374 789 329 787 283 784 C285 792 281 798 273 794 C267 792 268 783 261 782 C245 780 221 779 204 777 C166 773 127 770 90 760 C84 758 72 756 71 748 C69 738 79 740 84 741 C102 746 120 750 138 752 C177 758 216 762 255 765 L255 765 Z " />
<glyph glyph-name="J" unicode="J" horiz-adv-x="476" d="M372 331 C373 333 373 334 374 335 C402 399 425 465 439 533 C444 559 448 585 450 611 C452 634 452 657 449 680 C447 698 444 715 437 732 C427 754 413 772 391 784 C369 795 345 796 320 793 C302 790 284 784 266 777 C198 747 141 702 94 644 C84 631 75 617 68 601 C66 597 66 593 65 589 C65 585 69 581 73 581 C77 581 81 584 82 588 C83 592 84 595 85 599 C94 615 104 630 116 644 C148 681 184 711 225 736 C258 757 293 773 333 777 C349 778 364 777 379 770 C400 761 412 745 421 725 C431 700 434 672 434 644 C434 623 433 602 430 581 C427 565 425 548 421 532 C414 498 405 465 394 432 C381 397 368 362 352 328 C351 327 350 325 348 325 C341 323 333 321 326 319 C271 303 217 284 165 259 C79 217 0 165 -72 102 C-117 63 -158 20 -193 -28 C-212 -55 -229 -84 -241 -115 C-249 -138 -255 -161 -252 -186 C-250 -200 -245 -213 -234 -223 C-222 -234 -207 -238 -191 -239 C-178 -240 -165 -238 -152 -235 C-126 -230 -101 -219 -77 -207 C-30 -182 12 -151 52 -117 C91 -83 127 -46 160 -7 C213 57 261 124 302 196 C324 232 344 270 362 308 C362 310 364 311 365 312 C384 317 403 322 421 326 C424 327 428 327 430 326 C435 325 440 326 442 330 C444 334 443 339 438 341 C434 345 428 345 423 344 C413 342 404 339 395 337 C387 335 380 333 372 331 L372 331 Z M342 305 C339 301 338 297 336 293 C287 194 227 101 156 15 C105 -48 47 -104 -20 -151 C-49 -172 -80 -191 -113 -205 C-130 -212 -147 -218 -165 -221 C-177 -222 -189 -223 -202 -220 C-221 -216 -232 -203 -235 -184 C-238 -165 -234 -146 -227 -128 C-218 -99 -203 -74 -186 -49 C-156 -4 -120 36 -80 73 C0 146 89 205 187 251 C234 273 283 290 333 303 C336 304 338 304 342 305 L342 305 Z " />
<glyph glyph-name="K" unicode="K" horiz-adv-x="529" d="M208 180 C210 180 211 179 211 179 C238 167 264 155 291 144 C361 114 431 83 502 55 C627 5 754 -40 883 -81 C951 -104 1020 -125 1090 -141 C1108 -145 1126 -148 1144 -151 C1157 -153 1170 -154 1182 -156 C1194 -157 1206 -157 1218 -158 C1223 -158 1228 -155 1228 -150 C1229 -145 1225 -141 1220 -141 C1213 -141 1206 -141 1200 -140 C1185 -138 1171 -138 1157 -135 C1134 -132 1111 -127 1088 -122 C1044 -113 1001 -100 958 -87 C864 -58 772 -26 681 7 C577 44 475 83 374 127 C322 150 269 173 217 196 C215 196 214 197 215 199 C228 239 241 279 255 319 C276 380 296 441 317 503 C318 505 319 506 321 508 C373 540 424 572 476 604 C593 679 603 683 717 763 C727 771 737 779 750 783 C754 785 755 789 755 793 C754 797 750 800 746 799 C743 798 739 797 737 796 C731 793 726 790 721 786 C670 751 619 716 568 681 C463 611 463 615 356 548 C346 542 337 536 327 530 C327 531 327 532 327 532 C341 573 355 613 369 654 C385 701 394 723 409 769 C412 778 414 782 416 791 C417 796 413 800 409 800 C404 800 400 796 399 792 C396 781 393 774 390 763 C379 730 374 722 363 689 C344 633 325 576 306 520 C305 518 304 516 301 514 C264 492 227 469 190 447 C144 420 99 393 53 365 C36 354 18 343 3 329 C-1 325 -6 320 -9 314 C-13 310 -14 305 -14 299 C-13 292 -9 286 -3 281 C6 274 17 268 28 263 C82 238 135 213 189 189 C191 188 192 187 193 187 C193 186 192 185 192 184 C175 134 157 83 140 33 C112 -51 84 -135 56 -220 C55 -225 53 -230 52 -235 C51 -240 55 -244 60 -245 C64 -245 68 -241 69 -237 C70 -232 71 -228 73 -223 C95 -156 117 -90 139 -23 C159 35 179 93 199 151 C202 161 205 170 208 180 L208 180 Z M296 492 C263 396 231 300 199 204 C198 204 88 254 34 279 C26 283 17 289 10 294 C2 300 1 304 9 312 C17 320 26 327 35 334 C64 354 95 371 125 389 C180 422 236 456 292 489 C293 490 294 491 296 492 L296 492 Z " />
<glyph glyph-name="L" unicode="L" horiz-adv-x="304" d="M1049 -162 C1047 -161 1045 -161 1043 -161 C1015 -154 987 -151 959 -149 C943 -148 928 -147 912 -146 C896 -145 880 -145 864 -144 C850 -144 837 -143 823 -143 C806 -142 788 -142 771 -142 C746 -141 722 -141 697 -140 C680 -140 662 -140 644 -140 C607 -140 570 -139 532 -139 C488 -140 444 -140 400 -141 C389 -141 378 -142 368 -142 C350 -143 332 -144 314 -146 C303 -146 292 -147 280 -148 C264 -150 247 -152 231 -154 C211 -156 192 -159 172 -162 C147 -166 121 -171 96 -175 C55 -183 14 -192 -26 -203 C-46 -209 -112 -230 -124 -228 C-128 -227 -128 -222 -128 -218 C-128 -206 -125 -194 -122 -182 C-112 -144 -102 -105 -90 -67 C-49 72 -5 210 41 347 C84 472 129 605 172 730 C179 749 185 769 191 788 C192 794 190 799 185 800 C180 801 176 798 174 793 C169 776 164 759 158 742 C118 625 75 500 35 383 C-11 246 -55 109 -97 -29 C-112 -79 -127 -129 -139 -179 C-142 -193 -147 -212 -145 -228 C-143 -238 -135 -245 -125 -245 C-113 -246 -102 -243 -91 -239 C-31 -222 30 -205 92 -193 C132 -186 171 -180 210 -174 C233 -170 256 -168 279 -166 C296 -164 312 -162 329 -161 C344 -160 359 -159 374 -159 C393 -158 413 -157 433 -157 C452 -156 472 -156 491 -156 C549 -157 607 -157 665 -157 C678 -157 691 -158 705 -158 C730 -158 754 -159 779 -159 C795 -159 812 -160 828 -160 C848 -161 867 -162 886 -162 C900 -163 914 -163 928 -164 C948 -166 966 -167 985 -168 C998 -170 1011 -172 1023 -174 C1031 -175 1037 -177 1045 -178 C1049 -179 1053 -176 1054 -172 C1055 -168 1053 -164 1049 -162 L1049 -162 Z " />
<glyph glyph-name="M" unicode="M" horiz-adv-x="721" d="M770 730 C773 745 774 762 773 778 C772 790 767 804 753 804 C739 805 726 795 715 788 C703 779 691 769 680 758 C635 714 594 666 554 617 C515 568 477 517 440 466 C403 414 368 361 333 307 C299 252 266 198 232 143 C228 137 225 131 220 125 C222 142 226 159 229 176 C232 194 235 212 238 229 C241 247 245 265 248 282 C251 300 254 318 257 336 C260 354 263 371 264 389 C269 472 211 437 185 403 C162 378 142 350 122 323 C102 295 84 266 66 236 C29 178 -5 117 -36 55 C-65 -1 -93 -59 -117 -117 C-118 -120 -120 -123 -121 -125 C-114 -103 -108 -81 -101 -58 C-88 -15 -74 29 -59 72 C-45 116 -30 160 -15 203 C0 246 16 289 32 331 C40 352 49 373 58 393 C61 399 70 414 58 415 C48 416 44 402 41 395 C23 354 7 312 -8 270 C-24 227 -39 183 -54 140 C-69 96 -83 53 -97 9 C-111 -34 -124 -78 -137 -122 C-143 -143 -150 -165 -155 -187 C-158 -198 -161 -209 -162 -220 C-163 -224 -164 -230 -161 -233 C-159 -236 -155 -236 -152 -234 C-147 -232 -145 -228 -143 -224 C-141 -218 -139 -213 -137 -208 C-133 -197 -128 -187 -124 -176 C-116 -156 -107 -135 -99 -115 C-81 -74 -62 -33 -43 7 C-23 47 -3 86 19 125 C40 164 63 203 87 241 C110 278 135 314 161 349 C174 366 187 383 202 399 C237 434 248 437 248 388 C247 377 245 366 243 355 C239 332 235 310 231 287 C223 242 214 197 207 151 C205 140 203 128 203 118 C203 110 205 99 215 100 C224 102 231 112 236 120 C242 129 248 139 254 148 C278 187 301 225 325 264 C349 302 373 339 398 376 C422 413 448 450 474 486 C499 521 526 556 553 590 C580 624 608 657 637 690 C652 706 666 722 682 737 C702 758 721 775 743 786 C745 787 748 788 751 787 C756 784 756 771 756 767 C756 745 754 722 748 700 C714 565 678 437 639 306 C626 262 615 218 603 175 C576 77 557 -6 534 -88 C522 -132 512 -177 499 -220 C496 -230 492 -242 491 -251 C491 -255 495 -257 499 -257 C502 -257 506 -255 507 -252 C530 -189 543 -119 560 -56 C571 -12 583 32 594 75 C606 119 617 164 629 208 C641 252 653 296 666 339 C705 480 745 603 770 730 L770 730 Z " />
<glyph glyph-name="N" unicode="N" horiz-adv-x="618" d="M677 701 C686 739 689 807 633 802 C609 799 586 785 566 772 C545 758 526 742 507 725 C437 664 375 594 315 524 C256 453 200 380 147 305 C46 162 -44 12 -125 -143 C-120 -125 -115 -107 -110 -89 C-90 -16 -67 56 -41 127 C-29 164 -15 200 -2 236 C5 254 12 271 17 289 C19 294 26 306 21 312 C16 317 10 313 7 309 C2 301 0 291 -2 283 C-5 274 -8 266 -11 258 C-17 240 -24 222 -30 205 C-44 169 -57 133 -70 96 C-94 25 -117 -47 -136 -120 C-141 -138 -145 -155 -150 -173 C-151 -180 -164 -216 -144 -208 C-137 -205 -133 -193 -130 -187 C-125 -178 -121 -170 -117 -162 C-108 -145 -99 -128 -91 -112 C-55 -44 -17 22 23 87 C101 215 186 339 280 456 C325 513 373 569 423 622 C449 649 475 675 502 700 C529 724 556 748 587 767 C610 781 654 800 664 761 C672 727 658 687 648 654 C626 581 598 510 570 439 C514 295 455 152 405 6 C384 -55 364 -116 343 -178 C337 -195 331 -212 326 -230 C325 -236 323 -246 333 -245 C340 -245 341 -239 342 -233 C346 -215 354 -198 359 -181 C363 -169 367 -156 372 -144 C394 -78 416 -11 440 56 C465 127 492 198 520 269 C548 340 577 412 604 483 C632 554 660 627 677 701 L677 701 Z " />
<glyph glyph-name="O" unicode="O" horiz-adv-x="567" d="M547 461 C559 525 557 579 555 602 C552 686 515 785 420 793 C375 798 329 777 289 751 C251 726 217 693 187 658 C123 581 78 488 34 399 C28 387 22 375 16 363 C13 353 7 341 7 331 C7 323 14 311 25 315 C29 317 31 321 30 325 C30 329 25 330 24 333 C23 338 28 346 30 351 C32 357 34 362 37 368 C42 379 47 390 53 401 C64 425 76 448 89 471 C133 556 181 640 254 704 C291 736 334 766 381 775 C424 783 467 767 494 735 C523 701 533 657 538 613 C542 564 538 513 531 464 C512 364 477 267 429 176 C384 92 330 13 266 -59 C236 -95 202 -129 165 -159 C128 -188 84 -218 38 -225 C-72 -241 -57 -82 -46 -12 C-29 88 5 187 44 282 C82 374 127 465 183 549 C195 569 209 593 228 609 C233 613 250 618 240 628 C232 635 221 624 215 619 C197 602 185 581 171 561 C157 540 144 518 131 496 C79 408 37 314 2 219 C-32 124 -63 24 -70 -75 C-73 -120 -72 -172 -46 -209 C-20 -247 27 -248 71 -233 C114 -217 154 -189 190 -158 C227 -127 261 -91 293 -54 C418 94 513 272 547 461 L547 461 Z " />
<glyph glyph-name="P" unicode="P" horiz-adv-x="745" d="M-1 70 C-9 43 -19 16 -27 -11 C-46 -70 -64 -128 -82 -187 C-86 -201 -91 -215 -94 -229 C-96 -236 -97 -255 -84 -246 C-77 -242 -62 -180 -58 -167 C-41 -109 -23 -52 -5 4 C-2 14 19 71 19 71 C47 72 81 75 109 78 C224 89 331 123 434 175 C532 226 626 288 701 369 C771 444 831 548 792 652 C754 755 640 796 539 800 C428 804 318 776 217 732 C120 690 25 631 -47 553 C-65 534 -81 514 -95 492 C-102 480 -129 433 -106 423 C-90 416 -97 438 -96 444 C-96 456 -89 468 -84 478 C-71 500 -53 521 -36 540 C0 579 41 612 85 641 C128 670 174 699 224 716 C216 684 207 656 197 627 C185 595 173 563 161 531 C119 418 79 305 40 191 C31 164 23 137 13 110 C8 96 5 88 5 88 C-8 87 -30 86 -44 85 C-56 84 -87 85 -90 78 C-94 68 -88 64 -80 64 C-53 66 -27 69 -1 70 L-1 70 Z M24 89 C60 196 97 302 135 409 C154 463 175 517 195 571 C205 597 214 623 223 650 C228 663 239 707 240 723 C353 770 485 801 607 775 C706 754 794 680 787 571 C780 469 700 383 626 321 C544 252 448 196 349 155 C244 111 136 96 24 89 L24 89 Z " />
<glyph glyph-name="Q" unicode="Q" horiz-adv-x="671" d="M435 -1 C440 -29 444 -57 447 -86 C448 -98 445 -115 448 -126 C452 -140 463 -134 465 -123 C470 -96 462 -64 458 -37 C456 -22 453 -7 451 7 C450 21 456 27 464 39 C530 132 581 238 605 349 C626 447 628 552 579 641 C536 719 459 773 369 778 C277 782 192 730 143 654 C118 613 101 564 111 516 C115 500 116 500 106 487 C99 475 91 464 84 453 C71 432 58 410 47 389 C-2 299 -42 204 -64 104 C-83 14 -89 -107 -25 -181 C35 -249 134 -232 207 -197 C299 -153 372 -78 435 -1 L435 -1 Z M123 481 C141 453 159 428 184 405 C210 381 238 359 264 336 C313 294 358 247 386 189 C398 163 407 137 415 109 C418 94 422 79 425 64 C426 53 436 32 431 22 C411 -15 342 -80 309 -109 C234 -172 96 -260 2 -183 C-43 -146 -54 -84 -58 -30 C-61 36 -50 101 -31 163 C3 275 55 385 123 481 L123 481 Z M446 42 C432 122 410 197 360 262 C315 321 256 363 203 412 C179 434 153 458 139 488 C132 504 149 518 159 531 C170 545 181 558 193 572 C214 595 242 630 273 640 C284 643 284 636 293 635 C298 634 303 638 303 643 C304 658 283 660 273 658 C242 651 214 619 193 597 C170 572 149 546 128 518 C116 603 171 687 243 729 C314 771 404 771 475 728 C541 687 583 614 597 539 C613 451 595 357 567 274 C539 192 499 110 446 42 L446 42 Z " />
<glyph glyph-name="R" unicode="R" horiz-adv-x="632" d="M112 101 C147 96 180 88 214 81 C250 73 287 64 323 55 C393 36 462 15 530 -9 C655 -53 777 -105 898 -157 C927 -169 956 -181 984 -195 C999 -202 1013 -212 1028 -219 C1038 -223 1050 -217 1040 -206 C1031 -197 1012 -190 1001 -184 C988 -178 975 -172 962 -166 C932 -153 901 -139 870 -126 C748 -75 626 -23 501 19 C375 61 247 92 118 118 C121 130 144 208 154 223 C160 232 179 236 188 241 C235 263 281 287 327 310 C407 352 487 396 563 445 C600 469 637 495 670 524 C698 549 731 581 739 619 C758 710 619 721 560 719 C469 717 382 687 299 651 C308 689 322 726 331 764 C332 770 338 784 328 787 C321 788 318 782 317 777 C312 758 307 737 302 718 C297 700 287 651 277 641 C275 639 263 633 257 630 C227 614 198 596 169 577 C117 540 62 495 27 441 C23 434 4 404 23 402 C34 402 34 419 38 426 C54 456 81 481 106 504 C154 548 210 591 270 617 C253 557 229 498 209 438 C188 377 166 315 145 253 C139 234 135 234 117 225 C103 219 89 212 76 206 C48 193 21 180 -5 164 C-13 159 -25 152 -23 141 C-21 129 -7 126 3 123 C33 116 64 111 95 105 C78 46 55 -12 37 -70 C27 -99 18 -129 9 -159 C6 -169 -18 -230 -2 -233 C13 -236 23 -174 26 -163 C34 -134 43 -105 53 -77 C72 -17 91 42 112 101 L112 101 Z M161 246 C201 364 241 481 281 598 C285 608 286 623 294 630 C303 638 321 642 331 647 C354 656 377 665 400 672 C448 688 499 699 550 702 C597 705 656 703 697 676 C740 647 720 602 692 570 C659 532 617 502 575 474 C532 445 488 419 442 393 C396 367 349 341 301 316 C255 293 209 267 161 246 L161 246 Z M-6 144 C36 172 85 193 131 213 C123 185 114 161 105 134 C102 125 103 121 95 122 C70 126 21 134 -6 144 L-6 144 Z " />
<glyph glyph-name="S" unicode="S" horiz-adv-x="571" d="M415 43 C474 43 518 39 534 36 C570 29 612 17 637 -12 C662 -40 652 -79 635 -109 C616 -141 587 -167 555 -187 C538 -198 520 -207 501 -215 C492 -219 482 -222 472 -226 C465 -228 455 -227 450 -233 C444 -240 450 -247 457 -247 C466 -247 476 -242 484 -239 C503 -232 521 -224 539 -215 C572 -199 602 -176 626 -148 C650 -121 672 -84 670 -47 C668 -7 636 19 602 34 C525 68 434 61 352 59 C267 57 181 51 97 67 C62 74 25 87 0 115 C-23 141 -27 174 -20 207 C-4 284 52 354 104 411 C214 534 351 637 499 709 C573 745 653 774 736 782 C775 785 817 783 852 764 C886 746 897 715 890 678 C889 671 872 630 891 634 C899 636 900 649 902 655 C905 665 907 674 908 684 C914 723 899 758 864 778 C794 818 699 799 626 777 C470 731 327 637 205 532 C143 479 84 420 36 353 C-6 296 -60 212 -34 138 C-8 63 90 46 159 41 C244 36 330 43 415 43 L415 43 Z " />
<glyph glyph-name="T" unicode="T" horiz-adv-x="66" d="M124 589 C118 578 111 564 106 554 C100 543 95 531 89 520 C42 421 6 317 -28 213 C-62 109 -92 5 -123 -100 C-130 -127 -138 -154 -146 -181 C-150 -192 -164 -235 -162 -240 C-154 -257 -138 -213 -136 -206 C-128 -180 -121 -154 -113 -128 C-83 -22 -53 84 -18 190 C16 296 52 403 100 505 C112 529 125 553 137 577 C140 583 141 588 146 590 C151 593 160 592 165 592 C178 594 191 595 204 597 C255 604 307 618 353 641 C392 660 450 697 447 747 C445 800 383 804 343 796 C294 785 252 756 217 720 C200 702 184 682 170 661 C161 649 153 636 146 624 C138 612 137 606 122 606 C67 604 -86 613 -140 622 C-165 627 -191 630 -215 638 C-227 641 -239 645 -250 651 C-256 654 -275 667 -274 650 C-274 640 -256 635 -249 631 C-237 626 -225 622 -212 619 C-186 612 -160 608 -134 604 C-81 596 70 589 124 589 L124 589 Z M154 608 C180 652 211 695 250 729 C284 759 329 783 376 783 C395 783 419 777 427 758 C435 739 425 719 414 704 C384 668 337 649 294 635 C249 620 201 611 154 608 L154 608 Z " />
<glyph glyph-name="U" unicode="U" horiz-adv-x="565" d="M561 534 C547 532 537 509 530 499 C519 483 509 466 498 449 C479 418 461 386 443 355 C406 291 369 227 331 163 C295 100 258 37 218 -23 C180 -80 140 -138 90 -184 C68 -205 37 -232 5 -230 C-26 -228 -46 -199 -56 -173 C-81 -108 -67 -28 -55 39 C-29 181 18 320 73 453 C98 514 126 574 158 633 C173 661 189 688 206 716 C214 729 222 741 231 754 C235 760 239 766 244 772 C247 776 257 783 258 788 C260 794 256 798 250 798 C243 798 238 790 234 786 C223 773 213 758 204 744 C187 717 172 690 156 663 C125 607 97 550 71 491 C15 360 -31 224 -63 85 C-78 18 -90 -54 -84 -123 C-79 -177 -50 -259 19 -245 C49 -240 75 -220 97 -200 C123 -177 145 -150 166 -123 C211 -66 250 -5 287 56 C364 183 434 314 512 441 C524 460 536 479 548 498 C494 351 439 205 389 56 C382 35 361 -31 358 -40 C355 -48 368 -51 371 -43 C377 -26 399 37 403 48 C430 128 458 206 487 286 C503 331 520 377 537 422 C545 445 554 467 562 490 C565 498 581 536 561 534 L561 534 Z " />
<glyph glyph-name="V" unicode="V" horiz-adv-x="441" d="M14 -245 C47 -244 72 -211 93 -185 C141 -125 178 -57 215 10 C253 79 290 149 327 219 C403 360 482 498 561 636 C580 668 597 700 615 732 C624 748 633 765 642 781 C645 786 650 792 648 797 C643 806 635 799 631 794 C608 766 592 729 574 698 C555 664 536 629 517 595 C439 456 361 318 286 178 C248 107 211 36 171 -35 C153 -68 133 -101 111 -132 C91 -161 71 -192 44 -214 C33 -222 16 -232 3 -224 C-11 -217 -17 -196 -21 -182 C-31 -147 -33 -110 -33 -74 C-34 3 -23 81 -10 156 C16 308 57 456 100 604 C110 638 120 671 133 705 C140 724 147 743 156 761 C159 768 178 793 168 800 C151 810 126 731 121 720 C109 686 99 652 88 617 C41 466 0 313 -27 157 C-40 83 -50 6 -50 -70 C-50 -107 -48 -145 -39 -182 C-32 -209 -19 -244 14 -245 L14 -245 Z " />
<glyph glyph-name="W" unicode="W" horiz-adv-x="606" d="M4 202 C-1 220 4 241 8 259 C12 279 17 298 23 318 C35 360 49 403 66 444 C75 466 83 488 94 509 C97 516 107 526 105 534 C104 541 96 542 91 538 C83 531 79 516 75 507 C71 498 67 490 63 481 C54 459 45 438 37 416 C22 374 8 332 -2 289 C-7 272 -34 173 8 186 C26 192 43 215 56 229 C70 245 83 261 97 277 C127 312 157 347 188 382 C204 400 221 417 238 434 C245 441 252 447 260 453 C263 456 278 469 282 468 C301 463 230 240 224 217 C199 127 174 35 159 -58 C153 -97 128 -288 218 -235 C254 -215 283 -179 307 -147 C334 -112 357 -75 379 -37 C469 121 539 296 580 473 C601 561 617 649 628 738 C630 751 632 765 634 778 C634 784 638 793 632 797 C616 808 615 764 614 757 C608 714 603 670 595 627 C563 447 510 274 434 107 C397 27 356 -53 304 -124 C280 -157 253 -191 220 -215 C203 -227 186 -235 176 -212 C167 -192 166 -168 167 -147 C169 -59 192 29 214 114 C237 205 264 295 288 386 C292 403 322 493 279 484 C261 481 243 462 231 450 C216 435 201 420 186 404 C156 371 126 336 97 302 C68 268 39 229 4 202 L4 202 Z " />
<glyph glyph-name="X" unicode="X" horiz-adv-x="384" d="M213 307 C213 305 214 304 214 303 C221 270 228 236 236 203 C259 106 287 10 317 -84 C327 -117 338 -150 351 -182 C357 -195 363 -207 373 -218 C377 -221 381 -225 386 -228 C389 -231 395 -229 398 -226 C401 -222 400 -217 397 -214 C397 -214 396 -213 395 -213 C387 -207 381 -200 377 -192 C367 -176 361 -158 355 -141 C334 -82 316 -22 299 39 C271 132 247 226 228 323 C228 325 228 327 230 329 C275 391 321 452 366 513 C421 587 478 660 536 732 C548 747 568 773 584 786 C587 789 588 793 586 797 C584 800 580 801 576 799 C573 798 571 796 568 794 C560 785 551 776 543 766 C498 712 447 646 405 590 C345 510 286 431 226 351 C225 350 224 349 223 347 C223 349 223 350 222 351 C217 382 211 413 205 444 C193 516 184 589 174 662 C172 683 168 704 164 724 C162 734 158 743 151 751 C147 756 140 759 132 758 C117 757 101 742 95 728 C94 726 94 724 94 722 C93 718 96 714 100 714 C104 714 109 717 110 722 C112 728 116 733 122 737 C129 743 135 743 139 736 C143 730 146 723 147 716 C152 695 155 674 158 653 C171 544 187 436 208 330 C209 328 208 327 207 325 C91 167 -24 9 -137 -150 C-154 -174 -171 -199 -188 -224 C-190 -227 -192 -231 -193 -234 C-195 -239 -193 -242 -189 -244 C-185 -245 -181 -243 -179 -239 C-176 -236 -175 -233 -173 -230 C-164 -216 -155 -202 -145 -189 C-36 -35 75 119 187 271 C195 283 204 294 213 307 L213 307 Z " />
<glyph glyph-name="Y" unicode="Y" horiz-adv-x="643" d="M537 229 C554 270 572 310 589 351 C605 393 621 436 634 479 C646 518 664 569 653 610 C631 694 490 562 462 538 C394 478 329 414 264 351 C231 318 198 286 162 255 C132 229 97 197 57 187 C-32 164 39 361 51 394 C83 475 125 554 176 625 C200 658 226 691 256 719 C272 735 290 749 310 761 C317 766 324 770 332 773 C337 775 342 777 347 778 C353 779 358 777 364 778 C370 778 378 781 374 789 C372 796 358 796 352 796 C334 795 315 784 299 774 C263 752 231 720 204 688 C148 623 105 550 68 473 C48 432 31 391 17 348 C4 308 -9 263 -4 221 C1 177 31 159 72 174 C111 189 145 218 176 245 C246 306 311 373 377 437 C409 468 442 499 476 528 C509 556 543 586 582 607 C594 614 617 627 631 616 C643 606 640 581 638 567 C633 522 616 476 601 433 C587 391 571 350 553 309 C544 287 535 266 525 245 C521 235 517 222 510 215 C503 208 492 204 484 199 C445 175 405 151 370 122 C336 95 306 65 278 33 C249 0 222 -34 198 -71 C176 -106 154 -143 144 -183 C140 -200 137 -223 150 -237 C162 -250 182 -247 198 -241 C237 -226 269 -193 297 -162 C358 -96 407 -19 451 59 C473 99 493 139 513 179 C519 191 522 202 533 208 C541 212 551 214 559 219 C564 223 572 230 562 235 C556 239 543 232 537 229 L537 229 Z M499 188 C460 109 418 32 369 -41 C330 -99 287 -159 231 -202 C215 -215 160 -252 158 -209 C156 -175 178 -138 194 -110 C230 -47 276 10 327 61 C353 87 380 111 410 132 C425 142 485 188 499 188 L499 188 Z " />
<glyph glyph-name="Z" unicode="Z" horiz-adv-x="454" d="M-3 80 C-5 82 83 154 91 161 C228 279 365 397 495 524 C525 554 555 586 582 619 C605 648 633 685 636 724 C640 768 599 788 561 792 C519 797 474 789 432 779 C352 758 274 722 207 675 C174 652 141 626 118 592 C115 587 96 543 120 551 C128 553 124 561 125 567 C127 576 134 585 140 591 C189 653 267 696 338 727 C375 744 414 757 454 765 C494 774 539 782 580 772 C679 747 561 620 528 585 C467 520 401 459 335 399 C267 338 198 278 129 218 C95 188 60 158 25 129 C7 113 -12 97 -30 81 C-37 75 -73 47 -48 42 C-38 40 -23 51 -14 55 C-6 59 3 63 11 66 C30 75 49 82 68 89 C108 103 150 115 193 120 C223 124 283 129 296 91 C307 54 274 7 253 -21 C204 -88 140 -147 73 -195 C56 -207 37 -222 17 -229 C-6 -237 -4 -222 0 -204 C5 -185 12 -166 25 -151 C30 -145 41 -137 38 -129 C34 -118 25 -124 20 -129 C-4 -151 -23 -192 -21 -225 C-17 -271 43 -236 62 -224 C133 -178 199 -118 252 -52 C278 -20 304 16 313 57 C322 102 294 131 251 138 C208 144 163 135 121 124 C79 112 38 97 -3 80 L-3 80 Z " />
<glyph glyph-name="bracketleft" unicode="&#x5b;" horiz-adv-x="141" d="M230 650 C211 655 188 650 174 636 C157 619 150 593 142 571 C122 521 102 471 84 419 C48 317 19 212 -9 108 C-13 93 -17 78 -21 63 C-25 49 -29 35 -29 21 C-29 -3 -13 -27 14 -23 C24 -21 20 -5 10 -7 C2 -8 -6 -2 -9 5 C-15 14 -13 26 -11 36 C-6 60 1 84 7 107 C21 156 34 204 48 253 C62 300 76 348 92 395 C109 442 127 489 145 536 C150 549 155 562 160 575 C165 587 169 599 174 610 C180 619 186 628 196 632 C205 636 216 637 225 634 C235 631 240 647 230 650 L230 650 L230 650 Z " />
<glyph glyph-name="backslash" unicode="&#x5c;" horiz-adv-x="150" d="M66 455 C65 451 65 449 65 446 C66 428 66 411 66 393 C68 376 68 359 68 342 C71 322 71 302 72 282 C74 258 75 235 76 212 C77 204 78 196 80 188 C81 183 85 181 90 182 C94 184 97 189 96 193 C92 215 92 237 91 259 C89 274 89 289 89 305 C86 323 86 342 85 361 C85 377 84 393 84 408 C83 424 82 439 82 455 C82 460 79 464 75 464 C70 463 66 459 66 455 L66 455 Z " />
<glyph glyph-name="bracketright" unicode="&#x5d;" horiz-adv-x="171" d="M139 634 C148 636 157 636 165 632 C173 628 172 618 171 611 C169 599 165 587 162 575 C159 563 156 550 152 538 C139 489 127 440 111 391 C81 294 45 198 9 103 C3 90 -2 76 -7 63 C-12 51 -16 39 -22 28 C-28 18 -36 9 -45 2 C-52 -2 -62 -9 -70 -7 C-81 -5 -86 -21 -76 -23 C-57 -27 -36 -12 -23 1 C-5 20 3 43 11 66 C31 118 51 170 70 223 C89 275 107 327 124 379 C141 432 155 485 169 539 C173 553 176 568 180 582 C184 596 188 610 187 623 C186 649 159 655 136 649 C126 647 129 631 139 634 L139 634 L139 634 Z " />
<glyph glyph-name="asciicircum" unicode="&#x5e;" horiz-adv-x="160" d="M105 518 C109 523 114 527 125 537 C122 528 119 519 116 510 C113 500 109 488 106 478 C104 471 107 465 112 463 C115 462 118 463 121 465 C124 468 125 471 124 474 C123 476 123 478 124 480 C130 501 137 523 145 546 C147 551 146 556 142 559 C124 573 73 507 61 491 C58 486 54 478 62 474 C66 472 70 474 73 478 C75 482 77 485 79 488 C88 499 96 509 105 518 L105 518 Z " />
<glyph glyph-name="underscore" unicode="&#x5f;" horiz-adv-x="167" d="M134 241 C134 245 130 249 125 249 C114 249 103 248 91 248 C76 248 61 248 47 248 C42 248 36 247 31 246 C26 245 24 241 24 236 C25 232 29 229 35 230 C42 230 49 231 57 231 C68 231 79 231 90 231 C102 231 113 231 125 231 C130 232 134 236 134 241 L134 241 Z " />
<glyph glyph-name="grave" unicode="&#x60;" horiz-adv-x="109" d="M57 561 C53 561 48 558 48 553 C47 551 47 548 47 546 C50 534 52 523 55 512 C55 510 56 508 57 507 C59 504 61 503 65 505 C68 506 71 508 72 511 C72 513 72 515 72 518 C69 530 66 543 64 555 C63 559 61 561 57 561 L57 561 Z " />
<glyph glyph-name="a" unicode="a" horiz-adv-x="130" d="M130 300 C130 300 126 296 124 294 C103 273 92 258 71 255 C60 253 70 277 71 281 C74 291 83 304 74 313 C66 318 61 313 55 310 C53 319 44 326 36 325 C28 324 21 321 14 315 C4 306 -5 295 -12 282 C-16 274 -19 266 -20 257 C-20 251 -18 245 -13 241 C-8 237 -2 237 3 240 C7 242 12 245 15 248 C27 259 49 281 53 284 C49 271 41 244 58 238 C90 230 114 256 133 277 C144 288 140 299 130 300 L130 300 Z M36 294 C34 289 11 267 2 260 C-4 255 -1 264 1 268 C6 278 15 294 27 303 C30 305 31 306 34 307 C40 307 36 297 36 294 L36 294 Z " />
<glyph glyph-name="b" unicode="b" horiz-adv-x="124" d="M124 300 C124 300 117 296 115 295 C99 287 62 268 47 266 C56 278 70 312 43 306 C30 303 23 296 15 288 C19 310 27 333 34 353 C52 402 74 449 97 494 C107 514 119 534 130 555 C133 560 132 565 127 566 C123 568 118 565 114 559 C78 494 44 429 19 361 C6 325 -3 293 -8 257 C-9 250 -10 243 -10 236 C-11 231 -7 228 -2 229 C4 230 7 235 8 241 C9 254 22 273 31 282 C35 286 39 288 39 288 C41 289 42 289 42 288 C42 279 28 267 23 263 C20 261 18 259 15 256 C12 253 11 249 12 246 C14 243 17 241 21 242 C27 243 33 245 39 247 C67 256 95 268 122 282 C132 287 138 297 124 300 L124 300 Z " />
<glyph glyph-name="c" unicode="c" horiz-adv-x="104" d="M104 300 C90 284 12 237 0 253 C-7 263 23 309 34 311 C35 311 34 307 30 303 C22 295 36 284 44 296 C47 301 49 305 50 310 C52 318 50 326 41 328 C29 330 11 315 4 306 C-7 292 -14 278 -17 262 C-18 252 -15 238 6 237 C42 235 86 265 104 280 C116 290 119 298 104 300 L104 300 Z " />
<glyph glyph-name="d" unicode="d" horiz-adv-x="142" d="M72 310 C76 325 81 340 86 356 C104 407 125 457 149 506 C156 519 162 532 169 546 C171 551 170 555 166 557 C162 559 157 557 154 552 C153 550 152 549 151 547 C120 484 91 421 69 355 C64 340 59 325 55 309 C52 319 45 325 36 324 C12 321 -2 299 -12 282 C-16 274 -19 266 -20 257 C-20 250 -18 245 -13 241 C-4 234 9 242 15 248 C24 256 47 278 51 282 C48 270 49 256 52 245 C57 232 67 227 80 231 C93 234 104 240 114 249 C125 259 138 271 145 281 C152 290 154 298 142 300 C142 300 139 296 135 292 C125 280 102 259 91 252 C91 252 74 242 70 250 C63 263 69 295 69 295 C70 300 71 305 72 310 L72 310 Z M38 306 C39 302 38 294 35 291 C22 278 2 259 2 259 C-4 255 -1 264 1 268 C6 278 16 293 27 302 C29 304 37 308 38 306 L38 306 Z " />
<glyph glyph-name="e" unicode="e" horiz-adv-x="99" d="M99 300 L92 294 C83 286 71 278 59 270 C46 262 34 254 20 250 C14 249 -3 242 -3 257 C-3 259 -2 263 0 264 C17 271 31 283 39 300 C41 303 47 323 33 323 C26 323 11 313 3 305 C-10 292 -22 271 -20 252 C-19 238 -11 231 4 231 C41 231 79 262 109 288 C117 295 112 300 99 300 L99 300 Z M26 305 C25 299 7 281 2 280 C6 287 20 301 26 305 L26 305 Z " />
<glyph glyph-name="f" unicode="f" horiz-adv-x="90" d="M127 562 C122 563 118 561 115 556 C89 509 68 461 47 413 C20 354 -2 295 -24 237 C-48 169 -72 100 -91 29 C-102 -14 -110 -56 -113 -101 C-114 -121 -117 -152 -104 -171 C-99 -177 -91 -179 -86 -177 C-81 -175 -77 -171 -73 -166 C-63 -150 -59 -132 -55 -112 C-52 -87 -53 -62 -53 -36 C-53 -15 -55 7 -54 28 C-51 91 -32 145 3 190 C24 216 74 266 92 282 C99 288 101 298 90 300 C58 275 17 236 -13 197 C-18 191 -24 182 -24 182 C-8 236 10 289 32 341 C57 398 82 455 110 511 C116 524 122 537 129 550 C133 556 132 561 127 562 L127 562 L127 562 Z M-71 -39 C-72 -66 -70 -93 -75 -119 C-78 -131 -83 -149 -89 -157 C-91 -160 -93 -155 -93 -155 C-94 -153 -95 -146 -95 -142 C-97 -96 -90 -53 -81 -10 C-78 3 -72 32 -72 32 C-72 32 -71 -11 -71 -39 L-71 -39 Z " />
<glyph glyph-name="g" unicode="g" horiz-adv-x="169" d="M148 282 L84 230 L98 281 C101 296 109 319 92 325 C74 328 62 309 50 301 C55 313 47 326 35 326 C29 326 24 323 19 319 C-4 300 -23 271 -23 244 C-23 238 -19 230 -10 231 C3 232 12 243 20 250 C29 258 47 276 52 280 L68 295 C77 304 85 307 85 307 C88 308 84 296 83 292 L57 205 C46 193 35 182 25 169 C-19 116 -56 62 -85 5 C-110 -43 -132 -92 -132 -141 C-132 -158 -121 -171 -104 -167 C-74 -159 -50 -119 -37 -96 C-17 -61 -2 -25 12 13 C34 73 53 134 73 196 C73 196 73 197 73 197 C86 210 99 221 113 233 C135 251 149 262 171 281 C184 292 181 298 169 300 L148 282 Z M31 299 C29 294 29 290 33 286 C20 275 -2 249 -5 251 C-12 256 13 292 30 307 C32 309 34 310 34 307 C34 307 32 301 31 299 L31 299 L31 299 Z M37 139 C21 91 5 42 -13 -5 C-25 -36 -38 -67 -56 -95 C-67 -112 -79 -129 -94 -142 C-108 -152 -115 -154 -115 -138 C-115 -119 -110 -101 -105 -84 C-90 -40 -69 2 -45 41 C-18 86 13 128 46 169 C46 169 38 142 37 139 L37 139 Z " />
<glyph glyph-name="h" unicode="h" horiz-adv-x="152" d="M152 300 C152 300 120 279 107 273 C103 271 99 270 95 269 C87 267 85 269 83 275 C82 279 80 288 78 292 C74 298 67 301 59 298 C51 296 35 286 26 277 C18 271 16 266 16 266 C19 302 25 327 32 355 C45 407 70 457 92 502 C99 514 104 526 114 537 C116 540 115 544 112 547 C109 549 104 550 101 547 C94 542 91 535 87 528 C56 471 28 409 11 348 C2 315 -3 287 -3 257 C-3 248 -3 240 6 238 C10 237 13 238 16 241 L20 246 C29 258 39 268 52 277 C54 278 62 283 63 278 L66 269 C70 255 80 252 95 253 C99 253 103 254 106 255 C124 262 139 272 154 283 C164 291 162 299 152 300 L152 300 Z " />
<glyph glyph-name="i" unicode="i" horiz-adv-x="78" d="M17 350 C22 350 26 354 26 359 C26 363 22 367 18 367 C13 367 10 363 10 358 C10 354 13 350 17 350 L17 350 Z M78 300 C78 300 64 290 57 285 C48 279 40 272 30 267 L30 267 C30 267 9 253 5 257 C2 261 8 276 8 276 L8 276 C10 281 12 288 14 292 C16 298 13 304 7 304 C2 304 0 302 -2 298 C-7 287 -16 258 -9 245 C-1 232 17 241 23 244 C37 250 50 259 63 269 C72 275 74 277 79 281 C91 290 92 299 78 300 L78 300 Z " />
<glyph glyph-name="j" unicode="j" horiz-adv-x="85" d="M17 350 C21 350 25 354 25 358 C25 363 22 366 17 366 C13 366 9 362 9 358 C9 353 12 350 17 350 L17 350 Z M85 300 C85 300 69 287 63 281 C47 269 32 257 16 244 C11 239 5 234 -1 229 C3 243 10 268 13 281 C14 287 16 293 17 300 C17 300 17 300 17 300 C17 301 17 306 8 306 C2 306 1 303 0 301 C-1 297 -3 289 -4 286 C-8 274 -15 249 -22 225 C-25 216 -27 205 -28 204 C-39 193 -50 181 -60 169 C-60 169 -60 169 -61 168 C-61 168 -61 168 -61 168 C-66 161 -72 154 -78 147 C-112 102 -144 55 -170 5 C-188 -30 -204 -67 -213 -106 C-216 -117 -217 -129 -217 -141 C-216 -147 -215 -153 -212 -158 C-207 -166 -198 -170 -189 -167 C-181 -166 -175 -161 -169 -156 C-149 -139 -135 -118 -122 -96 C-102 -62 -87 -25 -73 12 C-51 73 -35 127 -15 188 C-14 191 -12 196 -12 197 C0 207 18 224 28 233 C50 251 72 268 94 286 C102 293 97 300 85 300 L85 300 Z M-52 122 C-66 78 -87 24 -87 22 L-87 23 C-91 13 -94 4 -98 -6 C-110 -37 -123 -67 -141 -95 C-152 -113 -164 -129 -180 -143 C-182 -145 -185 -147 -188 -148 C-197 -153 -199 -144 -200 -137 C-200 -119 -195 -101 -190 -84 C-175 -40 -154 1 -130 41 C-112 72 -91 101 -69 130 C-69 130 -69 130 -69 130 C-69 130 -69 130 -69 130 C-63 138 -38 169 -38 169 L-52 122 L-52 122 Z " />
<glyph glyph-name="k" unicode="k" horiz-adv-x="130" d="M130 300 C130 300 120 291 115 287 C106 281 96 275 86 269 C75 262 54 252 47 252 C42 253 41 275 39 280 C41 282 65 301 75 310 C78 312 80 315 80 318 C80 322 78 324 75 325 C71 325 68 324 65 322 C51 310 36 298 22 285 C17 281 13 277 9 272 C18 307 28 340 40 373 C66 443 88 490 120 543 C122 547 122 552 118 554 C115 556 110 555 106 550 C104 547 102 544 100 541 C48 449 13 353 -13 255 C-15 247 -17 239 -18 230 C-19 226 -17 222 -13 222 C-3 222 -3 231 7 243 C12 249 24 264 26 267 C28 270 29 248 32 243 C42 223 82 249 92 254 C108 263 119 271 130 281 C138 289 142 298 130 300 L130 300 Z " />
<glyph glyph-name="l" unicode="l" horiz-adv-x="90" d="M38 253 C38 253 21 243 16 251 C9 263 16 295 16 295 C17 301 18 306 19 310 C23 325 28 341 33 356 C51 407 72 457 96 506 C102 520 109 533 116 547 C118 551 116 556 112 557 C108 559 104 557 101 553 C100 551 99 549 98 548 C66 485 38 421 16 356 C4 323 -10 277 -1 245 C3 232 14 228 27 231 C55 237 76 261 96 285 C100 290 103 298 90 300 C88 298 86 296 84 294 C73 283 49 259 38 253 L38 253 Z " />
<glyph glyph-name="m" unicode="m" horiz-adv-x="246" d="M246 300 C246 300 240 295 234 290 C224 282 216 275 201 266 C193 261 170 248 175 258 C183 272 192 285 194 300 C197 313 189 322 176 322 C167 322 158 319 150 316 C129 308 109 297 89 287 C85 285 81 283 76 281 C76 286 76 286 76 286 C77 300 68 307 57 303 C45 298 22 280 11 277 C7 276 9 279 9 280 C10 283 11 287 13 290 C15 294 14 299 10 301 C5 303 0 302 -3 296 C-7 288 -10 280 -9 270 C-8 260 0 254 10 258 C16 260 22 264 28 267 C37 272 45 278 53 283 C55 284 59 286 59 284 C59 281 59 279 59 276 C59 270 64 265 70 264 C75 263 79 264 84 266 C94 271 104 276 114 281 C130 288 147 296 163 303 C165 304 178 309 178 304 C178 289 163 272 158 260 C153 249 158 232 172 235 C201 241 229 264 250 285 C256 291 256 299 246 300 L246 300 Z " />
<glyph glyph-name="n" unicode="n" horiz-adv-x="143" d="M143 300 C143 300 123 283 114 276 C104 269 84 254 81 255 C78 256 88 280 89 282 C93 292 97 302 99 313 C100 321 96 329 88 331 C78 333 67 328 60 322 C42 307 12 281 10 282 C8 283 16 293 16 293 C19 298 19 302 16 305 C13 309 7 309 4 305 C-4 296 -10 286 -9 273 C-8 265 -1 260 7 262 C23 266 36 280 48 290 C54 295 74 314 81 314 C85 314 64 276 61 255 C60 243 70 236 81 237 C94 238 128 266 143 281 C152 290 156 298 143 300 L143 300 Z " />
<glyph glyph-name="o" unicode="o" horiz-adv-x="99" d="M99 300 C99 300 52 280 30 296 C27 299 23 302 19 304 C0 313 -27 273 -24 251 C-22 240 -12 234 -1 236 C8 238 15 245 20 253 C25 260 28 268 30 276 C54 271 86 274 105 285 C116 292 114 299 99 300 L99 300 Z M-4 252 C-5 252 -5 252 -6 252 C-13 254 4 288 12 287 C14 275 9 256 -4 252 L-4 252 Z " />
<glyph glyph-name="p" unicode="p" horiz-adv-x="98" d="M71 299 C70 311 61 321 49 318 C37 315 26 307 16 298 C17 299 17 299 17 299 C20 308 30 327 17 330 C9 332 7 322 5 316 C-2 296 -9 275 -17 254 C-74 97 -118 -23 -166 -164 C-168 -170 -165 -175 -160 -176 C-155 -177 -152 -173 -150 -168 C-112 -57 -36 162 -8 234 C-6 240 -3 247 0 254 C2 248 9 243 12 241 C22 235 33 238 42 243 C60 255 74 278 71 299 L71 299 Z M44 267 C35 256 16 246 13 268 C20 278 43 308 55 300 C61 294 53 278 44 267 L44 267 Z " />
<glyph glyph-name="q" unicode="q" horiz-adv-x="132" d="M132 300 C132 300 79 256 62 241 C49 230 9 190 6 183 C17 207 48 272 55 296 C57 302 50 306 45 306 C42 306 39 305 37 304 C33 315 24 315 16 312 C13 311 11 309 8 307 C-6 296 -17 281 -24 264 C-27 257 -28 251 -27 243 C-26 234 -17 229 -9 232 C3 237 17 256 30 274 C-12 197 -49 111 -78 30 C-93 -12 -106 -55 -114 -99 C-117 -116 -119 -132 -118 -149 C-118 -156 -116 -163 -112 -170 C-108 -175 -102 -178 -95 -176 C-90 -174 -86 -170 -82 -165 C-70 -149 -63 -130 -58 -111 C-52 -86 -51 -61 -48 -35 C-46 -14 -44 8 -41 30 C-32 92 -7 147 36 192 C60 217 102 251 129 274 C149 291 144 300 132 300 L132 300 Z M19 286 C11 276 -4 258 -7 256 C-9 255 -9 256 -8 258 C5 286 14 295 18 291 C21 288 19 286 19 286 L19 286 Z M-78 -118 C-82 -129 -101 -184 -101 -141 C-101 -95 -87 -51 -73 -8 C-61 29 -59 29 -59 30 C-63 -20 -64 -71 -78 -118 L-78 -118 Z " />
<glyph glyph-name="r" unicode="r" horiz-adv-x="82" d="M92 298 C89 301 85 301 81 298 C67 286 53 274 39 261 C33 255 26 248 19 242 C16 239 13 236 9 233 C9 233 9 233 9 233 C9 233 9 234 10 234 C12 237 14 241 16 244 C19 250 24 256 27 263 C31 274 22 282 15 289 C22 295 29 302 33 311 C37 321 34 334 21 336 C11 338 1 333 -5 325 C-12 317 -14 306 -9 295 C-7 290 -4 286 -1 283 C3 279 7 276 11 271 C13 268 10 265 8 262 C4 256 1 250 -3 244 C-8 235 -19 220 -5 213 C7 207 19 221 27 228 C49 248 70 269 92 287 C96 290 95 295 92 298 L92 298 Z M4 311 C6 316 11 320 16 321 C22 322 19 317 17 313 C14 308 10 305 5 301 C4 304 3 308 4 311 L4 311 Z " />
<glyph glyph-name="s" unicode="s" horiz-adv-x="97" d="M97 300 C97 300 45 273 19 264 C22 281 7 300 27 315 C32 319 34 324 32 328 C30 332 23 333 19 329 C-7 307 -2 287 2 263 C2 261 0 258 -3 256 C-11 250 -23 232 -5 232 C5 232 7 241 12 246 C42 256 65 265 94 281 C108 289 108 298 97 300 L97 300 Z " />
<glyph glyph-name="t" unicode="t" horiz-adv-x="53" d="M34 401 C28 384 23 369 17 351 C-8 275 -33 200 -58 124 C-82 53 -105 -18 -129 -89 C-138 -118 -144 -136 -154 -165 C-155 -169 -153 -173 -150 -175 C-146 -177 -142 -176 -139 -173 C-137 -170 -136 -167 -135 -164 C-116 -107 -102 -63 -83 -7 C-48 99 -13 206 22 313 C29 334 45 378 53 403 C58 405 280 417 308 419 C314 419 317 423 317 428 C317 433 313 436 307 436 C258 434 71 421 60 420 C69 446 79 472 89 495 C94 508 100 521 103 535 C104 540 102 545 98 547 C93 548 89 546 87 541 C86 540 86 539 86 537 C84 532 83 527 81 522 C68 488 53 452 40 419 C24 417 -112 406 -138 403 C-143 403 -147 400 -147 396 C-147 391 -144 387 -139 386 C-79 391 -27 395 34 401 L34 401 Z " />
<glyph glyph-name="u" unicode="u" horiz-adv-x="150" d="M150 300 C150 300 108 271 84 264 C79 263 80 267 80 268 C82 274 84 279 86 285 C87 289 88 294 84 298 C77 303 67 298 62 294 C50 284 18 254 8 254 C3 254 3 257 3 259 C3 276 14 294 24 304 C25 305 26 306 28 306 C32 307 35 309 36 313 C37 317 35 321 31 323 C27 324 23 324 20 321 C3 308 -7 291 -12 271 C-16 256 -16 233 4 235 C21 238 33 250 46 260 C52 265 58 270 64 275 C60 266 61 258 61 258 C63 236 100 250 111 256 C129 266 142 273 150 281 C161 291 161 298 150 300 L150 300 Z " />
<glyph glyph-name="v" unicode="v" horiz-adv-x="132" d="M132 300 C132 300 91 274 71 290 C70 291 70 294 71 296 C73 301 76 307 78 312 C80 319 74 325 67 325 C64 325 61 323 59 320 C55 315 53 310 52 304 C52 301 51 298 49 296 C42 289 35 281 28 274 C23 269 18 265 13 261 C8 257 10 267 11 269 C15 283 19 298 24 312 C26 318 24 323 20 325 C15 327 10 325 8 320 C1 302 -5 285 -8 266 C-8 260 -8 239 6 239 C18 239 34 255 41 262 C48 268 53 274 59 280 C59 280 67 274 81 272 C102 269 119 277 132 285 C141 291 144 299 132 300 L132 300 Z " />
<glyph glyph-name="w" unicode="w" horiz-adv-x="164" d="M164 286 C173 291 173 299 164 300 C164 300 117 282 97 287 C101 293 105 302 98 307 C88 314 79 299 79 292 C73 284 60 270 57 271 C54 272 66 292 58 298 C52 302 44 297 40 293 C27 279 10 257 7 259 C5 260 18 297 31 313 C34 317 35 322 31 325 C28 329 23 329 19 326 C17 324 15 322 13 320 C5 309 -2 297 -6 284 C-10 272 -16 232 7 237 C22 240 29 256 38 267 C38 267 37 264 37 260 C37 250 46 243 55 247 C70 254 78 265 87 273 C100 264 158 282 164 286 L164 286 Z " />
<glyph glyph-name="x" unicode="x" horiz-adv-x="124" d="M124 300 C124 300 116 294 114 293 C89 277 56 258 34 249 C29 247 27 249 25 254 C23 260 23 262 25 264 C45 284 56 296 67 309 C69 311 71 314 70 318 C69 321 67 323 64 324 C60 324 57 323 55 320 C44 309 18 282 17 281 C16 286 14 294 13 299 C12 303 5 303 2 301 C-2 299 -3 295 -2 291 C0 284 2 276 4 270 C5 268 4 266 2 264 C-4 257 -11 250 -17 243 C-21 239 -21 234 -18 231 C-15 227 -9 228 -5 232 C-2 235 6 243 9 247 C15 231 29 229 43 235 C59 241 100 265 124 281 C136 289 137 299 124 300 L124 300 Z " />
<glyph glyph-name="y" unicode="y" horiz-adv-x="168" d="M168 300 C168 300 153 287 147 282 C131 269 116 258 100 245 C94 240 85 234 79 229 C87 256 94 282 100 309 C103 322 88 331 78 323 C72 320 32 282 12 266 C7 262 0 256 -2 256 C-7 256 16 292 16 292 C20 296 20 301 17 304 C14 308 9 308 5 305 C3 304 2 302 0 300 C-7 291 -39 235 -9 235 C-4 235 0 237 4 239 C23 251 55 284 81 306 C81 306 85 309 85 307 C75 270 64 236 53 202 C42 190 34 182 24 169 C-18 117 -56 64 -86 6 C-104 -30 -120 -66 -129 -105 C-132 -117 -136 -145 -128 -157 C-123 -166 -114 -169 -105 -167 C-73 -160 -52 -120 -38 -96 C-18 -61 -3 -25 11 13 C33 73 52 134 72 196 C72 196 72 197 72 198 C85 210 98 222 112 233 C134 251 151 265 173 284 C180 291 179 299 168 300 L168 300 Z M36 139 C20 91 4 42 -14 -5 C-26 -36 -39 -66 -57 -95 C-65 -107 -93 -153 -111 -150 C-124 -148 -108 -92 -106 -84 C-91 -39 -70 2 -46 41 C-21 84 8 124 39 162 C40 163 46 170 46 170 C46 170 37 142 36 139 L36 139 Z " />
<glyph glyph-name="z" unicode="z" horiz-adv-x="127" d="M127 300 C127 300 87 267 69 252 C57 242 47 233 37 225 C39 240 38 254 29 260 C27 261 21 264 8 262 C16 268 23 277 24 278 C28 283 31 287 34 292 C36 297 35 302 32 305 C29 309 24 310 19 308 C8 304 -23 292 -16 280 C-10 270 12 294 14 287 C7 280 -12 262 -18 258 C-23 254 -23 250 -19 245 C-16 241 -12 239 -8 240 C3 242 8 244 15 244 C27 244 16 209 15 205 C3 193 -8 182 -18 169 C-59 117 -97 64 -127 5 C-146 -30 -161 -66 -171 -105 C-175 -129 -176 -144 -169 -158 C-164 -166 -156 -169 -146 -167 C-116 -160 -93 -119 -79 -96 C-59 -61 -44 -25 -30 13 C-10 69 29 190 31 198 C67 231 95 252 128 282 C136 289 140 298 127 300 L127 300 Z M2 164 C-16 106 -34 50 -55 -5 C-67 -36 -81 -66 -98 -95 C-109 -112 -138 -156 -153 -151 C-165 -147 -153 -101 -147 -84 C-133 -40 -112 2 -88 41 C-58 90 -32 131 4 170 L2 164 L2 164 Z " />
<glyph glyph-name="braceleft" unicode="&#x7b;" horiz-adv-x="138" d="M-40 -29 C-40 -5 -31 21 -23 45 C-14 69 -4 93 7 118 C28 165 50 213 62 263 C65 274 66 285 64 296 C62 302 54 311 58 319 C63 326 72 331 78 337 C85 345 90 356 94 365 C113 415 122 466 129 516 C131 531 134 546 139 560 C142 570 146 579 151 588 C160 604 172 626 190 634 C201 638 195 652 185 648 C150 632 127 582 119 548 C113 522 111 496 106 469 C101 442 94 416 86 389 C82 378 78 367 73 357 C68 348 63 343 55 337 C47 330 41 322 41 312 C40 301 48 294 49 283 C49 272 45 259 42 248 C38 235 34 222 29 210 C20 185 9 160 -2 136 C-14 108 -26 80 -37 52 C-47 24 -57 -6 -57 -33 C-57 -44 -41 -39 -40 -29 L-40 -29 L-40 -29 Z " />
<glyph glyph-name="bar" unicode="&#x7c;" horiz-adv-x="187" d="M149 511 C129 453 109 394 90 336 C69 274 50 213 30 151 C20 119 10 87 1 55 C-2 44 14 40 17 50 C35 109 53 168 72 226 C92 288 112 350 133 411 C144 443 154 475 166 507 C169 517 153 522 149 511 L149 511 L149 511 Z " />
<glyph glyph-name="braceright" unicode="&#x7d;" horiz-adv-x="141" d="M-30 -42 C-14 -19 -5 7 3 33 C12 59 18 85 24 111 C30 137 35 163 42 189 C49 215 56 241 69 265 C75 277 84 284 93 293 C101 300 107 310 106 320 C105 327 99 332 99 339 C97 349 102 361 105 370 C112 395 122 420 133 444 C145 470 159 496 171 521 C183 544 191 568 192 591 C194 609 194 632 178 641 C170 646 159 632 168 627 C179 620 177 600 176 588 C174 567 167 548 158 528 C146 503 132 478 120 453 C109 429 100 406 92 381 C86 362 77 340 85 324 C89 317 91 313 85 305 C77 297 67 290 60 280 C46 258 38 232 31 209 C24 184 18 159 13 134 C6 106 0 77 -8 50 C-12 35 -17 20 -23 6 C-28 -8 -34 -22 -42 -34 C-48 -44 -36 -52 -30 -42 L-30 -42 L-30 -42 Z " />
<glyph glyph-name="asciitilde" unicode="&#x7e;" horiz-adv-x="190" d="M96 302 C109 291 128 294 144 297 C150 298 154 302 154 307 C154 312 149 315 143 314 C139 313 134 312 129 312 C120 311 112 313 105 318 C98 322 91 325 83 324 C70 323 58 319 46 312 C41 309 38 304 40 300 C43 296 47 295 53 298 C58 300 64 303 70 305 C80 308 88 307 96 302 L96 302 Z " />
<glyph glyph-name="cent" unicode="&#xa2;" horiz-adv-x="160" d="M149 352 C142 362 128 365 116 365 C115 365 114 365 113 365 C115 371 117 377 119 384 C122 393 108 398 104 388 C102 379 99 371 96 362 C79 359 63 351 49 340 C30 326 16 305 10 282 C6 269 5 254 10 242 C14 231 23 223 33 218 C38 216 42 214 47 213 C45 206 43 199 40 192 C37 182 52 178 55 188 C58 196 60 203 63 211 C83 211 103 218 122 225 C126 227 129 231 128 235 C128 239 123 242 119 240 C103 234 85 227 68 226 C81 267 94 308 108 349 C114 350 120 349 126 348 C130 347 135 345 138 341 C139 338 140 333 137 330 C130 323 141 312 148 319 C157 329 157 343 149 352 L149 352 Z M52 228 C33 233 21 246 22 267 C25 303 56 334 90 345 C78 306 65 267 52 228 C52 228 52 228 52 228 L52 228 Z " />
<glyph glyph-name="sterling" unicode="&#xa3;" horiz-adv-x="246" d="M242 445 C225 461 202 471 178 469 C155 467 133 455 118 438 C109 428 103 418 98 407 C91 391 86 376 81 360 C76 346 72 332 68 319 C55 319 41 319 28 319 C18 319 18 303 28 303 C40 303 52 303 64 303 C60 290 56 277 51 264 C39 230 25 196 6 166 C3 161 7 153 13 154 C63 158 114 159 165 157 C174 157 174 173 165 173 C119 174 73 173 27 170 C50 212 66 258 80 303 C108 303 135 303 163 303 C173 303 173 319 163 319 C137 319 111 319 85 319 C86 322 87 326 88 330 C93 345 97 361 103 376 C107 389 112 402 119 413 C130 431 147 445 167 451 C191 458 214 450 231 433 C238 426 249 438 242 445 L242 445 Z " />
<glyph glyph-name="yen" unicode="&#xa5;" horiz-adv-x="249" d="M230 458 C191 422 152 386 114 348 C107 341 100 334 94 327 C87 366 82 404 78 443 C77 447 74 451 70 451 C66 451 62 447 62 443 C67 400 73 356 80 313 C80 313 80 313 80 312 C77 305 75 298 73 292 C59 292 44 292 30 292 C20 292 20 276 30 276 C42 276 55 276 67 276 C65 268 62 261 60 253 C44 253 28 253 12 253 C2 253 2 237 12 237 C26 237 40 237 54 237 C46 211 38 185 29 160 C26 150 41 146 44 155 C53 183 62 210 71 237 C85 237 100 237 114 237 C124 237 124 253 114 253 C101 253 89 253 76 253 C79 261 81 268 84 276 C99 276 113 276 128 276 C138 276 138 292 128 292 C115 292 102 292 89 292 C91 296 92 301 94 306 C129 341 165 376 202 410 C215 423 228 435 241 448 C249 454 237 465 230 458 L230 458 Z " />
<glyph glyph-name="quoteleft" unicode="&#x2018;" horiz-adv-x="184" d="M94 510 C92 503 92 499 94 496 C97 492 101 492 105 494 C109 496 111 500 111 505 C111 507 111 509 111 511 C113 515 114 519 115 523 C119 532 122 541 127 549 C130 554 130 558 127 560 C123 562 118 561 115 557 C113 555 111 553 110 551 C103 537 99 523 94 510 L94 510 Z " />
<glyph glyph-name="quoteright" unicode="&#x2019;" horiz-adv-x="168" d="M94 510 C92 503 92 499 94 496 C97 492 101 492 105 494 C109 496 111 500 111 505 C111 507 111 509 111 511 C113 515 114 519 115 523 C119 532 122 541 127 549 C130 554 130 558 127 560 C123 562 118 561 115 557 C113 555 111 553 110 551 C103 537 99 523 94 510 L94 510 Z " />
<glyph glyph-name="quotedblleft" unicode="&#x201c;" horiz-adv-x="156" d="M81 498 C81 495 80 492 79 489 C79 484 79 479 83 476 C86 473 90 473 94 476 C98 479 99 483 97 487 C97 488 96 489 97 491 C100 503 103 515 107 527 C109 534 113 542 117 549 C119 554 118 558 114 560 C111 562 106 560 103 556 C102 554 101 553 100 552 C90 534 85 516 81 498 L81 498 Z M83 556 C79 556 76 553 73 549 C71 544 69 538 67 533 C66 529 64 525 64 520 C63 514 68 511 73 512 C79 513 82 517 82 523 C82 525 82 527 83 529 C85 534 87 540 89 546 C91 551 88 555 83 556 L83 556 Z " />
<glyph glyph-name="quotedblright" unicode="&#x201d;" horiz-adv-x="159" d="M81 498 C81 495 80 492 79 489 C79 484 79 479 83 476 C86 473 90 473 94 476 C98 479 99 483 97 487 C97 488 96 489 97 491 C100 503 103 515 107 527 C109 534 113 542 117 549 C119 554 118 558 114 560 C111 562 106 560 103 556 C102 554 101 553 100 552 C90 534 85 516 81 498 L81 498 Z M83 556 C79 556 76 553 73 549 C71 544 69 538 67 533 C66 529 64 525 64 520 C63 514 68 511 73 512 C79 513 82 517 82 523 C82 525 82 527 83 529 C85 534 87 540 89 546 C91 551 88 555 83 556 L83 556 Z " />
<glyph glyph-name="Euro" unicode="&#x20ac;" horiz-adv-x="271" d="M252 461 C174 466 103 410 70 343 C58 343 46 343 35 343 C24 343 24 327 35 327 C44 327 53 327 63 327 C57 314 53 298 50 283 C39 283 28 283 17 283 C7 283 7 268 17 267 C28 267 38 267 48 267 C45 235 51 202 72 178 C97 147 140 142 177 144 C187 145 187 160 177 160 C146 158 111 161 88 183 C72 199 65 221 64 243 C63 251 63 259 64 267 C89 267 115 267 140 267 C150 267 151 283 140 283 C116 283 91 283 66 283 C68 292 70 301 73 311 C75 316 77 322 80 327 C107 327 133 327 160 327 C171 327 171 343 160 343 C136 342 112 343 87 343 C101 368 119 390 141 408 C173 432 212 448 252 445 C262 444 262 460 252 461 L252 461 Z " />
</font>
</svg>
