<?xml version="1.0" encoding="UTF-8"?>
<svg xmlns="http://www.w3.org/2000/svg" xmlns:xlink="http://www.w3.org/1999/xlink" version="1.2" >
<font id="Rottles Serif">
<font-face  font-family="Rottles Serif" units-per-em="1000" ascent="750" descent="-250" font-style="normal" font-weight="100" font-stretch="normal" cap-height="700" x-height="500" underline-position="-75" underline-thickness="50" />
<missing-glyph  horiz-adv-x="425" d="" />
<glyph glyph-name="NULL" d="" />
<glyph glyph-name="CR" unicode="&#xd;" horiz-adv-x="425" d="" />
<glyph glyph-name="space" unicode="&#x20;" horiz-adv-x="425" d="" />
<glyph glyph-name="exclam" unicode="&#x21;" horiz-adv-x="215" d="M30 -123 C30 -159 55 -187 92 -187 C129 -187 153 -159 153 -123 C153 -86 129 -59 92 -59 C56 -59 30 -86 30 -123 L30 -123 Z M142 25 L142 625 L42 625 L42 25 L142 25 Z " />
<glyph glyph-name="quotedbl" unicode="&#x22;" horiz-adv-x="397" d="M109 667 C98 592 69 476 48 414 L141 414 C165 482 184 575 203 667 L109 667 Z M263 667 C252 592 226 475 202 414 L298 418 C314 467 340 578 356 667 L263 667 Z " />
<glyph glyph-name="numbersign" unicode="&#x23;" horiz-adv-x="493" d="M143 -113 L170 91 L278 91 L251 -113 L313 -113 L340 91 L439 91 L439 152 L349 152 L368 302 L463 302 L463 363 L377 363 L403 562 L342 562 L315 363 L207 363 L233 562 L173 562 L146 363 L47 363 L47 302 L137 302 L117 152 L23 152 L23 91 L108 91 L81 -113 L143 -113 Z M179 152 L199 302 L307 302 L287 152 L179 152 Z " />
<glyph glyph-name="dollar" unicode="&#x24;" horiz-adv-x="435" d="M413 95 C413 188 360 241 252 285 C247 288 241 289 236 292 L238 493 C302 490 343 469 364 457 L390 526 C359 545 303 559 239 562 L239 663 L212 663 L212 586 L212 558 C95 545 34 479 34 391 C34 300 99 253 205 211 C206 211 207 210 208 210 L206 -14 L199 -14 C139 -14 88 6 49 31 L25 -39 C59 -65 145 -84 204 -84 L204 -189 L232 -189 L232 -162 L233 -81 C340 -62 413 13 413 95 L413 95 Z M123 403 C123 442 147 483 211 491 L209 304 C149 333 123 359 123 403 L123 403 Z M235 198 C292 170 322 137 322 88 C322 37 289 1 233 -11 L235 198 Z " />
<glyph glyph-name="percent" unicode="&#x25;" horiz-adv-x="805" d="M326 377 C326 506 265 578 169 578 C81 578 7 502 7 367 C7 231 81 164 164 164 C252 164 326 233 326 377 L326 377 Z M79 370 C79 455 109 523 166 523 C229 523 254 454 254 373 C254 281 227 219 166 219 C110 219 76 285 79 370 L79 370 Z M242 -119 L574 578 L497 578 L158 -119 L242 -119 Z M765 97 C765 226 706 299 610 299 C520 299 447 223 447 87 C447 -48 521 -115 605 -115 C690 -115 765 -45 765 97 L765 97 Z M518 91 C518 176 548 244 607 244 C671 244 694 176 694 93 C694 4 667 -60 607 -60 C550 -60 518 6 518 91 L518 91 Z " />
<glyph glyph-name="ampersand" unicode="&#x26;" horiz-adv-x="658" d="M473 66 L602 204 L601 205 L564 205 L457 89 L262 346 C367 399 402 454 402 510 C402 545 391 574 360 598 C331 620 295 631 254 631 C210 631 173 616 144 586 C115 555 100 521 100 486 C100 437 134 384 177 324 C105 277 63 237 39 206 C14 175 2 137 2 90 C1 59 7 35 18 8 C31 -17 47 -38 67 -56 C86 -75 107 -87 134 -98 C159 -109 178 -112 203 -112 C268 -112 333 -77 393 -20 L403 -9 L415 2 L501 -115 L609 -115 L473 66 Z M386 12 C346 -31 296 -57 251 -57 C203 -57 161 -38 125 0 C90 40 81 84 81 129 C81 159 91 189 111 220 C132 251 154 278 193 301 L398 26 L386 12 Z M169 513 C169 539 177 561 193 579 C208 596 229 604 256 604 C269 604 281 602 291 598 C301 594 311 587 320 578 C328 570 334 559 337 545 C342 536 344 523 344 506 C344 457 320 411 247 368 C203 429 169 478 169 513 L169 513 Z " />
<glyph glyph-name="quotesingle" unicode="&#x27;" horiz-adv-x="277" d="M129 667 C116 592 89 476 67 414 L157 414 C176 463 206 579 222 667 L129 667 Z " />
<glyph glyph-name="parenleft" unicode="&#x28;" horiz-adv-x="265" d="M171 680 C102 592 26 454 26 244 C26 35 84 -103 153 -193 L239 -193 C162 -88 104 52 104 245 C104 437 162 574 239 680 L171 680 Z " />
<glyph glyph-name="parenright" unicode="&#x29;" horiz-adv-x="250" d="M11 680 C88 574 146 437 146 245 C146 51 86 -86 11 -193 L99 -193 C168 -103 224 36 224 244 C224 454 145 592 78 680 L11 680 Z " />
<glyph glyph-name="asterisk" unicode="&#x2a;" horiz-adv-x="408" d="M264 629 L199 449 L134 628 L71 592 L168 463 L15 483 L15 412 L169 432 L71 303 L130 266 L199 449 L262 267 L327 304 L227 431 L384 412 L384 483 L227 462 L326 594 L264 629 Z " />
<glyph glyph-name="plus" unicode="&#x2b;" horiz-adv-x="597" d="M263 470 L263 226 L28 226 L28 164 L263 164 L263 -82 L329 -82 L329 164 L564 164 L564 226 L329 226 L329 470 L263 470 Z " />
<glyph glyph-name="comma" unicode="&#x2c;" horiz-adv-x="262" d="M116 9 C103 -66 78 -184 54 -245 L145 -245 C164 -197 193 -80 209 9 L116 9 Z " />
<glyph glyph-name="hyphen" unicode="&#x2d;" horiz-adv-x="304" d="M21 232 L21 165 L277 165 L277 232 L21 232 Z " />
<glyph glyph-name="period" unicode="&#x2e;" horiz-adv-x="224" d="M59 -102 C59 -139 84 -167 121 -167 C160 -167 183 -139 183 -102 C183 -63 158 -36 122 -36 C85 -36 59 -63 59 -102 L59 -102 Z " />
<glyph glyph-name="slash" unicode="&#x2f;" horiz-adv-x="454" d="M125 -148 L416 604 L345 604 L56 -148 L125 -148 Z " />
<glyph glyph-name="zero" unicode="0" horiz-adv-x="632" d="M22 298 C22 257 29 218 43 183 C58 149 78 120 103 95 C129 71 160 52 196 38 C234 25 274 18 316 18 C359 18 399 25 437 38 C471 51 502 70 529 95 C556 122 575 151 588 183 C603 216 610 255 610 298 C610 341 603 380 588 413 C575 445 556 474 529 501 C502 526 471 545 437 558 C399 571 359 578 316 578 C274 578 234 571 196 558 C160 544 129 525 103 501 C78 476 58 447 43 413 C29 378 22 340 22 298 L22 298 Z M139 298 C139 339 143 374 152 403 C160 433 172 460 188 483 C205 507 223 524 244 535 C265 548 289 554 316 554 C343 554 367 548 388 535 C410 522 429 505 444 483 C460 460 472 433 480 403 C488 372 493 337 493 298 C493 259 488 225 480 193 C473 162 461 135 444 112 C429 89 410 72 388 61 C367 48 343 42 316 42 C289 42 265 48 244 61 C224 72 205 89 188 112 C171 135 159 162 152 193 C143 223 139 258 139 298 L139 298 Z " />
<glyph glyph-name="one" unicode="1" horiz-adv-x="307" d="M210 574 L199 572 C140 557 85 528 35 483 L9 457 L15 450 L27 437 L61 400 C67 411 112 457 168 484 L168 -18 L272 -18 L272 493 L272 573 L272 578 L259 578 C251 578 240 577 227 576 L210 574 Z " />
<glyph glyph-name="two" unicode="2" horiz-adv-x="561" d="M232 127 L345 215 C354 221 412 268 444 311 C451 318 454 325 459 333 C460 335 461 337 463 339 C478 366 487 394 488 426 C487 447 484 466 477 483 L476 484 C476 485 476 485 475 486 C460 519 435 540 411 553 C410 553 410 553 410 554 C353 583 300 582 260 571 C259 571 259 571 259 570 C245 567 231 562 218 556 C195 545 178 536 166 527 C159 522 152 517 147 512 C118 487 91 458 64 423 L124 374 C132 390 215 503 299 498 C332 495 356 487 371 472 C382 461 389 448 394 431 C410 367 374 313 347 281 C285 211 171 134 97 87 C74 74 52 60 27 45 L27 22 L514 22 L524 127 L232 127 Z " />
<glyph glyph-name="three" unicode="3" horiz-adv-x="511" d="M472 144 C462 166 448 185 430 201 C411 217 389 229 364 240 C339 249 311 256 279 259 C332 286 371 314 404 347 C425 368 449 414 449 441 C449 484 433 518 401 544 C387 555 371 564 353 571 C329 579 302 583 272 583 C247 583 223 580 201 573 C177 566 154 559 131 544 C96 523 36 467 12 435 L64 389 C107 450 179 512 243 512 C337 515 345 448 345 412 C345 392 332 339 303 315 C272 288 238 261 190 241 L168 233 C160 230 151 228 142 224 L142 207 C143 207 144 208 147 208 C160 211 173 212 184 215 L202 217 C254 217 296 203 327 176 C359 150 375 114 375 67 C375 31 369 -3 350 -32 C297 -120 136 -140 27 -140 L28 -214 C236 -214 370 -174 453 -33 C476 4 486 36 486 75 C486 98 481 121 472 144 L472 144 Z " />
<glyph glyph-name="four" unicode="4" horiz-adv-x="624" d="M30 24 L349 24 L349 -140 L454 -140 L454 24 L590 24 L590 71 L454 71 L454 577 L437 577 C434 576 425 567 410 550 C395 534 381 514 362 491 C343 468 324 442 303 415 L221 304 C164 227 102 140 30 44 L30 24 Z M91 71 C106 90 123 114 144 143 L210 232 C233 264 257 296 281 328 L348 419 L348 409 L348 73 L91 71 Z " />
<glyph glyph-name="five" unicode="5" horiz-adv-x="540" d="M484 203 C470 230 451 253 427 273 C401 292 372 307 340 317 C308 328 270 333 226 333 L146 333 L152 396 C155 419 155 438 158 461 L459 461 L495 571 L134 571 C134 558 134 543 133 527 L130 476 L127 424 C124 407 123 386 122 361 C118 318 114 275 109 230 C194 230 248 225 280 218 C299 215 313 211 322 206 C380 182 399 127 399 96 C399 24 372 -142 36 -142 L40 -219 C435 -219 504 -4 504 113 C504 138 500 162 492 184 L484 203 Z " />
<glyph glyph-name="six" unicode="6" horiz-adv-x="596" d="M563 164 C563 197 557 229 546 260 C535 289 519 314 498 334 C479 355 455 371 425 382 C397 393 365 399 329 399 C288 399 252 389 222 369 C193 349 170 320 154 282 C157 423 211 510 272 566 C348 630 444 672 539 659 L535 737 C258 734 30 521 30 251 C30 202 36 157 48 117 C61 76 79 42 102 13 C125 -15 153 -37 185 -54 C218 -70 254 -78 293 -78 C334 -78 373 -72 408 -61 C445 -48 473 -31 494 -11 C517 10 535 36 548 65 C560 95 565 128 563 164 L563 164 Z M446 74 C441 51 431 29 417 9 C405 -9 389 -23 370 -33 C351 -43 330 -48 306 -48 C283 -48 261 -43 242 -33 C223 -24 207 -10 194 7 C182 22 171 43 162 70 C155 96 151 123 151 151 C152 217 167 270 195 310 C223 350 262 370 312 370 L313 369 C334 369 353 364 370 354 C387 344 402 330 415 312 C426 293 436 272 443 245 C450 221 453 192 453 159 C454 125 452 97 446 74 L446 74 Z " />
<glyph glyph-name="seven" unicode="7" horiz-adv-x="546" d="M39 573 L35 519 C34 502 34 484 31 465 L423 465 L345 248 L210 -129 L266 -129 C307 -12 347 101 387 217 C426 326 462 433 501 545 L511 573 L39 573 Z " />
<glyph glyph-name="eight" unicode="8" horiz-adv-x="548" d="M480 304 C469 316 457 328 444 339 C428 351 411 363 392 375 L393 375 C487 426 493 528 490 585 C485 636 448 680 430 693 C409 708 386 718 361 725 C334 733 304 737 271 737 C240 737 210 732 181 723 C154 714 130 701 111 684 C92 667 77 647 66 624 C56 600 51 574 51 546 C51 509 63 473 87 439 C102 416 123 395 148 376 C144 375 137 372 128 367 C92 346 15 292 20 180 C21 155 27 131 38 109 C50 87 67 68 89 52 C112 36 138 23 170 15 C199 6 233 2 273 2 C309 2 344 7 377 16 C408 27 434 40 457 57 C480 74 497 95 509 120 C521 145 527 173 527 202 C527 235 511 269 480 304 L480 304 Z M143 585 C143 624 155 655 178 678 C201 701 232 713 271 713 C313 713 346 699 371 671 C391 648 403 620 407 585 C410 577 409 569 409 558 C409 551 409 548 408 541 C405 501 388 431 317 413 C306 417 293 421 288 424 L287 424 C244 440 209 463 182 492 C156 522 143 553 143 585 L143 585 Z M392 65 C365 39 329 26 283 26 C235 26 199 43 168 74 C137 105 122 160 122 201 L122 214 C127 253 149 318 220 334 L222 334 L223 334 C231 330 240 327 250 324 C305 304 350 280 383 251 C416 223 433 195 433 167 C433 125 419 91 392 65 L392 65 Z " />
<glyph glyph-name="nine" unicode="9" horiz-adv-x="586" d="M25 337 C25 304 31 272 42 241 C54 210 70 187 90 166 C109 146 133 130 164 119 C192 107 224 101 259 101 C302 101 335 112 366 132 C395 153 418 182 434 219 C431 79 377 -10 317 -65 C247 -127 138 -175 49 -159 L53 -236 C66 -236 148 -229 158 -226 C550 -146 557 210 557 219 C558 230 558 239 558 250 C558 301 552 346 539 384 C527 424 509 459 486 488 C463 516 435 538 403 555 C370 571 334 579 295 579 C252 579 214 573 180 561 C145 550 117 534 94 512 C71 491 53 465 40 436 C28 406 23 373 25 337 L25 337 Z M143 427 C149 452 158 473 171 492 C184 510 200 524 218 534 C238 544 259 549 282 549 C306 549 327 544 346 534 C365 524 381 511 394 494 C409 475 418 455 426 431 C433 404 437 376 437 349 C436 284 421 231 393 191 C365 150 326 130 276 130 L275 132 C252 132 233 137 218 147 C201 157 186 171 174 189 C162 206 152 228 145 256 C138 279 135 307 135 342 C134 373 136 400 143 427 L143 427 Z " />
<glyph glyph-name="colon" unicode="&#x3a;" horiz-adv-x="239" d="M73 376 C73 339 98 311 135 311 C174 311 197 339 197 376 C196 415 172 441 136 441 C100 441 73 415 73 376 L73 376 Z M73 9 C73 -27 98 -55 135 -55 C174 -55 197 -27 197 9 C196 48 172 75 136 75 C100 75 73 48 73 9 L73 9 Z " />
<glyph glyph-name="semicolon" unicode="&#x3b;" horiz-adv-x="254" d="M112 85 C101 10 74 -108 50 -169 L141 -169 C160 -121 187 -4 206 85 L112 85 Z M128 311 C165 311 189 339 189 376 C189 415 165 441 128 441 C93 441 67 415 67 376 C67 339 92 311 128 311 L128 311 Z " />
<glyph glyph-name="less" unicode="&#x3c;" horiz-adv-x="562" d="M511 -43 L511 22 L100 233 L511 444 L511 509 L29 262 L29 203 L511 -43 Z " />
<glyph glyph-name="equal" unicode="&#x3d;" horiz-adv-x="601" d="M568 306 L568 369 L32 369 L32 306 L568 306 Z M568 103 L568 165 L32 165 L32 103 L568 103 Z " />
<glyph glyph-name="greater" unicode="&#x3e;" horiz-adv-x="585" d="M539 262 L57 509 L57 444 L468 233 L57 22 L57 -43 L539 203 L539 262 Z " />
<glyph glyph-name="question" unicode="&#x3f;" horiz-adv-x="393" d="M210 82 L209 109 C206 162 221 205 268 261 C319 320 357 371 357 442 C357 522 303 594 184 594 C128 594 71 578 36 553 L61 488 C86 507 128 520 165 520 C233 519 264 483 264 430 C264 383 238 344 191 288 C139 224 120 165 127 109 L129 82 L210 82 Z M106 -64 C106 -100 131 -128 167 -128 C206 -128 230 -100 230 -64 C230 -25 205 2 169 2 C132 2 106 -25 106 -64 L106 -64 Z " />
<glyph glyph-name="at" unicode="&#x40;" horiz-adv-x="731" d="M503 -31 C460 -55 408 -67 347 -67 C192 -67 80 40 80 213 C80 425 223 558 391 558 C552 558 642 451 642 299 C642 178 583 109 530 109 C495 110 484 145 499 225 L534 413 C507 426 468 435 423 435 C279 435 177 317 177 189 C177 107 229 59 289 59 C352 59 401 89 436 150 L440 150 C437 86 474 59 517 59 C613 59 702 149 702 305 C702 478 580 605 400 605 C168 605 21 421 21 207 C21 7 164 -117 335 -117 C407 -117 463 -107 520 -76 L503 -31 Z M441 256 C427 191 376 115 314 115 C269 115 246 148 246 193 C246 294 320 380 411 380 C435 380 452 376 463 373 L441 256 Z " />
<glyph glyph-name="A" unicode="A" horiz-adv-x="694" d="M339 617 L311 617 L17 -138 L57 -138 L153 128 C154 131 157 133 160 133 L427 133 C430 133 432 131 433 128 L546 -138 L677 -138 L339 617 Z M167 163 C168 165 209 271 289 481 L418 163 L167 163 Z " />
<glyph glyph-name="B" unicode="B" horiz-adv-x="653" d="M568 202 C523 237 462 260 387 270 C447 283 490 302 523 333 C556 362 573 398 573 440 C573 467 567 491 554 512 C543 532 525 551 500 568 C475 585 448 596 417 603 C385 611 349 615 310 616 L32 616 L32 -138 L339 -138 C385 -138 425 -133 460 -122 C498 -112 529 -98 554 -80 C579 -62 599 -40 614 -14 C628 12 635 41 635 72 C635 124 613 167 568 202 L568 202 Z M150 584 L310 584 C353 584 387 571 414 545 C440 518 453 483 453 439 C453 390 437 350 405 321 C373 291 331 276 279 276 L150 276 L150 584 Z M459 -57 C427 -89 383 -105 328 -105 L151 -107 L151 249 L265 249 C302 249 334 244 365 236 C395 228 421 216 442 200 C463 185 480 167 491 144 C503 122 509 98 509 72 C509 18 492 -25 459 -57 L459 -57 Z " />
<glyph glyph-name="C" unicode="C" horiz-adv-x="787" d="M612 603 C585 610 558 613 530 617 C501 620 473 621 446 621 C383 621 326 612 275 594 C224 576 180 550 143 517 C106 484 78 444 58 397 C38 350 28 298 28 240 C28 183 38 131 58 84 C78 36 106 -4 143 -37 C180 -70 224 -96 275 -114 C421 -167 620 -146 746 -74 L746 -30 C647 -102 439 -137 329 -85 C294 -68 264 -45 239 -14 C214 16 195 53 181 97 C166 140 161 188 161 240 C161 292 166 340 181 383 C195 428 214 465 239 494 C264 525 294 548 329 565 C340 570 351 575 363 578 C410 593 461 591 504 587 C528 584 552 580 577 575 C636 559 727 531 746 498 L746 554 C731 563 711 573 686 582 C663 590 639 596 612 603 L612 603 Z " />
<glyph glyph-name="D" unicode="D" horiz-adv-x="756" d="M602 512 C565 545 521 570 470 588 C418 606 361 615 299 616 L43 616 L43 -138 L345 -138 C401 -138 452 -129 498 -110 C545 -92 584 -67 615 -34 C647 -1 672 38 691 85 C709 131 718 182 718 239 C718 298 708 349 687 393 C667 440 639 479 602 512 L602 512 Z M580 98 C567 53 550 17 528 -11 C507 -41 481 -65 449 -82 C418 -99 384 -107 346 -107 L160 -107 L160 585 L299 585 C344 585 384 577 421 561 C458 544 489 520 515 490 C543 458 563 422 576 381 C591 339 598 292 598 239 C598 187 592 140 580 98 L580 98 Z " />
<glyph glyph-name="E" unicode="E" horiz-adv-x="584" d="M541 -139 L541 -107 L179 -107 L179 249 L466 249 L466 278 L180 278 L180 585 L543 585 L543 616 L61 616 L61 -139 L541 -139 Z " />
<glyph glyph-name="F" unicode="F" horiz-adv-x="538" d="M148 -138 L148 244 L421 244 L421 273 L148 273 L148 585 L542 585 L542 616 L29 616 L29 -138 L148 -138 Z " />
<glyph glyph-name="G" unicode="G" horiz-adv-x="777" d="M266 593 C215 575 171 549 134 516 C97 483 69 443 49 396 C29 349 19 297 19 239 C19 182 29 130 49 83 C70 34 98 -6 134 -38 C171 -71 215 -97 266 -115 C379 -154 496 -149 604 -124 C631 -117 654 -111 677 -103 C701 -94 721 -85 737 -75 L737 217 L629 217 L629 -82 C525 -111 411 -131 320 -86 C285 -69 255 -46 230 -15 C205 15 186 52 172 96 C157 139 152 187 152 239 C152 291 157 339 172 382 C186 427 205 464 230 493 C365 655 624 578 737 497 L737 553 C584 625 413 644 266 593 L266 593 Z " />
<glyph glyph-name="H" unicode="H" horiz-adv-x="747" d="M579 244 L579 -138 L697 -138 L697 617 L579 617 L579 274 L163 273 L163 617 L45 617 L45 -138 L163 -138 L163 245 L579 244 Z " />
<glyph glyph-name="I" unicode="I" horiz-adv-x="203" d="M35 617 L35 -138 L153 -138 L153 617 L35 617 Z " />
<glyph glyph-name="J" unicode="J" horiz-adv-x="460" d="M401 617 L275 617 L275 45 C275 0 274 -54 237 -91 C220 -108 191 -119 168 -123 C132 -130 111 -126 72 -111 L54 -124 C69 -132 94 -141 115 -146 C215 -167 328 -152 376 -66 C393 -34 400 30 400 98 L401 617 Z " />
<glyph glyph-name="K" unicode="K" horiz-adv-x="755" d="M55 -138 L171 -138 L171 617 L55 617 L55 -138 Z M499 538 L581 617 L527 617 L455 545 L173 269 C173 267 403 -191 711 -143 L711 -86 C664 -93 615 -86 564 -64 C476 -27 358 62 238 273 L499 538 Z " />
<glyph glyph-name="L" unicode="L" horiz-adv-x="580" d="M49 616 L49 -139 L532 -139 L532 -106 L160 -106 L160 616 L49 616 Z " />
<glyph glyph-name="M" unicode="M" horiz-adv-x="841" d="M678 617 L424 -2 L422 1 L139 617 L50 617 L50 -139 L83 -139 L76 467 L368 -139 L399 -139 L684 524 L675 -138 L791 -138 L791 617 L678 617 Z " />
<glyph glyph-name="N" unicode="N" horiz-adv-x="673" d="M598 38 L158 617 L50 617 L50 -138 L85 -138 L85 511 L581 -138 L634 -138 L633 617 L598 617 L598 38 Z " />
<glyph glyph-name="O" unicode="O" horiz-adv-x="736" d="M715 246 C713 300 704 349 688 393 C669 442 643 483 611 516 C606 521 600 527 595 531 C518 604 406 637 305 613 C246 597 190 568 149 531 C144 527 138 521 133 516 C100 483 75 442 56 393 C40 349 31 300 29 246 L29 236 L29 226 C33 165 41 122 56 79 C75 30 100 -11 133 -45 L149 -59 C273 -172 460 -171 584 -69 C595 -62 603 -53 611 -45 C622 -33 632 -21 641 -8 C659 17 675 46 688 79 C704 124 713 173 715 226 L715 246 Z M575 92 C571 77 566 63 561 50 C550 22 539 0 523 -20 C513 -38 465 -98 365 -98 C278 -98 231 -37 221 -20 C198 11 181 48 169 92 C157 135 151 183 151 236 C151 290 157 338 169 379 C181 423 198 461 221 493 C243 524 270 548 302 566 C305 569 337 584 370 585 C403 585 435 569 442 566 C474 548 501 524 523 493 C546 461 563 423 575 379 C587 336 592 289 593 236 C592 184 587 137 575 92 L575 92 Z " />
<glyph glyph-name="P" unicode="P" horiz-adv-x="633" d="M526 558 C501 577 474 589 439 600 C406 610 369 615 327 615 L45 616 L45 -138 L162 -138 L162 198 L294 198 C339 198 381 203 419 213 C456 224 488 237 515 256 C542 274 563 296 578 322 C593 347 600 375 600 407 C600 439 594 467 581 492 C568 517 549 539 526 558 L526 558 Z M424 278 C392 245 349 229 295 229 L162 229 L162 584 L326 584 C370 584 405 568 432 536 C459 505 472 463 472 408 C472 355 456 311 424 278 L424 278 Z " />
<glyph glyph-name="Q" unicode="Q" horiz-adv-x="741" d="M708 259 C707 311 698 358 681 401 C663 448 638 487 605 520 C601 525 595 530 590 535 C564 558 533 578 498 593 C495 594 491 594 488 597 C481 600 465 605 444 612 C437 612 381 628 319 617 C312 616 307 614 303 613 C277 606 260 600 252 597 C249 596 247 594 243 593 C208 578 177 558 150 535 L135 520 C103 487 78 448 59 401 C42 357 34 310 33 259 C32 258 32 255 32 250 C32 245 32 242 33 241 C34 191 42 143 59 98 C78 52 103 12 135 -21 L150 -35 C163 -59 180 -77 192 -89 C199 -96 206 -103 213 -108 C226 -118 275 -148 294 -156 C390 -201 540 -235 690 -179 L680 -141 C673 -148 653 -151 618 -151 C583 -150 543 -146 495 -138 C458 -131 426 -126 395 -119 C439 -115 477 -101 488 -97 L498 -93 C528 -80 555 -64 579 -45 L590 -35 C595 -30 601 -26 605 -21 C614 -12 624 -1 635 14 C652 37 668 65 681 98 C698 142 707 190 708 241 L708 259 Z M570 111 C566 96 561 83 556 70 C545 43 533 21 519 2 C509 -13 459 -72 364 -72 C277 -72 232 -13 222 2 C199 33 181 70 170 111 C158 154 153 199 152 250 C153 301 158 347 170 388 C182 431 199 467 222 498 C244 528 270 551 301 568 C304 571 336 587 369 587 C401 587 432 571 439 568 C470 551 497 527 519 498 C541 467 558 431 570 388 C582 347 588 301 588 250 C588 199 582 153 570 111 L570 111 Z " />
<glyph glyph-name="R" unicode="R" horiz-adv-x="723" d="M661 -86 C660 -83 659 -84 658 -81 L625 -39 C606 -15 589 7 572 30 L572 31 L416 232 C474 245 520 268 554 301 C587 333 604 373 604 421 C604 452 598 478 585 501 C573 524 555 544 530 562 C505 580 477 593 446 602 C411 611 374 616 336 616 L60 616 L60 -139 L178 -139 L178 218 L281 218 C298 197 321 166 352 125 C361 113 369 101 380 88 L494 -62 L550 -138 L700 -138 L698 -136 L661 -86 Z M176 250 L176 585 L336 585 C378 585 412 570 438 541 C463 510 476 470 476 421 C476 370 460 328 429 297 C398 266 356 250 304 250 L176 250 Z " />
<glyph glyph-name="S" unicode="S" horiz-adv-x="550" d="M472 202 C468 207 464 211 459 215 C444 230 426 242 406 253 C381 268 352 279 321 288 C288 297 259 308 232 320 C207 331 184 344 163 358 C145 373 131 387 120 401 C109 416 104 430 104 445 C104 489 121 523 149 552 C229 632 434 578 483 529 L483 569 C456 586 422 598 383 609 C344 620 309 623 273 623 C233 623 198 618 169 607 C137 596 112 581 89 561 C67 541 50 517 37 489 C25 461 19 430 19 397 C19 376 24 354 34 333 C43 312 57 293 75 275 C93 257 115 241 141 227 L165 215 C184 206 204 200 225 193 C258 184 288 173 315 160 C340 149 363 136 384 119 C405 102 420 87 428 73 C439 58 444 42 444 23 C444 -17 429 -49 398 -74 C378 -89 356 -99 332 -105 L331 -105 C314 -109 295 -111 274 -111 L267 -111 C262 -111 259 -111 258 -110 C193 -110 99 -94 16 -25 L16 -88 C29 -95 46 -103 67 -110 C88 -117 109 -123 130 -127 C153 -132 176 -135 201 -138 C226 -141 251 -142 275 -142 C315 -142 350 -137 379 -126 C410 -116 437 -102 460 -83 C482 -64 499 -42 512 -16 C524 10 530 39 530 72 C530 96 525 119 515 141 C505 163 491 183 472 202 L472 202 Z " />
<glyph glyph-name="T" unicode="T" horiz-adv-x="732" d="M16 586 L309 586 L309 -138 L429 -138 L429 586 L719 586 L719 617 L16 617 L16 586 Z " />
<glyph glyph-name="U" unicode="U" horiz-adv-x="654" d="M585 86 C585 57 581 31 573 7 C564 -15 551 -35 533 -53 C515 -69 492 -82 464 -92 C433 -101 398 -106 359 -106 C291 -106 243 -89 214 -54 C185 -19 170 27 170 84 L170 616 L50 616 L50 107 C50 68 55 33 66 3 C77 -28 94 -55 118 -77 C141 -99 171 -116 208 -128 C243 -141 288 -147 342 -147 C394 -147 437 -142 471 -131 C508 -120 537 -106 558 -87 C581 -68 596 -45 607 -18 C618 8 623 38 623 73 L623 616 L585 616 L585 86 Z " />
<glyph glyph-name="V" unicode="V" horiz-adv-x="701" d="M581 441 L428 15 L165 617 L25 617 L368 -139 L399 -139 L620 456 L678 617 L641 617 L581 441 Z " />
<glyph glyph-name="W" unicode="W" horiz-adv-x="1050" d="M1006 617 L957 461 L823 31 L586 617 L554 616 L357 18 L216 407 L173 526 C172 530 171 532 171 532 L141 616 L7 616 L74 440 L74 439 L303 -139 L332 -139 L523 434 L765 -137 L765 -138 L766 -138 L766 -139 L766 -138 L797 -138 L976 408 L976 409 L1042 617 L1006 617 Z " />
<glyph glyph-name="X" unicode="X" horiz-adv-x="678" d="M391 288 L616 617 L567 617 L374 317 L176 617 L35 617 L297 222 L296 220 L55 -138 L103 -138 L317 192 L534 -138 L670 -138 L391 288 Z " />
<glyph glyph-name="Y" unicode="Y" horiz-adv-x="652" d="M377 247 L153 617 L7 617 L270 185 L270 -138 L389 -138 L389 222 L655 616 L624 616 L377 247 Z " />
<glyph glyph-name="Z" unicode="Z" horiz-adv-x="637" d="M77 585 L453 585 L20 -138 L583 -138 C583 -138 583 -133 583 -122 C583 -112 583 -107 583 -107 L179 -107 L614 617 L77 617 L77 585 Z " />
<glyph glyph-name="bracketleft" unicode="&#x5b;" horiz-adv-x="284" d="M226 -170 L226 -143 L107 -143 L107 630 L226 630 L226 658 L36 658 L36 -170 L226 -170 Z " />
<glyph glyph-name="backslash" unicode="&#x5c;" horiz-adv-x="429" d="M386 -137 L103 615 L33 615 L315 -137 L386 -137 Z " />
<glyph glyph-name="bracketright" unicode="&#x5d;" horiz-adv-x="300" d="M55 629 L175 629 L175 -144 L55 -144 L55 -171 L245 -171 L245 657 L55 657 L55 629 Z " />
<glyph glyph-name="asciicircum" unicode="&#x5e;" horiz-adv-x="544" d="M514 152 L299 631 L235 631 L12 144 L77 144 L266 555 L268 555 L441 152 L514 152 Z " />
<glyph glyph-name="underscore" unicode="&#x5f;" horiz-adv-x="607" d="M21 -91 L21 -143 L540 -143 L540 -91 L21 -91 Z " />
<glyph glyph-name="grave" unicode="&#x60;" horiz-adv-x="249" d="M28 637 L123 489 L219 489 L128 637 L28 637 Z " />
<glyph glyph-name="a" unicode="a" horiz-adv-x="616" d="M296 617 L268 617 L-26 -138 L14 -138 L110 128 C111 131 114 133 117 133 L384 133 C387 133 389 131 390 128 L503 -138 L634 -138 L296 617 Z M124 163 C125 165 166 271 246 481 L375 163 L124 163 Z " />
<glyph glyph-name="b" unicode="b" horiz-adv-x="653" d="M561 202 C516 237 455 260 380 270 C440 283 483 302 516 333 C549 362 566 398 566 440 C566 467 560 491 547 512 C536 532 518 551 493 568 C468 585 441 596 410 603 C378 611 342 615 303 616 L25 616 L25 -138 L332 -138 C378 -138 418 -133 453 -122 C491 -112 522 -98 547 -80 C572 -62 592 -40 607 -14 C621 12 628 41 628 72 C628 124 606 167 561 202 L561 202 Z M143 584 L303 584 C346 584 380 571 407 545 C433 518 446 483 446 439 C446 390 430 350 398 321 C366 291 324 276 272 276 L143 276 L143 584 Z M452 -57 C420 -89 376 -105 321 -105 L144 -107 L144 249 L258 249 C295 249 327 244 358 236 C388 228 414 216 435 200 C456 185 473 167 484 144 C496 122 502 98 502 72 C502 18 485 -25 452 -57 L452 -57 Z " />
<glyph glyph-name="c" unicode="c" horiz-adv-x="787" d="M615 603 C588 610 561 613 533 617 C504 620 476 621 449 621 C386 621 329 612 278 594 C227 576 183 550 146 517 C109 484 81 444 61 397 C41 350 31 298 31 240 C31 183 41 131 61 84 C81 36 109 -4 146 -37 C183 -70 227 -96 278 -114 C424 -167 623 -146 749 -74 L749 -30 C650 -102 442 -137 332 -85 C297 -68 267 -45 242 -14 C217 16 198 53 184 97 C169 140 164 188 164 240 C164 292 169 340 184 383 C198 428 217 465 242 494 C267 525 297 548 332 565 C343 570 354 575 366 578 C413 593 464 591 507 587 C531 584 555 580 580 575 C639 559 730 531 749 498 L749 554 C734 563 714 573 689 582 C666 590 642 596 615 603 L615 603 Z " />
<glyph glyph-name="d" unicode="d" horiz-adv-x="730" d="M600 512 C563 545 519 570 468 588 C416 606 359 615 297 616 L41 616 L41 -138 L343 -138 C399 -138 450 -129 496 -110 C543 -92 582 -67 613 -34 C645 -1 670 38 689 85 C707 131 716 182 716 239 C716 298 706 349 685 393 C665 440 637 479 600 512 L600 512 Z M578 98 C565 53 548 17 526 -11 C505 -41 479 -65 447 -82 C416 -99 382 -107 344 -107 L158 -107 L158 585 L297 585 C342 585 382 577 419 561 C456 544 487 520 513 490 C541 458 561 422 574 381 C589 339 596 292 596 239 C596 187 590 140 578 98 L578 98 Z " />
<glyph glyph-name="e" unicode="e" horiz-adv-x="595" d="M541 -139 L541 -107 L179 -107 L179 249 L466 249 L466 278 L180 278 L180 585 L543 585 L543 616 L61 616 L61 -139 L541 -139 Z " />
<glyph glyph-name="f" unicode="f" horiz-adv-x="538" d="M148 -138 L148 244 L421 244 L421 273 L148 273 L148 585 L542 585 L542 616 L29 616 L29 -138 L148 -138 Z " />
<glyph glyph-name="g" unicode="g" horiz-adv-x="777" d="M266 593 C215 575 171 549 134 516 C97 483 69 443 49 396 C29 349 19 297 19 239 C19 182 29 130 49 83 C70 34 98 -6 134 -38 C171 -71 215 -97 266 -115 C379 -154 496 -149 604 -124 C631 -117 654 -111 677 -103 C701 -94 721 -85 737 -75 L737 217 L629 217 L629 -82 C525 -111 411 -131 320 -86 C285 -69 255 -46 230 -15 C205 15 186 52 172 96 C157 139 152 187 152 239 C152 291 157 339 172 382 C186 427 205 464 230 493 C365 655 624 578 737 497 L737 553 C584 625 413 644 266 593 L266 593 Z " />
<glyph glyph-name="h" unicode="h" horiz-adv-x="747" d="M579 244 L579 -138 L697 -138 L697 617 L579 617 L579 274 L163 273 L163 617 L45 617 L45 -138 L163 -138 L163 245 L579 244 Z " />
<glyph glyph-name="i" unicode="i" horiz-adv-x="203" d="M35 617 L35 -138 L153 -138 L153 617 L35 617 Z " />
<glyph glyph-name="j" unicode="j" horiz-adv-x="460" d="M401 617 L275 617 L275 45 C275 0 274 -54 237 -91 C220 -108 191 -119 168 -123 C132 -130 111 -126 72 -111 L54 -124 C69 -132 94 -141 115 -146 C215 -167 328 -152 376 -66 C393 -34 400 30 400 98 L401 617 Z " />
<glyph glyph-name="k" unicode="k" horiz-adv-x="755" d="M55 -138 L171 -138 L171 617 L55 617 L55 -138 Z M499 538 L581 617 L527 617 L455 545 L173 269 C173 267 403 -191 711 -143 L711 -86 C664 -93 615 -86 564 -64 C476 -27 358 62 238 273 L499 538 Z " />
<glyph glyph-name="l" unicode="l" horiz-adv-x="580" d="M49 616 L49 -139 L532 -139 L532 -106 L160 -106 L160 616 L49 616 Z " />
<glyph glyph-name="m" unicode="m" horiz-adv-x="841" d="M678 617 L424 -2 L422 1 L139 617 L50 617 L50 -139 L83 -139 L76 467 L368 -139 L399 -139 L684 524 L675 -138 L791 -138 L791 617 L678 617 Z " />
<glyph glyph-name="n" unicode="n" horiz-adv-x="673" d="M548 38 L108 617 L0 617 L0 -138 L35 -138 L35 511 L531 -138 L584 -138 L583 617 L548 617 L548 38 Z " />
<glyph glyph-name="o" unicode="o" horiz-adv-x="736" d="M715 246 C713 300 704 349 688 393 C669 442 643 483 611 516 C606 521 600 527 595 531 C518 604 406 637 305 613 C246 597 190 568 149 531 C144 527 138 521 133 516 C100 483 75 442 56 393 C40 349 31 300 29 246 L29 236 L29 226 C33 165 41 122 56 79 C75 30 100 -11 133 -45 L149 -59 C273 -172 460 -171 584 -69 C595 -62 603 -53 611 -45 C622 -33 632 -21 641 -8 C659 17 675 46 688 79 C704 124 713 173 715 226 L715 246 Z M575 92 C571 77 566 63 561 50 C550 22 539 0 523 -20 C513 -38 465 -98 365 -98 C278 -98 231 -37 221 -20 C198 11 181 48 169 92 C157 135 151 183 151 236 C151 290 157 338 169 379 C181 423 198 461 221 493 C243 524 270 548 302 566 C305 569 337 584 370 585 C403 585 435 569 442 566 C474 548 501 524 523 493 C546 461 563 423 575 379 C587 336 592 289 593 236 C592 184 587 137 575 92 L575 92 Z " />
<glyph glyph-name="p" unicode="p" horiz-adv-x="633" d="M526 558 C501 577 474 589 439 600 C406 610 369 615 327 615 L45 616 L45 -138 L162 -138 L162 198 L294 198 C339 198 381 203 419 213 C456 224 488 237 515 256 C542 274 563 296 578 322 C593 347 600 375 600 407 C600 439 594 467 581 492 C568 517 549 539 526 558 L526 558 Z M424 278 C392 245 349 229 295 229 L162 229 L162 584 L326 584 C370 584 405 568 432 536 C459 505 472 463 472 408 C472 355 456 311 424 278 L424 278 Z " />
<glyph glyph-name="q" unicode="q" horiz-adv-x="741" d="M708 259 C707 311 698 358 681 401 C663 448 638 487 605 520 C601 525 595 530 590 535 C564 558 533 578 498 593 C495 594 491 594 488 597 C481 600 465 605 444 612 C437 612 381 628 319 617 C312 616 307 614 303 613 C277 606 260 600 252 597 C249 596 247 594 243 593 C208 578 177 558 150 535 L135 520 C103 487 78 448 59 401 C42 357 34 310 33 259 C32 258 32 255 32 250 C32 245 32 242 33 241 C34 191 42 143 59 98 C78 52 103 12 135 -21 L150 -35 C163 -59 180 -77 192 -89 C199 -96 206 -103 213 -108 C226 -118 275 -148 294 -156 C390 -201 540 -235 690 -179 L680 -141 C673 -148 653 -151 618 -151 C583 -150 543 -146 495 -138 C458 -131 426 -126 395 -119 C439 -115 477 -101 488 -97 L498 -93 C528 -80 555 -64 579 -45 L590 -35 C595 -30 601 -26 605 -21 C614 -12 624 -1 635 14 C652 37 668 65 681 98 C698 142 707 190 708 241 L708 259 Z M570 111 C566 96 561 83 556 70 C545 43 533 21 519 2 C509 -13 459 -72 364 -72 C277 -72 232 -13 222 2 C199 33 181 70 170 111 C158 154 153 199 152 250 C153 301 158 347 170 388 C182 431 199 467 222 498 C244 528 270 551 301 568 C304 571 336 587 369 587 C401 587 432 571 439 568 C470 551 497 527 519 498 C541 467 558 431 570 388 C582 347 588 301 588 250 C588 199 582 153 570 111 L570 111 Z " />
<glyph glyph-name="r" unicode="r" horiz-adv-x="723" d="M661 -86 C660 -83 659 -84 658 -81 L625 -39 C606 -15 589 7 572 30 L572 31 L416 232 C474 245 520 268 554 301 C587 333 604 373 604 421 C604 452 598 478 585 501 C573 524 555 544 530 562 C505 580 477 593 446 602 C411 611 374 616 336 616 L60 616 L60 -139 L178 -139 L178 218 L281 218 C298 197 321 166 352 125 C361 113 369 101 380 88 L494 -62 L550 -138 L700 -138 L698 -136 L661 -86 Z M176 250 L176 585 L336 585 C378 585 412 570 438 541 C463 510 476 470 476 421 C476 370 460 328 429 297 C398 266 356 250 304 250 L176 250 Z " />
<glyph glyph-name="s" unicode="s" horiz-adv-x="550" d="M472 202 C468 207 464 211 459 215 C444 230 426 242 406 253 C381 268 352 279 321 288 C288 297 259 308 232 320 C207 331 184 344 163 358 C145 373 131 387 120 401 C109 416 104 430 104 445 C104 489 121 523 149 552 C229 632 434 578 483 529 L483 569 C456 586 422 598 383 609 C344 620 309 623 273 623 C233 623 198 618 169 607 C137 596 112 581 89 561 C67 541 50 517 37 489 C25 461 19 430 19 397 C19 376 24 354 34 333 C43 312 57 293 75 275 C93 257 115 241 141 227 L165 215 C184 206 204 200 225 193 C258 184 288 173 315 160 C340 149 363 136 384 119 C405 102 420 87 428 73 C439 58 444 42 444 23 C444 -17 429 -49 398 -74 C378 -89 356 -99 332 -105 L331 -105 C314 -109 295 -111 274 -111 L267 -111 C262 -111 259 -111 258 -110 C193 -110 99 -94 16 -25 L16 -88 C29 -95 46 -103 67 -110 C88 -117 109 -123 130 -127 C153 -132 176 -135 201 -138 C226 -141 251 -142 275 -142 C315 -142 350 -137 379 -126 C410 -116 437 -102 460 -83 C482 -64 499 -42 512 -16 C524 10 530 39 530 72 C530 96 525 119 515 141 C505 163 491 183 472 202 L472 202 Z " />
<glyph glyph-name="t" unicode="t" horiz-adv-x="732" d="M16 586 L309 586 L309 -138 L429 -138 L429 586 L719 586 L719 617 L16 617 L16 586 Z " />
<glyph glyph-name="u" unicode="u" horiz-adv-x="654" d="M585 86 C585 57 581 31 573 7 C564 -15 551 -35 533 -53 C515 -69 492 -82 464 -92 C433 -101 398 -106 359 -106 C291 -106 243 -89 214 -54 C185 -19 170 27 170 84 L170 616 L50 616 L50 107 C50 68 55 33 66 3 C77 -28 94 -55 118 -77 C141 -99 171 -116 208 -128 C243 -141 288 -147 342 -147 C394 -147 437 -142 471 -131 C508 -120 537 -106 558 -87 C581 -68 596 -45 607 -18 C618 8 623 38 623 73 L623 616 L585 616 L585 86 Z " />
<glyph glyph-name="v" unicode="v" horiz-adv-x="701" d="M581 441 L428 15 L165 617 L25 617 L368 -139 L399 -139 L620 456 L678 617 L641 617 L581 441 Z " />
<glyph glyph-name="w" unicode="w" horiz-adv-x="1051" d="M1007 617 L958 461 L824 31 L587 617 L555 616 L358 18 L217 407 L174 526 C173 530 172 532 172 532 L142 616 L8 616 L75 440 L75 439 L304 -139 L333 -139 L524 434 L766 -137 L766 -138 L767 -138 L767 -139 L767 -138 L798 -138 L977 408 L977 409 L1043 617 L1007 617 Z " />
<glyph glyph-name="x" unicode="x" horiz-adv-x="642" d="M379 288 L604 617 L555 617 L362 317 L164 617 L23 617 L285 222 L284 220 L43 -138 L91 -138 L305 192 L522 -138 L658 -138 L379 288 Z " />
<glyph glyph-name="y" unicode="y" horiz-adv-x="664" d="M383 247 L159 617 L13 617 L276 185 L276 -138 L395 -138 L395 222 L661 616 L630 616 L383 247 Z " />
<glyph glyph-name="z" unicode="z" horiz-adv-x="630" d="M70 585 L446 585 L13 -138 L576 -138 C576 -138 576 -133 576 -122 C576 -112 576 -107 576 -107 L172 -107 L607 617 L70 617 L70 585 Z " />
<glyph glyph-name="braceleft" unicode="&#x7b;" horiz-adv-x="300" d="M65 531 C65 502 70 474 74 445 C78 416 82 387 82 358 C82 322 73 281 -2 281 L-2 228 C73 228 82 184 82 151 C82 123 78 95 74 67 C70 39 65 10 65 -18 C65 -122 131 -160 216 -160 L238 -160 L238 -144 L220 -144 C162 -144 137 -71 137 -13 C137 14 141 35 144 62 C149 87 153 113 153 141 C153 174 133 203 114 223 C103 235 90 246 76 255 C90 264 103 275 114 287 C133 307 153 334 153 369 C153 397 149 422 144 447 C141 472 137 497 137 521 C137 577 159 645 219 645 L238 645 L238 667 L217 667 C129 667 65 627 65 531 L65 531 Z " />
<glyph glyph-name="bar" unicode="&#x7c;" horiz-adv-x="169" d="M46 735 L46 -233 L115 -233 L115 735 L46 735 Z " />
<glyph glyph-name="braceright" unicode="&#x7d;" horiz-adv-x="331" d="M221 358 C221 387 225 416 229 445 C233 474 237 502 237 531 C237 627 174 667 86 667 L65 667 L65 645 L84 645 C144 645 166 577 166 521 C166 497 161 472 158 447 C154 422 150 397 150 369 C150 334 169 307 188 287 C200 274 213 264 227 255 C213 246 200 236 188 223 C169 203 150 174 150 141 C150 113 154 87 158 62 C161 35 166 14 166 -13 C166 -72 141 -143 83 -143 L65 -143 L65 -160 L87 -160 C172 -160 237 -122 237 -18 C237 10 233 39 229 67 C225 95 221 123 221 151 C221 184 230 228 305 228 L305 281 C230 281 221 322 221 358 L221 358 Z " />
<glyph glyph-name="asciitilde" unicode="&#x7e;" horiz-adv-x="582" d="M92 136 C95 200 116 224 155 224 C191 224 389 133 430 133 C494 133 554 173 549 290 L487 290 C486 231 468 202 431 202 C392 202 197 293 155 293 C83 293 27 240 31 136 L92 136 Z " />
<glyph glyph-name="quoteleft" unicode="&#x2018;" horiz-adv-x="268" d="M129 667 C116 592 89 476 67 414 L157 414 C176 463 206 579 222 667 L129 667 Z " />
<glyph glyph-name="quoteright" unicode="&#x2019;" horiz-adv-x="263" d="M129 667 C116 592 89 476 67 414 L157 414 C176 463 206 579 222 667 L129 667 Z " />
<glyph glyph-name="quotedblleft" unicode="&#x201c;" horiz-adv-x="402" d="M109 667 C98 592 69 476 48 414 L141 414 C165 482 184 575 203 667 L109 667 Z M263 667 C252 592 226 475 202 414 L298 418 C314 467 340 578 356 667 L263 667 Z " />
<glyph glyph-name="quotedblright" unicode="&#x201d;" horiz-adv-x="394" d="M109 667 C98 592 69 476 48 414 L141 414 C165 482 184 575 203 667 L109 667 Z M263 667 C252 592 226 475 202 414 L298 418 C314 467 340 578 356 667 L263 667 Z " />
</font>
</svg>
