<?xml version="1.0" encoding="UTF-8"?>
<svg xmlns="http://www.w3.org/2000/svg" xmlns:xlink="http://www.w3.org/1999/xlink" version="1.2" >
<font id="Quattro">
<font-face  font-family="Quattro" units-per-em="1000" ascent="750" descent="-250" font-style="normal" font-weight="400" font-stretch="normal" cap-height="700" x-height="700" underline-position="-75" underline-thickness="50" />
<missing-glyph  horiz-adv-x="227" d="" />
<glyph glyph-name="B" unicode="B" horiz-adv-x="400" d="M243 225 Q239 220 245 217 Q265 205 276.5 186.5 Q288 168 292 146 Q304 77 262 21 Q242 -5 211 -11 Q169 -18 144 20 Q136 31 132.5 43 Q129 55 126 68 Q124 76 123.5 83 Q123 90 122 98 Q120 111 129 120 Q139 128 148 122 Q158 115 153 104 Q152 103 152 100 Q154 86 157 73.5 Q160 61 166 49 Q171 38 185 29 Q205 18 225 35 Q236 45 244 59 Q270 108 251 159 Q243 179 222 185 L216 188 Q203 193 197.5 202 Q192 211 192 221.5 Q192 232 195.5 243.5 Q199 255 204 266 Q212 284 220 302 Q228 320 236 338 Q253 373 264.5 408.5 Q276 444 282 482 Q287 510 285 537.5 Q283 565 272 592 Q262 618 244 632 Q222 649 201.5 638.5 Q181 628 168 608 Q130 550 116 481 Q108 443 103.5 405 Q99 367 95 329 Q90 281 90 234.5 Q90 188 91 140 Q92 105 94.5 71 Q97 37 101 2 Q105 -36 109 -74.5 Q113 -113 111 -153 Q111 -165 108 -177 Q105 -188 99 -197 Q94 -205 85.5 -207 Q77 -209 69 -206 Q51 -199 43 -178 Q32 -151 26 -115 Q20 -79 16 -40 Q12 -1 10 38 Q8 77 5 109 Q2 147 1.5 184 Q1 221 3 259 Q4 283 4.5 307 Q5 331 7 355 Q10 398 17 449 Q24 500 40 549 Q56 598 82.5 640 Q109 682 151 708 Q186 729 225 724 Q264 719 292 695 Q337 656 351 594 Q358 563 357 532.5 Q356 502 350 471 Q342 433 329.5 398 Q317 363 301 328 Q275 273 243 225 Z " />
<glyph glyph-name="C" unicode="C" horiz-adv-x="428" d="M56 -91 Q27 -31 17.5 34.5 Q8 100 0 169 Q-5 214 -5 271.5 Q-5 329 0 389 Q3 429 8.5 467.5 Q14 506 25 544 Q35 578 48.5 609.5 Q62 641 82 670 Q96 690 114 705.5 Q132 721 155 729 Q222 753 286 706 Q312 686 330.5 661 Q349 636 361 607 Q383 553 386 493 Q387 480 386.5 467.5 Q386 455 382 443 Q379 429 372 420 Q362 408 347.5 409 Q333 410 322 424 Q317 430 314.5 436.5 Q312 443 310 450 Q305 465 301.5 480.5 Q298 496 293 511 Q286 533 277.5 554 Q269 575 255 595 Q243 612 230 621 Q218 630 204 633 Q195 636 184 630 Q175 625 168 619 Q161 613 155 605 Q141 589 132.5 571 Q124 553 117 533 Q102 491 92.5 449 Q83 407 77 362 Q72 325 70 288.5 Q68 252 66 215 Q65 192 64.5 170 Q64 148 64 125 Q64 98 66 71 Q68 44 72 17 Q75 -6 79.5 -29 Q84 -52 92 -75 Q97 -87 103 -98.5 Q109 -110 117 -121 Q125 -132 140 -142 Q157 -153 175 -148 Q191 -144 203 -135.5 Q215 -127 226 -116 Q250 -89 262 -54 Q273 -25 281 4.5 Q289 34 296 65 Q298 72 298.5 78.5 Q299 85 300 92 Q302 105 313 105 Q324 105 329 94 Q330 92 330 87 Q330 73 327.5 59.5 Q325 46 322 32 Q316 5 309 -22 Q302 -49 293 -75 Q273 -131 229 -163 Q208 -180 181 -184 Q139 -191 103 -158 Q87 -144 76 -127 Q65 -110 56 -91 Z " />
<glyph glyph-name="D" unicode="D" horiz-adv-x="431" d="M20 -26 Q15 43 14 113 Q13 183 11 251 Q9 293 9.5 331.5 Q10 370 12 412 Q14 475 23.5 538 Q33 601 58 658 Q69 683 88 704.5 Q107 726 130 740 Q151 753 173 755 Q195 757 216.5 751 Q238 745 256.5 732.5 Q275 720 289 704 Q329 656 348.5 593.5 Q368 531 376 461 Q384 396 378.5 335 Q373 274 358.5 218.5 Q344 163 323 114 Q302 65 280 23 Q251 -31 216.5 -81.5 Q182 -132 152 -173 Q147 -182 138 -179 Q130 -177 127.5 -170.5 Q125 -164 128 -158 Q173 -73 217 6 Q261 85 289.5 166.5 Q318 248 324 335 Q330 422 300 524 Q298 535 289.5 559 Q281 583 268 606 Q255 629 239 645 Q223 661 205 656 Q190 650 178.5 638 Q167 626 159 611.5 Q151 597 145.5 580.5 Q140 564 137 549 Q132 526 130 502 Q128 478 126 454 Q124 430 123 389 Q122 348 121.5 299.5 Q121 251 121 200 Q121 149 120.5 105.5 Q120 62 120.5 31 Q121 0 121 -9 Q123 -51 124.5 -91 Q126 -131 121 -172 Q119 -183 116.5 -194 Q114 -205 108 -215 Q94 -233 72 -223 Q56 -214 48 -196 Q42 -183 38 -170 Q34 -157 31 -143 Q26 -114 24.5 -84.5 Q23 -55 20 -26 Z " />
<glyph glyph-name="E" unicode="E" horiz-adv-x="446" d="M257 -204 Q209 -211 170 -196.5 Q131 -182 104 -154.5 Q77 -127 63.5 -89 Q50 -51 52 -10.5 Q54 30 74 69.5 Q94 109 134 140 Q91 167 62.5 215 Q34 263 20.5 320.5 Q7 378 9.5 440.5 Q12 503 29.5 559.5 Q47 616 80.5 660 Q114 704 163 726 Q216 749 262.5 740 Q309 731 341 700.5 Q373 670 387 623 Q401 576 389 524 Q386 513 380 503 Q374 493 365.5 487 Q357 481 346.5 481.5 Q336 482 324 491 Q311 502 310 523 Q309 544 309 566.5 Q309 589 304.5 608.5 Q300 628 281 634 Q232 650 195.5 624.5 Q159 599 136 550 Q113 501 104.5 438.5 Q96 376 104 318 Q112 260 136 216 Q160 172 203 161 Q217 158 221.5 144.5 Q226 131 215 120 Q212 116 208.5 114.5 Q205 113 200 111 Q169 103 148.5 81 Q128 59 118 30.5 Q108 2 109 -30 Q110 -62 122.5 -88.5 Q135 -115 159 -133.5 Q183 -152 220 -154 Q246 -155 272.5 -146.5 Q299 -138 321 -120 Q343 -102 356 -74.5 Q369 -47 368 -10 Q367 -4 367 2 Q367 8 366 14 Q365 22 371 28.5 Q377 35 386 35 Q400 35 406 23 Q410 16 411 9 Q415 -26 407 -61.5 Q399 -97 379.5 -127 Q360 -157 329.5 -178 Q299 -199 257 -204 Z " />
<glyph glyph-name="F" unicode="F" horiz-adv-x="445" d="M280 287 Q254 287 230 289 Q206 291 180 293 Q179 281 179 269 Q179 257 178 245 L175 110 Q174 68 174.5 27.5 Q175 -13 174 -55 L171 -196 Q172 -203 169 -211 Q164 -224 150 -221 Q137 -218 140 -203 Q141 -200 141 -194 Q142 -142 141.5 -90.5 Q141 -39 138 13 Q136 48 133 83.5 Q130 119 127 154 L118 268 L118 292 L100 289 Q89 287 78.5 284 Q68 281 60 273 Q55 268 49 260 Q39 250 27 251 Q18 252 10.5 259 Q3 266 1 276 Q-2 301 14 321 Q25 335 38 343.5 Q51 352 67 357 Q77 360 87 362 Q97 364 107 366 L113 366 L113 372 Q112 397 111 421.5 Q110 446 111 471 Q113 511 119.5 549.5 Q126 588 141 626 Q150 649 162 669.5 Q174 690 192 707 Q230 743 286 745 Q350 746 403 706 Q417 695 427 682.5 Q437 670 442 653 Q448 631 440 611 Q433 593 417.5 586 Q402 579 383 585 Q373 588 363.5 593.5 Q354 599 346 606 Q324 623 298 629 Q283 632 270 625 Q252 615 242 597 Q234 580 228 563 Q222 546 217 528 Q206 489 199 449.5 Q192 410 188 369 Q187 364 187.5 363.5 Q188 363 193 361 Q210 356 226 350 Q242 344 259 336 Q270 331 281 327.5 Q292 324 304 324 Q319 324 330 331 Q340 336 348 328 Q356 320 350 310 Q346 303 339 300 Q325 295 310.5 290.5 Q296 286 280 287 Z " />
<glyph glyph-name="G" unicode="G" horiz-adv-x="517" d="M372 122 Q374 130 375.5 138.5 Q377 147 379 155 Q381 164 384 173 Q379 164 370.5 149 Q362 134 351 117 Q340 100 327.5 83 Q315 66 303 52 Q288 35 271 20 Q254 5 234 -6 Q208 -20 180 -24 Q152 -28 123 -18 Q102 -11 86 4 Q70 19 58.5 38.5 Q47 58 39.5 80 Q32 102 28 124 Q21 161 20 208 Q19 255 23.5 307 Q28 359 38 412.5 Q48 466 64 515.5 Q80 565 101.5 608 Q123 651 150 681 Q172 705 199 720 Q226 735 256 740 Q286 745 316.5 739.5 Q347 734 376 716 Q438 679 456 609 Q461 592 460 576 Q459 560 451 544 Q441 526 423.5 520.5 Q406 515 387 524 Q375 529 366 537.5 Q357 546 349 556 Q340 568 330 579 Q320 590 308 599 Q292 612 275 619 Q260 625 243 618 Q228 613 215 598 Q199 580 187.5 559.5 Q176 539 166 518 Q151 486 141.5 453 Q132 420 124 386 Q115 348 109.5 309 Q104 270 99 231 Q97 208 96 186 Q95 164 97 141 Q98 122 101 103.5 Q104 85 111 67 Q116 53 126 39.5 Q136 26 152 23 Q170 18 186.5 22 Q203 26 219 35 Q234 44 247 55.5 Q260 67 271 81 Q302 118 327.5 157.5 Q353 197 375 240 Q379 248 382.5 255.5 Q386 263 391 271 Q394 278 401 281 Q409 285 417 280.5 Q425 276 427 266 Q430 249 427 233 Q423 207 419 180.5 Q415 154 412 128 Q407 83 399.5 40 Q392 -3 384 -47 Q379 -71 373.5 -94 Q368 -117 359 -140 Q352 -157 343.5 -172 Q335 -187 322 -199 Q313 -207 302.5 -213 Q292 -219 279 -221 Q237 -226 216 -189 Q194 -150 213 -106 Q219 -93 231 -85 Q239 -81 246 -77.5 Q253 -74 261 -71 Q268 -68 277 -70 Q289 -71 292 -84 Q295 -95 288 -102 Q283 -107 275 -107 Q273 -107 269 -109 Q266 -111 263 -112.5 Q260 -114 257 -116 Q249 -122 247 -131 Q242 -153 255 -169 Q266 -181 280 -176 Q289 -172 295.5 -166 Q302 -160 307 -152 Q318 -135 325 -116.5 Q332 -98 336 -78 Q340 -58 343 -38 Q346 -18 350 2 Q355 32 361 62 Q367 92 372 122 Z " />
<glyph glyph-name="H" unicode="H" horiz-adv-x="482" d="M391 731 Q398 725 403 716.5 Q408 708 408 698 Q408 681 408 665.5 Q408 650 407 634 L404 556 Q403 524 403 493 Q403 462 401 430 Q400 398 399.5 367 Q399 336 397 304 Q396 275 394.5 247 Q393 219 391 190 L388 100 Q387 73 386 29 Q385 -15 383.5 -62.5 Q382 -110 380 -154 Q378 -198 375 -225 Q373 -234 363 -236 Q361 -236 355.5 -236 Q350 -236 344.5 -234 Q339 -232 334.5 -226 Q330 -220 330 -208 Q329 -177 327 -133 Q325 -89 323.5 -43.5 Q322 2 320.5 43.5 Q319 85 319 111 Q319 130 318.5 152 Q318 174 318 195 Q318 216 317.5 234.5 Q317 253 316 267 L316 271 Q313 270 309 268 Q304 266 299 264.5 Q294 263 289 262 Q279 260 269.5 258 Q260 256 250 257 Q236 258 223 258 Q210 258 196 259 Q146 263 98 245 Q91 242 90 236 Q88 212 86 188 Q84 164 82 140 Q80 116 78.5 92 Q77 68 75 44 Q74 31 73 18.5 Q72 6 71 -7 L55 -207 Q55 -211 55.5 -214.5 Q56 -218 55 -222 Q55 -226 54 -228 L51 -237 Q49 -242 44 -244 Q39 -246 34 -244 Q22 -241 24 -227 L19 -108 L13 10 Q13 21 12.5 32.5 Q12 44 12 55 Q12 73 12.5 90.5 Q13 108 14 126 Q15 147 15.5 168 Q16 189 15 210 Q15 247 15 283.5 Q15 320 16 357 Q16 399 17 439.5 Q18 480 18 522 Q19 545 18.5 568.5 Q18 592 18 615 Q18 635 20 655 Q22 675 27 695 Q31 708 41 719 Q55 732 72 730.5 Q89 729 101 715 Q111 702 114 685 Q117 663 118 641.5 Q119 620 119 598 Q119 563 116.5 528.5 Q114 494 111 459 L99 336 L99 332 L114 335 Q158 345 210 334 Q221 332 230.5 329 Q240 326 251 324 Q262 322 272.5 320 Q283 318 294 316 L315 313 Q315 316 314 317 Q315 368 315 417.5 Q315 467 316 518 Q317 547 317 575 Q317 603 318 631 Q319 650 321 668.5 Q323 687 325 706 Q326 716 331 725 Q340 742 359.5 742.5 Q379 743 391 731 Z " />
<glyph glyph-name="I" unicode="I" horiz-adv-x="410" d="M410 667 Q415 653 404 645 Q400 642 392 638 Q383 634 374 630.5 Q365 627 356 624 Q346 620 336 619.5 Q326 619 315 620 L276 623 L276 617 Q276 592 276 567.5 Q276 543 275 518 Q274 499 273 480.5 Q272 462 270 443 L261 341 L255 251 L249 170 Q247 153 245 135.5 Q243 118 241 101 L217 -85 Q216 -89 216 -92.5 Q216 -96 215 -100 Q215 -103 218 -104 Q233 -109 248 -113.5 Q263 -118 278 -123 Q289 -126 302 -121 Q308 -119 314 -117 Q320 -115 326 -113 Q341 -110 347 -121 Q355 -133 347 -144 Q344 -148 336 -154 Q333 -156 329.5 -157.5 Q326 -159 323 -161 Q318 -164 314 -167 Q310 -170 305 -172 Q300 -174 294.5 -176 Q289 -178 284 -180 Q267 -186 249 -187 Q231 -188 213 -186 L212 -186 Q196 -184 183 -182 Q170 -180 165 -178 L132 -172 Q96 -166 70 -190 Q65 -195 59.5 -198.5 Q54 -202 47 -204 Q32 -207 19.5 -198.5 Q7 -190 4 -174 Q2 -160 6 -147 Q10 -134 18 -123 Q29 -109 42.5 -100.5 Q56 -92 72 -86 Q122 -67 177 -86 Q179 -86 181 -87 L181 -83 L178 -14 L175 58 Q173 87 172 116.5 Q171 146 170 175 L167 322 Q166 373 165 422.5 Q164 472 163 523 Q163 552 163.5 581.5 Q164 611 165 640 L165 642 Q160 642 155 642 Q150 642 145 641 Q127 638 116 627 L101 612 Q89 599 73.5 599 Q58 599 47 612 Q40 621 38 634 Q32 671 58 701 Q109 761 191 747 Q208 744 224 739 Q240 734 254 724 Q260 719 266 715 Q272 711 279 707 Q289 701 298.5 695 Q308 689 319 683 Q326 679 333 677.5 Q340 676 348 675 Q352 675 360 677 Q367 679 373.5 680.5 Q380 682 387 684 Q402 687 409 673 L410 667 Z " />
<glyph glyph-name="J" unicode="J" horiz-adv-x="400" d="M101 58 Q99 64 96.5 68 Q94 72 90 77 Q77 66 72 54 Q54 12 50.5 -31.5 Q47 -75 63 -120 Q66 -128 70.5 -135.5 Q75 -143 81 -149 Q88 -157 92 -157 Q96 -157 103 -149 Q114 -138 121.5 -125.5 Q129 -113 136 -100 Q153 -69 162.5 -36.5 Q172 -4 179 29 Q188 74 192 118.5 Q196 163 198 208 Q200 259 199.5 309 Q199 359 198 410 Q197 456 196.5 501.5 Q196 547 195 594 Q195 614 196.5 633 Q198 652 202 672 L202 676 Q195 675 188.5 674.5 Q182 674 175 672 Q134 663 101 634 Q97 630 89 624 Q81 619 71 619.5 Q61 620 54 627 Q42 640 44 659 Q45 681 60 700 Q75 720 95 732 Q115 744 139 752 Q160 757 181 756.5 Q202 756 224 752 Q240 750 254.5 745 Q269 740 284 736 L326 724 Q349 719 369 723 Q380 725 391.5 727 Q403 729 414 731 Q424 733 431 723 Q438 714 431 706 Q425 698 413 695 Q400 693 387.5 690 Q375 687 361 684 Q345 681 329.5 679.5 Q314 678 298 677 L295 677 L295 674 Q297 663 298.5 651.5 Q300 640 301 629 Q303 592 305.5 555 Q308 518 310 482 Q314 410 314 340 Q314 270 313 198 Q312 166 310.5 133.5 Q309 101 305 69 Q300 28 291 -11 Q282 -50 266 -88 Q255 -117 239.5 -142 Q224 -167 201 -189 Q188 -202 173.5 -212.5 Q159 -223 140 -228 Q117 -234 96.5 -232 Q76 -230 56 -216 Q32 -198 20 -168.5 Q8 -139 3.5 -106 Q-1 -73 2 -39.5 Q5 -6 11 19 Q16 40 26 59.5 Q36 79 50 97 Q59 108 68 113 Q81 122 94 120 Q107 118 117 107 Q124 99 128.5 90.5 Q133 82 134 71 Q135 64 132 54 Q130 49 125 46 Q120 43 114 44 Q101 46 98 57 L101 58 Z " />
<glyph glyph-name="K" unicode="K" horiz-adv-x="442" d="M532 -226 Q543 -235 538 -244 Q531 -257 518 -252 Q505 -248 497 -243 Q451 -211 410.5 -176 Q370 -141 332 -96 Q300 -59 268.5 -23 Q237 13 202 47 Q185 64 167.5 77.5 Q150 91 129 102 Q128 95 128 89 Q128 83 127 77 Q125 43 122.5 9.5 Q120 -24 117 -58 Q115 -75 113 -92 Q111 -109 109 -126 Q106 -148 105.5 -169.5 Q105 -191 103 -213 L100 -246 Q100 -254 97 -261 Q92 -274 78 -271 Q65 -268 67 -253 Q68 -245 68 -238 Q68 -231 68 -223 Q68 -209 68.5 -194.5 Q69 -180 68 -166 Q67 -151 66.5 -136 Q66 -121 64 -106 Q58 -55 55 -4 Q54 16 53 36.5 Q52 57 50 77 Q44 76 40 79 Q36 81 32 87 Q28 93 26 106 Q24 118 27 130.5 Q30 143 35 154 Q40 166 47 178 Q49 247 48 316.5 Q47 386 47 455 Q47 477 46.5 518.5 Q46 560 47.5 604 Q49 648 55 688 Q61 728 73 747 Q80 758 91 762 Q102 766 113 761 Q122 757 126.5 749 Q131 741 134 731 Q137 721 138 710.5 Q139 700 140 691 Q144 649 145 607 Q146 565 144 523 Q143 472 140.5 422.5 Q138 373 136 321 Q172 378 208 433.5 Q244 489 278 547 Q295 576 310 606.5 Q325 637 351 663 Q363 675 375 676 Q393 678 405 665.5 Q417 653 414 634 Q412 622 408 610.5 Q404 599 399 588 Q361 501 315 420 Q282 361 246 305 Q210 249 172 194 Q163 181 153 168.5 Q143 156 132 142 Q161 132 184 114 Q207 96 229 76 Q277 31 319 -19 Q361 -69 411 -121 Q461 -172 521 -217 Q529 -223 532 -226 Z " />
<glyph glyph-name="L" unicode="L" horiz-adv-x="295" d="M1 181 Q0 192 2 227 Q4 262 8 310 Q12 358 18 414 Q24 470 29.5 523 Q35 576 40.5 621 Q46 666 50 693 Q53 713 69 727.5 Q85 742 108 735 Q136 728 138 697 Q139 674 138 652 Q135 601 130 537.5 Q125 474 119.5 406 Q114 338 109.5 269 Q105 200 104 136.5 Q103 73 106.5 18.5 Q110 -36 121 -73 Q127 -95 146 -109 Q164 -123 189 -117 Q214 -111 240.5 -95.5 Q267 -80 291.5 -61.5 Q316 -43 334 -31 Q343 -25 352 -28 Q362 -31 364 -41 Q365 -50 357 -57 Q323 -83 288 -110.5 Q253 -138 208 -160 Q179 -174 150 -173.5 Q121 -173 95 -154 Q62 -129 43 -88.5 Q24 -48 15 -1.5 Q6 45 3.5 93 Q1 141 1 181 Z " />
<glyph glyph-name="M" unicode="M" horiz-adv-x="539" d="M420 328 Q416 322 410.5 313.5 Q405 305 399.5 295.5 Q394 286 389 278 Q384 270 382 266 Q380 262 371 244.5 Q362 227 352.5 207 Q343 187 334.5 170.5 Q326 154 324 151 Q320 145 317 142 Q309 134 298.5 136.5 Q288 139 284 150 Q279 165 278 192 Q277 219 275 254 Q274 316 269 378 Q267 400 266 421.5 Q265 443 263 465 Q260 499 254.5 532.5 Q249 566 238 598 Q236 606 232.5 613 Q229 620 225 628 Q224 631 220 635 Q210 647 197 639 Q173 625 160 596 Q152 578 147 559.5 Q142 541 138 522 Q131 489 129.5 456 Q128 423 130 390 Q132 344 138 299 Q144 254 152 208 Q163 145 176.5 84 Q190 23 204 -39 Q210 -66 215 -93 Q220 -120 223 -147 Q224 -156 224 -165 Q224 -174 222 -183 Q220 -193 216 -200 Q209 -211 198 -214.5 Q187 -218 175 -213 Q162 -207 152 -191 Q144 -181 139.5 -170 Q135 -159 130 -148 Q116 -112 106 -75 Q96 -38 86 0 Q74 47 63.5 93 Q53 139 45 187 Q27 290 31 390 Q33 432 39 473 Q45 514 58 554 Q79 623 131 670 Q155 693 185 697 Q234 704 261 664 Q271 650 277 634.5 Q283 619 288 602 Q295 575 299 547.5 Q303 520 305 492 Q309 444 310.5 396 Q312 348 313 300 Q313 274 313.5 248.5 Q314 223 315 197 Q321 218 331.5 241.5 Q342 265 354 286.5 Q366 308 377 324.5 Q388 341 395 349 Q405 360 418.5 368 Q432 376 449 365 Q458 359 463 349.5 Q468 340 470 329 Q472 318 472.5 306.5 Q473 295 473 285 L473 195 Q473 190 473 182 Q473 174 471.5 165 Q470 156 466.5 149 Q463 142 456 140 Q440 136 434 148 Q428 160 427 176 Q426 199 426 219 Q426 239 425 261 Q424 278 423 294.5 Q422 311 420 328 Z " />
<glyph glyph-name="N" unicode="N" horiz-adv-x="333" d="M167 625 Q164 630 159 637 Q157 633 154 630 Q151 627 149 624 Q137 605 130 585 Q123 565 118 544 Q100 458 94 370 Q89 302 89 235 Q89 168 91 100 Q92 67 94 34 Q96 1 99 -32 Q101 -48 102 -64 Q103 -80 104 -96 Q106 -106 106.5 -115 Q107 -124 108 -133 Q109 -141 109 -149 Q109 -157 106 -165 Q101 -179 88.5 -183.5 Q76 -188 62 -180 Q54 -175 49 -167 Q44 -159 41 -150 Q35 -136 32.5 -121 Q30 -106 28 -91 Q24 -57 20.5 -23.5 Q17 10 13 45 L1 189 Q-1 231 -1.5 273 Q-2 315 0 357 Q1 384 3 411 Q5 438 7 464 Q14 552 51 634 Q59 649 67.5 663 Q76 677 89 688 Q101 699 114 705.5 Q127 712 143 714 Q184 717 212 684 Q223 671 230.5 656.5 Q238 642 245 627 Q255 602 260.5 576.5 Q266 551 270 525 Q278 478 280 432 Q282 386 282 339 Q283 304 280 270.5 Q277 237 275 203 Q273 168 271.5 133.5 Q270 99 268 64 Q266 50 268 37 Q268 22 254 20 Q248 19 243 22.5 Q238 26 237 33 Q234 51 234 70 Q233 108 233.5 146.5 Q234 185 233 223 Q231 260 230 296.5 Q229 333 224 370 Q221 397 217 424 Q213 451 208 478 Q201 526 187 575 Q180 603 168 625 L167 625 Z " />
<glyph glyph-name="O" unicode="O" horiz-adv-x="471" d="M113 -189 Q69 -152 45.5 -95.5 Q22 -39 14 28 Q6 95 10.5 167 Q15 239 26.5 307 Q38 375 54 434 Q70 493 85 534 Q89 547 99 554.5 Q109 562 121 563 Q135 564 150 553.5 Q165 543 167 527 Q169 514 167.5 502.5 Q166 491 163 478 Q157 452 146.5 416 Q136 380 125 337.5 Q114 295 105.5 246 Q97 197 94.5 145 Q92 93 97.5 38 Q103 -17 121 -72 Q124 -81 131 -94.5 Q138 -108 147.5 -119 Q157 -130 170 -136 Q183 -142 198 -136 Q220 -127 239 -105.5 Q258 -84 273.5 -56 Q289 -28 301 2 Q313 32 322 57 Q339 105 349.5 158 Q360 211 366 269 Q373 335 367.5 404.5 Q362 474 340 540 Q334 558 323.5 582.5 Q313 607 298 630 Q283 653 263.5 669.5 Q244 686 222 688 Q176 692 142.5 678 Q109 664 85 639 Q61 614 47 581.5 Q33 549 26.5 516.5 Q20 484 20 455 Q20 426 26 408 Q28 400 24.5 392 Q21 384 15 382 Q6 378 0.5 389 Q-5 400 -7 410 Q-10 422 -12 448 Q-14 474 -9 507.5 Q-4 541 10.5 580 Q25 619 57 657 Q76 681 102.5 695.5 Q129 710 155 717 Q181 724 204.5 724 Q228 724 243 720 Q283 708 311.5 679.5 Q340 651 359.5 612 Q379 573 390.5 527 Q402 481 407.5 434.5 Q413 388 413.5 344 Q414 300 412 265 Q407 183 391.5 99 Q376 15 339 -63 Q330 -83 319 -103.5 Q308 -124 294 -142.5 Q280 -161 262.5 -177 Q245 -193 223 -203 Q166 -229 113 -189 Z " />
<glyph glyph-name="P" unicode="P" horiz-adv-x="352" d="M330 665 Q339 631 337 599 Q334 495 279 403 Q259 369 234 339.5 Q209 310 179 285 Q160 269 139 257.5 Q118 246 96 235 Q92 232 92 228 L89 144 L86 -39 Q85 -68 85 -97.5 Q85 -127 84 -156 Q84 -173 83 -190.5 Q82 -208 78 -225 Q75 -236 69 -245 Q61 -256 49.5 -257 Q38 -258 28 -250 Q15 -239 13 -219 L10 -171 Q8 -127 6 -84 Q4 -41 3 3 Q0 129 0 255 Q0 296 1.5 336 Q3 376 7 417 Q11 462 18 505.5 Q25 549 40 591 Q51 620 63.5 647 Q76 674 93 699 Q110 723 132 739.5 Q154 756 183 762 Q236 773 277.5 745.5 Q319 718 330 665 Z M98 331 Q95 293 95 272 Q112 282 131 293 Q150 304 166 318 Q189 337 207 359 Q225 381 240 407 Q250 424 258.5 441 Q267 458 273 476 Q284 507 287.5 539 Q291 571 289 603 Q287 636 273 664 Q265 678 251 687 Q237 696 221 693 Q196 688 180 671 Q166 657 157 640 Q148 623 142 604 Q126 557 117.5 509.5 Q109 462 104 413 Q102 390 101 372 Q100 354 98 331 Z " />
<glyph glyph-name="Q" unicode="Q" horiz-adv-x="483" d="M0 216 Q0 224 -0.5 232 Q-1 240 -1 250 Q1 335 14 417 Q27 499 50 580 Q57 603 65.5 624.5 Q74 646 85 666 Q92 677 100.5 687 Q109 697 120 704 Q143 718 170 716.5 Q197 715 220 698 Q259 667 265 621 Q269 588 253 560 Q248 552 240.5 551 Q233 550 226 556 Q215 567 206 579 Q201 587 195.5 594.5 Q190 602 185 610 Q176 622 168 627 Q163 630 160 627 Q157 624 154 621 Q151 618 149 614 Q142 603 138 590.5 Q134 578 130 565 Q119 524 111 483 Q103 442 98 400 Q95 371 92.5 341.5 Q90 312 88 283 Q85 226 88 169.5 Q91 113 102 56 Q107 34 112.5 12.5 Q118 -9 129 -29 Q139 -48 151 -62 Q180 -91 212 -66 Q225 -56 235 -44.5 Q245 -33 253 -19 Q260 -7 266 5 Q272 17 279 29 Q280 33 278 36 Q263 55 248.5 74 Q234 93 220 113 Q182 172 168 243 Q163 267 163 291.5 Q163 316 166 340 Q170 365 175.5 389 Q181 413 191 436 Q196 448 201.5 459.5 Q207 471 215 482 Q232 505 257 514 Q274 520 290 516.5 Q306 513 320 503 Q331 495 339 484 Q347 473 354 461 Q365 441 371 420.5 Q377 400 382 378 Q390 340 392.5 302 Q395 264 393 226 Q391 172 381.5 120.5 Q372 69 353 18 Q349 8 354 -1 Q371 -32 376 -68 L385 -134 Q386 -142 385 -149 Q384 -159 371 -161 Q360 -163 355 -153 Q353 -149 351 -141 Q346 -118 342 -95 Q338 -72 331 -49 Q329 -43 328 -39 Q327 -41 325 -43 Q303 -85 272 -115 Q258 -128 242 -137 Q226 -146 207 -151 Q155 -162 110 -128 Q90 -113 75 -93.5 Q60 -74 49 -51 Q35 -22 26 7.5 Q17 37 12 68 Q6 105 3.5 141.5 Q1 178 0 216 Z M265 107 Q273 97 280 87.5 Q287 78 294 75 Q298 87 301 99 Q325 180 331 264 Q333 291 333.5 318 Q334 345 330 372 Q328 389 324 405 Q320 421 313 437 Q305 457 290 469 Q275 481 258 473 Q252 470 247 465 Q232 451 222 428 Q213 407 207.5 385 Q202 363 199 340 Q195 313 195.5 286 Q196 259 202 232 Q210 197 226 166 Q242 135 265 107 Z " />
<glyph glyph-name="R" unicode="R" horiz-adv-x="327" d="M211 357 Q207 351 196 335.5 Q185 320 172.5 303.5 Q160 287 149 272.5 Q138 258 135 254 Q158 243 169 225 Q180 207 185 184 Q190 160 193.5 136 Q197 112 202 88 Q205 72 208 56.5 Q211 41 215 25 Q217 19 220 13 Q223 7 226 2 Q228 -2 236 -8 Q241 -13 247 -9 Q255 -4 263 -11 Q271 -17 268 -26 Q265 -43 246 -43 Q241 -43 233 -41 Q198 -29 184 6 Q179 18 177 30.5 Q175 43 173 56 Q168 81 164.5 106 Q161 131 156 156 Q154 166 151 175 Q148 184 144 193 Q140 203 129 214 Q123 219 113 223 Q108 225 103.5 226.5 Q99 228 94 233 L94 208 L97 139 Q98 120 99 101.5 Q100 83 101 64 Q102 53 102 43 Q102 33 103 22 Q104 5 105 -11 Q106 -27 107 -44 L110 -110 Q111 -127 111.5 -143 Q112 -159 112 -176 Q112 -192 107 -202 Q101 -215 88.5 -218.5 Q76 -222 65 -214 Q49 -204 46 -184 Q44 -172 42.5 -160 Q41 -148 39 -136 Q33 -83 27 -31 Q21 21 16 74 Q9 137 4.5 199 Q0 261 -1 324 Q-1 356 -1 387 Q-1 418 1 450 Q3 498 12.5 543 Q22 588 42 632 Q54 658 73.5 683.5 Q93 709 118.5 727 Q144 745 173.5 752 Q203 759 234 747 Q266 736 283 707.5 Q300 679 305 648 Q308 624 305 600.5 Q302 577 297 554 Q273 448 211 357 Z M93 380 Q91 350 91.5 320 Q92 290 94 259 Q98 264 101 268.5 Q104 273 107 278 Q124 302 141 325.5 Q158 349 175 373 Q203 415 222 459 Q241 503 247 554 Q249 574 248.5 594.5 Q248 615 243 635 Q238 652 227 665 Q220 673 208.5 677 Q197 681 184 674 Q171 668 162 656 Q134 617 120 570 Q113 547 108.5 524 Q104 501 101 478 Q98 453 95.5 428.5 Q93 404 91 379 L93 380 Z " />
<glyph glyph-name="S" unicode="S" horiz-adv-x="412" d="M267 424 Q264 461 265.5 497 Q267 533 265 571 Q263 596 253 619 Q247 632 235 641 Q220 653 205 640 Q194 629 185 617 Q171 599 160.5 579 Q150 559 140 539 Q125 507 115.5 472.5 Q106 438 98 403 Q93 381 90 359.5 Q87 338 86 316 Q85 298 85.5 280 Q86 262 87 244 Q87 215 95 185 Q109 133 144 95 Q157 81 170 67 Q183 53 197 39 Q211 24 223 8 Q235 -8 243 -27 Q254 -49 260.5 -71.5 Q267 -94 266 -119 Q265 -136 262.5 -151.5 Q260 -167 252 -182 Q238 -210 212.5 -223 Q187 -236 156 -231 Q113 -225 87 -190 Q52 -142 59 -86 Q62 -66 78 -50 Q86 -41 99.5 -38.5 Q113 -36 124 -42 Q152 -56 161 -86 Q162 -89 162 -95 Q162 -109 148 -111 Q134 -113 131 -99 Q129 -92 124 -87.5 Q119 -83 114 -79 Q109 -76 103.5 -78 Q98 -80 95 -85 Q89 -94 89 -104 Q91 -127 99.5 -146.5 Q108 -166 127 -180 Q151 -198 180 -193 Q201 -190 213 -167 Q221 -151 222.5 -135 Q224 -119 222 -102 Q217 -70 201 -43.5 Q185 -17 162 6 Q145 23 128.5 39 Q112 55 96 72 Q71 98 51.5 127.5 Q32 157 20 192 Q9 223 4.5 254.5 Q0 286 -1 318 Q-3 380 6.5 439.5 Q16 499 34 559 Q57 636 105 694 Q119 711 134.5 724.5 Q150 738 170 746 Q229 771 288 738 Q314 724 330.5 703.5 Q347 683 358 657 Q366 637 370 615.5 Q374 594 376 572 Q380 514 367 457 Q363 440 357 423.5 Q351 407 340 393 Q331 381 318 375 Q304 369 292 373.5 Q280 378 274 392 Q270 400 269 408 Q268 416 267 424 Z " />
<glyph glyph-name="T" unicode="T" horiz-adv-x="465" d="M161 624 Q161 627 158 624 Q145 614 135 599 Q128 587 121.5 575 Q115 563 109 551 Q103 540 96.5 530 Q90 520 82 512 Q74 505 66 500.5 Q58 496 47 496 Q31 496 20 504 Q9 512 1 526 Q-12 552 -8 578 Q4 680 92 726 Q115 738 138.5 744.5 Q162 751 188 750 Q219 749 246.5 739 Q274 729 300 712 Q319 699 337.5 686 Q356 673 375 659 Q379 656 387 652 Q398 645 414 647 Q430 649 439 640 Q449 632 449 620.5 Q449 609 440 601 Q422 582 393.5 580 Q365 578 342 583 Q320 588 297.5 595.5 Q275 603 255 614 Q256 578 256 541.5 Q256 505 256 463 Q256 455 254 422.5 Q252 390 249.5 344 Q247 298 243.5 244 Q240 190 237 140 Q234 90 231.5 50 Q229 10 228 -8 Q226 -26 223.5 -44 Q221 -62 219 -80 Q216 -112 214 -144.5 Q212 -177 211 -209 Q211 -222 197 -224 Q183 -226 180 -212 Q179 -208 179 -204 Q179 -200 178 -195 Q178 -169 178 -142.5 Q178 -116 177 -90 Q176 -59 172.5 -28.5 Q169 2 168 33 Q166 78 164.5 121.5 Q163 165 161 210 Q159 277 159.5 343.5 Q160 410 161 477 Q162 514 161.5 550.5 Q161 587 161 624 Z " />
<glyph glyph-name="U" unicode="U" horiz-adv-x="433" d="M161 -87 Q164 -96 169 -105 Q174 -114 179 -122 Q187 -114 192 -106 Q197 -98 202 -89 Q211 -69 217.5 -49 Q224 -29 229 -9 Q241 36 250 80 Q259 124 267 169 Q273 205 278.5 241 Q284 277 289 314 Q295 359 299 404 Q303 449 306 494 Q308 529 311.5 563 Q315 597 318 632 Q320 648 321.5 663.5 Q323 679 325 695 Q326 700 326 705.5 Q326 711 326 716 Q326 726 335 730 Q346 734 352 726 Q356 722 356 718 Q357 712 358 706 Q359 700 359 694 L350 556 Q348 514 345 472 Q342 430 340 388 Q338 360 337.5 332.5 Q337 305 335 277 Q330 175 332 73 Q333 34 335 -5 Q337 -44 342 -82 L345 -100 L357 -64 L369 -25 L372 -16 Q379 -3 392 -6 Q406 -11 403 -25 Q398 -49 391 -73 Q384 -97 375 -120 Q373 -126 370.5 -132.5 Q368 -139 364 -144 Q356 -157 342.5 -157 Q329 -157 319 -145 Q317 -143 315 -139 Q309 -128 305.5 -117 Q302 -106 300 -95 Q295 -69 293 -44 Q291 -19 290 7 Q290 13 289 16 L286 -2 Q274 -70 250 -134 Q245 -145 240 -155.5 Q235 -166 227 -175 Q205 -201 176.5 -204.5 Q148 -208 120 -188 Q102 -174 88.5 -156.5 Q75 -139 64 -119 Q53 -99 46 -78 Q39 -57 34 -35 Q20 17 13.5 69 Q7 121 4 175 Q2 212 1.5 248.5 Q1 285 2 322 Q3 363 5.5 402.5 Q8 442 13 482 Q16 513 22 545 Q25 564 36 583 Q44 596 57 603 Q71 610 84 606 Q97 602 105 589 Q110 580 111.5 570.5 Q113 561 114 551 Q116 530 115.5 509 Q115 488 115 467 Q114 417 113 368 Q112 319 112 269 Q112 206 117.5 144.5 Q123 83 134 21 Q143 -35 161 -87 Z " />
<glyph glyph-name="V" unicode="V" horiz-adv-x="342" d="M169 33 Q170 80 176.5 127 Q183 174 189 221 L210 386 Q217 439 223.5 491 Q230 543 238 595 Q241 619 245 642.5 Q249 666 254 689 Q255 694 257 699.5 Q259 705 261 710 Q266 723 280 721 Q293 719 295 705 L295 699 Q291 670 287 640.5 Q283 611 280 582 Q273 522 266.5 462 Q260 402 253 341 Q250 311 247.5 280.5 Q245 250 242 220 Q240 191 237 163 Q234 135 232 106 L226 34 L220 -41 Q218 -56 217 -71 Q216 -86 214 -100 Q213 -109 211.5 -118 Q210 -127 205 -135 Q193 -158 169.5 -164.5 Q146 -171 124 -158 Q110 -150 101 -138.5 Q92 -127 84 -114 Q70 -91 60.5 -66.5 Q51 -42 44 -16 Q36 15 30.5 46 Q25 77 21 109 Q14 161 9 212.5 Q4 264 1 317 Q-1 352 -2 387.5 Q-3 423 -4 458 Q-6 519 -1 581 Q0 593 2 604.5 Q4 616 10 627 Q15 637 23.5 643 Q32 649 44 650 Q64 651 78 634 Q86 624 91 608 Q96 589 99.5 570 Q103 551 105 531 L117 414 Q125 340 133.5 267 Q142 194 154 120 L169 33 L169 33 Z " />
<glyph glyph-name="W" unicode="W" horiz-adv-x="500" d="M148 -107 Q153 -105 157 -93.5 Q161 -82 163 -76 Q184 -17 202 42 Q220 101 234 162 Q242 198 249.5 234 Q257 270 265 306 Q267 314 269 318 Q275 328 287 327 Q300 325 303 314 Q306 302 306 290 Q307 266 307 242 Q307 218 309 194 Q311 172 313 150.5 Q315 129 321 108 Q323 102 325 96.5 Q327 91 329 86 Q330 81 334 85 Q342 91 345 95 Q368 125 380 159 Q392 193 399 229 Q406 265 410.5 301 Q415 337 419 373 L422 418 Q422 422 420 430 Q417 444 426 450 Q437 457 447 447 Q455 439 457 426 Q458 419 458.5 412.5 Q459 406 458 399 Q456 363 454 327 Q452 291 447 256 Q442 210 426 167.5 Q410 125 387 85 Q374 64 357 50 Q347 41 337 39 Q316 35 300 52 Q291 61 286 72.5 Q281 84 278 95 Q275 106 273.5 116 Q272 126 271 131 L265 101 Q260 72 254 44 Q248 16 243 -13 Q236 -51 225.5 -87.5 Q215 -124 201 -160 Q191 -186 173 -203 Q155 -220 132.5 -222 Q110 -224 89 -211 Q77 -203 67.5 -193 Q58 -183 50 -172 Q36 -152 28 -129.5 Q20 -107 15 -84 Q8 -55 5 -25 Q2 5 0 35 Q-3 84 -2.5 132.5 Q-2 181 -1 230 Q0 271 2.5 311 Q5 351 9 391 L21 499 Q26 535 30.5 571 Q35 607 40 643 Q46 684 62 718 Q64 722 66 725.5 Q68 729 70 733 Q83 750 103 749 Q127 746 134 725 Q138 710 140 695 Q142 676 141.5 657.5 Q141 639 139 620 Q136 588 133 555.5 Q130 523 128 491 Q126 463 124 435.5 Q122 408 120 380 Q118 362 117.5 344 Q117 326 116 308 Q115 276 114 245 Q113 214 114 182 Q115 151 117 120.5 Q119 90 121 59 Q123 22 128.5 -14 Q134 -50 142 -86 L148 -107 L148 -107 Z " />
<glyph glyph-name="X" unicode="X" horiz-adv-x="456" d="M277 36 Q265 55 257.5 67 Q250 79 237 93 L213 54 Q196 25 175.5 -0.5 Q155 -26 133 -51 Q122 -63 111.5 -74 Q101 -85 87 -94 Q82 -98 78 -102.5 Q74 -107 69 -112 Q63 -117 57.5 -123 Q52 -129 46 -134 Q38 -140 32 -141 Q19 -144 11 -135 Q3 -126 7 -113 Q8 -107 13 -101 L28 -77 Q33 -69 37.5 -61 Q42 -53 47 -45 Q53 -33 60 -21.5 Q67 -10 74 1 Q88 25 100 50 Q112 75 124 101 Q133 121 140 140.5 Q147 160 155 180 Q156 181 154 184 Q140 204 126 223 Q112 242 99 262 Q73 304 54.5 348 Q36 392 27 440 Q21 470 18.5 500 Q16 530 20 560 Q24 594 33 626 Q42 658 60 687 Q83 724 118 743 Q149 760 179.5 748 Q210 736 222 703 Q230 679 230 657 Q230 648 227 641 Q224 629 211 627 Q200 626 193 637 Q189 642 187.5 648 Q186 654 184 660 Q181 675 169 682 Q167 679 165.5 676 Q164 673 162 670 Q147 637 144 601 Q140 560 145 521 Q150 482 161 444 Q170 412 183 382.5 Q196 353 209 322 Q220 346 227.5 373.5 Q235 401 245 432 L284 546 L299 594 Q307 619 323 632 Q337 645 354.5 642.5 Q372 640 382 623 Q390 609 391 595 Q392 584 390.5 573 Q389 562 387 551 Q382 513 375.5 475 Q369 437 359 399 Q351 368 341 338 Q331 308 320 278 Q312 257 303.5 236.5 Q295 216 287 196 Q285 193 287 191 Q296 176 305.5 161 Q315 146 324 131 Q344 96 361 59 Q378 22 392 -16 Q397 -29 399.5 -42 Q402 -55 404 -69 Q407 -88 410.5 -106.5 Q414 -125 417 -144 Q419 -156 419.5 -168 Q420 -180 421 -192 Q421 -195 419 -201 Q416 -212 405 -215.5 Q394 -219 385 -211 Q374 -202 371 -185 L356 -128 Q350 -103 340 -80 Q330 -57 317 -34 Q307 -17 297.5 1 Q288 19 277 36 Z " />
<glyph glyph-name="Y" unicode="Y" horiz-adv-x="363" d="M133 94 Q136 80 145 69 Q150 73 154 78 Q158 83 162 88 Q198 139 210 201 Q215 223 218 244.5 Q221 266 225 288 Q227 302 229.5 316 Q232 330 235 344 Q238 362 253 369 Q267 376 280 368 Q293 360 295 343 Q297 329 296 314.5 Q295 300 294 286 Q292 260 291 235 Q290 210 289 184 Q287 142 286.5 100 Q286 58 284 16 Q282 -13 279.5 -41.5 Q277 -70 270 -99 Q261 -137 237 -167 Q223 -185 201 -189 Q184 -193 168.5 -184 Q153 -175 147 -158 Q143 -146 144 -134.5 Q145 -123 148 -112 Q150 -106 152 -100.5 Q154 -95 156 -90 Q157 -87 161 -81 Q169 -71 180 -78 Q190 -85 185 -97 Q180 -107 178 -117.5 Q176 -128 178 -139 Q180 -147 182 -148.5 Q184 -150 191 -147 Q197 -144 202 -139 Q216 -121 222 -94 Q229 -67 232 -40 Q235 -13 237 15 L237 39 Q236 37 232 31 Q223 16 211.5 3.5 Q200 -9 185 -18 Q157 -35 127 -32 Q97 -29 73 -8 Q56 6 45 23.5 Q34 41 26 61 Q18 81 13 102 Q8 123 6 145 Q2 180 0 214 Q-2 248 0 283 Q2 315 4.5 347.5 Q7 380 9 412 Q11 432 11.5 451 Q12 470 14 490 Q16 524 21 557.5 Q26 591 37 623 Q42 638 49 649 Q68 680 102 674 Q117 671 128 659.5 Q139 648 142 631 Q144 617 144 604 Q144 591 143 577 L137 502 Q135 487 133.5 472 Q132 457 130 442 Q128 425 127 409 Q126 393 125 376 L119 259 Q116 200 125 142 L134 94 L133 94 Z " />
<glyph glyph-name="Z" unicode="Z" horiz-adv-x="528" d="M84 -74 Q79 -82 73 -89.5 Q67 -97 61 -105 L64 -105 Q87 -104 109 -103.5 Q131 -103 154 -101 Q236 -97 319 -98 Q332 -98 344.5 -99 Q357 -100 370 -101 Q373 -101 379 -103 Q392 -108 389 -122 Q385 -135 372 -133 Q358 -131 343 -131 Q328 -131 314 -132 L158 -138 Q135 -139 111.5 -140 Q88 -141 65 -143 Q59 -143 53 -143.5 Q47 -144 41 -144 Q31 -144 26 -143 Q14 -140 8 -130 Q2 -120 6 -108 Q8 -103 10.5 -98 Q13 -93 15 -88 Q29 -62 45 -37.5 Q61 -13 76 12 Q110 68 143.5 123.5 Q177 179 211 236 Q230 267 248.5 297 Q267 327 286 358 Q315 406 340.5 454 Q366 502 392 551 L404 572 Q406 574 407 576 Q400 575 394 574.5 Q388 574 382 573 L298 567 Q251 563 205 557.5 Q159 552 113 544 Q98 541 82.5 539.5 Q67 538 51 536 Q44 535 34 537 Q10 543 2.5 564 Q-5 585 9 605 Q17 617 32 627 Q49 638 68 646 Q87 654 107 660 Q149 673 191.5 680.5 Q234 688 278 692 Q296 694 314 695.5 Q332 697 350 699 Q367 701 384.5 701 Q402 701 419 702 Q431 703 443 703 Q455 703 467 704 Q481 705 494.5 704 Q508 703 521 697 Q548 684 557.5 657.5 Q567 631 554 604 Q546 589 537 575.5 Q528 562 517 548 L418 422 Q381 375 346.5 327.5 Q312 280 279 230 Q257 197 235 164.5 Q213 132 191 99 Q164 57 137.5 15 Q111 -27 84 -69 L84 -74 Z " />
<glyph glyph-name="a" unicode="a" horiz-adv-x="329" d="M329 301 Q346 300 351 294 Q356 288 352 277 Q349 268 343 259 Q332 242 321 226 Q310 210 299 193 Q291 182 283.5 171 Q276 160 268 149 Q262 141 255.5 133 Q249 125 241 118 Q230 107 216.5 103.5 Q203 100 188 105 Q177 109 170 116.5 Q163 124 158 133 Q150 146 147 160 Q144 174 143 189 L143 205 Q139 197 136 189 Q133 181 129 173 Q119 151 106 130.5 Q93 110 73 93 Q56 79 39.5 79 Q23 79 9 88 Q-5 97 -15 113.5 Q-25 130 -27 150 Q-30 183 -25.5 217 Q-21 251 -9 282.5 Q3 314 22 341 Q41 368 65 388 Q73 395 82 399.5 Q91 404 102 406 Q116 408 126 404 Q140 398 145.5 384.5 Q151 371 143 357 Q134 343 123 328 Q109 308 96.5 288 Q84 268 75 246 Q67 226 61.5 206.5 Q56 187 55 166 Q55 166 55 160.5 Q55 155 55.5 148.5 Q56 142 56.5 135 Q57 128 58 124 Q74 140 90 165.5 Q106 191 120 225 Q130 249 133.5 270 Q137 291 142 314 Q144 319 144.5 325 Q145 331 147 337 Q150 350 162 358 Q175 366 189 361 Q203 356 208 341 Q213 326 213 314 Q213 299 212.5 284 Q212 269 212 254 Q212 233 212 212 Q212 191 214 170 Q214 169 216 163 Q219 165 221.5 167 Q224 169 226 171 Q240 185 257.5 207 Q275 229 291 250 Q309 275 329 301 Z " />
<glyph glyph-name="b" unicode="b" horiz-adv-x="384" d="M384 300 Q417 295 419.5 288 Q422 281 400 268 Q382 257 356.5 242.5 Q331 228 314 214 Q298 200 283.5 186 Q269 172 256 156 Q253 152 250 148.5 Q247 145 245 141 Q238 130 231 120 Q224 110 214 102 Q199 90 183 90 Q169 91 159 102 Q149 113 151 127 Q153 146 163 159 Q185 189 195 220 Q200 235 201 250 Q202 265 197 280 Q194 292 182 289 Q167 285 157 273 Q137 249 126 216 Q118 190 113 164 Q108 138 104 112 L95 52 Q94 44 90 39 Q86 34 81 29 Q70 18 54 28 L36 40 Q27 47 20 60 Q12 75 8 90.5 Q4 106 2 123 Q-3 153 -3.5 183 Q-4 213 -3 243 Q-2 280 -1 316.5 Q0 353 2 390 Q4 413 6 435 Q8 457 10 480 Q13 507 16 534 Q19 561 23 588 Q26 611 29.5 634.5 Q33 658 41 681 Q44 692 50 701 Q58 714 73 711 Q88 708 93 692 Q96 681 96 669 Q96 657 95 645 Q94 629 93 613.5 Q92 598 90 582 L84 507 Q82 488 81.5 469.5 Q81 451 80 432 Q78 409 77.5 385.5 Q77 362 76 339 L73 222 Q72 207 72 192 Q72 177 72 162 L72 156 L78 180 Q83 204 91 227 Q99 250 112 271 Q119 282 127 292.5 Q135 303 146 311 Q162 323 179 327 Q196 331 215 324 Q245 314 258 282 Q263 270 265.5 258 Q268 246 268 232 L283 244 Q296 254 309 263 Q322 272 336 279 Q343 282 353 287 Q363 292 371 295 Q373 296 379 298 Q382 299 384 300 Z " />
<glyph glyph-name="c" unicode="c" horiz-adv-x="286" d="M286 300 Q293 300 300 299 Q307 298 312.5 296 Q318 294 320 291 Q322 288 319 282 Q309 265 287 241 Q265 217 237 193 Q209 169 176.5 148 Q144 127 112 116 Q80 105 51.5 107.5 Q23 110 2 133 Q-18 154 -22 183.5 Q-26 213 -20 244 Q-14 275 1 303.5 Q16 332 34 352 Q45 363 60 371 Q75 379 91.5 381.5 Q108 384 124.5 380.5 Q141 377 155 365 Q162 359 169 346.5 Q176 334 178 320.5 Q180 307 175 296 Q170 285 154 282 Q142 280 133 288 Q131 290 127 296 Q121 303 112.5 303.5 Q104 304 96 298 Q80 285 72.5 262 Q65 239 63 216 Q62 208 64.5 193 Q67 178 79 175 Q88 173 97 174.5 Q106 176 114 179 Q126 184 138 188.5 Q150 193 161 200 Q187 214 220.5 238.5 Q254 263 286 300 Z " />
<glyph glyph-name="d" unicode="d" horiz-adv-x="292" d="M246 705 Q249 694 249 682 Q249 670 248 658 Q247 642 246 626.5 Q245 611 243 595 L237 520 Q236 511 235.5 497.5 Q235 484 234.5 469.5 Q234 455 233.5 441.5 Q233 428 233 419 Q231 396 230.5 372.5 Q230 349 229 326 L226 209 L226 176 Q226 175 226.5 166.5 Q227 158 227 144 Q227 127 225 107 Q223 87 218 69 Q213 51 204.5 39 Q196 27 182 28 Q177 29 173.5 34 Q170 39 168 45.5 Q166 52 165 58.5 Q164 65 163 70 Q155 99 152.5 129.5 Q150 160 150 197 Q139 178 130.5 165 Q122 152 114 137 Q100 113 76 97 Q52 81 23 86 Q1 91 -13 105 Q-40 132 -42 170.5 Q-44 209 -29.5 247 Q-15 285 11.5 318 Q38 351 68 368 Q91 381 113 377 Q124 375 131 367.5 Q138 360 140 351 Q143 336 132 326 L123 320 Q118 317 112.5 312.5 Q107 308 101 302 Q92 294 76 272 Q60 250 47.5 224.5 Q35 199 31 175.5 Q27 152 43 140 Q54 136 67 148.5 Q80 161 92.5 179.5 Q105 198 115 217.5 Q125 237 131 247 L151 286 L155 294 L158 369 Q161 414 165 459 Q169 504 174 552 Q176 570 178 590.5 Q180 611 183.5 632 Q187 653 192.5 672.5 Q198 692 207 707 Q215 720 230 717 Q238 715 242 711.5 Q246 708 246 705 Z " />
<glyph glyph-name="e" unicode="e" horiz-adv-x="283" d="M283 300 Q297 300 305.5 296.5 Q314 293 302 275 Q285 250 256.5 218 Q228 186 193 160.5 Q158 135 120 123 Q82 111 47 125 Q24 135 10.5 153 Q-3 171 -9 194 Q-15 216 -12.5 246.5 Q-10 277 2 305 Q14 333 34.5 354 Q55 375 84 379 Q106 382 122 369.5 Q138 357 140 335 Q141 320 137 304.5 Q133 289 125 275 Q117 261 105 250 Q93 239 78 234 Q86 205 106.5 195 Q127 185 174 208 Q209 225 233.5 250.5 Q258 276 283 300 Z M73 274 Q77 277 82 284 Q87 291 90 299 Q93 307 93.5 313 Q94 319 90 321 Q83 316 77 301 Q71 286 73 274 Z " />
<glyph glyph-name="f" unicode="f" horiz-adv-x="299" d="M299 300 Q308 298 316 293.5 Q324 289 326.5 283 Q329 277 324 271.5 Q319 266 302 263 Q264 256 227 244.5 Q190 233 158 210 Q155 208 143.5 197 Q132 186 126 171 Q117 143 121.5 112 Q126 81 137 55 Q147 32 157 9.5 Q167 -13 175 -36 Q191 -83 193 -132 Q194 -168 176 -202 Q163 -225 142 -232.5 Q121 -240 96 -229 Q79 -222 66 -210.5 Q53 -199 43 -184 Q33 -169 27 -153 Q21 -137 16 -120 Q8 -94 4 -67 Q0 -40 -3 -13 Q-16 100 -7 218 Q-2 284 3.5 352 Q9 420 30 484 Q37 509 48 535 Q53 548 62 557 Q78 575 99 567 Q118 560 121 537 Q123 526 121.5 516 Q120 506 118 495 Q111 444 104 393 Q97 342 90 291 Q86 264 83.5 237 Q81 210 79 183 Q77 157 75.5 131 Q74 105 75 79 Q77 -11 103 -95 Q107 -108 111 -120.5 Q115 -133 120 -146 Q122 -150 124 -153.5 Q126 -157 128 -162 Q133 -154 134.5 -146.5 Q136 -139 137 -131 Q140 -86 123 -41 Q116 -23 109 -5 Q102 13 95 31 Q87 54 81 78 Q75 102 77 128 Q79 146 82.5 163 Q86 180 94 196 Q101 208 112 219 Q123 230 125 232 Q166 264 214 282 Q224 286 238.5 289.5 Q253 293 267 295 Q283 298 299 300 Z " />
<glyph glyph-name="g" unicode="g" horiz-adv-x="365" d="M365 300 Q387 298 394.5 291 Q402 284 384 264 Q372 251 358.5 239 Q345 227 328.5 212.5 Q312 198 292 181 Q272 164 249 141 L242 22 Q240 -10 238 -41 Q236 -72 230 -103 Q225 -127 215.5 -149 Q206 -171 191 -191 Q164 -227 124 -240 Q96 -248 67.5 -238 Q39 -228 24 -204 Q12 -184 11.5 -162.5 Q11 -141 18.5 -119.5 Q26 -98 38.5 -78.5 Q51 -59 63 -42 Q77 -22 92.5 -4 Q108 14 124 32 Q128 37 134.5 45 Q141 53 147.5 60.5 Q154 68 158 74 Q162 80 162 80 Q164 102 166.5 124 Q169 146 171 172 Q167 168 163.5 165 Q160 162 156 159 Q136 142 112.5 129 Q89 116 59 121 Q27 126 9.5 146.5 Q-8 167 -13 196.5 Q-18 226 -12 259 Q-6 292 9 321.5 Q24 351 46.5 373 Q69 395 97 402 Q126 410 154.5 397 Q183 384 194 351 Q200 333 196 316 Q191 294 170 291 Q158 289 149 297 Q146 300 143 303.5 Q140 307 137 311 Q134 315 130.5 318 Q127 321 121 320 Q107 320 95 307 Q83 294 75.5 275 Q68 256 65 234.5 Q62 213 64.5 195 Q67 177 76 166.5 Q85 156 101 159 Q118 162 130 171.5 Q142 181 151.5 194 Q161 207 168 222 Q175 237 182 252 Q186 260 189 277.5 Q192 295 195 304 Q197 312 199 316 Q204 328 216 330 Q228 332 237 322 Q243 316 246 308 Q253 292 254 275.5 Q255 259 254 242 Q253 232 253 221.5 Q253 211 252 200 Q264 212 283 229 Q302 246 320 262 Q341 280 365 300 Z M143 -87 Q151 -62 153 -36 Q155 -10 158 16 L154 12 Q142 -1 132.5 -14.5 Q123 -28 112 -42 Q89 -72 75 -111 Q72 -120 70 -129 Q68 -138 69 -148 Q70 -161 77.5 -165 Q85 -169 96 -161 Q102 -157 104 -154 Q130 -125 143 -87 Z " />
<glyph glyph-name="h" unicode="h" horiz-adv-x="378" d="M378 300 Q395 298 402.5 293 Q410 288 405 276 Q395 253 378 219.5 Q361 186 340.5 152 Q320 118 297.5 88 Q275 58 254 43 Q234 29 214.5 33.5 Q195 38 182 59 Q169 81 169 109 Q169 135 172 159.5 Q175 184 179 209 Q182 228 185 247 Q188 266 189 289 Q174 281 162 262 Q150 243 143 227 Q126 189 120 154 Q114 119 110 78 Q109 64 108.5 49.5 Q108 35 103 15 Q100 7 91.5 3.5 Q83 0 75 4 Q61 11 50 30.5 Q39 50 30 74 Q21 98 15.5 122 Q10 146 7 161 Q1 202 -0.5 242.5 Q-2 283 0 325 Q2 374 5 422.5 Q8 471 16 519 Q20 543 25 566.5 Q30 590 35 613 Q40 632 45 650 Q50 668 55 686 Q57 694 60.5 702 Q64 710 70 717 Q85 734 105 728 Q126 722 129 700 Q131 681 128 666 Q123 636 118.5 606 Q114 576 109 546 Q103 511 98 475.5 Q93 440 90 404 Q87 366 85 327.5 Q83 289 83 251 Q83 240 83.5 229 Q84 218 84 203 Q92 226 101 250 Q110 274 127 300 Q138 316 151.5 329 Q165 342 183 350 Q216 366 240 342 Q257 325 259.5 298 Q262 271 260 249 Q258 227 255 205.5 Q252 184 250 162 Q246 130 244.5 115 Q243 100 244 95 Q274 130 304.5 182 Q335 234 367 283 Q369 285 370.5 288 Q372 291 374 294 L378 300 L378 300 Z " />
<glyph glyph-name="i" unicode="i" horiz-adv-x="206" d="M222 273 Q212 249 202 232 Q192 215 179 191 Q160 154 136 126 Q130 119 124 112.5 Q118 106 111 100 Q96 86 76.5 84.5 Q57 83 39 103 Q32 110 27 120 Q1 169 0 225 Q-1 245 -1.5 265.5 Q-2 286 0 306 Q1 317 2.5 327 Q4 337 8 347 Q11 357 17 364 Q31 381 51 380 Q71 379 82 360 Q95 340 95 314 Q95 296 94.5 278 Q94 260 94 242 L94 221 L91 155 Q91 152 91.5 149 Q92 146 92 143 L95 143 Q101 149 107 155 Q113 161 118 167 Q144 198 163.5 233 Q183 268 206 300 Q220 299 222.5 290 Q225 281 222 273 Z M49 424 Q29 424 15.5 437.5 Q2 451 2 471 Q2 491 15.5 504.5 Q29 518 49 518 Q69 518 82.5 505 Q96 492 96 472 Q96 452 82.5 438.5 Q69 425 49 425 L49 424 Z " />
<glyph glyph-name="j" unicode="j" horiz-adv-x="179" d="M34 456 Q14 456 0.5 469.5 Q-13 483 -13 503 Q-13 523 0.5 536.5 Q14 550 34 550 Q54 550 67.5 537 Q81 524 81 504 Q81 484 67.5 470.5 Q54 457 34 457 L34 456 Z M179 300 Q193 299 200 288 Q207 277 196 266 Q171 243 150.5 223.5 Q130 204 107 179 Q102 174 93 164.5 Q84 155 79 149 L78 148 L78 71 L78 29 Q78 11 78.5 -7 Q79 -25 78 -43 Q78 -69 75 -94 Q72 -116 66 -135 Q58 -157 47 -175 L41 -184 Q16 -220 -23 -233 Q-50 -241 -79 -231 Q-108 -221 -125 -197 Q-151 -159 -137 -116 Q-124 -73 -98 -35 Q-85 -15 -71 3 Q-57 21 -43 39 L-25 60 L-7 81 Q-5 83 -5 85 L-2 172 Q-2 172 -1.5 192 Q-1 212 -1 241.5 Q-1 271 -0.5 306.5 Q0 342 0 374 Q1 382 5 388 Q9 393 16 397.5 Q23 402 37 403 Q49 404 56 399 Q63 394 67 386 Q70 385 71.5 363 Q73 341 73.5 313.5 Q74 286 74 261 Q74 236 74 229 L74 200 Q97 224 116.5 243.5 Q136 263 161 285 Q162 286 165 289 Q168 292 171 294 L179 300 Z M-8 -12 Q-8 -4 -8 4.5 Q-8 13 -7 21 L-11 17 L-17 8 Q-25 -3 -32.5 -15 Q-40 -27 -48 -38 Q-70 -71 -80 -107 Q-82 -116 -83.5 -125 Q-85 -134 -83 -144 Q-81 -157 -72.5 -161 Q-64 -165 -54 -157 Q-48 -153 -46 -150 Q-22 -122 -13 -84 L-13 -81 Q-11 -71 -10 -61.5 Q-9 -52 -8 -42 Q-7 -34 -7 -27 Q-7 -20 -7 -12 L-8 -12 Z " />
<glyph glyph-name="k" unicode="k" horiz-adv-x="325" d="M325 300 Q341 298 342.5 290.5 Q344 283 342 276 L312 189 Q304 169 297 148.5 Q290 128 282 108 L279 99 Q267 68 256 49 Q245 30 234 19 Q223 8 213 4.5 Q203 1 194 2 Q173 4 154 27 Q149 35 145 44 Q141 53 137 63 Q130 83 126.5 104 Q123 125 121 146 L118 176 L106 131 Q102 118 101 99.5 Q100 81 99 67 Q99 59 98.5 52 Q98 45 97 37 L97 34 Q94 16 79 12 Q64 8 52 23 Q44 33 39.5 44 Q35 55 31 66 Q18 110 10 159.5 Q2 209 0 255 Q-1 293 0.5 330 Q2 367 5 405 Q7 427 8 449 Q9 471 11 493 Q14 534 18 565.5 Q22 597 33 637 Q35 646 37.5 655 Q40 664 43 672 Q48 684 55 692 Q69 708 88 702 Q105 698 110 678 Q113 667 113 656 Q113 640 112.5 624.5 Q112 609 111 593 L108 521 Q106 489 106.5 466.5 Q107 444 105 412 L102 328 Q101 310 101 292 Q101 274 101 256 Q101 254 102 253 L108 262 Q124 294 147 323 Q154 332 158.5 338 Q163 344 167.5 349.5 Q172 355 176.5 360.5 Q181 366 188 375 Q194 383 202 389 Q213 397 225 391 Q234 386 234 377 Q234 367 225 363 Q221 361 220 360 Q210 348 202.5 338 Q195 328 188.5 319 Q182 310 176 299.5 Q170 289 162 275 L166 261 L183 194 L201 113 Q202 110 204 102 Q206 94 208.5 85.5 Q211 77 214 71 Q217 65 220 65 Q223 65 228.5 74 Q234 83 239 94 Q245 106 252 123 Q271 168 287.5 212.5 Q304 257 325 300 Z " />
<glyph glyph-name="l" unicode="l" horiz-adv-x="236" d="M236 300 Q262 299 267 292 Q272 285 258 256 Q253 244 232.5 210 Q212 176 188 137.5 Q164 99 142 66 Q120 33 111 23 Q102 13 91 7.5 Q80 2 67 10 Q54 18 39.5 45 Q25 72 11 127 Q-15 236 -15.5 352.5 Q-16 469 2 592 Q4 605 7 622.5 Q10 640 15.5 657 Q21 674 29 689.5 Q37 705 49 714 Q63 725 79.5 722 Q96 719 105 703 Q110 695 111.5 686 Q113 677 115 668 Q118 647 116.5 626 Q115 605 111 584 Q107 560 102 524 Q97 488 93 445 Q89 402 85.5 356 Q82 310 79.5 266.5 Q77 223 76.5 185 Q76 147 78 121 Q79 107 80.5 92 Q82 77 85 63 Q88 67 102.5 87 Q117 107 138 142 Q143 151 155.5 171.5 Q168 192 182 215.5 Q196 239 208.5 259.5 Q221 280 227 288 Q229 290 230 292.5 Q231 295 233 297 L236 300 L236 300 Z " />
<glyph glyph-name="m" unicode="m" horiz-adv-x="466" d="M466 300 Q483 299 483.5 287 Q484 275 473 264 Q467 259 460.5 253 Q454 247 439 234 Q424 221 398 198.5 Q372 176 328 137 Q322 132 318 131 Q309 128 299 128 Q276 129 268 151 Q265 159 263.5 167 Q262 175 260 183 Q256 203 256.5 223.5 Q257 244 259 264 Q260 273 259.5 282 Q259 291 259 300 L256 300 L253 297 Q245 289 241 279.5 Q237 270 233 260 Q222 232 213 204.5 Q204 177 196 148 Q190 128 183.5 115.5 Q177 103 171 96 Q165 89 160.5 86.5 Q156 84 153 84 Q135 82 127 98 Q119 113 117 128.5 Q115 144 115 160 Q115 183 118.5 205 Q122 227 125 250 Q126 256 127 262 Q128 268 128 274 Q123 266 118.5 257.5 Q114 249 110 240 Q98 212 90 183.5 Q82 155 76 126 Q73 112 72 97.5 Q71 83 71 69 Q71 52 58 44 Q47 37 34 40.5 Q21 44 14 56 Q10 64 6.5 71 Q3 78 0 86 Q-8 108 -11.5 130.5 Q-15 153 -15 176 Q-16 217 -9.5 256.5 Q-3 296 10 335 Q12 342 15 348.5 Q18 355 21 362 Q28 377 43 381 Q57 385 69 378 Q81 371 84 357 Q86 349 85.5 340.5 Q85 332 84 324 L78 264 Q78 262 79 261 L82 267 Q89 278 95.5 288 Q102 298 109 308 Q117 320 132 330 Q156 347 177 329 Q186 321 190.5 312 Q195 303 198 293 Q199 291 199 289.5 Q199 288 200 285 Q202 289 202 289 Q208 306 218 321.5 Q228 337 244 349 Q250 354 257 358 Q264 362 273 363 Q300 366 319 345 Q330 333 333.5 319 Q337 305 338 291 Q340 267 337 243.5 Q334 220 329 197 Q329 195 328.5 192 Q328 189 328 187 Q340 197 353 208 Q366 219 382 232.5 Q398 246 418.5 262.5 Q439 279 466 300 Z " />
<glyph glyph-name="n" unicode="n" horiz-adv-x="374" d="M374 300 Q405 298 407 286 Q409 274 396 251 Q382 227 362.5 196.5 Q343 166 322 137 Q301 108 280 84.5 Q259 61 242 51 Q222 37 205 37 Q199 35 193 37 Q180 39 170 49 Q163 56 158 66 Q149 83 146 109.5 Q143 136 143 164.5 Q143 193 146 218.5 Q149 244 153 258 Q156 274 159.5 289.5 Q163 305 167 321 L170 342 Q152 324 141.5 300.5 Q131 277 120 249 L96 174 Q88 148 83 122 Q78 96 73 70 Q72 65 72 61 Q72 57 71 52 Q69 41 59 35.5 Q49 30 38 35 Q21 42 10 58 Q0 72 -5.5 87 Q-11 102 -14 119 Q-25 170 -17 221 Q-12 256 -3.5 289.5 Q5 323 19 355 Q21 360 24 365.5 Q27 371 30 376 Q40 392 57 391 Q77 389 82 370 Q87 352 87 335 Q88 318 87.5 302 Q87 286 87 269 L93 284 Q100 306 110 326 Q120 346 132 365 Q140 377 153 387 Q168 398 187 393.5 Q206 389 215 371 Q232 341 235 310 Q237 292 235.5 274 Q234 256 231 238 L213 136 Q213 134 211.5 127 Q210 120 209 112.5 Q208 105 207.5 99 Q207 93 209 92 Q211 89 216 90 Q216 90 220 92 Q225 94 238.5 110.5 Q252 127 269.5 150 Q287 173 305.5 199.5 Q324 226 339.5 248.5 Q355 271 364.5 285.5 Q374 300 374 300 Z " />
<glyph glyph-name="o" unicode="o" horiz-adv-x="327" d="M327 300 Q337 300 345.5 297.5 Q354 295 357.5 289.5 Q361 284 357 274 Q353 264 338 248 Q327 237 311.5 226.5 Q296 216 278 208 Q260 200 239.5 194.5 Q219 189 200 189 L192 189 Q176 155 155 130 Q124 93 83 74 Q63 64 45 64 Q7 64 -18 95 Q-32 112 -36.5 132.5 Q-41 153 -39 175 Q-37 202 -30.5 228 Q-24 254 -12 279 Q-4 295 6 308.5 Q16 322 30 333 Q42 342 55 347.5 Q68 353 84 352 Q100 352 110 342 Q121 332 121 319 Q121 306 110 296 Q99 286 89.5 275.5 Q80 265 73 251 Q57 219 51 181 Q49 170 48.5 158.5 Q48 147 50 136 Q50 134 52 130 Q55 124 61 125 Q81 130 96 143 Q110 155 123 169 Q136 183 147 198 L150 201 Q145 206 141 211 Q137 216 132 221 Q125 229 121 238 Q117 247 118 258 Q120 294 149 313 Q160 321 172.5 318 Q185 315 194 304 Q205 290 208.5 270 Q212 250 209 233 L209 229 Q214 230 218 230 Q222 230 226 231 Q246 235 275 255.5 Q304 276 327 300 Z M163 247 Q165 255 165 261.5 Q165 268 162 275 Q155 269 155 261 Q155 253 163 247 Z " />
<glyph glyph-name="p" unicode="p" horiz-adv-x="407" d="M407 300 Q409 300 418.5 298.5 Q428 297 436 294 Q444 291 446.5 286.5 Q449 282 438 275 Q428 269 413.5 260 Q399 251 383.5 242 Q368 233 353.5 224.5 Q339 216 329 209 Q294 186 264 151 Q262 149 260 145 Q254 131 248 118 Q242 105 235 92 Q222 67 198 58 Q179 52 164.5 61 Q150 70 147 90 Q143 112 156 135 Q169 158 179 182 Q189 206 198 230 Q205 248 205 271 Q205 275 203 283 Q201 289 197 286 Q189 282 185 279 Q175 272 168 263 Q161 254 155 244 Q135 214 123 182 Q111 150 103 115 Q97 88 91 61 Q85 34 78 7 Q76 1 76 -9.5 Q76 -20 77 -25 Q82 -86 90.5 -141.5 Q99 -197 110 -260 Q115 -283 99 -303 Q88 -318 70 -318.5 Q52 -319 40 -305 Q26 -288 18 -264 Q11 -246 7.5 -227.5 Q4 -209 0 -190 Q-10 -140 -14.5 -90.5 Q-19 -41 -20 10 Q-21 42 -21.5 74 Q-22 106 -21 138 Q-19 191 -11.5 242 Q-4 293 13 344 Q18 357 25 367 Q35 381 50 379 Q65 377 73 361 Q78 350 78 334 L75 277 Q73 250 72 223 Q71 196 70 169 L70 140 L79 173 Q95 228 127 278 Q135 290 144.5 301 Q154 312 166 321 Q198 346 233 335 Q246 331 255 322.5 Q264 314 271 303 Q280 287 282.5 270 Q285 253 285 235 L285 230 Q285 228 285.5 226.5 Q286 225 288 227 Q303 238 318 248.5 Q333 259 349 269 Q360 277 372 283 Q384 289 396 295 Q398 296 400 297 Q402 298 404 299 Q406 300 407 300 Z " />
<glyph glyph-name="q" unicode="q" horiz-adv-x="310" d="M252 -218 Q252 -235 252 -252 Q252 -269 252 -284 Q252 -299 251.5 -309.5 Q251 -320 249 -323 Q243 -333 232 -336 Q221 -339 209 -336 Q197 -333 187.5 -324.5 Q178 -316 176 -304 Q175 -299 174.5 -281.5 Q174 -264 174 -242 Q174 -221 174.5 -181.5 Q175 -142 175.5 -93 Q176 -44 177.5 10.5 Q179 65 182 116 Q183 126 183 135.5 Q183 145 184 155 L184 162 Q177 155 171.5 148.5 Q166 142 160 136 Q146 122 131 109.5 Q116 97 97 89 Q78 81 60 81 Q35 81 16 102 Q-14 134 -19 181 Q-27 244 0 299 Q24 349 77 364 Q96 369 114 366 Q132 363 146.5 353 Q161 343 171 327.5 Q181 312 183 292 Q185 275 178 263 Q173 252 163.5 249 Q154 246 143 254 Q137 258 131.5 262 Q126 266 120 271 Q117 274 109 278 Q106 280 104 278 Q93 270 87 258 Q73 229 67 201 Q65 190 64.5 178.5 Q64 167 67 156 Q68 152 69.5 148.5 Q71 145 73 141 Q73 139 76 139 Q81 141 85.5 142 Q90 143 95 145 Q141 167 166 209 Q171 217 175.5 225 Q180 233 185 241 Q188 245 188 250 Q190 261 190.5 271 Q191 281 193 292 Q194 296 198 304 Q204 315 216 317 Q228 319 237 310 Q243 304 248.5 296.5 Q254 289 256 281 Q261 261 263 240.5 Q265 220 264 211 L252 -218 Z " />
<glyph glyph-name="r" unicode="r" horiz-adv-x="314" d="M314 300 Q329 300 337 296.5 Q345 293 347.5 287.5 Q350 282 348.5 274.5 Q347 267 343 258 Q333 235 318.5 204 Q304 173 276 134 Q256 105 233.5 76.5 Q211 48 189 25 Q167 2 146.5 -12.5 Q126 -27 110 -26 Q92 -25 83.5 -11 Q75 3 72.5 24 Q70 45 71.5 71 Q73 97 75.5 121.5 Q78 146 80 166 Q82 186 81 196 Q79 211 60.5 229 Q42 247 20.5 272 Q-1 297 -17.5 330.5 Q-34 364 -32 410 Q-31 432 -24 456 Q-17 480 -5 502.5 Q7 525 24.5 544 Q42 563 65 575 Q76 580 85 581.5 Q94 583 105 579 Q122 574 131 561.5 Q140 549 143 532.5 Q146 516 145 498 Q144 480 141 466 Q138 450 132 431 Q126 412 118 394 Q110 376 98.5 360 Q87 344 73 334 Q87 317 95.5 308 Q104 299 115 288 Q142 261 151 232 Q160 203 159 172.5 Q158 142 151.5 111.5 Q145 81 141 52 Q181 88 213 131 Q245 174 267.5 211.5 Q290 249 302 274.5 Q314 300 314 300 Z M56 361 Q71 384 84 406.5 Q97 429 105 460 Q106 463 107 475.5 Q108 488 107.5 500.5 Q107 513 104 520.5 Q101 528 92 521 Q60 491 50.5 447.5 Q41 404 56 361 Z " />
<glyph glyph-name="s" unicode="s" horiz-adv-x="276" d="M294 274 Q292 271 287.5 265.5 Q283 260 277.5 253.5 Q272 247 266 240.5 Q260 234 256 231 L128 113 Q129 102 129.5 92 Q130 82 129 71 Q127 48 121 27.5 Q115 7 102 -12 Q86 -35 62 -39 Q26 -45 12 -8 Q5 9 6.5 25 Q8 41 15 57 Q22 75 37 88 L38 89 Q41 92 44 95 Q47 98 51 101 L33 122 Q26 130 19 138 Q12 146 6 155 Q-13 184 -16 214.5 Q-19 245 -10 277 Q-2 304 13 322 Q38 353 79 349 Q127 344 144 299 Q155 270 141 245 Q137 239 134 236 Q124 226 113 235 Q102 244 110 256 Q116 266 114 278 Q111 296 92 298 Q89 298 84.5 295 Q80 292 79 289 Q77 284 75 274 Q69 241 83 214 Q88 205 93 198 Q101 188 110 176 Q119 164 124 153 Q142 171 167.5 196 Q193 221 217 244.5 Q241 268 258.5 284 Q276 300 276 300 Q295 299 297.5 291.5 Q300 284 294 274 Z M41 20 Q52 30 56 42.5 Q60 55 63 69 Q59 65 57 64 Q47 54 42 41 Q37 28 41 20 Z " />
<glyph glyph-name="t" unicode="t" horiz-adv-x="269" d="M349 586 Q352 583 353 576 Q354 569 349 561.5 Q344 554 329.5 546 Q315 538 288 532 Q256 525 215.5 531 Q175 537 134 545 Q123 488 111 414.5 Q99 341 91 263 Q83 185 82.5 109.5 Q82 34 94 -26 Q98 -30 112 -8.5 Q126 13 144.5 48 Q163 83 184.5 125.5 Q206 168 224 205.5 Q242 243 254.5 269.5 Q267 296 269 300 Q289 300 300 293.5 Q311 287 303 267 Q296 250 283.5 219 Q271 188 254.5 150.5 Q238 113 219 73.5 Q200 34 178.5 0 Q157 -34 134.5 -57.5 Q112 -81 90 -87 Q70 -91 50 -74 Q28 -52 16.5 -16.5 Q5 19 0.5 59 Q-4 99 -4 138 Q-4 177 -3 207 Q-3 295 6.5 380 Q16 465 33 555 Q15 555 -4 553.5 Q-23 552 -40 549.5 Q-57 547 -71 544.5 Q-85 542 -93 539 Q-108 533 -120 535.5 Q-132 538 -137.5 544.5 Q-143 551 -140 560 Q-137 569 -123 575 Q-51 609 45 614 Q47 627 51 643.5 Q55 660 61 675.5 Q67 691 76 705 Q85 719 98 727 Q117 738 132.5 723.5 Q148 709 152 686 Q154 671 151.5 647.5 Q149 624 145 601 Q176 593 200.5 585 Q225 577 258 577 Q281 578 295 582 Q309 586 318.5 589.5 Q328 593 334.5 593 Q341 593 349 586 Z " />
<glyph glyph-name="u" unicode="u" horiz-adv-x="361" d="M361 300 Q382 297 383 286 Q384 275 381 267 Q365 225 344 182 Q323 139 297 102 Q276 73 251 55 Q234 43 218 45.5 Q202 48 189 60 Q182 65 177 76 Q163 100 160 124 L160 130 Q155 119 150.5 107.5 Q146 96 141 85 L123 49 Q113 30 95.5 23.5 Q78 17 56 26 Q21 41 6 77 Q-2 96 -5 115.5 Q-8 135 -9 155 Q-11 183 -10.5 210.5 Q-10 238 -6 266 Q-4 283 -0.5 300 Q3 317 11 333 Q16 342 21 350.5 Q26 359 34 366 Q50 379 67.5 375 Q85 371 93 352 Q101 334 101 317 Q101 295 101 273.5 Q101 252 100 230 Q99 204 99 179 Q99 154 101 128 Q102 122 102 116 Q102 110 103 104 Q103 100 104 97 Q106 101 108 104 Q110 107 112 111 L151 201 Q157 215 155 232 Q153 266 159 295 Q160 305 167 315 Q176 330 192.5 329.5 Q209 329 218 314 Q223 305 225.5 295 Q228 285 229 274 Q231 257 231.5 241 Q232 225 233 208 L239 121 L239 112 Q239 109 239.5 106 Q240 103 241 99 Q247 102 250 105 Q254 109 265 122 Q276 135 281 143 Q295 165 305.5 184 Q316 203 325 221 Q334 239 342 258 Q350 277 361 300 Z " />
<glyph glyph-name="v" unicode="v" horiz-adv-x="308" d="M308 300 Q333 291 327.5 277.5 Q322 264 302 250 Q293 244 279 236.5 Q265 229 249 222.5 Q233 216 216.5 211 Q200 206 185 203 Q185 203 180.5 191.5 Q176 180 170 164 Q164 148 158.5 132.5 Q153 117 150 108 Q145 94 138.5 80 Q132 66 123 53 Q109 33 87.5 32 Q66 31 50 45 Q33 60 24 76 Q16 92 11 109 Q6 126 3 143 Q-2 173 -3.5 203 Q-5 233 -4 263 Q-3 277 -2 291.5 Q-1 306 1 320 Q3 330 7 337 Q16 354 35 354 Q54 354 63 337 Q68 329 69.5 320 Q71 311 72 302 Q74 286 74.5 270.5 Q75 255 77 239 Q80 212 84 185 Q88 158 96 132 Q98 128 99.5 124.5 Q101 121 103 116 Q131 158 149 207 Q132 212 114.5 223 Q97 234 95 263 Q92 308 123 336 Q146 356 176 345 Q194 338 199 315 Q202 298 201 281.5 Q200 265 195 248 Q209 250 226.5 257 Q244 264 260.5 272.5 Q277 281 290 289 Q303 297 308 300 Z M162 245 Q168 257 170 274 Q172 291 167 300 Q165 286 161 272.5 Q157 259 162 245 Z " />
<glyph glyph-name="w" unicode="w" horiz-adv-x="474" d="M474 300 Q496 292 491.5 276.5 Q487 261 467 241 Q456 229 442 216 Q428 203 412.5 192.5 Q397 182 380.5 174.5 Q364 167 346 166 Q339 165 337.5 163.5 Q336 162 334 157 Q318 105 291 62 Q279 42 260 29 Q236 13 210 25 Q190 34 179 49.5 Q168 65 162 85 Q158 96 156.5 108 Q155 120 154 132 L154 136 Q149 125 144 115 Q139 105 134 95 Q130 86 122 76 Q109 60 93 57.5 Q77 55 60 66 Q34 84 21 115 Q12 138 7.5 162.5 Q3 187 1 212 Q-1 240 -1 267.5 Q-1 295 3 323 Q5 334 7 345 Q9 356 14 367 Q17 377 23 384 Q37 402 57 401 Q77 400 88 380 Q93 371 95 361.5 Q97 352 97 342 L100 204 Q101 184 102 163.5 Q103 143 104 123 L104 119 Q107 122 108 124 Q116 137 121.5 150.5 Q127 164 132 178 Q139 198 145 217 Q151 236 157 256 Q159 261 159.5 266.5 Q160 272 162 277 Q164 283 165.5 289 Q167 295 171 300 Q182 314 198 313 Q217 310 221 292 Q223 282 224.5 272 Q226 262 228 251 Q231 225 231 200 Q231 175 232 149 Q233 132 234.5 116 Q236 100 240 83 Q242 77 243 73 Q246 75 249 77 Q252 79 254 81 Q259 88 264 94.5 Q269 101 274 108 Q288 130 299 159 Q299 159 301 163 Q278 173 268 196 Q257 219 257.5 242 Q258 265 272 288 Q280 300 293.5 306 Q307 312 321 308 Q338 303 345.5 283.5 Q353 264 353 249 Q353 239 352 229 Q351 219 350 207 Q358 206 366 209 Q395 222 422.5 247 Q450 272 474 300 Z M325 250 Q326 261 325 266 Q324 269 322.5 269 Q321 269 320 267 Q319 265 318.5 262.5 Q318 260 318 255 Q318 250 320.5 243.5 Q323 237 324 239 L325 250 Z " />
<glyph glyph-name="x" unicode="x" horiz-adv-x="297" d="M317 290 Q319 285 318 277.5 Q317 270 314 263 Q306 244 302.5 232.5 Q299 221 291 202 Q279 172 267 142 Q255 112 242 82 Q233 59 215 44 Q193 25 164 33 Q150 37 138 44.5 Q126 52 115 62 Q106 71 98.5 81 Q91 91 84 102 Q82 104 81 106 Q74 100 67.5 94.5 Q61 89 55 83 Q41 69 29.5 53 Q18 37 9 19 Q5 11 4 7 Q-1 -6 -12 -6 Q-24 -6 -29 6 Q-32 16 -29 27 Q-21 62 3 95 Q14 110 25 124 Q36 138 50 151 Q54 153 52 158 Q40 184 28.5 209 Q17 234 8 260 Q4 272 1 284 Q-2 296 -1 309 Q0 325 9.5 336.5 Q19 348 34 350 Q52 353 66 342 Q82 330 92 309 Q99 294 105 278.5 Q111 263 118 248 Q120 242 122 238 Q125 245 128 251 Q131 257 134 263 Q146 290 149.5 318.5 Q153 347 151 376 Q150 406 132 433 Q126 442 122 452 Q118 462 118 473 Q119 495 137 513 Q143 519 151 521 Q159 523 167 523 Q200 524 218 494 Q241 454 237 410 Q236 399 236 389 Q236 379 234 368 Q229 321 212 282 Q201 258 189 234.5 Q177 211 162 188 L153 173 Q150 170 152 167 Q159 153 165.5 140 Q172 127 180 113 Q184 106 188 100 Q192 94 197 87 L203 93 Q212 104 218.5 115.5 Q225 127 231 140 Q246 172 259 205 Q272 238 285 271 Q286 273 288 277.5 Q290 282 292 287 Q295 293 297 300 Q308 298 311.5 295.5 Q315 293 317 290 Z " />
<glyph glyph-name="y" unicode="y" horiz-adv-x="390" d="M390 300 Q410 299 415 294.5 Q420 290 412 273 Q404 255 389 233.5 Q374 212 355.5 191 Q337 170 316.5 151.5 Q296 133 276 122 Q274 101 273 84 Q272 69 271.5 56 Q271 43 271 38 Q270 21 269 3.5 Q268 -14 266 -31 Q264 -49 262.5 -67 Q261 -85 258 -103 Q252 -138 236.5 -172.5 Q221 -207 196.5 -232.5 Q172 -258 138.5 -269 Q105 -280 64 -266 Q35 -256 25 -236 Q15 -216 15.5 -191 Q16 -166 25 -140 Q34 -114 45 -93 Q59 -65 77 -40.5 Q95 -16 115 7 Q128 21 141 35 Q154 49 167 63 Q170 66 170.5 72.5 Q171 79 171 88 L171 151 Q163 143 155 135 Q147 127 139 119 Q123 104 106 96 Q89 88 71.5 90 Q54 92 40 106 Q26 119 18 135 Q10 151 6 170 Q-5 232 0 296 Q2 316 4 336.5 Q6 357 12 377 Q19 397 36 404 Q47 409 58.5 404.5 Q70 400 77 389 Q82 381 84 371.5 Q86 362 87 352 Q88 339 88 326.5 Q88 314 88 301 Q89 266 91.5 230.5 Q94 195 101 166 Q103 168 105 168.5 Q107 169 109 171 Q117 179 125 186.5 Q133 194 141 202 Q151 212 159 223 Q167 234 175 245 Q179 250 179 258 Q180 269 181.5 279 Q183 289 187 299 Q195 320 214 327 Q239 335 255 316 Q263 307 267 296.5 Q271 286 273 275 Q277 258 278 240 Q279 222 279 204 L279 167 Q294 182 310.5 200 Q327 218 342 236 Q357 254 369.5 270.5 Q382 287 390 300 Z M131 -151 Q143 -115 150.5 -77 Q158 -39 160 1 Q126 -33 95 -84 Q89 -93 78.5 -115.5 Q68 -138 61 -160.5 Q54 -183 54.5 -200.5 Q55 -218 72 -218 Q85 -218 94.5 -212 Q104 -206 110.5 -196 Q117 -186 122 -174.5 Q127 -163 131 -151 Z " />
<glyph glyph-name="z" unicode="z" horiz-adv-x="274" d="M227 100 Q231 100 237.5 99.5 Q244 99 250 97 Q256 95 259.5 91 Q263 87 261 80 Q258 66 244 68 Q238 68 211 69.5 Q184 71 152 71 Q120 71 89.5 69.5 Q59 68 44 62 Q38 60 32.5 58 Q27 56 21 54 Q7 50 -3 58.5 Q-13 67 -12 81 Q-11 91 -2 103 Q11 121 35.5 154.5 Q60 188 84 223.5 Q108 259 123.5 288.5 Q139 318 134 329 Q129 339 112 333.5 Q95 328 80 318 Q72 313 66.5 309 Q61 305 53 298 Q45 291 33 279 Q21 267 1 247 Q-3 243 -9 241.5 Q-15 240 -23 245 Q-28 249 -26 257 Q-25 261 -23 265 Q-12 288 8 310 Q28 332 46 347 Q59 358 77.5 367 Q96 376 115.5 380.5 Q135 385 153 383.5 Q171 382 183 372 Q191 366 198.5 355.5 Q206 345 205.5 324.5 Q205 304 193 271 Q181 238 149 186 Q146 181 138.5 169 Q131 157 122 144 Q113 131 104.5 119.5 Q96 108 92 104 Q127 106 159.5 104.5 Q192 103 227 100 Z " />
<glyph glyph-name="space" unicode="&#x20;" horiz-adv-x="227" d="" />
<glyph glyph-name="exclam" unicode="&#x21;" horiz-adv-x="193" d="M145 640 Q148 602 148 565 Q148 516 147.5 467.5 Q147 419 146 370 Q145 328 141.5 286.5 Q138 245 133 203 Q131 192 130 181 Q129 170 124 159 Q123 156 123 153.5 Q123 151 122 149 Q119 132 104.5 125.5 Q90 119 78 129 Q66 141 65 155 Q65 160 64 162 Q60 174 59 186 Q58 198 56 209 Q50 263 48 315.5 Q46 368 48 422 L48 452 Q49 492 49.5 531 Q50 570 52 610 Q54 624 55.5 637 Q57 650 61 663 Q63 668 64.5 672 Q66 676 69 679 Q80 699 99.5 699 Q119 699 131 679 Q141 661 143 639 L145 640 Z M101 70 Q111 68 116 60.5 Q121 53 120 43 L120 15 Q120 -1 109 -6 Q97 -13 85 -3 Q72 9 72 31 L75 52 Q77 62 84 67.5 Q91 73 100 71 L101 70 Z " />
<glyph glyph-name="quotedbl" unicode="&#x22;" horiz-adv-x="224" d="M173 740 Q174 734 173.5 727.5 Q173 721 172 715 Q170 697 167 679.5 Q164 662 160 645 Q158 635 157 625 Q156 615 154 605 Q153 597 152.5 588 Q152 579 151 570 Q149 556 135 556 Q121 556 119 571 Q118 579 118 586 Q118 593 118 601 Q118 615 116 627.5 Q114 640 112 653 Q110 662 110 671 Q110 680 109 689 Q108 694 108 699.5 Q108 705 108 710 L111 710 L111 734 Q111 762 136 767 Q149 770 159.5 762.5 Q170 755 172 741 L173 740 Z M73 738 Q92 741 102 724 Q105 718 106.5 709.5 Q108 701 108 684 Q107 678 106 667.5 Q105 657 103 646 L100 616 L100 610 Q102 600 93 595 Q85 590 77 597 Q71 602 69 612 Q67 622 65.5 631.5 Q64 641 62 651 Q60 657 58.5 662.5 Q57 668 55 674 Q48 697 51 716 Q54 737 74 740 L73 738 Z " />
<glyph glyph-name="numbersign" unicode="&#x23;" horiz-adv-x="494" d="M444 310 Q450 299 443 290 Q435 281 429 278 Q418 273 406.5 269.5 Q395 266 384 262 L363 256 Q360 255 360 251 L351 212 Q349 206 348 202 Q353 203 356.5 203 Q360 203 364 204 L388 210 Q407 213 414 195 Q417 187 413.5 179 Q410 171 402 167 Q389 162 379 159 Q368 156 356.5 152.5 Q345 149 333 148 Q326 148 323 140 Q316 122 309 104.5 Q302 87 294 70 Q290 60 287 56 Q281 47 271 47 Q261 47 256 56 Q251 62 253 70 L265 112 Q267 120 269 127.5 Q271 135 273 143 L264 143 L222 137 Q215 136 208.5 135.5 Q202 135 195 133 Q191 133 190 130 L184 121 L160 70 Q156 59 149 57 Q141 55 135 60.5 Q129 66 131 74 L143 122 L143 123 L128 120 Q121 118 114.5 117 Q108 116 101 115 Q79 113 67 128.5 Q55 144 62 164 Q67 180 84 193 Q98 204 114.5 211 Q131 218 148 223 Q154 225 155 226 Q156 227 154 232 Q140 230 126.5 229 Q113 228 99 226 Q91 224 84 226 Q61 229 52.5 247.5 Q44 266 55 286 Q64 302 84 312 Q112 327 144 330 L148 330 L148 339 Q145 359 149 376 Q154 391 165.5 400 Q177 409 191 408 Q211 407 225 389 Q233 380 236.5 369 Q240 358 242 347 L245 326 Q245 322 249 322 Q254 321 259.5 320 Q265 319 271 317 L271 321 Q269 339 269 357 Q269 375 272 393 Q275 413 291 425 Q303 434 317.5 433.5 Q332 433 343 423 Q352 415 356.5 404.5 Q361 394 363 383 Q370 350 364 314 L364 311 L364 310 L391 316 L421 322 Q434 325 440 314 L444 310 Z M241 223 Q251 221 260 219.5 Q269 218 279 216 L279 245 Q271 244 263.5 243.5 Q256 243 248 242 Q246 242 246 240 L243 225 L241 223 Z " />
<glyph glyph-name="dollar" unicode="&#x24;" horiz-adv-x="461" d="M410 93 Q414 62 405 27 Q396 -8 377 -38 Q358 -68 329 -88.5 Q300 -109 264 -111 Q256 -112 254.5 -113.5 Q253 -115 252 -123 L246 -192 Q246 -198 245 -201 Q242 -216 226 -216 Q211 -216 209 -200 Q208 -194 208 -188 Q208 -182 208 -176 L205 -116 Q205 -114 201 -112 Q169 -103 144 -82 Q104 -50 98 -1 Q97 7 97.5 14 Q98 21 99 29 Q101 47 116 50 Q124 52 130.5 46.5 Q137 41 138 33 Q142 -14 184 -40 Q189 -43 194.5 -45 Q200 -47 206 -49 L206 -44 L206 25 L209 151 L209 172 Q209 176 205 179 Q191 187 178 195.5 Q165 204 153 215 Q130 236 109.5 259 Q89 282 75 311 Q40 385 48 471 Q54 536 82 592 Q114 655 180 671 Q186 673 190 673 Q194 673 194 677 Q194 688 195 698 Q196 708 199 718 Q202 729 208 738 Q222 758 243.5 756.5 Q265 755 277 735 Q282 726 284.5 716.5 Q287 707 289 696 Q291 684 291.5 672 Q292 660 294 648 Q294 645 296 643 Q328 617 345 583.5 Q362 550 370 512 Q374 492 374 467 Q374 458 367 448 Q361 439 350 442 Q339 445 336 456 L336 462 Q334 481 326.5 497.5 Q319 514 310 531 L301 546 Q301 534 301 522 Q301 510 300 499 L294 412 L288 310 L285 280 Q285 276 289 273 Q309 259 326.5 244 Q344 229 359 211 Q404 158 410 93 Z M170 417 Q173 398 179.5 379.5 Q186 361 197 347 L197 567 L194 564 Q183 553 177.5 539 Q172 525 170 510 Q162 463 170 417 Z M306 8 Q312 29 310 47 Q307 94 269 129 Q265 131 263 133 Q258 87 256.5 42 Q255 -3 253 -49 Q296 -32 306 8 Z " />
<glyph glyph-name="percent" unicode="&#x25;" horiz-adv-x="565" d="M385 379 Q362 343 340.5 305.5 Q319 268 301 228 Q287 197 275.5 166 Q264 135 253 103 Q245 80 235.5 57.5 Q226 35 217 12 Q212 2 205 -5 Q194 -16 180.5 -14 Q167 -12 162 2 Q160 6 160 9.5 Q160 13 159 17 Q164 81 181 137 Q195 181 210 223.5 Q225 266 243 308 Q260 348 280 386 Q300 424 323 461 Q335 480 348 497.5 Q361 515 378 530 Q385 536 392 541.5 Q399 547 407 551 Q427 559 442 548 Q458 536 455 515 Q453 504 449.5 494 Q446 484 441 474 Q429 450 414.5 427.5 Q400 405 386 382 L385 379 Z M268 431 Q257 406 242 384 Q227 362 207 343 Q191 328 173 317 Q155 306 133 301 Q119 298 105 299.5 Q91 301 78 309 Q50 327 47 361 Q45 377 48.5 392 Q52 407 58 421 Q66 440 76 456.5 Q86 473 102 486 Q107 490 112 493 Q117 496 122 499 Q125 501 133 503 Q147 505 155 496.5 Q163 488 160 474 Q158 467 155.5 460.5 Q153 454 150 447 Q145 436 140.5 426.5 Q136 417 131 406 Q128 398 126 390 Q124 382 122 374 L122 368 Q134 371 146 379 Q203 418 221 481 Q225 494 221 502 Q219 506 218 507 Q208 511 203 512 Q200 513 197 512 Q181 507 171 518 Q161 531 169 547 Q179 567 203 567 Q219 568 234 563.5 Q249 559 263 551 Q269 548 274 543 Q282 534 285 523.5 Q288 513 288 502 Q288 483 283.5 466 Q279 449 271 432 L268 431 Z M493 253 Q501 244 504 233.5 Q507 223 507 212 Q507 193 502.5 176 Q498 159 490 142 Q479 117 464 95 Q449 73 429 54 Q413 39 395 28 Q377 17 355 12 Q341 9 327 10.5 Q313 12 300 20 Q272 38 269 72 Q267 88 270.5 103 Q274 118 280 132 Q288 151 298 167.5 Q308 184 324 197 Q329 201 334 204 Q339 207 344 210 Q347 212 355 214 Q369 216 377 207.5 Q385 199 382 185 Q380 178 377.5 171.5 Q375 165 372 158 Q367 147 362.5 137.5 Q358 128 353 117 Q350 109 348 101 Q346 93 344 85 L344 79 Q356 82 368 90 Q425 129 443 192 Q447 205 443 213 Q441 217 440 218 Q430 222 425 223 Q422 224 419 223 Q403 218 393 229 Q383 242 391 258 Q401 278 425 278 Q441 279 456 274.5 Q471 270 485 262 Q491 259 496 254 L493 253 Z " />
<glyph glyph-name="ampersand" unicode="&#x26;" horiz-adv-x="489" d="M389 154 Q406 143 401 131 L392 113 Q379 90 366.5 68 Q354 46 340 23 Q320 -10 290 -40 Q284 -46 282 -58 Q280 -69 279.5 -79 Q279 -89 277 -100 Q274 -120 255 -122 Q247 -123 241.5 -118.5 Q236 -114 234 -106 Q233 -101 233 -97 Q233 -93 232 -88 L226 -91 Q214 -96 202 -98.5 Q190 -101 177 -100 Q157 -99 142 -89.5 Q127 -80 116.5 -66 Q106 -52 99.5 -34.5 Q93 -17 91 0 Q85 41 97 82 Q109 123 130 158 Q145 184 161.5 206 Q178 228 202 247 Q206 251 209 253 L199 253 Q164 252 136 268.5 Q108 285 88.5 311.5 Q69 338 59.5 371 Q50 404 52 435 Q56 492 91 541 Q126 590 179 613 Q185 616 191 618 Q197 620 203 622 Q207 623 207 627 Q207 639 207.5 651 Q208 663 211 674 Q213 682 217 688 Q225 697 235.5 697 Q246 697 254 688 Q262 680 266 670.5 Q270 661 272 650 Q274 644 275 637.5 Q276 631 277 624 Q279 619 282 618 Q320 603 329 563 Q335 537 325 510 Q320 497 313 486 Q306 475 298 464 Q293 458 292 452 Q291 446 291 438 Q292 420 292 402 Q292 384 292 366 L292 361 L308 361 Q332 359 342 339 Q350 321 339 303 L336 297 Q334 293 332 291 L296 249 Q295 248 295 244 Q295 215 295 185.5 Q295 156 294 127 Q293 105 291.5 83.5 Q290 62 288 40 L288 22 L291 25 Q306 44 318.5 64 Q331 84 344 104 Q351 115 357 125 Q363 135 370 146 Q378 159 389 154 Z M184 397 Q191 391 197.5 386 Q204 381 214 377 Q213 426 212.5 474 Q212 522 211 570 L208 570 Q203 565 199 560.5 Q195 556 191 551 Q177 533 171 512 Q165 491 163 469 Q161 449 167 431.5 Q173 414 184 397 Z M224 -32 Q232 -30 232 -29 Q232 -28 231 -20 L231 -17 Q230 -5 230 7 Q230 19 229 31 L223 100 L223 121 Q221 119 221 118 Q214 101 207 84.5 Q200 68 194 51 Q188 34 185.5 16.5 Q183 -1 188 -19 Q193 -35 208 -35 Q216 -35 224 -32 Z M300 546 Q295 564 286 573 L292 510 Q294 510 295.5 514.5 Q297 519 298 525 Q299 531 299.5 537 Q300 543 300 546 Z " />
<glyph glyph-name="quotesingle" unicode="&#x27;" horiz-adv-x="159" d="M102 664 L99 634 L99 628 Q101 618 92 613 Q84 608 76 615 Q70 620 68 630 Q66 640 64.5 649.5 Q63 659 61 669 Q59 675 57.5 680.5 Q56 686 54 692 Q47 715 50 734 Q53 755 73 758 Q92 761 102 744 Q105 738 106.5 729.5 Q108 721 108 704 Q107 698 106 687.5 Q105 677 103 666 L102 664 Z " />
<glyph glyph-name="parenleft" unicode="&#x28;" horiz-adv-x="252" d="M142 720 Q159 737 174.5 738.5 Q190 740 200 730.5 Q210 721 212.5 702.5 Q215 684 207 661 Q189 611 177 548.5 Q165 486 158 417.5 Q151 349 149 278 Q147 207 149.5 141 Q152 75 157.5 17.5 Q163 -40 171 -82 Q172 -89 174.5 -99.5 Q177 -110 179.5 -121 Q182 -132 184 -142.5 Q186 -153 187 -160 Q188 -168 189 -176 Q190 -184 191 -192 Q191 -197 191 -202 Q191 -207 189 -212 Q185 -224 173 -226.5 Q161 -229 153 -219 Q141 -203 130 -181.5 Q119 -160 109.5 -136 Q100 -112 92.5 -88.5 Q85 -65 80 -46 Q64 15 57 82 Q50 149 49.5 216 Q49 283 54 347.5 Q59 412 67.5 468.5 Q76 525 86 570 Q96 615 106 643 Q117 673 125 692 Q133 711 142 720 Z " />
<glyph glyph-name="parenright" unicode="&#x29;" horiz-adv-x="249" d="M131 722 Q140 713 147.5 694 Q155 675 166 646 Q175 618 185 573 Q195 528 203 472 Q211 416 216 352 Q221 288 220.5 221 Q220 154 213 87.5 Q206 21 191 -39 Q186 -58 179 -81.5 Q172 -105 163 -128.5 Q154 -152 143 -173.5 Q132 -195 121 -211 Q113 -221 101.5 -218.5 Q90 -216 86 -204 Q84 -199 84 -194 Q84 -189 84 -184 Q85 -176 86 -168 Q87 -160 88 -152 Q89 -145 90.5 -135 Q92 -125 94.5 -114 Q97 -103 99 -92.5 Q101 -82 103 -75 Q111 -33 116.5 24.5 Q122 82 124 147.5 Q126 213 124 283 Q122 353 115.5 421 Q109 489 97.5 551.5 Q86 614 68 664 Q60 686 62.5 704.5 Q65 723 75 732.5 Q85 742 99.5 740.5 Q114 739 131 722 Z " />
<glyph glyph-name="asterisk" unicode="&#x2a;" horiz-adv-x="331" d="M276 549 Q270 522 258 500.5 Q246 479 232 459 L229 456 Q234 451 238 446 Q242 441 247 436 Q260 422 270 407 Q274 403 276 396 Q281 380 269 370 Q258 361 241 366 Q234 368 229.5 372 Q225 376 220 381 Q218 384 215 386.5 Q212 389 208 392 Q207 384 206.5 377.5 Q206 371 204 364 Q203 359 202 355 Q201 351 199 346 Q194 335 183 335 Q174 335 167 345 Q163 351 162 357.5 Q161 364 160 371 Q158 379 157 384 L136 369 Q133 367 130 365.5 Q127 364 124 362 Q114 358 109 358 Q98 359 93 367.5 Q88 376 92 387 Q97 399 102 410 Q107 421 115 431 Q119 436 122 440.5 Q125 445 129 450 L111 465 L69 501 Q62 507 57.5 514 Q53 521 51 530 Q48 547 59.5 557 Q71 567 87 562 Q93 560 98.5 557.5 Q104 555 109 552 Q117 547 124.5 542 Q132 537 140 532 L140 538 Q140 547 140.5 556 Q141 565 144 574 Q147 581 152 588 Q160 598 172 597.5 Q184 597 192 587 Q197 580 199 572 Q201 564 203 556 L203 552 Q204 554 206 556 Q212 564 218 571 Q224 578 231 585 Q239 595 250 596 Q262 598 271 591 Q280 584 281 571 Q281 561 276 549 Z " />
<glyph glyph-name="plus" unicode="&#x2b;" horiz-adv-x="362" d="M296 287 Q309 285 313.5 275 Q318 265 313 255 Q307 243 293 240 Q279 237 264.5 234.5 Q250 232 236 230 Q232 229 231 225 Q227 202 223.5 181 Q220 160 218 137 Q217 132 216 127 Q215 122 213 117 Q209 109 200 108 Q191 107 186 115 Q184 117 184 120 Q184 123 183 125 Q179 147 177 168 Q175 189 169 211 Q168 215 164 215 Q147 213 129.5 213.5 Q112 214 95 216 Q77 218 63.5 229.5 Q50 241 50 262 Q50 272 56 279 Q62 286 70 289 Q84 294 108 294.5 Q132 295 153 293 Q153 310 152 327.5 Q151 345 153 365 Q155 379 163 389 Q175 403 193 401 Q211 399 220 382 Q226 371 228.5 360 Q231 349 232 337 Q233 327 232.5 316 Q232 305 232 290 Q250 290 263.5 290 Q277 290 296 287 Z " />
<glyph glyph-name="comma" unicode="&#x2c;" horiz-adv-x="181" d="M126 74 Q131 64 131 50 Q130 36 129 23 Q128 10 124 -4 Q122 -12 119.5 -19 Q117 -26 114 -34 Q107 -55 88 -67 Q62 -86 37 -60 Q31 -54 29 -43 Q27 -32 40 -28 Q52 -26 57 -38 L60 -44 Q61 -42 62 -41 Q63 -40 64 -38 Q66 -31 67 -24.5 Q68 -18 67 -11 L61 40 Q58 59 65 75 Q74 95 95 95 Q117 95 126 75 L126 74 Z " />
<glyph glyph-name="hyphen" unicode="&#x2d;" horiz-adv-x="350" d="M288 274 Q298 268 296 257 Q294 245 284 242 Q280 240 278 240 Q276 239 272 239 L269 239 Q256 237 237.5 233 Q219 229 200 224.5 Q181 220 163 215.5 Q145 211 132 208 Q121 204 112 203 L103 203 Q81 203 66 217 Q51 231 49 253 Q47 273 60.5 289.5 Q74 306 95 309 Q100 310 104.5 310 Q109 310 116 311 Q124 309 150 306 L153 306 Q175 303 202.5 299 Q230 295 251 290 Q260 288 267 286 Q274 284 279 282 Q287 280 288 274 Z " />
<glyph glyph-name="period" unicode="&#x2e;" horiz-adv-x="200" d="M98 66 Q115 66 126.5 54.5 Q138 43 138 26 Q138 9 126.5 -2 Q115 -13 98 -13 Q81 -13 69.5 -1.5 Q58 10 58 27 Q58 44 69.5 55 Q81 66 98 66 Z " />
<glyph glyph-name="slash" unicode="&#x2f;" horiz-adv-x="455" d="M382 539 Q383 534 382.5 529.5 Q382 525 382 522 Q380 508 377.5 495 Q375 482 371 469 Q355 419 333 373 Q311 327 283 283 Q267 258 250.5 234.5 Q234 211 217 187 L160 103 L118 43 Q110 32 103 20 Q96 8 88 -4 Q81 -17 70 -18 Q59 -20 52.5 -12.5 Q46 -5 49 5 Q50 9 54 17 L105 119 L174 263 Q189 295 203 326.5 Q217 358 232 390 Q245 416 256 443 Q267 470 278 497 Q283 508 288 519 Q293 530 300 541 Q310 556 322 564 Q340 575 358.5 567.5 Q377 560 382 539 Z " />
<glyph glyph-name="zero" unicode="0" horiz-adv-x="348" d="M292 291 Q297 217 279 148 Q273 126 265 105.5 Q257 85 244 66 Q222 33 192 13 Q166 -6 134.5 -5.5 Q103 -5 76 17 Q59 31 46.5 49 Q34 67 26 87 Q15 113 10 140.5 Q5 168 3 197 Q1 212 0.5 227 Q0 242 -1 257 Q-2 278 0 299 Q2 320 6 341 Q9 358 12.5 375 Q16 392 22 409 Q28 425 35 439.5 Q42 454 53 468 Q66 484 84 487 Q102 490 116 478 L119 475 Q117 488 124.5 496 Q132 504 146 502 Q152 501 158 499 Q164 497 170 495 Q175 493 180.5 490.5 Q186 488 191 485 Q200 481 208 474 Q231 456 248 433.5 Q265 411 274 382 Q277 371 281 360 Q285 349 287 338 Q289 325 290 312.5 Q291 300 292 287 L292 291 Z M241 206 Q255 255 252.5 302 Q250 349 226 395 Q211 423 186 441 Q181 444 177.5 447.5 Q174 451 169 453 Q163 457 156.5 460 Q150 463 143 466 L140 466 Q131 465 123 470 Q133 456 134 443 Q136 429 137 416 Q138 403 138 389 Q138 368 137.5 347 Q137 326 137 305 Q137 277 136 249.5 Q135 222 138 194 Q140 174 143.5 155 Q147 136 152 117 Q154 111 156.5 105 Q159 99 161 93 Q165 95 165 95 L171 98 Q189 112 203 130 Q217 147 225.5 167 Q234 187 240 208 L241 206 Z " />
<glyph glyph-name="one" unicode="1" horiz-adv-x="204" d="M170 450 Q171 436 171.5 421.5 Q172 407 172 393 Q171 376 170 358.5 Q169 341 167 324 L161 237 Q159 220 158 202.5 Q157 185 156 168 L153 90 L150 36 Q149 20 137 5 Q127 -7 111.5 -7 Q96 -7 86 5 Q73 21 73 40 L73 46 L90 411 L92 441 Q91 440 91 439 Q91 438 90 437 L51 398 Q45 392 37 389 Q28 385 20 393 Q13 400 16 411 Q18 419 27 428 Q37 438 46.5 447 Q56 456 66 465 L99 495 Q106 502 116 507 Q118 509 121.5 509 Q125 509 128 509 Q134 509 137 508 Q156 505 163 483 Q167 470 169 454 L170 450 Z " />
<glyph glyph-name="two" unicode="2" horiz-adv-x="299" d="M154 96 Q139 81 124 66 Q109 51 95 34 Q116 34 137.5 35.5 Q159 37 183 35 Q191 34 199.5 33 Q208 32 216 29 Q226 25 228 16.5 Q230 8 223 1 Q218 -3 210 -3 Q183 0 156 -2 Q129 -4 102 -9 Q87 -11 73.5 -14.5 Q60 -18 42 -17 Q32 -17 28 -11 Q24 -5 20 2 Q15 11 22 23 Q30 40 40.5 55 Q51 70 62 86 Q86 120 106 157 Q126 194 146 235 Q160 264 166.5 295.5 Q173 327 176 360 Q178 381 174 400 Q170 419 156 436 Q151 441 143.5 442.5 Q136 444 128.5 442 Q121 440 114.5 435.5 Q108 431 105 425 Q96 405 100 384 Q103 370 92 365 Q87 363 81 365 Q75 367 72 373 Q60 396 62 418.5 Q64 441 75 459.5 Q86 478 104.5 490 Q123 502 144 504 Q185 508 215 483.5 Q245 459 260 421 Q272 389 272 357 Q272 325 263 293 Q255 262 242.5 233 Q230 204 214 176 Q188 131 154 96 Z " />
<glyph glyph-name="three" unicode="3" horiz-adv-x="321" d="M230 277 Q267 257 284.5 220 Q302 183 297 141 Q294 116 282.5 89.5 Q271 63 252 42 Q239 27 219 13.5 Q199 0 176 -7.5 Q153 -15 129.5 -14.5 Q106 -14 85 -1 Q62 14 44 33.5 Q26 53 15 77 Q12 85 15 91 Q18 97 26 99 Q36 99 41 93 Q43 89 44 88 Q49 77 57.5 65 Q66 53 76.5 43 Q87 33 100 27 Q113 21 128 23 Q148 25 163 33.5 Q178 42 191 56 L209 77 Q235 111 237 153 Q238 182 216 206 Q202 220 185.5 227.5 Q169 235 149 239 Q129 242 117.5 250 Q106 258 109 280 Q113 291 121 302.5 Q129 314 138 326 Q150 343 159 361 Q168 379 168 400 Q170 409 166.5 422 Q163 435 153 441 Q136 447 118.5 437.5 Q101 428 98 410 Q97 400 87 390 Q82 385 74.5 385.5 Q67 386 62 391 Q52 402 51 416.5 Q50 431 55 446 Q60 461 69 474 Q78 487 89 496 Q109 513 140 517.5 Q171 522 197 513 Q225 503 236.5 483 Q248 463 248 440 Q248 417 240 392.5 Q232 368 220 349 Q213 338 206 326 Q199 314 191 303 L185 294 Q198 292 208.5 287 Q219 282 230 277 Z " />
<glyph glyph-name="four" unicode="4" horiz-adv-x="323" d="M285 454 Q291 437 292 416.5 Q293 396 292 375 Q291 345 290.5 315 Q290 285 289 256 L283 121 L280 61 Q278 27 268 -4 Q262 -25 242 -25 Q221 -25 212 -6 Q205 9 202 25 Q199 41 197 58 Q192 101 190.5 143.5 Q189 186 187 229 L184 289 L184 292 L181 289 Q168 266 155 244 Q142 222 126 202 Q111 184 95 173 Q66 154 44 181 Q24 206 19 240 Q16 266 14.5 292 Q13 318 14 344 Q15 369 15.5 393.5 Q16 418 18 443 Q19 456 21.5 468 Q24 480 30 491 Q40 511 60 511 Q80 511 91 492 Q103 472 103 449 Q104 426 104 402.5 Q104 379 104 356 Q104 344 103.5 332 Q103 320 102 308 L96 230 L96 221 Q99 225 102 228 Q105 231 108 235 Q147 286 177 343 Q183 355 183 369 Q183 393 184 417 Q185 441 190 465 Q193 481 199 494 Q204 507 215.5 513.5 Q227 520 240 518 Q258 515 270 497 Q276 487 279.5 476 Q283 465 285 454 Z " />
<glyph glyph-name="five" unicode="5" horiz-adv-x="296" d="M228 236 Q246 212 257.5 183 Q269 154 269 122 Q269 73 237 37.5 Q205 2 159 -10 Q107 -22 65 11 Q41 30 27 60.5 Q13 91 7 121 Q4 133 15 139 Q27 146 35 136 Q41 128 44 120 Q48 111 51.5 101.5 Q55 92 60 83 Q64 75 72.5 67 Q81 59 90.5 54 Q100 49 111 48 Q122 47 133 53 Q150 61 163 74 Q176 87 184 105 Q194 126 187 154 Q179 186 163 216 Q160 223 155 228 Q146 237 135.5 240 Q125 243 114 242 Q103 241 91.5 237 Q80 233 69 228 Q59 224 49 225 Q39 226 31 233 Q18 244 15 261 Q12 275 11 289 Q10 303 10 318 Q10 385 19 453 Q21 461 23 471.5 Q25 482 33 490 Q40 498 51 505 Q62 512 75 513 Q103 521 127 508 Q132 505 136.5 502 Q141 499 146 495 Q157 489 168 483 Q179 477 192 475 Q199 473 208.5 472 Q218 471 227 473 Q240 478 246 468 Q249 464 248.5 458.5 Q248 453 244 449 Q237 442 226 442 Q208 442 188.5 442 Q169 442 149 447 Q138 451 125.5 454 Q113 457 98 457 Q96 457 93.5 456.5 Q91 456 89 456 Q91 446 92 437.5 Q93 429 93 420 Q94 398 94 376.5 Q94 355 94 333 Q94 323 93.5 312.5 Q93 302 93 289 Q131 297 168 282 Q205 267 228 236 Z " />
<glyph glyph-name="six" unicode="6" horiz-adv-x="295" d="M251 162 Q272 97 246 34 Q241 24 235 15 Q229 6 220 -2 Q190 -28 147 -18 Q131 -14 117 -6.5 Q103 1 89 12 Q65 31 50 55.5 Q35 80 27 109 Q19 134 16.5 160 Q14 186 15 212 Q16 257 22 300 Q28 343 41 386 Q46 404 52.5 422.5 Q59 441 68 458 Q76 472 85.5 483.5 Q95 495 109 503 Q124 512 141 509 Q156 507 165.5 496.5 Q175 486 177 469 Q179 456 177 444 Q175 432 173 419 Q167 387 161 354 Q155 321 149 288 Q142 247 142 201 Q144 203 145.5 204 Q147 205 149 207 Q159 215 170 216.5 Q181 218 193 216 Q236 207 250 164 L251 162 Z M210 83 Q213 97 211 112 Q209 126 204 139 Q199 152 190 163 Q180 173 166 170 Q159 169 153 170 Q147 171 142 178 L142 174 Q143 165 143.5 155.5 Q144 146 146 137 Q148 124 150.5 112 Q153 100 156 87 Q158 77 163.5 68.5 Q169 60 177 52 Q187 43 196 53 Q207 67 210 82 L210 83 Z " />
<glyph glyph-name="seven" unicode="7" horiz-adv-x="273" d="M250 405 Q252 379 245.5 355 Q239 331 228 308 Q220 289 203 254 Q186 219 165.5 177.5 Q145 136 123.5 93 Q102 50 84 15 Q78 2 61 -1 Q48 -3 39 4 Q30 11 28 25 Q23 53 33 83.5 Q43 114 53 144 Q68 190 84.5 236 Q101 282 120 332 Q127 350 134 368 Q141 386 149 405 Q143 406 137.5 406.5 Q132 407 127 407 Q107 408 88.5 405.5 Q70 403 51 398 Q41 396 35 396 Q24 397 19.5 405.5 Q15 414 20 423 Q29 437 49.5 448 Q70 459 94.5 466 Q119 473 143.5 475.5 Q168 478 186 476 Q212 472 230 451.5 Q248 431 250 405 Z " />
<glyph glyph-name="eight" unicode="8" horiz-adv-x="302" d="M256 357 Q238 333 217.5 312.5 Q197 292 177 269 Q182 265 187.5 261 Q193 257 199 253 Q213 242 225.5 229 Q238 216 248 202 Q262 179 267.5 156.5 Q273 134 268 110 Q262 80 247.5 54.5 Q233 29 206 9 Q183 -8 156 -14.5 Q129 -21 99 -16 Q67 -10 45 13 Q15 47 16 86 Q16 101 20 114 Q24 127 30 141 Q49 181 75 215 Q78 220 81 224 Q84 228 87 233 Q68 250 56.5 268.5 Q45 287 39 304.5 Q33 322 31 338.5 Q29 355 29 368 Q30 380 33.5 392 Q37 404 41.5 414 Q46 424 49.5 430.5 Q53 437 54 439 Q67 459 85 475 Q103 491 127 502 Q151 513 175 515.5 Q199 518 225 510 Q248 502 264 489 Q280 476 286 455 Q290 443 288.5 430.5 Q287 418 283 407 Q278 393 271 381 Q264 369 256 357 Z M180 100 Q185 122 178 139 Q174 150 168.5 158.5 Q163 167 157 174 Q150 182 143 188 Q138 192 132.5 196 Q127 200 122 204 L120 202 Q109 187 100.5 173 Q92 159 85 143 Q80 131 76.5 118.5 Q73 106 75 92 Q77 84 80 75.5 Q83 67 90 60 Q102 49 120.5 49 Q139 49 152 60 Q163 68 169 77 Q175 86 180 100 Z M159 289 Q173 303 185.5 319.5 Q198 336 211 353 Q225 370 234 389 Q243 408 246 430 Q248 442 242.5 451.5 Q237 461 228 467.5 Q219 474 208 476.5 Q197 479 187 476 Q172 473 158 466 Q144 459 132 451 Q124 443 115.5 435 Q107 427 102 417 Q87 385 101 353 Q108 339 122 323 Q136 307 159 289 Z " />
<glyph glyph-name="nine" unicode="9" horiz-adv-x="383" d="M308 463 Q317 454 321.5 438 Q326 422 328 404 Q330 386 330 367.5 Q330 349 330 334 Q328 294 327.5 253.5 Q327 213 325 170 Q323 139 321.5 106.5 Q320 74 305 45 Q294 24 276 8.5 Q258 -7 232 -9 Q214 -11 202 -3.5 Q190 4 182.5 16 Q175 28 171 43 Q167 58 166 72 Q166 76 166.5 82.5 Q167 89 169.5 94.5 Q172 100 176.5 103.5 Q181 107 189 104 Q202 102 200 87 Q200 79 203 70.5 Q206 62 212 48 Q214 41 220 45 Q227 49 230 56 Q237 71 239.5 87 Q242 103 244 120 Q246 137 245 155 Q244 173 242 191 Q239 218 236.5 244.5 Q234 271 233 298 L233 301 Q227 294 221 286.5 Q215 279 207 273 Q199 265 189.5 258 Q180 251 170 244 Q131 220 100.5 228 Q70 236 51 262 Q32 288 26.5 326 Q21 364 33 401 Q40 423 53.5 444.5 Q67 466 85 482 Q103 498 125.5 507.5 Q148 517 174 516 Q192 515 207.5 508.5 Q223 502 234 488 Q251 466 241 445 Q231 424 205 421 Q200 420 195 420 Q190 420 185 420 Q176 420 169 414.5 Q162 409 156.5 400.5 Q151 392 147 382 Q143 372 141 363 Q140 359 138.5 347.5 Q137 336 137.5 324.5 Q138 313 141.5 305 Q145 297 154 300 Q180 309 199.5 335 Q219 361 233 387 Q234 389 234 393 Q236 404 237.5 414.5 Q239 425 241 436 Q243 447 250 456.5 Q257 466 266.5 470.5 Q276 475 287 474 Q298 473 308 463 Z " />
<glyph glyph-name="colon" unicode="&#x3a;" horiz-adv-x="180" d="M90 189 Q107 189 118.5 177.5 Q130 166 130 149 Q130 132 118.5 121 Q107 110 90 110 Q73 110 61.5 121.5 Q50 133 50 150 Q50 167 61.5 178 Q73 189 90 189 Z M89 267 Q72 267 60.5 278.5 Q49 290 49 307 Q49 324 60.5 335 Q72 346 89 346 Q106 346 117.5 334.5 Q129 323 129 306 Q129 289 117.5 278 Q106 267 89 267 Z " />
<glyph glyph-name="semicolon" unicode="&#x3b;" horiz-adv-x="201" d="M116 174 Q138 174 147 154 Q152 144 152 130 Q151 116 150 103 Q149 90 145 76 Q143 68 140.5 61 Q138 54 135 46 Q128 25 109 13 Q83 -6 58 20 Q52 26 50 37 Q48 48 61 52 Q73 54 78 42 L81 36 Q82 38 83 39 Q84 40 85 42 Q87 49 88 55.5 Q89 62 88 69 L82 120 Q79 139 86 155 Q95 175 116 175 L116 174 Z M111 264 Q94 264 82.5 275.5 Q71 287 71 304 Q71 321 82.5 332 Q94 343 111 343 Q128 343 139.5 331.5 Q151 320 151 303 Q151 286 139.5 275 Q128 264 111 264 Z " />
<glyph glyph-name="less" unicode="&#x3c;" horiz-adv-x="362" d="M259 438 Q270 441 280 438 Q290 435 297 428 Q304 421 307 411 Q310 401 308 389 Q306 380 302.5 371.5 Q299 363 294 355 Q281 331 265.5 309 Q250 287 232 267 Q212 245 191.5 224 Q171 203 148 184 Q144 181 140.5 178 Q137 175 132 172 Q147 161 159 148 Q171 135 184 122 Q195 111 206.5 100 Q218 89 229 78 Q238 68 246 58 Q254 45 244 35 Q235 26 224 33 Q216 37 211 43 Q199 54 187.5 64 Q176 74 164 85 Q159 90 153 94 Q147 98 142 103 Q134 109 127 115 Q120 121 113 127 Q101 137 83 144 Q79 146 75.5 147.5 Q72 149 68 151 Q56 158 52 170 Q48 182 53 195 Q54 198 58 204 Q69 221 80 237 Q91 253 105 267 Q122 286 137 306 Q152 326 168 346 Q183 365 198.5 383 Q214 401 230 419 Q245 436 262 440 L259 438 Z " />
<glyph glyph-name="equal" unicode="&#x3d;" horiz-adv-x="391" d="M340 251 Q347 240 337 230 Q328 221 313 219 Q299 217 286 216.5 Q273 216 259 214 Q255 214 247 212 Q222 205 197.5 201 Q173 197 147 196 Q135 196 123 194.5 Q111 193 99 191 Q92 190 85.5 190 Q79 190 72 193 Q60 198 54.5 209.5 Q49 221 52 234 Q55 245 62 253 Q69 261 79 266 Q93 274 109 276.5 Q125 279 142 279 Q160 279 178.5 275.5 Q197 272 216 267 Q224 265 231 263.5 Q238 262 246 260 Q248 259 254 259 Q268 258 282.5 257.5 Q297 257 311 257 Q317 257 319 258 Q332 261 338 250 L340 251 Z M285 179 Q295 177 298.5 167.5 Q302 158 296 150 Q290 141 279 139 Q271 137 262.5 136 Q254 135 246 134 Q232 132 219 128 Q212 125 205 123.5 Q198 122 190 120 Q179 118 167.5 117 Q156 116 145 114 Q131 112 118 118 Q107 123 103 134.5 Q99 146 104 157 Q111 173 127 181 Q152 194 180 194 Q203 194 224 185 Q230 182 236 182 Q246 181 255.5 181 Q265 181 275 181 Q278 181 281 181.5 Q284 182 287 181 L285 179 Z " />
<glyph glyph-name="greater" unicode="&#x3e;" horiz-adv-x="328" d="M261 255 Q278 240 277.5 218.5 Q277 197 259 183 Q250 176 241.5 169 Q233 162 225 154 Q196 127 172 96.5 Q148 66 124 35 L118 26 Q108 16 97 23 Q84 30 89 43 Q92 54 98 63 L134 117 Q149 139 164.5 160.5 Q180 182 196 204 Q197 205 197 205.5 Q197 206 198 207 Q188 216 179 225 Q170 234 160 242 Q139 260 121.5 280.5 Q104 301 87 323 Q80 332 73.5 341.5 Q67 351 60 361 Q52 371 51 385 Q48 408 65 422.5 Q82 437 105 429 Q122 423 135 407 Q146 394 157.5 381 Q169 368 180 354 L258 261 L261 258 L261 255 Z " />
<glyph glyph-name="question" unicode="&#x3f;" horiz-adv-x="343" d="M310 611 Q312 585 307 560 Q302 535 295 510 Q290 492 282.5 475.5 Q275 459 266 442 Q246 403 224 364 Q216 347 207 331.5 Q198 316 190 299 Q177 272 169 243.5 Q161 215 155 185 Q153 171 151.5 156 Q150 141 148 126 Q147 119 141 110 Q138 104 132 102.5 Q126 101 120 103 Q108 109 108 123 Q109 135 109.5 147.5 Q110 160 110 172 Q109 199 112.5 225 Q116 251 124 277 Q135 307 146.5 336 Q158 365 173 393 Q189 422 201.5 453 Q214 484 222 516 Q225 529 228.5 542 Q232 555 233 569 Q234 583 233 595.5 Q232 608 228 620 Q222 635 209 645 Q202 648 197 647 Q189 646 182.5 642.5 Q176 639 170 634 Q150 617 141 596 Q132 575 129 552 Q127 535 129 519 Q131 505 128 497 Q123 480 108.5 473.5 Q94 467 77 475 Q56 485 48 507 Q40 526 40 560 Q42 642 100 697 Q132 728 174 735 Q211 743 239 730 Q267 717 286 687 Q297 670 302 652.5 Q307 635 309 616 L310 611 Z M149 24 Q147 -1 150 -21 Q151 -28 146.5 -33 Q142 -38 136 -40 Q121 -43 113 -31 Q109 -24 107 -12 Q103 5 103 27 Q103 42 119 49 Q130 52 139 45 Q148 38 149 27 L149 22 L149 24 Z " />
<glyph glyph-name="at" unicode="&#x40;" horiz-adv-x="429" d="M352 355 Q369 334 376 310.5 Q383 287 378 259 Q369 204 343 160 Q334 146 325 138 Q311 124 295 129 Q279 134 273 153 Q272 155 272 158 Q266 149 260.5 139.5 Q255 130 248 121 Q241 112 233.5 104 Q226 96 216 90 Q205 83 193 80.5 Q181 78 168 83 Q152 88 140 105 Q122 130 122 162 Q121 179 123 196 Q125 213 132 230 Q140 252 152.5 271 Q165 290 184 304 Q221 332 262 316 Q288 306 292 281 L292 279 Q316 279 314 254 Q313 240 312 225.5 Q311 211 310 197 L310 181 Q311 183 313 185 Q330 217 338 254 Q340 265 341 276.5 Q342 288 340 299 Q332 335 301 351 Q284 359 266 364 Q248 369 228 368 Q208 366 191 358 Q171 348 155 333 Q139 318 126 299 Q106 270 95 237.5 Q84 205 85 169 Q86 148 91 128 Q96 108 107 89 Q127 55 165 49 Q174 47 183 48 Q192 49 201 50 L216 53 Q224 55 227 57 Q238 62 246 54 Q250 50 250.5 45 Q251 40 247 36 Q244 33 240.5 30 Q237 27 233 25 Q216 20 198.5 17 Q181 14 163 16 Q91 26 63 97 Q53 123 50.5 149 Q48 175 51 202 Q56 247 74.5 284 Q93 321 123 353 Q158 391 202.5 399.5 Q247 408 296 388 Q320 378 338 366 Q346 360 349 356 L352 355 Z M269 241 Q271 245 272 248 Q262 247 252 252 Q251 253 248 253 Q233 250 224 238 Q208 217 199.5 193.5 Q191 170 192 143 Q192 140 192.5 137 Q193 134 194 130 Q199 133 203 135.5 Q207 138 211 141 Q232 159 242 180 Q250 196 256.5 211.5 Q263 227 270 243 L269 241 Z " />
<glyph glyph-name="bracketleft" unicode="&#x5b;" horiz-adv-x="356" d="M53 382 Q55 402 55.5 417.5 Q56 433 58 447 Q62 491 68 533 Q74 575 85 617 Q91 640 100 660.5 Q109 681 123 700 Q161 750 219 747 L251 747 L278 747 Q288 747 294 742 Q302 733 298 723 Q293 713 281 713 L279 713 Q266 712 253.5 711.5 Q241 711 229 709 Q193 704 182 672 Q179 664 176 655.5 Q173 647 171 639 Q160 598 154 557.5 Q148 517 144 475 Q140 437 138 398 Q136 359 136 321 Q136 289 136 258.5 Q136 228 138 196 Q140 151 143 105.5 Q146 60 149 15 Q151 -22 156 -58.5 Q161 -95 170 -130 Q174 -144 178.5 -156.5 Q183 -169 190 -181 Q194 -188 199 -192.5 Q204 -197 212 -197 Q217 -197 222.5 -197 Q228 -197 233 -196 Q239 -194 245 -196 Q251 -198 254 -203 Q261 -213 251 -225 Q241 -237 228 -241 L216 -244 Q181 -257 154 -237 Q127 -219 113 -191 Q99 -163 89.5 -134.5 Q80 -106 75 -75 Q63 -1 57 78 Q54 116 52 154 Q50 192 50 230 Q50 270 51 309.5 Q52 349 53 384 L53 382 Z " />
<glyph glyph-name="backslash" unicode="&#x5c;" horiz-adv-x="413" d="M362 -35 Q365 -47 356 -53 Q346 -59 337 -53 Q333 -50 330 -46 L318 -28 Q310 -17 303 -6 Q296 5 288 16 Q276 32 266.5 48.5 Q257 65 246 82 Q228 111 211.5 140 Q195 169 181 199 Q158 246 137 292.5 Q116 339 96 387 Q88 406 79.5 424 Q71 442 63 460 Q59 468 56 476.5 Q53 485 52 494 Q50 506 55.5 516 Q61 526 72 531 Q76 533 86 535 Q103 533 113 522 Q128 504 137 488 Q158 456 174.5 421.5 Q191 387 205 352 Q219 317 233.5 281.5 Q248 246 262 211 Q273 182 283 153 Q293 124 304 95 Q311 77 318 59.5 Q325 42 333 25 Q339 11 345.5 -1.5 Q352 -14 358 -28 Q359 -30 360 -32.5 Q361 -35 362 -37 L362 -35 Z " />
<glyph glyph-name="bracketright" unicode="&#x5d;" horiz-adv-x="356" d="M308 387 Q309 350 310 311.5 Q311 273 311 232 Q311 194 309 156.5 Q307 119 304 81 Q300 42 295.5 3.5 Q291 -35 283 -72 Q274 -135 243 -188 Q229 -216 200 -235 Q170 -255 133 -242 Q125 -240 120 -239 Q113 -237 106 -233 Q99 -229 94 -223 Q85 -212 91 -200 Q94 -195 100.5 -193 Q107 -191 115 -193 Q120 -194 126 -194 Q132 -194 137 -194 Q145 -194 150.5 -189.5 Q156 -185 161 -179 Q168 -167 172.5 -154.5 Q177 -142 182 -129 Q191 -92 197 -56 Q203 -20 205 18 Q208 63 211 108 Q214 153 216 198 Q218 230 218 261 Q218 292 218 323 Q218 362 216 400.5 Q214 439 210 478 Q206 520 199 560 Q192 600 181 642 Q179 650 175.5 658.5 Q172 667 169 675 Q157 708 119 713 Q90 714 65 716 L62 716 Q49 716 44 726 Q39 736 48 745 Q55 750 66 750 L94 750 L130 750 Q193 753 232 702 Q248 684 257.5 663.5 Q267 643 274 621 Q285 578 291.5 535.5 Q298 493 302 450 Q304 435 305 419.5 Q306 404 308 385 L308 387 Z " />
<glyph glyph-name="asciicircum" unicode="&#x5e;" horiz-adv-x="266" d="M214 604 Q212 592 211 580 Q210 568 210 556 Q210 542 210.5 527.5 Q211 513 212 499 Q212 494 212.5 490 Q213 486 214 481 Q216 468 204 463 Q192 458 185 470 Q181 477 180 484 Q179 491 178 499 L175 529 L175 533 Q173 529 170.5 526 Q168 523 166 519 Q157 505 148 490 Q139 475 130 461 Q120 445 106 435 Q88 424 71 431 Q60 436 54.5 446 Q49 456 51 468 Q52 481 59 496 Q68 516 79.5 534.5 Q91 553 104 571 L119 592 Q127 603 136 613 Q145 623 155 633 Q165 642 176.5 643.5 Q188 645 198 640 Q218 629 215 606 L214 604 Z " />
<glyph glyph-name="braceleft" unicode="&#x7b;" horiz-adv-x="282" d="M207 726 Q215 714 221 699.5 Q227 685 223 669 Q222 659 212 653 Q202 646 195 653 Q187 660 190 669 Q191 673 189 676 Q187 679 184.5 682.5 Q182 686 180 689 Q172 700 162 690 Q153 681 149 670 Q145 659 141 648 Q132 620 130.5 592 Q129 564 131 535 Q133 518 133.5 501.5 Q134 485 135 468 Q136 452 136 437 Q136 422 136 407 Q135 393 134 379.5 Q133 366 128 352 Q128 350 130 348 Q156 324 166 288 Q171 268 172.5 247.5 Q174 227 173 207 Q171 154 166 102 Q161 50 153 -2 Q146 -47 139.5 -91 Q133 -135 125 -180 Q124 -186 124 -192.5 Q124 -199 123 -205 Q123 -207 123.5 -208 Q124 -209 124 -211 Q130 -209 134 -206.5 Q138 -204 142 -200 Q161 -178 172 -151 L178 -136 Q185 -120 200 -123 Q208 -125 212.5 -130 Q217 -135 216 -143 Q215 -148 214.5 -152 Q214 -156 212 -160 Q202 -180 190.5 -198.5 Q179 -217 161 -233 Q153 -240 144 -244.5 Q135 -249 124 -251 Q94 -256 77 -231 Q71 -220 67.5 -209 Q64 -198 62 -187 Q58 -167 58.5 -145.5 Q59 -124 60 -103 Q61 -88 61.5 -72.5 Q62 -57 63 -42 Q65 -19 66 3.5 Q67 26 69 49 Q71 74 73 98.5 Q75 123 77 149 Q78 175 79 201.5 Q80 228 82 254 L82 283 Q80 283 79 282.5 Q78 282 77 282 Q64 279 55.5 286 Q47 293 49 306 Q52 332 71 353 Q73 355 73 357 Q73 368 73 377.5 Q73 387 72 398 Q71 409 70.5 420 Q70 431 69 442 Q67 457 65.5 472.5 Q64 488 63 503 Q61 526 60 548 Q59 570 58 593 Q57 633 70 669 Q85 711 122 736 Q145 754 175 748 Q194 744 207 726 Z " />
<glyph glyph-name="bar" unicode="&#x7c;" horiz-adv-x="397" d="M265 602 Q267 580 267 558.5 Q267 537 268 516 Q266 485 265 455.5 Q264 426 262 397 Q259 349 253.5 301 Q248 253 243 205 Q240 177 236.5 149.5 Q233 122 229 94 Q227 77 225 59.5 Q223 42 221 25 Q218 2 215 -21.5 Q212 -45 208 -68 Q204 -94 201 -119 Q198 -144 196 -170 L196 -176 Q196 -188 185 -193 Q174 -198 166 -189 Q159 -181 159 -169 Q159 -158 159 -148 Q159 -138 158 -127 Q158 -118 157.5 -109 Q157 -100 156 -91 Q155 -80 154.5 -68.5 Q154 -57 154 -46 Q153 -21 152.5 3.5 Q152 28 152 53 Q152 87 152 120.5 Q152 154 153 188 Q154 236 155 284 Q156 332 158 380 Q159 398 159 416 Q159 434 160 452 Q161 476 162 500 Q163 524 165 548 Q166 568 166 587 Q166 606 167 626 Q168 640 169 654.5 Q170 669 172 683 Q174 700 182 711 Q193 725 209 725 Q225 725 235 711 Q241 704 244 694 Q251 671 256 648.5 Q261 626 263 603 L265 602 Z " />
<glyph glyph-name="braceright" unicode="&#x7d;" horiz-adv-x="282" d="M240 192 Q237 165 217 145 Q215 143 215 142 Q215 131 215 121 Q215 111 216 101 Q217 90 217.5 79 Q218 68 219 57 Q221 41 223 26 Q225 11 226 -5 Q228 -28 229 -50.5 Q230 -73 231 -96 Q233 -137 218 -172 Q210 -192 197 -209 Q184 -226 164 -239 Q140 -257 109 -251 Q88 -247 75 -229 Q70 -222 66 -215 Q62 -208 58 -200 Q52 -187 54 -176 Q56 -165 65 -159 Q76 -153 84 -159 Q92 -166 89 -176 Q87 -181 90 -183 Q92 -186 94.5 -189.5 Q97 -193 99 -195 Q107 -207 118 -196 Q127 -188 131 -176.5 Q135 -165 139 -154 Q150 -126 151.5 -98 Q153 -70 151 -41 Q149 -24 148.5 -7.5 Q148 9 147 26 Q145 42 144.5 57 Q144 72 145 88 Q147 102 148 115.5 Q149 129 154 143 Q154 144 152 146 Q124 170 114 207 Q108 227 106.5 247.5 Q105 268 106 288 Q109 341 114 393.5 Q119 446 127 498 Q134 543 141.5 587.5 Q149 632 157 677 Q158 683 158 689 Q158 695 159 702 Q159 704 158.5 705 Q158 706 158 708 Q145 705 138 696 Q128 685 120.5 673 Q113 661 107 647 Q105 643 101 633 Q95 616 78 619 Q70 621 65 626.5 Q60 632 61 640 Q63 650 65 656 Q76 677 88 695.5 Q100 714 119 730 Q127 737 136.5 741.5 Q146 746 158 748 Q189 753 206 728 Q213 717 216.5 706 Q220 695 223 684 Q227 663 226.5 642 Q226 621 225 600 Q224 584 223.5 569 Q223 554 222 538 Q220 515 218.5 492.5 Q217 470 215 447 Q213 422 211 397.5 Q209 373 207 347 Q205 320 204 293.5 Q203 267 201 241 L201 212 Q203 212 204 212.5 Q205 213 207 213 Q221 216 229.5 209 Q238 202 236 188 L240 192 Z " />
<glyph glyph-name="asciitilde" unicode="&#x7e;" horiz-adv-x="350" d="M295 244 Q301 235 296 226 Q290 214 276 212 Q271 211 265.5 211.5 Q260 212 255 212 Q240 211 226 214.5 Q212 218 198 224 Q167 238 139 220 Q131 215 123.5 210 Q116 205 108 200 Q106 198 104 195.5 Q102 193 100 191 Q87 178 70 182 Q62 184 56 191.5 Q50 199 48 208 Q47 219 52 233 Q62 256 84 273 Q99 285 115.5 292 Q132 299 152 299 Q168 299 181.5 293.5 Q195 288 208 280 Q216 275 223.5 270.5 Q231 266 239 262 Q249 257 258.5 254.5 Q268 252 279 254 Q290 256 296 246 L295 244 Z " />
<glyph glyph-name="grave" unicode="&#x60;" horiz-adv-x="227" d="M174 641 Q180 633 176 624 Q173 614 163 614 Q157 614 149 618 Q145 620 139 626 Q133 633 127 639.5 Q121 646 116 654 Q109 665 95 667 Q89 668 83 669 Q77 670 72 672 Q53 679 51 701 Q51 715 61 725 Q71 735 85 736 Q112 737 131 718 Q155 696 159 663 Q160 656 163.5 650.5 Q167 645 172 640 L174 641 Z " />
<glyph glyph-name="quotedblleft" unicode="&#x201c;" horiz-adv-x="224" d="M173 731 Q174 725 173.5 718.5 Q173 712 172 706 Q170 688 167 670.5 Q164 653 160 636 Q158 626 157 616 Q156 606 154 596 Q153 588 152.5 579 Q152 570 151 561 Q149 547 135 547 Q121 547 119 562 Q118 570 118 577 Q118 584 118 592 Q118 606 116 618.5 Q114 631 112 644 Q110 653 110 662 Q110 671 109 680 Q108 685 108 690.5 Q108 696 108 701 L111 701 L111 725 Q111 753 136 758 Q149 761 159.5 753.5 Q170 746 172 732 L173 731 Z M73 729 Q92 732 102 715 Q105 709 106.5 700.5 Q108 692 108 675 Q107 669 106 658.5 Q105 648 103 637 L100 607 L100 601 Q102 591 93 586 Q85 581 77 588 Q71 593 69 603 Q67 613 65.5 622.5 Q64 632 62 642 Q60 648 58.5 653.5 Q57 659 55 665 Q48 688 51 707 Q54 728 74 731 L73 729 Z " />
<glyph glyph-name="quotedblright" unicode="&#x201d;" horiz-adv-x="224" d="M173 728 Q174 722 173.5 715.5 Q173 709 172 703 Q170 685 167 667.5 Q164 650 160 633 Q158 623 157 613 Q156 603 154 593 Q153 585 152.5 576 Q152 567 151 558 Q149 544 135 544 Q121 544 119 559 Q118 567 118 574 Q118 581 118 589 Q118 603 116 615.5 Q114 628 112 641 Q110 650 110 659 Q110 668 109 677 Q108 682 108 687.5 Q108 693 108 698 L111 698 L111 722 Q111 750 136 755 Q149 758 159.5 750.5 Q170 743 172 729 L173 728 Z M73 726 Q92 729 102 712 Q105 706 106.5 697.5 Q108 689 108 672 Q107 666 106 655.5 Q105 645 103 634 L100 604 L100 598 Q102 588 93 583 Q85 578 77 585 Q71 590 69 600 Q67 610 65.5 619.5 Q64 629 62 639 Q60 645 58.5 650.5 Q57 656 55 662 Q48 685 51 704 Q54 725 74 728 L73 726 Z " />
<glyph glyph-name="quoteleft" unicode="&#x2018;" horiz-adv-x="159" d="M102 655 L99 625 L99 619 Q101 609 92 604 Q84 599 76 606 Q70 611 68 621 Q66 631 64.5 640.5 Q63 650 61 660 Q59 666 57.5 671.5 Q56 677 54 683 Q47 706 50 725 Q53 746 73 749 Q92 752 102 735 Q105 729 106.5 720.5 Q108 712 108 695 Q107 689 106 678.5 Q105 668 103 657 L102 655 Z " />
<glyph glyph-name="quoteright" unicode="&#x2019;" horiz-adv-x="159" d="M102 662 L99 632 L99 626 Q101 616 92 611 Q84 606 76 613 Q70 618 68 628 Q66 638 64.5 647.5 Q63 657 61 667 Q59 673 57.5 678.5 Q56 684 54 690 Q47 713 50 732 Q53 753 73 756 Q92 759 102 742 Q105 736 106.5 727.5 Q108 719 108 702 Q107 696 106 685.5 Q105 675 103 664 L102 662 Z " />
<glyph glyph-name="ll" unicode="&#xf6c0;" horiz-adv-x="404" d="M404 300 Q443 294 420 237 Q408 200 393 161 Q378 122 360.5 85 Q343 48 323 16 Q303 -16 281 -38 Q272 -47 261 -48 Q250 -49 239 -44 Q221 -35 210.5 -5.5 Q200 24 195 60 Q190 96 188 131.5 Q186 167 186 189 Q185 227 185 264 Q185 301 185 339 L185 342 Q183 336 181.5 330 Q180 324 178 318 Q170 282 162.5 246 Q155 210 148 174 Q142 144 137 114 Q132 84 127 54 Q122 28 111 7 Q104 -7 94 -12 Q83 -17 71 -14 Q59 -11 51 0 Q44 8 39.5 17.5 Q35 27 31 38 Q15 89 10 142 L1 280 Q-4 339 -1.5 402.5 Q1 466 7 528 Q9 547 11.5 573.5 Q14 600 19.5 627.5 Q25 655 34 679.5 Q43 704 58 719 Q70 730 82.5 730 Q95 730 105.5 723 Q116 716 123.5 703 Q131 690 132 675 Q134 637 130.5 578 Q127 519 121 455 Q115 391 108.5 331.5 Q102 272 98 234 Q92 163 92 93 L92 90 Q93 91 93 93 Q98 119 103 144 Q108 169 113 195 Q127 267 144.5 338 Q162 409 180 481 Q182 487 183.5 493 Q185 499 185 506 Q187 533 187.5 560 Q188 587 189 614 Q190 634 191.5 653 Q193 672 198 691 Q200 700 203.5 708 Q207 716 213 723 Q226 737 244 736.5 Q262 736 274 721 Q288 704 290 677 Q292 650 292 625 Q292 582 290 530.5 Q288 479 285.5 424.5 Q283 370 280 317 Q277 264 274 219 Q271 174 268.5 140 Q266 106 266 91 Q265 71 265 51 Q265 31 264 10 Q268 15 272 19.5 Q276 24 279 30 Q297 66 312.5 95.5 Q328 125 341.5 153 Q355 181 367 208.5 Q379 236 390 266 Q391 269 393.5 274.5 Q396 280 398 286 L404 300 L404 300 Z " />
<glyph glyph-name="underscore" unicode="&#x5f;" horiz-adv-x="325" d="M274 124 Q279 122 283 120 Q287 118 287 110 Q287 102 280.5 99 Q274 96 269 95 Q267 95 266 94.5 Q265 94 263 94 L256 94 L252 94 Q238 93 219.5 92 Q201 91 181 90 Q161 89 142 88.5 Q123 88 110 88 L80 88 L71 88 Q48 87 38 93.5 Q28 100 26 112 Q24 123 37.5 131.5 Q51 140 73 142 Q78 142 82.5 142.5 Q87 143 94 143 L95 143 Q104 143 130 140 L132 140 Q155 138 182.5 136 Q210 134 233 132 Q243 130 250 129.5 Q257 129 262 127 Q268 127 274 124 Z " />
<glyph glyph-name="NULL" d="" />
<glyph glyph-name="nonmarkingreturn" unicode="&#xd;" horiz-adv-x="227" d="" />
<glyph glyph-name="A" unicode="A" horiz-adv-x="473" d="M326 86 Q331 126 333.5 167 Q336 208 343 248 Q335 246 327.5 245 Q320 244 312 242 Q298 239 283.5 238 Q269 237 255 239 Q245 241 235.5 243.5 Q226 246 216 248 Q207 250 198 252 Q189 254 180 256 Q155 260 134 241 Q123 231 121 227 Q119 223 121 208 Q128 153 139.5 99.5 Q151 46 165 -8 Q173 -36 180 -63.5 Q187 -91 194 -120 Q196 -130 197.5 -139.5 Q199 -149 201 -159 Q203 -170 200 -178 Q196 -192 184.5 -197 Q173 -202 160 -196 Q148 -191 138 -179 Q116 -148 103 -107 Q94 -77 85.5 -47 Q77 -17 69 13 Q55 63 45 112.5 Q35 162 28 213 Q20 270 19 326.5 Q18 383 25 440 Q30 482 41 522 Q52 562 72 600 Q84 623 98.5 644 Q113 665 133 682 Q150 697 169.5 707.5 Q189 718 212 723 Q241 729 267.5 722 Q294 715 317 698 Q336 684 349.5 666 Q363 648 374 628 Q388 602 396 574.5 Q404 547 408 518 Q413 482 412.5 446 Q412 410 409 374 Q405 326 397 280 Q389 234 379 187 Q374 163 371 139 Q368 115 364 91 Q362 74 359 58.5 Q356 43 353 27 Q353 25 351 21 Q346 8 332 11 Q318 14 320 29 L326 86 Z M113 324 L113 309 Q120 311 126 313 Q132 315 139 317 Q162 322 184 317 Q206 312 226 302 Q238 296 250 289.5 Q262 283 275 278 Q288 273 300 273 Q307 273 313.5 274 Q320 275 327 277 Q332 278 337.5 279.5 Q343 281 348 283 L348 286 Q350 302 351 317.5 Q352 333 353 349 Q356 410 346 466 Q341 493 333.5 519 Q326 545 314 570 Q306 587 295 602.5 Q284 618 268 629 Q240 650 210 630 Q199 622 190.5 613 Q182 604 174 593 Q160 571 150 547.5 Q140 524 133 498 Q122 456 117 413.5 Q112 371 112 327 L113 324 Z " />
</font>
</svg>
