<?xml version="1.0" encoding="UTF-8"?>
<svg xmlns="http://www.w3.org/2000/svg" xmlns:xlink="http://www.w3.org/1999/xlink" version="1.2" >
<font id="Batters Alt">
<font-face  font-family="Batters Alt" units-per-em="1000" ascent="750" descent="-250" font-style="normal" font-weight="400" font-stretch="normal" cap-height="900" x-height="500" underline-position="-75" underline-thickness="50" />
<missing-glyph  horiz-adv-x="299" d="" />
<glyph glyph-name="NULL" d="" />
<glyph glyph-name="nonmarkingreturn" unicode="&#xd;" horiz-adv-x="299" d="" />
<glyph glyph-name="space" unicode="&#x20;" horiz-adv-x="204" d="" />
<glyph glyph-name="E" unicode="E" horiz-adv-x="462" d="M303 378 Q278 374 254 371 Q230 368 206 366 Q179 364 152 366 Q125 368 102 379 Q49 404 52 466 Q53 490 60.5 514 Q68 538 80 561 Q119 636 181 696.5 Q243 757 315 796 Q339 810 364.5 820.5 Q390 831 416 836 Q438 841 458.5 841.5 Q479 842 499 836 Q562 815 562 747 Q562 727 556 708 Q550 689 540 670 Q523 635 500 605 Q477 575 448 548 Q412 514 373 492 Q345 476 318 472 Q304 470 291 472 Q278 474 270 484 Q261 495 259 513 Q258 524 260 536.5 Q262 549 266 561 Q277 591 293.5 618.5 Q310 646 330 673 Q338 684 347.5 695 Q357 706 366 717 Q369 721 372.5 724 Q376 727 379 730 Q386 735 391 734 Q395 734 397 729 Q399 724 394 721 Q382 712 372.5 701 Q363 690 355 679 Q337 656 321.5 632.5 Q306 609 294 583 Q279 556 278 529 Q276 513 282 502 Q289 490 306 488 Q324 488 343 496 Q358 501 371.5 509 Q385 517 398 527 Q436 555 466 588.5 Q496 622 518 662 Q526 678 532.5 694 Q539 710 542 727 Q546 753 539.5 773.5 Q533 794 513 808 Q497 820 473 823 Q448 826 423 821 Q398 816 372 806 Q322 786 282 757 Q234 724 194 685 Q154 646 122 599 Q100 567 85 533 Q70 499 70 461 Q69 441 77.5 426.5 Q86 412 100 402 Q114 392 131.5 387.5 Q149 383 167 382 Q189 381 210 383 Q231 385 254 388 Q271 390 289 393 Q307 396 325 398 Q327 398 328.5 398.5 Q330 399 332 398 Q340 397 341 391.5 Q342 386 336 380 Q333 377 327 373 Q313 364 299.5 355 Q286 346 272 337 Q237 314 204.5 289.5 Q172 265 141 236 Q109 205 80 172 Q51 139 28 101 Q18 84 10 67.5 Q2 51 -4 34 Q-15 5 -17 -27 Q-19 -59 -1 -82 Q11 -96 26.5 -99 Q42 -102 58 -99 Q74 -96 89.5 -88 Q105 -80 116 -71 Q136 -56 159.5 -36 Q183 -16 206.5 5.5 Q230 27 251.5 47.5 Q273 68 289 83 Q292 86 294 87 Q300 91 305 88 Q311 84 306 78 Q304 76 302 73.5 Q300 71 298 69 Q289 60 280 51.5 Q271 43 262 34 Q236 11 212.5 -12 Q189 -35 165 -56 Q141 -77 116 -93 Q91 -109 63 -116 Q36 -122 14 -115.5 Q-8 -109 -20 -89 Q-33 -67 -34.5 -41.5 Q-36 -16 -30 10.5 Q-24 37 -13 61.5 Q-2 86 9 105 Q57 183 118.5 240 Q180 297 252 343 Q260 348 270.5 355.5 Q281 363 303 378 Z " />
<glyph glyph-name="F" unicode="F" horiz-adv-x="802" d="M1029 818 Q1025 813 1022.5 812 Q1020 811 1014 813 Q1006 815 1002 815 Q994 816 987 816.5 Q980 817 972 817 Q930 819 888.5 819.5 Q847 820 805 819 Q789 819 773.5 818.5 Q758 818 742 817 Q722 815 702.5 813.5 Q683 812 663 810 L661 810 Q642 766 620.5 723.5 Q599 681 577 639 Q542 571 511 503.5 Q480 436 450 367 Q449 365 449 364 Q449 363 448 361 Q454 363 459.5 363.5 Q465 364 470 365 Q505 372 541 378.5 Q577 385 613 392 Q621 393 627.5 394 Q634 395 642 396 Q654 398 662 394 Q664 393 665 392 Q666 391 668 390 Q672 385 667 378 Q665 376 662 375 Q659 374 657 376 Q652 380 646.5 379.5 Q641 379 636 378 Q616 375 597 371.5 Q578 368 558 364 Q530 359 503 353.5 Q476 348 448 343 Q447 343 439 341 Q438 340 438 339 Q438 338 437 337 Q397 243 358.5 150.5 Q320 58 282 -36 Q277 -47 273 -59 Q269 -71 264 -83 Q262 -91 262 -95 Q260 -105 252 -105 Q243 -105 243 -96 Q244 -93 244 -90.5 Q244 -88 245 -86 Q252 -68 258 -50 Q264 -32 272 -14 Q307 73 343 158 Q379 243 415 329 Q416 331 416 332.5 Q416 334 418 336 Q414 336 414 336 Q404 334 394 331.5 Q384 329 374 327 Q372 326 369.5 325 Q367 324 365 323 Q358 319 353 325 Q349 332 357 337 Q360 339 368 343 Q379 346 390 348.5 Q401 351 412 354 Q416 355 426 357 Q427 359 427.5 359.5 Q428 360 429 362 Q467 452 509 539 Q551 626 596 714 Q607 735 616.5 756 Q626 777 637 799 Q639 801 641 807 Q639 807 638 807.5 Q637 808 635 807 Q618 805 602 803 Q586 801 569 798 Q540 793 511 787.5 Q482 782 453 774 Q408 763 364.5 748.5 Q321 734 279 714 Q243 696 209.5 674.5 Q176 653 145 626 Q118 601 95.5 573.5 Q73 546 57 514 Q49 497 43 479 Q37 461 35 442 Q34 425 36 409 Q38 393 44 378 Q66 330 118 326 Q139 324 159 327.5 Q179 331 199 339 Q221 347 240.5 358 Q260 369 280 383 Q322 413 357.5 448 Q393 483 422 525 Q431 537 438.5 550.5 Q446 564 450 579 Q453 589 453 600 Q451 628 422 630 Q403 632 389 626 Q355 615 332 591 Q329 588 325 580 Q320 572 314 573 Q305 575 308 585 Q310 588 311.5 591.5 Q313 595 315 598 Q320 603 325 608 Q330 613 336 617 Q364 641 401 647 Q422 650 437 645 Q454 640 463 627.5 Q472 615 471 598 Q470 573 458 551 Q449 533 437.5 516.5 Q426 500 413 484 Q379 444 341 410 Q303 376 258 349 Q237 336 215 326.5 Q193 317 169 312 Q149 307 130 307 Q111 307 93 312 Q66 320 49 337.5 Q32 355 23 381 Q16 405 17 430 Q18 464 29.5 494.5 Q41 525 60 554 Q79 583 102 607.5 Q125 632 152 654 Q204 695 260.5 723.5 Q317 752 379 771 Q417 783 455.5 792.5 Q494 802 534 809 Q558 814 582.5 817.5 Q607 821 632 825 Q650 827 667.5 828.5 Q685 830 703 832 Q720 833 737 833.5 Q754 834 771 836 Q804 838 836.5 837.5 Q869 837 902 837 Q919 836 935.5 836 Q952 836 969 835 Q981 834 993 833.5 Q1005 833 1017 831 Q1027 831 1030 822 Q1030 819 1029 818 Z " />
<glyph glyph-name="G" unicode="G" horiz-adv-x="587" d="M358 76 Q361 74 363.5 71.5 Q366 69 369 67 Q374 65 377.5 62 Q381 59 385 57 Q389 53 390 51 Q393 46 388 41 Q383 36 377 39 Q375 41 374 41 Q366 46 359.5 51.5 Q353 57 345 62 L339 56 Q293 4 239 -37 Q208 -60 174.5 -76.5 Q141 -93 103 -103 Q86 -107 70 -109.5 Q54 -112 37 -111 Q13 -110 -7.5 -103 Q-28 -96 -44 -79 Q-88 -35 -63 30 Q-52 57 -33.5 78.5 Q-15 100 10 117 Q55 148 108 159 Q143 165 174 161 Q210 156 242 144 Q274 132 303 113 Q321 100 338 90 Q339 88 343 86 Q346 89 348.5 92 Q351 95 353 98 Q429 191 478 293 Q484 306 489.5 319 Q495 332 499 346 Q501 350 501 353.5 Q501 357 502 361 Q499 362 497 360.5 Q495 359 493 358 Q484 351 475 345 Q466 339 456 332 Q426 311 396 290 Q366 269 334 250 Q311 236 287.5 223.5 Q264 211 239 201 Q220 194 201.5 189.5 Q183 185 163 183 Q83 175 38 233 Q22 253 13.5 276.5 Q5 300 2 326 Q0 340 -0.5 355 Q-1 370 0 384 Q5 441 24.5 495 Q44 549 77 600 Q104 641 136.5 677.5 Q169 714 209 746 Q248 777 290.5 800.5 Q333 824 381 838 Q418 848 450 849 Q477 851 502 846.5 Q527 842 550 831 Q600 808 614 760 Q619 746 619 730.5 Q619 715 617 699 Q614 675 605 652.5 Q596 630 582 608 Q563 577 540 550 Q517 523 488 500 Q450 469 407 457 Q382 451 359 455 Q321 462 302 497 Q289 522 289 551 Q289 578 297 603.5 Q305 629 317 655 Q324 669 331.5 682 Q339 695 349 707 Q355 715 358 718 Q364 722 367 723 Q373 724 376 720 Q379 715 374 710 Q351 687 338 659.5 Q325 632 315 603 Q305 571 308 539 Q310 525 315 513 Q320 501 329 491 Q353 466 391 472 Q413 475 432.5 484 Q452 493 469 506 Q494 524 514 545.5 Q534 567 551 592 Q564 609 574 627 Q584 645 591 665 Q597 683 599.5 701 Q602 719 600 736 Q594 781 556 807 Q528 825 489 830 Q458 834 427.5 830 Q397 826 366 815 Q298 792 240 749 Q118 658 54 523 Q33 477 24 428 Q13 369 22 315 Q27 292 36 272 Q45 252 61 235 Q86 208 122 201 Q132 199 142 199 Q152 199 163 200 Q196 203 227 214.5 Q258 226 288 242 Q320 259 350.5 279 Q381 299 410 320 Q427 331 443 343 Q459 355 475 366 Q479 368 482 370 Q485 372 489 374 Q495 378 499 379 Q508 382 514 378 Q520 374 520 365 Q520 353 517 343 Q509 318 498.5 294.5 Q488 271 475 248 Q426 160 362 82 Q361 80 360 79.5 Q359 79 358 77 L358 76 Z M331 71 Q322 77 313.5 83 Q305 89 297 95 Q268 115 236 127.5 Q204 140 167 144 Q140 147 110 142 Q86 137 64 128 Q42 119 21 105 Q2 92 -13 76 Q-28 60 -39 40 Q-47 26 -51 11 Q-55 -4 -53 -20 Q-49 -47 -33.5 -64 Q-18 -81 8 -89 Q26 -94 45 -94 Q64 -94 84 -90 Q113 -85 140 -74 Q167 -63 193 -48 Q224 -29 251 -6.5 Q278 16 303 42 Q310 49 316.5 56 Q323 63 331 71 Z " />
<glyph glyph-name="H" unicode="H" horiz-adv-x="897" d="M587 295 Q541 283 496 276.5 Q451 270 406 266 Q403 261 400.5 257.5 Q398 254 395 249 Q363 198 328 149.5 Q293 101 253 54 Q229 27 203.5 2 Q178 -23 150 -46 Q127 -65 102 -80.5 Q77 -96 51 -107 Q35 -113 19.5 -117 Q4 -121 -13 -121 Q-73 -120 -91 -65 Q-98 -39 -92 -6 Q-86 27 -70.5 56.5 Q-55 86 -32 114 Q-2 150 34 177 Q70 204 112 224 Q141 238 169.5 246.5 Q198 255 227 261 Q250 266 273.5 269.5 Q297 273 320 275 Q337 277 355 278.5 Q373 280 391 282 Q397 282 400 288 Q427 333 451.5 377.5 Q476 422 496 469 Q520 520 537 574 Q543 595 548 616 Q553 637 557 658 Q560 682 561 705 Q562 728 558 751 Q554 770 546.5 786 Q539 802 526 814 Q505 833 472 838 Q443 842 413.5 837 Q384 832 354 821 Q212 771 111 654 Q94 634 81 613.5 Q68 593 59 570 Q43 531 49 498 Q57 448 109 448 Q144 447 179 469 Q210 489 234.5 514.5 Q259 540 279 571 Q282 574 284 578 Q286 582 288 586 Q289 587 291 591 Q296 596 302 594 Q306 593 306 586 L303 580 Q293 557 274 535 Q256 512 235.5 492.5 Q215 473 190 457 Q174 447 157.5 440 Q141 433 124 431 Q101 428 81.5 432.5 Q62 437 48 453 Q39 464 34.5 477.5 Q30 491 29 506 Q28 527 33.5 548 Q39 569 50 590 Q63 616 80 639.5 Q97 663 117 685 Q225 798 364 842 Q397 853 429 856 Q451 858 472 856.5 Q493 855 512 847 Q553 828 568 784 Q581 750 579 707 Q578 682 574 657 Q570 632 564 607 Q554 571 541 535 Q528 499 512 464 Q492 420 470 377.5 Q448 335 423 293 Q421 291 420.5 289 Q420 287 418 285 Q423 285 427 285.5 Q431 286 436 286 Q449 288 461.5 289.5 Q474 291 487 293 Q513 296 538.5 301 Q564 306 590 313 Q595 314 598 320 Q632 403 673.5 481.5 Q715 560 763 638 Q782 668 801 697 Q820 726 843 753 Q857 769 870.5 783.5 Q884 798 901 811 Q912 819 922.5 826 Q933 833 946 836 Q980 846 997 819 Q1003 809 1005 798 Q1007 787 1008 775 Q1010 739 999 701 Q988 656 967 614.5 Q946 573 919 533 Q878 474 828.5 428 Q779 382 717 347 Q692 333 666.5 322 Q641 311 615 303 Q607 300 605 294 Q592 263 581 232 Q570 201 559 169 Q550 142 541 115 Q532 88 524 62 Q517 42 511.5 21.5 Q506 1 500 -19 Q496 -32 493 -45 Q490 -58 487 -71 Q485 -77 488 -81 Q490 -84 489 -88.5 Q488 -93 484 -96 Q479 -98 475 -97.5 Q471 -97 469 -93 Q465 -86 469 -73 Q475 -43 484 -13 Q492 16 501.5 46 Q511 76 520 105 Q530 135 539.5 164.5 Q549 194 560 223 Q566 240 572 256 Q578 272 585 289 Q585 289 587 295 Z M386 264 Q366 262 347 260 Q328 258 309 256 Q286 254 264.5 250.5 Q243 247 220 242 Q191 236 162.5 226.5 Q134 217 106 203 Q69 184 37 159 Q5 134 -21 102 Q-41 76 -55.5 49.5 Q-70 23 -75 -8 Q-81 -42 -70 -66 Q-54 -100 -13 -103 Q14 -103 40 -93 Q84 -77 126 -44 Q154 -24 179 0 Q204 24 227 50 Q262 88 292.5 129 Q323 170 352 213 Q360 225 368.5 237.5 Q377 250 386 264 Z M616 321 Q620 322 624 324 Q732 359 820 443 Q858 478 887.5 517 Q917 556 941 601 Q960 635 972.5 669.5 Q985 704 989 741 Q991 754 990.5 766.5 Q990 779 987 791 Q985 797 983.5 802 Q982 807 978 812 Q969 823 953 820 Q937 817 921 806 Q906 796 893 784 Q880 772 869 758 Q849 736 832 712.5 Q815 689 799 664 Q752 593 712.5 520 Q673 447 638 371 Q633 359 627.5 347 Q622 335 616 321 Z " />
<glyph glyph-name="I" unicode="I" horiz-adv-x="490" d="M136 -48 Q140 -50 140 -50 Q157 -56 173.5 -62.5 Q190 -69 208 -74 Q209 -75 210 -75 L211 -75 Q220 -79 216 -86 Q212 -94 204 -92 Q200 -90 196 -89.5 Q192 -89 188 -87 Q173 -82 158.5 -76.5 Q144 -71 129 -65 Q127 -64 126 -64 Q125 -64 123 -63 Q119 -66 116 -69 Q113 -72 110 -75 Q97 -87 83.5 -97 Q70 -107 54 -114 Q36 -122 20 -121 Q-5 -119 -14.5 -104.5 Q-24 -90 -21 -73 Q-17 -52 2 -40 Q13 -32 25 -28.5 Q37 -25 50 -24 Q64 -24 76.5 -26.5 Q89 -29 101 -34 Q106 -36 110.5 -37.5 Q115 -39 120 -41 Q124 -37 126 -34 Q146 -11 163 13 Q180 37 197 61 Q231 109 262 157.5 Q293 206 323 256 Q351 302 378 347.5 Q405 393 431 441 Q450 476 467.5 511.5 Q485 547 501 583 Q510 604 517.5 625.5 Q525 647 530 670 Q534 689 535.5 707.5 Q537 726 534 745 Q531 764 523 780 Q515 796 499 807 Q478 821 452 823 Q430 825 408.5 821.5 Q387 818 366 810 Q227 759 149 636 Q129 606 122 572 Q120 560 120 547.5 Q120 535 124 524 Q134 492 172 486 Q189 484 206 487.5 Q223 491 240 499 Q257 507 271.5 518 Q286 529 300 542 Q319 560 335 580 Q351 600 363 623 Q367 631 370 640 Q373 649 374 658 Q375 664 374 670 Q371 685 354 690 Q344 692 335 690 Q326 688 316 685 Q283 674 258 652 Q250 645 244.5 638 Q239 631 236 621 Q234 614 226 614 Q219 614 219 621 Q218 623 220 628 Q223 638 229 645.5 Q235 653 243 660 Q282 696 328 706 Q347 710 364 706 Q392 697 393 669 Q394 658 391.5 648 Q389 638 384 627 Q376 610 366 595 Q356 580 345 566 Q328 546 309.5 528 Q291 510 269 496 Q238 476 205 470 Q173 464 147 474 Q127 482 116.5 497 Q106 512 103 532 Q100 551 103.5 569.5 Q107 588 114 606 Q125 631 139.5 653 Q154 675 171 695 Q210 740 256 772.5 Q302 805 358 825 Q379 833 400 837.5 Q421 842 443 841 Q493 841 524 811 Q537 798 543.5 782 Q550 766 553 748 Q555 732 553.5 716 Q552 700 550 683 Q544 644 529.5 606.5 Q515 569 497 532 Q469 474 437.5 417.5 Q406 361 372 305 Q339 249 305 194.5 Q271 140 235 86 Q214 55 192.5 24.5 Q171 -6 147 -35 Q145 -38 142 -41 Q139 -44 136 -48 Z M106 -56 Q100 -54 94.5 -52 Q89 -50 84 -48 Q65 -41 44 -42 Q22 -44 7 -57 Q-4 -68 -3 -81.5 Q-2 -95 10 -100 Q21 -105 36 -102 Q46 -100 53 -96 Q68 -88 81 -78 Q94 -68 106 -56 Z " />
<glyph glyph-name="J" unicode="J" horiz-adv-x="665" d="M95 119 Q92 116 84 110 Q70 97 56.5 84 Q43 71 32 55 Q21 38 12.5 20 Q4 2 -2 -16 Q-12 -45 -9 -69 Q-4 -120 46 -127 Q70 -130 97 -122 Q126 -115 154 -102.5 Q182 -90 208 -74 Q243 -53 274 -28 Q305 -3 334 26 Q375 65 410.5 107.5 Q446 150 478 196 Q519 253 552 311 Q585 369 613 431 Q624 454 632 476 Q640 498 648 521 Q653 537 657.5 552.5 Q662 568 665 584 Q673 616 676 648 Q679 680 675 711 Q673 732 666.5 751 Q660 770 648 786 Q632 809 609.5 821.5 Q587 834 558 839 Q521 845 483.5 839 Q446 833 408 818 Q373 805 341 786.5 Q309 768 278 745 Q183 675 113 578 Q96 553 82.5 527.5 Q69 502 59 476 Q48 448 43 420.5 Q38 393 42 367 Q45 350 52 336 Q76 289 136 291 Q162 291 186.5 299 Q211 307 236 319 Q262 332 286 349 Q310 366 333 386 Q367 415 396 448 Q425 481 448 519 Q468 550 478 581 Q482 592 484 602.5 Q486 613 484 624 Q482 642 471 652 Q460 662 442 663 Q427 663 410 658 Q372 645 337 619 Q317 605 299.5 589 Q282 573 268 554 Q266 551 264 548 Q262 545 260 542 Q253 532 251 519 Q249 510 241 508 Q231 506 233 516 Q233 530 240 541 Q245 548 249.5 554.5 Q254 561 259 568 Q313 634 391 669 Q405 674 418 677.5 Q431 681 444 681 Q491 679 501 640 Q505 620 501 598 Q495 572 483 547.5 Q471 523 455 500 Q420 447 376 403.5 Q332 360 278 325 Q228 291 174 278 Q130 269 96 277 Q45 290 28 342 Q19 371 24 408 Q29 446 43 483 Q57 520 79 555 Q108 603 145 644.5 Q182 686 226 724 Q264 756 304.5 782.5 Q345 809 390 829 Q416 840 441 847 Q466 854 492 857 Q526 862 556.5 858.5 Q587 855 614 841 Q668 814 686 752 Q692 731 694 709 Q696 687 695 664 Q693 647 691 629.5 Q689 612 685 595 Q682 578 677.5 560.5 Q673 543 668 526 Q656 490 641 454 Q626 418 609 383 Q535 232 423 99 Q390 59 354 23 Q318 -13 277 -45 Q245 -70 212 -90.5 Q179 -111 143 -125 Q126 -132 108.5 -137 Q91 -142 73 -144 Q56 -146 40.5 -145 Q25 -144 11 -136 Q-10 -125 -19 -106.5 Q-28 -88 -28 -63 Q-28 -43 -22.5 -24.5 Q-17 -6 -9 14 Q-3 28 4 40.5 Q11 53 20 66 Q34 85 51 101.5 Q68 118 87 132 Q93 136 97 138 Q100 139 106 139 Q113 139 115 132 Q115 125 110 120 Q104 114 95 119 Z " />
<glyph glyph-name="K" unicode="K" horiz-adv-x="867" d="M342 60 Q347 68 352.5 75.5 Q358 83 363 91 Q407 154 453 215 Q499 276 549 335 Q582 374 616.5 411.5 Q651 449 686 486 Q743 546 800 604 Q857 662 917 720 Q931 734 945.5 747 Q960 760 975 774 Q978 777 981.5 779.5 Q985 782 988 784 Q995 788 1000 781 Q1005 774 998 769 Q986 761 975.5 751 Q965 741 954 730 Q876 655 800.5 578 Q725 501 651 422 Q604 372 561 321 Q518 270 476 216 Q475 214 474 212.5 Q473 211 472 209 Q483 203 492 195 Q501 187 510 179 Q536 156 564.5 137 Q593 118 623 101 Q668 76 712 51.5 Q756 27 801 2 Q833 -16 863.5 -33.5 Q894 -51 925 -69 Q931 -72 937 -76 Q943 -80 949 -84 L956 -91 Q960 -97 956 -103 Q950 -107 944 -103 Q943 -103 943 -102 Q935 -94 926.5 -89 Q918 -84 909 -79 Q851 -47 794 -15 Q737 17 679 49 Q649 66 619 83 Q589 100 560 120 Q540 133 522 146.5 Q504 160 487 176 L482 181 Q477 186 472 189 Q467 192 460 193 Q456 189 453 184.5 Q450 180 446 175 Q414 133 384 90 Q354 47 325 3 Q319 -6 313 -14.5 Q307 -23 301 -31 Q299 -34 293 -40 Q286 -45 281 -40 Q275 -37 277 -30 Q279 -25 280 -21.5 Q281 -18 283 -14 Q295 10 307 34 Q319 58 331 83 Q373 168 413.5 251.5 Q454 335 494 420 Q514 462 532 504.5 Q550 547 566 592 Q575 616 582 641.5 Q589 667 594 693 Q597 709 598 724.5 Q599 740 597 756 Q589 811 540 837 Q509 854 469 857 Q426 860 386 850.5 Q346 841 308 824 Q175 763 101 636 Q86 610 76 581.5 Q66 553 62 522 Q58 493 60.5 465 Q63 437 75 409 Q81 394 90 381 Q99 368 113 358 Q127 347 142.5 342.5 Q158 338 175 337 Q227 334 270 366 Q343 420 366 509 Q370 524 370 543 Q370 565 362 584 Q354 603 334 617 Q310 635 281 632 Q238 627 208 599 L202 593 Q197 588 190 591 Q183 596 188 603 Q191 610 197 614 Q212 628 230.5 636.5 Q249 645 270 649 Q315 655 348 628 Q379 604 387 562 Q393 528 380 491 Q366 446 340 409.5 Q314 373 275 347 Q237 322 195 319 Q177 318 159.5 320.5 Q142 323 125 331 Q103 341 88 357 Q73 373 62 394 Q46 426 43 464 Q38 507 47 546 Q56 585 74 622 Q111 699 176 758 Q212 791 253 816 Q294 841 342 857 Q385 872 431 875 Q458 877 484 873.5 Q510 870 535 859 Q569 845 588 821 Q602 804 608 785.5 Q614 767 616 747 Q618 727 615 707 Q612 687 607 667 Q600 634 589 602.5 Q578 571 566 540 Q544 486 521 435 Q498 384 473 333 Q441 266 408.5 200 Q376 134 344 68 Q343 66 342 64.5 Q341 63 340 61 Q341 60 342 60 Z " />
<glyph glyph-name="L" unicode="L" horiz-adv-x="592" d="M678 20 Q685 24 689 17 Q693 10 686 6 Q657 -13 623.5 -25 Q590 -37 555 -42 Q495 -50 433.5 -40.5 Q372 -31 315 -7 Q298 1 281 9.5 Q264 18 247 25 Q246 24 244 20.5 Q242 17 240 16 Q220 -9 196 -23 Q187 -29 178 -33 Q169 -37 158 -38 Q153 -38 148.5 -38 Q144 -38 139 -36 Q133 -35 125 -29 Q108 -12 112 3 Q116 18 121 25 Q134 41 155 47.5 Q176 54 196 53 Q218 52 239 44 Q241 47 245.5 53 Q250 59 254 65 Q258 71 261 75.5 Q264 80 264 80 Q284 111 302 142.5 Q320 174 337 206 Q371 272 404.5 337 Q438 402 470 469 Q487 503 501.5 537.5 Q516 572 528 608 Q535 628 539.5 647.5 Q544 667 546 687 Q548 709 547 730 Q546 751 538 772 Q517 831 455 842 Q417 848 376 838 Q342 830 312 816.5 Q282 803 253 786 Q196 751 151 706 Q106 661 71 604 Q57 582 47 558.5 Q37 535 31 509 Q28 495 26.5 480 Q25 465 27 450 Q30 432 37.5 416.5 Q45 401 59 389 Q70 379 83 374 Q96 369 110 366 Q133 362 155.5 365.5 Q178 369 200 377 Q226 386 248.5 400.5 Q271 415 291 434 Q314 456 333 481 Q352 506 366 535 Q373 549 377.5 564 Q382 579 384 596 Q386 613 382 626 Q373 655 343 661 Q332 663 322 662 Q312 661 301 659 Q271 651 246 635 Q221 619 202 594 Q198 589 195.5 584.5 Q193 580 190 575 Q188 570 190 566 Q193 559 187 555 Q181 552 175 558 Q171 562 171 570 Q171 579 176 589 Q181 596 185.5 602.5 Q190 609 195 615 Q240 664 306 678 Q317 680 327.5 680.5 Q338 681 349 678 Q371 673 385 656 Q399 639 401 616 Q403 599 400 582.5 Q397 566 392 550 Q374 500 339 457 Q317 431 292 410 Q267 389 236 373 Q196 351 152 347 Q132 345 113 347.5 Q94 350 76 358 Q23 381 11 439 Q6 462 8.5 483.5 Q11 505 16 526 Q24 553 35.5 577.5 Q47 602 62 625 Q153 763 298 831 Q340 851 386 858 Q405 862 423.5 862.5 Q442 863 462 858 Q533 843 556 773 Q562 756 564 740 Q566 724 565 707 Q565 674 557 642.5 Q549 611 538 580 Q524 542 507.5 506 Q491 470 474 435 Q437 360 400 287 Q363 214 323 142 Q314 126 304 110 Q294 94 283 76 Q280 71 274.5 62 Q269 53 261 43 Q260 41 257 38 Q273 31 288 24 Q303 17 318 9 Q347 -4 377 -12 Q407 -20 438 -25 Q500 -35 562 -25 Q624 -15 678 20 Z M199 1 Q216 16 228 31 Q213 35 196 37 Q179 38 160.5 32.5 Q142 27 132 12 Q130 9 128.5 2.5 Q127 -4 132 -12 Q136 -16 143 -19 Q158 -24 173 -15.5 Q188 -7 199 1 Z " />
<glyph glyph-name="M" unicode="M" horiz-adv-x="1075" d="M583 265 Q591 273 594 277 Q621 309 649 344 Q684 387 719.5 429 Q755 471 793 512 Q831 553 869.5 591 Q908 629 950 664 Q982 692 1016 717 Q1050 742 1086 763 Q1100 771 1114 778 Q1128 785 1143 790 Q1160 795 1174 794 Q1195 791 1198 769 Q1199 762 1197.5 755.5 Q1196 749 1194 742 Q1189 725 1181 709.5 Q1173 694 1164 678 Q1146 647 1128 616.5 Q1110 586 1091 556 Q1053 493 1018.5 431 Q984 369 952 304 Q929 257 909 210 Q889 163 869 115 Q852 76 836.5 36.5 Q821 -3 807 -43 L792 -91 Q791 -96 792 -100 Q797 -110 786 -115 Q782 -117 778 -116 Q774 -115 772 -110 Q771 -100 774 -90 Q780 -66 788.5 -43 Q797 -20 805 3 Q830 66 855 128 Q880 190 908 252 Q939 319 974 384.5 Q1009 450 1047 514 Q1069 552 1091.5 589 Q1114 626 1136 664 Q1157 697 1172 733 Q1176 741 1179 755 Q1182 769 1177 773 Q1172 777 1161 776 Q1153 775 1145.5 772.5 Q1138 770 1130 767 Q1112 759 1095 749 Q1078 739 1061 728 Q1022 702 986 672.5 Q950 643 915 611 Q854 554 799 494 Q744 434 692 370 Q672 346 653 322 Q634 298 614 275 Q610 270 605.5 265 Q601 260 596 255 Q592 249 585 246 Q577 241 570.5 244 Q564 247 563 255 Q563 260 563 265 Q563 270 565 275 Q570 300 579 324.5 Q588 349 598 373 Q618 424 641.5 472.5 Q665 521 689 570 Q701 593 712.5 617 Q724 641 735 665 Q745 684 746 701 Q746 702 746.5 702.5 Q747 703 747 705 Q747 710 741 709 Q732 707 728 704 Q710 694 696 683 Q675 666 655.5 646.5 Q636 627 618 607 Q585 569 555.5 529.5 Q526 490 498 448 Q454 383 415.5 316 Q377 249 342 180 Q314 126 288.5 72 Q263 18 238 -36 Q236 -42 233 -47.5 Q230 -53 227 -59 Q225 -63 223 -65 Q219 -71 212 -69 Q206 -67 207 -60 Q208 -56 208.5 -52 Q209 -48 211 -43 Q220 -11 232 19.5 Q244 50 256 81 Q282 144 309.5 204.5 Q337 265 366 326 Q392 382 418 436.5 Q444 491 468 548 Q481 578 492.5 607.5 Q504 637 514 668 Q521 689 526.5 710 Q532 731 534 752 Q536 766 535.5 779.5 Q535 793 530 806 Q518 839 483 845 Q466 848 449 846 Q432 844 415 839 Q389 831 364 819 Q339 807 316 792 Q263 760 218 718.5 Q173 677 135 628 Q112 598 92 566.5 Q72 535 58 501 Q49 478 43 455 Q37 432 35 408 Q35 397 36 386.5 Q37 376 40 365 Q48 337 69 323.5 Q90 310 119 311 Q167 312 210 342 Q294 398 331 488 Q336 499 338.5 511 Q341 523 342 535 Q342 552 337 563 Q324 590 289 584 Q275 581 262.5 574.5 Q250 568 238 560 Q229 553 221 545.5 Q213 538 205 528 Q201 523 198 517 Q195 511 193 503 Q193 494 184 494 Q174 494 176 503 Q177 508 178 512 Q179 516 181 520 Q189 539 209 557 Q242 588 281 600 Q319 611 343 587 Q358 572 360 547 Q361 531 357.5 516 Q354 501 348 485 Q336 454 317.5 427 Q299 400 276 375 Q260 358 242.5 344 Q225 330 205 319 Q188 309 169.5 302.5 Q151 296 131 294 Q108 292 87.5 296 Q67 300 50 314 Q26 335 20 371 Q17 387 17.5 403.5 Q18 420 21 437 Q27 470 40 501.5 Q53 533 71 563 Q96 607 127.5 646 Q159 685 196 720 Q227 749 260.5 775 Q294 801 331 821 Q378 847 424 859 Q455 867 484 864 Q537 856 549 807 Q554 790 553.5 772.5 Q553 755 550 737 Q545 704 534.5 671.5 Q524 639 511 607 Q488 551 463.5 496 Q439 441 413 386 Q387 328 360 270.5 Q333 213 306 155 Q303 147 300 140 Q297 133 295 125 Q296 127 297 129 Q298 131 299 133 Q320 176 342.5 218.5 Q365 261 388 303 Q426 369 467.5 433 Q509 497 557 559 Q582 592 609 622.5 Q636 653 668 681 Q687 699 710 714 Q718 719 725 722 Q732 725 740 727 Q754 729 759.5 722 Q765 715 765 706 Q763 691 759 678 Q753 662 746.5 647 Q740 632 732 616 Q713 578 694.5 540.5 Q676 503 657 465 Q640 428 624 391 Q608 354 595 316 Q591 305 588 294 Q585 283 582 272 Q581 270 581 267.5 Q581 265 583 265 Z " />
<glyph glyph-name="N" unicode="N" horiz-adv-x="922" d="M344 96 L350 105 Q394 175 441 242.5 Q488 310 539 376 Q590 441 643.5 502 Q697 563 756 621 Q785 650 814 676.5 Q843 703 875 727 Q890 739 906 750 Q922 761 939 769 Q948 774 957.5 777 Q967 780 977 781 Q994 783 1003.5 774 Q1013 765 1013 750 Q1014 735 1010 721 Q1006 707 1001 693 Q992 667 980.5 643 Q969 619 956 595 Q935 554 913.5 514 Q892 474 871 433 Q838 369 807 305 Q776 241 749 174 Q732 133 717 92 Q702 51 688 8 Q686 4 685 0.5 Q684 -3 683 -8 Q682 -12 682 -20 Q682 -29 675 -31 Q666 -33 664 -24 Q663 -21 663 -15 Q665 -1 669 11 Q673 23 678 36 Q710 131 749.5 222 Q789 313 835 401 Q861 451 886.5 499.5 Q912 548 938 597 Q950 622 962 646 Q974 670 983 696 Q987 706 989.5 715.5 Q992 725 995 735 Q996 744 995 751 Q995 763 982 763 Q971 763 958 758 Q943 752 930 744 Q917 736 904 727 Q880 710 858 691 Q836 672 814 652 Q736 580 666.5 501.5 Q597 423 532 338 Q472 258 417 175.5 Q362 93 311 6 Q306 -2 300.5 -11 Q295 -20 290 -28 Q288 -31 284 -35 Q279 -40 274 -36 Q269 -34 269 -27 Q270 -25 270.5 -22 Q271 -19 272 -17 Q286 12 299 42.5 Q312 73 326 102 Q368 192 413 280 Q458 368 503 457 Q522 493 539.5 529.5 Q557 566 574 604 Q585 631 595 658 Q605 685 612 714 Q615 728 617 742.5 Q619 757 618 772 Q618 780 617 787.5 Q616 795 614 803 Q605 832 575 844 Q567 847 559.5 849 Q552 851 544 851 Q519 853 495.5 849 Q472 845 449 837 Q419 827 391 813.5 Q363 800 337 783 Q292 756 253 723.5 Q214 691 179 652 Q151 621 128 587 Q105 553 87 515 Q68 474 61 433 Q58 412 58.5 391 Q59 370 66 350 Q75 321 96 305 Q117 289 146 287 Q174 285 199.5 292 Q225 299 248 313 Q309 351 347 416 Q369 451 378 492 Q380 505 381 517.5 Q382 530 378 543 Q373 560 363 571.5 Q353 583 335 587 Q324 589 314 588 Q304 587 294 584 Q268 576 247 562.5 Q226 549 208 529 Q199 520 200 512 Q200 505 193 505 Q185 503 184 509 Q182 513 182 520 Q183 525 185.5 528.5 Q188 532 190 536 Q203 553 222 566 Q239 579 257 588.5 Q275 598 296 603 Q308 606 320 606.5 Q332 607 344 603 Q385 591 396 547 Q400 532 399 517.5 Q398 503 395 489 Q390 466 381.5 445 Q373 424 361 404 Q323 343 267 305 Q228 277 185 270 Q147 264 115 275 Q88 285 71.5 304 Q55 323 47 349 Q37 384 42 425 Q47 463 60.5 498 Q74 533 94 566 Q117 606 146 641 Q175 676 209 708 Q292 786 393 834 Q416 845 439 852.5 Q462 860 486 865 Q500 867 512.5 868.5 Q525 870 539 870 Q549 869 558.5 867.5 Q568 866 578 862 Q625 845 634 796 Q639 767 633 733 Q628 701 618.5 671.5 Q609 642 597 613 Q581 575 563 537.5 Q545 500 526 462 Q488 386 450 311 Q412 236 374 160 Q366 146 359.5 131.5 Q353 117 346 103 Q344 99 344 97 L344 96 Z " />
<glyph glyph-name="O" unicode="O" horiz-adv-x="662" d="M360 828 Q356 827 353.5 827 Q351 827 349 825 Q341 821 334 817 Q327 813 319 808 Q281 783 251 756 Q221 729 196 697 Q162 657 130 595.5 Q98 534 73.5 463 Q49 392 34 318.5 Q19 245 20.5 181 Q22 117 42 69 Q62 21 106 2 Q146 -15 195 -7 Q234 -2 272 16 Q310 34 347 61 Q397 97 439.5 144.5 Q482 192 520 250 Q589 356 634 484 Q641 503 646.5 522 Q652 541 657 561 Q664 590 667.5 618.5 Q671 647 670 676 Q669 696 666.5 714.5 Q664 733 657 750 Q649 771 636 785 Q623 799 607 808 Q587 819 566 821.5 Q545 824 523 820 Q495 815 468 802 Q441 789 415 770 Q371 738 334 696 Q297 654 267 599 Q238 549 222 493 Q214 464 211 436 Q208 408 211 379 Q216 323 248 298 Q274 277 310 286 Q346 295 378 327 Q455 400 493 518 Q503 548 505 579 Q507 616 492 632.5 Q477 649 460 651 Q444 654 426 647 Q389 634 359 598 Q353 590 350 581 Q347 571 340 573 Q334 577 336 586 Q336 589 340 597 Q344 606 351 614 Q395 666 447 672 Q469 675 487 663 Q522 640 520 582 Q520 548 507 511 Q469 395 393 317 Q374 298 354.5 285 Q335 272 313 266 Q276 255 247 273 Q227 285 215 306 Q203 327 198 356 Q193 379 193.5 403.5 Q194 428 199 453 Q207 501 222.5 542.5 Q238 584 261 622 Q348 765 468 823 Q507 843 547 844 Q567 844 586 839 Q605 834 622 823 Q672 790 683 710 Q689 668 683 624 Q682 615 681 606 Q680 597 678 587 Q673 561 666 536 Q659 511 651 486 Q621 400 581 323.5 Q541 247 490 180 Q451 129 407.5 88 Q364 47 315 18 Q283 -2 250 -14 Q217 -26 182 -30 Q165 -32 147.5 -30.5 Q130 -29 113 -24 Q31 2 8 114 Q2 138 0.5 166 Q-1 194 0.5 222.5 Q2 251 6 278.5 Q10 306 15 329 Q41 447 85 545.5 Q129 644 199 728 Q230 763 262.5 790 Q295 817 330 837 Q338 842 345.5 845 Q353 848 361 849 Q366 849 371 846 Q376 843 376.5 835 Q377 827 374 820 Q369 813 364 814 Q359 817 360 824 L360 828 Z " />
<glyph glyph-name="P" unicode="P" horiz-adv-x="835" d="M573 250 Q580 243 586 237.5 Q592 232 600 227 Q604 225 607 225 Q615 227 617 219 Q619 213 611 208 Q603 205 596 208.5 Q589 212 584 216 Q578 221 572.5 226 Q567 231 561 236 Q559 237 558.5 238 Q558 239 556 240 L508 216 Q478 202 447 192 Q416 182 384 176 Q370 173 355.5 171.5 Q341 170 327 169 Q311 168 296 169.5 Q281 171 265 173 Q262 170 261 166 Q236 113 211.5 61 Q187 9 163 -45 Q161 -49 159 -52.5 Q157 -56 155 -61 Q153 -64 151 -70 Q149 -75 144.5 -77 Q140 -79 135 -77 Q125 -73 132 -64 Q139 -55 143 -45.5 Q147 -36 152 -25 L245 173 Q245 174 247 178 Q241 180 239 181 Q210 191 189 209 Q164 232 157 262 Q150 292 162 325 Q175 361 202 386 Q244 426 296 438 Q325 445 357 437 Q359 436 361 436 Q363 436 365 435 L366 435 Q397 499 426 560 Q455 621 482 684 Q493 711 504 738 Q515 765 523 794 Q527 807 529.5 820 Q532 833 532 847 Q533 853 532.5 859.5 Q532 866 531 872 Q525 906 491 912 Q477 915 464.5 914 Q452 913 438 910 Q416 905 395.5 897.5 Q375 890 355 879 Q292 845 239 800.5 Q186 756 143 699 Q126 676 112 650.5 Q98 625 90 597 Q82 571 82 547 Q82 527 88 509 Q103 472 143 470 Q157 468 170 471 Q183 474 197 479 Q281 513 325 597 Q335 616 337 639 Q338 656 329 672 Q322 683 312 686.5 Q302 690 290 688 Q259 682 234 659 Q231 657 229 653.5 Q227 650 225 647 Q220 639 214 642 Q211 643 209 646 Q207 649 209 653 Q209 656 213 662 Q216 666 219 669.5 Q222 673 226 676 Q252 699 284 705 Q317 712 334.5 694 Q352 676 354 652 Q356 636 352.5 621 Q349 606 342 592 Q331 566 314 545.5 Q297 525 276 507 Q237 472 192 458 Q167 451 140 452 Q112 454 93 470.5 Q74 487 68 516 Q64 533 64.5 549 Q65 565 68 582 Q74 611 86.5 638 Q99 665 116 691 Q136 721 159.5 747 Q183 773 209 797 Q272 855 350 896 Q370 907 391.5 915 Q413 923 436 928 Q450 931 465 932 Q480 933 494 930 Q517 925 531.5 909 Q546 893 549 870 Q551 854 549.5 838.5 Q548 823 544 808 Q537 779 527 750.5 Q517 722 505 694 Q488 654 470 614.5 Q452 575 434 535 Q433 533 432 531 Q431 529 431 527 Q435 531 436 533 Q459 565 482 596 Q505 627 531 656 Q558 686 587.5 713 Q617 740 651 763 Q692 793 736 807 Q748 811 760.5 813.5 Q773 816 786 816 Q832 816 859.5 791.5 Q887 767 896 728 Q901 708 901 688 Q901 668 897 648 Q890 616 878 586.5 Q866 557 849 528 Q796 437 716 360 Q684 328 648 300.5 Q612 273 573 250 Z M559 263 Q611 292 656 328.5 Q701 365 740 409 Q769 441 794.5 476 Q820 511 840 549 Q854 575 865 602.5 Q876 630 881 660 Q883 677 883.5 692.5 Q884 708 879 725 Q870 760 846.5 779 Q823 798 786 798 Q759 797 735 788 Q712 780 690.5 767.5 Q669 755 649 740 Q616 717 587 689 Q558 661 532 630 Q506 599 482.5 567 Q459 535 436 502 Q425 485 414 467.5 Q403 450 393 431 L390 425 Q398 420 405.5 414.5 Q413 409 420 404 Q434 394 446 382 Q458 370 469 358 Q489 336 510 314.5 Q531 293 551 271 L559 263 Z M272 191 Q274 190 275 190 Q300 186 327 187 Q342 188 357.5 189.5 Q373 191 388 195 Q471 213 543 254 Q524 271 505 291.5 Q486 312 468 331 Q461 339 455 346 Q449 353 441 361 Q429 373 416.5 384 Q404 395 389 404 Q386 406 382.5 407.5 Q379 409 375 411 Q349 355 323.5 300.5 Q298 246 272 191 Z M254 195 Q280 251 306 306 Q332 361 358 417 Q345 422 329.5 423 Q314 424 299 421 Q273 415 251 401.5 Q229 388 209 368 Q186 344 178 317 Q164 278 183 244 Q196 224 214 213 Q232 202 254 195 Z " />
<glyph glyph-name="Q" unicode="Q" horiz-adv-x="707" d="M358 24 Q428 -5 498.5 -22 Q569 -39 644 -45 Q650 -47 650.5 -50 Q651 -53 648 -56 Q645 -59 640.5 -61.5 Q636 -64 632 -63 Q548 -54 465 -33 Q440 -26 416 -17.5 Q392 -9 369 0 Q363 2 357 4 Q351 6 346 9 Q338 12 332 7 Q279 -25 223 -47 Q194 -58 165.5 -65 Q137 -72 106 -74 Q82 -76 58 -73 Q34 -70 11 -60 Q-4 -54 -16 -46 Q-28 -38 -38 -25 Q-66 14 -49 55 Q-38 82 -9 96 Q5 103 20 105.5 Q35 108 51 109 Q101 109 149 94 Q181 84 211.5 74 Q242 64 273 53 Q287 48 301.5 43 Q316 38 330 33 Q337 31 341 35 Q435 98 508 188 Q612 316 662 474 Q678 524 682 571 Q686 609 683.5 645.5 Q681 682 668 718 Q655 754 633 782 Q611 810 578 829 Q538 851 492 856 Q453 859 416 850 Q379 841 344 823 Q315 809 290 790 Q265 771 242 748 Q198 705 165.5 655.5 Q133 606 108 550 Q96 521 86.5 492 Q77 463 71 432 Q62 390 65 347 Q67 328 71 310.5 Q75 293 83 276 Q118 210 194 207 Q259 206 317 246 Q414 315 450 429 Q455 443 457 457.5 Q459 472 457 487 Q455 505 447.5 519.5 Q440 534 427 547 Q409 564 381 564.5 Q353 565 323 554 Q293 543 265.5 523 Q238 503 222 479 Q222 471 214 469 Q207 469 204 476 Q201 483 206 491 Q209 496 212.5 500.5 Q216 505 220 509 Q246 536 281 554.5 Q316 573 353 580 Q400 588 433 565 Q466 542 474 498 Q478 477 474.5 456.5 Q471 436 465 416 Q454 384 437.5 355.5 Q421 327 400 301 Q385 282 368.5 265.5 Q352 249 332 235 Q279 196 217 190 Q185 187 156 194.5 Q127 202 102 223 Q84 238 73 257.5 Q62 277 55 299 Q49 319 47.5 339.5 Q46 360 47 381 Q49 422 59 460.5 Q69 499 84 537 Q104 587 130 632 Q156 677 190 718 Q217 751 248.5 779 Q280 807 317 829 Q343 845 371.5 855.5 Q400 866 431 871 Q482 879 528 868 Q574 857 615 825 Q641 804 658.5 777 Q676 750 687 718 Q692 702 695 686 Q698 670 700 653 Q704 614 700.5 576 Q697 538 688 500 Q672 438 646.5 381.5 Q621 325 588 271 Q552 211 509.5 160.5 Q467 110 413 65 Q401 55 385.5 44.5 Q370 34 358 24 Z M316 19 Q290 30 264 38 Q238 46 212 55 Q187 63 162.5 71 Q138 79 112 84 Q92 89 72 90.5 Q52 92 32 89 Q21 87 11 84 Q1 81 -9 75 Q-35 59 -37.5 33.5 Q-40 8 -25 -12 Q-19 -21 -11 -27.5 Q-3 -34 7 -39 Q23 -47 40 -51 Q57 -55 74 -56 Q97 -58 120 -54.5 Q143 -51 166 -46 Q244 -25 316 19 Z " />
<glyph glyph-name="R" unicode="R" horiz-adv-x="950" d="M504 443 Q508 448 511 453.5 Q514 459 518 465 Q537 494 557 523 Q577 552 599 581 Q619 608 640.5 633.5 Q662 659 685 683 Q714 713 744 740 Q774 767 809 789 Q826 800 844.5 809 Q863 818 883 823 Q904 829 924 829 Q938 828 951.5 824 Q965 820 977 809 Q996 793 1004 767 Q1008 755 1009 743 Q1010 731 1010 718 Q1008 689 1000.5 661.5 Q993 634 981 608 Q968 579 952 553.5 Q936 528 917 504 Q839 408 733 347 Q676 312 613 297 Q599 293 585 290.5 Q571 288 557 286 Q549 284 541.5 283 Q534 282 526 281 Q525 281 525 280.5 Q525 280 524 280 Q526 278 527 276 Q528 274 530 272 Q547 255 564 237 Q581 219 599 202 Q626 176 652.5 151 Q679 126 707 100 Q754 58 804 15 Q821 1 838.5 -13.5 Q856 -28 873 -43 L900 -64 L906 -67 Q915 -70 913 -79 Q912 -83 908.5 -84.5 Q905 -86 901 -84 Q896 -82 892.5 -79 Q889 -76 885 -73 Q862 -54 839 -35.5 Q816 -17 793 2 Q771 21 750 39 Q729 57 708 76 Q654 126 602 176 Q585 192 569.5 207.5 Q554 223 537 239 Q530 247 524 253.5 Q518 260 511 268 Q507 274 506 277 Q504 282 505.5 287.5 Q507 293 512 295 Q517 297 521.5 298 Q526 299 531 300 Q650 312 749 378 Q791 405 827.5 437 Q864 469 896 507 Q921 537 941 570 Q961 603 975 641 Q982 658 986 675 Q990 692 992 711 Q994 726 992 741.5 Q990 757 984 772 Q968 805 936 809 Q921 812 907.5 810 Q894 808 880 803 Q858 796 838.5 785 Q819 774 800 761 Q779 746 759 728.5 Q739 711 721 693 Q692 665 666.5 635.5 Q641 606 617 575 Q575 521 538.5 463.5 Q502 406 468 346 Q459 329 451.5 312 Q444 295 436 278 Q414 233 393 189.5 Q372 146 351 101 Q337 72 324 43 Q311 14 297 -15 Q295 -19 294 -20 Q289 -26 283 -23 Q276 -20 278 -12 Q279 -10 280 -7 Q281 -4 282 -2 Q308 59 334.5 118 Q361 177 390 236 Q402 260 415 283.5 Q428 307 439 331 Q447 345 452.5 359.5 Q458 374 464 388 Q482 434 497 480.5 Q512 527 523 575 Q528 598 532 620.5 Q536 643 539 666 Q540 676 540 686 Q540 696 540 706 Q540 716 540 726 Q540 736 538 746 Q532 799 502 839 Q488 858 470.5 869 Q453 880 431 885 Q411 891 387 889 Q344 886 307 868 Q264 848 225 812 Q164 756 125 680 Q109 648 97.5 614.5 Q86 581 81 546 Q79 533 78.5 521 Q78 509 77 496 Q77 485 77 475 Q77 465 79 454 Q82 425 91 398.5 Q100 372 117 347 Q129 330 143.5 318.5 Q158 307 178 301 Q195 296 212 297.5 Q229 299 246 304 Q281 317 309 346 Q371 412 389 509 Q391 523 391.5 536.5 Q392 550 390 564 Q388 581 381.5 596 Q375 611 362 623 Q341 642 313 641 Q295 640 277 630 Q264 622 252.5 613 Q241 604 233 591 Q227 585 230 579 Q231 575 226 571 Q220 569 216 573 Q210 576 212 587 Q213 595 220 605 Q250 644 294 656 Q327 665 355 648.5 Q383 632 397 603 Q402 593 404 583 Q406 573 408 562 Q411 532 406 503.5 Q401 475 391 448 Q380 416 363.5 387.5 Q347 359 324 335 Q307 318 288 305 Q269 292 246 285 Q228 279 208 279 Q160 279 121 316 Q105 332 94 351 Q83 370 75 391 Q67 416 64 438 Q62 449 61 460 Q60 471 60 482 Q58 542 75 599 Q97 681 147 750 Q169 781 194.5 807.5 Q220 834 251 856 Q272 872 296 883.5 Q320 895 346 901 Q355 903 363.5 904 Q372 905 381 906 Q401 908 419 905.5 Q437 903 456 896 Q482 885 501 866 Q520 847 533 821 Q546 795 552 765 Q558 738 558 710 Q558 685 555.5 660.5 Q553 636 548 611 Q540 569 529 528 Q518 487 504 446 Q504 444 503 443 L504 443 Z " />
<glyph glyph-name="S" unicode="S" horiz-adv-x="575" d="M104 -82 Q84 -82 64.5 -79 Q45 -76 26 -68 Q7 -60 -7.5 -47 Q-22 -34 -30 -14 Q-38 5 -36 28 Q-34 48 -26.5 65 Q-19 82 -7 98 Q10 121 31 138 Q52 155 77 169 Q113 190 150 208.5 Q187 227 226 242 Q245 250 263.5 256.5 Q282 263 302 267 Q312 269 321 270 Q330 271 340 269 Q348 267 354 262.5 Q360 258 362 249 Q364 240 359 232 Q355 223 347 228 Q341 231 343 239 Q347 248 338 251 Q333 252 323 252 Q292 249 264 238.5 Q236 228 208 216 Q142 188 78 150 Q56 136 36.5 119.5 Q17 103 2 81 Q-13 60 -17 37 Q-22 14 -13.5 -7 Q-5 -28 15 -42 Q27 -50 39.5 -54.5 Q52 -59 66 -61 Q79 -64 92 -64.5 Q105 -65 119 -64 Q153 -63 188 -52 Q268 -31 333 18 Q360 38 382 63 Q404 88 419 118 Q433 147 438 180 Q441 205 436.5 228 Q432 251 422 274 Q413 294 402 311 Q391 328 379 344 Q362 367 344 387.5 Q326 408 307 428 Q287 451 268.5 473 Q250 495 233 521 Q222 538 214.5 555 Q207 572 202 592 Q198 604 197 616.5 Q196 629 197 642 Q201 685 228 724 Q297 821 409 854 Q421 858 433.5 859.5 Q446 861 458 862 Q478 863 497 860.5 Q516 858 535 850 Q597 824 609 758 Q613 737 610 712 Q606 673 591 639 Q576 605 554 573 Q516 519 464 480 Q450 471 436 464 Q422 457 406 452 Q381 445 361 452 Q347 457 339 467.5 Q331 478 328 492 Q324 506 325 520 Q326 534 329 548 Q336 576 347.5 601 Q359 626 373 651 Q381 665 390.5 678.5 Q400 692 411 704 Q414 708 417.5 710.5 Q421 713 425 716 Q429 719 433 718 Q437 717 439 712 Q441 706 436 702 Q427 696 420 687.5 Q413 679 406 669 Q388 643 374 616 Q360 589 350 559 Q347 548 345 537.5 Q343 527 343 516 Q343 506 344.5 496.5 Q346 487 353 478 Q362 468 378 466 Q392 465 404.5 469.5 Q417 474 430 480 Q450 491 467 504.5 Q484 518 499 534 Q525 562 545.5 593 Q566 624 580 659 Q589 683 592 708 Q598 749 583 783 Q575 803 559.5 815 Q544 827 524 835 Q513 840 502.5 841.5 Q492 843 481 844 Q448 846 417.5 838 Q387 830 358 815 Q323 796 294 771 Q265 746 243 714 Q233 700 226 684.5 Q219 669 216 652 Q212 620 221 587 Q227 567 237 549.5 Q247 532 259 515 Q271 497 285 481 Q299 465 313 448 Q333 425 353 403 Q373 381 391 357 Q406 337 419.5 316 Q433 295 442 272 Q452 248 455 222 Q458 201 455 182 Q452 145 436.5 114 Q421 83 398 55 Q372 25 341 2 Q310 -21 275 -38 Q219 -66 163 -76 Q153 -78 143.5 -79 Q134 -80 124 -81 Q119 -82 114 -82 Q109 -82 104 -82 Z " />
<glyph glyph-name="T" unicode="T" horiz-adv-x="652" d="M444 187 Q436 175 433 171 Q430 167 428.5 164.5 Q427 162 424.5 158.5 Q422 155 415 144 Q395 116 372.5 90.5 Q350 65 325 42 Q292 11 257 -9 Q232 -23 208 -26 Q183 -30 167 -18 Q151 -6 147 17 Q145 33 148.5 48 Q152 63 160 78 Q170 98 185 114.5 Q200 131 218 145 Q262 177 315 183 Q338 186 361.5 186.5 Q385 187 408 187 Q419 187 421.5 188.5 Q424 190 430 200 Q473 265 508 337 Q540 400 569 463.5 Q598 527 624 592 Q641 633 655 674 Q669 715 680 757 Q682 765 681.5 766.5 Q681 768 673 770 Q638 779 604 788 Q570 797 535 805 Q512 810 490 814.5 Q468 819 445 821 Q428 823 410.5 824 Q393 825 376 823 Q290 817 216 770 Q133 719 86 639 Q62 600 55 557 Q50 528 54.5 501 Q59 474 77 451 Q102 419 143 413 Q169 409 194 414.5 Q219 420 243 432 Q261 442 277.5 454.5 Q294 467 309 481 Q341 513 367 548 Q393 583 412 625 Q417 636 420.5 647.5 Q424 659 426 671 Q428 682 428 692.5 Q428 703 425 713 Q416 743 384 743 Q373 744 363.5 741.5 Q354 739 344 734 Q299 715 260 679 Q247 668 236 655.5 Q225 643 215 628 Q213 624 210 619.5 Q207 615 205 610 Q203 606 202 603 Q201 600 202 595 Q204 587 195 585 Q187 583 185 591 Q183 597 185 603 Q186 611 189 617 Q192 623 196 630 Q204 644 213.5 655.5 Q223 667 234 678 Q279 724 334 749 Q360 762 384 762 Q430 760 442 720 Q449 696 443 668 Q440 648 433 629.5 Q426 611 416 594 Q372 511 302 451 Q281 434 258 421 Q235 408 209 400 Q198 397 186 395 Q174 393 161 393 Q74 395 43 476 Q34 501 34 529 Q35 561 45 591 Q55 621 72 650 Q98 695 134 729.5 Q170 764 215 790 Q242 806 270.5 817.5 Q299 829 329 835 Q369 842 410 841 Q451 840 490 833 Q529 826 568 816 Q607 806 646 796 Q685 786 724 776 Q753 769 783 763 Q813 757 843 752 Q862 750 880.5 747 Q899 744 918 742 Q932 740 947 739.5 Q962 739 977 737 Q993 736 1009 735.5 Q1025 735 1041 734 Q1056 733 1070.5 732.5 Q1085 732 1099 732 Q1112 731 1124 731 Q1136 731 1149 731 L1160 731 Q1168 733 1170 725 Q1170 717 1163 714 Q1161 714 1159 713.5 Q1157 713 1155 713 Q1141 713 1127.5 713 Q1114 713 1100 714 Q1082 714 1064 714.5 Q1046 715 1028 716 Q1014 717 1001 717.5 Q988 718 975 719 L885 728 Q840 733 796 742 Q752 751 707 762 Q703 762 700 763 L694 742 Q682 697 666.5 653.5 Q651 610 633 568 Q601 492 567.5 417.5 Q534 343 493 271 Q480 248 468 227 Q456 206 444 187 Z M410 170 Q398 169 387.5 169 Q377 169 366 169 Q354 168 342.5 168 Q331 168 320 166 Q263 160 221 125 Q204 111 191.5 95 Q179 79 171 59 Q167 50 165 40.5 Q163 31 165 21 Q167 10 172.5 2.5 Q178 -5 189 -8 Q195 -10 201 -9.5 Q207 -9 213 -8 Q232 -4 253 9 Q270 19 284.5 30.5 Q299 42 313 55 Q341 81 365.5 109.5 Q390 138 410 170 Z " />
<glyph glyph-name="U" unicode="U" horiz-adv-x="1095" d="M1162 745 Q1152 731 1143.5 718.5 Q1135 706 1125 692 Q1064 601 1003.5 511.5 Q943 422 880 333 Q846 285 811.5 239.5 Q777 194 739 149 Q717 123 693.5 98.5 Q670 74 644 51 Q627 38 610.5 26.5 Q594 15 575 6 Q560 -1 545 -5 Q530 -9 513 -9 Q469 -9 435 23 Q421 37 413 54.5 Q405 72 399 91 Q394 108 392.5 125.5 Q391 143 390 160 Q392 197 396 233 Q401 265 409.5 296 Q418 327 429 358 Q451 415 478.5 469.5 Q506 524 538 577 Q576 638 619 694.5 Q662 751 713 802 Q721 809 727 815.5 Q733 822 740 829 L744 833 Q736 831 730.5 830 Q725 829 719 828 Q703 826 687 823 Q671 820 655 818 Q624 814 590 812 Q573 810 555.5 810 Q538 810 521 809 Q503 809 485 809.5 Q467 810 450 811 Q424 811 397.5 811.5 Q371 812 345 811 Q230 807 154 714 Q134 689 119.5 662 Q105 635 97 605 Q91 582 90 559.5 Q89 537 96 515 Q101 498 111 486 Q132 459 170 459 Q201 460 233 475 Q251 483 267.5 495 Q284 507 300 521 Q324 544 344.5 569.5 Q365 595 380 625 Q388 641 394 657.5 Q400 674 400 692 Q402 705 397 717 Q394 725 387 728 Q380 731 373 730 Q368 728 363.5 727 Q359 726 354 724 Q298 700 267 650 Q258 636 255 623 Q255 621 254.5 619.5 Q254 618 254 616 Q256 606 246 606 Q237 604 237 614 Q237 619 237 623 Q237 627 239 632 Q244 648 253.5 661.5 Q263 675 274 688 Q291 706 311 720 Q331 734 354 742 Q366 747 376 747 Q405 750 416 721 Q419 711 419 701 Q419 691 418 680 Q415 662 408.5 645.5 Q402 629 394 612 Q371 572 341.5 538.5 Q312 505 274 479 Q238 453 194 444 Q168 439 145.5 443 Q123 447 106 464 Q82 486 76 518 Q68 554 76 592 Q82 629 104 669 Q144 748 219 792 Q265 820 318 826 Q343 830 368 830.5 Q393 831 419 829 L444 829 Q473 829 502.5 828 Q532 827 561 828 Q581 829 601.5 830.5 Q622 832 642 834 Q664 836 686 839.5 Q708 843 730 848 Q738 850 745.5 851.5 Q753 853 761 855 Q763 856 768 856 Q775 856 777 851.5 Q779 847 776 842 Q774 838 769 833 Q758 822 747.5 812 Q737 802 726 791 Q678 743 637 690 Q596 637 560 579 Q530 531 504 481.5 Q478 432 457 379 Q445 350 435.5 320 Q426 290 420 259 Q409 215 408 172 Q408 148 411 124.5 Q414 101 423 79 Q428 68 433.5 57 Q439 46 448 37 Q468 17 491.5 11.5 Q515 6 544 13 Q563 18 579.5 27.5 Q596 37 613 49 Q636 66 655.5 84.5 Q675 103 694 124 Q725 157 753 192.5 Q781 228 809 265 Q851 322 891 379 Q931 436 971 494 Q1015 558 1058 622 Q1101 686 1144 750 Q1158 771 1172 792 Q1186 813 1200 834 Q1205 841 1209.5 847.5 Q1214 854 1219 859 Q1224 861 1228.5 858.5 Q1233 856 1234 851 Q1230 833 1220 814 Q1210 795 1202 781 Q1156 693 1110.5 606 Q1065 519 1023 428 Q994 364 968 299.5 Q942 235 918 169 Q907 135 895.5 102 Q884 69 873 36 Q871 29 868.5 18.5 Q866 8 865 1 Q863 -12 858.5 -17.5 Q854 -23 849.5 -22 Q845 -21 843 -14.5 Q841 -8 845 4 Q865 70 888 135 Q911 200 936 266 Q963 338 994.5 407 Q1026 476 1061 545 Q1086 596 1111.5 645 Q1137 694 1162 745 Z " />
<glyph glyph-name="V" unicode="V" horiz-adv-x="965" d="M463 -79 Q463 -78 462 -78 Q438 -74 428 -48 Q420 -27 418 -2 Q416 28 420 57.5 Q424 87 430 116 Q440 161 455 204.5 Q470 248 487 291 Q540 418 613 541 Q642 592 673.5 640.5 Q705 689 738 737 Q746 748 753 759 Q760 770 768 781 Q770 783 771 785.5 Q772 788 774 791 Q766 789 765 789 Q677 766 589.5 743.5 Q502 721 414 698 Q371 687 329.5 674.5 Q288 662 246 647 Q220 637 195 625.5 Q170 614 147 599 Q112 577 88 548 Q56 508 50 460 Q47 442 48.5 423.5 Q50 405 58 388 Q79 335 135 326 Q157 322 178 325 Q199 328 220 336 Q252 348 280 368 Q308 388 331 414 Q373 459 392 515 Q401 539 400 562 Q398 591 380 608 Q366 619 351 620 Q329 621 311 613 Q293 605 277 591 Q266 580 257.5 568 Q249 556 246 542 Q244 537 244 533 Q244 529 244 524 Q244 513 250 507 Q255 500 250 495 Q245 488 237 495 Q228 503 226 520 Q225 543 235 564 Q266 626 331 636 Q348 639 363 636 Q378 633 391 621 Q401 613 407 601.5 Q413 590 416 577 Q419 561 417.5 545.5 Q416 530 411 515 Q403 488 389 464 Q375 440 358 417 Q304 349 228 320 Q208 312 187 308.5 Q166 305 143 307 Q103 310 74.5 334.5 Q46 359 36 397 Q34 404 33 411 Q32 418 31 425 Q30 430 29.5 434.5 Q29 439 30 444 Q32 476 42.5 504.5 Q53 533 73 558 Q90 579 111 595 Q132 611 155 625 Q180 639 206.5 650 Q233 661 260 671 Q300 685 340 696.5 Q380 708 421 719 Q500 739 579 759.5 Q658 780 737 800 Q746 802 754.5 804.5 Q763 807 772 809 Q774 809 776.5 809.5 Q779 810 781 810 Q799 808 794 791 Q792 786 789 781 L771 754 Q741 709 711.5 665.5 Q682 622 654 576 Q616 512 580.5 447 Q545 382 516 313 Q499 273 484 233 Q469 193 457 151 Q451 128 446 104.5 Q441 81 438 57 Q436 39 435.5 20.5 Q435 2 438 -16 Q439 -24 440.5 -31 Q442 -38 446 -45 Q456 -64 477 -60 Q490 -59 504 -50 Q520 -41 533.5 -30 Q547 -19 560 -7 Q588 19 612.5 47.5 Q637 76 660 105 Q705 162 744.5 222 Q784 282 822 344 Q866 418 906.5 492.5 Q947 567 987 644 Q1009 686 1031 728.5 Q1053 771 1076 814 L1082 826 Q1084 831 1090 831 Q1101 831 1098 819 Q1096 814 1093 809 Q1071 767 1050 726 Q1029 685 1007 644 Q980 593 953.5 543.5 Q927 494 900 444 Q864 378 825.5 315 Q787 252 745 190 Q716 149 686.5 110.5 Q657 72 625 35 Q605 13 585 -7.5 Q565 -28 542 -46 Q534 -52 525.5 -57.5 Q517 -63 509 -68 Q497 -75 479 -78 Q478 -79 477 -79 L463 -79 Z " />
<glyph glyph-name="W" unicode="W" horiz-adv-x="1602" d="M1643 793 Q1638 688 1612 593 Q1586 498 1543 412.5 Q1500 327 1442 251.5 Q1384 176 1314 111 Q1283 82 1250 57 Q1217 32 1180 11 Q1156 -3 1131 -14.5 Q1106 -26 1079 -33 Q1068 -36 1056.5 -38 Q1045 -40 1033 -41 Q1014 -43 995.5 -41 Q977 -39 959 -31 Q934 -20 918 -1.5 Q902 17 893 42 Q888 53 886 65 Q884 77 882 90 Q880 102 879.5 114 Q879 126 880 138 Q881 148 881.5 158 Q882 168 883 178 Q890 234 905 287 Q920 340 939 393 Q956 438 974 481 Q992 524 1012 568 Q1026 597 1038.5 626.5 Q1051 656 1064 685 Q1066 688 1068 696 Q1064 692 1061 688.5 Q1058 685 1054 680 Q1028 648 1003 615.5 Q978 583 953 550 Q918 504 884 458 Q850 412 815 366 Q792 335 768 304.5 Q744 274 721 243 Q694 208 667 174.5 Q640 141 611 108 Q594 89 577 71.5 Q560 54 541 37 Q528 26 515.5 17 Q503 8 488 2 Q473 -5 461 -2 Q443 1 437 18 Q431 32 433 51 Q435 83 444.5 112 Q454 141 465 170 Q480 210 497.5 248 Q515 286 533 324 Q555 369 577 413.5 Q599 458 621 504 Q638 539 653 573.5 Q668 608 681 644 Q688 662 693.5 680.5 Q699 699 703 718 Q705 730 706.5 741.5 Q708 753 707 765 Q706 778 702.5 789.5 Q699 801 690 810 Q683 818 674.5 822.5 Q666 827 657 830 Q636 837 613 839 Q604 840 595.5 840.5 Q587 841 578 840 Q556 840 535 837 Q454 826 382 797 Q310 768 244 723 Q188 685 141 633 Q113 602 91.5 568 Q70 534 56 495 Q45 465 40 433 Q39 422 39 412 Q39 402 39 391 Q40 374 44 358 Q48 342 58 328 Q80 294 121 284 Q142 279 163 281 Q186 283 208 289 Q230 295 251 305 Q276 316 298.5 331.5 Q321 347 341 365 Q394 411 427 468 Q439 488 448 508 Q457 528 462 551 Q468 574 467 595 Q465 610 460 624 Q455 638 444 649 Q436 657 425 662 Q414 667 403 669 Q381 672 361.5 667.5 Q342 663 323 654 Q297 640 276.5 621 Q256 602 242 576 Q238 568 235 560 Q232 552 233 544 Q233 542 234 541 Q235 540 236 538 Q241 533 238 527 Q235 521 227 523 Q220 526 217 533 Q215 540 215 547 Q215 554 217 561 Q221 575 228 587.5 Q235 600 244 611 Q282 661 345 681 Q366 689 389 687 Q409 687 426.5 680.5 Q444 674 458 660 Q477 641 482 611 Q486 591 483.5 571 Q481 551 475 531 Q466 501 451 474 Q436 447 417 421 Q361 346 280 300 Q238 277 195 268 Q169 262 146 263 Q126 264 108 269.5 Q90 275 73 286 Q56 298 45 314.5 Q34 331 28 351 Q23 370 21 393 Q19 432 28.5 468 Q38 504 55 539 Q84 596 125 642 Q170 693 224 731 Q278 769 339 798 Q413 832 489 848 Q502 850 514.5 852 Q527 854 539 856 Q553 858 567 858.5 Q581 859 595 858 Q616 857 636 853.5 Q656 850 675 842 Q717 822 724 779 Q725 771 725 762.5 Q725 754 725 746 Q723 717 715 690 Q707 663 698 637 Q669 563 635 493 Q613 448 591.5 403.5 Q570 359 548 314 Q531 278 514 241.5 Q497 205 482 167 Q474 146 467 125.5 Q460 105 455 83 Q453 72 451.5 62.5 Q450 53 450 42 Q450 34 453 25 Q456 13 471 15 Q481 17 489.5 22 Q498 27 506 32 Q523 43 537 57 Q551 71 565 85 Q592 113 616.5 142 Q641 171 665 201 Q709 255 750.5 310 Q792 365 834 422 Q874 475 913.5 526.5 Q953 578 992 631 Q1007 651 1021.5 669.5 Q1036 688 1053 706 Q1057 710 1061 713.5 Q1065 717 1069 721 Q1071 722 1072.5 723 Q1074 724 1076 724 Q1083 726 1087.5 721 Q1092 716 1090 708 Q1088 697 1085 688 Q1082 679 1077 669 Q1064 641 1051.5 613 Q1039 585 1026 556 Q1006 510 986.5 464.5 Q967 419 950 371 Q939 339 929.5 307 Q920 275 912 242 Q909 227 906.5 212.5 Q904 198 902 182 Q899 165 898 147.5 Q897 130 898 113 Q899 92 902.5 72 Q906 52 916 33 Q940 -13 992 -22 Q1012 -26 1030.5 -24.5 Q1049 -23 1068 -18 Q1098 -10 1125.5 2 Q1153 14 1179 30 Q1236 65 1290 113 Q1371 188 1430 264 Q1489 340 1529.5 422 Q1570 504 1593.5 595 Q1617 686 1626 792 Q1627 801 1633 804 Q1639 807 1643 793 Z " />
<glyph glyph-name="X" unicode="X" horiz-adv-x="972" d="M678 405 Q667 394 657.5 385 Q648 376 639 367 Q562 293 485.5 220.5 Q409 148 332 73 Q287 30 244 -13 Q201 -56 157 -100 Q148 -109 140 -118 Q132 -127 124 -136 Q119 -143 119 -148 Q118 -153 114.5 -156.5 Q111 -160 106 -159 Q101 -159 98.5 -155 Q96 -151 98 -146 Q102 -137 109 -129 Q116 -121 123 -112.5 Q130 -104 138 -96 Q169 -65 199.5 -34.5 Q230 -4 262 27 Q353 115 442.5 201 Q532 287 623 374 Q635 387 648 399 Q661 411 674 423 Q678 427 678 432 Q678 476 678.5 519 Q679 562 677 606 Q675 635 672 663 Q669 691 661 718 Q655 738 646 755.5 Q637 773 623 788 Q594 821 544 832 Q515 838 479 836 Q411 832 344 801 Q276 770 220.5 726.5 Q165 683 123 623 Q107 600 95.5 577 Q84 554 77 529 Q70 507 68 485 Q66 463 72 442 Q78 419 92.5 403.5 Q107 388 131 380 Q156 371 187 376 Q216 379 244 389.5 Q272 400 298 415 Q399 470 469 561 Q492 588 503 617 Q510 634 510 648 Q510 663 500.5 670.5 Q491 678 477 678 Q466 679 456 676.5 Q446 674 436 670 Q366 641 320 583 Q318 581 316 578 Q314 575 312 572 Q309 567 310 560 Q312 554 304 550 Q297 546 293 552 Q288 560 292 568 Q294 573 296.5 578 Q299 583 303 588 Q320 612 344 632 Q381 663 425 683 Q439 689 453 693 Q467 697 481 696 Q506 695 517.5 682 Q529 669 528 651 Q528 638 524.5 626 Q521 614 516 603 Q505 581 491 561.5 Q477 542 460 524 Q424 483 381.5 450 Q339 417 290 392 Q269 381 247.5 373.5 Q226 366 204 361 Q181 356 160.5 356.5 Q140 357 120 364 Q67 383 53 438 Q49 452 49 467 Q49 482 51 497 Q57 536 73.5 572 Q90 608 116 641 Q170 713 240 762.5 Q310 812 398 838 Q455 856 514 853 Q543 851 568.5 844 Q594 837 616 821 Q633 808 645.5 792 Q658 776 667 756 Q677 735 682.5 712 Q688 689 691 665 Q695 637 696 609 Q697 581 697 552 L697 449 L697 445 Q699 447 700 448 Q701 449 703 450 Q751 496 799.5 540.5 Q848 585 899 629 Q940 664 980 698.5 Q1020 733 1061 768 Q1068 773 1074 778.5 Q1080 784 1087 789 L1098 800 Q1108 811 1119.5 820 Q1131 829 1143 838 Q1151 844 1156 839 Q1162 835 1155 826 Q1150 821 1146 817.5 Q1142 814 1137 810 Q1105 784 1073.5 757 Q1042 730 1010 704 Q903 612 800 518 Q775 495 750.5 472.5 Q726 450 701 427 Q697 422 697 417 Q697 350 703 285 Q709 220 718 155 Q724 106 731 57.5 Q738 9 747 -39 Q749 -49 751.5 -58 Q754 -67 756 -77 Q759 -85 765 -87 Q773 -89 769 -96 Q766 -105 757 -103 Q746 -101 741 -92 Q739 -87 737.5 -82.5 Q736 -78 735 -73 Q728 -48 724 -22.5 Q720 3 716 29 Q707 89 699 148.5 Q691 208 685 269 Q682 301 680.5 333 Q679 365 678 398 L678 405 Z " />
<glyph glyph-name="Y" unicode="Y" horiz-adv-x="885" d="M932 772 Q912 744 893.5 716 Q875 688 856 659 Q817 602 778 545 Q739 488 697 431 Q677 403 655.5 375 Q634 347 611 321 Q597 304 582 289 Q567 274 550 260 Q540 252 530 246.5 Q520 241 507 237 Q490 232 476 240 Q462 248 454 263 Q450 272 448.5 282 Q447 292 445 302 Q443 327 444.5 351 Q446 375 451 398 Q456 437 464.5 475 Q473 513 481 551 Q488 579 493.5 607 Q499 635 503 664 Q505 679 506.5 694.5 Q508 710 508 725 Q507 750 499 774 Q480 828 425 841 Q405 846 386.5 845 Q368 844 348 839 Q315 831 286 816 Q257 801 230 781 Q198 755 172 724.5 Q146 694 127 656 Q104 611 99 556 Q97 538 99 519.5 Q101 501 109 484 Q130 432 182 425 Q201 423 218 426 Q235 429 252 436 Q271 444 287 455 Q303 466 319 479 Q345 502 365 530 Q385 558 399 590 Q406 604 410 618.5 Q414 633 416 649 Q418 672 410 695 Q405 710 392.5 719.5 Q380 729 363 729 Q352 729 343 726.5 Q334 724 324 719 Q281 700 255 657 Q253 652 250.5 646.5 Q248 641 246 636 Q245 634 245.5 632.5 Q246 631 245 629 Q245 624 250 623 Q259 620 257 612 Q255 603 245 605 Q231 608 228 624 Q226 636 231 648 Q237 666 248 680 Q264 701 284 717 Q304 733 330 741 Q336 743 343.5 744.5 Q351 746 358 747 Q381 748 398.5 737 Q416 726 425 703 Q431 689 433 674.5 Q435 660 433 646 Q431 621 423 599 Q415 577 403 556 Q382 518 354 487.5 Q326 457 288 434 Q256 415 222 409 Q205 406 188 406.5 Q171 407 154 414 Q106 434 89 489 Q80 522 82 559 Q86 606 103 646.5 Q120 687 147 723 Q203 798 290 839 Q309 847 328 853 Q347 859 368 861 Q403 866 435 857 Q499 838 517 774 Q522 757 523.5 741.5 Q525 726 524 709 Q524 683 520.5 658.5 Q517 634 512 609 Q504 574 496.5 538.5 Q489 503 481 468 Q476 442 471.5 416.5 Q467 391 464 365 Q462 349 461 333.5 Q460 318 462 302 Q465 285 471 269 Q482 249 502 255 Q508 257 514.5 260 Q521 263 526 266 Q540 275 552.5 286 Q565 297 576 309 Q597 331 616 354.5 Q635 378 653 402 Q701 466 745.5 531 Q790 596 835 662 L910 773 Q917 781 922.5 789 Q928 797 936 803 Q943 807 948 804.5 Q953 802 954 794 Q955 786 952 774 Q947 758 943 742 Q939 726 934 710 Q905 622 867 538.5 Q829 455 783 375 Q759 333 733.5 293.5 Q708 254 679 216 Q626 147 577 99 Q548 72 518 47.5 Q488 23 454 2 Q425 -15 395.5 -29 Q366 -43 334 -51 Q315 -56 296 -59 Q277 -62 257 -60 Q240 -58 223 -53 Q206 -48 192 -37 Q163 -14 154 21 Q145 56 159 88 Q174 120 204 138 Q219 148 235.5 154 Q252 160 269 164 Q290 168 311 168.5 Q332 169 353 167 Q377 165 401 161 Q425 157 448 152 Q479 145 509 138.5 Q539 132 569 124 Q575 123 579 127 Q614 162 644 200.5 Q674 239 703 281 Q754 356 796 435 Q838 514 873 599 Q890 640 904.5 680.5 Q919 721 931 764 Q933 770 932 772 Z M559 108 Q527 117 492.5 124 Q458 131 426 138 Q385 147 344 150 Q327 151 309 150.5 Q291 150 274 146 Q236 140 208 119 Q186 102 175 78 Q161 45 175.5 12.5 Q190 -20 223 -34 Q244 -42 262 -42 Q275 -43 287.5 -41.5 Q300 -40 313 -38 Q337 -33 359.5 -24.5 Q382 -16 404 -5 Q446 18 485 46 Q524 74 559 108 Z " />
<glyph glyph-name="Z" unicode="Z" horiz-adv-x="1195" d="M911 600 Q896 602 880.5 604.5 Q865 607 851 609 Q823 614 796.5 619.5 Q770 625 744 633 Q712 641 682 651 Q652 661 620 670 Q583 682 546.5 694 Q510 706 472 718 Q434 730 393 736 Q384 738 374 738.5 Q364 739 354 740 Q345 741 336 741 Q327 741 317 741 Q279 739 241.5 728 Q204 717 170 692 Q104 643 75 565 Q72 554 69.5 544 Q67 534 65 523 Q60 467 91 426 Q117 397 158 388 Q181 383 201 386 Q226 388 249 394 Q272 400 295 411 Q377 450 424 525 Q443 552 452 585 Q456 602 458 618 Q460 634 455 650 Q449 666 439 676 Q429 686 412 689 Q399 692 387 690.5 Q375 689 362 685 Q339 677 319.5 664 Q300 651 282 634 Q275 627 269.5 620.5 Q264 614 259 606 Q255 596 254 591 Q250 583 245 583 Q238 582 236 589 Q235 594 236.5 597.5 Q238 601 240 606 Q248 623 263 639 Q301 678 347 697 Q359 702 372 705.5 Q385 709 399 709 Q431 709 450 691.5 Q469 674 474 648 Q478 628 473 602 Q466 564 447.5 530.5 Q429 497 400 468 Q365 430 323.5 407 Q282 384 234 373 Q219 369 204 368 Q189 367 174 368 Q143 370 118.5 381.5 Q94 393 76 416 Q52 448 47 492 Q47 501 47 510 Q47 519 49 529 Q54 562 67.5 592 Q81 622 102 649 Q165 730 262 751 Q285 756 312 758 Q321 758 330.5 758.5 Q340 759 349 758 Q377 756 406 752 Q452 744 494.5 730.5 Q537 717 580 703 Q620 690 660 676.5 Q700 663 741 652 Q764 645 788 640 Q812 635 835 630 Q850 628 864.5 625.5 Q879 623 893 621 Q901 619 908 619 Q915 619 923 618 Q926 618 926 620 Q937 633 947.5 646 Q958 659 970 673 Q992 699 1015 723.5 Q1038 748 1064 770 Q1091 794 1120.5 814 Q1150 834 1182 848 Q1196 854 1210 859 Q1224 864 1238 866 Q1256 869 1272.5 867.5 Q1289 866 1303 856 Q1329 839 1329 807 Q1329 796 1325.5 784.5 Q1322 773 1317 762 Q1300 732 1273 705 Q1241 675 1205 655 Q1169 635 1129 621 Q1110 615 1091 610 Q1072 605 1053 603 Q1041 601 1028.5 600 Q1016 599 1003 598 Q991 597 979 597 Q967 597 955 597 Q950 597 945 597.5 Q940 598 935 599 Q930 599 929 596 Q905 564 881.5 532 Q858 500 833 468 Q800 421 765.5 375.5 Q731 330 696 285 Q671 255 646 226 Q621 197 595 169 Q581 155 567.5 142.5 Q554 130 540 117 Q539 116 539 115.5 Q539 115 537 114 Q547 110 560 107 Q596 95 631.5 83 Q667 71 704 60 Q741 49 779 38.5 Q817 28 855 18 Q877 13 905 8.5 Q933 4 963.5 3.5 Q994 3 1026 10 Q1058 17 1090 36 Q1097 43 1103 40 Q1110 35 1104 27 Q1073 3 1031.5 -5.5 Q990 -14 943.5 -12 Q897 -10 847.5 0.5 Q798 11 751.5 24.5 Q705 38 663 52.5 Q621 67 590 77 Q574 83 557.5 88 Q541 93 525 98 Q520 99 518 97 Q489 72 458.5 49.5 Q428 27 395 8 Q369 -6 343.5 -17.5 Q318 -29 289 -37 Q270 -41 249 -43 Q231 -45 215.5 -42 Q200 -39 186 -31 Q157 -14 156 17 Q153 42 171 68 Q182 83 194.5 94 Q207 105 223 114 Q259 134 301 142 Q337 149 369 148 Q395 147 421 142 Q446 139 469.5 133 Q493 127 516 120 Q518 118 521 121 Q545 144 568 167 Q591 190 614 215 Q658 263 698 314 Q738 365 776 418 Q807 459 837 499.5 Q867 540 896 581 Q900 586 903.5 590.5 Q907 595 911 600 Z M945 616 Q949 616 952 615.5 Q955 615 958 615 Q970 615 982 615 Q994 615 1007 616 L1046 619 Q1081 623 1119 636 Q1159 649 1195 669 Q1231 689 1263 720 Q1287 742 1302 771 Q1311 787 1311 806 Q1310 834 1285 845 Q1274 850 1261.5 850 Q1249 850 1237 848 Q1222 846 1207.5 840.5 Q1193 835 1179 828 Q1141 810 1108.5 785 Q1076 760 1045 730 Q1024 710 1005.5 688.5 Q987 667 968 645 Q962 638 956.5 631 Q951 624 945 616 Z M502 105 Q501 105 501 106 Q480 111 459.5 116.5 Q439 122 417 125 Q405 127 393 128 Q381 129 368 130 Q351 131 334.5 129.5 Q318 128 301 125 Q268 117 234.5 101.5 Q201 86 183 55 Q172 37 173.5 19.5 Q175 2 189 -10 Q208 -26 237 -26 Q250 -27 262 -25 Q274 -23 286 -20 Q336 -7 382 21 Q411 37 437 55.5 Q463 74 489 94 Q493 96 495.5 99 Q498 102 502 105 Z " />
<glyph glyph-name="bracketleft" unicode="&#x5b;" horiz-adv-x="165" d="M-8 107 Q1 102 10.5 101.5 Q20 101 31 99 Q36 100 39.5 97 Q43 94 43.5 90 Q44 86 41 83 Q38 80 31 81 Q22 82 13.5 83 Q5 84 -5 86 Q-13 88 -17 90 Q-32 99 -24 114 Q-19 125 -14.5 136.5 Q-10 148 -5 160 Q9 195 23 231 Q37 267 51 302 Q69 344 86 386 Q103 428 122 470 Q151 537 182 602.5 Q213 668 247 733 Q252 741 255.5 749.5 Q259 758 264 766 Q266 769 269.5 772.5 Q273 776 275 779 Q284 790 300 793 L339 799 Q347 801 349 793 Q351 785 343 783 Q338 781 334 780.5 Q330 780 325 779 Q320 778 314 777 Q308 776 303 775 Q290 773 286 766 Q280 759 275 750 Q266 733 257.5 717 Q249 701 240 685 Q210 623 181 562 Q152 501 125 438 Q103 384 82 330.5 Q61 277 38 223 Q27 196 17 169 Q7 142 -5 114 Q-7 110 -8 107 Z " />
<glyph glyph-name="backslash" unicode="&#x5c;" horiz-adv-x="222" d="M94 464 Q96 426 98.5 387 Q101 348 103 310 Q105 275 107 239.5 Q109 204 111 169 Q112 155 112.5 142 Q113 129 115 115 Q117 101 117.5 88 Q118 75 120 61 Q120 58 120.5 55 Q121 52 121 49 Q121 42 115 41 Q108 39 104 45 Q102 47 101.5 49 Q101 51 99 53 Q93 59 99 65 Q102 68 101 71 Q100 81 99.5 90.5 Q99 100 97 110 Q97 115 96.5 120 Q96 125 95 130 Q94 154 93 177.5 Q92 201 90 225 Q88 254 86.5 283 Q85 312 83 341 Q81 373 80 406 Q79 439 77 472 Q76 495 75 519 Q74 543 74 566 Q73 587 72.5 608.5 Q72 630 70 651 Q68 692 66.5 732.5 Q65 773 63 814 Q63 816 62.5 817.5 Q62 819 62 821 Q61 830 69 832 Q77 832 79 824 Q81 816 81 812 Q82 786 83 760.5 Q84 735 86 709 Q87 684 88 659.5 Q89 635 90 610 Q92 581 92 551.5 Q92 522 94 493 Q94 486 94.5 479 Q95 472 95 464 L94 464 Z " />
<glyph glyph-name="bracketright" unicode="&#x5d;" horiz-adv-x="160" d="M293 784 Q285 784 278 783.5 Q271 783 264 782 L244 782 L241 782 Q236 784 236 789 Q234 796 240 798 Q242 799 244.5 799 Q247 799 249 800 Q260 801 270 801 Q280 801 290 802 Q311 803 311 782 Q311 775 308 768.5 Q305 762 303 756 Q295 736 286 717.5 Q277 699 266 680 Q210 580 162 477.5 Q114 375 72 269 Q57 231 42.5 194 Q28 157 14 119 Q13 112 9 105 Q0 88 -15 84 Q-26 81 -36.5 79 Q-47 77 -58 74 Q-64 73 -67.5 76.5 Q-71 80 -69 85 Q-68 88 -65 89.5 Q-62 91 -59 92 Q-53 94 -47 95 Q-41 96 -35 97 Q-31 98 -27.5 99 Q-24 100 -21 101 Q-10 103 -7 112 Q-4 119 -1.5 126 Q1 133 5 140 Q26 198 48.5 255 Q71 312 95 369 Q166 536 257 700 Q265 714 272 729 Q279 744 286 759 Q288 763 289 767 Q290 771 292 776 Q293 778 292.5 780 Q292 782 293 784 Z " />
<glyph glyph-name="asciicircum" unicode="&#x5e;" horiz-adv-x="230" d="M252 775 Q247 770 242.5 764.5 Q238 759 233 753 Q211 730 189.5 706 Q168 682 146 658 Q142 652 136 648 Q135 646 131 644 Q124 642 121 647 Q117 651 119 657 Q120 660 123 661 Q131 666 136.5 673 Q142 680 148 686 Q171 712 193.5 737 Q216 762 239 787 Q242 791 245.5 794 Q249 797 252 800 Q254 802 256 802 Q263 809 271 804 Q278 800 276 789 Q273 779 270 769.5 Q267 760 265 749 Q259 725 253 700.5 Q247 676 240 651 L240 648 L241 647 Q250 640 244 631 Q241 628 236 627.5 Q231 627 227 629 Q221 634 222 641 Q222 646 222.5 651.5 Q223 657 224 662 Q232 689 238.5 716.5 Q245 744 253 771 L253 774 Q253 775 252 775 Z " />
<glyph glyph-name="underscore" unicode="&#x5f;" horiz-adv-x="310" d="M176 189 L187 189 Q189 188 191.5 187.5 Q194 187 196 185 Q200 182 198 176 Q195 170 189 170 L138 170 Q125 170 112 169.5 Q99 169 86 168 Q72 167 58 166 Q44 165 30 164 Q25 163 19.5 163 Q14 163 8 162 Q4 162 2 163 Q-4 166 -4 173 Q-2 178 4 180 Q11 180 14 181 Q31 182 47 183 Q63 184 79 186 Q83 186 87 186 Q91 186 95 187 Q108 187 121 187.5 Q134 188 148 188 L176 188 L176 189 Z " />
<glyph glyph-name="grave" unicode="&#x60;" horiz-adv-x="177" d="M215 741 Q215 734 210 732 Q205 729 201 733 Q199 736 197 738.5 Q195 741 193 745 Q190 753 187 762 Q184 771 181 780 Q179 785 178 788.5 Q177 792 173 796 Q167 804 175 810 Q183 816 189 808 Q192 804 193 800 Q197 790 200 780 Q203 770 207 760 L213 745 L215 741 Z " />
<glyph glyph-name="braceleft" unicode="&#x7b;" horiz-adv-x="197" d="M99 418 Q101 418 102.5 417.5 Q104 417 105 417 Q121 414 121 398 Q118 380 112 363 Q106 346 101 329 Q80 267 71 204 Q68 187 67.5 171 Q67 155 70 138 Q72 124 80.5 115.5 Q89 107 101 101 Q109 101 112 96 Q115 91 113.5 86.5 Q112 82 105.5 80.5 Q99 79 89 87 Q55 105 51 144 Q49 164 50.5 184.5 Q52 205 56 225 Q70 299 95 368 Q97 376 99.5 383.5 Q102 391 103 399 Q98 400 92 400 Q86 400 81 401 Q74 402 71.5 407.5 Q69 413 74 419 Q75 422 80 425 Q85 430 89 433.5 Q93 437 97 441 Q127 468 144 506 Q158 538 171.5 571 Q185 604 199 636 Q209 659 219.5 681.5 Q230 704 244 724 Q255 740 266 754 Q277 768 291 780 Q301 788 311 794 Q316 796 325 796 Q334 796 337 790 Q342 785 338 780 Q334 774 328 776 Q323 779 319 777.5 Q315 776 310 773 Q298 764 285 749 Q248 706 225 651 Q210 616 195 580.5 Q180 545 165 509 Q157 490 146.5 472.5 Q136 455 122 440 Q117 435 113.5 431.5 Q110 428 105 424 L99 418 Z " />
<glyph glyph-name="bar" unicode="&#x7c;" horiz-adv-x="172" d="M-37 66 Q-35 71 -33.5 75 Q-32 79 -30 84 Q-20 108 -9.5 132.5 Q1 157 12 182 Q47 264 84 345.5 Q121 427 156 509 Q187 578 220.5 645.5 Q254 713 289 779 Q296 790 300.5 801 Q305 812 311 823 Q313 825 313 828 Q320 834 325 831 Q331 827 330 820 Q329 816 324 810 Q307 777 290 743.5 Q273 710 255 677 Q232 632 211.5 586.5 Q191 541 170 494 Q132 411 95 329 Q58 247 20 163 Q13 143 4.5 123 Q-4 103 -12 83 Q-14 78 -16.5 73 Q-19 68 -18 62 Q-16 59 -19.5 56.5 Q-23 54 -26 53 Q-29 53 -32 54 Q-35 55 -34 58 Q-36 60 -36 62 Q-36 64 -37 66 Z " />
<glyph glyph-name="braceright" unicode="&#x7d;" horiz-adv-x="165" d="M205 735 Q204 727 204 720.5 Q204 714 202 706 Q197 678 189 651 Q181 624 172 598 Q162 569 152.5 541.5 Q143 514 133 485 Q130 477 128 469.5 Q126 462 123 454 Q123 450 122 447 Q122 442 127 439 Q129 437 131 436 Q133 435 135 433 Q149 424 137 412 Q135 410 132 408.5 Q129 407 127 405 Q114 398 111 386 Q108 374 105 362.5 Q102 351 99 339 Q90 301 78 263.5 Q66 226 49 190 Q41 172 26.5 151.5 Q12 131 -3 113.5 Q-18 96 -30.5 83.5 Q-43 71 -49 70 Q-59 71 -61.5 74 Q-64 77 -62 80.5 Q-60 84 -54.5 88.5 Q-49 93 -41 98 Q-12 124 9 155 Q30 186 44 222 Q71 289 86 360 Q88 368 89.5 375 Q91 382 93 389 Q100 412 117 420 Q117 420 119 422 Q117 423 116.5 424 Q116 425 114 426 Q104 435 105 447 Q105 451 105.5 454.5 Q106 458 107 463 Q115 492 124.5 519 Q134 546 145 574 Q156 604 165 634 Q174 664 181 696 Q185 710 187 724.5 Q189 739 187 754 Q187 759 186 763.5 Q185 768 183 773 Q176 790 158 787 Q145 785 137 780 Q129 775 124 782 Q120 790 127 794 Q139 802 152 804.5 Q165 807 179 802 Q187 799 194 789 Q202 778 204 762 Q204 760 204.5 758 Q205 756 205 754 L205 735 Z " />
<glyph glyph-name="asciitilde" unicode="&#x7e;" horiz-adv-x="222" d="M114 261 L125 272 Q136 286 145.5 299 Q155 312 163 326 Q165 330 167 332 Q172 335 177 332 Q182 328 181 323 Q179 319 178 318 Q169 301 158 286 Q147 271 135 257 Q133 255 130.5 252.5 Q128 250 126 248 Q118 243 110 245 Q102 247 98 256 Q96 261 95 265.5 Q94 270 92 275 Q91 280 91 286 Q91 292 90 298 Q88 304 87 308 Q80 305 78 301 Q71 295 66 288 Q61 281 56 273 Q55 271 55 269.5 Q55 268 54 266 Q52 255 43 257 Q39 258 36.5 262 Q34 266 36 270 Q37 272 37.5 275 Q38 278 40 280 Q49 298 64 313 Q70 319 76 322 Q85 327 93 324 Q101 321 104 312 Q106 307 106.5 301.5 Q107 296 108 291 Q110 286 110 280.5 Q110 275 111 270 Q112 267 114 261 Z " />
<glyph glyph-name="D" unicode="D" horiz-adv-x="1032" d="M506 341 Q523 371 545.5 402.5 Q568 434 593 464.5 Q618 495 644 524 Q670 553 694 579 Q729 616 765.5 650 Q802 684 843 715 Q866 732 889.5 745.5 Q913 759 939 770 Q966 781 991 784 Q1004 785 1016 784.5 Q1028 784 1039 780 Q1058 775 1071 762.5 Q1084 750 1090.5 733.5 Q1097 717 1098.5 698.5 Q1100 680 1097 662 Q1094 636 1086.5 612 Q1079 588 1069 564 Q1052 524 1030.5 486 Q1009 448 985 411 Q956 367 924.5 327 Q893 287 857 249 Q822 212 784 180 Q746 148 702 121 Q679 107 656 96 Q633 85 607 77 Q593 73 579.5 70.5 Q566 68 552 69 Q534 69 518 77 Q495 90 495 118 Q495 130 498.5 141 Q502 152 507 163 Q534 209 575 239.5 Q616 270 664 285 Q712 300 762.5 298 Q813 296 860 278 Q970 398 1041 545 Q1052 567 1060.5 589.5 Q1069 612 1074 635 Q1079 654 1080 672.5 Q1081 691 1077 710 Q1072 730 1060 744 Q1051 755 1038 760.5 Q1025 766 1011 767 Q992 768 974.5 763.5 Q957 759 940 752 Q918 742 897.5 729.5 Q877 717 857 703 Q824 679 794 652 Q764 625 735 596 Q675 535 622 469 Q569 403 521 332 Q495 292 470.5 251.5 Q446 211 423 169 Q411 146 400 122 Q389 98 378 74 Q366 48 354.5 22.5 Q343 -3 332 -29 Q331 -31 330 -33 Q329 -35 328 -37 Q324 -45 316 -43 Q308 -40 311 -31 Q312 -27 313 -23.5 Q314 -20 315 -16 Q328 16 341.5 46.5 Q355 77 371 108 Q392 149 411.5 189 Q431 229 451 271 Q476 322 500.5 372 Q525 422 550 473 Q569 512 586.5 551 Q604 590 619 631 Q627 652 633 673.5 Q639 695 643 717 Q649 747 646 775 Q640 821 596 841 Q575 851 549 854 Q535 856 522 856 Q509 856 495 855 Q438 851 383 829 Q293 795 217 731 Q156 681 112 612 Q98 589 87 565.5 Q76 542 69 516 Q64 498 63 480.5 Q62 463 67 446 Q70 431 77 420 Q92 399 117 398 Q128 396 139.5 398 Q151 400 162 404 Q183 411 202.5 421.5 Q222 432 239 446 Q298 493 339 560 Q345 571 350.5 582 Q356 593 358 605 Q359 608 359 611 Q359 614 360 617 Q362 627 369 627 Q378 627 378 617 Q378 603 371 587 Q366 572 358.5 559 Q351 546 342 533 Q321 502 295.5 475 Q270 448 239 425 Q221 411 201.5 401 Q182 391 160 385 Q143 380 127 380 Q77 378 56 421 Q44 446 46 476 Q47 502 54 527 Q61 552 72 575 Q89 611 111 642.5 Q133 674 161 703 Q250 793 366 841 Q391 852 416.5 858.5 Q442 865 469 870 Q484 872 499 873.5 Q514 875 529 874 Q551 872 571.5 868 Q592 864 612 854 Q660 827 665 772 Q667 751 664 730.5 Q661 710 656 690 Q647 655 634 622 Q621 589 607 556 Q586 507 562.5 459.5 Q539 412 516 364 Q513 358 510.5 352.5 Q508 347 505 341 L506 341 Z M847 264 Q817 280 771.5 281.5 Q726 283 678.5 269 Q631 255 588.5 226 Q546 197 522 153 Q518 145 515.5 136.5 Q513 128 513 118 Q513 100 527 93 Q537 87 548 87 Q568 86 589 90 Q633 101 676 126 Q718 149 754 178 Q790 207 824 240 Q831 247 835.5 252 Q840 257 847 264 Z " />
<glyph glyph-name="exclam" unicode="&#x21;" horiz-adv-x="197" d="M7 160 Q9 165 11 170 Q13 175 15 180 Q27 208 39.5 235 Q52 262 66 290 Q98 360 131 429 Q164 498 198 568 Q218 609 237.5 649 Q257 689 277 730 Q295 763 304 799 Q305 801 305 801.5 Q305 802 306 804 Q309 811 317 809 Q325 807 323 801 Q322 796 321 791.5 Q320 787 318 782 Q311 761 302 740 Q293 719 282 699 Q219 575 161 451.5 Q103 328 44 203 Q39 193 35.5 184 Q32 175 28 166 Q27 164 27 159 Q27 147 17 147 Q6 145 8 158 L8 160 L7 160 Z M-6 60 Q-7 56 -12.5 51.5 Q-18 47 -23 48 Q-28 48 -29.5 52 Q-31 56 -28 60 Q-22 66 -18 68 Q-13 70 -9 67.5 Q-5 65 -6 60 Z " />
<glyph glyph-name="quotedbl" unicode="&#x22;" horiz-adv-x="150" d="M221 807 Q220 805 219 804 Q218 803 217 801 Q212 792 208 783.5 Q204 775 199 766 Q194 758 188 752 Q181 744 173 748 Q167 753 174 760 Q179 765 181.5 771.5 Q184 778 187 784 Q191 789 194 795 Q197 801 200 807 Q201 809 204 812 Q208 818 216 816 Q223 814 221 807 Z M146 759 Q150 768 154 777 Q158 786 162 794 Q166 802 167 805 Q170 811 177 814 Q182 815 187 812 Q190 807 187 803 Q185 799 183.5 796 Q182 793 180 789 Q176 781 173 774 Q170 767 166 759 Q165 758 165 757 Q165 756 163 754 Q160 747 152 749 Q144 751 146 757 L146 759 Z " />
<glyph glyph-name="numbersign" unicode="&#x23;" horiz-adv-x="312" d="M156 312 Q165 313 173 314 Q181 315 189 316 Q191 318 191 319 Q200 334 208.5 349 Q217 364 225 379 Q227 381 227.5 382 Q228 383 229 384 Q233 390 241 388 Q247 386 245 379 Q244 377 243 374.5 Q242 372 240 369 Q233 357 226.5 345.5 Q220 334 213 322 Q212 321 212 320 Q220 320 225 321 Q233 322 241 322.5 Q249 323 257 324 Q263 324 271 322 Q284 319 279 306 Q275 299 269 299 Q262 298 260 304 Q260 305 259.5 305 Q259 305 259 306 Q245 307 230.5 305 Q216 303 201 301 Q197 293 193.5 285.5 Q190 278 185 270 Q192 271 197.5 271.5 Q203 272 209 273 Q215 274 221.5 274.5 Q228 275 234 275 Q247 275 248 265 Q251 257 242 253 Q236 248 230 256 Q230 257 229 258 Q216 256 203 255 Q190 254 176 252 Q174 248 172.5 244.5 Q171 241 169 238 Q160 218 151 199.5 Q142 181 133 162 Q130 157 131 153 Q134 148 127 143 Q121 140 116 143 Q109 146 111 153 Q112 156 112.5 159.5 Q113 163 115 166 Q125 186 134 205 Q143 224 153 244 Q153 244 155 248 L150 248 Q145 247 139.5 246.5 Q134 246 128 245 Q123 243 121 240 Q113 220 104 201 Q95 182 86 162 Q84 159 84 153 Q83 145 73 143 Q64 143 64 151 Q64 153 66 159 Q73 175 79.5 190.5 Q86 206 94 222 Q96 227 98 230.5 Q100 234 102 239 L97 239 Q84 236 71.5 233.5 Q59 231 46 228 Q43 227 39.5 227 Q36 227 34 226 Q26 226 24 234 Q24 241 32 244 Q36 246 38 245 Q42 244 50 246 Q64 249 78 252 Q92 255 106 258 Q110 258 113 262 Q116 269 119 275.5 Q122 282 126 289 L117 289 Q101 286 86 283 Q71 280 55 278 Q52 277 48 277 Q40 279 40 285 Q42 294 50 294 Q54 295 57.5 295 Q61 295 64 296 Q81 299 97 302 Q113 305 130 307 Q135 309 137 313 Q143 327 149.5 340.5 Q156 354 162 368 Q164 370 164 372.5 Q164 375 165 377 Q167 383 169 385 Q174 390 180 389 Q187 387 185 380 Q183 370 181 366 Q176 354 170.5 342.5 Q165 331 160 320 Q159 316 156 312 Z M133 264 Q134 263 135 263 Q142 264 148.5 264.5 Q155 265 162 267 Q165 267 165 270 Q169 277 172.5 283.5 Q176 290 179 297 Q178 298 178 298 Q170 296 163.5 295.5 Q157 295 150 294 Q146 292 146 291 Q142 284 139 277.5 Q136 271 133 264 Z " />
<glyph glyph-name="dollar" unicode="&#x24;" horiz-adv-x="257" d="M205 448 Q213 451 219 453.5 Q225 456 231 458 Q236 460 242 461.5 Q248 463 254 464 Q265 466 270.5 459.5 Q276 453 274 445 Q274 442 273 439 Q272 436 271 434 Q261 411 250 389 Q239 367 227 344 Q220 330 212.5 316.5 Q205 303 200 289 Q196 280 187 282 Q179 285 182 294 Q187 305 192 315 Q197 325 202 335 Q215 360 227.5 384 Q240 408 251 434 Q253 437 253.5 440 Q254 443 256 447 Q253 446 249 446 Q242 444 235 441.5 Q228 439 221 436 Q214 434 208 430.5 Q202 427 195 424 Q191 423 188 418 Q169 381 150.5 344 Q132 307 113 270 Q113 267 112 265 Q117 263 122 260 Q127 257 132 254 Q137 251 143 248 Q149 245 154 242 Q162 237 168 230 Q185 213 171 191 Q166 183 159.5 176.5 Q153 170 145 165 Q122 149 97.5 137 Q73 125 45 118 Q39 116 37 111 Q30 96 23 81 Q16 66 9 51 Q5 42 -3 44 Q-12 47 -8 56 Q-4 66 0 75.5 Q4 85 9 95 Q11 99 13 103 Q15 107 17 112 Q12 112 7.5 112.5 Q3 113 -2 114 Q-16 116 -24.5 124.5 Q-33 133 -32 150 Q-32 163 -27.5 175 Q-23 187 -18 198 Q-11 212 -2.5 224.5 Q6 237 15 249 Q17 251 19 254 Q21 257 23 259 L29 265 Q35 268 40 265 Q45 260 42 255 Q41 252 37 248 Q24 231 13 214.5 Q2 198 -6 179 Q-13 164 -14 150 Q-14 134 -1 131 Q5 129 11 129.5 Q17 130 23 130 Q27 131 29 136 Q35 149 41 161.5 Q47 174 54 187 Q62 204 70 221 Q78 238 86 255 Q87 256 87 257 Q87 258 88 259 Q84 263 80.5 266 Q77 269 74 272 Q68 277 63 283 Q43 314 62 344 Q68 355 76 363.5 Q84 372 93 380 Q126 407 168 429 Q177 433 181 442 Q192 464 203.5 484.5 Q215 505 226 526 Q228 529 229 531.5 Q230 534 228 538 Q226 543 233 550.5 Q240 558 245 559 Q255 559 255 551 Q255 548 253 542 Q247 530 241.5 518 Q236 506 230 494 Q225 484 219.5 474.5 Q214 465 209 456 L205 448 Z M104 249 Q90 221 77 193.5 Q64 166 50 137 L53 137 Q78 146 100.5 157.5 Q123 169 143 186 Q145 188 148 190.5 Q151 193 153 195 Q165 211 151 222 Q143 228 139 230 Q131 235 122 239.5 Q113 244 104 249 Z M96 276 Q113 309 128.5 341 Q144 373 161 405 Q157 403 157 403 Q142 394 127.5 384 Q113 374 100 362 Q93 356 87.5 350 Q82 344 78 337 Q64 312 80 293 Q83 288 87 284.5 Q91 281 96 276 Z " />
<glyph glyph-name="percent" unicode="&#x25;" horiz-adv-x="290" d="M408 694 Q402 692 399 691 Q373 680 348.5 668.5 Q324 657 298 646 Q256 628 212 619 Q207 617 202 617 Q197 617 192 615 Q192 614 191.5 613 Q191 612 191 610 Q188 571 149 549 Q138 541 125 544 Q105 547 105 569 Q105 584 112 598 Q126 630 151 653 Q153 655 156 656.5 Q159 658 162 660 Q166 662 170 661 Q174 660 176 658 Q180 653 177.5 649 Q175 645 170 643 Q167 643 165 642 Q176 639 182 634 Q185 631 191 633 Q201 635 210 636.5 Q219 638 228 640 Q251 645 272 653.5 Q293 662 315 671 L393 707 Q398 709 403.5 710.5 Q409 712 414 714 Q416 715 422 715 Q433 715 431 704 Q431 699 428 693 Q424 688 420.5 682.5 Q417 677 412 672 Q392 646 371 621.5 Q350 597 329 571 Q256 481 189.5 388.5 Q123 296 60 199 Q34 161 9.5 122.5 Q-15 84 -40 46 Q-42 43 -44 40 Q-46 37 -48 35 Q-54 27 -61 31 Q-68 35 -63 42 Q-61 46 -58.5 49.5 Q-56 53 -54 56 Q-20 109 14 161 Q48 213 83 265 Q149 365 221.5 460.5 Q294 556 372 650 Q380 659 387 668 Q394 677 402 687 Q404 689 405 690.5 Q406 692 408 694 Z M148 624 Q140 613 133.5 602.5 Q127 592 125 580 Q124 576 124 568 Q125 559 135 561 Q141 562 146 566 Q164 578 171 597 Q172 601 172 611 Q174 616 168 616 Q155 616 148 624 Z M142 180 Q133 186 140 197 Q142 199 143 202 Q144 205 146 207 Q152 213 159 211 Q167 208 166 200 Q165 196 164.5 192 Q164 188 162 184 Q149 148 124 121 Q111 108 96 100 Q91 98 85.5 96 Q80 94 74 94 Q57 96 54 111 Q53 121 58 135 Q61 144 65.5 152.5 Q70 161 75 169 Q92 196 112 218 Q115 220 117.5 222.5 Q120 225 123 227 Q127 231 130 231 Q135 233 138 230.5 Q141 228 141 224 Q141 214 131 210 Q126 207 125 206 Q95 174 77 137 Q75 132 73 124 Q72 122 72 117 Q73 111 80 112 Q85 114 90 116.5 Q95 119 100 122 Q108 129 115 136 Q122 143 127 152 Q136 166 142 180 Z " />
<glyph glyph-name="ampersand" unicode="&#x26;" horiz-adv-x="322" d="M220 321 Q213 323 213 329 Q213 331 213.5 333 Q214 335 214 337 Q219 359 215 376 L212 385 Q208 393 201.5 396 Q195 399 187 398 Q170 395 154 387 Q118 367 95 338 Q89 329 84 319 Q78 305 91 299 Q99 295 107 293.5 Q115 292 123 290 Q129 289 134.5 288 Q140 287 146 286 Q147 286 148 285.5 Q149 285 150 285 Q157 283 158 277.5 Q159 272 155 267 Q153 265 151 263 Q149 261 147 259 Q137 251 127 243.5 Q117 236 108 228 Q96 218 86 207 Q76 196 67 184 Q64 179 61 174 Q58 169 56 164 Q54 162 54 159 Q54 156 53 153 Q53 146 60 146 Q70 146 75 148 Q85 150 94 154.5 Q103 159 111 164 Q128 174 143.5 183.5 Q159 193 176 204 Q178 205 179.5 206 Q181 207 183 208 Q189 211 195 207 Q199 203 197 196 Q193 188 190 185 Q174 160 160 134 Q146 108 132 82 Q113 44 97 5 Q81 -34 65 -73 Q55 -98 46.5 -122.5 Q38 -147 30 -173 Q29 -175 29 -178 Q29 -181 28 -183 Q26 -188 28 -192 Q31 -197 28 -202 Q24 -209 18 -209 Q10 -207 9 -202 Q8 -199 8 -191 Q10 -177 14.5 -162.5 Q19 -148 24 -134 Q47 -69 73 -6 Q99 57 131 118 Q137 130 144 142 Q151 154 158 166 Q160 170 161 173 Q157 171 156 170 Q142 162 127.5 154 Q113 146 99 138 Q94 136 88.5 134 Q83 132 78 130 Q66 127 57 128 Q37 130 35 151 Q35 162 40 172 Q45 182 50.5 190 Q56 198 62 206 Q76 223 91 237 Q106 251 123 264 Q125 266 127 267 Q129 268 132 270 Q127 272 122.5 272 Q118 272 113 274 Q107 276 100.5 277.5 Q94 279 88 281 Q85 282 81.5 283.5 Q78 285 76 287 Q61 299 65 318 Q67 323 68.5 327 Q70 331 72 336 Q109 392 169 412 Q177 414 184 415.5 Q191 417 199 415 Q222 410 229 390 Q231 383 232.5 376.5 Q234 370 236 363 Q236 362 236.5 362.5 Q237 363 237 364 Q261 408 284.5 451.5 Q308 495 332 539 Q358 585 383 630.5 Q408 676 434 723 Q435 725 436 727 Q437 729 438 731 Q442 737 439 741 Q437 743 437.5 745 Q438 747 440 749 Q443 753 446 756 Q449 759 452 762 Q457 767 463 764 Q469 760 467 754 Q465 746 463 741 Q455 725 446.5 709.5 Q438 694 430 679 Q389 604 349 531 Q309 458 268 384 Q262 373 257.5 364.5 Q253 356 248 346 Q242 335 235 327 Q228 319 220 321 Z " />
<glyph glyph-name="quotesingle" unicode="&#x27;" horiz-adv-x="167" d="M214 808 Q213 805 209 797 Q204 789 200.5 781.5 Q197 774 192 766 Q189 760 182 755 Q176 750 170 754 Q164 758 169 763 Q176 771 180 780.5 Q184 790 190 799 Q192 802 192.5 804.5 Q193 807 195 810 Q195 811 195.5 811.5 Q196 812 196 813 Q201 820 209 818 Q217 818 214 808 Z " />
<glyph glyph-name="parenleft" unicode="&#x28;" horiz-adv-x="197" d="M35 241 Q37 286 46.5 328 Q56 370 73 412 Q98 475 131.5 534 Q165 593 206 650 Q252 714 308 773 Q313 777 317 781 Q321 785 326 789 Q330 793 332 794 Q338 798 343 793 Q347 787 343 782 Q343 781 341 779 Q311 751 284.5 720.5 Q258 690 233 657 Q192 603 158 546 Q124 489 98 427 Q87 401 78 375.5 Q69 350 64 323 Q61 309 59 296.5 Q57 284 55 270 Q53 249 53 228 Q53 207 53 185 Q53 168 54 150 Q55 132 56 114 Q56 112 56.5 111 Q57 110 57 108 Q57 104 61 103 Q67 100 67 92 Q67 84 59 82 Q50 80 46 86 Q43 91 41 96 Q39 105 38 113.5 Q37 122 36 131 Q34 152 34 172.5 Q34 193 35 214 L35 241 Z " />
<glyph glyph-name="parenright" unicode="&#x29;" horiz-adv-x="193" d="M210 641 Q210 637 209 633.5 Q208 630 208 626 Q207 608 203.5 590 Q200 572 196 554 Q185 500 167.5 448 Q150 396 127 345 Q110 309 90 275 Q70 241 47 208 Q27 180 6.5 152 Q-14 124 -34 95 Q-35 94 -37 90 Q-45 81 -53 87 Q-60 94 -52 101 Q-50 103 -48.5 105.5 Q-47 108 -45 110 Q-19 146 6 181.5 Q31 217 56 253 Q78 285 95 319 Q112 353 126 388 Q142 427 155 467 Q168 507 177 548 Q182 568 185 587 Q188 606 190 626 Q192 642 193.5 657.5 Q195 673 195 689 Q195 712 193 733.5 Q191 755 186 777 Q184 784 189 788 Q193 791 197 790 Q201 789 203 784 Q205 779 205.5 773 Q206 767 208 762 Q214 728 212 690 Q212 688 212.5 686 Q213 684 213 682 Q212 671 211.5 661.5 Q211 652 210 641 Z " />
<glyph glyph-name="asterisk" unicode="&#x2a;" horiz-adv-x="235" d="M191 696 Q183 695 175.5 694.5 Q168 694 160 693 Q158 693 155.5 692.5 Q153 692 151 692 Q142 692 142 699 Q140 707 147 709 L162 712 Q169 713 176 713 Q183 713 191 714 Q186 719 182 725 L174 733 Q166 742 173 747 Q180 754 187 745 Q192 739 198 733 Q204 727 209 721 Q211 719 212 717 Q215 720 215 722 Q221 735 227 747 Q233 759 239 772 Q241 775 243 781 Q244 783 244 783.5 Q244 784 245 786 Q250 791 256 789 Q263 787 261 780 Q261 778 259 772 Q255 764 251 755 Q247 746 243 738 Q242 736 241.5 734 Q241 732 240 730 Q244 732 250 736 Q254 738 257.5 740.5 Q261 743 264 745 Q267 747 273 749 Q281 751 283 743 Q286 737 278 732 Q273 730 269 727 Q265 724 260 722 Q258 720 258 718 Q260 718 261 718.5 Q262 719 264 718 Q269 717 272.5 717 Q276 717 280 715 Q281 715 282 714 Q283 713 285 712 Q290 707 286 701 Q282 693 275 698 Q267 701 259 700 Q254 699 249.5 699.5 Q245 700 240 699 Q234 699 230 698 Q232 696 232 695.5 Q232 695 234 694 Q241 683 251 674 Q253 672 256 670 Q259 668 261 666 Q266 662 265 657 Q264 651 258 650 Q253 650 252 651 Q246 654 241 659 Q236 664 232 668.5 Q228 673 223 678 Q222 680 218 684 Q217 682 215 680 Q208 665 201.5 650 Q195 635 192 618 Q190 614 190 614 Q187 608 180 610 Q174 612 174 618 Q174 622 175 624 Q178 634 181 643 Q184 652 187 661 Q188 663 188.5 665 Q189 667 190 669 Q188 668 186 666 Q181 661 176 655 Q171 649 166 644 Q165 642 162 639 Q160 637 157 636.5 Q154 636 152 638 Q147 642 148 647 Q149 651 152 654 Q159 665 167.5 673.5 Q176 682 186 690 Q188 691 189 692 Q190 693 192 694 Q191 696 191 696 Z " />
<glyph glyph-name="plus" unicode="&#x2b;" horiz-adv-x="280" d="M168 296 L203 296 Q208 296 214 295.5 Q220 295 226 294 Q232 294 237 291 Q246 287 242 278 Q240 273 234.5 271 Q229 269 226 273 Q222 278 213 278 Q187 279 159 278 Q156 271 153 265 Q150 259 147 252 Q134 224 121.5 197 Q109 170 97 142 Q95 140 94.5 137 Q94 134 92 131 Q89 122 80 123 Q71 125 74 133 Q77 141 80 147.5 Q83 154 86 161 Q99 188 111 215.5 Q123 243 136 271 Q138 275 139 278 Q132 277 125.5 277 Q119 277 112 276 L40 270 Q38 269 35.5 269.5 Q33 270 31 270 Q21 272 25 281 Q28 289 38 287 Q43 287 47.5 287 Q52 287 57 288 Q71 290 85 291 Q99 292 113 293 Q121 294 130 294.5 Q139 295 148 295 Q149 297 149.5 298.5 Q150 300 151 302 Q160 321 169 339 Q178 357 186 375 Q189 380 190 381 Q195 386 200 385 Q207 383 205 378 Q205 372 202 368 Q194 351 185.5 333 Q177 315 169 298 Q169 297 168 296 Z " />
<glyph glyph-name="comma" unicode="&#x2c;" horiz-adv-x="167" d="M62 209 L59 203 Q54 195 49 187.5 Q44 180 39 172 L30 160 Q24 154 17 158 Q12 161 16 168 Q23 179 29.5 188.5 Q36 198 42 209 L48 215 Q55 220 59 217 Q64 215 62 209 Z " />
<glyph glyph-name="hyphen" unicode="&#x2d;" horiz-adv-x="249" d="M73 291 Q69 291 64 291.5 Q59 292 54 293 Q50 293 46 297 Q41 302 45 308 Q49 313 54 312 Q63 308 71.5 308.5 Q80 309 89 310 Q100 310 109.5 310.5 Q119 311 130 312 Q142 313 154 313 Q166 313 178 313 L182 313 Q189 311 189 305 Q190 298 183 296 Q179 295 173 295 Q159 295 146.5 294.5 Q134 294 120 294 Q109 293 97.5 292.5 Q86 292 73 291 Z " />
<glyph glyph-name="period" unicode="&#x2e;" horiz-adv-x="155" d="M25 156 Q16 156 20 165 Q23 175 34 175 Q41 175 39 166 Q35 156 25 156 Z " />
<glyph glyph-name="slash" unicode="&#x2f;" horiz-adv-x="270" d="M444 786 Q443 784 442.5 782 Q442 780 440 778 Q426 755 413.5 733 Q401 711 387 688 Q367 656 345 626 Q323 596 300 566 Q258 510 217 455 Q176 400 135 344 Q95 290 56.5 236.5 Q18 183 -21 129 Q-29 118 -36 106 Q-43 94 -51 82 Q-56 75 -64 77 Q-73 81 -69 88 Q-64 96 -58.5 105 Q-53 114 -47 122 Q-20 160 7.5 198.5 Q35 237 63 275 Q99 326 135.5 375 Q172 424 210 475 Q239 514 268 553 Q297 592 326 631 Q351 665 372.5 699.5 Q394 734 414 769 Q417 774 420 780 Q423 786 426 791 Q431 798 438 796 Q445 795 444 786 Z " />
<glyph glyph-name="zero" unicode="0" horiz-adv-x="291" d="M29 228 Q33 249 40 268.5 Q47 288 56 308 Q67 330 78.5 351 Q90 372 106 392 Q109 397 113 401 Q117 405 121 410 L126 415 Q133 420 138 415 Q143 409 137 403 Q120 386 106 364 Q76 317 58 267 Q49 244 46 219 Q45 208 45 197.5 Q45 187 48 177 Q49 171 53 166 Q63 149 84 157 Q101 162 116 177 Q133 193 146.5 210 Q160 227 171 246 Q185 269 197 293 Q209 317 218 343 Q221 352 223.5 361 Q226 370 229 379 Q235 406 231 430 Q231 433 229 439 Q226 448 217.5 448 Q209 448 202 443 Q192 435 183.5 425 Q175 415 170 404 L167 398 Q160 390 154 393 Q147 397 151 404 Q164 432 185 450 Q197 460 208 464 Q234 470 245 450 Q251 438 251 423 Q251 413 250.5 403 Q250 393 248 382 Q241 348 224 311 Q212 284 198 258 Q184 232 165 207 Q156 196 146.5 185 Q137 174 126 164 Q108 148 89 141 Q51 128 35 159 Q27 174 27 195 Q27 203 27.5 211.5 Q28 220 29 228 Z " />
<glyph glyph-name="one" unicode="1" horiz-adv-x="226" d="M84 162 Q95 164 104 166 Q113 168 123 170 Q124 171 126 171 Q134 176 139 170 Q143 162 134 156 Q130 154 127 154 L82 145 Q70 143 58 140 Q46 137 35 135 Q24 133 24 142 Q24 150 34 152 Q42 154 48.5 155 Q55 156 63 158 Q66 161 66 162 Q68 168 70 174 Q72 180 74 186 Q79 201 84 216 Q89 231 94 246 Q100 263 106 280.5 Q112 298 119 315 Q129 341 140.5 365.5 Q152 390 164 415 L176 439 Q169 433 162.5 427.5 Q156 422 149 417 Q147 415 144.5 413 Q142 411 140 409 Q133 403 128 408 Q122 412 128 420 L132 424 Q143 433 154 442.5 Q165 452 176 461 Q178 463 182 465 Q189 470 195 467 Q201 462 200 455 Q197 445 192 433 Q183 414 174 396 Q165 378 156 359 Q145 336 136 312 Q127 288 119 264 Q111 242 104 220 Q97 198 89 176 Q87 173 86.5 169.5 Q86 166 84 162 Z " />
<glyph glyph-name="two" unicode="2" horiz-adv-x="280" d="M127 196 Q146 189 164.5 182 Q183 175 202 168 Q209 176 214 174 Q221 169 218 159 Q214 150 206 148 Q201 147 197.5 148 Q194 149 189 151 Q172 158 154 164.5 Q136 171 118 178 Q111 181 104 175 Q84 157 65 154 Q48 149 36 157 Q24 165 28 181 Q31 191 41 198 Q47 203 53.5 204 Q60 205 66 206 Q77 207 87.5 205.5 Q98 204 108 202 Q110 201 113 204 Q129 221 142.5 238.5 Q156 256 169 275 Q183 295 195 315 Q207 335 218 357 Q223 367 227 376.5 Q231 386 233 397 Q234 402 234.5 406.5 Q235 411 234 416 Q234 435 215 429 Q206 427 197.5 422 Q189 417 181 412 Q166 401 152.5 389 Q139 377 128 361 Q123 355 119.5 348.5 Q116 342 112 335 Q110 333 112 332 Q114 327 111 320 Q107 314 99 316 Q91 319 94 330 Q97 341 105 355 Q116 374 130.5 389 Q145 404 162 417 Q173 425 183.5 432 Q194 439 205 444 Q221 450 233 449 Q248 446 251 427 Q253 416 251 404.5 Q249 393 245 381 Q233 347 214 316.5 Q195 286 174 256 Q163 241 152 226.5 Q141 212 128 198 Q128 197 127 196 Z M92 185 L92 186 Q84 187 76.5 187 Q69 187 61 187 Q56 187 48 183 Q41 181 46 176 Q48 174 50 173 Q61 169 71 173 Q81 177 92 185 Z " />
<glyph glyph-name="three" unicode="3" horiz-adv-x="292" d="M160 319 Q165 317 170.5 314.5 Q176 312 181 309 Q192 302 196.5 292 Q201 282 203 270 Q205 255 201 240.5 Q197 226 189 212 Q189 211 188.5 211 Q188 211 188 209 L203 209 Q208 209 212 208.5 Q216 208 221 208 Q229 208 229 200 Q227 192 218 192 Q213 192 208 192.5 Q203 193 198 193 L181 193 Q178 195 176 191 Q158 165 136 147 Q125 138 112.5 131 Q100 124 85 122 Q59 117 44 131 Q24 147 42 173 Q55 193 83 203 Q107 211 128 211 Q137 210 146.5 210 Q156 210 165 210 Q167 210 169 212 Q174 222 178 231.5 Q182 241 183 252 Q185 263 182.5 274 Q180 285 170 293 Q167 296 163 298 Q159 300 155 302 Q149 304 145 306 Q135 313 142 323 Q148 331 153 336 Q168 351 183.5 365.5 Q199 380 213 396 Q221 406 228 415 Q235 424 240 435 Q244 445 244 450 Q246 458 236 455 Q226 452 217 446 Q204 438 193 428 Q182 418 172 407 Q161 396 152 384 Q143 372 135 359 Q131 351 131 347 Q131 341 123 339 Q115 337 112 344 Q111 348 114 356 Q119 367 126 377 Q133 387 141 397 Q155 414 170 429 Q185 444 204 457 Q212 462 219.5 466 Q227 470 237 472 Q251 474 258 467.5 Q265 461 264 451 Q263 440 258.5 431 Q254 422 247 413 Q236 396 222 381 Q208 366 194 352 Q186 344 178.5 337.5 Q171 331 163 323 Q162 322 161.5 321 Q161 320 160 319 Z M157 194 Q152 194 147 194.5 Q142 195 137 195 Q132 195 127 194.5 Q122 194 117 194 Q108 193 99 191.5 Q90 190 82 185 Q63 177 57 165 Q51 154 55.5 147 Q60 140 72 138 Q79 136 85.5 138 Q92 140 99 142 Q117 151 129 163 Q145 178 157 194 Z " />
<glyph glyph-name="four" unicode="4" horiz-adv-x="280" d="M196 363 L172 330 Q161 316 149 302.5 Q137 289 125 275 Q115 262 100 253 Q89 247 77 247 Q65 247 57 258 Q50 268 50 281 Q48 298 51 312 Q55 333 63 354 Q71 376 81 396.5 Q91 417 103 437 Q107 443 110 445 Q115 451 122 446 Q127 441 123 435 Q118 426 112.5 417 Q107 408 102 398 Q93 381 86 363.5 Q79 346 74 328 Q71 318 69 308.5 Q67 299 68 289 Q68 279 71 270 Q74 261 84 265 Q94 269 99 274 Q120 292 136 314 Q162 348 187.5 382 Q213 416 239 450 Q240 452 241 453 Q242 454 243 456 Q248 463 255 459 Q263 455 259 448 Q257 442 254 436 Q251 430 248 424 Q220 370 195 315.5 Q170 261 147 205 L120 139 L120 134 Q123 126 116 119 Q111 114 104 116 Q97 120 98 125 Q100 131 101 136.5 Q102 142 104 147 Q115 173 125.5 199 Q136 225 147 251 Q159 279 171.5 306 Q184 333 196 360 Q197 362 197 362 Q197 363 196 363 Z " />
<glyph glyph-name="five" unicode="5" horiz-adv-x="280" d="M82 287 Q86 289 89 291 Q92 293 95 295 Q103 300 110.5 303 Q118 306 127 307 Q143 310 154.5 302.5 Q166 295 168 278 Q171 255 158 229 Q138 180 97 150 Q75 132 48 131 Q41 130 31 132 Q15 137 22 153 Q31 171 46 183 Q61 193 65 177 Q68 169 60 162 Q55 157 48 162 Q46 158 43.5 155 Q41 152 39 149 L40 148 Q43 148 46.5 148 Q50 148 53 149 Q66 151 77 157.5 Q88 164 98 173 Q115 189 127 207 Q139 225 146 246 Q152 260 150 275 Q148 286 142 289 Q136 292 128 290 Q109 286 91 271 Q83 266 77 260 Q71 254 64 248 Q63 246 62 245.5 Q61 245 60 243 Q53 239 49 243 Q43 246 46 253 Q49 261 52.5 268 Q56 275 60 283 Q75 313 89.5 343.5 Q104 374 119 404 Q121 408 122.5 411.5 Q124 415 126 420 Q120 418 112 416 Q108 415 104 414.5 Q100 414 95 413 Q87 411 85 420 Q84 423 86.5 426 Q89 429 92 430 Q103 433 114.5 435.5 Q126 438 137 440 Q154 444 171 447.5 Q188 451 205 454 Q215 456 224 456.5 Q233 457 243 458 Q249 459 257 457 Q264 454 264 445 Q262 438 255 436 Q249 436 246 439 Q244 441 242 441 Q234 439 225.5 439 Q217 439 209 437 L149 425 Q148 425 145 422 Q142 414 139 405.5 Q136 397 132 389 Q120 364 108 339.5 Q96 315 84 291 Q82 287 82 287 Z " />
<glyph glyph-name="six" unicode="6" horiz-adv-x="244" d="M56 192 Q73 217 90 238 Q99 251 109 263.5 Q119 276 131 287 Q139 295 146.5 301 Q154 307 164 312 Q169 314 174 316 Q179 318 184 317 Q194 315 199 308 Q201 303 201.5 299 Q202 295 202 290 Q201 275 196 261 Q191 247 184 233 Q173 213 160 194.5 Q147 176 131 159 Q123 151 113.5 144 Q104 137 93 132 Q72 122 56 132 Q54 133 54 133 Q46 131 40 134.5 Q34 138 35 146 Q35 149 36 152.5 Q37 156 38 159 Q38 161 38.5 162 Q39 163 38 165 Q36 186 39 205 Q43 234 53.5 261 Q64 288 78 315 Q116 386 172 445 Q181 454 192 462 Q193 465 199 465 Q203 466 206 463 Q209 460 207 456 Q205 447 197 444 Q195 444 193 442 Q181 431 170.5 418 Q160 405 149 392 Q99 329 70 254 Q65 240 61.5 227.5 Q58 215 56 201 L56 192 Z M184 284 Q183 288 183 297 Q183 302 178 300 Q172 298 169 296 Q154 287 142 275 Q130 263 120 250 Q110 237 99 223 Q88 209 78 194.5 Q68 180 60 164 Q58 162 58 161 Q58 156 62 151.5 Q66 147 71 145 Q78 143 89 148 Q103 155 116 168 Q131 184 143 201 Q155 218 166 236 Q172 248 177 259.5 Q182 271 184 284 Z " />
<glyph glyph-name="seven" unicode="7" horiz-adv-x="274" d="M155 305 L173 308 Q178 309 184 309.5 Q190 310 196 310 Q200 310 204 308 Q207 307 208 304 Q209 301 207 299 Q203 292 197 292 Q192 292 187 292 Q182 292 177 291 Q169 290 160.5 289 Q152 288 143 286 Q140 286 139 283 Q126 263 113.5 244 Q101 225 89 205 Q78 188 67.5 170 Q57 152 46 134 Q44 130 44 128 Q42 118 33 118 Q23 118 25 127 Q26 131 30 139 Q42 159 54 179.5 Q66 200 79 221 Q89 236 98.5 251 Q108 266 118 282 Q115 282 112.5 281.5 Q110 281 107 281 Q99 279 92 278.5 Q85 278 77 276 Q71 276 68 277 Q60 279 64 288 Q66 291 69.5 293.5 Q73 296 76 295 Q81 293 85.5 294 Q90 295 95 296 Q103 298 111 298.5 Q119 299 127 301 Q131 301 134 305 Q152 330 171.5 353.5 Q191 377 211 401 Q219 410 225.5 419 Q232 428 239 437 Q241 439 241.5 442 Q242 445 244 447 Q245 452 240 452 Q235 451 230.5 451 Q226 451 221 449 Q200 444 179.5 438 Q159 432 139 426 Q131 424 124 422.5 Q117 421 109 419 Q104 417 101 419 Q94 419 94 427 Q96 436 104 436 Q115 436 125 439.5 Q135 443 146 446 Q164 451 182 456 Q200 461 219 466 Q231 469 244 469 Q252 470 257 465.5 Q262 461 262 453 Q263 448 261 444 Q259 440 257 435 Q252 426 245.5 417.5 Q239 409 232 401 Q216 382 201 363.5 Q186 345 170 326 Q162 317 155 305 Z " />
<glyph glyph-name="eight" unicode="8" horiz-adv-x="268" d="M64 133 Q33 133 31 160 Q29 172 32 183 Q35 194 40 205 Q50 225 62.5 243.5 Q75 262 90 279 Q93 283 95 286.5 Q97 290 96 295 Q93 319 106 345 Q112 359 121 372 Q130 385 141 396 Q157 413 174.5 427.5 Q192 442 212 454 Q219 460 230 463 Q240 466 246 461 Q252 456 250 445 Q247 433 241.5 421.5 Q236 410 229 399 Q211 367 192.5 334.5 Q174 302 156 270 Q152 264 149 257.5 Q146 251 142 244 L142 238 Q145 230 147 222.5 Q149 215 147 207 Q146 185 128 166 Q106 141 75 134 Q71 133 64 133 Z M130 259 Q131 261 131 261 Q148 292 166 322.5 Q184 353 201 384 Q208 397 215.5 409 Q223 421 228 435 Q230 438 230 440.5 Q230 443 232 445 L231 446 Q228 444 225.5 443 Q223 442 220 440 Q186 419 155 386 Q144 375 135.5 363.5 Q127 352 122 338 Q114 322 114 305 Q115 306 115 306 Q122 310 128 305 Q132 299 125 292 L119 286 Q118 285 118 282 Q121 277 124 271 Q127 265 130 259 Z M103 268 Q90 253 79 237 Q68 221 60 204 Q55 195 51.5 185.5 Q48 176 49 166 Q49 151 61 150 Q69 150 72 151 Q107 158 124 190 Q132 206 128 220 Q128 221 126 223 Q118 226 121 236 Q121 239 120 240 Q112 255 103 268 Z " />
<glyph glyph-name="nine" unicode="9" horiz-adv-x="238" d="M174 386 Q170 381 166.5 376 Q163 371 159 366 Q150 354 140.5 343 Q131 332 120 321 Q115 316 109.5 312 Q104 308 97 304 Q89 301 82.5 301 Q76 301 72 306 Q64 314 66 325 Q67 341 73 355.5 Q79 370 89 384 Q97 397 106.5 408.5 Q116 420 129 429 Q141 439 153 442 Q174 447 182 428 L183 427 Q189 434 194 443 Q198 448 201 452 Q204 456 208 460 Q213 467 221 465 Q228 461 225 454 Q223 448 220.5 442 Q218 436 215 431 Q192 385 171.5 339 Q151 293 131 246 L83 132 Q82 130 82 129 Q82 128 81 127 Q78 120 70 122 Q62 122 64 130 Q65 133 66 135.5 Q67 138 68 141 Q86 184 104 226 Q122 268 140 310 Q148 329 157 347.5 Q166 366 174 385 L174 386 Z M172 411 Q166 417 166 418 Q162 431 151 423 Q142 420 135 413 Q117 396 104 377.5 Q91 359 85 337 Q84 332 84 322 Q85 318 90 320 Q93 320 95 322 Q99 325 103 328 Q107 331 111 335 Q121 344 129.5 354.5 Q138 365 146 376 Q153 385 159 394 Q165 403 172 411 Z " />
<glyph glyph-name="colon" unicode="&#x3a;" horiz-adv-x="127" d="M86 317 Q84 312 77.5 307 Q71 302 66 303 Q61 303 61 308 Q61 312 66 317 Q68 319 71 321 Q74 323 76 325 Q82 328 85 325 Q88 322 86 317 Z M39 242 Q30 242 34 251 Q37 261 48 261 Q51 261 53 258.5 Q55 256 53 252 Q49 242 39 242 Z " />
<glyph glyph-name="semicolon" unicode="&#x3b;" horiz-adv-x="137" d="M65 262 L62 256 Q57 248 52 241 Q47 234 42 226 Q40 222 37.5 219 Q35 216 33 213 Q26 208 20 211 Q16 214 19 222 Q26 232 32.5 241.5 Q39 251 46 262 Q48 266 51 269 Q58 273 62 270 Q67 268 65 262 Z M81 331 Q87 331 89.5 324.5 Q92 318 88 313 Q81 304 73 310 Q71 314 69 315 Q66 321 69 325 Q73 331 81 331 Z " />
<glyph glyph-name="less" unicode="&#x3c;" horiz-adv-x="265" d="M50 250 Q61 245 70 240.5 Q79 236 89 231 Q105 223 120.5 215 Q136 207 150 197 Q160 190 170 189 Q180 186 178 178 Q177 175 174 172.5 Q171 170 167 171 Q157 173 153 175 L138 184 Q112 200 89 211 Q77 217 64.5 223.5 Q52 230 39 235 Q29 240 28 247 Q27 254 35 261 Q39 264 42.5 267.5 Q46 271 51 273 Q90 298 129.5 322.5 Q169 347 208 372 Q214 376 219 378 Q225 380 228 380 Q238 380 238 370 Q238 365 235 362 Q232 359 228 360 Q222 360 216 356 Q177 332 138.5 307.5 Q100 283 62 259 L50 250 Z " />
<glyph glyph-name="equal" unicode="&#x3d;" horiz-adv-x="275" d="M187 256 Q186 257 184.5 258 Q183 259 183 261 Q183 262 179 264 Q137 269 88 264 Q75 263 62.5 262.5 Q50 262 39 264 L34 264 Q27 268 36 277 Q41 280 47 282 Q53 284 55 282 Q59 279 66 279 L111 282 Q137 283 161 282.5 Q185 282 208 276 Q210 274 209.5 270 Q209 266 205 262 Q201 260 196.5 258 Q192 256 187 256 Z M76 307 L70 307 Q62 309 68 316 Q75 325 84 323 Q97 324 109.5 324.5 Q122 325 136 326 Q148 326 160 326 Q172 326 185 327 L223 327 Q227 326 233 326 Q240 324 233 315 Q227 309 218 309 Q200 311 179.5 310.5 Q159 310 139 309 Q124 309 108.5 308.5 Q93 308 76 307 Z " />
<glyph glyph-name="greater" unicode="&#x3e;" horiz-adv-x="218" d="M143 298 Q125 310 110.5 323 Q96 336 79 347 Q71 352 67.5 354.5 Q64 357 58 362 Q51 369 57 374 Q61 378 67 375 Q70 373 87.5 361.5 Q105 350 123.5 336 Q142 322 155.5 308 Q169 294 163 287 Q123 257 76 231.5 Q29 206 -13 180 Q-17 177 -20.5 175 Q-24 173 -24 168 Q-28 163 -34 166 Q-45 171 -39.5 179 Q-34 187 -28 192 Q13 221 58 245 Q103 269 143 298 Z " />
<glyph glyph-name="question" unicode="&#x3f;" horiz-adv-x="265" d="M334 789 Q308 789 286.5 783 Q265 777 245 768 Q219 755 195 738.5 Q171 722 150 699 Q143 691 137 683 Q131 675 127 665 Q126 664 126 661 Q124 654 125.5 653 Q127 652 132 653 Q141 654 141 647 Q143 639 133 636 Q120 632 112.5 638 Q105 644 107 657 Q109 668 113.5 676.5 Q118 685 125 694 Q136 709 149 721.5 Q162 734 178 745 Q221 779 268 795 Q286 801 304.5 804.5 Q323 808 341 806 Q353 805 365 801.5 Q377 798 386 790 Q401 776 397 754 Q395 738 388.5 723 Q382 708 374 694 Q360 671 345.5 649.5 Q331 628 315 606 Q284 564 254 522 Q224 480 196 437 Q154 372 114 308 Q74 244 33 178 Q33 176 32.5 174.5 Q32 173 32 171 Q32 162 22 160 Q12 158 12 168 Q12 173 15 178 Q27 200 43 225 Q81 287 119 347.5 Q157 408 198 469 Q224 507 250.5 544 Q277 581 304 618 Q319 639 333.5 660 Q348 681 360 704 Q366 714 370 723.5 Q374 733 377 743 Q387 772 361 783 Q353 786 346 787.5 Q339 789 334 789 Z M-27 58 Q-33 58 -33 64 Q-34 68 -30 76 Q-28 78 -25 79.5 Q-22 81 -20 82 Q-12 85 -10 79 Q-7 74 -13 68 Q-14 66 -15 65.5 Q-16 65 -17 63 Q-22 58 -27 58 Z " />
<glyph glyph-name="at" unicode="&#x40;" horiz-adv-x="330" d="M187 360 Q189 362 189.5 363 Q190 364 192 366 L216 396 Q218 398 218.5 399 Q219 400 221 401 Q227 405 233 402 Q238 399 235 393 Q233 388 231 386 Q203 345 181 306 Q173 291 165.5 276 Q158 261 153 245 Q151 237 149.5 230 Q148 223 149 215 Q149 211 150 210 Q153 201 163 202 Q171 202 177 205 Q185 208 192.5 213.5 Q200 219 207 225 Q227 243 243 263.5 Q259 284 273 307 Q291 336 299 362 Q312 401 299 435 Q291 455 271 464 Q250 473 227 473 Q187 473 151 455 Q129 444 111 429.5 Q93 415 78 398 Q60 376 46 353 Q32 330 21 305 Q15 290 9.5 275 Q4 260 0 244 Q-5 224 -7 203.5 Q-9 183 -6 163 Q-3 149 2 137 Q7 125 17 115 Q39 95 69 89 Q80 87 90 89 Q100 91 111 94 Q147 107 177 134 Q183 140 188.5 146 Q194 152 199 158 Q203 162 206 165.5 Q209 169 212 173 Q217 180 225 176 Q233 172 226 165 Q211 143 191.5 124.5 Q172 106 147 93 Q131 84 112 78 Q73 65 38 80 Q-13 102 -24 155 Q-26 169 -26.5 182 Q-27 195 -25 209 Q-12 305 52 393 Q67 413 84.5 429.5 Q102 446 125 460 Q165 483 208 489 Q250 495 288 476 Q307 467 314 449 Q326 425 324 394 Q323 377 317.5 360.5 Q312 344 304 327 Q274 266 225 219 Q207 201 186 191 Q174 185 160 185 Q137 183 131 203 Q129 210 129.5 217 Q130 224 131 231 Q133 245 138.5 257.5 Q144 270 150 284 Q150 287 150 287 Q149 285 148 284.5 Q147 284 146 282 Q137 271 127 261 Q117 251 106 242 Q100 236 88 229 Q77 224 68 227 Q59 230 56 241 Q53 254 57 266 Q62 287 72.5 306 Q83 325 97 342 Q108 357 126 370 Q132 374 137.5 377 Q143 380 150 381 Q174 387 184 367 Q185 365 185 363.5 Q185 362 187 360 Z M76 242 Q84 245 91 250 Q98 256 104.5 262.5 Q111 269 118 276 Q130 290 141.5 303.5 Q153 317 164 331 Q166 333 166 335 Q170 351 166 359 Q163 366 154 365 Q151 364 147.5 363 Q144 362 141 360 Q136 356 130.5 352 Q125 348 120 343 Q103 326 91.5 306.5 Q80 287 75 264 Q72 253 76 242 Z " />
<glyph glyph-name="Euro" unicode="&#x20ac;" horiz-adv-x="413" d="M459 468 Q463 467 464.5 463.5 Q466 460 465 457 Q464 453 461 452 Q458 451 455 451 Q447 453 439 453 Q435 453 431 453.5 Q427 454 422 454 Q366 454 310.5 434.5 Q255 415 213 377 Q198 364 186 349.5 Q174 335 163 318 Q207 318 249.5 318.5 Q292 319 335 319 Q343 319 343 310.5 Q343 302 335 302 Q290 302 245 301.5 Q200 301 154 301 Q151 295 148 288.5 Q145 282 143 274 Q141 269 139.5 263 Q138 257 136 251 L277 251 Q285 251 285 242.5 Q285 234 277 234 L133 234 Q129 214 130.5 194 Q132 174 142 157 Q153 136 172 123 Q191 110 214 105 Q240 98 267 98.5 Q294 99 320 105 Q328 107 330 98.5 Q332 90 324 88 Q290 81 254 82 Q228 84 202.5 90.5 Q177 97 156 114 Q135 131 124.5 155 Q114 179 114 206 Q114 213 114 219.5 Q114 226 115 234 L45 234 Q37 234 37 242.5 Q37 251 45 251 L118 251 Q124 275 135 301 Q121 301 107.5 301 Q94 301 80 302 Q72 302 72 310.5 Q72 319 80 319 Q96 319 112 318.5 Q128 318 144 318 Q146 323 148.5 327 Q151 331 154 335 Q188 387 244 421 Q292 450 348 463 Q404 476 459 468 Z " />
<glyph glyph-name="cent" unicode="&#xa2;" horiz-adv-x="309" d="M241 395 Q268 387 274 360 Q276 346 273.5 331.5 Q271 317 265 303 Q263 294 255 297 Q252 298 249.5 301 Q247 304 249 307 Q252 315 254.5 324 Q257 333 258 341 Q258 348 257.5 354.5 Q257 361 254 366 Q247 376 235 379 Q218 382 202 379 Q173 328 145.5 276 Q118 224 92 171 Q105 166 119 168 Q142 168 160 177 Q180 185 193 201 Q198 208 205 204 Q207 202 208 198.5 Q209 195 207 193 Q187 166 152 155 Q117 144 85 155 Q82 150 79.5 144.5 Q77 139 74 134 Q71 126 63.5 130.5 Q56 135 60 142 Q62 147 64.5 152 Q67 157 69 162 Q48 174 39 192 Q33 203 31.5 215.5 Q30 228 32 241 Q37 276 59.5 305.5 Q82 335 110 356 Q125 367 141.5 376.5 Q158 386 176 391 Q181 393 191 395 Q197 406 203 415.5 Q209 425 215 436 Q217 440 220.5 440.5 Q224 441 227 439.5 Q230 438 231 434.5 Q232 431 230 428 Q225 420 221 412.5 Q217 405 212 397 Q226 398 241 395 Z M54 200 Q62 184 77 177 Q101 227 126.5 276.5 Q152 326 179 374 Q150 365 124 345.5 Q98 326 79 302 Q68 289 60.5 274.5 Q53 260 50 243 Q48 237 48 231 Q48 225 48 219 Q49 214 50.5 209 Q52 204 54 200 Z " />
<glyph glyph-name="sterling" unicode="&#xa3;" horiz-adv-x="395" d="M358 520 Q370 506 374 488.5 Q378 471 376 453 Q375 445 366.5 445 Q358 445 359 453 Q359 458 359.5 462 Q360 466 359 471 L359 475 L359 477 Q358 479 358 481 Q358 483 357 485 Q357 487 355 491 Q355 493 354 494 Q354 496 353 496 L350 502 Q350 503 348 505 L348 506 Q346 507 345.5 508 Q345 509 344 510 Q342 512 341 512 Q341 513 340 513 Q339 514 335 516 Q334 517 333.5 517 Q333 517 332 518 L331 518 Q328 520 319 522 L318 522 L315 522 L308 522 Q305 522 304 521 L301 521 Q299 520 297 520 Q295 520 293 519 L284 516 Q283 516 283 515.5 Q283 515 282 515 L280 515 Q280 515 276 513 Q255 502 239 488 Q214 466 195 440 Q176 414 160 385 Q152 370 145 354.5 Q138 339 131 323 Q207 324 283 323 Q291 323 291 314.5 Q291 306 283 306 Q203 307 124 306 Q116 289 107.5 271.5 Q99 254 89 237 Q54 176 5 127 Q37 132 69 135.5 Q101 139 133 140 Q173 140 212.5 135 Q252 130 291 121 Q295 120 296 117 Q297 114 296.5 111 Q296 108 293 106 Q290 104 286 105 Q248 113 209 118 Q170 123 131 123 Q93 122 55.5 117.5 Q18 113 -19 105 Q-25 103 -29 108.5 Q-33 114 -28 119 Q4 146 29.5 178 Q55 210 75 246 Q91 276 105 306 L86 306 Q78 306 78 314.5 Q78 323 86 323 L113 323 Q121 340 128 356.5 Q135 373 143 389 Q159 418 178.5 446 Q198 474 223 497 Q239 511 258 523 Q277 535 299 538 Q315 540 331 536.5 Q347 533 358 520 Z " />
<glyph glyph-name="yen" unicode="&#xa5;" horiz-adv-x="345" d="M168 247 Q176 248 176 239.5 Q176 231 168 230 Q154 229 140.5 228.5 Q127 228 113 227 Q111 222 109.5 217 Q108 212 106 207 Q114 208 121.5 208.5 Q129 209 137 210 Q145 210 145 201.5 Q145 193 137 193 Q128 192 118.5 191.5 Q109 191 100 190 Q90 164 81 139.5 Q72 115 62 89 Q58 82 51 83 Q43 85 45 94 Q55 117 63.5 141 Q72 165 81 189 Q73 189 66 188.5 Q59 188 51 188 Q43 188 43 196.5 Q43 205 51 205 Q60 205 69 205.5 Q78 206 88 206 Q90 211 91.5 216 Q93 221 95 226 Q87 226 78.5 225.5 Q70 225 62 225 Q54 225 54 233.5 Q54 242 62 242 Q72 242 81.5 242.5 Q91 243 101 243 Q105 254 109 265 Q113 276 117 287 Q116 288 116 291 Q106 336 97.5 379 Q89 422 76 466 Q74 474 82 476 Q90 478 93 470 Q105 429 113.5 387.5 Q122 346 131 304 Q140 310 149.5 316 Q159 322 168 328 Q225 365 280 403 Q335 441 392 479 Q395 481 398 480 Q401 479 402.5 476 Q404 473 403.5 469.5 Q403 466 400 464 Q383 453 365.5 441 Q348 429 331 418 Q282 384 233.5 351 Q185 318 134 286 L134 285 Q130 274 126.5 264.5 Q123 255 119 244 Q132 245 144 245.5 Q156 246 168 247 Z " />
<glyph glyph-name="B" unicode="B" horiz-adv-x="812" d="M544 242 Q528 244 516 241 Q486 237 456.5 229 Q427 221 398 211 Q316 184 257 119 Q239 99 225.5 76 Q212 53 204 27 Q201 14 199.5 2 Q198 -10 200 -22 Q204 -48 218.5 -62.5 Q233 -77 256 -84 Q269 -87 282 -87.5 Q295 -88 308 -86 Q342 -81 373.5 -70 Q405 -59 435 -42 Q468 -24 497.5 -1 Q527 22 554 48 Q585 77 611.5 109 Q638 141 660 177 Q673 199 683 221.5 Q693 244 698 267 Q701 279 702.5 291.5 Q704 304 702 316 Q698 353 668 374 Q654 384 639 389.5 Q624 395 607 397 Q596 399 585.5 399.5 Q575 400 564 401 Q559 401 554.5 401 Q550 401 545 402 Q542 402 538 404 Q533 406 532.5 410 Q532 414 535 418 Q538 422 542 425 Q547 429 553 432.5 Q559 436 565 440 Q613 470 656.5 504 Q700 538 740 579 Q774 613 800 649 Q806 658 811.5 667.5 Q817 677 822 688 Q825 695 827 701.5 Q829 708 829 716 Q829 736 810 737 Q795 738 782 734 Q771 730 760.5 725 Q750 720 739 714 Q719 703 701 690 Q683 677 666 663 Q614 621 568.5 573.5 Q523 526 482 473 Q464 450 446.5 425.5 Q429 401 411 377 Q408 373 405.5 369.5 Q403 366 400 363 Q398 361 396.5 359.5 Q395 358 393 357 Q388 354 383.5 356.5 Q379 359 380 365 Q380 372 382 375 Q388 390 396 406 Q418 451 439.5 494.5 Q461 538 481 583 Q495 614 507 644.5 Q519 675 530 707 Q535 721 538 734.5 Q541 748 543 762 Q544 770 543.5 777.5 Q543 785 541 793 Q535 812 516 821 Q506 826 495 827.5 Q484 829 472 830 Q444 830 416.5 824 Q389 818 362 808 Q324 794 290.5 773 Q257 752 226 726 Q122 638 66 515 Q56 493 49 470.5 Q42 448 39 424 Q33 392 40 363 Q41 351 48 338 Q70 290 126 288 Q144 287 161 291 Q178 295 195 303 Q215 311 232.5 323 Q250 335 267 349 Q296 376 319 407 Q342 438 359 474 Q365 489 369 504 Q373 519 373 535 Q374 550 368 568 Q353 603 313 597 Q307 595 301 593 Q295 591 289 589 Q279 586 272 577 Q266 571 259 576 Q253 580 259 588 Q260 590 264 594 Q299 619 336 615 Q359 612 374 592 Q389 574 391 547 Q394 513 378 476 Q331 364 229 301 Q211 290 191 282 Q171 274 149 271 Q135 269 122 269.5 Q109 270 96 274 Q54 286 33 325 Q25 340 22 356 Q19 372 19 389 Q18 423 26.5 455 Q35 487 49 519 Q72 572 104 617.5 Q136 663 177 705 Q207 734 240 759 Q273 784 311 804 Q365 832 425 843 Q445 847 464 847.5 Q483 848 503 844 Q508 843 513 841.5 Q518 840 523 838 Q558 822 561 780 Q562 763 559 747.5 Q556 732 551 716 Q541 684 529 653 Q517 622 503 591 Q487 553 471 519 Q455 485 436 448 Q435 446 434 443 Q433 440 431 435 Q432 437 433.5 438.5 Q435 440 436 441 Q459 473 484 503 Q509 533 535 562 Q569 599 605 633 Q641 667 681 696 Q699 710 718 722 Q737 734 758 743 Q768 748 777.5 751 Q787 754 798 755 Q804 755 809.5 755 Q815 755 820 753 Q833 750 840 740.5 Q847 731 847 718 Q847 702 840 685 Q831 664 819 646 Q803 623 784.5 602 Q766 581 746 561 Q707 522 664.5 489 Q622 456 576 427 Q570 423 566 419 Q571 419 575.5 418.5 Q580 418 585 418 Q605 416 623.5 412.5 Q642 409 659 400 Q679 391 693 376.5 Q707 362 714 342 Q719 330 720 317.5 Q721 305 720 292 Q716 256 703 223.5 Q690 191 670 161 Q641 115 605.5 75.5 Q570 36 528 1 Q502 -21 473.5 -39.5 Q445 -58 413 -72 Q390 -83 366.5 -90.5 Q343 -98 319 -102 Q299 -105 279 -105 Q259 -105 240 -97 Q187 -78 182 -18 Q180 4 185.5 24 Q191 44 200 64 Q212 91 230 114 Q248 137 270 157 Q298 181 328 199 Q358 217 393 228 Q419 236 445 243.5 Q471 251 498 256 Q509 258 521 259.5 Q533 261 545 260 Q558 258 563 252 Q568 246 567 239.5 Q566 233 559 228 Q555 226 551 226 Q546 225 543 229.5 Q540 234 543 238 Q543 240 544 242 Z " />
<glyph glyph-name="C" unicode="C" horiz-adv-x="455" d="M517 709 Q514 679 504.5 650.5 Q495 622 483 593 Q441 499 366 426 Q350 412 333 399 Q316 386 297 376 Q286 371 275.5 367 Q265 363 254 361 Q208 355 200 399 Q196 422 204 449 Q209 469 217 487 Q225 505 235 523 Q269 586 316 644 L334 662 Q337 666 342 668 Q349 671 353 667 Q359 663 355 654 Q351 647 345 647 Q343 647 339 645 Q337 643 336 641.5 Q335 640 333 638 Q303 602 278 563 Q253 524 234 482 Q220 452 217 424 Q215 409 219 398 Q225 376 251 378 Q259 379 266 381.5 Q273 384 281 387 Q315 403 344 429 Q405 485 447 560 Q462 587 473.5 615.5 Q485 644 493 673 Q500 698 501.5 722 Q503 746 498 771 Q496 779 494 786 Q492 793 487 800 Q472 826 439 828 Q420 829 401.5 824.5 Q383 820 364 812 Q341 801 319 787.5 Q297 774 277 757 Q194 689 135 598 Q97 541 67.5 481.5 Q38 422 15 359 Q4 329 -5 299 Q-14 269 -20 238 Q-29 200 -32 162 Q-34 133 -33 105 Q-32 77 -24 50 Q-21 39 -16.5 28 Q-12 17 -5 8 Q1 0 5 -4 Q32 -33 73 -19 Q86 -15 97.5 -9 Q109 -3 120 5 Q130 13 139.5 21.5 Q149 30 158 39 Q200 84 238 129 Q276 174 312 222 Q318 230 323.5 238 Q329 246 335 254 Q338 259 340.5 265 Q343 271 345 277 Q345 278 347 282 Q349 287 356 287 Q364 285 362 279 Q362 273 361 270 Q356 257 351 248 Q334 222 313 195 Q280 152 245 111.5 Q210 71 173 31 Q147 4 120 -15 Q98 -29 74 -37 Q27 -52 -7 -19 Q-20 -5 -28.5 11 Q-37 27 -42 45 Q-51 79 -51 118 Q-52 139 -50 160 Q-48 181 -45 203 Q-40 229 -34.5 253.5 Q-29 278 -22 303 Q16 430 85 552 Q111 597 141 637.5 Q171 678 208 716 Q233 742 259.5 764 Q286 786 316 805 Q335 817 355 826.5 Q375 836 396 841 Q410 844 424.5 845 Q439 846 453 844 Q485 840 504 810 Q511 798 514 785 Q517 772 519 758 Q520 746 519.5 734 Q519 722 517 709 Z " />
<glyph glyph-name="A" unicode="A" horiz-adv-x="730" d="M399 292 Q391 291 384 290 Q377 289 370 288 Q332 281 295 272.5 Q258 264 220 253 Q212 251 205 248 Q198 245 190 242 Q187 241 184 239.5 Q181 238 178 236 Q170 231 165 237 Q160 243 169 250 Q173 253 181 257 Q194 262 206.5 266 Q219 270 233 274 Q276 287 321.5 296 Q367 305 411 311 Q412 313 414 315 Q417 318 419 322 Q451 367 480 409.5 Q509 452 541 497 Q589 566 638 634 Q687 702 740 768 Q751 782 763 796 Q775 810 788 824 Q792 828 796 831.5 Q800 835 805 839 Q807 841 809.5 842.5 Q812 844 814 845 Q823 850 829.5 847 Q836 844 838 835 Q839 824 836 811 Q830 787 821.5 764 Q813 741 803 718 Q779 661 754.5 604.5 Q730 548 706 491 Q690 452 674.5 413.5 Q659 375 643 336 Q641 332 640 329 Q644 328 652 328 Q657 328 662 327.5 Q667 327 672 326 Q676 326 680 322 Q687 315 681 307 Q678 302 672 302 Q666 302 665 306 Q665 307 664.5 307.5 Q664 308 664 310 L633 310 Q630 302 627 295 Q624 288 622 280 Q598 216 574 151.5 Q550 87 527 22 Q524 14 521.5 6 Q519 -2 516 -10 Q515 -11 515 -12 Q515 -13 514 -15 Q509 -22 503 -20 Q495 -20 497 -12 Q499 -4 496 0 Q492 7 501 11 Q505 12 507 18 Q524 66 541.5 114 Q559 162 577 210 Q585 233 594 256 Q603 279 611 302 Q612 304 612.5 306 Q613 308 614 310 L603 310 Q577 308 551.5 306.5 Q526 305 500 303 Q482 301 461 299.5 Q440 298 422 296 Q421 293 419 291 Q417 289 416 287.5 Q415 286 414 284 Q394 255 375.5 230 Q357 205 337 176 Q312 142 285.5 109.5 Q259 77 230 45 Q214 28 198 13 Q182 -2 164 -16 Q150 -27 135 -36.5 Q120 -46 103 -52 Q82 -60 61.5 -61 Q41 -62 21 -54 Q-5 -43 -20 -18 Q-31 -1 -36.5 17 Q-42 35 -44 55 Q-47 76 -46.5 97.5 Q-46 119 -43 141 Q-33 214 -6.5 282 Q20 350 62 416 Q81 445 103.5 471 Q126 497 154 519 Q172 534 191.5 545.5 Q211 557 234 565 Q262 574 288 570 Q321 564 337 539 Q347 526 351.5 511 Q356 496 358 479 Q363 432 349 384 Q347 376 344 367.5 Q341 359 339 351 Q338 349 337 347 Q336 345 335 343 Q330 338 324 339 Q317 341 319 348 Q319 350 320 351.5 Q321 353 322 355 Q334 388 338.5 421 Q343 454 338 486 Q336 502 329 516 Q306 563 249 551 Q230 547 213.5 538.5 Q197 530 181 519 Q155 500 132.5 477 Q110 454 91 428 Q62 389 41.5 348 Q21 307 5 263 Q-10 222 -19 179 Q-25 147 -28 116 Q-30 93 -28 70 Q-26 47 -19 25 Q-13 2 0 -13 Q33 -57 90 -38 Q104 -34 116.5 -27 Q129 -20 141 -12 Q161 2 179.5 19 Q198 36 215 54 Q244 85 270.5 117.5 Q297 150 322 184 Q341 210 359 235 Q377 260 395 286 Q396 288 396.5 289 Q397 290 399 292 Z M820 829 Q811 824 806 818 Q796 807 786 796.5 Q776 786 767 775 Q698 689 636 602 Q585 532 538 463.5 Q491 395 441 324 Q439 320 435 314 Q437 314 440.5 314.5 Q444 315 446 315 Q463 317 476 318 Q489 319 506 321 Q521 322 535.5 323 Q550 324 565 325 Q578 326 590 326.5 Q602 327 615 328 Q620 328 620.5 328.5 Q621 329 623 333 Q624 335 624 335 Q639 373 654 410 Q669 447 685 484 Q708 541 732.5 597.5 Q757 654 781 711 Q791 734 799.5 756 Q808 778 815 801 Q820 816 820 829 Z " />
<glyph glyph-name="quoteleft" unicode="&#x2018;" horiz-adv-x="160" d="M215 804 Q214 801 210 793 Q205 785 201.5 777.5 Q198 770 193 762 Q190 756 183 751 Q177 746 171 750 Q165 754 170 759 Q177 767 181 776.5 Q185 786 191 795 Q193 798 193.5 800.5 Q194 803 196 806 Q196 807 196.5 807.5 Q197 808 197 809 Q202 816 210 814 Q218 814 215 804 Z " />
<glyph glyph-name="quoteright" unicode="&#x2019;" horiz-adv-x="165" d="M215 795 Q214 792 210 784 Q205 776 201.5 768.5 Q198 761 193 753 Q190 747 183 742 Q177 737 171 741 Q165 745 170 750 Q177 758 181 767.5 Q185 777 191 786 Q193 789 193.5 791.5 Q194 794 196 797 Q196 798 196.5 798.5 Q197 799 197 800 Q202 807 210 805 Q218 805 215 795 Z " />
<glyph glyph-name="quotedblleft" unicode="&#x201c;" horiz-adv-x="205" d="M231 806 Q230 804 229 803 Q228 802 227 800 Q222 791 218 782.5 Q214 774 209 765 Q204 757 198 751 Q191 743 183 747 Q177 752 184 759 Q189 764 191.5 770.5 Q194 777 197 783 Q201 788 204 794 Q207 800 210 806 Q211 808 214 811 Q218 817 226 815 Q233 813 231 806 Z M156 758 Q160 767 164 776 Q168 785 172 793 Q176 801 177 804 Q180 810 187 813 Q192 814 197 811 Q200 806 197 802 Q195 798 193.5 795 Q192 792 190 788 Q186 780 183 773 Q180 766 176 758 Q175 757 175 756 Q175 755 173 753 Q170 746 162 748 Q154 750 156 756 L156 758 Z " />
<glyph glyph-name="quotedblright" unicode="&#x201d;" horiz-adv-x="225" d="M243 803 Q242 801 241 800 Q240 799 239 797 Q234 788 230 779.5 Q226 771 221 762 Q216 754 210 748 Q203 740 195 744 Q189 749 196 756 Q201 761 203.5 767.5 Q206 774 209 780 Q213 785 216 791 Q219 797 222 803 Q223 805 226 808 Q230 814 238 812 Q245 810 243 803 Z M168 755 Q172 764 176 773 Q180 782 184 790 Q188 798 189 801 Q192 807 199 810 Q204 811 209 808 Q212 803 209 799 Q207 795 205.5 792 Q204 789 202 785 Q198 777 195 770 Q192 763 188 755 Q187 754 187 753 Q187 752 185 750 Q182 743 174 745 Q166 747 168 753 L168 755 Z " />
<glyph glyph-name="a" unicode="a" horiz-adv-x="225" d="M46 220 Q41 215 36 209 Q31 203 26 198 Q23 195 20.5 193 Q18 191 15 189 Q-9 175 -20 196 Q-25 207 -25 223 Q-24 244 -16.5 264.5 Q-9 285 2 304 Q13 323 27.5 338.5 Q42 354 58 364 Q72 371 82 367 Q92 363 95 350 Q97 342 98 337 Q99 339 100 340.5 Q101 342 101 344 Q109 358 117 372 Q125 386 133 400 Q135 404 138 407 Q143 413 149 411 Q156 407 153 400 Q152 398 151 396.5 Q150 395 149 393 Q129 358 110 321.5 Q91 285 76 247 Q67 227 60 206 Q53 185 48 164 Q46 156 45 147.5 Q44 139 43 130 Q43 123 46 119 Q49 115 55 119 Q61 122 67 128 Q109 173 148 217.5 Q187 262 225 300 Q244 297 228 282 Q211 263 188.5 237.5 Q166 212 144 187.5 Q122 163 104.5 143.5 Q87 124 80 118 Q70 108 61 104 Q50 99 41 101 Q32 103 28 114 Q26 121 26 129 Q26 137 27 145 Q29 165 34 182.5 Q39 200 46 220 Z M85 314 Q80 316 79 319.5 Q78 323 78 328 Q79 332 78.5 336 Q78 340 77 345 Q76 352 66 349 Q60 346 54 341.5 Q48 337 43 332 Q18 306 4 271 Q-1 260 -4 249 Q-7 238 -7 227 Q-7 214 -3 206 Q0 200 7 204 Q16 210 22.5 217.5 Q29 225 34 233 Q45 250 55.5 266.5 Q66 283 77 300 Q79 303 81 306.5 Q83 310 85 314 Z " />
<glyph glyph-name="b" unicode="b" horiz-adv-x="310" d="M32 312 Q45 324 56 333 Q67 342 82 351 Q91 357 101.5 361 Q112 365 121.5 365.5 Q131 366 138.5 362 Q146 358 151 347 Q153 342 153.5 336.5 Q154 331 154 325 Q153 308 148.5 293 Q144 278 136 264 Q131 252 125 241 Q119 230 113 219 Q111 215 109 212 Q121 216 149 228 Q177 240 208.5 254 Q240 268 269 281 Q298 294 311 300 Q321 297 320.5 291 Q320 285 309 278 Q260 254 206.5 231.5 Q153 209 96 188 Q92 187 89 182 Q78 167 66 153 Q54 139 40 126 Q23 110 3 98.5 Q-17 87 -40 81 Q-51 78 -61 77 Q-71 76 -81 78 Q-106 83 -110 103 Q-112 118 -103 129 Q-99 135 -94 139.5 Q-89 144 -84 148 Q-65 160 -40 167 Q-21 172 -2 177 Q17 182 36 187 Q47 190 56.5 193 Q66 196 76 199 Q82 201 84 204 Q98 226 110 249 Q122 272 130 296 Q136 315 135 332 Q134 352 113 346 Q105 344 98.5 340.5 Q92 337 85 333 Q64 319 46 302 Q28 285 12 266 Q8 261 4.5 256.5 Q1 252 -3 247 Q-4 246 -4 245 Q-4 244 -5 243 Q-11 237 -17 240 Q-22 243 -21 250 Q-21 251 -20.5 251.5 Q-20 252 -20 253 Q-1 301 20 347.5 Q41 394 62 442 Q94 514 127 584.5 Q160 655 195 727 Q208 753 220 780 Q232 807 243 834 Q244 838 246 844 Q246 845 248 849 Q251 856 259 854 Q267 852 265 844 Q265 842 264 840 Q263 838 262 836 Q251 805 237.5 775 Q224 745 210 716 Q159 613 112.5 510 Q66 407 21 303 Q24 305 27 308 Q30 311 32 312 Z M64 177 Q59 175 54 174 Q49 173 44 172 Q24 167 5 161.5 Q-14 156 -33 151 Q-53 146 -71 136 Q-77 132 -82.5 126 Q-88 120 -90 113.5 Q-92 107 -89.5 102 Q-87 97 -77 95 Q-56 93 -36.5 99.5 Q-17 106 0 117 Q19 129 33.5 143.5 Q48 158 61 174 L64 177 Z " />
<glyph glyph-name="c" unicode="c" horiz-adv-x="219" d="M103 379 Q95 377 88 372 Q81 367 75 362 Q51 340 32.5 315.5 Q14 291 0 265 Q-8 251 -14.5 236.5 Q-21 222 -26 207 Q-29 198 -31 189 Q-33 180 -33 172 Q-32 158 -24.5 150.5 Q-17 143 -2 146 Q7 148 16 151 Q25 154 33 158 Q63 174 91 197 Q107 209 121.5 221 Q136 233 151 245 Q165 256 173 262.5 Q181 269 187 274 Q188 275 193 279 Q198 283 204 288 Q211 293 219 300 Q228 298 228 294 Q228 290 219 281 Q200 266 185 252.5 Q170 239 151 224 Q137 213 123.5 202 Q110 191 96 180 Q82 169 68.5 160.5 Q55 152 40 144 Q30 139 20 135 Q10 131 -1 129 Q-12 127 -22 129 Q-33 131 -39.5 138 Q-46 145 -49 155 Q-54 180 -44.5 211.5 Q-35 243 -16.5 275.5 Q2 308 27.5 337.5 Q53 367 81 387 Q91 394 102 396 Q118 399 121 385 Q122 380 121 375 Q120 370 118 365 Q103 326 69 298 Q67 297 65.5 296 Q64 295 62 294 Q59 292 54 292 Q47 292 47 298 Q45 304 53 307 Q58 309 61.5 312.5 Q65 316 68 319 Q89 340 100 366 Q101 369 102 373 Q103 377 103 379 Z " />
<glyph glyph-name="d" unicode="d" horiz-adv-x="334" d="M88 237 Q74 221 58.5 206.5 Q43 192 26 187 Q14 183 1 186 Q-12 189 -17 201 Q-22 211 -21 226.5 Q-20 242 -16 258.5 Q-12 275 -5.5 290.5 Q1 306 8 317 Q17 332 29 346 Q41 360 55 372 Q67 381 79 388 Q91 395 108 394 Q123 392 129 386 Q135 380 138 372 Q141 380 144 386.5 Q147 393 150 400 Q174 458 202 514 Q230 570 260 626 Q274 652 288.5 676.5 Q303 701 318 727 Q323 735 329 744 Q335 753 342 759 Q348 764 355 761 Q363 756 360 746 Q357 736 356 732 Q348 706 337.5 682 Q327 658 316 634 Q289 574 259.5 516 Q230 458 197 401 Q165 343 127 289 Q112 254 101 217 Q90 180 79 143 Q71 114 65.5 82.5 Q60 51 58 28 Q57 17 58.5 7 Q60 -3 64 -11 Q68 -20 81 -15 Q85 -13 88.5 -10.5 Q92 -8 95 -6 Q116 10 146.5 46.5 Q177 83 210 127 Q243 171 275.5 217 Q308 263 334 300 Q346 300 345 292 Q344 284 336 273 Q304 227 266.5 173 Q229 119 193 72.5 Q157 26 125.5 -4.5 Q94 -35 74 -34 Q57 -35 48 -21 Q43 -12 41 0 Q39 12 39 25 Q39 38 40.5 49 Q42 60 44 68 Q52 112 63 153.5 Q74 195 88 237 Z M2 209 Q5 202 13 203 Q21 204 29.5 209 Q38 214 46 220.5 Q54 227 58 231 Q72 244 83 258.5 Q94 273 105 288 Q107 292 107 292 Q110 301 113.5 309.5 Q117 318 120 326 Q120 327 120.5 328.5 Q121 330 120 331 Q115 335 119 343 Q124 358 117 369 Q112 376 104.5 376.5 Q97 377 89 374 Q81 371 74 365.5 Q67 360 63 356 Q49 343 38.5 328.5 Q28 314 19 298 Q8 278 1 253.5 Q-6 229 2 209 Z M327 708 Q321 701 306 675 Q291 649 272.5 613.5 Q254 578 234 537.5 Q214 497 197 461.5 Q180 426 168.5 400 Q157 374 157 368 Q164 377 178.5 402 Q193 427 210.5 461 Q228 495 247.5 533 Q267 571 283.5 606 Q300 641 312 668.5 Q324 696 327 708 Z " />
<glyph glyph-name="e" unicode="e" horiz-adv-x="219" d="M7 276 Q-6 256 -15 233 Q-22 214 -26 199 Q-28 191 -28 182.5 Q-28 174 -24 166 Q-18 152 0 152 Q14 153 24.5 157.5 Q35 162 46 168 Q61 176 75 185.5 Q89 195 103 205 Q137 230 165 254 Q193 278 219 300 Q223 298 226.5 294.5 Q230 291 219 278 Q194 260 166.5 237 Q139 214 111 192.5 Q83 171 55.5 155 Q28 139 3 135 Q-14 133 -24 138 Q-34 143 -39.5 152 Q-45 161 -46 172.5 Q-47 184 -45 196 Q-42 213 -32.5 237.5 Q-23 262 -8.5 287.5 Q6 313 25.5 337.5 Q45 362 68 379 Q72 382 76 384.5 Q80 387 84 389 Q97 396 106.5 392.5 Q116 389 119 377 Q121 371 120 365 Q119 359 117 353 Q100 304 53 276 Q45 271 35 268 Q26 265 18.5 266.5 Q11 268 8 275 Q7 275 7 276 Z M25 283 Q31 283 35 285 Q39 287 43 289 Q84 313 98 354 Q100 359 100 369 Q100 380 89 373 Q85 371 82 368.5 Q79 366 76 364 Q55 346 39 324 Q38 323 36 319 Q42 313 34 303 Q32 300 28 292 Q27 290 26.5 288 Q26 286 25 283 Z " />
<glyph glyph-name="f" unicode="f" horiz-adv-x="208" d="M-42 152 Q-40 153 -38 154 Q-36 155 -34 156 Q-1 173 30.5 192 Q62 211 94 231 Q105 238 124.5 250 Q144 262 163 273 L208 300 Q219 298 216 290.5 Q213 283 198 275 Q171 258 143.5 241 Q116 224 88 207 Q55 187 21 167.5 Q-13 148 -48 129 Q-56 126 -57 120 Q-62 106 -68 93 Q-74 80 -79 66 Q-65 58 -54 46.5 Q-43 35 -38 18 Q-34 -1 -38 -22 Q-44 -50 -57.5 -74 Q-71 -98 -90 -121 Q-98 -131 -108.5 -138.5 Q-119 -146 -128.5 -148.5 Q-138 -151 -145.5 -147 Q-153 -143 -156 -128 Q-159 -112 -154 -93 Q-151 -76 -145.5 -59 Q-140 -42 -134 -25 Q-127 -6 -120 12.5 Q-113 31 -105 49 Q-104 51 -104 52.5 Q-104 54 -103 56 Q-107 57 -110 58 Q-113 59 -117 60 Q-127 62 -136.5 64.5 Q-146 67 -155 69 Q-158 69 -164 71 Q-170 73 -170.5 78 Q-171 83 -165 88 Q-162 91 -154 95 Q-134 105 -114.5 114.5 Q-95 124 -75 134 Q-68 139 -66 144 Q-11 283 53 419 Q117 555 189 687 Q227 756 262 821 Q265 826 267.5 832 Q270 838 272 844 Q276 854 284 852 Q292 850 290 842 Q289 837 285 827 Q277 812 269.5 797.5 Q262 783 254 769 Q222 709 189.5 650.5 Q157 592 127 532 Q97 472 69.5 411.5 Q42 351 16 290 Q2 258 -12 225 Q-26 192 -40 160 Q-41 157 -43 153 Q-43 152 -42 152 Z M-86 48 Q-88 46 -88 45 Q-99 18 -109.5 -9.5 Q-120 -37 -129 -65 Q-133 -77 -136 -89.5 Q-139 -102 -139 -114 Q-139 -118 -138 -126 Q-137 -134 -128 -131 Q-122 -128 -117 -123.5 Q-112 -119 -107 -114 Q-88 -93 -75 -69.5 Q-62 -46 -56 -19 Q-45 27 -86 48 Z M-96 73 Q-91 83 -87.5 92.5 Q-84 102 -80 112 Q-94 105 -108.5 98.5 Q-123 92 -137 84 Q-126 81 -116.5 78.5 Q-107 76 -96 73 Z " />
<glyph glyph-name="g" unicode="g" horiz-adv-x="249" d="M-205 -161 Q-230 -157 -236 -132 Q-241 -116 -238 -100 Q-230 -61 -207.5 -30 Q-185 1 -150 24 Q-139 31 -128 37 Q-117 43 -105 50 Q-77 65 -49 80.5 Q-21 96 8 111 Q15 114 20 123 Q37 155 52 186 Q67 217 80 249 Q64 225 42 204 Q34 197 26.5 192 Q19 187 9 185 Q-5 182 -14 194 Q-23 209 -21 232 Q-19 255 -10 279 Q-1 303 13.5 325.5 Q28 348 45 363 Q50 368 58.5 374.5 Q67 381 78 384 Q89 388 98 384 Q107 380 111 370 Q113 365 113 360.5 Q113 356 114 351 L114 342 Q116 344 118 348 Q147 400 173 449 Q175 453 177 455 Q182 460 188 458 Q194 455 192 448 Q192 446 190 444 Q173 411 157.5 376.5 Q142 342 127 309 Q108 266 88.5 223.5 Q69 181 47 138 Q47 138 45 134 Q49 136 49 136 Q79 155 108 175 Q137 195 163 219 Q172 227 186.5 241 Q201 255 215 268 Q231 283 249 300 Q260 299 258 291.5 Q256 284 248 275 Q239 267 233.5 261.5 Q228 256 220 248 Q202 232 184.5 216 Q167 200 149 185 Q123 163 94 144 Q65 125 36 108 Q29 104 26 97 Q6 59 -16 22 Q-38 -15 -62 -51 Q-73 -68 -85.5 -84 Q-98 -100 -112 -114 Q-129 -132 -150 -146 Q-159 -151 -171.5 -157 Q-184 -163 -205 -161 Z M-1 85 Q-25 72 -50 59.5 Q-75 47 -100 33 Q-111 27 -122 21 Q-133 15 -144 7 Q-173 -13 -192 -39.5 Q-211 -66 -219 -100 Q-222 -114 -218 -127 Q-214 -141 -200 -144 Q-189 -145 -175 -140 Q-164 -135 -155.5 -129.5 Q-147 -124 -139 -116 Q-126 -105 -115.5 -93 Q-105 -81 -95 -68 Q-54 -11 -19 53 Q-14 61 -10 69 Q-6 77 -1 85 Z M107 327 Q94 328 95 340 Q95 344 95.5 349.5 Q96 355 95 359.5 Q94 364 91 366.5 Q88 369 81 367 Q73 365 68 360 Q63 355 57 350 Q22 312 3 262 Q-1 248 -3 234.5 Q-5 221 0 207 Q4 200 11 203 Q23 209 33 218.5 Q43 228 51 239 Q62 252 71 266 Q80 280 88 294 Q93 302 97.5 310.5 Q102 319 107 327 Z " />
<glyph glyph-name="h" unicode="h" horiz-adv-x="250" d="M76 339 Q87 350 98.5 361 Q110 372 123 381 Q128 384 131.5 386.5 Q135 389 142 392 Q153 397 159 392 Q165 387 162 376 Q159 367 154 357 Q135 319 115.5 282 Q96 245 82 206 Q80 200 79 194.5 Q78 189 77 184 Q76 173 87 177 Q101 183 125.5 201 Q150 219 175.5 239 Q201 259 222.5 277 Q244 295 250 300 Q257 300 258 297 Q259 294 257.5 290.5 Q256 287 253 284 Q250 281 250 281 Q237 269 220.5 256 Q204 243 189 231 Q174 219 162.5 210 Q151 201 147 198 Q133 188 119 178 Q105 168 89 162 Q58 152 58 181 Q59 195 68.5 218.5 Q78 242 90.5 268.5 Q103 295 116.5 321 Q130 347 139 365 Q143 373 140.5 372.5 Q138 372 132 367 Q117 356 104 343 Q91 330 78 316 Q55 291 34.5 264 Q14 237 -6 210 Q-11 204 -15.5 198 Q-20 192 -25 187 Q-28 182 -33 179 Q-38 176 -43 178 Q-48 180 -48 186 Q-48 191 -45 197 Q-5 293 38 386.5 Q81 480 125 574 Q149 626 175.5 677 Q202 728 230 779 Q235 789 240.5 799 Q246 809 251 820 Q253 824 253 824 Q258 829 264 828 Q271 826 269 820 Q267 814 265 809 Q255 790 245.5 771.5 Q236 753 225 734 Q191 672 161 609 Q131 546 102 483 Q74 421 46.5 360.5 Q19 300 -8 238 Q12 263 32.5 289.5 Q53 316 76 339 Z " />
<glyph glyph-name="i" unicode="i" horiz-adv-x="149" d="M149 300 Q158 299 157.5 294 Q157 289 149 281 Q126 255 102 230.5 Q78 206 53 183 Q44 175 35 167.5 Q26 160 15 153 Q8 149 0 145 Q-8 141 -17 141 Q-32 141 -38 153 Q-43 165 -42.5 180.5 Q-42 196 -38 208 Q-24 254 -1 299.5 Q22 345 44 385 Q49 394 56 392 Q63 390 61.5 384.5 Q60 379 58 375 Q38 333 15 291.5 Q-8 250 -19 205 Q-20 202 -21.5 194 Q-23 186 -23.5 177.5 Q-24 169 -22 163 Q-20 157 -13 159 Q-1 162 11.5 171 Q24 180 32 188 Q46 201 60 214 Q74 227 88 240 Q95 246 105 256 Q115 266 125 276 L149 300 Z M92 477 Q86 478 88 486 Q93 496 99.5 510 Q106 524 111 533 Q116 540 124 538 Q129 534 128 529 Q125 520 121 512 Q118 507 114.5 497 Q111 487 105 481 Q99 475 92 477 Z " />
<glyph glyph-name="j" unicode="j" horiz-adv-x="175" d="M175 300 Q184 299 182 293 Q180 287 175 282 Q151 260 128.5 238.5 Q106 217 82 194 Q-1 115 -102 48 Q-109 44 -112 37 Q-140 -13 -172 -58 Q-183 -74 -196 -89 Q-209 -104 -224 -118 Q-237 -129 -251 -138.5 Q-265 -148 -282 -154 Q-290 -157 -297.5 -159 Q-305 -161 -313 -161 Q-351 -161 -357 -129 Q-365 -84 -322 -49 Q-306 -36 -289 -29 Q-275 -22 -262 -16 Q-249 -10 -235 -4 Q-178 19 -128 50 Q-122 55 -119 60 Q-80 131 -46.5 204.5 Q-13 278 25 356 Q26 358 26 362 Q26 368 31 375 Q36 381 43 380 Q49 380 49 372 Q49 368 47 364 Q16 291 -18.5 220 Q-53 149 -89 79 Q-89 80 -91 74 Q-49 103 -9.5 135 Q30 167 68 202 Q90 223 105.5 237.5 Q121 252 143 272 Q158 285 166 292 Q171 296 175 300 Z M-145 14 Q-143 16 -141.5 20 Q-140 24 -138 26 Q-139 26 -141.5 24.5 Q-144 23 -146 22 Q-185 -1 -232 -20 Q-243 -25 -253.5 -29.5 Q-264 -34 -275 -39 Q-284 -44 -293 -48.5 Q-302 -53 -310 -60 Q-343 -87 -340 -121 Q-338 -152 -300 -144 Q-288 -142 -276.5 -135.5 Q-265 -129 -254 -122 Q-225 -100 -202 -71 Q-186 -51 -172 -29.5 Q-158 -8 -145 14 Z M83 477 Q75 479 79 486 Q79 488 80 489.5 Q81 491 82 493 Q86 502 90 511 Q94 520 99 529 Q99 531 101 533 Q108 540 114 538 Q121 535 118 529 Q116 524 114.5 520 Q113 516 111 513 Q104 496 98 486 Q96 482 95 481 Q89 475 83 477 Z " />
<glyph glyph-name="k" unicode="k" horiz-adv-x="250" d="M91 364 Q95 368 103.5 374 Q112 380 121 383.5 Q130 387 136.5 386 Q143 385 143 374 Q143 367 138 357 Q127 336 110 319 Q93 302 73 288 Q52 272 30 268 Q31 261 31.5 254.5 Q32 248 33 242 Q35 222 37 201.5 Q39 181 42 161 Q45 142 53 125 Q59 116 70 120 Q76 123 82 126.5 Q88 130 93 134 Q137 174 173.5 216.5 Q210 259 250 300 Q261 299 258.5 292 Q256 285 250 279 Q221 249 195 218 Q169 187 140 158 Q124 142 109.5 127 Q95 112 75 104 Q65 101 55 102.5 Q45 104 40 112 Q31 126 27 142 Q23 158 21 175 Q20 184 18.5 196 Q17 208 16 219.5 Q15 231 14 239 Q13 247 13 248 Q12 247 6.5 239 Q1 231 -7 219.5 Q-15 208 -23 196 Q-31 184 -36 175 Q-38 171 -40 169 Q-45 163 -51 166 Q-56 168 -56 174 Q-34 226 -11.5 277 Q11 328 36 379 Q71 454 105.5 528 Q140 602 175 677 Q192 713 208 749.5 Q224 786 240 822 Q245 831 252 828 Q259 826 257 818 Q256 815 254.5 811.5 Q253 808 252 806 Q237 774 223.5 742 Q210 710 195 678 Q179 645 159.5 603 Q140 561 120 516.5 Q100 472 80.5 429.5 Q61 387 45.5 353 Q30 319 20 297 Q10 275 9 273 Q11 275 20 286 Q29 297 41.5 311.5 Q54 326 67.5 340.5 Q81 355 91 364 Z M49 294 Q59 298 71 307.5 Q83 317 94 328 Q105 339 112.5 349.5 Q120 360 122 368 Q100 351 83 332.5 Q66 314 49 294 Z " />
<glyph glyph-name="l" unicode="l" horiz-adv-x="227" d="M-77 32 Q-75 51 -73.5 67.5 Q-72 84 -67 101 Q-55 150 -38 198 Q-21 246 -3 294 Q27 372 59 449.5 Q91 527 129 603 Q148 643 169 682 Q190 721 211 761 Q221 780 231 797.5 Q241 815 252 834 Q257 845 265 842 Q271 839 270 833 Q269 831 267 827 Q265 823 264 821 Q242 779 221 739 Q200 699 178 657 Q146 597 118.5 536 Q91 475 65 412 Q42 355 20 298.5 Q-2 242 -22 185 Q-31 159 -38.5 133.5 Q-46 108 -51 82 Q-54 70 -55 56.5 Q-56 43 -58 30 Q-58 23 -58 13.5 Q-58 4 -56 -4.5 Q-54 -13 -48.5 -17 Q-43 -21 -32 -17 Q-20 -12 -10.5 -2 Q-1 8 7 17 Q58 81 106.5 145 Q155 209 205 273 Q209 278 213 282.5 Q217 287 220 291 Q224 295 227 300 Q242 297 235.5 287.5 Q229 278 217 261 Q173 204 131 148.5 Q89 93 44 36 Q35 24 25.5 12.5 Q16 1 5 -10 Q0 -15 -5.5 -19.5 Q-11 -24 -16 -28 Q-20 -30 -23.5 -31.5 Q-27 -33 -31 -35 Q-55 -43 -68 -22 Q-76 -9 -76.5 5 Q-77 19 -77 32 Z " />
<glyph glyph-name="m" unicode="m" horiz-adv-x="376" d="M253 342 Q246 336 239.5 330 Q233 324 227 318 Q203 294 179.5 269.5 Q156 245 133 221 Q122 210 111 199.5 Q100 189 87 181 Q78 176 72 179.5 Q66 183 66 192 Q66 203 72 219.5 Q78 236 86 252.5 Q94 269 101.5 283 Q109 297 111 304 Q77 269 44 236 Q11 203 -21 171 Q-27 166 -32.5 161 Q-38 156 -45 152 Q-51 149 -55.5 151.5 Q-60 154 -61 160 Q-61 164 -60.5 167 Q-60 170 -59 174 Q-55 187 -46 207.5 Q-37 228 -26 251 Q-15 274 -1.5 298 Q12 322 25 343 Q29 351 29 355 Q30 360 38 366 Q43 368 47.5 365.5 Q52 363 51 358 Q51 352 48 348 L24 306 Q4 271 -10 240.5 Q-24 210 -37 180 L99 316 Q106 323 113.5 329 Q121 335 129 340 Q135 343 140 340 Q145 337 144 331 Q138 316 129 297 Q120 278 111 259.5 Q102 241 95 225 Q88 209 85 200 Q88 200 100 212 Q112 224 129 242.5 Q146 261 166 282.5 Q186 304 205 322.5 Q224 341 240.5 353.5 Q257 366 267 367 Q272 368 275 365 Q278 362 278 357 Q278 354 276 346 Q272 338 268.5 331 Q265 324 260 316 Q243 287 228 258 Q213 229 199 199 Q191 182 184.5 166 Q178 150 173 133 Q171 125 169 116.5 Q167 108 169 99 Q183 104 200.5 118.5 Q218 133 234.5 149.5 Q251 166 265 181.5 Q279 197 285 204 Q292 212 307.5 227 Q323 242 338 259 Q356 277 376 300 Q390 298 386 291.5 Q382 285 376 277 Q361 262 343.5 243 Q326 224 308 205 Q290 186 273 167 Q256 148 241 133 Q230 122 219.5 112 Q209 102 197 94 Q186 86 174 83 Q156 77 151 89.5 Q146 102 149 116 Q153 134 159 151.5 Q165 169 173 186 Q187 219 204 251 Q221 283 239 315 Q244 324 247.5 331 Q251 338 253 342 Z " />
<glyph glyph-name="n" unicode="n" horiz-adv-x="243" d="M89 303 Q66 279 46.5 253 Q27 227 7 201 Q-3 190 -12.5 178.5 Q-22 167 -33 157 Q-41 151 -47 154 Q-55 157 -53 166 Q-44 199 -32 231 Q-20 263 -4 294 Q-1 300 5 312.5 Q11 325 16 336 Q21 345 29 342 Q37 339 33 329 Q24 312 15 291 Q6 270 -2.5 250.5 Q-11 231 -17.5 214.5 Q-24 198 -27 189 Q-26 190 -24 192.5 Q-22 195 -21 196 Q-6 215 7.5 232.5 Q21 250 37 268 Q40 271 46.5 279.5 Q53 288 62 298.5 Q71 309 81.5 319.5 Q92 330 101 337 Q110 343 117 338 Q125 333 121 324 Q112 295 100 266.5 Q88 238 79 209 Q77 204 74 193.5 Q71 183 69 172.5 Q67 162 68.5 155 Q70 148 78 151 Q95 158 120 179 Q145 200 169.5 224 Q194 248 214.5 269.5 Q235 291 243 300 Q253 294 249 288 Q245 282 243 280 Q242 278 228 262 Q214 246 193 224.5 Q172 203 147.5 181 Q123 159 102 146 Q81 133 66.5 133.5 Q52 134 50 158 Q50 170 53 182 Q56 194 59 205 Q67 231 76 255 Q85 279 95 304 Q96 306 97 308.5 Q98 311 99 313 Q97 311 94 308 Q91 305 89 303 Z " />
<glyph glyph-name="o" unicode="o" horiz-adv-x="242" d="M84 244 Q99 236 115 234.5 Q131 233 148 240 Q171 249 196 265.5 Q221 282 242 300 Q245 299 248 297.5 Q251 296 250 292 Q249 288 241.5 280 Q234 272 215 258 Q200 247 182 236.5 Q164 226 144 221 Q112 213 80 225 L74 228 Q61 210 46.5 194.5 Q32 179 15 165 Q-1 154 -18 150 Q-26 148 -35 150 Q-44 152 -50 162 Q-56 174 -55 189.5 Q-54 205 -49 221.5 Q-44 238 -35 253.5 Q-26 269 -17 281 Q-13 286 -8.5 291.5 Q-4 297 1 302 Q7 310 16.5 307.5 Q26 305 20 295 L17 292 Q7 284 -3 269 Q-13 254 -21 238 Q-29 222 -33.5 206 Q-38 190 -36.5 180 Q-35 170 -26 168 Q-17 166 2 177 Q20 189 33.5 204.5 Q47 220 59 237 Q32 264 26 304 Q18 369 49 429 Q58 445 71.5 459 Q85 473 102 478 Q125 484 136 466 Q147 449 146.5 428.5 Q146 408 141 389 Q129 331 102 276 Q93 259 84 244 Z M70 254 Q73 260 76.5 266 Q80 272 83 278 Q101 313 113 351 Q125 389 127 428 Q127 437 125.5 445 Q124 453 120 457.5 Q116 462 109.5 462 Q103 462 93 455 Q64 432 53 395 Q42 358 43 324 Q44 313 45.5 303 Q47 293 51 282 Q58 265 70 254 Z " />
<glyph glyph-name="p" unicode="p" horiz-adv-x="273" d="M273 300 Q274 300 277 299.5 Q280 299 281.5 297.5 Q283 296 282 292.5 Q281 289 275 282 Q233 233 182 210.5 Q131 188 72 182 Q67 182 62 181.5 Q57 181 52 181 Q48 181 42 177 Q28 166 12.5 157.5 Q-3 149 -20 144 Q-28 141 -37.5 139 Q-47 137 -57 135 Q-66 120 -73.5 107 Q-81 94 -87 80 Q-91 71 -103.5 42 Q-116 13 -131 -22.5 Q-146 -58 -161 -93 Q-176 -128 -184 -148 Q-188 -158 -190.5 -166.5 Q-193 -175 -195 -186 Q-195 -193 -204 -195 Q-207 -195 -210 -192.5 Q-213 -190 -213 -187 Q-213 -170 -205.5 -151.5 Q-198 -133 -193 -123 Q-186 -108 -176.5 -86.5 Q-167 -65 -156.5 -40.5 Q-146 -16 -136 8 Q-126 32 -117.5 52.5 Q-109 73 -103 87 Q-97 101 -95 105 Q-92 113 -88 121 Q-84 129 -80 137 Q-82 138 -83 138.5 Q-84 139 -86 140 Q-100 147 -101 159 Q-102 171 -89 180 Q-78 188 -59 191 Q-54 192 -51 197 Q-49 201 -42.5 214.5 Q-36 228 -27.5 246.5 Q-19 265 -9 285 Q1 305 10.5 322 Q20 339 27.5 350 Q35 361 39 361 Q47 361 47.5 353.5 Q48 346 46 343 Q36 323 24 301 Q12 279 5 265 Q11 273 19 282.5 Q27 292 35.5 300.5 Q44 309 51.5 316 Q59 323 64 326 Q80 337 94.5 340 Q109 343 118.5 337.5 Q128 332 130.5 318 Q133 304 125 282 Q117 257 101.5 238 Q86 219 68 200 Q131 204 178 227 Q225 250 273 300 Z M-72 154 Q-69 162 -64 171 Q-69 171 -74.5 169 Q-80 167 -82.5 164.5 Q-85 162 -83 159 Q-81 156 -72 154 Z M-46 155 Q-29 159 -15 164.5 Q-1 170 12 179 L-10 179 Q-16 179 -21.5 178.5 Q-27 178 -33 178 Q-39 167 -46 155 Z M43 201 Q49 207 55 212.5 Q61 218 66 224 Q78 238 88 253 Q98 268 105 285 Q107 291 109 297 Q111 303 111 310 Q111 322 103 321.5 Q95 321 84.5 315 Q74 309 64 300.5 Q54 292 51 289 Q43 281 33 270 Q23 259 13 246.5 Q3 234 -6 221.5 Q-15 209 -21 197 Q-20 196 -12.5 196 Q-5 196 5 196.5 Q15 197 24 197.5 Q33 198 36 198 Q40 198 43 201 Z " />
<glyph glyph-name="q" unicode="q" horiz-adv-x="297" d="M297 300 Q306 298 307 293.5 Q308 289 294 278 Q259 251 230 231 Q201 211 164 185 Q134 164 102.5 144 Q71 124 38 107 Q37 106 35.5 105 Q34 104 33 103 Q23 81 13.5 60 Q4 39 -6 18 Q24 -9 27 -47 Q29 -82 15.5 -112 Q2 -142 -23 -168 Q-33 -176 -43 -182 Q-47 -184 -53 -186 Q-59 -188 -65 -187 Q-82 -184 -85 -170 Q-87 -157 -84.5 -142.5 Q-82 -128 -77.5 -112.5 Q-73 -97 -67 -82.5 Q-61 -68 -56 -55 Q-50 -40 -43.5 -25 Q-37 -10 -31 5 Q-30 6 -30 7 Q-30 8 -29 10 Q-31 11 -32 12 Q-33 13 -35 13 Q-45 18 -56 20.5 Q-67 23 -78 24 Q-93 26 -107.5 26 Q-122 26 -137 27 Q-139 27 -141.5 27.5 Q-144 28 -146 28 Q-151 29 -153 36 Q-153 44 -148 46 Q-108 61 -66.5 77.5 Q-25 94 15 115 Q20 118 23 123 Q24 126 29.5 136 Q35 146 41 159 Q47 172 53.5 184 Q60 196 63 202 Q61 200 53.5 192 Q46 184 40 179 Q32 171 20 162 Q8 153 -5 151 Q-26 148 -35 164 Q-43 177 -43 196 Q-41 237 -21 271 Q-1 305 28 329 Q44 342 62 346 Q74 348 83.5 342.5 Q93 337 97 326 Q102 304 92 284 Q89 274 81 276 Q72 278 75 288 Q76 292 77 295.5 Q78 299 79 303 Q81 311 79 319 Q77 330 65 328 Q53 326 42.5 317 Q32 308 24 300 Q8 283 -3.5 263.5 Q-15 244 -20 222 Q-26 192 -22 180.5 Q-18 169 -9 170 Q0 171 12.5 181.5 Q25 192 38 205 Q51 218 61 231.5 Q71 245 76 252 Q95 281 112.5 310 Q130 339 147 369 Q151 376 155 382.5 Q159 389 163 396 Q165 399 169 402 Q173 405 178 402 Q184 398 181 392 Q177 384 170.5 371.5 Q164 359 156.5 345 Q149 331 141.5 317 Q134 303 128 291 Q119 273 106 248 Q93 223 81 199 Q69 175 60.5 158 Q52 141 52 140 L48 132 Q51 134 55 136 Q107 165 152 197 Q171 210 196 227.5 Q221 245 243.5 261 Q266 277 281.5 288.5 Q297 300 297 300 Z M3 -26 Q-1 -13 -14 0 Q-16 -6 -18 -10 Q-20 -14 -22 -19 Q-32 -43 -38.5 -60 Q-45 -77 -55 -101 Q-59 -112 -62 -122.5 Q-65 -133 -67 -144 Q-68 -149 -68.5 -153.5 Q-69 -158 -68 -163 Q-66 -172 -56 -169 Q-46 -166 -34 -154 Q-20 -139 -10 -121.5 Q0 -104 5 -84 Q13 -53 3 -26 Z M-21 27 Q-13 44 -6.5 59.5 Q0 75 8 91 Q-21 79 -48.5 67.5 Q-76 56 -105 44 Q-82 42 -61.5 39.5 Q-41 37 -21 27 Z " />
<glyph glyph-name="r" unicode="r" horiz-adv-x="258" d="M16 292 Q24 285 29.5 279.5 Q35 274 43 266 Q54 253 54.5 237 Q55 221 49.5 205 Q44 189 34.5 173 Q25 157 16 144 Q0 118 -17.5 91.5 Q-35 65 -49 37 Q-55 26 -60 16 Q-65 6 -70 -5 Q-73 -13 -75 -21.5 Q-77 -30 -76 -37 Q-73 -48 -61 -43 Q-56 -40 -51.5 -37 Q-47 -34 -42 -29 Q-31 -20 -22.5 -10.5 Q-14 -1 -4 10 Q22 39 48.5 68 Q75 97 101 126 Q118 145 138.5 167.5 Q159 190 180 213.5 Q201 237 221 259.5 Q241 282 258 300 Q269 299 266 292 Q263 285 258 279 Q235 253 208 222 Q181 191 157 165 Q130 136 100.5 102 Q71 68 42.5 36.5 Q14 5 -11.5 -20.5 Q-37 -46 -56 -58 Q-66 -63 -75 -62 Q-89 -61 -94 -45 Q-96 -23 -87.5 -3.5 Q-79 16 -68 36 Q-53 64 -37 91 Q-21 118 -4 146 Q4 160 12 173 Q20 186 28 200 Q33 211 35.5 224 Q38 237 32 247 Q28 254 23 258 Q18 262 13 267 Q5 274 -4.5 281.5 Q-14 289 -19 296 Q-45 333 -37 374.5 Q-29 416 -6 453 Q11 482 33.5 507.5 Q56 533 82 556 Q99 571 120 583.5 Q141 596 163 596 Q172 596 177.5 592 Q183 588 187 583 Q195 571 189.5 550.5 Q184 530 170.5 504.5 Q157 479 137.5 450 Q118 421 96.5 393 Q75 365 53.5 338.5 Q32 312 16 292 Z M2 304 Q8 312 24.5 332 Q41 352 61 378 Q81 404 102 432.5 Q123 461 140 487.5 Q157 514 166.5 535 Q176 556 173 567 Q170 580 155 578 Q138 575 123 566 Q108 557 96 546 Q39 498 4 436 Q-11 411 -17 383 Q-25 335 2 304 Z " />
<glyph glyph-name="s" unicode="s" horiz-adv-x="299" d="M100 149 Q151 187 199.5 224.5 Q248 262 299 300 Q308 293 306 289.5 Q304 286 299 281 Q245 236 193.5 197 Q142 158 91 119 Q83 96 71 74 Q59 52 45 31 Q35 16 16 -7 Q-3 -30 -24.5 -51 Q-46 -72 -67.5 -87 Q-89 -102 -104 -102 Q-124 -102 -124 -81 Q-124 -61 -115 -45 Q-106 -29 -95 -15 Q-80 3 -62.5 19.5 Q-45 36 -27 51 L72 129 Q79 134 80 142 Q82 153 80.5 167 Q79 181 73 193 Q63 213 47 230.5 Q31 248 17.5 265.5 Q4 283 -2 302.5 Q-8 322 2 348 Q6 359 17.5 372.5 Q29 386 43 397.5 Q57 409 71 417 Q85 425 94 426 Q108 429 115.5 421 Q123 413 122 402 Q121 388 115.5 370.5 Q110 353 102.5 335.5 Q95 318 87 303 Q79 288 73 279 Q69 272 61 276 Q58 278 57 281.5 Q56 285 58 288 Q61 293 68 306.5 Q75 320 82.5 337 Q90 354 96 371 Q102 388 104 400 Q104 406 101 407.5 Q98 409 93.5 408 Q89 407 85 404.5 Q81 402 79 401 Q44 380 25 350 Q17 337 16 325.5 Q15 314 19 303 Q23 292 30.5 281.5 Q38 271 46 261 Q56 249 66.5 237.5 Q77 226 85 213 Q93 200 97.5 184.5 Q102 169 100 149 Z M66 103 Q34 77 1 51.5 Q-32 26 -61 -4 Q-68 -12 -77 -22.5 Q-86 -33 -93 -44 Q-100 -55 -104 -65 Q-108 -75 -105 -83 Q-99 -85 -88.5 -78.5 Q-78 -72 -65.5 -61.5 Q-53 -51 -40.5 -39 Q-28 -27 -18 -18 Q8 9 28.5 39.5 Q49 70 66 103 Z " />
<glyph glyph-name="t" unicode="t" horiz-adv-x="88" d="M86 503 Q9 499 -49.5 495 Q-108 491 -160.5 486.5 Q-213 482 -266 478 Q-319 474 -384 470 Q-390 470 -392 471 Q-397 473 -397 479 Q-397 485 -390 487 Q-388 488 -383 488 Q-368 489 -327.5 492 Q-287 495 -235 498.5 Q-183 502 -126.5 506 Q-70 510 -21.5 513.5 Q27 517 60 519.5 Q93 522 98 522 L116 561 Q136 606 157 650.5 Q178 695 198 740 Q202 748 205.5 756.5 Q209 765 212 773 Q214 775 214 778.5 Q214 782 215 784 Q215 788 218 790.5 Q221 793 224 794 Q232 796 233 789.5 Q234 783 233 778 Q228 764 221 748.5 Q214 733 208 719 Q186 672 165 626 Q144 580 121 532 Q120 530 118 524 Q228 530 335.5 537 Q443 544 552 544 Q557 544 566.5 544 Q576 544 582 540 Q588 535 584 527 Q579 519 573.5 522.5 Q568 526 561 526 Q561 526 528 525 Q495 524 445.5 522 Q396 520 338 517 Q280 514 229.5 511.5 Q179 509 145 507 Q111 505 109 504 Q72 423 38 341 Q4 259 -26 176 Q-48 118 -70 61 Q-92 4 -113 -54 Q-126 -89 -137.5 -125 Q-149 -161 -154 -190 Q-155 -193 -158 -196.5 Q-161 -200 -165 -201.5 Q-169 -203 -171.5 -201 Q-174 -199 -174 -193 Q-167 -150 -153 -110 Q-139 -70 -124 -28 Q-74 106 -24 240 Q26 374 86 503 Z " />
<glyph glyph-name="u" unicode="u" horiz-adv-x="278" d="M37 186 Q26 173 14.5 162 Q3 151 -12 146 Q-34 138 -40 159 Q-43 171 -41 185 Q-36 223 -20 258 Q-4 293 13 328 Q16 335 24 335 Q33 333 31 325 Q24 309 15.5 290.5 Q7 272 -0.5 254.5 Q-8 237 -13.5 222.5 Q-19 208 -20 200 Q-20 197 -21.5 190 Q-23 183 -22.5 176.5 Q-22 170 -19.5 166 Q-17 162 -10 166 Q5 176 21.5 194.5 Q38 213 51 230 Q68 252 84.5 273.5 Q101 295 118 318 Q123 324 129 332 Q135 340 142 347 Q147 349 152 346.5 Q157 344 157 339 Q153 325 146.5 313 Q140 301 134 289 Q114 253 97.5 216 Q81 179 67 141 Q62 127 58 112.5 Q54 98 50 84 Q46 69 46 51 Q47 47 47.5 40.5 Q48 34 56 36 Q64 39 73 48 Q82 57 90 66 Q137 123 183.5 181.5 Q230 240 278 300 Q291 295 285 288 Q279 281 271 270 Q253 248 231.5 220.5 Q210 193 188.5 165 Q167 137 146 110.5 Q125 84 108 63 Q98 52 87.5 40.5 Q77 29 65 21 Q37 9 29 36 Q27 44 27.5 52.5 Q28 61 29 69 Q34 98 42.5 124.5 Q51 151 62 179 Q71 202 83 227.5 Q95 253 106 273 Q87 248 71 227 Q55 206 37 186 Z " />
<glyph glyph-name="v" unicode="v" horiz-adv-x="185" d="M-41 178 Q-39 196 -34 213.5 Q-29 231 -22 249 Q-14 272 -2.5 296 Q9 320 22 343 Q24 347 27 350 Q32 355 40 351 Q47 346 42 339 Q37 330 29.5 316 Q22 302 15 289 Q-4 250 -14 212 Q-18 198 -21.5 184 Q-25 170 -21 156 Q-18 149 -10 152 Q-4 155 2 161 Q8 167 15.5 175 Q23 183 29 190 Q47 213 64.5 235.5 Q82 258 100 282 Q126 316 152.5 350 Q179 384 206 419 Q209 423 214.5 429 Q220 435 227 437 Q235 438 237.5 431.5 Q240 425 233 421 Q208 395 186.5 366 Q165 337 142 308 Q118 277 96 247.5 Q74 218 50 188 Q39 174 25.5 160 Q12 146 -3 137 Q-14 131 -22 133.5 Q-30 136 -34.5 143.5 Q-39 151 -40.5 160.5 Q-42 170 -41 178 Z " />
<glyph glyph-name="w" unicode="w" horiz-adv-x="300" d="M101 292 Q89 280 75.5 264.5 Q62 249 49 234.5 Q36 220 26 208 Q16 196 11 192 Q2 183 -8 173.5 Q-18 164 -30 157 Q-39 153 -43.5 156 Q-48 159 -49.5 164.5 Q-51 170 -51 177.5 Q-51 185 -49 190 Q-38 228 -21 262 Q-4 296 16 328 Q18 336 24 343.5 Q30 351 38 349 Q43 346 41.5 340 Q40 334 38 331 Q18 296 -1 260.5 Q-20 225 -30 187 Q-32 179 -32 175 Q-21 183 -12.5 192 Q-4 201 5 211 Q32 240 57.5 269 Q83 298 110 327 Q115 331 120 334.5 Q125 338 131 335 Q137 331 134.5 324 Q132 317 130 313 Q121 295 111.5 274.5 Q102 254 93 234 Q84 214 77 197 Q70 180 67 170 Q63 159 60 147.5 Q57 136 56 125 Q56 116 57 112 Q59 105 65 108 Q79 113 90 123 Q101 133 110 142 Q133 165 152.5 189 Q172 213 192 238 Q214 266 235.5 293.5 Q257 321 274 352 Q277 361 283 367 Q291 373 297 370 Q302 365 299 358 Q296 353 293 348.5 Q290 344 287 339 Q267 309 245.5 280 Q224 251 201 222 Q182 198 162.5 175 Q143 152 121 130 Q110 119 98 109 Q86 99 72 93 Q58 87 49 91.5 Q40 96 38 109 Q37 122 40 139 Q47 176 64 214 Q72 231 78.5 245 Q85 259 93 276 Q94 278 96.5 283 Q99 288 101 292 Z " />
<glyph glyph-name="x" unicode="x" horiz-adv-x="120" d="M8 252 Q0 242 -5 235 Q-51 175 -95.5 115 Q-140 55 -182 -7 Q-196 -29 -211 -50.5 Q-226 -72 -225 -98 Q-229 -106 -239 -106 Q-250 -104 -248 -95 Q-245 -81 -239 -68.5 Q-233 -56 -225 -44 Q-206 -12 -185.5 17.5 Q-165 47 -144 77 Q-72 176 1 270 Q4 273 3 278 Q-2 304 -4 331 Q-6 358 -15 382 Q-18 384 -17.5 387 Q-17 390 -16 394 Q-13 401 -6 402 Q1 404 2.5 397.5 Q4 391 6 386 Q9 363 13.5 340 Q18 317 20 294 Q22 296 23.5 298 Q25 300 27 302 Q50 329 73 355.5 Q96 382 122 406 Q133 417 147.5 430.5 Q162 444 179 453 Q188 457 190 449 Q193 442 183 437 Q181 435 178 433.5 Q175 432 173 430 Q156 416 141 401.5 Q126 387 111 372 Q67 325 28 277 Q23 272 25 268 Q31 234 37.5 201 Q44 168 52 136 Q56 124 60 118 Q70 111 61 102 Q52 93 45 102 Q42 105 40 112 Q37 123 34 133 Q31 143 29 154 Q23 178 18.5 202.5 Q14 227 8 252 Z " />
<glyph glyph-name="y" unicode="y" horiz-adv-x="183" d="M-96 -196 Q-101 -195 -103 -190 Q-105 -185 -103 -180 Q-100 -171 -97 -162 Q-94 -153 -90 -144 Q-78 -115 -66 -86.5 Q-54 -58 -41 -29 Q-20 21 2.5 69 Q25 117 50 166 Q73 213 96.5 251.5 Q120 290 141 332 Q108 291 76 248 Q44 205 1 176 Q-10 170 -17.5 173 Q-25 176 -27 187 Q-30 203 -27.5 220.5 Q-25 238 -18.5 257 Q-12 276 -3 294.5 Q6 313 16 330 Q20 337 23.5 343 Q27 349 32 355 Q34 357 38 357.5 Q42 358 44 357 Q48 354 47 348 Q27 316 11.5 284 Q-4 252 -10 213 Q-11 208 -10.5 201.5 Q-10 195 -8 190 Q23 213 48 242 Q73 271 96 301 Q117 328 137.5 354 Q158 380 181 406 Q184 410 189 411.5 Q194 413 198 411.5 Q202 410 203.5 406.5 Q205 403 202 397 Q122 266 56 138.5 Q-10 11 -65 -127 Q-70 -140 -74.5 -152.5 Q-79 -165 -82 -178 Q-82 -196 -96 -196 Z " />
<glyph glyph-name="z" unicode="z" horiz-adv-x="275" d="M73 205 Q111 195 150.5 187 Q190 179 228 169 Q235 167 235.5 163.5 Q236 160 233 157 Q230 154 224.5 152.5 Q219 151 215 153 Q175 163 135 171.5 Q95 180 55 191 Q50 192 43 189 Q22 179 -2 172 Q-26 165 -46 173 Q-57 179 -56.5 186.5 Q-56 194 -50 200 Q-44 206 -35 210 Q-26 214 -18 215 Q-1 217 13.5 215 Q28 213 43 210 Q50 210 53 212 Q69 221 83.5 230.5 Q98 240 112 250 Q135 267 157.5 285.5 Q180 304 199 324 Q203 329 210.5 337.5 Q218 346 225 357 Q227 362 222 362 Q202 362 183 356 Q164 350 144 345 Q113 334 83 321.5 Q53 309 24 295 Q18 291 16 287 Q12 282 4.5 281.5 Q-3 281 -6 285 Q-11 292 -5 297.5 Q1 303 8 305 Q55 327 104.5 348.5 Q154 370 206 378 Q211 379 216 379 Q221 379 226 379 Q238 378 242 372.5 Q246 367 244.5 359.5 Q243 352 238.5 344 Q234 336 229 331 Q218 318 206 306.5 Q194 295 181 284 Q156 262 129 242 Q102 222 73 205 Z M18 197 Q5 200 -10 200.5 Q-25 201 -37 190 Q-30 185 -12.5 187 Q5 189 18 197 Z " />
</font>
</svg>
