<?xml version="1.0" encoding="UTF-8"?>
<svg xmlns="http://www.w3.org/2000/svg" xmlns:xlink="http://www.w3.org/1999/xlink" version="1.2" >
<font id="Jack And Sally">
<font-face  font-family="Jack And Sally" units-per-em="1000" ascent="750" descent="-250" font-style="normal" font-weight="400" font-stretch="normal" cap-height="700" x-height="500" underline-position="-75" underline-thickness="50" />
<missing-glyph  horiz-adv-x="75" d="" />
<glyph glyph-name="exclam" unicode="&#x21;" horiz-adv-x="94" d="M151 555 Q154 560 159 557 Q164 554 161 549 Q143 513 128 477 Q100 411 73 345.5 Q46 280 18 214 Q15 209 10 210.5 Q5 212 7 217 Q15 236 22.5 254.5 Q30 273 38 293 Q52 326 66 359.5 Q80 393 94 426 Q107 458 121 490.5 Q135 523 151 555 Z M-2 155 Q-2 154 -1.5 153.5 Q-1 153 -1 152 Q-2 150 -3 148 Q-5 144 -11 140 Q-19 137 -22 141 Q-24 143 -25 145 L-24 151 Q-23 153 -21 157 Q-18 162 -13 162 L-12 162 Q-8 164 -6 161 Q-5 161 -3 159 Q-2 157 -2 155 Z " />
<glyph glyph-name="quotedbl" unicode="&#x22;" horiz-adv-x="84" d="M41 460 Q46 462 49.5 459.5 Q53 457 53 452 Q53 436 44 424 Q41 419 35.5 422 Q30 425 34 430 Q36 432 36.5 433.5 Q37 435 38 437 Q34 439 33 440 Q29 443 31 448 Q33 456 41 460 Z M69 460 Q74 462 77.5 459.5 Q81 457 81 452 Q81 436 72 424 Q69 419 63.5 422 Q58 425 62 430 Q64 432 64.5 433.5 Q65 435 66 437 Q62 439 61 440 Q57 443 59 448 Q61 456 69 460 Z " />
<glyph glyph-name="numbersign" unicode="&#x23;" horiz-adv-x="286" d="M283 362 Q289 363 288 357 Q287 351 281 350 L223 350 Q213 331 203 312.5 Q193 294 182 275 Q190 276 198 276 Q206 276 214 276 Q221 277 220 271 Q219 265 213 264 Q204 264 195 264 Q186 264 177 263 Q163 239 153 216 Q143 193 129 168 Q126 163 121 165.5 Q116 168 118 173 Q130 194 140.5 216 Q151 238 164 263 L74 260 Q62 240 50.5 219 Q39 198 29 177 Q26 172 20 173.5 Q14 175 17 180 Q25 194 32 207 Q39 220 46 234 Q50 241 53.5 247 Q57 253 61 260 Q49 259 37.5 259 Q26 259 15 258 Q9 258 10 264 Q11 270 17 270 Q30 271 42 271 Q54 271 67 272 Q77 291 88.5 310 Q100 329 110 348 Q97 348 84.5 347.5 Q72 347 59 347 Q54 347 54.5 353 Q55 359 60 359 Q74 359 89 359.5 Q104 360 118 360 Q127 376 132.5 386.5 Q138 397 148 413 Q151 418 155.5 415 Q160 412 157 407 Q151 395 144.5 383 Q138 371 131 360 Q153 361 174.5 361 Q196 361 217 361 Q227 378 233 390 Q239 402 248 418 Q250 423 255.5 421.5 Q261 420 258 415 Q250 401 240.5 383 Q231 365 230 362 L283 362 Z M169 275 Q180 294 190 312.5 Q200 331 210 349 Q188 349 166.5 348.5 Q145 348 124 348 Q113 329 102 310.5 Q91 292 80 272 Q103 273 124.5 273.5 Q146 274 169 275 Z " />
<glyph glyph-name="dollar" unicode="&#x24;" horiz-adv-x="166" d="M187 402 Q189 397 183.5 394 Q178 391 176 396 Q169 415 144 417 Q134 397 126 381 Q118 365 109 348 Q150 352 155 330 Q155 314 140 293.5 Q125 273 101.5 257.5 Q78 242 55 239 L23 173 Q20 168 15 169.5 Q10 171 13 176 L43 239 Q27 240 19 255 Q11 270 19 293 Q22 298 27.5 296.5 Q33 295 29 290 Q25 279 27 268 Q29 257 39 253 Q44 251 49 251 Q60 272 70.5 293 Q81 314 92 336 L91 336 Q80 336 73 341 Q66 346 65 357 Q64 367 68 377 Q72 387 80 396 Q88 405 98.5 412 Q109 419 118 423 Q128 427 137 428 Q145 442 152 456 Q159 470 166 484 Q168 490 174 488.5 Q180 487 176 481 Q157 442 149 428 Q175 425 187 402 Z M104 336 Q93 315 82.5 294 Q72 273 61 252 Q70 253 76.5 255.5 Q83 258 90 262 Q120 282 134.5 306 Q149 330 138 335 Q133 337 124.5 337.5 Q116 338 104 336 Z M78 358 Q79 351 84.5 349 Q90 347 97 347 Q106 364 114.5 381 Q123 398 133 417 Q103 405 90 388 Q77 371 78 358 Z " />
<glyph glyph-name="percent" unicode="&#x25;" horiz-adv-x="204" d="M190 450 Q193 455 198 452 Q203 449 199 444 Q177 410 155 380 Q113 323 66 270.5 Q19 218 -32 169 Q-37 165 -41 169 Q-45 173 -40 178 Q-26 192 -12 206 Q2 220 16 234 Q113 334 190 450 Z M96 447 Q102 446 101 440 Q100 434 95 435 Q87 435 80 431 Q73 427 67 422 Q63 417 60.5 409 Q58 401 62 396 Q66 389 73 390 Q80 391 86 396 Q93 402 92.5 409 Q92 416 85 421 Q81 425 84.5 430 Q88 435 92 432 Q102 424 104 412 Q105 401 97 391 Q89 381 77 378.5 Q65 376 57 383 Q47 391 48.5 403 Q50 415 55 424 Q61 434 73 440.5 Q85 447 96 447 Z M84 188 Q78 189 80 195 Q82 201 88 199 Q103 196 116 208 Q121 213 124.5 220 Q128 227 125 234 Q124 242 116.5 242.5 Q109 243 104 238 Q95 233 95.5 225 Q96 217 100 210 Q102 205 97 202 Q92 199 88 204 Q81 214 83.5 226.5 Q86 239 96 247 Q106 255 117.5 254.5 Q129 254 135 243 Q141 233 137 221.5 Q133 210 125 202 Q116 194 105.5 189.5 Q95 185 84 188 Z " />
<glyph glyph-name="ampersand" unicode="&#x26;" horiz-adv-x="175" d="M131 287 Q134 292 139 289 Q144 286 142 281 Q128 257 108 235 Q88 213 60 208 Q48 206 39 208.5 Q30 211 24 219 Q18 227 18.5 237 Q19 247 22 257 Q29 277 43 291.5 Q57 306 73 320 L72 320 Q71 334 73 348.5 Q75 363 84 374 Q89 383 100.5 389 Q112 395 122 391 Q134 388 134 376 Q134 364 128 355 Q121 343 109.5 334 Q98 325 87 317 Q87 316 86 316 Q91 296 105 282 Q109 278 104.5 274 Q100 270 96 274 Q82 287 76 307 Q61 296 46 278 Q40 270 35 259 Q30 248 30 237 Q31 226 39 221.5 Q47 217 57 219 Q83 223 101 244 Q119 265 131 287 Z M94 369 Q86 361 84.5 350 Q83 339 84 329 Q86 330 90 333 Q98 340 109.5 350 Q121 360 121 372 Q122 378 118 379.5 Q114 381 109.5 379.5 Q105 378 100.5 375 Q96 372 94 369 Z " />
<glyph glyph-name="quotesingle" unicode="&#x27;" horiz-adv-x="37" d="M18 462 Q23 464 26.5 461.5 Q30 459 30 454 Q30 438 21 426 Q18 421 12.5 424 Q7 427 11 432 Q13 434 13.5 435.5 Q14 437 15 439 Q11 441 10 442 Q6 445 8 450 Q10 458 18 462 Z " />
<glyph glyph-name="parenleft" unicode="&#x28;" horiz-adv-x="159" d="M213 535 Q218 538 221 532.5 Q224 527 219 525 Q193 514 172 497.5 Q151 481 132 461 Q115 442 100.5 422 Q86 402 73 381 Q59 358 48 334.5 Q37 311 30 285 Q24 265 22 243.5 Q20 222 23.5 201 Q27 180 37.5 162 Q48 144 68 132 Q73 129 70 124 Q67 119 62 122 Q41 135 28.5 155.5 Q16 176 11 199 Q7 223 9.5 247.5 Q12 272 20 295 Q28 321 40.5 346.5 Q53 372 67 395 Q94 438 129.5 476 Q165 514 213 535 Z " />
<glyph glyph-name="parenright" unicode="&#x29;" horiz-adv-x="134" d="M109 448 Q111 423 107 398.5 Q103 374 97 350 Q89 324 78.5 299 Q68 274 53 251 Q26 208 -13 173.5 Q-52 139 -100 119 Q-105 117 -106.5 123 Q-108 129 -103 131 Q-78 142 -55.5 157 Q-33 172 -13 190 Q24 225 49.5 268.5 Q75 312 87 361 Q93 384 96 407 Q99 430 97 453 Q95 473 87 492 Q79 511 62 523 Q57 526 60 531.5 Q63 537 68 533 Q90 519 98.5 496 Q107 473 109 448 Z " />
<glyph glyph-name="asterisk" unicode="&#x2a;" horiz-adv-x="81" d="M83 439 Q89 439 88 433.5 Q87 428 81 428 L69 428 L78 419 Q82 415 78 411 Q74 407 69 411 L58 422 Q56 412 54 407 Q53 401 47 403 Q41 405 43 410 Q44 412 44 414 Q44 416 45 418 Q42 416 39 414.5 Q36 413 33 411 Q28 408 25 413 Q22 418 27 421 Q30 423 33 424.5 Q36 426 38 428 L28 428 Q23 428 23 434 Q23 440 28 440 L38 440 Q37 441 34 444 Q31 447 30 449 Q26 454 30 457.5 Q34 461 39 458 Q41 456 45 451.5 Q49 447 51 445 Q52 450 53.5 454 Q55 458 57 463 Q59 468 64.5 466.5 Q70 465 68 460 Q66 450 64 445 L79 454 Q84 457 87 452 Q90 447 85 444 Q83 443 79 441.5 Q75 440 73 439 L83 439 Z " />
<glyph glyph-name="plus" unicode="&#x2b;" horiz-adv-x="174" d="M129 288 Q135 288 134 282 Q133 276 127 276 L86 276 Q76 249 65 218 Q65 217 64 217 Q63 213 58 213 Q50 213 53 220 L53 221 Q59 235 63.5 248.5 Q68 262 73 276 L35 276 Q30 276 31 282 Q32 288 37 288 L78 288 Q82 299 85 307.5 Q88 316 91 322 Q94 328 99.5 326.5 Q105 325 103 319 Q100 313 97 305 Q94 297 91 288 L129 288 Z " />
<glyph glyph-name="comma" unicode="&#x2c;" horiz-adv-x="104" d="M39 272 Q44 274 46.5 271 Q49 268 50 263 Q53 250 42 236 Q39 231 34 234.5 Q29 238 32 242 Q34 244 34.5 245.5 Q35 247 36 249 Q31 249 29.5 252 Q28 255 29 259 Q30 263 33 267 Q36 271 39 272 Z " />
<glyph glyph-name="hyphen" unicode="&#x2d;" horiz-adv-x="183" d="M50 291 Q42 291 42 297 Q42 303 50 303 L133 303 Q141 303 141 297 Q141 291 133 291 L50 291 Z " />
<glyph glyph-name="period" unicode="&#x2e;" horiz-adv-x="91" d="M48 270 Q48 269 48.5 268.5 Q49 268 49 267 Q49 265 48 263 Q47 259 41 255 Q34 252 30 256 Q28 258 27 260 L27 266 Q27 268 29 272 Q31 277 36 277 L37 277 Q40 279 43 276 Q44 276 46 274 Q48 272 48 270 Z " />
<glyph glyph-name="slash" unicode="&#x2f;" horiz-adv-x="124" d="M144 538 Q146 543 152 541.5 Q158 540 156 535 Q145 509 135.5 484.5 Q126 460 116 435 Q97 389 79 344 Q61 299 43 253 Q25 208 7 163.5 Q-11 119 -29 74 Q-31 69 -36.5 70.5 Q-42 72 -40 78 Q-30 103 -20.5 127.5 Q-11 152 0 178 Q18 223 36 268.5 Q54 314 73 360 Q91 405 108.5 449 Q126 493 144 538 Z " />
<glyph glyph-name="zero" unicode="0" horiz-adv-x="157" d="M165 408 Q166 400 165 393 Q164 386 163 379 Q161 371 159 362 Q157 353 155 345 Q144 312 129 282 Q114 254 91 225 Q80 213 67.5 202.5 Q55 192 38 193 Q22 193 12 203 Q2 213 2 232 Q2 240 3 249 Q4 258 6 266 Q7 274 8.5 283 Q10 292 12 300 Q29 369 69 430 Q72 435 77.5 432 Q83 429 79 424 Q40 365 23 295 Q20 280 17.5 265 Q15 250 14 234 Q14 227 15.5 220.5 Q17 214 23 209 Q33 202 46 206 Q60 209 71 221 Q82 233 90 244 Q109 270 122 295 Q129 309 134 323 Q139 337 144 352 Q146 360 147.5 366.5 Q149 373 151 381 Q154 396 153 408 Q151 421 142 424 Q135 426 128 423 Q121 420 116 415 Q103 406 92.5 394.5 Q82 383 72 370 Q69 365 63.5 368 Q58 371 62 376 Q68 384 74.5 391.5 Q81 399 88 406 Q95 413 102.5 419.5 Q110 426 118 431 Q126 436 135 437 Q144 438 152 433 Q163 424 165 408 Z " />
<glyph glyph-name="one" unicode="1" horiz-adv-x="97" d="M89 436 Q92 440 95.5 437.5 Q99 435 97 431 Q92 418 87.5 405 Q83 392 78 379 Q62 334 45.5 288.5 Q29 243 12 198 Q10 192 5 194 Q0 196 2 200 Q7 213 12 226 Q17 239 21 252 Q35 292 49.5 331.5 Q64 371 78 410 Q67 399 56.5 387.5 Q46 376 35 364 Q30 360 26.5 364 Q23 368 27 372 L89 436 Z " />
<glyph glyph-name="two" unicode="2" horiz-adv-x="159" d="M149 209 Q155 211 156 205.5 Q157 200 151 198 Q101 184 58 204 Q47 209 38.5 215.5 Q30 222 22 230 Q21 230 20 231 Q11 226 1.5 223.5 Q-8 221 -18 223 Q-22 224 -22 229 Q-22 239 -12.5 245 Q-3 251 6 251 Q11 251 14.5 249 Q18 247 22 245 Q33 253 43 265 Q66 293 84 321 Q89 329 93 336 Q97 343 101 351 Q106 359 109.5 367.5 Q113 376 115 385 Q117 397 113 410.5 Q109 424 94 426 Q77 427 67 412.5 Q57 398 50 386 Q48 381 42 382.5 Q36 384 39 389 Q44 399 49.5 408 Q55 417 63 425 Q81 440 100 437 Q116 434 123 419 Q130 404 127 388 Q125 378 121.5 368.5 Q118 359 113 349 Q103 329 92 314 Q81 297 69 280 Q57 263 43 249 Q40 246 37 243 Q34 240 31 238 Q35 234 38 232 Q45 225 53 220.5 Q61 216 70 212 Q108 198 149 209 Z M-8 234 Q-1 233 10 238 Q8 239 3 239 Q-5 239 -8 234 Z " />
<glyph glyph-name="three" unicode="3" horiz-adv-x="125" d="M126 401 Q127 385 116.5 372 Q106 359 91 355 Q106 332 108 304 Q110 276 98 244.5 Q86 213 57 199 Q43 193 28.5 193.5 Q14 194 3 203 Q-6 211 -8.5 224.5 Q-11 238 -5 251 Q-1 256 3 255 Q9 253 7 248 Q0 236 4 224.5 Q8 213 19 208 Q30 203 42.5 206.5 Q55 210 65 218 Q76 226 82 238 Q88 250 92 262 Q100 287 95 312 Q90 337 76 355 Q74 358 75.5 361.5 Q77 365 81 365 Q98 365 110 382 Q119 398 110 412 Q105 419 97.5 422 Q90 425 82 423 Q65 417 58 400 Q56 394 50.5 395.5 Q45 397 47 403 Q55 423 76 433 Q95 440 110 429.5 Q125 419 126 401 Z " />
<glyph glyph-name="four" unicode="4" horiz-adv-x="123" d="M123 431 Q126 436 130.5 433 Q135 430 132 425 Q123 408 114.5 391.5 Q106 375 98 358 Q100 359 106 360 Q108 360 109.5 358 Q111 356 111 354 Q111 348 106 347.5 Q101 347 92 346 Q76 312 61.5 273 Q47 234 36 199 Q34 193 28 195 Q22 197 24 202 Q35 236 49 274 Q63 312 78 344 L51 341 Q45 340 38.5 339 Q32 338 26 337 Q21 337 17.5 338.5 Q14 340 12.5 345.5 Q11 351 14.5 355.5 Q18 360 22 365 Q26 370 29.5 375.5 Q33 381 37 386 Q46 397 54.5 408.5 Q63 420 71 431 Q75 436 79.5 433 Q84 430 81 425 Q73 415 66 406 Q59 397 52 387 Q45 378 38 369.5 Q31 361 25 351 Q24 350 25 349 Q28 349 31.5 349.5 Q35 350 39.5 351 Q44 352 61 354 Q67 355 73 355.5 Q79 356 84 357 Q93 376 102.5 394 Q112 412 123 431 Z " />
<glyph glyph-name="five" unicode="5" horiz-adv-x="155" d="M166 435 Q171 434 170.5 428 Q170 422 164 423 Q141 425 119 424 Q97 423 74 421 Q69 407 63 393.5 Q57 380 52 366 Q48 356 47 352.5 Q46 349 45 346 Q44 343 46 342 Q48 340 53.5 348.5 Q59 357 61 359 Q74 374 96 374 Q117 374 128 356 Q142 337 139 313.5 Q136 290 124 268 Q113 249 97.5 233.5 Q82 218 63 208 Q44 198 23.5 194 Q3 190 -18 193 Q-23 194 -21 200 Q-19 206 -13 204 Q30 198 71 225 Q89 238 103 256 Q117 274 123 294 Q131 319 124 339 Q120 347 114 353.5 Q108 360 98 362 Q78 364 67 347 Q64 342 60.5 338 Q57 334 52 332 Q42 327 35 335 Q33 339 33.5 344 Q34 349 36 354 Q38 360 45 378 Q50 392 55 405 Q60 418 65 431 Q67 435 70.5 435 Q74 435 76 433 Q99 435 121 436 Q143 437 166 435 Z " />
<glyph glyph-name="six" unicode="6" horiz-adv-x="162" d="M160 435 Q166 437 166.5 431 Q167 425 162 423 Q133 414 107.5 397.5 Q82 381 62 358 Q39 332 25 299 Q46 312 69 315 Q76 316 84.5 316.5 Q93 317 100 315 Q107 313 111.5 308.5 Q116 304 118 295.5 Q120 287 118 276.5 Q116 266 112.5 255.5 Q109 245 103 234 Q95 221 84 211 Q73 201 59 196 Q46 191 32.5 194 Q19 197 10 205 Q0 215 -1 229 Q-2 243 0 257 Q1 266 5 279 Q6 282 7 286 Q25 338 66 378 Q107 418 160 435 Z M62 302 Q36 296 18 280 Q14 269 13 260 Q10 249 10 236.5 Q10 224 18 215 Q26 207 37 205.5 Q48 204 59 208 Q71 213 80.5 222.5 Q90 232 94.5 240.5 Q99 249 103 263 Q107 277 107.5 284 Q108 291 106 296 Q104 301 98 302.5 Q92 304 87 304 Q76 305 62 302 Z " />
<glyph glyph-name="seven" unicode="7" horiz-adv-x="117" d="M120 426 Q112 415 104 403 Q96 391 88 379 Q84 372 79.5 364.5 Q75 357 71 350 Q77 352 83 352.5 Q89 353 96 354 Q102 355 102.5 350 Q103 345 98 344 Q89 342 81 341 Q73 340 64 338 Q30 270 15 198 Q13 193 7.5 193 Q2 193 4 198 Q9 226 18 252 Q25 274 33 294 Q41 314 51 334 Q40 331 29 328 Q18 325 7 321 Q2 319 1 324 Q0 329 5 331 Q18 336 31.5 340 Q45 344 58 347 Q77 384 102 419 Q85 415 67 412.5 Q49 410 31 410 Q26 410 26.5 415.5 Q27 421 33 421 Q73 421 115 434 Q118 436 120 433 Q122 430 120 426 Z " />
<glyph glyph-name="eight" unicode="8" horiz-adv-x="158" d="M161 396 Q163 379 156 363 Q149 347 135 334 Q124 323 110.5 316.5 Q97 310 82 306 Q94 293 103 279 Q112 265 109 245 Q107 230 97 217 Q87 204 71 197 Q55 191 39 193 Q23 195 13 206 Q2 218 1 233.5 Q0 249 7 264 Q15 280 29 292 Q43 304 60 313 Q52 323 46.5 334.5 Q41 346 40 358 Q37 392 63 417 Q90 441 123 436 Q140 432 150 421.5 Q160 411 161 396 Z M97 245 Q99 262 90 276 Q81 290 71 302 Q69 304 67 306 Q68 307 57 300.5 Q46 294 30.5 279 Q15 264 13 244 Q11 226 22.5 214 Q34 202 54 204 Q71 205 83 217.5 Q95 230 97 245 Z M139 356 Q149 371 150 390.5 Q151 410 134 419 Q121 427 105.5 425.5 Q90 424 76 414 Q62 403 56 387.5 Q50 372 52 356 Q54 345 60 335 Q66 325 74 316 Q94 318 111 328.5 Q128 339 139 356 Z " />
<glyph glyph-name="nine" unicode="9" horiz-adv-x="107" d="M109 434 Q111 439 116 437.5 Q121 436 119 431 Q114 418 108.5 405 Q103 392 99 379 Q89 356 80.5 333.5 Q72 311 62 288 Q54 266 46.5 243.5 Q39 221 35 197 Q34 192 28.5 192 Q23 192 23 197 Q30 226 37 250 Q45 273 53.5 295.5 Q62 318 72 341 Q74 345 76 350.5 Q78 356 80 361 Q72 352 61.5 344 Q51 336 39 334 Q26 331 15 338 Q4 345 7 360 Q9 372 20.5 383 Q32 394 42 402 Q64 416 94 419 Q99 419 98.5 413.5 Q98 408 92 408 Q66 405 45 391 Q40 387 36 384 Q32 381 28 376 Q23 372 20 366.5 Q17 361 17 355 Q18 351 21.5 348 Q25 345 30 344 Q36 343 42 345.5 Q48 348 52 351 Q75 364 87.5 388 Q100 412 109 434 Z " />
<glyph glyph-name="colon" unicode="&#x3a;" horiz-adv-x="110" d="M44 252 Q44 251 44.5 250.5 Q45 250 45 249 Q45 247 44 245 Q42 239 37 237 Q30 234 26 238 Q24 240 24 242 Q23 244 23 248 Q23 250 25 254 Q27 257 32 259 L33 259 Q35 260 39 258 Q40 258 42 256 Q44 254 44 252 Z M70 313 Q69 307 62 304 Q57 301 51 305 Q49 307 49 309 Q47 312 49 315 Q49 319 50 321 Q53 325 58 327 Q63 327 65 326 L68 323 Q69 322 69 321.5 Q69 321 70 320 L70 317 L70 313 Z " />
<glyph glyph-name="semicolon" unicode="&#x3b;" horiz-adv-x="120" d="M76 314 Q76 310 72 306 Q64 301 57 306 Q55 308 55 310 Q54 312 54 316 Q54 318 56 322 Q59 327 63 328 L64 328 Q68 328 70 327 Q75 322 75.5 321 Q76 320 76 318 L76 314 Z M44 252 Q47 250 47 247 Q48 233 39 220 Q35 215 30 218 Q25 221 28 226 Q31 229 33 233 Q30 233 27 236 Q23 239 25 244 Q27 252 36 256 Q41 258 44 254 L44 252 Z " />
<glyph glyph-name="less" unicode="&#x3c;" horiz-adv-x="124" d="M89 320 Q94 323 97 317.5 Q100 312 95 310 Q82 302 69 295.5 Q56 289 42 281 Q52 273 61.5 266.5 Q71 260 81 252 Q86 249 83 243.5 Q80 238 75 242 Q63 251 51.5 259.5 Q40 268 28 277 Q26 279 25.5 282 Q25 285 28 287 Q44 295 59 303.5 Q74 312 89 320 Z " />
<glyph glyph-name="equal" unicode="&#x3d;" horiz-adv-x="170" d="M130 306 Q135 306 135 300 Q135 294 130 294 L45 294 Q39 294 39 300 Q39 306 45 306 L130 306 Z M126 278 Q132 278 132 272 Q132 266 126 266 L27 266 Q22 266 22 272 Q22 278 27 278 L126 278 Z " />
<glyph glyph-name="greater" unicode="&#x3e;" horiz-adv-x="126" d="M90 286 Q92 284 92.5 281 Q93 278 90 276 Q74 267 58.5 258.5 Q43 250 27 241 Q22 238 19 243.5 Q16 249 21 251 Q35 259 48.5 266 Q62 273 76 281 Q67 289 57.5 295.5 Q48 302 39 309 Q34 312 37 317.5 Q40 323 45 319 L90 286 Z " />
<glyph glyph-name="question" unicode="&#x3f;" horiz-adv-x="180" d="M225 542 Q241 525 235 500 Q229 471 207.5 446.5 Q186 422 162 402 Q137 381 111 360 Q85 339 64 313 Q45 288 32.5 260.5 Q20 233 10 205 Q7 200 2 201.5 Q-3 203 -1 209 Q10 238 23 266.5 Q36 295 56 321 Q76 346 100.5 365.5 Q125 385 148 405 Q160 415 172 425 Q184 435 194 447 Q203 458 210.5 470 Q218 482 222 496 Q226 507 223.5 517 Q221 527 213 534 Q206 542 194 543 Q182 544 171 542 Q144 537 120.5 519.5 Q97 502 83 479 Q80 474 75 477 Q70 480 74 485 Q90 513 119.5 533 Q149 553 181 555 Q193 556 204.5 553 Q216 550 225 542 Z M-9 142 Q-9 141 -8.5 140.5 Q-8 140 -8 139 Q-9 137 -10 135 Q-12 131 -18 127 Q-26 124 -29 128 Q-31 130 -32 132 L-31 138 Q-30 140 -28 144 Q-25 149 -20 149 L-19 149 Q-16 151 -13 148 Q-12 148 -10 146 Q-9 144 -9 142 Z " />
<glyph glyph-name="at" unicode="&#x40;" horiz-adv-x="209" d="M198 351 Q201 337 196 322.5 Q191 308 181 297 Q171 286 157.5 277.5 Q144 269 130 267 Q122 265 115.5 267.5 Q109 270 106 277 Q106 278 105.5 278.5 Q105 279 105 280 Q101 274 98 272 Q92 267 82.5 264 Q73 261 69 272 Q66 280 70.5 288.5 Q75 297 80 302 Q95 316 112 317 Q117 317 117 312 Q120 309 120 305 Q119 303 117.5 299 Q116 295 115.5 291 Q115 287 116 283.5 Q117 280 121 279 Q127 277 134.5 280 Q142 283 147 286 Q159 292 169 302 Q179 312 184 325 Q188 336 186.5 347.5 Q185 359 174 366 Q163 372 149 370.5 Q135 369 124 364 Q98 354 75 336.5 Q52 319 38 295 Q32 284 29 272 Q26 260 28 248 Q31 226 50 213 Q70 201 94 207 Q118 213 135 227 Q140 231 144 226.5 Q148 222 143 219 Q132 210 117 203 Q102 196 86.5 194.5 Q71 193 56.5 197 Q42 201 31 214 Q22 225 18 238 Q14 251 16 265 Q18 281 24.5 295 Q31 309 42 321 Q53 334 66 344 Q79 354 93 362 Q107 370 123 376.5 Q139 383 156 382 Q170 381 182 373.5 Q194 366 198 351 Z M95 287 Q99 291 101.5 295 Q104 299 106 304 Q102 302 98.5 300.5 Q95 299 92 296 Q88 293 84 288 Q80 283 80 278 Q80 273 86 277 Q89 279 95 287 Z " />
<glyph glyph-name="A" unicode="A" horiz-adv-x="294" d="M292 240 Q297 240 297 234 Q297 228 292 228 Q284 228 272 228 Q260 228 248 228.5 Q236 229 226.5 229 Q217 229 214 229 Q206 210 200 192 Q194 174 187 155 Q185 149 179.5 150.5 Q174 152 176 158 Q180 167 182.5 175.5 Q185 184 188 193 Q191 202 194.5 211 Q198 220 201 229 Q176 230 151.5 230 Q127 230 102 230 Q82 230 62.5 229.5 Q43 229 23 229 L17 220 Q-3 188 -23 155 Q-43 122 -63 89 Q-66 84 -71 87 Q-76 90 -73 95 Q-71 97 -70 100 Q-69 103 -67 105 Q-49 137 -30 167.5 Q-11 198 9 229 Q-14 228 -37.5 227.5 Q-61 227 -84 225 Q-89 225 -89 231 Q-89 237 -84 237 Q-58 239 -33.5 239.5 Q-9 240 16 241 Q22 249 24 252 Q55 300 87.5 346 Q120 392 156 437 Q170 455 186 472.5 Q202 490 219 507 Q231 519 244 530 Q257 541 274 547 Q279 549 285 550.5 Q291 552 296 550 Q302 548 303 542 Q304 536 305 530 Q305 513 299 495 Q297 481 293 468.5 Q289 456 286 443 Q270 392 252.5 342 Q235 292 217 241 Q228 241 252 240.5 Q276 240 292 240 Z M30 241 Q117 243 205 241 Q213 266 222 290.5 Q231 315 239 339 Q250 371 260.5 403 Q271 435 281 468 Q284 479 286.5 490.5 Q289 502 291 513 Q293 523 293 528 Q293 532 292 534 L292 535 L292 537 L292 538 L291 538 L292 538 L291 538 L288 538 L286 538 L284 538 Q274 535 262 528 Q247 518 233.5 505.5 Q220 493 208 479 Q191 460 174.5 441 Q158 422 144 402 Q113 363 85.5 323 Q58 283 30 241 Z " />
<glyph glyph-name="B" unicode="B" horiz-adv-x="307" d="M238 338 Q251 325 255.5 308.5 Q260 292 258.5 274 Q257 256 250.5 238 Q244 220 235 205 Q215 174 185.5 153.5 Q156 133 123 119 Q91 106 56.5 99 Q22 92 -12 92 Q-42 92 -67 99 Q-76 102 -85.5 106.5 Q-95 111 -101 119 Q-104 124 -99.5 128 Q-95 132 -92 127 Q-90 125 -88.5 124.5 Q-87 124 -86 122 L-85 122 L-85 121 Q-84 121 -83 120 Q-82 120 -80 117 Q-74 115 -72 114 Q-67 112 -62 111 Q-57 110 -51 108 Q-25 103 3 105 Q71 108 132 135 Q163 150 189 171 Q215 192 231 222 Q239 239 243.5 256.5 Q248 274 246 291 Q243 321 218 337 Q201 348 179 352 Q157 356 135 354 Q129 353 129 358.5 Q129 364 134 366 Q157 372 178 381.5 Q199 391 217 406 Q234 420 245 438 Q256 456 256 479 Q259 513 228 529 Q212 536 195 536 Q178 536 161 532 Q122 521 95 491 Q91 486 87 490.5 Q83 495 87 500 Q103 519 125 530.5 Q147 542 170 547 Q189 550 207.5 548 Q226 546 242 535 Q259 524 265 506 Q271 488 269 468 Q266 448 257 432.5 Q248 417 234.5 404.5 Q221 392 204.5 382.5 Q188 373 171 366 Q190 363 207 357 Q224 351 238 338 Z M-6 133 Q-9 128 -14.5 130 Q-20 132 -18 138 Q-10 157 -1.5 176 Q7 195 15 215 Q42 281 66.5 346.5 Q91 412 119 478 Q121 483 127 481.5 Q133 480 130 475 Q122 457 115.5 439 Q109 421 102 404 Q75 336 49 268 Q23 200 -6 133 Z " />
<glyph glyph-name="C" unicode="C" horiz-adv-x="274" d="M268 549 Q279 547 283.5 538.5 Q288 530 287 520 Q286 504 278.5 489 Q271 474 263 461 Q261 456 255.5 459 Q250 462 253 467 Q258 475 262 482 Q266 489 269 497 Q272 504 275 515.5 Q278 527 272 534 Q268 539 259.5 538.5 Q251 538 246 537 Q226 532 209.5 522 Q193 512 178 501 Q157 485 138.5 467 Q120 449 103 429 Q84 407 68 384 Q52 361 39 335 Q25 311 13 285 Q1 259 -7 232 Q-11 215 -13.5 199 Q-16 183 -14 166 Q-13 149 -6.5 131.5 Q0 114 17 106 Q31 99 45 100.5 Q59 102 73 106 Q90 111 105 121.5 Q120 132 133 145 Q156 167 172 193 Q188 219 202 248 Q203 253 208.5 250 Q214 247 212 242 Q208 233 204 224.5 Q200 216 195 208 Q184 188 170.5 169 Q157 150 140.5 134 Q124 118 104 106.5 Q84 95 60 91 Q45 88 26.5 91 Q8 94 -6 109 Q-20 124 -23.5 144 Q-27 164 -26 183 Q-25 204 -20.5 224 Q-16 244 -9 263 Q12 322 46 372 Q76 421 118 465 Q137 483 156 499.5 Q175 516 197 529 Q214 540 234 546 Q242 548 251 549.5 Q260 551 268 549 Z " />
<glyph glyph-name="D" unicode="D" horiz-adv-x="320" d="M-1 158 Q-3 153 -8 154.5 Q-13 156 -11 161 Q-5 181 2 199 Q9 217 16 236 Q42 302 66.5 367 Q91 432 117 498 Q119 503 124.5 501.5 Q130 500 128 495 Q121 476 114 458 Q107 440 100 421 Q75 355 50 289.5 Q25 224 -1 158 Z M284 475 Q294 452 296 426.5 Q298 401 295 375 Q288 326 266.5 281 Q245 236 212 198 Q180 163 138.5 137 Q97 111 51 98 Q4 86 -46 91 Q-96 96 -136 125 Q-141 128 -138 133 Q-135 138 -130 134 Q-125 131 -121 128.5 Q-117 126 -112 124 Q-70 102 -23.5 102 Q23 102 67 116 Q111 130 148.5 157.5 Q186 185 215 220 Q245 257 263.5 301.5 Q282 346 284 393 Q286 416 282 439.5 Q278 463 267 483 Q248 517 209 533 Q190 540 169.5 540 Q149 540 129 534.5 Q109 529 91 518 Q73 507 59 493 Q55 489 50.5 492.5 Q46 496 51 501 Q55 506 59 509.5 Q63 513 68 517 Q85 529 105 538 Q125 547 146.5 550 Q168 553 189 550 Q210 547 230 536 Q249 525 262.5 509.5 Q276 494 284 475 Z " />
<glyph glyph-name="E" unicode="E" horiz-adv-x="271" d="M264 517 Q268 502 261 488.5 Q254 475 243 465 Q239 461 234.5 465 Q230 469 235 474 Q244 482 251 495.5 Q258 509 250 522 Q243 532 232 534 Q221 536 210 536 Q189 534 168.5 526.5 Q148 519 131 507 Q112 495 97 478 Q82 461 75 440 Q72 432 70.5 423.5 Q69 415 74 407 Q79 401 86 398 Q93 395 100 393 Q131 387 161 398 Q166 400 170.5 402.5 Q175 405 180 407 Q185 409 188 404 Q191 399 186 396 Q176 391 167 388 Q163 386 163 386 Q121 365 82.5 338 Q44 311 14 275 Q3 263 -6.5 248 Q-16 233 -22 217.5 Q-28 202 -29.5 185 Q-31 168 -26 152 Q-23 144 -18.5 137 Q-14 130 -7 125 Q6 112 25 107 Q49 99 73 104 Q97 109 118 121 Q153 142 176 175.5 Q199 209 216 245 Q218 250 223.5 247 Q229 244 226 239 Q224 233 221 227 Q218 221 215 215 Q197 181 171 150.5 Q145 120 110 103 Q87 92 61 90.5 Q35 89 11 99 Q-9 107 -23 123 Q-37 139 -40 162 Q-46 200 -27.5 234.5 Q-9 269 16 296 Q64 346 126 379 Q115 379 104.5 380 Q94 381 85 385 Q76 389 69 395 Q62 401 59 410 Q57 421 60 433 Q63 445 68 455 Q79 478 97.5 496 Q116 514 139 526 Q159 538 185 544 Q196 546 207.5 547.5 Q219 549 230 547 Q242 545 251.5 537 Q261 529 264 517 Z " />
<glyph glyph-name="F" unicode="F" horiz-adv-x="244" d="M408 534 Q414 534 414 528.5 Q414 523 408 523 Q358 522 309.5 519.5 Q261 517 211 512 Q195 510 180 508.5 Q165 507 149 504 Q143 489 137 474.5 Q131 460 125 445 Q114 420 104.5 395.5 Q95 371 84 346 L186 352 Q191 352 191 346 Q191 340 186 340 Q159 338 132.5 337 Q106 336 79 334 Q53 273 27.5 212 Q2 151 -24 91 Q-26 86 -32 87.5 Q-38 89 -36 94 Q-34 99 -32 104.5 Q-30 110 -28 115 Q-20 137 -11.5 159 Q-3 181 5 204 Q19 244 32 290 Q37 305 40.5 319 Q44 333 46 349 Q48 364 47.5 379 Q47 394 46 409 Q45 417 45 424 Q45 431 45 439 Q43 452 46 463 Q51 475 61 485 Q71 495 83 500 Q97 507 111.5 510 Q126 513 141 515 Q145 524 148 532 Q151 540 155 549 Q157 554 163 552.5 Q169 551 167 546 Q164 538 161 531.5 Q158 525 155 517 Q174 520 192 522 Q210 524 229 526 Q274 529 318.5 531 Q363 533 408 534 Z M39 268 Q45 285 52 301 Q59 317 66 333 Q59 333 56 332 Q56 332 55 330 Q52 314 48 299 Q44 284 39 268 Z M71 345 Q88 385 103.5 424 Q119 463 136 502 Q120 500 104.5 496 Q89 492 77 482 Q65 473 60 465 Q58 460 57.5 455.5 Q57 451 57 446 Q56 432 57 418.5 Q58 405 59 391 Q59 379 59 367.5 Q59 356 57 344 Q62 345 71 345 Z " />
<glyph glyph-name="G" unicode="G" horiz-adv-x="268" d="M314 509 Q316 495 311.5 482 Q307 469 298.5 458 Q290 447 279 438 Q268 429 257 422 Q252 419 249 424.5 Q246 430 251 433 Q258 438 264.5 442.5 Q271 447 277 453 Q283 459 289.5 467.5 Q296 476 299.5 485.5 Q303 495 302.5 504.5 Q302 514 296 523 Q292 528 286 530.5 Q280 533 273 535 Q265 537 257.5 537.5 Q250 538 242 537 Q225 535 208 528.5 Q191 522 176 514 Q158 503 141.5 490.5 Q125 478 109 464 Q78 435 52 400 Q26 365 7 326 Q-1 310 -6.5 293.5 Q-12 277 -14 260 Q-15 255 -15 245 L-15 232 Q-12 219 -7 210 Q0 199 12 194.5 Q24 190 37 191 Q53 191 68.5 195.5 Q84 200 99 207 Q162 236 203 291 Q206 294 211 293 Q216 291 214 286 Q209 273 202.5 260.5 Q196 248 189 235 Q153 172 98 123 Q103 120 100 114.5 Q97 109 92 112 Q90 114 88 114 Q79 106 69.5 99.5 Q60 93 51 86 Q47 84 44 86.5 Q41 89 42 93 Q45 107 57.5 117 Q70 127 84 126 Q85 128 86 128.5 Q87 129 88 130 Q148 184 185 252 Q161 229 132.5 211.5 Q104 194 72 184 Q60 181 46 179.5 Q32 178 19 180.5 Q6 183 -4.5 190.5 Q-15 198 -21 212 Q-28 226 -27.5 242 Q-27 258 -24 273 Q-20 293 -12.5 311.5 Q-5 330 4 347 Q26 388 56 424.5 Q86 461 121 491 Q138 505 156 516.5 Q174 528 194 536 Q211 544 229 547.5 Q247 551 266 549 Q274 547 282.5 545.5 Q291 544 298 539 Q312 528 314 509 Z " />
<glyph glyph-name="H" unicode="H" horiz-adv-x="295" d="M299 351 Q305 351 305 345 Q305 339 299 339 Q285 339 270.5 338.5 Q256 338 242 338 Q230 303 218 267 Q206 231 194 196 Q192 190 186 192 Q180 194 182 199 Q189 219 195.5 238.5 Q202 258 209 278 Q214 293 219 308 Q224 323 229 338 Q184 337 139.5 334 Q95 331 50 325 Q45 311 39 296.5 Q33 282 28 268 Q11 225 -5 182 Q-21 139 -38 96 Q-40 90 -45.5 92 Q-51 94 -49 99 L-13 195 Q0 227 12 259 Q24 291 36 323 Q26 321 16.5 319.5 Q7 318 -3 316 Q-9 315 -10.5 320.5 Q-12 326 -6 327 Q5 330 17 331.5 Q29 333 41 335 Q45 344 48 353 Q51 362 55 371 Q72 415 88 457.5 Q104 500 120 544 Q122 549 128 547.5 Q134 546 132 541 Q123 517 114 493 Q105 469 95 445 Q85 418 75 391 Q65 364 55 337 Q57 338 60 338 Q103 344 146 346.5 Q189 349 233 350 L293 539 Q295 545 301 543.5 Q307 542 305 536 Q299 518 293 500 Q287 482 282 463 Q273 435 264 407 Q255 379 246 350 Q259 350 272 350.5 Q285 351 299 351 Z " />
<glyph glyph-name="I" unicode="I" horiz-adv-x="165" d="M257 551 Q263 551 263 545 Q263 539 257 539 Q236 538 215.5 536.5 Q195 535 174 530 Q166 510 157.5 489.5 Q149 469 141 448 Q108 367 76.5 285.5 Q45 204 14 121 Q27 125 39.5 128 Q52 131 66 134 Q71 135 73 129.5 Q75 124 69 122 Q39 116 10 107 Q-19 98 -47 85 Q-52 83 -55 87.5 Q-58 92 -53 96 L-32 108 Q-27 111 -25 107 Q-19 109 -12.5 111.5 Q-6 114 0 116 Q8 140 17 164 Q26 188 35 211 Q65 291 96.5 369.5 Q128 448 160 527 Q143 522 126.5 516 Q110 510 93 503 Q86 498 78 494 Q70 490 61 488 Q56 487 53.5 492 Q51 497 56 499 Q64 503 71.5 506.5 Q79 510 87 513 Q91 516 94 518.5 Q97 521 100 525 Q102 527 105 526 Q108 525 110 523 Q136 533 166 541 Q166 543 168 547 Q171 552 176 551 Q181 548 180 544 Q199 547 218 548.5 Q237 550 257 551 Z " />
<glyph glyph-name="J" unicode="J" horiz-adv-x="228" d="M247 537 Q249 531 248.5 524 Q248 517 247 510 Q244 489 238 469 Q231 441 221.5 414 Q212 387 201 360 Q190 334 178.5 309 Q167 284 154 259 Q159 261 164 263 Q169 265 174 267 Q179 269 181 263 Q182 258 177 255 Q160 249 145 242 Q145 241 144 241 Q130 215 113.5 189.5 Q97 164 77 142 Q64 128 48.5 115.5 Q33 103 16 95 Q5 90 -7.5 86.5 Q-20 83 -31 88 Q-44 93 -45 104 Q-47 110 -45 116.5 Q-43 123 -40 129 Q-35 137 -29 144 Q-23 151 -16 158 Q7 177 27 191 Q53 209 80.5 223.5 Q108 238 136 251 Q140 258 143.5 264.5 Q147 271 151 279 Q165 307 177.5 335.5 Q190 364 201 393 Q210 416 218 440.5 Q226 465 231 490 Q233 497 234.5 505.5 Q236 514 236 522 Q236 529 235 533.5 Q234 538 227 538 Q210 538 191 528.5 Q172 519 157 510 Q92 471 41 415 Q37 410 32.5 414.5 Q28 419 33 423 Q39 431 46 437.5 Q53 444 60 451 Q87 477 118 499 Q149 521 183 537 Q194 542 205.5 546 Q217 550 229 550 Q244 550 247 537 Z M48 130 Q71 150 90 177 Q101 191 109.5 205 Q118 219 126 233 Q97 219 68 203 Q39 187 13 167 Q-5 152 -19 137 Q-21 134 -23.5 131.5 Q-26 129 -28 125 Q-30 122 -31 119.5 Q-32 117 -33 115 L-33 112 L-34 111 L-34 108 L-34 107 Q-33 107 -33 105 Q-33 104 -32.5 104 Q-32 104 -32 103 L-31 102 L-30 101 L-29 100 Q-25 98 -25 98 Q-21 97 -17 97.5 Q-13 98 -8 99 Q8 103 22 111.5 Q36 120 48 130 Z " />
<glyph glyph-name="K" unicode="K" horiz-adv-x="263" d="M289 523 Q294 525 297 521 Q300 517 297 513 L291 507 Q274 488 255 470.5 Q236 453 217 436 Q197 416 176.5 397 Q156 378 136 358 Q133 355 129.5 351.5 Q126 348 123 344 Q121 341 119.5 339.5 Q118 338 116 334 Q116 334 114 332 Q114 327 113 324 Q112 317 111.5 310.5 Q111 304 111 297 Q109 262 118 230 Q127 200 152 180 Q178 157 211.5 152.5 Q245 148 278 152 Q283 153 283 147 Q283 141 278 140 Q272 140 266.5 139.5 Q261 139 255 138 Q237 137 218.5 139 Q200 141 183 148 Q156 157 135 179 Q112 204 104 238 Q97 271 100 307 Q100 312 100 316 Q100 320 101 324 Q85 308 70 290 Q62 281 55.5 272 Q49 263 41 253 Q34 236 27 219 Q20 202 12 185 Q7 173 0.5 161.5 Q-6 150 -13 139 Q-21 124 -30 111 Q-34 106 -38 101.5 Q-42 97 -47 93 Q-51 91 -55.5 91 Q-60 91 -62 96 Q-64 99 -63 102 Q-62 105 -61 108 Q-57 119 -51.5 129 Q-46 139 -41 149 Q-7 208 31 259 Q39 279 47.5 298.5 Q56 318 64 338 Q77 369 89 400.5 Q101 432 112 464 Q121 487 127 511 Q128 513 128 515.5 Q128 518 129 520 Q129 522 129.5 524 Q130 526 130 528 L130 530 Q130 532 131 533 Q131 534 130.5 534.5 Q130 535 130 536 L130 537 L129 536 Q128 536 126 534 Q122 531 116 523 Q106 509 98.5 492 Q91 475 90 458 Q90 453 84 453 Q78 453 78 458 Q79 475 86 493 Q95 513 104 527 Q109 533 113.5 539 Q118 545 125 548 Q133 551 137.5 547 Q142 543 143 535 Q143 526 140.5 517 Q138 508 136 500 Q132 486 128 473 Q124 460 119 447 Q107 412 93.5 378.5 Q80 345 66 312 Q64 307 63 303.5 Q62 300 60 296 Q74 312 88 327 Q102 342 116 357 Q143 385 170 411.5 Q197 438 224 464 Q244 484 267 504 Q272 509 277.5 514 Q283 519 289 523 Z M130 539 L130 538 L130 539 L130 539 Z M-55 102 L-55 103 L-55 102 L-55 102 Z M-41 116 Q-27 136 -15.5 157.5 Q-4 179 6 202 Q-5 185 -15 168.5 Q-25 152 -35 135 Q-39 128 -42.5 121.5 Q-46 115 -49 108 Q-47 110 -45 112 Q-43 114 -41 116 Z " />
<glyph glyph-name="L" unicode="L" horiz-adv-x="221" d="M249 121 Q254 124 257 119 Q260 114 255 111 Q250 109 246.5 107.5 Q243 106 239 104 Q196 87 152 88 Q138 88 124 90.5 Q110 93 96 96 Q79 99 61 102 Q43 105 25 107 Q17 107 9 107.5 Q1 108 -7 107 Q-9 105 -10 103 Q-12 101 -15 99 Q-18 97 -21 96 Q-26 94 -30 96.5 Q-34 99 -34 104 Q-35 112 -27.5 114.5 Q-20 117 -13 118 Q-7 125 -2.5 132 Q2 139 7 146 Q23 173 37 203 Q57 241 73.5 280 Q90 319 105 359 Q124 406 140.5 452 Q157 498 173 546 Q175 552 181 550 Q187 548 185 543 Q183 537 180.5 530.5 Q178 524 176 518 Q142 418 104 324 Q88 284 71 245.5 Q54 207 34 169 Q27 157 19.5 144.5 Q12 132 3 120 L3 119 Q9 120 15 119.5 Q21 119 26 119 Q45 117 64 114 Q83 111 101 107 Q117 104 132 101.5 Q147 99 163 100 Q185 101 207 105.5 Q229 110 249 121 Z " />
<glyph glyph-name="M" unicode="M" horiz-adv-x="415" d="M383 468 Q391 466 395 459 Q399 452 400 443.5 Q401 435 400.5 425.5 Q400 416 399 410 Q395 381 387.5 353.5 Q380 326 371 299 Q362 272 352 245 Q342 218 330 192 Q328 187 323 190 Q318 193 320 198 Q332 226 342.5 254.5 Q353 283 363 312 Q371 338 377.5 363.5 Q384 389 387 415 Q388 423 388 432 Q388 441 386 449 Q386 451 384 453 L384 454 Q383 454 383 454.5 Q383 455 382 455 L381 456 L379 456 Q378 457 373 457 Q363 455 354.5 450 Q346 445 339 439 Q328 430 318.5 419 Q309 408 300 396 Q275 363 254.5 327.5 Q234 292 214 257 Q212 252 206.5 254 Q201 256 203 261 Q205 266 206.5 270.5 Q208 275 210 280 Q227 322 241 364.5 Q255 407 265 451 Q268 467 270.5 483.5 Q273 500 271 516 Q270 519 270 522 Q270 525 268 527 L268 528 L267 529 Q267 529 266 531 Q265 532 264 533 Q261 536 259 537 L250 537 L249 537 L247 537 Q246 536 245 536 Q244 536 243 535 Q240 534 234 531 Q224 525 214 517 Q201 505 189.5 492 Q178 479 167 465 Q138 426 113 384 Q88 342 66 298 Q41 248 20 197.5 Q-1 147 -18 93 Q-20 88 -25.5 89.5 Q-31 91 -29 97 Q-22 124 -14.5 151 Q-7 178 2 206 Q27 289 59 367 Q76 408 94 447.5 Q112 487 132 526 Q134 531 139.5 528 Q145 525 142 520 Q131 497 120.5 474.5 Q110 452 99 429 Q82 391 66.5 352.5 Q51 314 37 275 Q34 266 31 257.5 Q28 249 25 240 Q36 264 47 286.5 Q58 309 70 332 Q93 375 118 416 Q143 457 175 493 Q186 505 197 516.5 Q208 528 222 537 Q230 543 241 547.5 Q252 552 263 548 Q275 543 279 531 Q283 519 284 508 Q284 489 281 470.5 Q278 452 273 434 Q266 407 258 380.5 Q250 354 241 328 Q255 352 270.5 375.5 Q286 399 304 420 Q313 431 323 440.5 Q333 450 344 458 Q352 463 362 466.5 Q372 470 383 468 Z " />
<glyph glyph-name="N" unicode="N" horiz-adv-x="301" d="M289 519 Q297 503 298.5 485 Q300 467 298 450 Q296 426 291 403.5 Q286 381 280 358 Q267 312 250.5 268.5 Q234 225 214 182 Q212 176 207 179 Q202 182 204 188 Q206 192 207.5 196 Q209 200 211 204 Q230 247 246 291 Q262 335 273 380 Q278 401 282 422 Q286 443 287 465 Q287 479 285 495 Q283 511 273 522 Q256 540 231 532 Q216 527 203 516.5 Q190 506 179 495 Q162 478 148.5 460 Q135 442 122 423 Q105 399 91 374.5 Q77 350 64 324 Q35 270 11 213.5 Q-13 157 -32 98 Q-34 93 -39.5 94.5 Q-45 96 -43 102 Q-36 128 -28 155 Q-20 182 -12 208 Q1 249 15.5 288.5 Q30 328 47 367 Q81 446 122 523 Q124 528 129 525 Q134 522 132 517 Q121 495 110 473 Q99 451 88 428 Q71 390 54.5 352.5 Q38 315 24 277 Q22 272 20.5 267 Q19 262 17 257 Q29 283 42.5 309 Q56 335 70 361 Q98 412 130 456 Q143 473 157.5 490 Q172 507 189 521 Q201 531 214.5 538.5 Q228 546 244 547 Q258 547 270.5 539.5 Q283 532 289 519 Z " />
<glyph glyph-name="O" unicode="O" horiz-adv-x="305" d="M298 488 Q302 471 301 453.5 Q300 436 298 419 Q295 398 289.5 376.5 Q284 355 277 335 Q263 295 244 257 Q225 219 202 184 Q182 155 157 128 Q132 101 97 92 Q83 88 69.5 88.5 Q56 89 44 96 Q31 103 23 114.5 Q15 126 10 140 Q0 169 0 199 Q0 229 5 258 Q10 291 21 323 Q32 355 47 385 Q61 414 79 442 Q97 470 120 494 Q130 505 141 515 Q152 525 164 534 Q169 538 175 541.5 Q181 545 187 547 Q193 549 201 550.5 Q209 552 211 544 Q213 539 209 537.5 Q205 536 202 538 Q202 538 201 539 Q200 539 200 541 Q200 539 201 539 Q200 538 199 538 L198 538 Q196 538 192 536 Q189 535 183 531 Q159 517 139.5 497 Q120 477 103 455 Q84 430 69 402.5 Q54 375 42 346 Q31 318 23 288.5 Q15 259 13 229 Q12 215 12 202 Q12 189 14 175 Q16 161 19.5 148 Q23 135 31 124 Q46 103 69 101 Q83 99 96 103.5 Q109 108 120 115 Q135 123 147 135 Q159 147 170 161 Q181 175 191 189.5 Q201 204 211 220 Q253 291 275 368 Q280 386 283.5 404.5 Q287 423 288 443 Q290 457 289 471.5 Q288 486 282 499 Q271 526 241 524 Q224 522 209.5 511.5 Q195 501 185 488 Q165 462 154.5 427.5 Q144 393 149 360 Q151 354 145 353 Q138 351 138 357 Q135 371 137 389 Q139 425 154.5 461 Q170 497 200 520 Q215 531 234 535 Q253 539 270 529 Q282 523 288.5 511.5 Q295 500 298 488 Z M201 539 Q201 538 202 538 Q201 538 201 539 Z " />
<glyph glyph-name="P" unicode="P" horiz-adv-x="300" d="M303 471 Q311 442 300.5 414 Q290 386 270 363 Q244 335 211 315.5 Q178 296 143 282 Q79 259 11 256 Q-3 217 -16 177 Q-29 137 -41 97 Q-43 91 -48.5 92.5 Q-54 94 -52 100 Q-44 126 -36 151.5 Q-28 177 -20 203 Q-15 217 -11 230 Q-7 243 -2 256 Q-9 256 -15.5 256.5 Q-22 257 -29 257 Q-35 258 -35 264 Q-35 270 -29 269 Q-24 269 -18.5 268.5 Q-13 268 -8 268 L3 268 Q13 295 23.5 322 Q34 349 45 375 Q75 448 111 519 Q88 514 66.5 507.5 Q45 501 25 493 Q19 491 17.5 497 Q16 503 21 505 Q27 507 33 509 Q39 511 45 513 Q63 519 81 523.5 Q99 528 117 532 L123 544 Q126 549 131 546 Q136 543 134 538 Q133 537 133 536.5 Q133 536 132 535 L134 535 Q153 538 172 539.5 Q191 541 211 539 Q227 537 242 532.5 Q257 528 270 519 Q295 500 303 471 Z M268 380 Q285 401 292 427 Q299 453 288 479 Q275 508 246.5 518 Q218 528 189 528 Q157 528 126 522 Q116 502 106.5 482.5 Q97 463 87 443 Q68 401 51 359 Q34 317 18 274 Q16 270 15 269 Q51 270 86 277.5 Q121 285 154 299 Q186 313 216 332.5 Q246 352 268 380 Z " />
<glyph glyph-name="Q" unicode="Q" horiz-adv-x="311" d="M278 532 Q294 514 298 489.5 Q302 465 302 442 Q300 410 294 378 Q288 346 278 315 Q267 283 252.5 251 Q238 219 219 190 Q208 173 195 156 Q182 139 166 125 Q179 121 192 117.5 Q205 114 219 111 Q228 109 239.5 108 Q251 107 260 112 Q265 114 268 109 Q271 104 266 102 Q255 96 242 96.5 Q229 97 216 99 Q201 102 185.5 106.5 Q170 111 155 116 Q151 113 147 110.5 Q143 108 138 105 Q115 91 88.5 89.5 Q62 88 39 102 Q26 110 19 120 Q8 115 1 108 Q-4 104 -8.5 108.5 Q-13 113 -8 117 Q3 126 12 130 Q1 147 -2.5 166 Q-6 185 -7 205 Q-8 244 1.5 282.5 Q11 321 27 356 Q44 394 67.5 429 Q91 464 123 492 Q126 495 130 493 Q143 507 157.5 519.5 Q172 532 189 541 Q202 547 215.5 550.5 Q229 554 243 551 Q264 548 278 532 Z M66 104 Q86 99 105 104.5 Q124 110 141 121 Q132 123 123 125.5 Q114 128 105 130 Q91 133 75.5 132.5 Q60 132 46 129 Q36 127 31 125 Q46 108 66 104 Z M274 347 Q282 376 286.5 405 Q291 434 289 463 Q288 474 286 485 Q284 496 280 506 Q272 525 259 533 Q243 543 222 540 Q207 537 193 529.5 Q179 522 167 512 Q129 481 102.5 438.5 Q76 396 58 351 Q56 346 50.5 347.5 Q45 349 47 355 Q52 368 58 381 Q64 394 71 407 Q75 415 79.5 423 Q84 431 89 439 Q47 385 25 318 Q14 285 8 249.5 Q2 214 7 179 Q12 153 23 135 Q33 139 45 141 Q79 148 107 142 Q118 140 129.5 136.5 Q141 133 152 130 L153 130 Q176 149 193.5 173.5 Q211 198 225 224 Q258 283 274 347 Z " />
<glyph glyph-name="R" unicode="R" horiz-adv-x="325" d="M132 455 Q122 435 112.5 416 Q103 397 95 377 Q33 240 -7 91 Q-9 86 -15 87.5 Q-21 89 -19 94 L5 178 Q52 326 122 461 Q124 466 129 463 Q134 460 132 455 Z M325 487 Q330 473 330 458.5 Q330 444 328 430 Q322 393 302 361 Q282 329 254 305 Q219 273 175 255.5 Q131 238 85 230 Q90 227 95 224 Q100 221 105 218 Q141 193 169.5 160 Q198 127 219 89 Q222 84 216.5 81 Q211 78 209 83 Q202 94 195.5 105 Q189 116 181 127 Q158 159 128 185 Q98 211 62 229 Q57 231 59 235 Q61 239 65 240 Q73 241 79.5 241.5 Q86 242 94 244 Q140 252 183 272 Q226 292 260 327 Q283 350 299 380.5 Q315 411 317 444 Q320 472 309 493 Q297 519 271 531 Q242 544 208.5 538.5 Q175 533 148 517 Q110 494 87 457 Q64 420 54 378 Q53 372 47 373.5 Q41 375 43 381 Q45 387 46.5 393.5 Q48 400 50 406 Q63 448 90.5 482.5 Q118 517 159 536 Q189 549 224.5 551 Q260 553 289 534 Q316 517 325 487 Z " />
<glyph glyph-name="S" unicode="S" horiz-adv-x="237" d="M271 548 Q282 542 283 530.5 Q284 519 280 509 Q272 490 258 475 Q244 460 228 447 Q223 443 218.5 447.5 Q214 452 219 456 Q229 463 237 471 Q245 479 253 488 Q265 501 270 516 Q273 526 270 532 Q267 536 264 537 Q262 538 256 540 Q239 540 226 537 Q190 529 158.5 508.5 Q127 488 101 463 Q74 439 54 410 Q46 398 39.5 386 Q33 374 30 360 Q27 347 30.5 335 Q34 323 41 313 Q48 303 58 294 Q68 285 77 278 Q88 269 100 261 Q112 253 123 244 Q132 236 141 228.5 Q150 221 157 210 Q168 193 162 172 Q154 151 134 135 Q113 118 86.5 108 Q60 98 34 92 Q10 86 -15 86 Q-24 85 -33 86 Q-42 87 -50 91 Q-57 94 -60 100 Q-63 106 -59 113 Q-54 123 -41.5 127.5 Q-29 132 -19 134 Q15 140 45 139 Q59 139 73.5 137 Q88 135 101 128 Q118 136 132 149 Q146 162 151 179 Q153 186 152 195 Q149 202 143 210 Q135 219 125.5 226.5 Q116 234 106 242 Q94 250 82.5 258.5 Q71 267 60 277 Q49 285 40 295 Q31 305 25 317 Q12 341 19 365 Q22 379 28.5 391.5 Q35 404 43 416 Q64 446 91 471 Q118 496 149 516 Q164 526 180.5 533.5 Q197 541 214 546 Q229 550 247 552 Q253 552 259 551.5 Q265 551 271 548 Z M-17 97 Q33 99 82 119 Q86 121 87 121 Q82 123 72 125 Q57 128 41 128 Q25 128 9 126 Q-4 124 -17.5 122 Q-31 120 -42 113 Q-45 111 -47 108 Q-48 108 -49 107 L-49 106 L-49 105 L-49 104 L-48 104 Q-48 104 -47 103 L-47 102 Q-46 102 -45.5 101.5 Q-45 101 -44 101 L-43 101 Q-43 101 -42 100 Q-40 100 -38.5 99.5 Q-37 99 -35 99 Q-33 98 -28 98 Q-25 98 -22.5 97.5 Q-20 97 -17 97 Z M-49 104 Q-48 104 -48 104 L-49 104 Z " />
<glyph glyph-name="T" unicode="T" horiz-adv-x="199" d="M443 545 Q449 545 449 539 Q449 533 443 533 Q412 534 381 533 Q350 532 319 530 Q287 528 256.5 525.5 Q226 523 195 520 Q184 495 173.5 471 Q163 447 152 422 Q134 380 116.5 338 Q99 296 83 253 Q77 236 71 220.5 Q65 205 60 188 Q54 166 50 142.5 Q46 119 52 96 Q54 91 48 89.5 Q42 88 40 93 Q33 119 38 146.5 Q43 174 51 199 Q63 236 77 272.5 Q91 309 106 344 Q124 389 143 432 Q162 475 182 518 Q165 516 149 515 Q133 514 116 513 Q99 511 82.5 510 Q66 509 49 509 Q41 509 31 509.5 Q21 510 16 518 Q13 523 18 526 Q23 529 26 524 L27 524 L28 523 Q30 523 32 522 L34 522 L35 522 Q41 521 47.5 521 Q54 521 61 521 Q79 522 97 523 Q115 524 133 526 Q147 528 160 528.5 Q173 529 187 531 Q189 535 190 538 Q192 543 197.5 540 Q203 537 201 532 L228 535 Q282 540 335.5 543 Q389 546 443 545 Z " />
<glyph glyph-name="U" unicode="U" horiz-adv-x="293" d="M325 544 Q327 549 333 547.5 Q339 546 337 540 Q336 538 334 532 Q329 515 322.5 499 Q316 483 309 467 Q301 448 292.5 430 Q284 412 276 394 Q264 364 253 334.5 Q242 305 231 276 Q214 228 198.5 181 Q183 134 169 86 Q167 80 161.5 82 Q156 84 158 89 Q166 118 175 146 Q184 174 193 202 Q201 225 208.5 248 Q216 271 225 294 L207 264 Q192 239 176 215.5 Q160 192 142 170 Q128 152 111.5 136 Q95 120 75 109 Q60 101 41.5 98 Q23 95 8 104 Q-10 115 -15 135.5 Q-20 156 -20 175 Q-21 204 -16 233 Q-11 262 -3 291 Q5 323 15 354.5 Q25 386 36 418 Q46 444 56.5 468.5 Q67 493 78 518 Q81 523 86 520 Q91 517 89 512 Q87 507 84.5 502 Q82 497 80 492 Q68 466 57.5 439.5 Q47 413 38 386 Q27 355 18 324 Q9 293 2 261 Q-3 235 -7 208.5 Q-11 182 -7 156 Q-6 139 4 123 Q6 121 9 118.5 Q12 116 14 114 Q22 110 28 110 Q41 107 57 114 Q65 117 73 122 Q81 127 88 132 Q107 147 123 165 Q139 183 153 203 Q170 226 185.5 250.5 Q201 275 215 301 Q229 325 241 349.5 Q253 374 265 399 Q280 435 295 471 Q310 507 325 544 Z " />
<glyph glyph-name="V" unicode="V" horiz-adv-x="289" d="M351 550 Q354 555 359 552 Q364 549 361 544 Q356 535 350.5 526.5 Q345 518 340 509 Q298 441 254 376 Q210 311 162 248 Q143 223 124 199.5 Q105 176 84 153 Q71 139 57 124.5 Q43 110 26 99 Q18 93 7 90 Q-4 87 -13 96 Q-21 106 -22.5 120.5 Q-24 135 -23 147 Q-22 169 -19 190.5 Q-16 212 -11 234 Q-6 260 0.5 286.5 Q7 313 14 339 Q28 390 43 439 Q58 488 75 536 Q77 542 83 540 Q89 538 87 533 Q85 528 83.5 523.5 Q82 519 80 514 Q47 416 20 316 Q13 290 7.5 265 Q2 240 -3 214 Q-7 195 -9.5 175.5 Q-12 156 -11 136 Q-11 129 -10.5 123.5 Q-10 118 -8 112 Q-8 111 -7 110 Q-7 109 -6 108 Q-5 107 -5 106 L-5 105 Q-4 104 -3 103.5 Q-2 103 -3 104 L-2 103 L-1 102 L1 102 L2 102 L3 102 L4 102 Q7 102 8 103 L9 103 Q10 104 12 104 Q24 112 34 120 Q51 135 66.5 152 Q82 169 97 186 Q118 211 137.5 236 Q157 261 176 287 Q224 351 267 416.5 Q310 482 351 550 Z " />
<glyph glyph-name="W" unicode="W" horiz-adv-x="466" d="M454 526 Q464 509 463.5 488.5 Q463 468 460 450 Q455 423 447 396.5 Q439 370 428 345 Q405 288 371 233 Q356 208 338.5 184.5 Q321 161 301 141 Q286 126 267.5 112.5 Q249 99 228 94 Q220 92 210.5 91.5 Q201 91 192 95 Q182 100 176.5 108.5 Q171 117 167 128 Q162 142 160.5 157 Q159 172 159 186 Q158 224 162 263 Q164 294 168.5 324.5 Q173 355 178 386 Q164 361 149.5 337 Q135 313 119 290 Q108 274 96.5 258 Q85 242 72 227 Q62 215 51.5 204 Q41 193 27 185 Q19 180 9 178 Q-1 176 -9 184 Q-17 192 -19 204 Q-21 216 -21 227 Q-20 245 -17.5 262.5 Q-15 280 -11 297 Q-6 319 0.5 340 Q7 361 15 382 Q23 403 31.5 423 Q40 443 50 463 Q59 480 69 496.5 Q79 513 91 528 Q95 533 99 529 Q103 525 100 520 Q96 516 90 508 Q67 474 50 436 Q33 398 20 359 Q13 339 7.5 319.5 Q2 300 -2 280 Q-5 264 -7.5 248.5 Q-10 233 -8 217 Q-8 210 -7 207 Q-7 205 -6.5 204 Q-6 203 -6 201 Q-5 201 -5 199 L-5 198 Q-3 196 -3 194 Q-2 194 -2 194 Q-2 193 -1.5 193 Q-1 193 -1 192 L0 192 L1 191 Q2 191 2 190.5 Q2 190 3 190 L5 190 L6 190 L7 190 L8 190 Q12 190 16 192 Q21 194 25 197.5 Q29 201 34 205 Q57 225 78 254 Q90 270 101 285.5 Q112 301 123 318 Q140 344 155.5 370.5 Q171 397 185 424 Q187 429 192 427 Q197 425 196 420 L190 384 Q184 346 178.5 307.5 Q173 269 171 230 Q170 213 170 196 Q170 179 172 162 Q174 151 176.5 139 Q179 127 185 117 Q193 105 210 103 Q225 103 241 111 Q261 121 278 136 Q295 151 309 168 Q328 190 344 213.5 Q360 237 374 262 Q403 312 425 369 Q433 392 440 416 Q447 440 450 465 Q451 470 451 475 Q451 480 451 485 L451 494 Q450 498 450 502 Q448 512 446 516 Q445 516 445 517 L445 519 Q444 520 444 520.5 Q444 521 443 522 Q441 524 440 526 Q432 534 423 534.5 Q414 535 404 532 Q390 528 378.5 521 Q367 514 356 506 Q345 498 334.5 488 Q324 478 314 467 Q310 462 307 458 Q304 454 301 449 Q300 447 299 445 Q298 443 298 442 Q297 441 297 438 Q296 438 296 437 Q296 431 290 431 Q284 431 284 437 Q286 446 290 453 Q296 464 304.5 474 Q313 484 323 493 Q344 515 372 531 Q382 537 393.5 541 Q405 545 416.5 546 Q428 547 438 542.5 Q448 538 454 526 Z " />
<glyph glyph-name="X" unicode="X" horiz-adv-x="248" d="M350 545 Q355 548 358 543 Q361 538 356 534 Q294 490 236 444 Q201 416 167.5 387.5 Q134 359 102 330 Q103 307 104 284 Q105 261 107 238 Q108 217 108.5 195.5 Q109 174 110 153 L110 127 Q110 124 109.5 119.5 Q109 115 106 113 Q101 111 98 114.5 Q95 118 97 121 L97 122 Q98 123 98 124 L98 135 Q98 143 98 152 Q98 161 97 169 Q96 207 94 244 Q92 281 90 319 Q78 308 66.5 297.5 Q55 287 43 276 Q-50 186 -135 89 Q-139 85 -143.5 89 Q-148 93 -144 98 Q-119 126 -94.5 153 Q-70 180 -44 206 Q-12 239 21.5 271 Q55 303 89 335 L89 340 Q86 384 84.5 427 Q83 470 84 514 Q84 520 90 520 Q96 520 96 514 Q95 489 95.5 464 Q96 439 97 413 Q98 396 98.5 379 Q99 362 101 345 Q111 354 121 363.5 Q131 373 142 382 Q241 467 350 545 Z " />
<glyph glyph-name="Y" unicode="Y" horiz-adv-x="287" d="M308 548 Q310 553 315 551 Q320 549 318 544 Q318 542 317.5 540.5 Q317 539 317 537 Q309 511 300 486 Q291 461 281 436 Q267 400 252 364 Q237 328 221 293 Q206 260 190.5 227.5 Q175 195 156 163 Q154 161 153 158 Q152 155 150 153 Q156 155 159 155 Q164 157 165.5 151.5 Q167 146 162 144 Q156 142 150.5 141 Q145 140 140 138 Q136 133 133 128.5 Q130 124 126 119 Q120 112 113 106 Q107 101 101 98 Q95 95 88 92 Q82 90 72.5 88 Q63 86 58 93 Q54 99 58.5 104.5 Q63 110 68 113 Q77 121 86.5 126 Q96 131 106 136 Q113 140 119 142.5 Q125 145 132 148 Q140 159 147 171.5 Q154 184 161 197 Q178 229 194 262 Q210 295 224 328 L254 400 Q238 368 219.5 337 Q201 306 179 278 Q168 265 155.5 251 Q143 237 128.5 226 Q114 215 97 208 Q80 201 62 202 Q54 202 46.5 203.5 Q39 205 32 210 Q26 215 21.5 221.5 Q17 228 14 236 Q6 256 6.5 278 Q7 300 10 320 Q13 347 19 374 Q25 401 33 427 Q41 451 49.5 474.5 Q58 498 69 521 Q72 526 77 523 Q82 520 80 515 Q78 510 75.5 505 Q73 500 71 495 Q52 450 38 400 Q31 375 26.5 350 Q22 325 20 299 Q18 282 19.5 262 Q21 242 32 227 Q39 218 53 215 Q64 212 80 216 Q96 220 110 228.5 Q124 237 135 248 Q150 262 163 277 Q176 292 187 309 Q211 344 231.5 382.5 Q252 421 269 459 Q276 474 282 489 Q288 504 295 518 Q298 526 300.5 533.5 Q303 541 308 548 Z M106 115 Q110 119 113 122 Q116 125 119 129 Q105 123 91 115 Q87 113 83.5 110 Q80 107 76 104 Q74 103 71 100 Q76 100 86 104 Q90 106 93.5 107.5 Q97 109 101 111 Q103 113 106 115 Z " />
<glyph glyph-name="Z" unicode="Z" horiz-adv-x="270" d="M263 503 Q279 474 275 444 Q271 414 256 389 Q238 359 211.5 335.5 Q185 312 155 292 Q135 278 113.5 267 Q92 256 69 245 Q96 248 123 245 Q134 243 147 239.5 Q160 236 166 225 Q171 217 170 207 Q169 197 164 189 Q159 179 151 171 Q143 163 134 156 Q115 142 93.5 131.5 Q72 121 49 113 Q50 110 48.5 107.5 Q47 105 43 106 Q41 106 39 106.5 Q37 107 35 107 Q25 105 16 102.5 Q7 100 -2 98 Q-7 96 -14.5 95.5 Q-22 95 -29 97 Q-37 99 -37 105 Q-38 110 -34.5 114 Q-31 118 -28 120 Q-20 124 -11.5 124 Q-3 124 5 124 Q12 123 18.5 122 Q25 121 32 120 Q42 123 54 128 Q76 136 97 147 Q118 158 135 173 Q141 179 146.5 186 Q152 193 156 201 Q158 209 158 215 Q158 218 152 224 Q141 232 127.5 233 Q114 234 103 235 Q81 235 60.5 232.5 Q40 230 20 226 Q14 225 12 230.5 Q10 236 16 238 Q20 240 23 240.5 Q26 241 31 243 Q102 269 160 310 Q186 328 210 351 Q234 374 249 403 Q261 425 263.5 453.5 Q266 482 249 505 Q233 527 207.5 531.5 Q182 536 160 531 Q122 523 91 501.5 Q60 480 34 453 Q31 448 26 452.5 Q21 457 26 461 Q30 466 33.5 470 Q37 474 42 478 Q68 504 101 522.5 Q134 541 172 545 Q198 547 224 538 Q250 529 263 503 Z M-7 110 Q-4 110 -1.5 110.5 Q1 111 4 112 L-9 112 Q-15 112 -21 109 Q-22 109 -22 108.5 Q-22 108 -23 108 L-18 108 Q-10 108 -7 110 Z " />
<glyph glyph-name="bracketleft" unicode="&#x5b;" horiz-adv-x="133" d="M203 525 Q205 520 200 516.5 Q195 513 192 518 Q190 522 186 522 Q182 522 179 521 Q169 519 159 510 Q150 501 143.5 489.5 Q137 478 131 467 Q106 419 83 371.5 Q60 324 40 274 Q35 262 31 250 Q27 238 23 225 Q19 213 15.5 201 Q12 189 10 176 Q8 166 8 155 Q8 144 15 136 Q21 128 30 126.5 Q39 125 48 128 Q53 130 54.5 124 Q56 118 51 116 Q39 113 27 115 Q15 117 7 127 Q-2 138 -3 151 Q-4 164 -2 177 Q0 191 4 204 Q8 217 12 231 Q17 245 22 258.5 Q27 272 32 286 Q43 313 55 340 Q67 367 80 393 Q87 407 93.5 420.5 Q100 434 108 448 Q114 460 120 472.5 Q126 485 134 497 Q140 508 149 517 Q158 526 169 531 Q177 534 187.5 534 Q198 534 203 525 Z " />
<glyph glyph-name="backslash" unicode="&#x5c;" horiz-adv-x="178" d="M4 533 Q3 538 9 541.5 Q15 545 17 540 L39 443 L80 266 L121 92 Q122 87 116 84 Q110 81 109 86 L86 183 L45 360 L4 533 Z " />
<glyph glyph-name="bracketright" unicode="&#x5d;" horiz-adv-x="115" d="M116 521 Q124 510 120.5 494 Q117 478 113 465 Q98 409 81 355 Q64 301 41 247 Q36 233 29.5 220 Q23 207 16 193 Q10 182 3.5 171 Q-3 160 -11 149 Q-29 128 -51 118 Q-60 113 -70.5 111 Q-81 109 -91 113 Q-97 115 -95 121 Q-93 127 -88 125 Q-78 121 -67 124.5 Q-56 128 -48 133 Q-27 145 -11 170 Q-4 180 1.5 190 Q7 200 12 211 Q18 223 23.5 235.5 Q29 248 34 260 Q45 285 54 309.5 Q63 334 71 360 Q79 385 85.5 409.5 Q92 434 99 459 L105 483 Q107 488 108 494.5 Q109 501 108 506 Q107 517 98 518.5 Q89 520 81 514 Q76 511 71.5 515 Q67 519 72 523 Q82 530 95 531 Q108 532 116 521 Z " />
<glyph glyph-name="asciicircum" unicode="&#x5e;" horiz-adv-x="86" d="M93 433 Q98 435 99.5 429 Q101 423 96 421 Q88 418 78.5 419 Q69 420 63 426 Q58 430 56 437 Q43 424 27 420 Q22 418 20.5 423.5 Q19 429 24 431 Q48 439 57 460 Q59 465 64.5 462.5 Q70 460 68 455 Q66 450 66 444.5 Q66 439 71 435 Q76 430 82 430.5 Q88 431 93 433 Z " />
<glyph glyph-name="underscore" unicode="&#x5f;" horiz-adv-x="202" d="M15 229 Q10 229 10 235 Q10 241 15 241 Q28 241 45.5 241 Q63 241 81.5 240.5 Q100 240 117.5 240 Q135 240 148 240 Q154 240 154 234 Q154 228 148 228 Q135 228 117.5 228 Q100 228 81.5 228.5 Q63 229 45.5 229 Q28 229 15 229 Z " />
<glyph glyph-name="grave" unicode="&#x60;" horiz-adv-x="54" d="M48 436 Q53 433 50 428 Q47 423 42 426 Q25 436 23 456 Q22 462 28 462 Q34 462 35 456 Q37 444 48 436 Z " />
<glyph glyph-name="a" unicode="a" horiz-adv-x="214" d="M214 300 Q217 299 219 297 Q223 293 218 289 Q196 272 169 254.5 Q142 237 115 237 Q103 237 91 242 Q79 247 74 259 Q72 263 70 271 Q65 263 58 256 Q51 249 43 244 Q38 240 30.5 236.5 Q23 233 15.5 231.5 Q8 230 0.5 231 Q-7 232 -13 237 Q-22 246 -20 259.5 Q-18 273 -13 283 Q-5 297 8 307 Q21 317 36 321 Q41 322 47 322.5 Q53 323 58 320 Q64 316 66 309.5 Q68 303 68 297 Q68 291 62 291 Q56 291 56 297 Q56 301 55 305 Q54 309 49 310 L47 310 Q42 310 39 309 Q35 308 25 304 Q15 299 6.5 289.5 Q-2 280 -6 269 Q-8 264 -8 254 Q-7 244 3 243 Q14 241 25.5 247 Q37 253 45 261 Q67 281 76 309 Q78 314 83.5 312.5 Q89 311 87 306 Q84 295 82 284.5 Q80 274 85 263 Q90 252 99.5 250 Q109 248 118 248 Q129 248 143 254.5 Q157 261 170.5 270 Q184 279 195.5 287.5 Q207 296 214 300 Z " />
<glyph glyph-name="b" unicode="b" horiz-adv-x="186" d="M186 300 Q190 298 192 295 Q196 289 186 288 Q155 282 122 276 Q89 270 57 261 Q51 250 42 239.5 Q33 229 22 223 Q19 221 15 220 Q11 219 8 220 Q-1 223 1 234 Q4 243 13 250 Q23 258 36 265 Q44 269 48 270 Q49 272 50 273 Q52 278 52.5 282.5 Q53 287 54 292 Q54 296 54 300 Q54 304 52 308 Q50 311 46 310 Q42 309 37.5 306.5 Q33 304 28.5 300.5 Q24 297 23 296 Q15 289 8.5 281 Q2 273 -4 265 Q-12 248 -19.5 232 Q-27 216 -35 199 Q-37 194 -42.5 196.5 Q-48 199 -46 204 Q-35 240 -14 270 Q6 315 25 359 Q44 403 61 449 Q63 454 69 452.5 Q75 451 73 445 Q68 431 62.5 417.5 Q57 404 51 390 Q42 368 33 347 Q24 326 14 305 Q24 313 33 317 Q45 324 54 321 Q63 318 65 307 Q68 292 63 275 Q92 283 124 289 Q156 295 186 300 Z M21 237 Q30 243 36 252 Q30 248 28 246 Q24 244 20 241 Q16 238 14 233 L13 232 Q14 232 14 232.5 Q14 233 15 233 Q19 235 21 237 Z " />
<glyph glyph-name="c" unicode="c" horiz-adv-x="173" d="M79 311 Q80 305 74 305 Q68 305 67 311 Q66 322 55.5 322.5 Q45 323 37 319 Q22 311 9 293 Q4 287 0 278.5 Q-4 270 -1 262 Q2 254 10 253 Q18 252 25 252 Q37 253 49 255.5 Q61 258 72 261 Q102 269 128 279 Q139 284 150.5 289.5 Q162 295 173 300 Q176 299 178 297 Q182 293 177 290 Q163 281 147 274 Q131 267 115 262 Q99 257 83 252 Q67 247 50 244 Q36 241 18 241 Q0 241 -9 251 Q-16 259 -14 270 Q-12 281 -7 289 Q1 305 18 320 Q35 335 55 334 Q77 332 79 311 Z " />
<glyph glyph-name="d" unicode="d" horiz-adv-x="208" d="M208 300 Q214 299 215 296.5 Q216 294 207 285 Q199 278 180.5 268 Q162 258 143 253 Q135 251 127 251.5 Q119 252 112 254 Q95 260 93 279 Q92 282 93 289 Q87 279 79.5 268.5 Q72 258 62.5 250 Q53 242 42 237.5 Q31 233 19 234 Q-5 237 -9 262 Q-11 275 -6.5 286.5 Q-2 298 5 308 Q11 316 19.5 323.5 Q28 331 40 334 Q61 340 77 326 Q80 321 76 317 Q72 313 67 317 Q62 324 52.5 324 Q43 324 34 319 Q12 306 3 282 Q2 273 3 263 Q4 253 12 248 Q22 243 32.5 246.5 Q43 250 51 256 Q68 267 77.5 285.5 Q87 304 96 322 Q102 334 106.5 345.5 Q111 357 117 369 Q124 389 131.5 407.5 Q139 426 150 452 Q152 457 157.5 455.5 Q163 454 161 449 Q147 409 131 373 L117 334 Q113 323 109 310.5 Q105 298 104 285 Q106 268 119 265 Q126 263 133.5 264 Q141 265 148 267 Q164 272 179 280.5 Q194 289 208 300 Z " />
<glyph glyph-name="e" unicode="e" horiz-adv-x="174" d="M174 300 Q179 299 181 297 Q183 295 181.5 292 Q180 289 173 285 Q151 272 132.5 263.5 Q114 255 91 247 Q79 243 67 240.5 Q55 238 42 237 Q32 236 20.5 237 Q9 238 1 244 Q-14 254 -12.5 270 Q-11 286 0 300.5 Q11 315 28 324.5 Q45 334 61 333 Q69 332 76 327.5 Q83 323 81 314 Q79 306 72.5 301 Q66 296 60 293 Q47 287 33.5 285 Q20 283 6 283 L4 283 Q2 278 1 272 Q0 266 2 260 Q5 253 13 251 Q21 249 28 249 Q49 247 70 253 Q91 259 110 267 Q127 274 146.5 285 Q166 296 174 300 Z M39 316 Q31 312 24 307 Q17 302 12 295 Q37 295 56 305 Q62 308 66 313 Q68 316 69 318 Q64 323 55.5 321.5 Q47 320 39 316 Z " />
<glyph glyph-name="f" unicode="f" horiz-adv-x="158" d="M158 300 Q161 299 163 297 Q167 293 157 289 Q127 277 93 267 Q59 257 30 248 Q29 241 29 234 Q29 227 28 219 Q26 202 22 184.5 Q18 167 11 151 Q7 140 -2 127.5 Q-11 115 -25 116 Q-36 116 -40 124.5 Q-44 133 -44 142 Q-44 156 -41.5 170 Q-39 184 -34 198 Q-29 218 -22.5 237.5 Q-16 257 -8 276 Q6 319 23.5 367.5 Q41 416 58 458 Q60 463 66 460 Q72 457 70 452 Q51 407 34 362 Q17 317 1 268 Q-5 251 -11 233 Q-17 215 -22 197 Q-26 185 -28.5 172 Q-31 159 -32 146 Q-32 144 -32.5 141.5 Q-33 139 -31 137 L-31 134 Q-31 132 -30 131 L-30 130 L-30 129 L-29 129 L-29 128 L-27 128 Q-19 127 -11 135 Q-4 143 1 157 Q7 171 10 186.5 Q13 202 16 218 Q17 225 17 231.5 Q17 238 18 246 L18 247 Q12 247 6.5 251.5 Q1 256 3 263 Q4 269 8.5 271.5 Q13 274 17.5 273 Q22 272 25.5 268.5 Q29 265 29 261 Q37 263 45 265.5 Q53 268 62 270 Q87 278 112.5 285.5 Q138 293 158 300 Z M14 261 Q17 261 17 259 Q14 259 14 261 L14 261 Z " />
<glyph glyph-name="g" unicode="g" horiz-adv-x="206" d="M206 300 Q210 299 212 297 Q214 295 213 292.5 Q212 290 207 287 Q173 267 142 251.5 Q111 236 77 215 Q72 199 67 183.5 Q62 168 55 153 Q47 137 36 121 Q25 105 11 94 Q2 87 -10 82.5 Q-22 78 -34 82 Q-52 89 -50 111 Q-48 124 -41 134.5 Q-34 145 -26 154 Q-6 175 18.5 191.5 Q43 208 67 223 Q71 233 74 246 Q77 254 79.5 262.5 Q82 271 85 279 Q81 274 78 271 Q75 268 71 264 Q60 255 46.5 248.5 Q33 242 19 244 Q3 246 -4 257 Q-8 263 -8.5 270 Q-9 277 -7 283 Q-5 296 4 306.5 Q13 317 25 323 Q37 329 50.5 329 Q64 329 75 321 Q80 318 77 313 Q74 308 69 311 Q58 318 45.5 316 Q33 314 23 308 Q15 302 9 293.5 Q3 285 3 274 Q3 263 14 258 Q19 256 24.5 256 Q30 256 35 258 Q60 264 74 285.5 Q88 307 99 328 Q101 333 106.5 330.5 Q112 328 110 323 L83 233 Q113 251 143.5 267 Q174 283 206 300 Z M62 206 Q41 192 20.5 177.5 Q0 163 -17 145 Q-24 137 -31 127.5 Q-38 118 -38 107 Q-38 101 -37 99 L-36 98 L-35 97 Q-35 96 -34 96 Q-31 93 -23 93 Q-9 93 2 102 Q13 111 21 122 Q32 135 39.5 149 Q47 163 53 179 L62 206 Z " />
<glyph glyph-name="h" unicode="h" horiz-adv-x="206" d="M206 300 Q211 299 213 297 Q217 293 205 287 Q194 281 184 275.5 Q174 270 161 265 Q150 261 138.5 257.5 Q127 254 116 255 Q100 257 93 268 Q86 279 80 293 Q78 298 75 304 Q72 310 67 315 Q58 322 44 319 Q37 317 31.5 312 Q26 307 23 302 Q17 294 12 285.5 Q7 277 5 269 Q-3 251 -10 232.5 Q-17 214 -26 195 Q-28 190 -33 192.5 Q-38 195 -36 200 Q-30 215 -24.5 230 Q-19 245 -14 260 L55 461 Q57 467 62.5 465 Q68 463 65 458 Q60 443 55.5 428 Q51 413 46 399 Q38 377 30.5 355.5 Q23 334 16 313 Q27 328 43 331 Q51 333 58.5 331.5 Q66 330 73 325 Q79 321 82.5 315.5 Q86 310 88 304 Q93 293 99 280.5 Q105 268 120 267 Q131 267 141 270 Q151 273 161 278 Q172 283 184 289 Q196 295 206 300 Z " />
<glyph glyph-name="i" unicode="i" horiz-adv-x="147" d="M147 300 Q151 299 153 297 Q157 293 151 290 Q140 285 127.5 280 Q115 275 103 270 Q83 262 63.5 255 Q44 248 23 246 Q14 244 4.5 245.5 Q-5 247 -10 257 Q-13 262 -12 269 Q-11 276 -8.5 283 Q-6 290 -2.5 296.5 Q1 303 4 307 Q7 312 12 309 Q17 306 14 301 Q11 296 5.5 285.5 Q0 275 0 268 Q-1 261 3.5 259 Q8 257 14 257 Q24 257 33.5 259.5 Q43 262 52 265 Q77 273 99 281.5 Q121 290 147 300 Z M30 342 Q24 342 24 348 Q24 354 30 354 Q36 354 36 348 Q36 342 30 342 Z " />
<glyph glyph-name="j" unicode="j" horiz-adv-x="143" d="M143 300 Q151 299 152 295 Q153 291 140 284 Q103 263 68.5 248 Q34 233 -2 217 Q-6 215 -8 214 Q-10 213 -14 211 Q-18 200 -23 189.5 Q-28 179 -34 168 Q-50 138 -70 115 Q-81 104 -93 92.5 Q-105 81 -119 79 Q-135 77 -144 86 Q-154 95 -151.5 110 Q-149 125 -140.5 138 Q-132 151 -121 162 Q-100 182 -74 195.5 Q-48 209 -24 220 Q-15 247 -8.5 269.5 Q-2 292 4 317 Q4 323 10 323 Q16 323 16 317 Q10 294 3.5 271.5 Q-3 249 -9 226 Q-7 227 -6 227.5 Q-5 228 -3 229 Q31 245 65 259.5 Q99 274 143 300 Z M-34 193 Q-33 196 -31.5 199 Q-30 202 -29 205 Q-50 195 -71.5 184 Q-93 173 -110 156 Q-120 147 -129 135 Q-138 123 -139.5 112.5 Q-141 102 -138 97.5 Q-135 93 -129 91 Q-118 88 -105 97 Q-99 101 -93.5 106.5 Q-88 112 -82.5 117.5 Q-77 123 -73 129 Q-69 135 -64 141 Q-47 164 -34 193 Z M17 351 Q12 351 12.5 357 Q13 363 18 363 Q24 363 23.5 357 Q23 351 17 351 Z " />
<glyph glyph-name="k" unicode="k" horiz-adv-x="185" d="M185 300 Q185 300 191 297.5 Q197 295 187 284 Q178 273 173 267.5 Q168 262 157 253 Q141 239 120 230.5 Q99 222 75 225 Q55 228 37.5 238 Q20 248 8 264 Q-3 241 -14 217.5 Q-25 194 -35 170 Q-38 164 -43 166.5 Q-48 169 -45 176 Q-39 191 -33 206 Q-27 221 -22 237 Q31 401 50 455 Q53 463 58.5 461 Q64 459 61 452 Q56 436 50.5 420.5 Q45 405 39 389 Q31 363 22.5 336.5 Q14 310 4 284 Q9 293 13 300.5 Q17 308 21 315 Q25 322 30 328 Q40 339 52 336 Q61 333 63.5 327.5 Q66 322 64.5 316 Q63 310 60 303.5 Q57 297 54 293 Q41 275 21 267 Q36 250 57.5 241.5 Q79 233 100 238 Q128 243 148 261.5 Q168 280 185 300 Z M36 315 Q24 295 15 277 Q35 284 46 303 Q50 309 52.5 316 Q55 323 52 325 Q49 326 44.5 323.5 Q40 321 36 315 Z " />
<glyph glyph-name="l" unicode="l" horiz-adv-x="152" d="M152 300 Q156 300 158 298 Q162 294 154 288 Q146 282 131.5 271 Q117 260 98 248 Q81 236 61.5 225.5 Q42 215 21 211 Q13 209 5 209.5 Q-3 210 -8 218 Q-13 225 -13.5 232.5 Q-14 240 -14 248 Q-12 268 -5 288 Q2 308 9 328 Q21 360 33.5 391 Q46 422 58 454 Q60 459 65.5 457.5 Q71 456 69 450 Q56 417 43.5 383.5 Q31 350 18 317 Q12 300 6.5 282 Q1 264 -1 246 Q-1 236 0 231 Q2 225 4 223 Q6 221 9 221.5 Q12 222 15 222 Q25 224 30 226 Q50 232 68.5 243 Q87 254 104 266 Q119 277 130 284.5 Q141 292 152 300 Z " />
<glyph glyph-name="m" unicode="m" horiz-adv-x="233" d="M233 300 Q237 300 239 298 Q243 294 232 287 Q208 271 187 259.5 Q166 248 137 242 Q132 241 127 240.5 Q122 240 117 242 Q107 245 107 257 Q106 265 108.5 275.5 Q111 286 107 293 Q103 300 93.5 293.5 Q84 287 79 282 Q70 273 65 266.5 Q60 260 52 252 Q49 249 44 249 Q39 249 39 254 Q39 262 42 273.5 Q45 285 43 297 Q42 303 32 296 Q23 288 16.5 278.5 Q10 269 3 259 Q-4 249 -11 238.5 Q-18 228 -23 217 Q-26 212 -31 215 Q-36 218 -34 223 Q-18 250 -7.5 279.5 Q3 309 10 339 Q12 345 18 345 Q24 345 22 339 Q19 325 14.5 310.5 Q10 296 5 282 Q10 290 17.5 298 Q25 306 34 310 Q44 315 49.5 309.5 Q55 304 55 295 Q55 287 54.5 281.5 Q54 276 53 271 Q63 283 79 297 Q87 304 96.5 307.5 Q106 311 114 304 Q121 299 121.5 291 Q122 283 121 275 Q121 273 119.5 265 Q118 257 120 255 Q124 251 128 251.5 Q132 252 139 254 Q165 260 189.5 274.5 Q214 289 233 300 Z " />
<glyph glyph-name="n" unicode="n" horiz-adv-x="215" d="M215 300 Q222 300 222.5 296.5 Q223 293 213 286 Q180 266 143 251 Q127 245 114 241.5 Q101 238 93 236.5 Q85 235 77 237 Q72 238 68 244.5 Q64 251 65 261 Q66 271 66.5 279 Q67 287 68 297 Q69 305 65 309 Q63 312 58.5 310.5 Q54 309 52 307 Q44 300 40 294.5 Q36 289 31 282 Q26 275 21 268 Q16 261 5.5 244.5 Q-5 228 -15 211 Q-18 207 -23 209 Q-28 211 -26 216 Q-14 250 -6.5 277 Q1 304 10 341 Q12 347 18 346 Q24 345 21 335 Q6 279 -1 257 Q30 300 35.5 306.5 Q41 313 49 319 Q59 324 65.5 322.5 Q72 321 76 314 Q79 309 79 300 Q79 291 77.5 272.5 Q76 254 79 249 Q83 245 93.5 247.5 Q104 250 111 252 Q120 255 129.5 258 Q139 261 160 270 Q181 279 215 300 Z " />
<glyph glyph-name="o" unicode="o" horiz-adv-x="230" d="M230 300 Q237 300 237.5 296 Q238 292 228 286 Q204 274 169.5 262.5 Q135 251 99 253 Q96 253 93 253.5 Q90 254 87 254 Q74 238 56 229 Q45 224 31.5 223 Q18 222 6 228 Q-5 234 -10.5 245 Q-16 256 -14 270 Q-12 282 -4 294 Q4 306 16 314 Q28 322 42 325.5 Q56 329 70 326 Q76 324 74.5 318 Q73 312 67 314 Q54 317 41.5 313.5 Q29 310 19 302 Q10 294 3 283 Q-4 272 -3 260 Q-2 250 4.5 243.5 Q11 237 20 235 Q31 233 41 236.5 Q51 240 60 245 Q64 248 67.5 251 Q71 254 74 257 Q66 260 60.5 265 Q55 270 53 278 Q50 291 59 302.5 Q68 314 82 313 Q96 311 101 297 Q103 290 101.5 283 Q100 276 97 270 Q96 268 96 267.5 Q96 267 95 265 Q112 264 132 267 Q158 271 182.5 280 Q207 289 230 300 Z M66 277 Q69 272 73 270.5 Q77 269 82 267 Q87 275 88 281 Q90 286 90 291.5 Q90 297 85 299 Q80 302 75.5 300 Q71 298 68 294 Q62 286 66 277 Z " />
<glyph glyph-name="p" unicode="p" horiz-adv-x="206" d="M206 300 Q210 298 212 296 Q215 293 203 287 Q165 270 125 259 Q85 248 35 237 Q20 232 7 232 Q2 231 1 236.5 Q0 242 5 244 Q12 245 18.5 246 Q25 247 32 248 Q43 252 53.5 258.5 Q64 265 72 275 Q78 283 79 295.5 Q80 308 67 313 Q60 315 53 312.5 Q46 310 41 305 Q35 301 30.5 295.5 Q26 290 22 285 Q3 259 -10.5 229.5 Q-24 200 -35 170 Q-38 162 -41.5 153.5 Q-45 145 -48 136 Q-50 131 -55.5 132.5 Q-61 134 -59 140 Q-40 191 -21 242.5 Q-2 294 16 346 Q18 351 23.5 349.5 Q29 348 27 343 Q22 328 17 313.5 Q12 299 7 284 Q16 298 26 309 Q39 320 56.5 324.5 Q74 329 86 313 Q95 300 90.5 286 Q86 272 76 262 Q74 259 71 257 Q106 265 139 276.5 Q172 288 206 300 Z " />
<glyph glyph-name="q" unicode="q" horiz-adv-x="218" d="M218 300 Q222 299 224 297 Q228 293 219 287 Q210 281 203 277.5 Q196 274 186 269 Q158 255 124 242 Q98 230 73 221 Q71 220 68 219.5 Q65 219 63 218 L63 216 L66 210 Q70 193 65 173 Q63 163 59 154.5 Q55 146 50 138 Q45 130 40.5 123 Q36 116 29 111 Q24 108 19 107 Q14 106 9 111 Q5 115 4.5 119.5 Q4 124 4 129 Q5 142 9.5 155 Q14 168 19 180 Q24 191 28.5 202.5 Q33 214 38 225 Q43 235 47 245 Q51 255 56 265 L53 262 Q47 256 39 251.5 Q31 247 22 246 Q15 245 8 247.5 Q1 250 -3 256 Q-10 267 -6.5 281.5 Q-3 296 4 306 Q10 314 17.5 320 Q25 326 34 329 Q41 331 49 332 Q57 333 64 331 Q69 329 67.5 323 Q66 317 60 319 Q54 322 46 320 Q38 318 32 315 Q17 306 9 290 Q4 279 5 269 Q6 262 10 260 Q12 259 15 258 Q20 256 26 259 Q34 261 40.5 266.5 Q47 272 52 278 Q63 291 71.5 305.5 Q80 320 88 334 Q90 339 95 336 Q100 333 98 328 Q84 299 71 269.5 Q58 240 45 210 Q40 201 36.5 191.5 Q33 182 28 172 Q26 166 24 160 Q22 154 20 148 Q18 142 16.5 135.5 Q15 129 16 123 Q16 121 17 120 Q19 118 21 120 Q27 125 31.5 131.5 Q36 138 40 144 Q50 162 54 179 Q56 187 56 195.5 Q56 204 52 212 Q50 216 49.5 220 Q49 224 54 227 Q56 229 59 229 Q62 229 64 230 Q69 232 74.5 234 Q80 236 85 238 Q98 243 111 248.5 Q124 254 137 260 Q150 265 162.5 271 Q175 277 188 283 Q196 287 203 291.5 Q210 296 218 300 Z " />
<glyph glyph-name="r" unicode="r" horiz-adv-x="195" d="M195 300 Q198 298 200 295 Q204 289 195 284 Q172 271 150.5 259 Q129 247 106 235 Q79 221 58.5 214.5 Q38 208 28 211 Q19 214 19 222 Q19 230 21.5 240 Q24 250 27 259.5 Q30 269 28 275 Q26 279 24 279.5 Q22 280 17 282 Q11 284 5 286.5 Q-1 289 -5 294 Q-10 302 -6.5 312.5 Q-3 323 2 328 Q10 338 23 338 Q37 336 35 322 Q34 312 27.5 306 Q21 300 13 296 Q17 294 23 292 Q38 288 41 278 Q42 273 40.5 264 Q39 255 36.5 246 Q34 237 32 230 Q30 223 32 222 Q40 219 65.5 230.5 Q91 242 121 258 Q139 268 158.5 279 Q178 290 195 300 Z M7 314 Q6 312 5.5 310 Q5 308 5 305 Q8 307 11 309 Q14 311 17 313 Q19 315 22.5 320 Q26 325 21 326 Q16 327 12.5 322 Q9 317 7 314 Z " />
<glyph glyph-name="s" unicode="s" horiz-adv-x="171" d="M171 300 Q175 299 177 297 Q179 295 178 292.5 Q177 290 170 288 Q146 279 125 271.5 Q104 264 80 256 Q68 252 55.5 248 Q43 244 31 239 L30 239 Q28 226 21 216 Q16 208 5.5 200 Q-5 192 -16 198 Q-26 203 -22.5 212 Q-19 221 -14 227 Q-7 234 1.5 238.5 Q10 243 19 247 Q19 254 18 257 Q16 264 12 270 Q8 276 5 282 Q-5 299 3 316 Q9 330 23 339.5 Q37 349 52 350 Q58 350 58 344 Q58 338 52 338 Q35 336 23 324 Q15 316 12.5 307 Q10 298 15 289 Q19 281 23 275 Q27 269 29 261 Q30 259 30 256.5 Q30 254 31 252 Q43 257 56 261 Q69 265 82 270 Q105 278 126.5 285.5 Q148 293 171 300 Z M7 217 Q12 222 16 233 Q1 226 -8 216 Q-9 214 -10.5 212 Q-12 210 -11 209 Q-9 207 -6 208 Q-3 209 -1 210 Q5 214 7 217 Z " />
<glyph glyph-name="t" unicode="t" horiz-adv-x="157" d="M157 300 Q161 300 163 298 Q165 296 164.5 294 Q164 292 159 287 Q142 270 125.5 256.5 Q109 243 89 229 Q79 223 70 217 Q61 211 51 206 Q42 201 32 198 Q22 195 12 196 Q-9 198 -17 216 Q-21 227 -18.5 237.5 Q-16 248 -13 258 Q-5 284 3.5 310 Q12 336 20 362 Q6 360 -8 358.5 Q-22 357 -36 355 Q-42 354 -42 360.5 Q-42 367 -36 367 Q-21 369 -6 370.5 Q9 372 24 374 Q30 392 35.5 409.5 Q41 427 47 445 Q49 450 54.5 448.5 Q60 447 58 442 Q53 425 47.5 408.5 Q42 392 37 375 Q64 378 91.5 380.5 Q119 383 146 385 Q152 385 152 379 Q152 373 146 373 Q117 371 89.5 368.5 Q62 366 33 363 L27 345 Q20 324 13.5 302.5 Q7 281 0 260 Q-3 251 -5.5 238 Q-8 225 -5 219 Q-1 211 7 209 Q15 207 23 208 Q33 210 42 215 Q51 220 60 225 Q79 236 94 247 Q111 258 126 272 Q141 286 157 300 Z " />
<glyph glyph-name="u" unicode="u" horiz-adv-x="195" d="M195 300 Q198 299 200 297 Q204 293 198 289 Q185 279 166.5 268.5 Q148 258 137 253 Q125 248 112 244 Q99 240 86 240 Q72 241 58.5 248.5 Q45 256 40 271 Q35 263 26 252 Q17 241 8 239 Q-3 236 -10 246 Q-13 251 -13 257 Q-13 263 -12 268 Q-10 277 -5.5 288.5 Q-1 300 6 310 Q9 315 14.5 312 Q20 309 16 304 Q11 296 6.5 288.5 Q2 281 0 271 Q-1 267 -1.5 262 Q-2 257 -1 254 Q1 249 5.5 251 Q10 253 12 255 Q37 279 47 316 Q48 322 54 320.5 Q60 319 58 313 Q56 306 53.5 296 Q51 286 51 281 Q51 271 57 264 Q65 256 75 253.5 Q85 251 95 253 Q116 256 138 266 Q147 270 165.5 281.5 Q184 293 195 300 Z " />
<glyph glyph-name="v" unicode="v" horiz-adv-x="205" d="M205 300 Q208 299 210 298 Q213 295 208 291 Q197 284 179.5 279 Q162 274 142.5 272.5 Q123 271 103.5 273.5 Q84 276 70 284 L69 283 Q56 259 35 237 Q30 231 20 224 Q10 217 1 222 Q-4 225 -5 229.5 Q-6 234 -7 239 Q-8 246 -7.5 252.5 Q-7 259 -6 266 Q-1 297 7 325 Q9 330 15 328.5 Q21 327 19 322 Q14 308 11 293.5 Q8 279 6 265 Q5 259 4.5 252.5 Q4 246 5 239 Q5 236 6 234 Q6 232 7 231 Q8 231 10 232 Q12 233 14 234 Q16 235 20 239 Q24 243 28 246.5 Q32 250 35 255 Q49 272 60 292 Q58 296 56 300.5 Q54 305 53 310 Q51 324 58 332 Q63 339 70.5 338.5 Q78 338 82 330 Q86 321 83.5 311.5 Q81 302 76 294 Q87 287 103.5 284.5 Q120 282 137.5 283 Q155 284 173 288.5 Q191 293 205 300 Z M68 326 Q66 323 65.5 319 Q65 315 65 312 Q65 309 67 303 Q68 305 69 307.5 Q70 310 71 312 Q73 319 72 323 Q70 328 68 326 Z " />
<glyph glyph-name="w" unicode="w" horiz-adv-x="230" d="M230 300 Q233 299 235 297 Q239 293 231 288 Q219 281 207.5 276 Q196 271 184 269 Q158 264 138 273 L132 276 Q121 250 102 233 Q95 226 85 221.5 Q75 217 67 225 Q64 229 63.5 234.5 Q63 240 64 245 Q56 235 47 226 Q38 217 27 211 Q14 203 2.5 205.5 Q-9 208 -14 220 Q-19 233 -15.5 248 Q-12 263 -8 277 Q-4 292 2.5 306 Q9 320 17 334 Q21 340 25.5 336.5 Q30 333 27 328 Q9 301 2 273 Q0 266 -1.5 260 Q-3 254 -4 248 Q-5 242 -5 236 Q-5 230 -3 225 Q3 213 14.5 217.5 Q26 222 34 230 Q48 242 58.5 257 Q69 272 77 288 Q82 299 88 310 Q91 315 95.5 312.5 Q100 310 98 305 Q95 300 92.5 294.5 Q90 289 87 284 Q85 279 84 274.5 Q83 270 81 265 Q79 260 78 255 Q77 250 76 245 Q75 242 75 238 Q75 234 79 233 Q85 231 92 237.5 Q99 244 103 249 Q116 264 122 283 Q120 286 117.5 289.5 Q115 293 113 297 Q110 306 113 316 Q116 326 128 328 Q139 330 142 321 Q145 312 142 303 Q140 298 139.5 295.5 Q139 293 137 288 Q142 284 149 282.5 Q156 281 163 280 Q180 278 198 286 Q216 294 230 300 Z M123 311 Q122 305 128 297 Q131 303 132 306 Q135 314 131 317 Q129 319 126.5 316.5 Q124 314 123 311 Z " />
<glyph glyph-name="x" unicode="x" horiz-adv-x="188" d="M188 300 Q192 300 194 298 Q196 296 195.5 293.5 Q195 291 190 287 Q176 276 157.5 265 Q139 254 122 244 Q107 236 92 228 Q77 220 62 213 Q53 210 42 206.5 Q31 203 23 210 Q14 217 11 229 L8 238 Q-5 227 -17.5 216 Q-30 205 -43 194 Q-47 189 -51.5 193.5 Q-56 198 -51 202 Q-37 215 -23 227 Q-9 239 5 251 Q5 253 4.5 254.5 Q4 256 4 258 Q2 272 0.5 286.5 Q-1 301 0 315 Q0 321 6 321 Q12 321 12 315 Q11 301 12.5 287.5 Q14 274 16 260 Q51 289 92 316 Q97 319 100 314 Q103 309 98 306 Q77 292 57.5 277.5 Q38 263 18 247 Q19 239 23 230 Q25 228 27 223.5 Q29 219 34 218 Q42 217 51.5 221.5 Q61 226 69 230 Q98 244 130 263.5 Q162 283 188 300 Z " />
<glyph glyph-name="y" unicode="y" horiz-adv-x="210" d="M210 300 Q213 299 215 297 Q217 295 216 292.5 Q215 290 209 288 Q203 286 187 279.5 Q171 273 165 271 Q131 258 104 246.5 Q77 235 42 215 L30 188 Q25 177 21 166 Q17 155 12 144 Q5 129 -5 114 Q-15 99 -30 91 Q-47 83 -61 87 Q-75 92 -77.5 104.5 Q-80 117 -76 129 Q-70 147 -56.5 161 Q-43 175 -28 186 Q-14 197 1 206 Q16 215 32 224 Q36 233 39.5 242.5 Q43 252 47 262 Q41 254 33.5 248.5 Q26 243 17 241 Q8 239 1 244 Q-6 249 -8 258 Q-10 268 -7.5 277.5 Q-5 287 -2 296 Q4 314 13 329 Q17 334 22 331 Q27 328 24 323 Q19 316 15.5 308 Q12 300 9 292 Q7 284 4.5 276 Q2 268 4 260 Q5 254 10 253 Q15 252 20 254 Q29 259 36 266.5 Q43 274 48 282 Q54 290 59 298 Q64 306 69 314 Q71 319 76.5 316.5 Q82 314 80 309 Q78 307 76 301 Q69 284 62.5 266.5 Q56 249 48 232 Q87 252 126 269 Q165 286 210 300 Z M7 163 Q12 174 16 184.5 Q20 195 25 206 Q-3 190 -27 171 Q-40 161 -52 147.5 Q-64 134 -66 117 Q-68 109 -63 103.5 Q-58 98 -56 97 Q-48 95 -37.5 100.5 Q-27 106 -22 113 Q-11 124 -4.5 137 Q2 150 7 163 Z " />
<glyph glyph-name="z" unicode="z" horiz-adv-x="178" d="M178 300 Q182 299 184 297 Q186 295 185.5 293 Q185 291 179 287 Q146 266 115 248.5 Q84 231 52 210 Q51 209 50 208.5 Q49 208 48 207 Q49 196 46 182 Q42 159 31 138.5 Q20 118 3 104 Q-7 96 -20.5 89 Q-34 82 -46 89 Q-56 95 -55 106.5 Q-54 118 -50 127 Q-38 156 -14.5 175.5 Q9 195 34 212 Q33 213 33 214 Q33 215 32 216 Q27 223 17.5 223.5 Q8 224 0 222 Q-5 221 -7 226 Q-9 231 -4 233 Q7 238 17 244 Q27 250 36 258 Q43 264 50 271.5 Q57 279 58 289 Q60 298 53 303.5 Q46 309 38 307 Q18 305 6 288 Q3 283 -2.5 286 Q-8 289 -4 294 Q2 303 11 309 Q20 315 30 318 Q40 320 49 318 Q58 316 64 308 Q75 294 67 277 Q63 267 56 260 Q49 253 41 247 Q32 239 23 235 Q35 232 42 222 Q44 220 44 219 Q45 219 47 221 Q79 242 112 261 Q145 280 178 300 Z M35 189 Q36 192 36 199 Q14 184 -6 166.5 Q-26 149 -38 125 Q-40 120 -41.5 116 Q-43 112 -43 107 Q-43 100 -38 99 Q-33 97 -28 99 Q-23 101 -19 103 Q-13 106 -7.5 110.5 Q-2 115 3 120 Q29 149 35 189 Z " />
<glyph glyph-name="braceleft" unicode="&#x7b;" horiz-adv-x="126" d="M164 526 Q170 528 171.5 522 Q173 516 168 514 Q146 508 129.5 489 Q113 470 103 449 Q98 436 94 422.5 Q90 409 85 395 Q84 388 81 381.5 Q78 375 76 368 Q74 365 72.5 362 Q71 359 68 357 L59 354 Q62 340 60 326.5 Q58 313 53 300 Q45 271 31.5 243.5 Q18 216 13 186 Q12 175 13 164 Q14 153 19 143 Q30 126 53 126 Q59 127 59 121 Q59 115 53 114 Q40 114 29 119.5 Q18 125 10 136 Q2 148 0.5 161 Q-1 174 1 187.5 Q3 201 7 214 Q11 227 16 238 Q22 254 29 268.5 Q36 283 40 299 Q45 313 48 328 Q51 343 47 357 Q45 362 51 364 Q56 366 62 368 Q74 391 79.5 417 Q85 443 98 466 Q109 486 125 502.5 Q141 519 164 526 Z " />
<glyph glyph-name="bar" unicode="&#x7c;" horiz-adv-x="108" d="M119 552 Q121 558 127 558 Q133 558 131 552 L99 450 Q71 359 42.5 270 Q14 181 -12 90 Q-14 84 -20 84 Q-26 84 -24 90 L6 192 Q34 283 62 372 Q90 461 119 552 Z " />
<glyph glyph-name="braceright" unicode="&#x7d;" horiz-adv-x="118" d="M68 527 Q88 519 95.5 499 Q103 479 102 461 Q100 436 91 414 Q82 392 78 367 Q81 367 83 365 Q86 364 87.5 361 Q89 358 88 355 Q76 342 69.5 327 Q63 312 58 295 Q49 265 44.5 233.5 Q40 202 25 174 Q10 148 -12 133 Q-21 125 -33.5 120 Q-46 115 -60 115 Q-65 116 -65.5 122 Q-66 128 -61 127 Q-46 127 -33 134 Q-20 141 -10 150 Q9 168 21 197 Q27 211 30.5 226.5 Q34 242 36 258 Q42 285 49 310.5 Q56 336 73 357 Q72 358 71 358 Q65 360 66 365 Q68 389 76 410.5 Q84 432 88 455 Q90 462 89.5 471 Q89 480 86.5 489 Q84 498 79.5 505 Q75 512 64 515 Q59 517 60 523 Q61 529 68 527 Z " />
<glyph glyph-name="asciitilde" unicode="&#x7e;" horiz-adv-x="221" d="M198 312 Q200 317 205 314 Q210 311 208 306 Q203 296 194.5 289.5 Q186 283 176 280 Q164 276 151.5 276.5 Q139 277 127 280 Q116 283 103 287 Q90 291 76.5 292.5 Q63 294 51 292 Q39 290 29 280 Q24 276 20 280 Q16 284 20 288 Q40 307 65.5 304.5 Q91 302 114 296 Q126 292 138.5 289.5 Q151 287 165 289 Q176 291 184.5 296.5 Q193 302 198 312 Z " />
<glyph glyph-name="quoteleft" unicode="&#x2018;" horiz-adv-x="37" d="M18 539 Q23 541 26.5 538.5 Q30 536 30 531 Q30 515 21 503 Q18 498 12.5 501 Q7 504 11 509 Q13 511 13.5 512.5 Q14 514 15 516 Q11 518 10 519 Q6 522 8 527 Q10 535 18 539 Z " />
<glyph glyph-name="quoteright" unicode="&#x2019;" horiz-adv-x="37" d="M18 539 Q23 541 26.5 538.5 Q30 536 30 531 Q30 515 21 503 Q18 498 12.5 501 Q7 504 11 509 Q13 511 13.5 512.5 Q14 514 15 516 Q11 518 10 519 Q6 522 8 527 Q10 535 18 539 Z " />
<glyph glyph-name="quotedblleft" unicode="&#x201c;" horiz-adv-x="84" d="M26 539 Q31 541 34.5 538.5 Q38 536 38 531 Q38 515 29 503 Q26 498 20.5 501 Q15 504 19 509 Q21 511 21.5 512.5 Q22 514 23 516 Q19 518 18 519 Q14 522 16 527 Q18 535 26 539 Z M54 539 Q59 541 62.5 538.5 Q66 536 66 531 Q66 515 57 503 Q54 498 48.5 501 Q43 504 47 509 Q49 511 49.5 512.5 Q50 514 51 516 Q47 518 46 519 Q42 522 44 527 Q46 535 54 539 Z " />
<glyph glyph-name="quotedblright" unicode="&#x201d;" horiz-adv-x="84" d="M26 536 Q31 538 34.5 535.5 Q38 533 38 528 Q38 512 29 500 Q26 495 20.5 498 Q15 501 19 506 Q21 508 21.5 509.5 Q22 511 23 513 Q19 515 18 516 Q14 519 16 524 Q18 532 26 536 Z M54 536 Q59 538 62.5 535.5 Q66 533 66 528 Q66 512 57 500 Q54 495 48.5 498 Q43 501 47 506 Q49 508 49.5 509.5 Q50 511 51 513 Q47 515 46 516 Q42 519 44 524 Q46 532 54 536 Z " />
<glyph glyph-name="space" unicode="&#x20;" horiz-adv-x="75" d="" />
<glyph glyph-name="NULL" d="" />
<glyph glyph-name="nonmarkingreturn" unicode="&#xd;" horiz-adv-x="75" d="" />
</font>
</svg>
