<?xml version="1.0" encoding="UTF-8"?>
<svg xmlns="http://www.w3.org/2000/svg" xmlns:xlink="http://www.w3.org/1999/xlink" version="1.2" >
<font id="Noirden Bold">
<font-face  font-family="Noirden" units-per-em="1000" ascent="750" descent="-250" font-style="normal" font-weight="400" font-stretch="normal" cap-height="900" x-height="700" underline-position="-75" underline-thickness="50" />
<missing-glyph  horiz-adv-x="197" d="" />
<glyph glyph-name="NULL" d="" />
<glyph glyph-name="nonmarkingreturn" unicode="&#xd;" horiz-adv-x="197" d="" />
<glyph glyph-name="space" unicode="&#x20;" horiz-adv-x="197" d="" />
<glyph glyph-name="F" unicode="F" horiz-adv-x="564" d="M163 218 L163 -100 L50 -100 L50 629 L524 629 L524 526 L163 526 L163 321 L514 321 L514 218 L163 218 L163 218 Z " />
<glyph glyph-name="E" unicode="E" horiz-adv-x="565" d="M525 3 L525 -100 L50 -100 L50 629 L525 629 L525 526 L164 526 L164 325 L515 325 L515 222 L164 222 L164 3 L525 3 L525 3 Z " />
<glyph glyph-name="G" unicode="G" horiz-adv-x="770" d="M197 -60 Q117 -11 79 73 Q59 116 49 162.5 Q39 209 39 265 Q39 378 79 462 Q120 548 198 594 Q277 642 383 642 Q508 642 591 578 Q674 514 706 402 L599 373 Q598 374 597 378 Q594 383 590 395 Q563 461 512 500 Q461 539 383 539 Q309 539 255 503 Q202 465 177 406 Q152 342 152 265 Q152 229 158 193.5 Q164 158 180 122 Q208 61 260.5 28 Q313 -5 383 -5 Q477 -5 531.5 41.5 Q586 88 602 185 L477 185 L383 185 L383 284 L477 284 L723 284 Q723 187 701.5 116 Q680 45 635 -6 Q544 -109 383 -109 Q278 -109 197 -60 Z " />
<glyph glyph-name="H" unicode="H" horiz-adv-x="622" d="M150 222 L150 -100 L36 -100 L36 629 L150 629 L150 325 L484 325 L484 629 L598 629 L598 -100 L484 -100 L484 222 L150 222 L150 222 Z " />
<glyph glyph-name="I" unicode="I" horiz-adv-x="213" d="M163 629 L163 -100 L50 -100 L50 629 L163 629 L163 629 Z " />
<glyph glyph-name="J" unicode="J" horiz-adv-x="527" d="M478 130 Q478 15 418 -46 Q358 -109 247 -109 Q158 -109 98 -58 Q40 -9 17 87 L122 115 Q123 113 124 109 Q125 106 126 102.5 Q127 99 129 94 Q141 47 172 21 Q203 -5 245 -5 Q301 -5 333 31 Q364 65 364 132 L364 629 L478 629 L478 130 L478 130 Z " />
<glyph glyph-name="K" unicode="K" horiz-adv-x="676" d="M164 162 L164 -100 L50 -100 L50 629 L164 629 L164 313 L470 629 L613 629 L325 329 L635 -100 L505 -100 L251 253 L164 162 L164 162 Z " />
<glyph glyph-name="L" unicode="L" horiz-adv-x="533" d="M516 3 L516 -100 L50 -100 L50 629 L163 629 L163 3 L516 3 L516 3 Z " />
<glyph glyph-name="M" unicode="M" horiz-adv-x="854" d="M164 -100 L50 -100 L50 629 L204 629 L427 39 L657 629 L804 629 L804 -100 L690 -100 L690 373 L690 423 L484 -100 L368 -100 L164 423 L164 372 L164 -100 Z " />
<glyph glyph-name="N" unicode="N" horiz-adv-x="700" d="M164 -100 L50 -100 L50 629 L174 629 L537 75 L537 134 L537 629 L650 629 L650 -100 L527 -100 L164 454 L164 395 L164 -100 Z " />
<glyph glyph-name="O" unicode="O" horiz-adv-x="774" d="M240 -81 Q175 -55 131 -4 Q87 48 65 116 Q41 185 41 268 Q41 378 82 465 Q122 550 200 598 Q280 645 385 645 Q546 645 637 542 Q728 439 728 268 Q728 95 636 -6 Q545 -109 385 -109 Q303 -109 240 -81 Z M180 409 Q155 349 155 268 Q155 239 159 212 Q163 185 170 156 Q186 96 237 45 Q264 18 303.5 6 Q343 -6 385 -6 Q497 -6 556 69 Q615 145 615 268 Q615 393 556 467 Q497 542 385 542 Q310 542 258 506 Q206 470 180 409 Z " />
<glyph glyph-name="P" unicode="P" horiz-adv-x="613" d="M164 -100 L50 -100 L50 629 L343 629 Q456 629 518 573 Q581 516 581 415 Q581 312 518 257 Q456 200 343 200 L164 200 L164 -100 Z M164 303 L337 303 Q398 303 433 333 Q467 362 467 415 Q467 469 433 497 Q398 526 337 526 L164 526 L164 303 Z " />
<glyph glyph-name="Q" unicode="Q" horiz-adv-x="774" d="M581 -198 L511 -91 Q455 -109 389 -109 Q307 -109 244 -81 Q180 -55 135.5 -4 Q91 47 69 116 Q57 151 51.5 188.5 Q46 226 46 268 Q46 381 86 465 Q127 551 205 598 Q284 645 389 645 Q550 645 641 542 Q732 439 732 268 Q732 164 698 86 Q663 5 600 -44 L705 -198 L581 -198 Z M389 -6 Q406 -6 421 -4 Q436 -2 449 1 Q435 22 427 34 Q419 46 415 52.5 Q411 59 409 62 Q407 65 405 69 L523 69 L539 46 Q619 120 619 268 Q619 393 560 467 Q501 542 389 542 Q314 542 262 506 Q210 470 184 409 Q159 349 159 268 Q159 226 167 180 Q175 134 200 96 Q218 67 243.5 43.5 Q269 20 304 8 Q343 -6 389 -6 Z " />
<glyph glyph-name="S" unicode="S" horiz-adv-x="615" d="M432 27 Q478 62 478 110 Q480 151 444 182 Q408 215 339 230 L242 252 Q197 261 163 277 Q146 285 129.5 294 Q113 303 99 315 Q70 338 55 371 Q39 403 39 445 Q39 542 110 593 Q181 643 301 643 Q453 643 557 546 L486 465 Q482 467 478 470 Q470 476 468 478 Q368 543 296 543 Q153 543 152 447 Q151 417 178 391 Q192 379 211 370.5 Q230 362 254 356 L361 331 Q476 304 535 250 Q593 196 593 112 Q593 4 515 -53 Q477 -82 424 -95.5 Q371 -109 305 -109 Q212 -109 143 -85 Q75 -59 22 -9 L92 71 Q93 69 96 67 Q98 65 101 62.5 Q104 60 109 57 Q194 -8 309 -8 Q385 -8 432 27 Z " />
<glyph glyph-name="R" unicode="R" horiz-adv-x="675" d="M164 -100 L50 -100 L50 629 L384 629 Q496 629 559 575 Q621 522 621 424 Q621 334 569 282 Q516 228 420 220 L649 -100 L513 -100 L291 218 L164 218 L164 -100 Z M164 322 L378 322 Q438 322 473 349 Q507 376 507 424 Q507 472 473 499 Q438 526 378 526 L164 526 L164 322 Z " />
<glyph glyph-name="T" unicode="T" horiz-adv-x="594" d="M235 -100 L235 526 L24 526 L24 629 L559 629 L559 526 L348 526 L348 -100 L235 -100 L235 -100 Z " />
<glyph glyph-name="U" unicode="U" horiz-adv-x="665" d="M132 -45 Q92 -11 71 50 Q50 110 50 195 L50 629 L163 629 L164 195 Q164 98 204 46 Q243 -6 333 -6 Q423 -6 462 46 Q501 97 501 195 L501 629 L615 629 L615 195 Q615 128 601 74 Q586 21 562 -13 Q550 -30 534.5 -44 Q519 -58 501 -69 Q467 -91 424 -100 Q383 -109 333 -109 Q269 -109 220 -94 Q170 -79 132 -45 Z " />
<glyph glyph-name="V" unicode="V" horiz-adv-x="665" d="M330 52 L534 629 L652 629 L392 -100 L272 -100 L14 629 L135 629 L330 52 L330 52 Z " />
<glyph glyph-name="W" unicode="W" horiz-adv-x="997" d="M222 -100 L6 629 L127 629 L284 83 L445 629 L563 629 L720 83 L880 629 L992 629 L774 -100 L658 -100 Q629 -2 607.5 74 Q586 150 569.5 207 Q553 264 541.5 303.5 Q530 343 523 370 Q505 432 502 447 L341 -100 L222 -100 Z " />
<glyph glyph-name="X" unicode="X" horiz-adv-x="739" d="M149 -100 L14 -100 L300 286 L47 629 L189 629 L374 380 L558 629 L694 629 L441 288 L730 -100 L587 -100 L369 195 L149 -100 L149 -100 Z " />
<glyph glyph-name="Y" unicode="Y" horiz-adv-x="644" d="M265 -100 L265 248 L10 629 L145 629 L322 354 L502 629 L633 629 L379 248 L379 -100 L265 -100 L265 -100 Z " />
<glyph glyph-name="Z" unicode="Z" horiz-adv-x="597" d="M571 629 L571 526 L168 3 L571 3 L571 -100 L27 -100 L27 3 L428 526 L27 526 L27 629 L571 629 L571 629 Z " />
<glyph glyph-name="a" unicode="a" horiz-adv-x="593" d="M555 448 L555 -49 L555 -98 L477 -98 L456 -98 L456 -78 L456 -49 L456 -22 Q385 -109 284 -109 Q167 -109 98 -32 Q30 45 30 172 Q30 307 96 382 Q162 458 283 458 Q382 458 448 391 L448 448 L555 448 Z M448 180 Q448 266 405 315 Q361 363 289 363 Q216 363 177 313 Q138 262 138 174 Q138 88 179 38 Q219 -13 293 -13 Q366 -13 407 35 Q448 84 448 172 L448 180 Z " />
<glyph glyph-name="b" unicode="b" horiz-adv-x="606" d="M509 382 Q575 307 575 172 Q575 44 506 -32 Q438 -109 321 -109 Q220 -109 148 -23 L148 -100 L50 -100 L50 629 L157 629 L157 385 Q224 458 322 458 Q442 458 509 382 Z M426 38 Q467 88 467 174 Q467 262 428 312 Q389 363 316 363 Q241 363 199 315 Q157 265 157 175 L157 172 Q157 82 197 35 Q237 -13 312 -13 Q385 -13 426 38 Z " />
<glyph glyph-name="c" unicode="c" horiz-adv-x="578" d="M58 27 Q43 59 35.5 93 Q28 127 28 168 Q28 303 98 380 Q167 458 291 458 Q385 458 450 410 Q514 362 538 272 L433 245 Q432 247 431 251 Q430 256 425 267 Q389 361 291 361 Q215 361 175 309 Q136 256 136 168 Q136 126 146 95.5 Q156 65 177 39 Q217 -12 291 -12 Q393 -12 429 89 Q430 91 430.5 95 Q431 99 433 103 Q434 107 436 112 L542 89 Q519 -9 454 -59 Q388 -109 291 -109 Q208 -109 148 -73 Q88 -35 58 27 Z " />
<glyph glyph-name="d" unicode="d" horiz-adv-x="593" d="M558 629 L558 -100 L459 -100 L459 -22 Q388 -109 286 -109 Q170 -109 101 -32 Q33 45 33 172 Q33 307 99 382 Q165 458 285 458 Q384 458 451 391 L451 629 L558 629 Z M451 180 Q451 266 408 315 Q364 363 291 363 Q219 363 180 312 Q140 263 140 174 Q140 130 150.5 97 Q161 64 181 38 Q223 -13 296 -13 Q369 -13 410 35 Q451 84 451 172 L451 180 Z " />
<glyph glyph-name="e" unicode="e" horiz-adv-x="586" d="M561 139 L129 139 Q138 71 181 29 Q224 -12 291 -12 Q339 -12 376 11 Q413 34 431 74 Q433 78 434.5 81 Q436 84 437 86 Q438 89 439 90 L543 59 Q515 -20 449 -65 Q386 -109 291 -109 Q164 -109 93 -32 Q19 48 19 174 Q19 304 93 383 Q166 462 291 462 Q415 462 488 382 Q560 303 561 176 L561 139 Z M449 234 Q436 293 393 330 Q354 365 291 365 Q226 365 187 330 Q147 296 133 234 L449 234 Z " />
<glyph glyph-name="f" unicode="f" horiz-adv-x="381" d="M374 629 L374 530 L254 530 Q230 530 215 515 Q201 499 201 476 L201 439 L329 439 L329 342 L201 342 L201 -100 L94 -100 L94 342 L11 342 L11 439 L94 439 L94 476 Q94 546 136 588 Q179 629 250 629 L374 629 Z " />
<glyph glyph-name="g" unicode="g" horiz-adv-x="591" d="M553 448 L553 -99 L553 -112 Q553 -195 505 -241 Q457 -289 376 -289 L142 -289 L142 -190 L372 -190 Q406 -190 425 -168 Q445 -148 445 -112 L445 -32 Q377 -109 281 -109 Q165 -109 96 -32 Q28 42 28 173 Q28 306 94 383 Q160 459 280 459 Q379 459 445 391 L445 448 L553 448 Z M445 181 Q445 269 402 316 Q360 364 286 364 Q213 364 174 313 Q135 262 135 175 Q135 89 176 37 Q217 -13 290 -13 Q364 -13 405 35 Q445 82 445 173 L445 181 Z " />
<glyph glyph-name="h" unicode="h" horiz-adv-x="568" d="M157 -100 L50 -100 L50 629 L157 629 L157 383 Q217 458 313 458 Q526 458 526 222 L526 -100 L419 -100 L419 217 Q419 290 394 326 Q371 361 305 361 Q234 361 196 324 Q157 286 157 217 L157 -100 Z " />
<glyph glyph-name="backslash" unicode="&#x5c;" horiz-adv-x="585" d="M18 723 L125 723 L549 -231 L444 -231 L18 723 L18 723 Z " />
<glyph glyph-name="bracketright" unicode="&#x5d;" horiz-adv-x="279" d="M229 722 L229 -232 L26 -232 L26 -130 L120 -130 L120 621 L26 621 L26 722 L229 722 Z " />
<glyph glyph-name="asciicircum" unicode="&#x5e;" horiz-adv-x="413" d="M257 698 L401 449 L319 449 L303 449 L272 503 L272 503 L209 614 L143 501 L113 449 L97 449 L15 449 L160 698 L257 698 L257 698 Z " />
<glyph glyph-name="underscore" unicode="&#x5f;" horiz-adv-x="540" d="M44 -100 L44 -11 L490 -11 L490 -100 L44 -100 L44 -100 Z " />
<glyph glyph-name="i" unicode="i" horiz-adv-x="186" d="M39 -100 L39 448 L146 448 L146 -100 L39 -100 Z M39 618 L146 618 L146 526 L39 526 L39 618 Z " />
<glyph glyph-name="j" unicode="j" horiz-adv-x="188" d="M146 448 L146 -107 Q146 -189 98 -235 Q51 -283 -31 -283 L-54 -283 L-108 -283 L-108 -210 L-108 -184 L-82 -184 L-54 -184 L-35 -184 Q-2 -184 19 -163 Q39 -141 39 -107 L39 448 L146 448 Z M146 621 L146 529 L39 529 L39 621 L146 621 Z " />
<glyph glyph-name="k" unicode="k" horiz-adv-x="529" d="M158 629 L158 231 L368 448 L511 448 L302 232 L540 -100 L409 -100 L229 157 L158 86 L158 -100 L50 -100 L50 629 L158 629 L158 629 Z " />
<glyph glyph-name="l" unicode="l" horiz-adv-x="287" d="M277 -1 L277 -100 L198 -100 Q130 -100 90 -62 Q50 -23 50 43 L50 629 L157 629 L157 43 Q157 23 169 11 Q181 -1 202 -1 L277 -1 Z " />
<glyph glyph-name="n" unicode="n" horiz-adv-x="547" d="M461 399 Q513 339 513 224 L513 -100 L405 -100 L405 219 Q405 293 381 328 Q358 363 292 363 Q222 363 188 326 Q152 288 152 219 L152 -100 L45 -100 L45 410 L45 448 L124 448 L144 448 L144 428 L144 410 L144 377 Q201 458 300 458 Q408 458 461 399 Z " />
<glyph glyph-name="m" unicode="m" horiz-adv-x="852" d="M769 398 Q822 338 822 227 L822 -100 L715 -100 L715 222 Q715 295 688 328 Q663 362 608 362 Q542 362 515 328 Q489 294 489 222 L489 -100 L382 -100 L382 222 Q382 290 354 327 Q326 362 275 362 Q210 362 183 327 Q157 292 157 218 L157 -100 L50 -100 L50 448 L128 448 L148 448 L148 384 Q198 458 285 458 Q408 458 457 367 Q484 411 525 435 Q567 459 618 459 Q715 459 769 398 Z " />
<glyph glyph-name="o" unicode="o" horiz-adv-x="571" d="M287 -109 Q165 -109 95 -32 Q60 6 42.5 56.5 Q25 107 25 173 Q25 305 95 382 Q165 458 287 458 Q409 458 479 381 Q550 304 550 173 Q550 107 532 56.5 Q514 6 479 -32 Q409 -109 287 -109 Z M173 311 Q132 259 132 173 Q132 128 142.5 96 Q153 64 173 39 Q213 -12 287 -12 Q360 -12 401 39 Q422 65 432 97 Q442 129 442 173 Q442 262 401 310 Q361 362 287 362 Q213 362 173 311 Z " />
<glyph glyph-name="p" unicode="p" horiz-adv-x="595" d="M502 383 Q569 307 569 177 Q569 44 501 -33 Q434 -109 312 -109 Q215 -109 151 -47 L151 -281 L44 -281 L44 399 L44 448 L122 448 L143 448 L143 428 L143 399 L143 372 Q213 459 320 459 Q435 459 502 383 Z M420 37 Q461 87 461 175 Q461 262 422 313 Q383 364 310 364 Q237 364 195 317 Q153 272 151 183 L151 171 Q151 79 191 33 Q232 -14 306 -14 Q379 -14 420 37 Z " />
<glyph glyph-name="q" unicode="q" horiz-adv-x="595" d="M556 448 L556 403 L556 -281 L449 -281 L449 -44 Q387 -109 288 -109 Q166 -109 99 -33 Q31 44 31 177 Q31 307 98 383 Q165 459 281 459 Q386 459 457 374 L457 403 L457 428 L457 448 L478 448 L556 448 Z M449 178 Q449 266 406 315 Q363 364 290 364 Q217 364 178 313 Q139 262 139 175 Q139 87 180 37 Q220 -14 294 -14 Q368 -14 408 35 Q449 84 449 174 L449 178 Z " />
<glyph glyph-name="r" unicode="r" horiz-adv-x="371" d="M343 448 L343 380 L343 353 L318 353 L308 353 L306 353 Q234 353 195 307 Q157 261 157 183 L157 -100 L50 -100 L50 411 L50 448 L128 448 L149 448 L149 428 L149 411 L149 365 Q213 448 334 448 L343 448 Z " />
<glyph glyph-name="s" unicode="s" horiz-adv-x="467" d="M410 167 Q456 119 456 60 Q456 -18 399 -64 Q342 -109 241 -109 Q208 -109 177.5 -103.5 Q147 -98 119 -86 Q91 -75 68 -59.5 Q45 -44 25 -25 L91 49 Q92 47 95 45 Q97 43 100 41 Q103 39 108 36 Q121 25 136.5 17 Q152 9 169 1 Q205 -13 239 -13 Q293 -13 321 7 Q349 26 349 60 Q349 89 327 108 Q306 129 266 135 Q259 137 248.5 139 Q238 141 223 144 Q208 147 196 149.5 Q184 152 175 154 Q110 168 73 206 Q35 247 35 300 Q35 372 90 418 Q143 461 237 461 Q301 461 354 437 Q406 411 432 381 L365 309 Q363 310 361 312 Q359 314 356.5 316.5 Q354 319 349 323 Q297 366 227 366 Q186 366 163 350 Q139 333 139 306 Q139 286 154 270 Q168 255 193 250 L282 230 Q364 212 410 167 Z " />
<glyph glyph-name="t" unicode="t" horiz-adv-x="393" d="M195 349 L195 76 Q195 40 215 20 Q234 -1 267 -1 L370 -1 L370 -100 L263 -100 Q181 -100 135 -52 Q87 -6 87 76 L87 349 L1 349 L1 446 L87 446 L87 629 L195 629 L195 446 L370 446 L370 349 L195 349 Z " />
<glyph glyph-name="u" unicode="u" horiz-adv-x="553" d="M515 448 L515 -99 L436 -99 L415 -99 L415 -28 Q358 -109 260 -109 Q151 -109 99 -51 Q47 9 47 123 L47 448 L155 448 L155 130 Q155 55 179 21 Q203 -14 268 -14 Q335 -14 372 23 Q407 61 407 130 L407 448 L515 448 Z " />
<glyph glyph-name="v" unicode="v" horiz-adv-x="540" d="M530 448 L323 -100 L210 -100 L6 448 L123 448 L267 46 L413 448 L530 448 L530 448 Z " />
<glyph glyph-name="w" unicode="w" horiz-adv-x="818" d="M583 66 L698 448 L807 448 L637 -100 L524 -100 L410 286 L290 -100 L180 -100 L10 448 L121 448 L237 66 L357 448 L464 448 L583 66 L583 66 Z " />
<glyph glyph-name="x" unicode="x" horiz-adv-x="556" d="M128 -100 L3 -100 L214 191 L25 448 L156 448 L281 278 L404 448 L529 448 L344 192 L556 -100 L425 -100 L276 105 L128 -100 L128 -100 Z " />
<glyph glyph-name="y" unicode="y" horiz-adv-x="521" d="M535 448 L300 -166 Q289 -194 274.5 -215.5 Q260 -237 240 -252 Q201 -282 152 -282 L142 -282 L95 -282 L95 -202 L95 -181 L115 -181 L142 -181 L147 -181 Q182 -181 199 -139 L215 -93 L9 448 L122 448 L267 44 L416 448 L535 448 Z " />
<glyph glyph-name="z" unicode="z" horiz-adv-x="500" d="M476 448 L476 351 L166 -3 L476 -3 L476 -100 L26 -100 L26 -3 L337 351 L26 351 L26 448 L476 448 L476 448 Z " />
<glyph glyph-name="bar" unicode="&#x7c;" horiz-adv-x="148" d="M111 721 L123 721 L123 710 L123 -151 L123 -233 L24 -233 L24 -221 L24 642 L24 721 L103 721 L111 721 L111 721 Z " />
<glyph glyph-name="braceleft" unicode="&#x7b;" horiz-adv-x="311" d="M282 721 L282 645 L282 619 L257 619 L253 619 L237 619 Q213 619 200 606 Q187 593 187 568 L187 346 Q187 325 180 308 Q176 297 169 285.5 Q162 274 148 260 Q143 256 139 253 Q135 250 127 245 Q139 237 148 230 Q159 219 167 208 Q175 197 180 182 Q183 172 185 163 Q187 154 187 144 L187 -81 Q187 -105 200 -118 Q213 -131 237 -131 L253 -131 L257 -131 L282 -131 L282 -157 L282 -233 L253 -233 L214 -233 Q154 -233 116 -195 Q78 -157 78 -97 L78 140 Q78 160 71 177 Q66 192 57 203.5 Q48 215 37 228 Q32 232 27 236 Q22 240 14 245 Q25 251 37 262 Q48 273 57 284.5 Q66 296 71 313 Q78 328 78 350 L78 585 Q78 643 116 683 Q154 721 214 721 L253 721 L282 721 Z " />
<glyph glyph-name="braceright" unicode="&#x7d;" horiz-adv-x="305" d="M64 720 L103 720 Q163 720 201 682 Q239 642 239 584 L239 349 Q239 327 246 312 Q252 294 261 282 Q265 277 270 271.5 Q275 266 280 261 Q291 251 296 248 Q298 247 299.5 246 Q301 245 303 244 L296 240 Q293 238 289 234.5 Q285 231 280 227 Q275 222 270.5 216.5 Q266 211 261 205 Q252 195 246 176 Q239 159 239 139 L239 -98 Q239 -158 201 -196 Q163 -234 103 -234 L64 -234 L35 -234 L35 -158 L35 -132 L60 -132 L64 -132 L80 -132 Q104 -132 117 -119 Q130 -106 130 -82 L130 143 Q130 163 137 181 Q142 197 151 209 Q156 214 160 219 Q164 224 169 229 Q174 234 177.5 236.5 Q181 239 183 241 Q185 242 186.5 243 Q188 244 190 244 L184 248 Q179 250 169 259 Q164 264 160 268.5 Q156 273 151 278 Q147 284 143.5 291 Q140 298 137 307 Q130 324 130 345 L130 567 Q130 592 117 605 Q104 618 80 618 L64 618 L60 618 L35 618 L35 644 L35 720 L64 720 Z " />
<glyph glyph-name="asciitilde" unicode="&#x7e;" horiz-adv-x="572" d="M547 363 Q539 322 525 291 Q511 260 491 239 Q450 197 386 197 Q359 197 335 209 Q309 221 293 239 Q284 248 276 257 Q268 266 260 274 Q252 283 244 290.5 Q236 298 228 304 Q210 317 198 317 Q176 317 161 304 Q147 292 135 250 Q134 247 133.5 242.5 Q133 238 132 234 Q131 230 129 225 L38 239 Q51 318 92 363 Q133 407 198 407 Q227 407 251 395 Q276 381 294 364 Q311 347 326 329 Q334 321 341.5 313.5 Q349 306 357 300 Q371 287 386 287 Q411 287 427 300 Q442 314 451 352 L458 380 L547 363 Z " />
<glyph glyph-name="Euro" unicode="&#x20ac;" horiz-adv-x="625" d="M587 631 L587 549 L587 520 L559 520 L528 520 L417 520 Q266 520 218 395 L531 395 L531 308 L486 308 L200 308 Q199 294 198.5 284 Q198 274 198 266 Q198 255 198 247.5 Q198 240 199 235 L490 235 L490 147 L445 147 L213 147 Q256 3 417 3 L547 3 L559 3 L587 3 L587 -26 L587 -109 L547 -109 L417 -109 Q291 -109 206 -41 Q122 28 96 147 L14 147 L14 235 L59 235 L83 235 L83 266 L83 308 L14 308 L14 395 L59 395 L98 395 Q126 507 209 569 Q290 631 417 631 L528 631 L587 631 Z " />
<glyph glyph-name="circumflex" unicode="&#x2c6;" horiz-adv-x="350" d="M240 520 L213 548 L212 549 L175 587 L135 548 L108 520 L60 520 L20 520 L3 520 L31 548 L101 617 Q133 646 175 646 Q220 646 249 617 L316 548 L345 520 L240 520 Z " />
<glyph glyph-name="D" unicode="D" horiz-adv-x="689" d="M574 -3 Q486 -100 326 -100 L50 -100 L50 629 L326 629 Q486 629 575 531 Q664 431 664 264 Q664 96 574 -3 Z M164 3 L326 3 Q437 3 494 73 Q550 141 550 264 Q550 387 493 456 Q435 526 326 526 L164 526 L164 3 Z " />
<glyph glyph-name="exclam" unicode="&#x21;" horiz-adv-x="169" d="M148 333 Q148 313 147 292.5 Q146 272 145 250 Q144 234 143 217.5 Q142 201 141 181.5 Q140 162 138 137.5 Q136 113 133 80 L42 80 Q37 122 36 164 Q35 206 33 250 Q33 272 32.5 292.5 Q32 313 32 332 L32 629 L148 629 L148 333 Z M143 -4 L143 -96 L35 -96 L35 -4 L143 -4 Z " />
<glyph glyph-name="quotedbl" unicode="&#x22;" horiz-adv-x="295" d="M222 647 Q250 647 268 628 Q286 611 286 582 Q286 567 264 502 Q254 471 236 459 Q219 448 185 448 Q179 448 176 451 Q172 456 175 460 L188 503 Q194 523 181 532 Q158 549 158 582 Q158 610 176 628 Q195 647 222 647 Z M74 647 Q102 647 120 628 Q138 611 138 582 Q138 568 117 502 Q105 470 88 459 Q71 448 36 448 Q30 448 27 451 Q25 457 26 460 L40 503 Q46 523 33 532 Q10 549 10 582 Q10 610 28 628 Q47 647 74 647 Z " />
<glyph glyph-name="numbersign" unicode="&#x23;" horiz-adv-x="624" d="M552 630 L510 435 L594 435 L572 337 L489 337 L459 191 L541 191 L520 94 L438 94 L396 -100 L298 -100 L340 94 L194 94 L152 -100 L55 -100 L96 94 L13 94 L34 191 L118 191 L148 337 L65 337 L87 435 L169 435 L211 630 L309 630 L267 435 L413 435 L455 630 L552 630 Z M361 191 L392 337 L246 337 L215 191 L361 191 Z " />
<glyph glyph-name="percent" unicode="&#x25;" horiz-adv-x="646" d="M474 175 Q532 175 575 134 Q616 91 616 33 Q616 -25 575 -68 Q532 -109 474 -109 Q414 -109 373 -68 Q331 -26 331 33 Q331 92 373 134 Q414 175 474 175 Z M525 -18 Q547 4 547 33 Q547 61 525 85 Q502 106 474 106 Q444 106 423 85 Q402 62 402 33 Q402 3 423 -18 Q444 -40 474 -40 Q503 -40 525 -18 Z M170 362 Q111 362 70 403 Q28 445 28 504 Q28 563 70 605 Q111 646 170 646 Q230 646 271 605 Q312 564 312 504 Q312 444 271 403 Q230 362 170 362 Z M120 555 Q99 534 99 504 Q99 474 120 453 Q141 431 170 431 Q200 431 222 453 Q244 475 244 504 Q244 533 222 555 Q198 577 170 577 Q142 577 120 555 Z M617 634 L129 -96 L81 -96 L24 -96 L515 634 L561 634 L617 634 Z " />
<glyph glyph-name="quotesingle" unicode="&#x27;" horiz-adv-x="151" d="M77 641 Q104 641 122 623 Q140 605 140 576 Q140 562 119 495 Q109 465 90 453 Q72 441 39 441 Q34 441 30 445 Q27 450 28 454 L42 497 Q48 517 36 526 Q12 542 12 576 Q12 604 31 622 Q50 641 77 641 Z " />
<glyph glyph-name="ampersand" unicode="&#x26;" horiz-adv-x="744" d="M728 5 L728 -73 L728 -98 L682 -98 Q648 -98 613 -82 Q594 -74 579 -63.5 Q564 -53 551 -39 L532 -19 Q426 -111 280 -111 Q161 -111 86 -48 Q12 15 12 117 Q12 239 155 319 L190 339 Q115 417 115 488 Q115 558 160 600 Q205 642 282 642 Q361 642 409 597 Q458 551 458 480 Q458 392 346 321 L527 135 Q562 192 580 255 Q581 257 583 267 Q584 271 585 276 L684 247 Q657 136 603 58 L617 42 Q653 5 700 5 L728 5 Z M237 531 Q220 514 220 484 Q220 463 233 444 Q240 434 249 423 Q258 412 271 399 L279 391 L293 399 Q316 413 336 434 Q353 456 353 476 Q353 509 333 529 Q314 549 282 549 Q255 549 237 531 Z M281 -10 Q385 -10 461 57 L260 267 L198 226 Q160 202 141 177 Q123 151 123 115 Q123 59 167 24 Q211 -10 281 -10 Z " />
<glyph glyph-name="parenleft" unicode="&#x28;" horiz-adv-x="262" d="M231 631 Q209 594 193 552 Q177 510 167 462 Q156 414 151.5 358.5 Q147 303 147 238 Q147 137 171 34 Q195 -69 229 -147 L243 -175 L161 -213 Q111 -114 77 3 Q60 61 51.5 119.5 Q43 178 43 238 Q43 488 168 700 L246 658 L231 631 L231 631 Z " />
<glyph glyph-name="parenright" unicode="&#x29;" horiz-adv-x="256" d="M26 632 Q24 635 21.5 639.5 Q19 644 17 649 L12 659 L89 701 Q214 489 214 239 Q214 118 180 4 Q147 -113 96 -212 L15 -174 L29 -146 Q46 -106 60.5 -61 Q75 -16 87 35 Q111 138 111 239 Q111 366 91 463 Q70 561 26 632 Z " />
<glyph glyph-name="asterisk" unicode="&#x2a;" horiz-adv-x="448" d="M415 478 L270 446 L371 336 L303 287 L229 416 L156 287 L88 336 L189 445 L43 478 L70 557 L204 494 L188 641 L271 641 L255 494 L389 557 L415 478 L415 478 Z " />
<glyph glyph-name="plus" unicode="&#x2b;" horiz-adv-x="564" d="M333 518 L333 311 L531 311 L531 209 L333 209 L333 0 L226 0 L226 209 L28 209 L28 311 L226 311 L226 518 L333 518 L333 518 Z " />
<glyph glyph-name="comma" unicode="&#x2c;" horiz-adv-x="151" d="M78 -52 Q106 -52 124 -70 Q142 -88 142 -117 Q142 -131 121 -197 Q109 -229 92 -240 Q73 -251 40 -251 Q34 -251 31 -248 Q29 -242 30 -239 L44 -196 Q50 -176 37 -167 Q14 -150 14 -117 Q14 -88 32 -70 Q50 -52 78 -52 Z " />
<glyph glyph-name="hyphen" unicode="&#x2d;" horiz-adv-x="481" d="M17 211 L17 301 L463 301 L463 211 L17 211 L17 211 Z " />
<glyph glyph-name="period" unicode="&#x2e;" horiz-adv-x="144" d="M73 19 Q100 19 118 1 Q136 -17 136 -46 Q136 -74 118 -92 Q99 -109 73 -109 Q44 -109 26 -91 Q8 -73 8 -46 Q8 -18 27 1 Q45 19 73 19 Z " />
<glyph glyph-name="slash" unicode="&#x2f;" horiz-adv-x="569" d="M21 -203 L446 751 L552 751 L127 -203 L21 -203 L21 -203 Z " />
<glyph glyph-name="zero" unicode="0" horiz-adv-x="633" d="M321 -109 Q191 -109 119 -9 Q47 90 47 273 Q47 450 119 548 Q191 646 321 646 Q451 646 523 548 Q595 450 595 273 Q595 90 523 -9 Q451 -109 321 -109 Z M203 470 Q161 399 161 273 Q161 141 203 69 Q247 -5 321 -5 Q396 -5 438 69 Q481 140 481 273 Q481 399 438 470 Q396 541 321 541 Q247 541 203 470 Z " />
<glyph glyph-name="one" unicode="1" horiz-adv-x="326" d="M284 -100 L171 -100 L171 437 L17 438 L17 512 L171 511 Q173 532 176 553 Q178 571 181.5 592.5 Q185 614 188 632 L188 635 L284 635 L284 -100 Z " />
<glyph glyph-name="two" unicode="2" horiz-adv-x="558" d="M138 54 Q132 33 132 2 L505 2 L505 -100 L17 -100 L17 -31 Q15 9 24 53 Q33 97 62 135 Q97 177 141.5 206.5 Q186 236 237 264 Q256 273 275.5 283 Q295 293 316 306 Q353 324 378 352 Q403 380 403 426 Q403 478 363 509 Q325 540 261 540 Q156 540 110 447 Q109 444 105 436 L101 428 L10 480 Q28 531 72 570.5 Q116 610 173 629 Q215 643 257 643 Q290 643 318.5 638 Q347 633 373 624 Q403 613 429.5 594 Q456 575 475 549.5 Q494 524 505 493 Q516 462 516 427 Q516 402 511 374 Q506 346 491 322 Q480 301 464.5 283.5 Q449 266 429 250 Q410 236 389 224.5 Q368 213 345 201 Q309 184 272 166.5 Q235 149 200 126 Q180 112 164.5 96 Q149 80 138 54 Z " />
<glyph glyph-name="three" unicode="3" horiz-adv-x="530" d="M503 222 Q530 178 530 119 Q530 49 495 -2 Q458 -56 400 -82 Q341 -109 268 -109 Q169 -109 101 -62 Q33 -14 15 51 L103 102 Q104 99 106 96 Q108 94 108.5 91.5 Q109 89 111 87 Q132 46 176 19 Q218 -8 270 -8 Q334 -8 375 28 Q417 64 417 121 Q417 180 378 215 Q341 249 267 249 L245 249 L187 249 L187 319 L187 339 L207 339 L245 339 L267 339 Q327 339 362 368 Q396 399 396 445 Q396 488 359 516 Q322 544 266 544 Q215 544 175 521 Q155 510 141 492.5 Q127 475 116 455 L109 441 L106 435 L21 487 Q40 554 105 601 Q173 646 264 646 Q329 646 386 623 Q442 599 475 554 Q509 510 509 449 Q509 350 427 295 Q476 267 503 222 Z " />
<glyph glyph-name="four" unicode="4" horiz-adv-x="557" d="M458 146 L545 146 L545 45 L458 45 L458 -100 L344 -100 L344 45 L27 45 L27 146 L344 630 L458 630 L458 146 Z M344 146 L344 415 L344 444 L147 146 L344 146 Z " />
<glyph glyph-name="five" unicode="5" horiz-adv-x="555" d="M280 -13 Q338 -13 380 27 Q420 69 420 125 Q420 183 381 222 Q340 261 282 261 Q245 261 209 247 Q175 231 156 207 L43 207 L74 629 L492 629 L492 528 L180 528 L166 333 Q221 363 290 363 Q395 363 465 295 Q535 228 535 125 Q535 21 463 -46 Q390 -114 284 -114 Q188 -114 119 -66 Q51 -19 30 61 L135 100 Q136 95 138 91 Q140 87 141 82.5 Q142 78 143 76 Q157 35 192 12 Q229 -13 280 -13 Z " />
<glyph glyph-name="six" unicode="6" horiz-adv-x="596" d="M310 -109 Q181 -109 117 -24 Q50 68 50 277 Q50 445 125 546 Q201 646 329 646 Q415 646 472 604 Q530 561 558 486 L464 437 Q463 440 461 444 Q459 447 457.5 450 Q456 453 455 455 Q437 495 404 518 Q370 541 325 541 Q253 541 208 474 Q164 407 164 295 Q186 327 234 345 Q280 363 336 363 Q441 363 507 294 Q573 225 573 123 Q573 76 555 33 Q545 13 533 -5.5 Q521 -24 504 -40 Q487 -57 466.5 -69 Q446 -81 421 -91 Q370 -109 310 -109 Z M215 231 Q173 201 173 135 Q173 83 202 46 Q239 -5 315 -5 Q383 -5 421 31 Q460 65 460 123 Q460 183 423 221 Q387 261 328 261 Q255 261 215 231 Z " />
<glyph glyph-name="seven" unicode="7" horiz-adv-x="519" d="M504 630 L504 537 Q504 487 489 438 Q481 413 471 389.5 Q461 366 449 344 Q436 322 422.5 300.5 Q409 279 394 257 Q379 235 364 213.5 Q349 192 333 170 Q318 148 304 126.5 Q290 105 276 84 Q262 63 251.5 40.5 Q241 18 231 -6 Q214 -52 209 -100 L76 -100 Q80 -52 102 2 Q121 54 151 100 Q165 123 180.5 145.5 Q196 168 213 191 Q230 214 246.5 236 Q263 258 279 280 Q296 302 310.5 323 Q325 344 339 365 Q352 385 363 406 Q374 427 382 448 Q398 490 398 529 L9 529 L9 630 L504 630 Z " />
<glyph glyph-name="nine" unicode="9" horiz-adv-x="582" d="M544 268 Q544 -109 263 -109 Q173 -109 111 -65 Q48 -21 21 54 L114 102 Q115 98 117 94 Q119 86 121 82 Q137 43 180 16 Q221 -10 266 -10 Q344 -10 386 49 Q429 108 430 237 Q409 206 362 189 Q317 173 261 173 Q157 173 92 238 Q27 303 27 403 Q27 472 61 529 Q97 585 155 614 Q215 643 288 643 Q346 643 391 625 Q435 607 464 575 Q493 543 511 495 Q530 445 537 392 Q541 364 542.5 333.5 Q544 303 544 268 Z M384 305 Q425 335 425 399 Q425 464 386 503 Q347 542 282 542 Q222 542 182 505 Q141 469 141 408 Q141 350 177 312 Q213 275 274 275 Q342 275 384 305 Z " />
<glyph glyph-name="eight" unicode="8" horiz-adv-x="519" d="M487 226 Q514 179 514 121 Q514 17 445 -46 Q376 -109 261 -109 Q143 -109 73 -46 Q3 17 3 121 Q3 179 30 226 Q57 270 108 299 Q70 321 48 360 Q28 396 28 445 Q28 535 91 591 Q157 646 261 646 Q364 646 427 591 Q490 535 490 445 Q490 347 411 298 Q460 271 487 226 Z M172 516 Q140 488 140 441 Q140 394 172 368 Q203 340 261 340 Q317 340 346 368 Q377 395 377 441 Q377 488 346 516 Q317 544 261 544 Q203 544 172 516 Z M362 28 Q399 62 399 121 Q399 180 362 214 Q324 249 261 249 Q194 249 156 214 Q117 179 117 121 Q117 62 156 28 Q193 -8 261 -8 Q324 -8 362 28 Z " />
<glyph glyph-name="colon" unicode="&#x3a;" horiz-adv-x="175" d="M87 504 Q115 504 133 485 Q151 467 151 440 Q151 411 133 393 Q115 375 87 375 Q59 375 41 393 Q23 411 23 440 Q23 467 41 485 Q59 504 87 504 Z M87 61 Q115 61 133 43 Q151 25 151 -4 Q151 -32 133 -50 Q114 -67 87 -67 Q59 -67 41 -49 Q23 -31 23 -4 Q23 25 41 43 Q59 61 87 61 Z " />
<glyph glyph-name="semicolon" unicode="&#x3b;" horiz-adv-x="172" d="M81 58 Q109 58 127 40 Q145 22 145 -7 Q145 -21 124 -87 Q114 -117 95 -130 Q76 -141 44 -141 Q38 -141 35 -138 Q31 -133 34 -129 L47 -86 Q53 -66 40 -57 Q17 -40 17 -7 Q17 22 35 40 Q54 58 81 58 Z M81 504 Q109 504 127 486 Q145 468 145 440 Q145 412 127 394 Q109 376 81 376 Q54 376 35 394 Q17 412 17 440 Q17 468 35 486 Q53 504 81 504 Z " />
<glyph glyph-name="less" unicode="&#x3c;" horiz-adv-x="588" d="M37 342 L540 558 L540 448 Q534 446 529 443 Q518 437 512 436 L193 300 L512 164 Q520 160 529 157 Q534 155 540 153 L540 42 L37 260 L37 342 Z " />
<glyph glyph-name="equal" unicode="&#x3d;" horiz-adv-x="635" d="M78 333 L78 434 L581 434 L581 333 L78 333 Z M78 150 L581 150 L581 251 L78 251 L78 150 L78 150 Z " />
<glyph glyph-name="greater" unicode="&#x3e;" horiz-adv-x="590" d="M555 260 L52 42 L52 153 Q57 155 62 157 Q71 160 79 164 L398 300 L79 436 Q73 437 62 443 L52 448 L52 558 L555 342 L555 260 Z " />
<glyph glyph-name="question" unicode="&#x3f;" horiz-adv-x="473" d="M399 588 Q463 536 463 448 Q463 415 454 388 Q445 360 431 340 Q423 330 415.5 321 Q408 312 399 304 Q381 286 362 270 Q353 262 344 254 Q335 246 327 238 Q318 230 310.5 220 Q303 210 296 199 Q283 176 277 149 L267 102 Q266 100 266 96.5 Q266 93 265 90 L263 82 L182 82 L181 145 Q180 166 184.5 185 Q189 204 197 222 Q205 240 216 255.5 Q227 271 239 284 Q252 297 264.5 309.5 Q277 322 290 334 Q315 359 333 386 Q351 414 351 443 Q351 489 318 516 Q286 544 232 544 Q206 544 182 533 Q158 521 144 504 Q136 494 131 486 Q126 478 121 470 Q113 455 108 437 Q106 432 105 428.5 Q104 425 103 422 Q102 418 101 416 L8 450 Q11 469 20 493 Q29 517 47 543 Q65 570 89 591 Q101 602 116.5 610.5 Q132 619 151 627 Q171 635 191 638 Q211 641 233 641 Q337 641 399 588 Z M278 -1 L278 -93 L171 -93 L171 -1 L278 -1 Z " />
<glyph glyph-name="caron" unicode="&#x2c7;" horiz-adv-x="349" d="M341 629 L313 601 L312 601 L245 532 Q217 503 171 503 Q127 503 97 532 L28 601 L-1 629 L16 629 L56 629 L104 629 L131 600 L171 562 L208 599 Q209 600 209 600 L237 629 L341 629 Z " />
<glyph glyph-name="at" unicode="&#x40;" horiz-adv-x="970" d="M917 353 Q954 270 954 176 Q954 125 942 85 Q936 65 926.5 47 Q917 29 905 13 Q880 -20 853.5 -36 Q827 -52 802 -57 Q764 -65 727.5 -60 Q691 -55 665 -37 Q657 -34 651 -28 Q650 -29 649.5 -30 Q649 -31 647 -32 Q578 -114 478 -114 Q362 -114 293 -38 Q225 37 225 168 Q225 302 291 377 Q357 453 477 453 Q576 453 642 386 L642 442 L734 442 Q691 480 631 505 Q563 532 487 532 Q387 532 303 484 Q221 436 174 353 Q127 270 127 170 Q127 70 174 -13 Q220 -97 303 -145 Q387 -193 487 -193 Q609 -193 708 -124 Q713 -121 716.5 -119 Q720 -117 722 -115 Q725 -113 727 -111 L786 -186 Q727 -236 650 -263 Q573 -291 487 -291 Q455 -291 423.5 -287 Q392 -283 361 -275 Q331 -267 303 -255.5 Q275 -244 249 -229 Q197 -200 155 -158 Q133 -137 115.5 -114 Q98 -91 83 -65 Q54 -17 37 46 Q21 104 21 170 Q21 249 44 317 Q55 352 71 384 Q87 416 109 444 Q154 503 209 542 Q264 584 338 607 Q374 618 411 624 Q448 630 487 630 Q583 630 670 594 Q755 560 818 498 Q880 439 917 353 Z M642 176 Q642 264 599 311 Q558 358 483 358 Q409 358 371 308 Q332 257 332 169 Q332 84 373 32 Q413 -19 487 -19 Q537 -19 572 4 Q577 7 581.5 10.5 Q586 14 591 18 Q594 21 596.5 24 Q599 27 602 29 Q642 76 642 168 L642 176 Z M789 41 Q849 68 849 176 Q849 251 822 317 Q794 382 750 426 L750 54 Q753 48 758 44 Q763 41 770.5 39 Q778 37 789 41 Z " />
<glyph glyph-name="bracketleft" unicode="&#x5b;" horiz-adv-x="284" d="M197 720 L252 720 L252 641 L252 619 L230 619 L197 619 L159 619 L159 -132 L209 -132 L230 -132 L252 -132 L252 -154 L252 -233 L209 -233 L50 -233 L50 720 L197 720 L197 720 Z " />
<glyph glyph-name="grave" unicode="&#x60;" horiz-adv-x="259" d="M247 503 L154 503 L32 629 L155 629 L247 503 L247 503 Z " />
<glyph glyph-name="dollar" unicode="&#x24;" horiz-adv-x="577" d="M521 248 Q579 192 579 110 Q579 12 515 -44 Q451 -100 342 -109 L342 -219 L238 -219 L238 -109 Q101 -99 7 -11 L78 68 Q79 66 82 64 Q84 62 87.5 60 Q91 58 96 55 Q155 6 238 -6 L238 247 L228 249 Q25 294 25 443 Q25 530 83 580 Q141 629 238 638 L238 730 L342 730 L342 638 Q462 620 543 543 L473 462 Q469 464 465 467 Q462 469 459 471 Q456 473 455 475 Q424 495 396 509 Q368 523 342 531 L342 329 L346 328 Q462 301 521 248 Z M164 389 Q188 367 238 354 L238 537 Q199 532 175 516 Q139 493 137 445 Q137 413 164 389 Z M417 25 Q463 60 464 107 Q465 147 430 180 Q401 207 342 223 L342 -6 Q388 2 417 25 Z " />
<glyph glyph-name="tilde" unicode="&#x2dc;" horiz-adv-x="545" d="M499 626 Q485 542 450 499 Q416 455 359 455 Q338 455 315 468 Q294 481 278 499 Q270 509 263.5 517.5 Q257 526 250 535 Q237 553 222 566 Q208 578 196 578 Q176 578 164 565 Q151 552 142 510 Q141 507 140 502.5 Q139 498 138 494 Q137 489 136 484 L57 498 Q69 581 104 626 Q138 672 196 672 Q219 672 243 659 Q265 645 279 628 Q287 618 294 609.5 Q301 601 308 592 Q322 571 334 561 Q347 549 359 549 Q382 549 395 562 Q408 575 416 615 L423 643 L499 626 Z " />
<glyph glyph-name="cedilla" unicode="&#xb8;" horiz-adv-x="245" d="M205 -155 Q227 -174 227 -209 Q227 -250 199 -272 Q173 -294 130 -294 L82 -294 L38 -294 L38 -231 L64 -231 L82 -231 L135 -231 Q148 -231 153 -227 Q158 -224 160 -221 Q162 -215 162 -212 Q162 -206 156 -201 Q149 -196 141 -196 L94 -196 Q73 -196 65 -185 Q54 -174 57 -155 L66 -100 L110 -103 L105 -135 L145 -135 Q182 -135 205 -155 Z " />
<glyph glyph-name="dieresis" unicode="&#xa8;" horiz-adv-x="343" d="M16 615 L123 615 L123 523 L16 523 L16 615 Z M221 615 L328 615 L328 523 L221 523 L221 615 Z " />
<glyph glyph-name="Ydieresis" unicode="&#x178;" horiz-adv-x="579" d="M235 -100 L235 248 L-20 629 L115 629 L292 354 L472 629 L603 629 L349 248 L349 -100 L235 -100 L235 -100 Z M132 815 L239 815 L239 723 L132 723 L132 815 Z M337 815 L444 815 L444 723 L337 723 L337 815 Z " />
<glyph glyph-name="Edieresis" unicode="&#xcb;" horiz-adv-x="571" d="M535 3 L535 -100 L60 -100 L60 629 L535 629 L535 526 L174 526 L174 325 L525 325 L525 222 L174 222 L174 3 L535 3 L535 3 Z M112 815 L219 815 L219 723 L112 723 L112 815 Z M317 815 L424 815 L424 723 L317 723 L317 815 Z " />
<glyph glyph-name="Adieresis" unicode="&#xc4;" horiz-adv-x="673" d="M197 95 L126 -100 L8 -100 L278 629 L397 629 L664 -100 L542 -100 L471 95 L197 95 Z M335 468 L235 198 L433 198 L335 468 Z M176 815 L283 815 L283 723 L176 723 L176 815 Z M381 815 L488 815 L488 723 L381 723 L381 815 Z " />
<glyph glyph-name="Odieresis" unicode="&#xd6;" horiz-adv-x="774" d="M240 -81 Q175 -55 131 -4 Q87 48 65 116 Q41 185 41 268 Q41 378 82 465 Q122 550 200 598 Q280 645 385 645 Q546 645 637 542 Q728 439 728 268 Q728 95 636 -6 Q545 -109 385 -109 Q303 -109 240 -81 Z M180 409 Q155 349 155 268 Q155 239 159 212 Q163 185 170 156 Q186 96 237 45 Q264 18 303.5 6 Q343 -6 385 -6 Q497 -6 556 69 Q615 145 615 268 Q615 393 556 467 Q497 542 385 542 Q310 542 258 506 Q206 470 180 409 Z M229 815 L336 815 L336 723 L229 723 L229 815 Z M434 815 L541 815 L541 723 L434 723 L434 815 Z " />
<glyph glyph-name="Udieresis" unicode="&#xdc;" horiz-adv-x="615" d="M108 -45 Q68 -11 47 50 Q26 110 26 195 L26 629 L139 629 L140 195 Q140 98 180 46 Q219 -6 309 -6 Q399 -6 438 46 Q477 97 477 195 L477 629 L591 629 L591 195 Q591 128 577 74 Q562 21 538 -13 Q526 -30 510.5 -44 Q495 -58 477 -69 Q443 -91 400 -100 Q359 -109 309 -109 Q245 -109 196 -94 Q146 -79 108 -45 Z M150 815 L257 815 L257 723 L150 723 L150 815 Z M355 815 L462 815 L462 723 L355 723 L355 815 Z " />
<glyph glyph-name="adieresis" unicode="&#xe4;" horiz-adv-x="582" d="M552 448 L552 -49 L552 -98 L474 -98 L453 -98 L453 -78 L453 -49 L453 -22 Q382 -109 281 -109 Q164 -109 95 -32 Q27 45 27 172 Q27 307 93 382 Q159 458 280 458 Q379 458 445 391 L445 448 L552 448 Z M445 180 Q445 266 402 315 Q358 363 286 363 Q213 363 174 313 Q135 262 135 174 Q135 88 176 38 Q216 -13 290 -13 Q363 -13 404 35 Q445 84 445 172 L445 180 Z M133 615 L240 615 L240 523 L133 523 L133 615 Z M338 615 L445 615 L445 523 L338 523 L338 615 Z " />
<glyph glyph-name="edieresis" unicode="&#xeb;" horiz-adv-x="573" d="M560 139 L128 139 Q137 71 180 29 Q223 -12 290 -12 Q338 -12 375 11 Q412 34 430 74 Q432 78 433.5 81 Q435 84 436 86 Q437 89 438 90 L542 59 Q514 -20 448 -65 Q385 -109 290 -109 Q163 -109 92 -32 Q18 48 18 174 Q18 304 92 383 Q165 462 290 462 Q414 462 487 382 Q559 303 560 176 L560 139 Z M448 234 Q435 293 392 330 Q353 365 290 365 Q225 365 186 330 Q146 296 132 234 L448 234 Z M129 615 L236 615 L236 523 L129 523 L129 615 Z M334 615 L441 615 L441 523 L334 523 L334 615 Z " />
<glyph glyph-name="odieresis" unicode="&#xf6;" horiz-adv-x="573" d="M288 -109 Q166 -109 96 -32 Q61 6 43.5 56.5 Q26 107 26 173 Q26 305 96 382 Q166 458 288 458 Q410 458 480 381 Q551 304 551 173 Q551 107 533 56.5 Q515 6 480 -32 Q410 -109 288 -109 Z M174 311 Q133 259 133 173 Q133 128 143.5 96 Q154 64 174 39 Q214 -12 288 -12 Q361 -12 402 39 Q423 65 433 97 Q443 129 443 173 Q443 262 402 310 Q362 362 288 362 Q214 362 174 311 Z M129 615 L236 615 L236 523 L129 523 L129 615 Z M334 615 L441 615 L441 523 L334 523 L334 615 Z " />
<glyph glyph-name="udieresis" unicode="&#xfc;" horiz-adv-x="536" d="M502 448 L502 -99 L423 -99 L402 -99 L402 -28 Q345 -109 247 -109 Q138 -109 86 -51 Q34 9 34 123 L34 448 L142 448 L142 130 Q142 55 166 21 Q190 -14 255 -14 Q322 -14 359 23 Q394 61 394 130 L394 448 L502 448 Z M94 615 L201 615 L201 523 L94 523 L94 615 Z M299 615 L406 615 L406 523 L299 523 L299 615 Z " />
<glyph glyph-name="acute" unicode="&#xb4;" horiz-adv-x="243" d="M18 503 L110 629 L232 629 L111 503 L18 503 L18 503 Z " />
<glyph glyph-name="Aacute" unicode="&#xc1;" horiz-adv-x="669" d="M193 95 L122 -100 L4 -100 L274 629 L393 629 L660 -100 L538 -100 L467 95 L193 95 Z M331 468 L231 198 L429 198 L331 468 Z M229 703 L321 829 L443 829 L322 703 L229 703 L229 703 Z " />
<glyph glyph-name="Eacute" unicode="&#xc9;" horiz-adv-x="569" d="M535 3 L535 -100 L60 -100 L60 629 L535 629 L535 526 L174 526 L174 325 L525 325 L525 222 L174 222 L174 3 L535 3 L535 3 Z M168 703 L260 829 L382 829 L261 703 L168 703 L168 703 Z " />
<glyph glyph-name="Iacute" unicode="&#xcd;" horiz-adv-x="214" d="M156 629 L156 -100 L43 -100 L43 629 L156 629 L156 629 Z M0 703 L92 829 L214 829 L93 703 L0 703 L0 703 Z " />
<glyph glyph-name="Oacute" unicode="&#xd3;" horiz-adv-x="774" d="M240 -81 Q175 -55 131 -4 Q87 48 65 116 Q41 185 41 268 Q41 378 82 465 Q122 550 200 598 Q280 645 385 645 Q546 645 637 542 Q728 439 728 268 Q728 95 636 -6 Q545 -109 385 -109 Q303 -109 240 -81 Z M180 409 Q155 349 155 268 Q155 239 159 212 Q163 185 170 156 Q186 96 237 45 Q264 18 303.5 6 Q343 -6 385 -6 Q497 -6 556 69 Q615 145 615 268 Q615 393 556 467 Q497 542 385 542 Q310 542 258 506 Q206 470 180 409 Z M286 703 L378 829 L500 829 L379 703 L286 703 L286 703 Z " />
<glyph glyph-name="Uacute" unicode="&#xda;" horiz-adv-x="615" d="M108 -45 Q68 -11 47 50 Q26 110 26 195 L26 629 L139 629 L140 195 Q140 98 180 46 Q219 -6 309 -6 Q399 -6 438 46 Q477 97 477 195 L477 629 L591 629 L591 195 Q591 128 577 74 Q562 21 538 -13 Q526 -30 510.5 -44 Q495 -58 477 -69 Q443 -91 400 -100 Q359 -109 309 -109 Q245 -109 196 -94 Q146 -79 108 -45 Z M206 703 L298 829 L420 829 L299 703 L206 703 L206 703 Z " />
<glyph glyph-name="Yacute" unicode="&#xdd;" horiz-adv-x="579" d="M235 -100 L235 248 L-20 629 L115 629 L292 354 L472 629 L603 629 L349 248 L349 -100 L235 -100 L235 -100 Z M188 703 L280 829 L402 829 L281 703 L188 703 L188 703 Z " />
<glyph glyph-name="yacute" unicode="&#xfd;" horiz-adv-x="546" d="M536 448 L301 -166 Q290 -194 275.5 -215.5 Q261 -237 241 -252 Q202 -282 153 -282 L143 -282 L96 -282 L96 -202 L96 -181 L116 -181 L143 -181 L148 -181 Q183 -181 200 -139 L216 -93 L10 448 L123 448 L268 44 L417 448 L536 448 Z M161 503 L253 629 L375 629 L254 503 L161 503 L161 503 Z " />
<glyph glyph-name="uacute" unicode="&#xfa;" horiz-adv-x="530" d="M502 448 L502 -99 L423 -99 L402 -99 L402 -28 Q345 -109 247 -109 Q138 -109 86 -51 Q34 9 34 123 L34 448 L142 448 L142 130 Q142 55 166 21 Q190 -14 255 -14 Q322 -14 359 23 Q394 61 394 130 L394 448 L502 448 Z M151 503 L243 629 L365 629 L244 503 L151 503 L151 503 Z " />
<glyph glyph-name="oacute" unicode="&#xf3;" horiz-adv-x="573" d="M288 -109 Q166 -109 96 -32 Q61 6 43.5 56.5 Q26 107 26 173 Q26 305 96 382 Q166 458 288 458 Q410 458 480 381 Q551 304 551 173 Q551 107 533 56.5 Q515 6 480 -32 Q410 -109 288 -109 Z M174 311 Q133 259 133 173 Q133 128 143.5 96 Q154 64 174 39 Q214 -12 288 -12 Q361 -12 402 39 Q423 65 433 97 Q443 129 443 173 Q443 262 402 310 Q362 362 288 362 Q214 362 174 311 Z M185 503 L277 629 L399 629 L278 503 L185 503 L185 503 Z " />
<glyph glyph-name="aacute" unicode="&#xe1;" horiz-adv-x="582" d="M552 448 L552 -49 L552 -98 L474 -98 L453 -98 L453 -78 L453 -49 L453 -22 Q382 -109 281 -109 Q164 -109 95 -32 Q27 45 27 172 Q27 307 93 382 Q159 458 280 458 Q379 458 445 391 L445 448 L552 448 Z M445 180 Q445 266 402 315 Q358 363 286 363 Q213 363 174 313 Q135 262 135 174 Q135 88 176 38 Q216 -13 290 -13 Q363 -13 404 35 Q445 84 445 172 L445 180 Z M190 503 L282 629 L404 629 L283 503 L190 503 L190 503 Z " />
<glyph glyph-name="ring" unicode="&#x2da;" horiz-adv-x="224" d="M111 651 Q129 651 144 644.5 Q159 638 170.5 627 Q182 616 188.5 601 Q195 586 195 569 Q195 535 170.5 511.5 Q146 488 111 488 Q93 488 77.5 494.5 Q62 501 50.5 512 Q39 523 32.5 537.5 Q26 552 26 569 Q26 586 32.5 601 Q39 616 50.5 627 Q62 638 77.5 644.5 Q93 651 111 651 Z M111 542 Q123 542 131 550 Q139 558 139 569 Q139 580 131 588 Q123 596 111 596 Q99 596 91 588 Q83 580 83 569 Q83 558 91 550 Q99 542 111 542 Z " />
<glyph glyph-name="Aring" unicode="&#xc5;" horiz-adv-x="677" d="M197 95 L126 -100 L8 -100 L278 629 L397 629 L664 -100 L542 -100 L471 95 L197 95 Z M335 468 L235 198 L433 198 L335 468 Z M331 851 Q349 851 364 844.5 Q379 838 390.5 827 Q402 816 408.5 801 Q415 786 415 769 Q415 735 390.5 711.5 Q366 688 331 688 Q313 688 297.5 694.5 Q282 701 270.5 712 Q259 723 252.5 737.5 Q246 752 246 769 Q246 786 252.5 801 Q259 816 270.5 827 Q282 838 297.5 844.5 Q313 851 331 851 Z M331 742 Q343 742 351 750 Q359 758 359 769 Q359 780 351 788 Q343 796 331 796 Q319 796 311 788 Q303 780 303 769 Q303 758 311 750 Q319 742 331 742 Z " />
<glyph glyph-name="aring" unicode="&#xe5;" horiz-adv-x="582" d="M552 448 L552 -49 L552 -98 L474 -98 L453 -98 L453 -78 L453 -49 L453 -22 Q382 -109 281 -109 Q164 -109 95 -32 Q27 45 27 172 Q27 307 93 382 Q159 458 280 458 Q379 458 445 391 L445 448 L552 448 Z M445 180 Q445 266 402 315 Q358 363 286 363 Q213 363 174 313 Q135 262 135 174 Q135 88 176 38 Q216 -13 290 -13 Q363 -13 404 35 Q445 84 445 172 L445 180 Z M288 651 Q306 651 321 644.5 Q336 638 347.5 627 Q359 616 365.5 601 Q372 586 372 569 Q372 535 347.5 511.5 Q323 488 288 488 Q270 488 254.5 494.5 Q239 501 227.5 512 Q216 523 209.5 537.5 Q203 552 203 569 Q203 586 209.5 601 Q216 616 227.5 627 Q239 638 254.5 644.5 Q270 651 288 651 Z M288 542 Q300 542 308 550 Q316 558 316 569 Q316 580 308 588 Q300 596 288 596 Q276 596 268 588 Q260 580 260 569 Q260 558 268 550 Q276 542 288 542 Z " />
<glyph glyph-name="Ecircumflex" unicode="&#xca;" horiz-adv-x="571" d="M535 3 L535 -100 L60 -100 L60 629 L535 629 L535 526 L174 526 L174 325 L525 325 L525 222 L174 222 L174 3 L535 3 L535 3 Z M334 720 L307 748 L306 749 L269 787 L229 748 L202 720 L154 720 L114 720 L97 720 L125 748 L195 817 Q227 846 269 846 Q314 846 343 817 L410 748 L439 720 L334 720 Z " />
<glyph glyph-name="ucircumflex" unicode="&#xfb;" horiz-adv-x="532" d="M502 448 L502 -99 L423 -99 L402 -99 L402 -28 Q345 -109 247 -109 Q138 -109 86 -51 Q34 9 34 123 L34 448 L142 448 L142 130 Q142 55 166 21 Q190 -14 255 -14 Q322 -14 359 23 Q394 61 394 130 L394 448 L502 448 Z M316 520 L289 548 L288 549 L251 587 L211 548 L184 520 L136 520 L96 520 L79 520 L107 548 L177 617 Q209 646 251 646 Q296 646 325 617 L392 548 L421 520 L316 520 Z " />
<glyph glyph-name="ocircumflex" unicode="&#xf4;" horiz-adv-x="573" d="M288 -109 Q166 -109 96 -32 Q61 6 43.5 56.5 Q26 107 26 173 Q26 305 96 382 Q166 458 288 458 Q410 458 480 381 Q551 304 551 173 Q551 107 533 56.5 Q515 6 480 -32 Q410 -109 288 -109 Z M174 311 Q133 259 133 173 Q133 128 143.5 96 Q154 64 174 39 Q214 -12 288 -12 Q361 -12 402 39 Q423 65 433 97 Q443 129 443 173 Q443 262 402 310 Q362 362 288 362 Q214 362 174 311 Z M351 520 L324 548 L323 549 L286 587 L246 548 L219 520 L171 520 L131 520 L114 520 L142 548 L212 617 Q244 646 286 646 Q331 646 360 617 L427 548 L456 520 L351 520 Z " />
<glyph glyph-name="acircumflex" unicode="&#xe2;" horiz-adv-x="582" d="M552 448 L552 -49 L552 -98 L474 -98 L453 -98 L453 -78 L453 -49 L453 -22 Q382 -109 281 -109 Q164 -109 95 -32 Q27 45 27 172 Q27 307 93 382 Q159 458 280 458 Q379 458 445 391 L445 448 L552 448 Z M445 180 Q445 266 402 315 Q358 363 286 363 Q213 363 174 313 Q135 262 135 174 Q135 88 176 38 Q216 -13 290 -13 Q363 -13 404 35 Q445 84 445 172 L445 180 Z M355 520 L328 548 L327 549 L290 587 L250 548 L223 520 L175 520 L135 520 L118 520 L146 548 L216 617 Q248 646 290 646 Q335 646 364 617 L431 548 L460 520 L355 520 Z " />
<glyph glyph-name="Acircumflex" unicode="&#xc2;" horiz-adv-x="675" d="M197 95 L126 -100 L8 -100 L278 629 L397 629 L664 -100 L542 -100 L471 95 L197 95 Z M335 468 L235 198 L433 198 L335 468 Z M398 720 L371 748 L370 749 L333 787 L293 748 L266 720 L218 720 L178 720 L161 720 L189 748 L259 817 Q291 846 333 846 Q378 846 407 817 L474 748 L503 720 L398 720 Z " />
<glyph glyph-name="ecircumflex" unicode="&#xea;" horiz-adv-x="573" d="M560 139 L128 139 Q137 71 180 29 Q223 -12 290 -12 Q338 -12 375 11 Q412 34 430 74 Q432 78 433.5 81 Q435 84 436 86 Q437 89 438 90 L542 59 Q514 -20 448 -65 Q385 -109 290 -109 Q163 -109 92 -32 Q18 48 18 174 Q18 304 92 383 Q165 462 290 462 Q414 462 487 382 Q559 303 560 176 L560 139 Z M448 234 Q435 293 392 330 Q353 365 290 365 Q225 365 186 330 Q146 296 132 234 L448 234 Z M351 520 L324 548 L323 549 L286 587 L246 548 L219 520 L171 520 L131 520 L114 520 L142 548 L212 617 Q244 646 286 646 Q331 646 360 617 L427 548 L456 520 L351 520 Z " />
<glyph glyph-name="Otilde" unicode="&#xd5;" horiz-adv-x="774" d="M240 -81 Q175 -55 131 -4 Q87 48 65 116 Q41 185 41 268 Q41 378 82 465 Q122 550 200 598 Q280 645 385 645 Q546 645 637 542 Q728 439 728 268 Q728 95 636 -6 Q545 -109 385 -109 Q303 -109 240 -81 Z M180 409 Q155 349 155 268 Q155 239 159 212 Q163 185 170 156 Q186 96 237 45 Q264 18 303.5 6 Q343 -6 385 -6 Q497 -6 556 69 Q615 145 615 268 Q615 393 556 467 Q497 542 385 542 Q310 542 258 506 Q206 470 180 409 Z M637 826 Q623 742 588 699 Q554 655 497 655 Q476 655 453 668 Q432 681 416 699 Q408 709 401.5 717.5 Q395 726 388 735 Q375 753 360 766 Q346 778 334 778 Q314 778 302 765 Q289 752 280 710 Q279 707 278 702.5 Q277 698 276 694 Q275 689 274 684 L195 698 Q207 781 242 826 Q276 872 334 872 Q357 872 381 859 Q403 845 417 828 Q425 818 432 809.5 Q439 801 446 792 Q460 771 472 761 Q485 749 497 749 Q520 749 533 762 Q546 775 554 815 L561 843 L637 826 Z " />
<glyph glyph-name="Atilde" unicode="&#xc3;" horiz-adv-x="675" d="M197 95 L126 -100 L8 -100 L278 629 L397 629 L664 -100 L542 -100 L471 95 L197 95 Z M335 468 L235 198 L433 198 L335 468 Z M584 826 Q570 742 535 699 Q501 655 444 655 Q423 655 400 668 Q379 681 363 699 Q355 709 348.5 717.5 Q342 726 335 735 Q322 753 307 766 Q293 778 281 778 Q261 778 249 765 Q236 752 227 710 Q226 707 225 702.5 Q224 698 223 694 Q222 689 221 684 L142 698 Q154 781 189 826 Q223 872 281 872 Q304 872 328 859 Q350 845 364 828 Q372 818 379 809.5 Q386 801 393 792 Q407 771 419 761 Q432 749 444 749 Q467 749 480 762 Q493 775 501 815 L508 843 L584 826 Z " />
<glyph glyph-name="atilde" unicode="&#xe3;" horiz-adv-x="582" d="M552 448 L552 -49 L552 -98 L474 -98 L453 -98 L453 -78 L453 -49 L453 -22 Q382 -109 281 -109 Q164 -109 95 -32 Q27 45 27 172 Q27 307 93 382 Q159 458 280 458 Q379 458 445 391 L445 448 L552 448 Z M445 180 Q445 266 402 315 Q358 363 286 363 Q213 363 174 313 Q135 262 135 174 Q135 88 176 38 Q216 -13 290 -13 Q363 -13 404 35 Q445 84 445 172 L445 180 Z M542 626 Q528 542 493 499 Q459 455 402 455 Q381 455 358 468 Q337 481 321 499 Q313 509 306.5 517.5 Q300 526 293 535 Q280 553 265 566 Q251 578 239 578 Q219 578 207 565 Q194 552 185 510 Q184 507 183 502.5 Q182 498 181 494 Q180 489 179 484 L100 498 Q112 581 147 626 Q181 672 239 672 Q262 672 286 659 Q308 645 322 628 Q330 618 337 609.5 Q344 601 351 592 Q365 571 377 561 Q390 549 402 549 Q425 549 438 562 Q451 575 459 615 L466 643 L542 626 Z " />
<glyph glyph-name="ntilde" unicode="&#xf1;" horiz-adv-x="497" d="M454 399 Q506 339 506 224 L506 -100 L398 -100 L398 219 Q398 293 374 328 Q351 363 285 363 Q215 363 181 326 Q145 288 145 219 L145 -100 L38 -100 L38 410 L38 448 L117 448 L137 448 L137 428 L137 410 L137 377 Q194 458 293 458 Q401 458 454 399 Z M499 626 Q485 542 450 499 Q416 455 359 455 Q338 455 315 468 Q294 481 278 499 Q270 509 263.5 517.5 Q257 526 250 535 Q237 553 222 566 Q208 578 196 578 Q176 578 164 565 Q151 552 142 510 Q141 507 140 502.5 Q139 498 138 494 Q137 489 136 484 L57 498 Q69 581 104 626 Q138 672 196 672 Q219 672 243 659 Q265 645 279 628 Q287 618 294 609.5 Q301 601 308 592 Q322 571 334 561 Q347 549 359 549 Q382 549 395 562 Q408 575 416 615 L423 643 L499 626 Z " />
<glyph glyph-name="otilde" unicode="&#xf5;" horiz-adv-x="573" d="M288 -109 Q166 -109 96 -32 Q61 6 43.5 56.5 Q26 107 26 173 Q26 305 96 382 Q166 458 288 458 Q410 458 480 381 Q551 304 551 173 Q551 107 533 56.5 Q515 6 480 -32 Q410 -109 288 -109 Z M174 311 Q133 259 133 173 Q133 128 143.5 96 Q154 64 174 39 Q214 -12 288 -12 Q361 -12 402 39 Q423 65 433 97 Q443 129 443 173 Q443 262 402 310 Q362 362 288 362 Q214 362 174 311 Z M537 626 Q523 542 488 499 Q454 455 397 455 Q376 455 353 468 Q332 481 316 499 Q308 509 301.5 517.5 Q295 526 288 535 Q275 553 260 566 Q246 578 234 578 Q214 578 202 565 Q189 552 180 510 Q179 507 178 502.5 Q177 498 176 494 Q175 489 174 484 L95 498 Q107 581 142 626 Q176 672 234 672 Q257 672 281 659 Q303 645 317 628 Q325 618 332 609.5 Q339 601 346 592 Q360 571 372 561 Q385 549 397 549 Q420 549 433 562 Q446 575 454 615 L461 643 L537 626 Z " />
<glyph glyph-name="Ntilde" unicode="&#xd1;" horiz-adv-x="700" d="M164 -100 L50 -100 L50 629 L174 629 L537 75 L537 134 L537 629 L650 629 L650 -100 L527 -100 L164 454 L164 395 L164 -100 Z M581 826 Q567 742 532 699 Q498 655 441 655 Q420 655 397 668 Q376 681 360 699 Q352 709 345.5 717.5 Q339 726 332 735 Q319 753 304 766 Q290 778 278 778 Q258 778 246 765 Q233 752 224 710 Q223 707 222 702.5 Q221 698 220 694 Q219 689 218 684 L139 698 Q151 781 186 826 Q220 872 278 872 Q301 872 325 859 Q347 845 361 828 Q369 818 376 809.5 Q383 801 390 792 Q404 771 416 761 Q429 749 441 749 Q464 749 477 762 Q490 775 498 815 L505 843 L581 826 Z " />
<glyph glyph-name="Agrave" unicode="&#xc0;" horiz-adv-x="683" d="M203 95 L132 -100 L14 -100 L284 629 L403 629 L670 -100 L548 -100 L477 95 L203 95 Z M341 468 L241 198 L439 198 L341 468 Z M457 703 L364 703 L242 829 L365 829 L457 703 L457 703 Z " />
<glyph glyph-name="Ograve" unicode="&#xd2;" horiz-adv-x="774" d="M240 -81 Q175 -55 131 -4 Q87 48 65 116 Q41 185 41 268 Q41 378 82 465 Q122 550 200 598 Q280 645 385 645 Q546 645 637 542 Q728 439 728 268 Q728 95 636 -6 Q545 -109 385 -109 Q303 -109 240 -81 Z M180 409 Q155 349 155 268 Q155 239 159 212 Q163 185 170 156 Q186 96 237 45 Q264 18 303.5 6 Q343 -6 385 -6 Q497 -6 556 69 Q615 145 615 268 Q615 393 556 467 Q497 542 385 542 Q310 542 258 506 Q206 470 180 409 Z M504 703 L411 703 L289 829 L412 829 L504 703 L504 703 Z " />
<glyph glyph-name="Ugrave" unicode="&#xd9;" horiz-adv-x="615" d="M108 -45 Q68 -11 47 50 Q26 110 26 195 L26 629 L139 629 L140 195 Q140 98 180 46 Q219 -6 309 -6 Q399 -6 438 46 Q477 97 477 195 L477 629 L591 629 L591 195 Q591 128 577 74 Q562 21 538 -13 Q526 -30 510.5 -44 Q495 -58 477 -69 Q443 -91 400 -100 Q359 -109 309 -109 Q245 -109 196 -94 Q146 -79 108 -45 Z M424 703 L331 703 L209 829 L332 829 L424 703 L424 703 Z " />
<glyph glyph-name="egrave" unicode="&#xe8;" horiz-adv-x="573" d="M560 139 L128 139 Q137 71 180 29 Q223 -12 290 -12 Q338 -12 375 11 Q412 34 430 74 Q432 78 433.5 81 Q435 84 436 86 Q437 89 438 90 L542 59 Q514 -20 448 -65 Q385 -109 290 -109 Q163 -109 92 -32 Q18 48 18 174 Q18 304 92 383 Q165 462 290 462 Q414 462 487 382 Q559 303 560 176 L560 139 Z M448 234 Q435 293 392 330 Q353 365 290 365 Q225 365 186 330 Q146 296 132 234 L448 234 Z M403 503 L310 503 L188 629 L311 629 L403 503 L403 503 Z " />
<glyph glyph-name="eacute" unicode="&#xe9;" horiz-adv-x="573" d="M560 139 L128 139 Q137 71 180 29 Q223 -12 290 -12 Q338 -12 375 11 Q412 34 430 74 Q432 78 433.5 81 Q435 84 436 86 Q437 89 438 90 L542 59 Q514 -20 448 -65 Q385 -109 290 -109 Q163 -109 92 -32 Q18 48 18 174 Q18 304 92 383 Q165 462 290 462 Q414 462 487 382 Q559 303 560 176 L560 139 Z M448 234 Q435 293 392 330 Q353 365 290 365 Q225 365 186 330 Q146 296 132 234 L448 234 Z M185 503 L277 629 L399 629 L278 503 L185 503 L185 503 Z " />
<glyph glyph-name="ugrave" unicode="&#xf9;" horiz-adv-x="532" d="M502 448 L502 -99 L423 -99 L402 -99 L402 -28 Q345 -109 247 -109 Q138 -109 86 -51 Q34 9 34 123 L34 448 L142 448 L142 130 Q142 55 166 21 Q190 -14 255 -14 Q322 -14 359 23 Q394 61 394 130 L394 448 L502 448 Z M369 503 L276 503 L154 629 L277 629 L369 503 L369 503 Z " />
<glyph glyph-name="ograve" unicode="&#xf2;" horiz-adv-x="573" d="M288 -109 Q166 -109 96 -32 Q61 6 43.5 56.5 Q26 107 26 173 Q26 305 96 382 Q166 458 288 458 Q410 458 480 381 Q551 304 551 173 Q551 107 533 56.5 Q515 6 480 -32 Q410 -109 288 -109 Z M174 311 Q133 259 133 173 Q133 128 143.5 96 Q154 64 174 39 Q214 -12 288 -12 Q361 -12 402 39 Q423 65 433 97 Q443 129 443 173 Q443 262 402 310 Q362 362 288 362 Q214 362 174 311 Z M403 503 L310 503 L188 629 L311 629 L403 503 L403 503 Z " />
<glyph glyph-name="agrave" unicode="&#xe0;" horiz-adv-x="582" d="M552 448 L552 -49 L552 -98 L474 -98 L453 -98 L453 -78 L453 -49 L453 -22 Q382 -109 281 -109 Q164 -109 95 -32 Q27 45 27 172 Q27 307 93 382 Q159 458 280 458 Q379 458 445 391 L445 448 L552 448 Z M445 180 Q445 266 402 315 Q358 363 286 363 Q213 363 174 313 Q135 262 135 174 Q135 88 176 38 Q216 -13 290 -13 Q363 -13 404 35 Q445 84 445 172 L445 180 Z M408 503 L315 503 L193 629 L316 629 L408 503 L408 503 Z " />
<glyph glyph-name="Egrave" unicode="&#xc8;" horiz-adv-x="569" d="M535 3 L535 -100 L60 -100 L60 629 L535 629 L535 526 L174 526 L174 325 L525 325 L525 222 L174 222 L174 3 L535 3 L535 3 Z M386 703 L293 703 L171 829 L294 829 L386 703 L386 703 Z " />
<glyph glyph-name="Igrave" unicode="&#xcc;" horiz-adv-x="235" d="M187 629 L187 -100 L74 -100 L74 629 L187 629 L187 629 Z M226 703 L133 703 L11 829 L134 829 L226 703 L226 703 Z " />
<glyph glyph-name="Idieresis" unicode="&#xcf;" horiz-adv-x="326" d="M218 629 L218 -100 L105 -100 L105 629 L218 629 L218 629 Z M6 815 L113 815 L113 723 L6 723 L6 815 Z M211 815 L318 815 L318 723 L211 723 L211 815 Z " />
<glyph glyph-name="Icircumflex" unicode="&#xce;" horiz-adv-x="347" d="M229 629 L229 -100 L116 -100 L116 629 L229 629 L229 629 Z M239 720 L212 748 L211 749 L174 787 L134 748 L107 720 L59 720 L19 720 L2 720 L30 748 L100 817 Q132 846 174 846 Q219 846 248 817 L315 748 L344 720 L239 720 Z " />
<glyph glyph-name="Ucircumflex" unicode="&#xdb;" horiz-adv-x="615" d="M108 -45 Q68 -11 47 50 Q26 110 26 195 L26 629 L139 629 L140 195 Q140 98 180 46 Q219 -6 309 -6 Q399 -6 438 46 Q477 97 477 195 L477 629 L591 629 L591 195 Q591 128 577 74 Q562 21 538 -13 Q526 -30 510.5 -44 Q495 -58 477 -69 Q443 -91 400 -100 Q359 -109 309 -109 Q245 -109 196 -94 Q146 -79 108 -45 Z M372 720 L345 748 L344 749 L307 787 L267 748 L240 720 L192 720 L152 720 L135 720 L163 748 L233 817 Q265 846 307 846 Q352 846 381 817 L448 748 L477 720 L372 720 Z " />
<glyph glyph-name="Ocircumflex" unicode="&#xd4;" horiz-adv-x="774" d="M240 -81 Q175 -55 131 -4 Q87 48 65 116 Q41 185 41 268 Q41 378 82 465 Q122 550 200 598 Q280 645 385 645 Q546 645 637 542 Q728 439 728 268 Q728 95 636 -6 Q545 -109 385 -109 Q303 -109 240 -81 Z M180 409 Q155 349 155 268 Q155 239 159 212 Q163 185 170 156 Q186 96 237 45 Q264 18 303.5 6 Q343 -6 385 -6 Q497 -6 556 69 Q615 145 615 268 Q615 393 556 467 Q497 542 385 542 Q310 542 258 506 Q206 470 180 409 Z M451 720 L424 748 L423 749 L386 787 L346 748 L319 720 L271 720 L231 720 L214 720 L242 748 L312 817 Q344 846 386 846 Q431 846 460 817 L527 748 L556 720 L451 720 Z " />
<glyph glyph-name="Ccedilla" unicode="&#xc7;" horiz-adv-x="740" d="M203 -60 Q123 -11 85 73 Q65 116 54.5 162.5 Q44 209 44 265 Q44 375 85 462 Q126 548 204 594 Q283 642 389 642 Q514 642 597 578 Q681 513 712 402 L604 374 Q603 378 601 382 Q599 385 598 389 Q597 393 596 395 Q569 462 518 500 Q467 539 389 539 Q315 539 261 503 Q208 465 183 406 Q158 346 158 265 Q158 244 161 222 Q164 200 169 174 Q180 134 199.5 96 Q219 58 256 33 Q284 13 318 4 Q352 -5 389 -5 Q473 -5 526 38 Q579 82 600 153 Q601 155 601.5 159 Q602 163 604 167 Q605 171 607 176 L627 171 Q639 168 660 163 Q681 158 716 150 Q689 30 603 -39 Q515 -109 389 -109 Q284 -109 203 -60 Z M453 -155 Q475 -174 475 -209 Q475 -250 447 -272 Q421 -294 378 -294 L330 -294 L286 -294 L286 -231 L312 -231 L330 -231 L383 -231 Q396 -231 401 -227 Q406 -224 408 -221 Q410 -215 410 -212 Q410 -206 404 -201 Q397 -196 389 -196 L342 -196 Q321 -196 313 -185 Q302 -174 305 -155 L314 -100 L358 -103 L353 -135 L393 -135 Q430 -135 453 -155 Z " />
<glyph glyph-name="ccedilla" unicode="&#xe7;" horiz-adv-x="571" d="M55 27 Q40 59 32.5 93 Q25 127 25 168 Q25 303 95 380 Q164 458 288 458 Q382 458 447 410 Q511 362 535 272 L430 245 Q429 247 428 251 Q427 256 422 267 Q386 361 288 361 Q212 361 172 309 Q133 256 133 168 Q133 126 143 95.5 Q153 65 174 39 Q214 -12 288 -12 Q390 -12 426 89 Q427 91 427.5 95 Q428 99 430 103 Q431 107 433 112 L539 89 Q516 -9 451 -59 Q385 -109 288 -109 Q205 -109 145 -73 Q85 -35 55 27 Z M366 -155 Q388 -174 388 -209 Q388 -250 360 -272 Q334 -294 291 -294 L243 -294 L199 -294 L199 -231 L225 -231 L243 -231 L296 -231 Q309 -231 314 -227 Q319 -224 321 -221 Q323 -215 323 -212 Q323 -206 317 -201 Q310 -196 302 -196 L255 -196 Q234 -196 226 -185 Q215 -174 218 -155 L227 -100 L271 -103 L266 -135 L306 -135 Q343 -135 366 -155 Z " />
<glyph glyph-name="ydieresis" unicode="&#xff;" horiz-adv-x="544" d="M538 448 L303 -166 Q292 -194 277.5 -215.5 Q263 -237 243 -252 Q204 -282 155 -282 L145 -282 L98 -282 L98 -202 L98 -181 L118 -181 L145 -181 L150 -181 Q185 -181 202 -139 L218 -93 L12 448 L125 448 L270 44 L419 448 L538 448 Z M106 615 L213 615 L213 523 L106 523 L106 615 Z M311 615 L418 615 L418 523 L311 523 L311 615 Z " />
<glyph glyph-name="Zcaron" unicode="&#x17d;" horiz-adv-x="558" d="M567 629 L567 526 L164 3 L567 3 L567 -100 L23 -100 L23 3 L424 526 L23 526 L23 629 L567 629 L567 629 Z M445 829 L417 801 L416 801 L349 732 Q321 703 275 703 Q231 703 201 732 L132 801 L103 829 L120 829 L160 829 L208 829 L235 800 L275 762 L312 799 Q313 800 313 800 L341 829 L445 829 Z " />
<glyph glyph-name="zcaron" unicode="&#x17e;" horiz-adv-x="500" d="M476 448 L476 351 L166 -3 L476 -3 L476 -100 L26 -100 L26 -3 L337 351 L26 351 L26 448 L476 448 L476 448 Z M416 629 L388 601 L387 601 L320 532 Q292 503 246 503 Q202 503 172 532 L103 601 L74 629 L91 629 L131 629 L179 629 L206 600 L246 562 L283 599 Q284 600 284 600 L312 629 L416 629 Z " />
<glyph glyph-name="Scaron" unicode="&#x160;" horiz-adv-x="584" d="M420 27 Q466 62 466 110 Q468 151 432 182 Q396 215 327 230 L230 252 Q185 261 151 277 Q134 285 117.5 294 Q101 303 87 315 Q58 338 43 371 Q27 403 27 445 Q27 542 98 593 Q169 643 289 643 Q441 643 545 546 L474 465 Q470 467 466 470 Q458 476 456 478 Q356 543 284 543 Q141 543 140 447 Q139 417 166 391 Q180 379 199 370.5 Q218 362 242 356 L349 331 Q464 304 523 250 Q581 196 581 112 Q581 4 503 -53 Q465 -82 412 -95.5 Q359 -109 293 -109 Q200 -109 131 -85 Q63 -59 10 -9 L80 71 Q81 69 84 67 Q86 65 89 62.5 Q92 60 97 57 Q182 -8 297 -8 Q373 -8 420 27 Z M458 829 L430 801 L429 801 L362 732 Q334 703 288 703 Q244 703 214 732 L145 801 L116 829 L133 829 L173 829 L221 829 L248 800 L288 762 L325 799 Q326 800 326 800 L354 829 L458 829 Z " />
<glyph glyph-name="scaron" unicode="&#x161;" horiz-adv-x="473" d="M416 167 Q462 119 462 60 Q462 -18 405 -64 Q348 -109 247 -109 Q214 -109 183.5 -103.5 Q153 -98 125 -86 Q97 -75 74 -59.5 Q51 -44 31 -25 L97 49 Q98 47 101 45 Q103 43 106 41 Q109 39 114 36 Q127 25 142.5 17 Q158 9 175 1 Q211 -13 245 -13 Q299 -13 327 7 Q355 26 355 60 Q355 89 333 108 Q312 129 272 135 Q265 137 254.5 139 Q244 141 229 144 Q214 147 202 149.5 Q190 152 181 154 Q116 168 79 206 Q41 247 41 300 Q41 372 96 418 Q149 461 243 461 Q307 461 360 437 Q412 411 438 381 L371 309 Q369 310 367 312 Q365 314 362.5 316.5 Q360 319 355 323 Q303 366 233 366 Q192 366 169 350 Q145 333 145 306 Q145 286 160 270 Q174 255 199 250 L288 230 Q370 212 416 167 Z M402 629 L374 601 L373 601 L306 532 Q278 503 232 503 Q188 503 158 532 L89 601 L60 629 L77 629 L117 629 L165 629 L192 600 L232 562 L269 599 Q270 600 270 600 L298 629 L402 629 Z " />
<glyph glyph-name="sterling" unicode="&#xa3;" horiz-adv-x="567" d="M530 3 L530 -100 L45 -100 L45 3 Q115 110 115 191 L115 201 L39 201 L39 270 L39 295 L65 295 L90 295 Q88 298 85.5 304 Q83 310 78 318 Q73 327 70 333.5 Q67 340 65 345 Q63 350 60.5 355.5 Q58 361 55 369 Q53 377 51 384.5 Q49 392 47 400 Q46 407 45.5 415 Q45 423 45 431 Q45 470 59 507 Q71 543 99 574 Q128 607 175 624 Q199 633 226.5 638 Q254 643 286 643 Q331 643 373 632 Q412 623 438 606 Q463 589 478 575 Q493 560 501 548 L428 474 L424 478 Q422 480 418.5 483.5 Q415 487 411 492 Q363 538 288 538 Q230 538 194 510 Q159 481 159 429 Q159 412 167 390 Q170 380 175.5 368 Q181 356 188 342 Q195 328 200 316 Q205 304 208 295 L449 295 L449 228 L449 201 L422 201 L226 201 L226 194 Q226 101 162 3 L530 3 Z " />
<glyph glyph-name="yen" unicode="&#xa5;" horiz-adv-x="611" d="M317 307 L293 307 L305 287 L317 307 Z M456 394 L522 394 L522 323 L522 303 L501 303 L395 303 L360 249 L360 228 L522 228 L522 157 L522 136 L502 136 L501 136 L360 136 L360 -100 L246 -100 L246 136 L86 136 L86 207 L86 228 L246 228 L246 249 L210 303 L86 303 L86 374 L86 394 L106 394 L148 394 L-9 630 L126 630 L279 394 L329 394 L483 630 L614 630 L456 394 Z " />
<glyph glyph-name="cent" unicode="&#xa2;" horiz-adv-x="593" d="M561 175 Q542 88 485 38 Q430 -13 346 -22 L346 -118 L274 -118 L256 -118 L246 -118 L246 -18 Q151 2 99 76 Q47 152 47 258 Q47 373 100 447 Q151 522 246 542 L246 651 L319 651 L336 651 L346 651 L346 546 Q428 537 481 491 Q536 444 557 363 L453 335 Q452 337 451 341 Q450 344 448.5 347.5 Q447 351 445 356 Q415 432 346 447 L346 77 Q420 94 448 175 Q449 177 450.5 181 Q452 185 453 189 Q454 193 455 198 L561 175 Z M196 124 Q217 98 246 86 L246 438 Q215 426 195 398 Q155 346 155 258 Q155 175 196 124 Z " />
<glyph glyph-name="lslash" unicode="&#x142;" horiz-adv-x="371" d="M308 0 L335 0 L335 -27 L335 -100 L288 -100 L256 -100 Q187 -100 147 -61 Q108 -22 108 44 L108 203 L18 174 L-11 266 L32 280 L108 304 L108 630 L215 630 L215 337 L321 370 L350 278 L307 265 L215 236 L215 44 Q215 24 227 12 Q239 0 260 0 L288 0 L308 0 Z " />
<glyph glyph-name="Lslash" unicode="&#x141;" horiz-adv-x="616" d="M245 4 L597 4 L597 -100 L131 -100 L131 195 L43 169 L15 261 L58 274 L131 296 L131 631 L245 631 L245 331 L348 362 L376 270 L334 257 L245 230 L245 4 L245 4 Z " />
<glyph glyph-name="Eth" unicode="&#xd0;" horiz-adv-x="775" d="M637 532 Q725 434 725 265 Q725 94 636 -2 Q547 -100 388 -100 L112 -100 L112 222 L25 222 L25 319 L70 319 L112 319 L112 630 L388 630 Q548 630 637 532 Z M555 74 Q612 143 612 265 Q612 388 555 457 Q496 526 388 526 L226 526 L226 319 L374 319 L374 222 L329 222 L226 222 L226 4 L388 4 Q500 4 555 74 Z " />
<glyph glyph-name="Oslash" unicode="&#xd8;" horiz-adv-x="774" d="M628 542 Q720 438 720 268 Q720 97 628 -6 Q535 -109 377 -109 Q317 -109 266 -94 L236 -160 L131 -160 L178 -53 Q162 -42 148.5 -30 Q135 -18 122 -4 Q101 21 84 51 Q67 81 56 116 Q44 151 38.5 188.5 Q33 226 33 268 Q33 381 73 465 Q113 550 192 597 Q270 645 377 645 Q436 645 484 632 L510 690 L616 690 L572 591 Q588 581 601.5 568.5 Q615 556 628 542 Z M187 96 Q201 72 224 49 L441 535 Q426 538 410 540 Q394 542 377 542 Q301 542 249 506 Q197 470 171 409 Q146 345 146 268 Q146 254 147 241.5 Q148 229 150 215 Q153 189 162 156 Q166 139 172.5 124.5 Q179 110 187 96 Z M547 69 Q606 145 606 268 Q606 393 547 467 Q537 480 526 490 L309 2 Q341 -6 377 -6 Q488 -6 547 69 Z " />
<glyph glyph-name="oslash" unicode="&#xf8;" horiz-adv-x="573" d="M479 386 Q550 307 550 177 Q550 47 479 -32 Q408 -109 287 -109 Q250 -109 215 -101 L192 -153 L87 -153 L127 -61 Q119 -54 111 -47 Q103 -40 95 -32 Q25 45 25 177 Q25 310 95 386 Q167 463 287 463 Q324 463 359 455 L383 506 L489 506 L447 415 Q456 408 463.5 401 Q471 394 479 386 Z M132 177 Q132 91 172 40 L318 364 Q310 365 302.5 365.5 Q295 366 287 366 Q213 366 173 315 Q132 263 132 177 Z M401 39 Q442 89 442 177 Q442 264 402 314 L256 -9 Q271 -12 287 -12 Q359 -12 401 39 Z " />
<glyph glyph-name="multiply" unicode="&#xd7;" horiz-adv-x="233" d="M204 237 L168 237 L135 237 L119 252 L103 237 L70 237 L34 237 L76 292 L5 358 L22 358 L60 358 L112 358 L119 350 L125 358 L178 358 L216 358 L232 358 L162 292 L204 237 Z " />
<glyph glyph-name="eth" unicode="&#xf0;" horiz-adv-x="592" d="M368 509 L332 509 L299 509 L283 524 L267 509 L234 509 L198 509 L240 564 L169 630 L186 630 L224 630 L276 630 L283 622 L289 630 L342 630 L380 630 L396 630 L326 564 L368 509 Z M288 -109 Q166 -109 96 -32 Q61 6 43.5 56.5 Q26 107 26 173 Q26 305 96 382 Q166 458 288 458 Q410 458 480 381 Q551 304 551 173 Q551 107 533 56.5 Q515 6 480 -32 Q410 -109 288 -109 Z M174 311 Q133 259 133 173 Q133 128 143.5 96 Q154 64 174 39 Q214 -12 288 -12 Q361 -12 402 39 Q423 65 433 97 Q443 129 443 173 Q443 262 402 310 Q362 362 288 362 Q214 362 174 311 Z " />
<glyph glyph-name="fi" unicode="&#xfb01;" horiz-adv-x="527" d="M381 637 L381 564 L381 538 L355 538 L322 538 L261 538 Q236 538 223 523 Q209 507 209 484 L209 447 L478 447 L478 350 L209 350 L209 -100 L101 -100 L101 350 L57 350 L45 350 L19 350 L19 376 L19 447 L57 447 L101 447 L101 484 Q101 554 143 596 Q186 637 257 637 L322 637 L381 637 Z M371 447 L478 447 L478 -100 L371 -100 L371 447 Z " />
<glyph glyph-name="fl" unicode="&#xfb02;" horiz-adv-x="562" d="M380 629 L380 530 L260 530 Q236 530 221 515 Q207 499 207 476 L207 439 L335 439 L335 342 L207 342 L207 -100 L100 -100 L100 342 L17 342 L17 439 L100 439 L100 476 Q100 546 142 588 Q185 629 256 629 L380 629 Z M557 -1 L557 -100 L478 -100 Q410 -100 370 -62 Q330 -23 330 43 L330 629 L437 629 L437 43 Q437 23 449 11 Q461 -1 482 -1 L557 -1 Z " />
<glyph glyph-name="AE" unicode="&#xc6;" horiz-adv-x="850" d="M458 526 L458 326 L809 326 L809 223 L458 223 L458 4 L819 4 L819 -100 L345 -100 L345 94 L206 94 L134 -100 L17 -100 L286 630 L819 630 L819 526 L458 526 Z M345 197 L345 465 L244 197 L345 197 Z " />
<glyph glyph-name="ae" unicode="&#xe6;" horiz-adv-x="1041" d="M549 143 Q553 111 565.5 78.5 Q578 46 604 20 Q650 -27 729 -27 Q785 -27 825 -2 Q865 23 888 71 L894 89 L979 66 Q952 -17 886 -63 Q819 -109 729 -109 Q676 -109 634 -93.5 Q592 -78 558 -51 L558 -99 L475 -99 L475 -18 Q441 -61 398 -84 Q354 -109 302 -109 Q181 -109 114 -33 Q45 42 45 172 Q45 305 111 382 Q177 459 296 459 Q400 459 471 382 L471 448 L558 448 L558 412 Q592 440 634.5 449 Q677 458 729 458 Q851 458 923 379 Q995 299 995 170 L995 143 L549 143 Z M427 22 Q457 57 466 113 Q464 129 462.5 145.5 Q461 162 461 179 Q461 196 462 212 Q463 228 466 243 Q455 296 424 329 Q377 380 296 380 Q217 380 175 326 Q132 271 132 175 Q132 80 177 25 Q223 -30 302 -30 Q383 -30 427 22 Z M611 336 Q585 312 571.5 286 Q558 260 553 224 L903 224 Q889 296 844 336 Q799 377 729 377 Q656 377 611 336 Z " />
<glyph glyph-name="OE" unicode="&#x152;" horiz-adv-x="1108" d="M724 327 L1075 327 L1075 224 L724 224 L724 4 L1085 4 L1085 -100 L610 -100 L610 -47 Q525 -112 400 -112 Q322 -112 255 -84 Q188 -55 146 -6 Q103 43 80 113 Q56 183 56 265 Q56 377 97 462 Q138 548 216 595 Q294 643 400 643 Q527 643 610 578 L610 631 L1085 631 L1085 527 L724 527 L724 327 Z M610 392 Q597 433 571 465 Q512 539 400 539 Q325 539 273 503 Q220 467 195 406 Q170 347 170 265 Q170 252 171 239 Q172 226 174 213 Q177 185 186 154 Q190 137 196.5 122.5 Q203 108 211 94 Q227 67 252 43 Q277 18 315 5 Q351 -8 400 -8 Q512 -8 571 67 Q596 98 610 139 L610 392 Z " />
<glyph glyph-name="oe" unicode="&#x153;" horiz-adv-x="1025" d="M561 140 Q563 121 568 104.5 Q573 88 580 74 Q593 48 612 30 Q656 -11 723 -11 Q771 -11 808 12 Q843 34 863 75 Q865 79 866.5 82 Q868 85 869 87 Q870 90 871 91 L974 60 Q947 -19 881 -64 Q815 -109 723 -109 Q597 -109 524 -30 Q524 -31 523.5 -31 Q523 -31 523 -32 Q452 -109 331 -109 Q210 -109 139 -32 Q68 47 68 177 Q68 309 139 386 Q209 463 331 463 Q453 463 523 386 Q523 386 525 384 Q597 463 723 463 Q848 463 919 383 Q990 306 992 177 L993 177 L993 140 L561 140 Z M445 40 Q451 48 456 55.5 Q461 63 465 72 Q451 120 451 175 Q451 234 466 282 Q457 300 445 315 Q404 366 331 366 Q257 366 217 315 Q176 267 176 177 Q176 88 217 40 Q257 -11 331 -11 Q404 -11 445 40 Z M880 234 Q867 295 825 331 Q784 366 723 366 Q658 366 619 331 Q594 309 580 281 Q570 260 565 234 L880 234 Z " />
<glyph glyph-name="igrave" unicode="&#xec;" horiz-adv-x="218" d="M64 448 L171 448 L171 -100 L64 -100 L64 448 Z M214 503 L121 503 L-1 629 L122 629 L214 503 Z " />
<glyph glyph-name="iacute" unicode="&#xed;" horiz-adv-x="229" d="M62 -101 L169 -101 L169 447 L62 447 L62 -101 Z M6 503 L98 629 L220 629 L99 503 L6 503 L6 503 Z " />
<glyph glyph-name="icircumflex" unicode="&#xee;" horiz-adv-x="350" d="M123 448 L230 448 L230 -100 L123 -100 L123 448 Z M241 520 L214 548 L213 549 L176 587 L136 548 L109 520 L61 520 L21 520 L4 520 L32 548 L102 617 Q134 646 176 646 Q221 646 250 617 L317 548 L346 520 L241 520 Z " />
<glyph glyph-name="idieresis" unicode="&#xef;" horiz-adv-x="332" d="M114 448 L221 448 L221 -100 L114 -100 L114 448 Z M10 615 L117 615 L117 523 L10 523 L10 615 Z M215 615 L322 615 L322 523 L215 523 L215 615 Z " />
<glyph glyph-name="B" unicode="B" horiz-adv-x="654" d="M556 -47 Q492 -100 381 -100 L50 -100 L50 629 L371 629 Q478 629 538 578 Q598 527 598 435 Q598 327 514 278 Q564 254 591 209 Q618 164 618 103 Q618 7 556 -47 Z M163 321 L365 321 Q422 321 452 348 Q482 375 482 425 Q482 473 452 499 Q420 526 365 526 L163 526 L163 321 Z M375 3 Q435 3 469 32 Q503 60 503 113 Q503 168 469 198 Q436 228 375 228 L163 228 L163 3 L375 3 Z " />
<glyph glyph-name="C" unicode="C" horiz-adv-x="763" d="M199 -60 Q119 -11 81 73 Q61 116 50.5 162.5 Q40 209 40 265 Q40 375 81 462 Q122 548 200 594 Q279 642 385 642 Q510 642 593 578 Q677 513 708 402 L600 374 Q599 378 597 382 Q595 385 594 389 Q593 393 592 395 Q565 462 514 500 Q463 539 385 539 Q311 539 257 503 Q204 465 179 406 Q154 346 154 265 Q154 244 157 222 Q160 200 165 174 Q176 134 195.5 96 Q215 58 252 33 Q280 13 314 4 Q348 -5 385 -5 Q469 -5 522 38 Q575 82 596 153 Q597 155 597.5 159 Q598 163 600 167 Q601 171 603 176 L623 171 Q635 168 656 163 Q677 158 712 150 Q685 30 599 -39 Q511 -109 385 -109 Q280 -109 199 -60 Z " />
<glyph glyph-name="A" unicode="A" horiz-adv-x="681" d="M201 95 L130 -100 L12 -100 L282 629 L401 629 L668 -100 L546 -100 L475 95 L201 95 Z M339 468 L239 198 L437 198 L339 468 Z " />
<glyph glyph-name="quotedblright" unicode="&#x201d;" horiz-adv-x="298" d="M222 647 Q250 647 268 628 Q286 611 286 582 Q286 567 264 502 Q254 471 236 459 Q219 448 185 448 Q179 448 176 451 Q172 456 175 460 L188 503 Q194 523 181 532 Q158 549 158 582 Q158 610 176 628 Q195 647 222 647 Z M74 647 Q102 647 120 628 Q138 611 138 582 Q138 568 117 502 Q105 470 88 459 Q71 448 36 448 Q30 448 27 451 Q25 457 26 460 L40 503 Q46 523 33 532 Q10 549 10 582 Q10 610 28 628 Q47 647 74 647 Z " />
<glyph glyph-name="quotedblleft" unicode="&#x201c;" horiz-adv-x="298" d="M222 647 Q250 647 268 628 Q286 611 286 582 Q286 567 264 502 Q254 471 236 459 Q219 448 185 448 Q179 448 176 451 Q172 456 175 460 L188 503 Q194 523 181 532 Q158 549 158 582 Q158 610 176 628 Q195 647 222 647 Z M74 647 Q102 647 120 628 Q138 611 138 582 Q138 568 117 502 Q105 470 88 459 Q71 448 36 448 Q30 448 27 451 Q25 457 26 460 L40 503 Q46 523 33 532 Q10 549 10 582 Q10 610 28 628 Q47 647 74 647 Z " />
<glyph glyph-name="quoteleft" unicode="&#x2018;" horiz-adv-x="150" d="M77 641 Q104 641 122 623 Q140 605 140 576 Q140 562 119 495 Q109 465 90 453 Q72 441 39 441 Q34 441 30 445 Q27 450 28 454 L42 497 Q48 517 36 526 Q12 542 12 576 Q12 604 31 622 Q50 641 77 641 Z " />
<glyph glyph-name="quoteright" unicode="&#x2019;" horiz-adv-x="151" d="M77 641 Q104 641 122 623 Q140 605 140 576 Q140 562 119 495 Q109 465 90 453 Q72 441 39 441 Q34 441 30 445 Q27 450 28 454 L42 497 Q48 517 36 526 Q12 542 12 576 Q12 604 31 622 Q50 641 77 641 Z " />
</font>
</svg>
