<?xml version="1.0" encoding="UTF-8"?>
<svg xmlns="http://www.w3.org/2000/svg" xmlns:xlink="http://www.w3.org/1999/xlink" version="1.2" >
<font id="Noirden Bold Oblique">
<font-face  font-family="Noirden" units-per-em="1000" ascent="750" descent="-250" font-style="normal" font-weight="400" font-stretch="normal" cap-height="900" x-height="700" underline-position="-75" underline-thickness="50" />
<missing-glyph  horiz-adv-x="197" d="" />
<glyph glyph-name="NULL" d="" />
<glyph glyph-name="CR" unicode="&#xd;" horiz-adv-x="197" d="" />
<glyph glyph-name="space" unicode="&#x20;" horiz-adv-x="197" d="" />
<glyph glyph-name="exclam" unicode="&#x21;" horiz-adv-x="213" d="M211 629 L95 629 L43 332 C39 307 35 279 30 250 C23 192 12 136 9 80 L100 80 C123 168 131 207 142 250 C148 279 155 307 159 333 L211 629 L211 629 Z M-11 -4 L-27 -96 L80 -96 L96 -4 L-11 -4 L-11 -4 Z " />
<glyph glyph-name="quotedbl" unicode="&#x22;" horiz-adv-x="295" d="M240 647 C221 647 205 640 191 628 C176 616 168 601 164 582 C160 560 165 543 178 532 C186 526 186 516 179 503 L158 460 C156 457 156 454 158 451 C159 449 162 448 166 448 C188 448 206 451 219 459 C233 467 244 481 255 502 C278 546 290 573 292 582 C296 601 293 617 283 628 C273 641 259 647 240 647 L240 647 Z M92 647 C74 647 57 640 43 628 C28 616 20 601 16 582 C12 560 17 543 30 532 C38 526 38 516 31 503 L9 460 C8 457 8 454 9 451 C10 449 13 448 17 448 C40 448 58 451 71 459 C85 467 96 481 108 502 C130 546 142 573 144 582 C148 601 145 617 135 628 C125 641 111 647 92 647 L92 647 Z " />
<glyph glyph-name="numbersign" unicode="&#x23;" horiz-adv-x="624" d="M613 630 L516 630 L441 435 L295 435 L370 630 L272 630 L197 435 L115 435 L77 337 L160 337 L105 191 L21 191 L-15 94 L67 94 L-6 -100 L90 -100 L165 94 L311 94 L236 -100 L334 -100 L409 94 L491 94 L528 191 L446 191 L501 337 L584 337 L622 435 L538 435 L613 630 L613 630 Z M348 191 L202 191 L258 337 L404 337 L348 191 L348 191 Z " />
<glyph glyph-name="dollar" unicode="&#x24;" horiz-adv-x="577" d="M519 248 C486 283 433 310 358 328 L354 329 L388 531 C420 520 455 502 491 475 C494 472 507 462 507 462 L591 543 C545 595 483 626 406 638 L421 730 L317 730 L302 638 C236 632 180 612 137 580 C94 547 66 501 56 443 C39 343 97 279 226 249 L236 247 L194 -6 C141 2 96 22 62 55 C51 63 46 68 46 68 L-37 -11 C14 -69 86 -102 176 -109 L158 -219 L262 -219 L280 -109 C354 -103 416 -81 464 -44 C512 -7 543 45 554 110 C564 166 551 211 519 248 L519 248 Z M186 389 C171 405 165 424 168 445 C175 476 191 500 218 516 C236 527 258 534 285 537 L254 354 C223 362 200 373 186 389 L186 389 Z M378 25 C355 9 328 -1 298 -6 L336 223 C372 213 400 199 417 180 C437 158 444 134 439 107 C432 75 412 48 378 25 L378 25 Z " />
<glyph glyph-name="percent" unicode="&#x25;" horiz-adv-x="646" d="M458 175 C418 175 381 161 350 134 C317 106 297 73 290 33 C283 -7 292 -40 315 -68 C337 -95 369 -109 409 -109 C449 -109 484 -95 517 -68 C549 -40 568 -7 575 33 C582 73 574 106 552 134 C528 161 498 175 458 175 L458 175 Z M476 -18 C458 -33 440 -40 421 -40 C401 -40 385 -33 374 -18 C362 -4 358 13 361 33 C365 53 375 70 391 85 C408 99 426 106 446 106 C465 106 481 99 493 85 C505 70 510 53 506 33 C503 13 492 -4 476 -18 L476 -18 Z M186 362 C226 362 262 376 294 403 C326 431 345 464 352 504 C359 544 351 577 328 605 C306 632 274 646 234 646 C195 646 159 632 127 605 C94 577 75 544 68 504 C61 464 69 431 93 403 C115 376 147 362 186 362 L186 362 Z M169 555 C185 569 203 577 222 577 C242 577 258 569 271 555 C282 541 287 523 284 504 C280 484 270 467 253 453 C236 438 217 431 197 431 C178 431 163 438 151 453 C140 467 135 484 139 504 C142 524 152 541 169 555 L169 555 Z M623 634 L577 634 L-38 -96 L18 -96 L66 -96 L679 634 L623 634 L623 634 Z " />
<glyph glyph-name="ampersand" unicode="&#x26;" horiz-adv-x="744" d="M657 5 C625 5 600 17 580 42 L568 58 C613 110 650 173 681 247 L586 276 C586 276 581 260 578 255 C559 212 534 172 505 135 L355 321 C436 368 483 421 493 480 C501 528 490 567 463 597 C436 627 397 642 344 642 C293 642 249 628 215 600 C180 572 159 535 151 488 C143 440 160 391 202 339 L163 319 C60 266 1 199 -12 117 C-23 49 -7 -6 34 -48 C77 -90 137 -111 217 -111 C315 -111 405 -80 485 -19 L500 -39 C514 -57 532 -72 555 -82 C577 -93 600 -98 622 -98 L668 -98 L672 -73 L685 5 L657 5 L657 5 Z M280 531 C294 543 309 549 328 549 C349 549 365 543 376 529 C387 516 391 498 387 476 C385 462 377 448 363 434 C349 421 333 409 315 399 L299 391 L293 399 C278 416 269 431 262 444 C256 456 253 470 256 484 C259 504 268 520 280 531 L280 531 Z M235 -10 C189 -10 153 1 127 24 C102 47 91 77 98 115 C102 139 111 160 126 177 C142 194 163 210 191 226 L260 267 L426 57 C368 12 304 -10 235 -10 L235 -10 Z " />
<glyph glyph-name="quotesingle" unicode="&#x27;" horiz-adv-x="151" d="M93 641 C74 641 58 634 44 622 C29 610 20 595 17 576 C14 554 19 537 33 526 C40 520 40 510 34 497 L13 454 C12 451 12 448 14 445 C16 443 18 441 22 441 C44 441 62 445 75 453 C89 461 101 475 111 495 C132 540 144 567 145 576 C148 595 145 611 135 623 C125 635 111 641 93 641 L93 641 Z " />
<glyph glyph-name="parenleft" unicode="&#x28;" horiz-adv-x="262" d="M297 631 C303 640 316 658 316 658 L246 700 C139 559 70 405 42 238 C28 159 27 80 35 3 C45 -75 61 -147 83 -213 L171 -175 C171 -175 168 -165 162 -147 C148 -94 139 -34 135 34 C131 103 134 171 146 238 C160 324 179 399 204 462 C228 526 259 582 297 631 L297 631 Z " />
<glyph glyph-name="parenright" unicode="&#x29;" horiz-adv-x="256" d="M92 632 C113 583 125 527 128 463 C130 400 124 325 110 239 C98 172 79 104 51 35 C23 -33 -6 -93 -37 -146 C-49 -164 -56 -174 -56 -174 L18 -212 C63 -146 103 -74 138 4 C175 81 199 160 213 239 C241 406 226 560 167 701 L82 659 C82 659 88 641 92 632 L92 632 Z " />
<glyph glyph-name="asterisk" unicode="&#x2a;" horiz-adv-x="448" d="M417 478 L403 557 L259 494 L299 641 L216 641 L208 494 L84 557 L45 478 L185 445 L67 336 L127 287 L221 416 L274 287 L350 336 L267 446 L417 478 L417 478 Z " />
<glyph glyph-name="plus" unicode="&#x2b;" horiz-adv-x="564" d="M378 518 L271 518 L235 311 L37 311 L19 209 L217 209 L180 0 L287 0 L324 209 L522 209 L540 311 L342 311 L378 518 L378 518 Z " />
<glyph glyph-name="comma" unicode="&#x2c;" horiz-adv-x="151" d="M94 -52 C76 -52 59 -58 45 -70 C31 -82 22 -98 19 -117 C15 -139 21 -156 34 -167 C42 -173 42 -183 36 -196 L15 -239 C13 -242 14 -245 14 -248 C16 -250 19 -251 23 -251 C46 -251 64 -247 77 -240 C90 -232 101 -218 113 -197 C134 -153 146 -126 147 -117 C150 -98 147 -82 137 -70 C127 -58 113 -52 94 -52 L94 -52 Z " />
<glyph glyph-name="hyphen" unicode="&#x2d;" horiz-adv-x="481" d="M9 211 L455 211 L470 301 L24 301 L9 211 L9 211 Z " />
<glyph glyph-name="period" unicode="&#x2e;" horiz-adv-x="144" d="M83 19 C64 19 48 13 34 1 C20 -11 11 -27 7 -46 C4 -64 8 -79 18 -91 C28 -103 43 -109 62 -109 C80 -109 96 -103 110 -92 C124 -80 132 -64 135 -46 C139 -27 135 -11 125 1 C115 13 101 19 83 19 L83 19 Z " />
<glyph glyph-name="slash" unicode="&#x2f;" horiz-adv-x="569" d="M-59 -203 L46 -203 L632 751 L526 751 L-59 -203 L-59 -203 Z " />
<glyph glyph-name="zero" unicode="0" horiz-adv-x="633" d="M255 -109 C342 -109 415 -76 474 -9 C534 57 574 151 595 273 C616 392 608 483 571 548 C535 613 473 646 386 646 C299 646 227 613 167 548 C108 483 68 392 47 273 C26 151 34 57 70 -9 C107 -76 168 -109 255 -109 L255 -109 Z M238 470 C275 517 318 541 368 541 C418 541 453 517 473 470 C493 422 496 357 481 273 C466 186 440 117 403 69 C366 20 323 -5 273 -5 C223 -5 188 20 168 69 C148 117 146 186 161 273 C176 357 201 423 238 470 L238 470 Z " />
<glyph glyph-name="one" unicode="1" horiz-adv-x="326" d="M346 635 L250 635 L250 632 C234 584 212 511 212 511 L58 512 L46 438 L200 437 L108 -100 L221 -100 L346 635 L346 635 Z " />
<glyph glyph-name="two" unicode="2" horiz-adv-x="558" d="M100 54 C121 89 145 108 175 126 C226 156 281 179 333 201 C366 217 397 231 425 250 C455 271 480 294 499 322 C525 354 537 394 542 427 C558 520 509 595 433 624 C401 636 364 643 320 643 C291 643 262 638 234 629 C154 604 81 547 45 480 L127 428 C127 428 137 442 140 447 C181 509 236 540 306 540 C348 540 381 530 403 509 C427 488 435 461 429 426 C419 365 375 330 321 306 C291 289 262 276 235 264 C161 227 94 191 38 135 C-8 85 -28 22 -34 -31 L-46 -100 L441 -100 L459 2 L86 2 C89 24 94 40 100 54 L100 54 Z " />
<glyph glyph-name="three" unicode="3" horiz-adv-x="530" d="M494 222 C482 252 461 276 431 295 C493 332 529 383 540 449 C547 489 542 524 524 554 C507 584 481 607 447 623 C413 638 374 646 329 646 C267 646 211 630 162 601 C114 570 80 533 59 487 L135 435 C135 435 140 444 148 455 C167 482 190 506 219 521 C247 536 279 544 314 544 C351 544 380 535 402 516 C423 498 431 474 426 445 C421 413 404 388 379 368 C353 349 319 339 279 339 L257 339 L219 339 L199 339 L195 319 L183 249 L241 249 L263 249 C312 249 347 238 368 215 C390 192 398 161 391 121 C384 83 365 52 333 28 C302 4 264 -8 221 -8 C187 -8 157 1 132 19 C106 37 88 60 79 87 C77 92 74 102 74 102 L-22 51 C-18 8 4 -30 43 -62 C83 -93 136 -109 202 -109 C251 -109 296 -100 339 -82 C382 -64 417 -37 448 -2 C478 33 496 73 504 119 C510 158 507 193 494 222 L494 222 Z " />
<glyph glyph-name="four" unicode="4" horiz-adv-x="557" d="M437 146 L520 630 L406 630 L6 146 L-10 45 L306 45 L281 -100 L395 -100 L420 45 L507 45 L524 146 L437 146 L437 146 Z M323 146 L126 146 L374 444 L369 415 L323 146 L323 146 Z " />
<glyph glyph-name="five" unicode="5" horiz-adv-x="555" d="M233 -13 C198 -13 171 -4 150 12 C128 28 116 50 112 76 C111 83 108 100 108 100 L-3 61 C1 8 23 -34 63 -66 C104 -98 156 -114 220 -114 C291 -114 355 -91 411 -46 C466 -1 500 56 512 125 C524 194 509 251 471 295 C433 340 379 363 308 363 C263 363 219 353 178 333 L226 528 L538 528 L555 629 L137 629 L34 207 L147 207 C163 224 183 237 207 247 C231 256 256 261 282 261 C321 261 352 248 375 222 C396 196 404 164 397 125 C390 87 371 54 340 27 C309 1 272 -13 233 -13 L233 -13 Z " />
<glyph glyph-name="six" unicode="6" horiz-adv-x="596" d="M245 -109 C286 -109 323 -103 359 -91 C394 -78 425 -62 451 -40 C476 -19 497 6 514 33 C531 62 542 92 548 123 C559 191 547 248 511 294 C475 340 422 363 352 363 C315 363 280 357 247 345 C213 333 187 317 168 295 C181 370 206 430 243 474 C280 519 322 541 371 541 C401 541 427 533 446 518 C466 503 479 482 486 455 C489 451 492 437 492 437 L595 486 C584 537 562 576 529 604 C496 632 450 646 393 646 C307 646 233 612 172 546 C111 479 70 390 51 277 C27 138 32 38 67 -24 C100 -81 159 -109 245 -109 L245 -109 Z M208 231 C239 251 278 261 326 261 C365 261 395 248 414 221 C435 195 441 162 435 123 C428 85 410 54 380 31 C351 7 313 -5 268 -5 C218 -5 183 12 164 46 C149 70 144 100 150 135 C157 179 177 211 208 231 L208 231 Z " />
<glyph glyph-name="seven" unicode="7" horiz-adv-x="519" d="M65 630 L50 529 L439 529 C435 504 426 477 410 448 C395 420 375 392 354 365 C332 337 307 309 281 280 C255 251 228 222 201 191 C173 161 148 130 125 100 C100 69 79 37 60 2 C41 -33 27 -67 19 -100 L152 -100 C159 -69 171 -38 188 -6 C206 26 225 56 247 84 C270 112 293 141 318 170 C343 199 368 228 392 257 C417 286 439 315 461 344 C481 373 499 405 515 438 C531 471 541 504 546 537 L560 630 L65 630 L65 630 Z " />
<glyph glyph-name="eight" unicode="8" horiz-adv-x="519" d="M479 226 C466 256 446 280 416 298 C475 331 509 380 521 445 C531 505 519 554 484 591 C449 627 397 646 327 646 C256 646 197 627 148 591 C99 554 69 505 59 445 C53 413 54 385 64 360 C73 335 90 314 113 299 C76 280 45 256 22 226 C0 195 -15 161 -23 121 C-35 51 -22 -4 17 -46 C56 -88 116 -109 194 -109 C271 -109 335 -88 389 -46 C442 -4 475 52 487 121 C495 161 492 195 479 226 L479 226 Z M215 516 C240 535 271 544 309 544 C346 544 373 535 389 516 C407 497 413 472 407 441 C402 410 387 386 363 368 C340 349 310 340 273 340 C235 340 207 349 189 368 C170 386 165 410 170 441 C176 472 190 497 215 516 L215 516 Z M319 28 C290 4 255 -8 212 -8 C167 -8 134 4 113 28 C91 51 84 82 90 121 C97 160 116 191 146 214 C175 237 212 249 257 249 C300 249 331 237 352 214 C373 191 379 160 372 121 C366 82 348 51 319 28 L319 28 Z " />
<glyph glyph-name="nine" unicode="9" horiz-adv-x="582" d="M544 268 C552 314 557 355 558 392 C560 428 557 463 550 495 C544 527 533 553 517 575 C502 596 480 613 453 625 C425 637 392 643 353 643 C304 643 257 633 215 614 C171 594 135 565 106 529 C78 492 58 450 50 403 C39 336 51 281 86 238 C123 194 175 173 244 173 C280 173 315 178 348 189 C381 200 407 216 424 237 C408 151 382 88 348 49 C313 10 269 -10 217 -10 C187 -10 160 -1 136 16 C111 34 95 56 88 82 C87 87 85 102 85 102 L-16 54 C-6 3 16 -36 53 -65 C90 -95 138 -109 197 -109 C385 -109 500 17 544 268 L544 268 Z M390 305 C359 285 320 275 275 275 C234 275 204 287 184 312 C166 336 158 368 165 408 C172 448 192 481 223 505 C254 530 289 542 329 542 C372 542 405 529 427 503 C448 477 455 442 447 399 C440 357 421 325 390 305 L390 305 Z " />
<glyph glyph-name="colon" unicode="&#x3a;" horiz-adv-x="175" d="M135 504 C117 504 100 498 86 485 C72 473 64 458 60 440 C57 421 60 405 70 393 C80 381 95 375 113 375 C131 375 148 381 162 393 C176 405 185 421 188 440 C192 458 188 473 178 485 C168 498 153 504 135 504 L135 504 Z M60 61 C42 61 25 55 11 43 C-2 31 -11 15 -14 -4 C-18 -22 -14 -37 -4 -49 C5 -61 19 -67 38 -67 C56 -67 73 -61 87 -50 C101 -38 109 -22 113 -4 C116 15 113 31 103 43 C93 55 78 61 60 61 L60 61 Z " />
<glyph glyph-name="semicolon" unicode="&#x3b;" horiz-adv-x="172" d="M59 58 C41 58 25 52 10 40 C-3 28 -12 12 -15 -7 C-19 -29 -14 -46 -1 -57 C6 -63 6 -73 0 -86 L-19 -129 C-22 -132 -21 -135 -20 -138 C-18 -140 -17 -141 -12 -141 C9 -141 27 -137 40 -130 C54 -122 66 -108 77 -87 C99 -43 110 -16 112 -7 C115 12 112 28 102 40 C92 52 78 58 59 58 L59 58 Z M137 504 C118 504 102 498 88 486 C73 474 65 459 62 440 C58 421 62 406 72 394 C82 382 96 376 114 376 C133 376 149 382 164 394 C178 406 186 421 190 440 C193 459 189 474 180 486 C170 498 156 504 137 504 L137 504 Z " />
<glyph glyph-name="less" unicode="&#x3c;" horiz-adv-x="588" d="M30 260 L495 42 L514 153 C514 153 496 161 488 164 L193 300 L535 436 C543 439 565 448 565 448 L584 558 L44 342 L30 260 L30 260 Z " />
<glyph glyph-name="equal" unicode="&#x3d;" horiz-adv-x="635" d="M84 333 L587 333 L604 434 L101 434 L84 333 L84 333 Z M54 150 L557 150 L574 251 L71 251 L54 150 L54 150 Z " />
<glyph glyph-name="greater" unicode="&#x3e;" horiz-adv-x="590" d="M548 260 L562 342 L96 558 L77 448 C77 448 94 439 102 436 L398 300 L55 164 C47 161 26 153 26 153 L7 42 L548 260 L548 260 Z " />
<glyph glyph-name="question" unicode="&#x3f;" horiz-adv-x="473" d="M453 588 C417 624 365 641 296 641 C267 641 240 637 212 627 C185 617 162 606 144 591 C125 577 108 561 93 543 C78 525 66 508 58 493 C49 477 42 463 38 450 L125 416 C125 416 130 424 136 437 C141 448 147 459 155 470 C162 480 171 491 184 504 C196 516 209 525 227 533 C243 540 260 544 278 544 C314 544 341 535 360 516 C378 498 385 474 380 443 C377 424 367 405 352 386 C337 368 320 351 300 334 C280 318 260 301 240 284 C221 267 203 246 187 222 C172 198 162 173 158 145 L148 82 L229 82 C229 82 235 96 237 102 L255 149 C262 167 271 183 282 199 C294 213 306 227 320 238 C333 249 347 259 361 270 C376 281 390 292 404 304 C418 315 430 327 442 340 C454 354 464 369 473 388 C482 406 489 426 493 448 C503 506 490 553 453 588 L453 588 Z M123 -1 L107 -93 L214 -93 L230 -1 L123 -1 L123 -1 Z " />
<glyph glyph-name="at" unicode="&#x40;" horiz-adv-x="970" d="M947 353 C933 409 908 458 873 498 C838 538 794 571 741 594 C687 618 628 630 564 630 C512 630 462 622 411 607 C361 592 314 571 271 542 C229 515 190 482 155 444 C119 407 91 364 68 317 C44 270 29 221 21 170 C13 127 12 86 16 46 C20 5 29 -32 43 -65 C57 -99 75 -130 100 -158 C123 -186 151 -210 182 -229 C212 -249 248 -264 286 -275 C325 -285 366 -291 409 -291 C466 -291 522 -282 577 -263 C631 -245 681 -219 726 -186 L679 -111 C679 -111 673 -116 658 -124 C585 -170 507 -193 426 -193 C359 -193 300 -177 250 -145 C200 -113 165 -69 143 -13 C121 42 115 103 127 170 C138 237 164 298 204 353 C245 408 295 452 355 484 C417 516 480 532 547 532 C598 532 645 523 687 505 C723 489 755 468 779 442 L687 442 L678 386 C642 431 590 453 524 453 C444 453 378 428 325 377 C273 327 239 257 224 168 C210 81 220 13 258 -38 C295 -89 352 -114 430 -114 C496 -114 557 -87 613 -32 C615 -31 616 -29 617 -28 C621 -32 625 -35 630 -37 C661 -61 711 -67 764 -57 C798 -50 838 -31 878 13 C898 34 915 58 927 85 C940 112 949 142 955 176 C965 238 963 297 947 353 L947 353 Z M641 168 C631 108 610 61 578 29 C573 26 570 22 565 18 C558 13 551 8 544 4 C518 -11 489 -19 455 -19 C406 -19 371 -2 349 32 C328 66 322 112 332 169 C341 228 362 274 394 308 C426 342 466 358 514 358 C563 358 600 343 622 311 C646 279 652 233 643 176 L641 168 L641 168 Z M767 41 C735 32 730 54 730 54 L793 426 C818 396 835 359 846 317 C857 273 858 226 850 176 C837 103 810 59 767 41 L767 41 Z " />
<glyph glyph-name="A" unicode="A" horiz-adv-x="681" d="M172 95 L446 95 L483 -100 L605 -100 L463 629 L344 629 L-50 -100 L67 -100 L172 95 L172 95 Z M373 468 L425 198 L227 198 L373 468 L373 468 Z " />
<glyph glyph-name="B" unicode="B" horiz-adv-x="654" d="M502 -47 C549 -11 579 39 590 103 C597 144 594 179 581 209 C568 239 546 262 516 278 C578 311 614 363 627 435 C637 496 625 544 591 578 C557 612 504 629 433 629 L112 629 L-12 -100 L318 -100 C392 -100 454 -82 502 -47 L502 -47 Z M207 526 L409 526 C446 526 474 517 492 499 C509 482 515 457 509 425 C503 391 489 366 466 348 C443 330 411 321 374 321 L172 321 L207 526 L207 526 Z M118 3 L156 228 L368 228 C409 228 439 218 457 198 C477 178 483 150 477 113 C471 78 455 51 429 32 C404 13 371 3 330 3 L118 3 L118 3 Z " />
<glyph glyph-name="C" unicode="C" horiz-adv-x="763" d="M145 -60 C192 -92 252 -109 323 -109 C408 -109 483 -85 548 -39 C613 7 661 70 692 150 C604 172 588 176 588 176 C588 176 580 160 577 153 C555 105 524 67 484 38 C443 9 396 -5 340 -5 C291 -5 246 6 213 33 C170 66 156 121 149 174 C148 209 149 237 153 265 C162 318 178 365 202 406 C225 446 256 478 296 503 C336 527 380 539 430 539 C482 539 522 526 552 500 C582 475 602 440 613 395 C614 389 617 374 617 374 L730 402 C721 476 692 535 644 578 C595 621 530 642 447 642 C376 642 312 626 254 594 C197 563 149 518 113 462 C76 405 52 340 39 265 C27 191 31 130 49 73 C65 16 98 -28 145 -60 L145 -60 Z " />
<glyph glyph-name="D" unicode="D" horiz-adv-x="689" d="M527 -3 C599 63 644 151 664 264 C683 376 668 465 621 531 C573 596 496 629 389 629 L113 629 L-13 -100 L262 -100 C368 -100 457 -68 527 -3 L527 -3 Z M209 526 L371 526 C444 526 495 503 526 456 C556 410 564 346 550 264 C535 182 506 119 460 73 C414 26 354 3 280 3 L118 3 L209 526 L209 526 Z " />
<glyph glyph-name="E" unicode="E" horiz-adv-x="565" d="M479 3 L118 3 L156 222 L507 222 L525 325 L174 325 L209 526 L570 526 L588 629 L113 629 L-13 -100 L461 -100 L479 3 L479 3 Z " />
<glyph glyph-name="F" unicode="F" horiz-adv-x="564" d="M154 218 L505 218 L524 321 L173 321 L209 526 L570 526 L588 629 L114 629 L-14 -100 L98 -100 L154 218 L154 218 Z " />
<glyph glyph-name="G" unicode="G" horiz-adv-x="770" d="M141 -60 C188 -92 247 -109 318 -109 C427 -109 516 -74 588 -6 C659 62 704 156 726 284 L480 284 L386 284 L369 185 L463 185 L588 185 C545 56 461 -5 336 -5 C243 -5 178 41 155 122 C142 170 143 217 151 265 C160 318 177 365 200 406 C224 446 256 478 295 503 C335 527 379 539 429 539 C481 539 522 526 552 500 C581 474 601 439 612 395 C615 380 617 373 617 373 L729 402 C720 476 692 535 644 578 C595 621 530 642 447 642 C376 642 312 626 254 594 C196 563 149 518 112 462 C75 405 51 340 38 265 C26 191 28 130 45 73 C62 16 94 -28 141 -60 L141 -60 Z " />
<glyph glyph-name="H" unicode="H" horiz-adv-x="622" d="M142 222 L476 222 L419 -100 L533 -100 L662 629 L548 629 L494 325 L160 325 L214 629 L100 629 L-28 -100 L85 -100 L142 222 L142 222 Z " />
<glyph glyph-name="I" unicode="I" horiz-adv-x="213" d="M226 629 L113 629 L-13 -100 L99 -100 L226 629 L226 629 Z " />
<glyph glyph-name="J" unicode="J" horiz-adv-x="527" d="M455 130 L541 629 L427 629 L342 132 C334 88 318 54 293 31 C268 7 237 -5 199 -5 C170 -5 148 4 131 21 C114 38 103 63 100 94 C97 107 97 115 97 115 L-12 87 C-8 24 10 -25 43 -58 C77 -92 124 -109 183 -109 C257 -109 318 -88 365 -46 C412 -5 442 54 455 130 L455 130 Z " />
<glyph glyph-name="K" unicode="K" horiz-adv-x="676" d="M146 162 L249 253 L442 -100 L572 -100 L336 329 L675 629 L532 629 L172 313 L226 629 L112 629 L-12 -100 L101 -100 L146 162 L146 162 Z " />
<glyph glyph-name="L" unicode="L" horiz-adv-x="533" d="M470 3 L117 3 L226 629 L113 629 L-13 -100 L452 -100 L470 3 L470 3 Z " />
<glyph glyph-name="M" unicode="M" horiz-adv-x="854" d="M182 372 C186 391 191 423 191 423 L304 -100 L420 -100 L717 423 C717 423 712 393 708 373 L626 -100 L740 -100 L867 629 L720 629 L387 39 L267 629 L113 629 L-13 -100 L100 -100 L182 372 L182 372 Z " />
<glyph glyph-name="N" unicode="N" horiz-adv-x="700" d="M186 395 C189 413 197 454 197 454 L463 -100 L586 -100 L713 629 L600 629 L514 134 C511 115 504 75 504 75 L237 629 L113 629 L-13 -100 L100 -100 L186 395 L186 395 Z " />
<glyph glyph-name="O" unicode="O" horiz-adv-x="774" d="M181 -81 C221 -100 268 -109 321 -109 C427 -109 517 -75 589 -6 C663 62 708 154 728 268 C747 382 732 473 683 542 C633 611 555 645 448 645 C377 645 313 629 255 598 C198 566 151 522 115 465 C78 408 53 343 41 268 C31 213 31 162 39 116 C46 69 62 30 85 -4 C108 -37 140 -63 181 -81 L181 -81 Z M203 409 C227 449 258 482 297 506 C337 530 382 542 431 542 C506 542 558 517 589 467 C620 418 628 351 615 268 C601 185 569 119 522 69 C475 19 413 -6 338 -6 C283 -6 229 9 199 45 C171 79 155 115 151 156 C148 194 148 230 155 268 C163 321 179 368 203 409 L203 409 Z " />
<glyph glyph-name="P" unicode="P" horiz-adv-x="613" d="M153 200 L332 200 C407 200 469 219 516 257 C565 294 595 347 606 415 C618 482 606 535 570 573 C536 610 480 629 405 629 L112 629 L-12 -100 L101 -100 L153 200 L153 200 Z M208 526 L381 526 C422 526 453 516 472 497 C492 478 498 450 492 415 C486 379 470 352 444 333 C418 313 384 303 343 303 L170 303 L208 526 L208 526 Z " />
<glyph glyph-name="Q" unicode="Q" horiz-adv-x="774" d="M634 -198 L555 -44 C603 -11 642 32 674 86 C706 139 728 200 739 268 C758 382 744 473 694 542 C645 611 566 645 459 645 C388 645 325 629 268 598 C209 566 163 522 126 465 C90 408 66 343 53 268 C44 213 42 162 51 116 C64 25 113 -46 192 -81 C232 -100 280 -109 333 -109 C378 -109 419 -103 458 -91 L510 -198 L634 -198 Z M350 -6 C319 -6 291 -1 267 8 C223 24 196 57 178 96 C154 146 157 213 166 268 C175 321 191 368 215 409 C238 449 270 482 309 506 C348 530 393 542 442 542 C517 542 570 517 600 467 C631 418 640 351 626 268 C609 169 570 95 509 46 L497 69 L379 69 C383 59 383 58 411 1 C394 -3 373 -6 350 -6 L350 -6 Z " />
<glyph glyph-name="R" unicode="R" horiz-adv-x="675" d="M155 218 L282 218 L448 -100 L584 -100 L412 220 C477 225 530 246 572 282 C613 317 638 365 649 424 C660 489 648 540 614 575 C578 611 523 629 448 629 L114 629 L-14 -100 L99 -100 L155 218 L155 218 Z M210 526 L424 526 C464 526 494 517 514 499 C534 481 540 456 535 424 C529 392 514 367 488 349 C461 331 428 322 388 322 L174 322 L210 526 L210 526 Z " />
<glyph glyph-name="S" unicode="S" horiz-adv-x="615" d="M390 27 C355 4 312 -8 261 -8 C184 -8 120 14 72 57 C62 66 57 71 57 71 L-26 -9 C4 -43 39 -68 81 -85 C124 -101 176 -109 239 -109 C327 -109 401 -91 459 -53 C517 -15 553 40 566 112 C575 168 564 214 532 250 C499 286 446 313 372 331 L269 356 C238 364 214 375 199 391 C184 408 178 426 183 447 C195 511 249 543 344 543 C392 543 446 521 504 478 C508 475 520 465 520 465 L605 546 C546 611 466 643 366 643 C286 643 219 626 166 593 C113 559 81 510 69 445 C65 418 65 393 73 371 C79 349 90 330 107 315 C123 299 143 287 164 277 C186 266 211 258 239 252 L332 230 C376 220 409 204 429 182 C449 161 456 136 450 110 C445 78 424 50 390 27 L390 27 Z " />
<glyph glyph-name="T" unicode="T" horiz-adv-x="594" d="M174 -100 L287 -100 L391 526 L602 526 L619 629 L84 629 L67 526 L278 526 L174 -100 L174 -100 Z " />
<glyph glyph-name="U" unicode="U" horiz-adv-x="665" d="M78 -45 C99 -68 126 -84 157 -94 C188 -104 225 -109 267 -109 C300 -109 332 -106 360 -100 C388 -94 416 -84 442 -69 C469 -54 493 -36 513 -13 C533 10 551 39 568 74 C583 109 595 149 603 195 L680 629 L566 629 L489 195 C477 130 456 80 424 46 C391 11 345 -6 285 -6 C225 -6 185 11 166 46 C146 80 140 130 152 195 L228 629 L115 629 L38 195 C28 138 26 90 33 50 C40 9 55 -22 78 -45 L78 -45 Z " />
<glyph glyph-name="V" unicode="V" horiz-adv-x="665" d="M293 52 L198 629 L77 629 L208 -100 L328 -100 L715 629 L597 629 L293 52 L293 52 Z " />
<glyph glyph-name="W" unicode="W" horiz-adv-x="997" d="M273 -100 L536 447 C536 447 536 424 590 -100 L706 -100 L1059 629 L947 629 L686 83 L630 629 L512 629 L250 83 L194 629 L73 629 L154 -100 L273 -100 L273 -100 Z " />
<glyph glyph-name="X" unicode="X" horiz-adv-x="739" d="M87 -100 L357 195 L525 -100 L668 -100 L445 288 L755 629 L619 629 L393 380 L250 629 L108 629 L303 286 L-47 -100 L87 -100 L87 -100 Z " />
<glyph glyph-name="Y" unicode="Y" horiz-adv-x="644" d="M201 -100 L315 -100 L376 248 L696 629 L565 629 L337 354 L208 629 L73 629 L262 248 L201 -100 L201 -100 Z " />
<glyph glyph-name="Z" unicode="Z" horiz-adv-x="597" d="M631 629 L87 629 L70 526 L471 526 L-16 3 L-33 -100 L510 -100 L527 3 L124 3 L614 526 L631 629 L631 629 Z " />
<glyph glyph-name="bracketleft" unicode="&#x5b;" horiz-adv-x="284" d="M278 720 L131 720 L-31 -233 L127 -233 L170 -233 L184 -154 L187 -132 L165 -132 L144 -132 L94 -132 L223 619 L261 619 L294 619 L316 619 L320 641 L333 720 L278 720 L278 720 Z " />
<glyph glyph-name="backslash" unicode="&#x5c;" horiz-adv-x="585" d="M99 723 L362 -231 L467 -231 L206 723 L99 723 L99 723 Z " />
<glyph glyph-name="bracketright" unicode="&#x5d;" horiz-adv-x="279" d="M108 722 L91 621 L185 621 L54 -130 L-39 -130 L-56 -232 L146 -232 L311 722 L108 722 Z " />
<glyph glyph-name="asciicircum" unicode="&#x5e;" horiz-adv-x="413" d="M276 698 L179 698 L-3 449 L78 449 L94 449 L131 501 L215 614 L261 503 L261 503 L284 449 L300 449 L382 449 L276 698 L276 698 Z " />
<glyph glyph-name="underscore" unicode="&#x5f;" horiz-adv-x="540" d="M35 -100 L481 -100 L498 -11 L52 -11 L35 -100 L35 -100 Z " />
<glyph glyph-name="grave" unicode="&#x60;" horiz-adv-x="259" d="M236 503 L165 629 L42 629 L143 503 L236 503 L236 503 Z " />
<glyph glyph-name="a" unicode="a" horiz-adv-x="593" d="M494 448 L484 391 C448 436 396 458 330 458 C249 458 183 433 130 382 C78 332 44 262 29 172 C15 86 26 19 63 -32 C100 -83 158 -109 236 -109 C304 -109 366 -80 423 -22 L418 -49 L413 -78 L410 -98 L431 -98 L509 -98 L517 -49 L601 448 L494 448 L494 448 Z M447 172 C437 112 416 67 383 35 C351 3 310 -13 261 -13 C212 -13 177 4 156 38 C133 72 128 116 138 174 C147 233 168 279 200 313 C231 346 271 363 320 363 C368 363 405 347 428 315 C451 283 458 238 449 180 L447 172 L447 172 Z " />
<glyph glyph-name="b" unicode="b" horiz-adv-x="606" d="M529 382 C493 433 435 458 355 458 C290 458 231 434 178 385 L220 629 L113 629 L-11 -100 L86 -100 L99 -23 C137 -80 190 -109 257 -109 C335 -109 402 -83 456 -32 C510 19 545 86 559 172 C575 262 565 332 529 382 L529 382 Z M388 38 C355 4 314 -13 265 -13 C216 -13 180 3 158 35 C136 67 131 112 141 172 L142 175 C152 236 174 282 208 315 C241 347 283 363 333 363 C382 363 416 346 436 312 C457 279 462 233 452 174 C442 116 421 72 388 38 L388 38 Z " />
<glyph glyph-name="c" unicode="c" horiz-adv-x="578" d="M32 27 C45 -15 70 -48 105 -73 C141 -97 186 -109 242 -109 C306 -109 363 -93 414 -59 C463 -25 501 25 527 89 L425 112 C425 112 417 96 414 89 C379 22 327 -12 259 -12 C210 -12 175 5 153 39 C131 73 125 113 134 168 C145 227 166 274 198 309 C231 344 272 361 322 361 C387 361 427 330 440 267 C444 253 445 245 445 245 L554 272 C549 332 527 378 490 410 C452 442 402 458 339 458 C256 458 188 432 133 380 C77 328 42 257 26 168 C17 114 20 69 32 27 L32 27 Z " />
<glyph glyph-name="d" unicode="d" horiz-adv-x="593" d="M512 629 L473 391 C435 436 384 458 318 458 C238 458 172 433 119 382 C67 332 33 262 18 172 C3 86 15 19 51 -32 C89 -83 147 -109 224 -109 C292 -109 354 -80 411 -22 L398 -100 L497 -100 L619 629 L512 629 L512 629 Z M436 172 C426 112 404 67 372 35 C339 3 299 -13 250 -13 C201 -13 165 4 143 38 C122 72 115 116 125 174 C135 233 156 279 188 312 C220 346 260 363 308 363 C357 363 393 347 417 315 C439 283 447 238 437 180 L436 172 L436 172 Z " />
<glyph glyph-name="e" unicode="e" horiz-adv-x="586" d="M561 176 C574 261 560 330 522 382 C482 436 421 462 339 462 C256 462 185 436 127 383 C70 331 33 261 18 174 C4 89 17 21 58 -32 C97 -84 160 -109 243 -109 C305 -109 360 -95 408 -65 C457 -35 495 6 523 59 L424 90 C424 90 420 85 413 74 C397 47 374 26 348 11 C321 -4 292 -12 259 -12 C214 -12 179 2 156 29 C132 56 121 93 122 139 L554 139 L561 176 L561 176 L561 176 Z M142 234 C158 274 182 307 212 330 C243 354 280 365 322 365 C363 365 395 354 418 330 C442 306 456 274 458 234 L142 234 L142 234 Z " />
<glyph glyph-name="f" unicode="f" horiz-adv-x="381" d="M311 629 C263 629 222 615 190 588 C157 560 137 523 129 476 L123 439 L40 439 L24 342 L107 342 L32 -100 L139 -100 L214 342 L342 342 L358 439 L230 439 L236 476 C239 492 246 505 257 515 C268 525 282 530 298 530 L418 530 L435 629 L311 629 Z " />
<glyph glyph-name="g" unicode="g" horiz-adv-x="591" d="M508 448 L498 391 C462 436 411 459 345 459 C265 459 198 434 145 383 C92 332 58 262 43 173 C28 87 38 18 75 -32 C112 -83 169 -109 247 -109 C311 -109 370 -83 424 -32 L410 -112 C406 -136 397 -154 380 -168 C365 -183 346 -190 324 -190 L94 -190 L76 -289 L310 -289 C364 -289 410 -273 448 -241 C485 -210 509 -167 518 -112 L520 -99 L616 448 L508 448 L508 448 Z M460 173 C449 113 428 67 396 35 C363 3 321 -13 272 -13 C223 -13 188 4 167 37 C146 71 140 117 150 175 C160 233 181 279 213 313 C245 347 286 364 334 364 C383 364 419 348 442 316 C465 284 471 239 461 181 L460 173 L460 173 Z " />
<glyph glyph-name="h" unicode="h" horiz-adv-x="568" d="M148 217 C156 263 175 299 206 324 C236 349 274 361 321 361 C364 361 392 350 404 326 C416 303 419 267 410 217 L356 -100 L463 -100 L518 222 C545 380 488 458 346 458 C282 458 225 433 177 383 L219 629 L112 629 L-12 -100 L94 -100 L148 217 L148 217 Z " />
<glyph glyph-name="i" unicode="i" horiz-adv-x="186" d="M-23 -100 L83 -100 L178 448 L71 448 L-23 -100 L-23 -100 Z M101 618 L85 526 L192 526 L208 618 L101 618 L101 618 Z " />
<glyph glyph-name="j" unicode="j" horiz-adv-x="188" d="M87 448 L-9 -107 C-13 -130 -23 -149 -38 -163 C-55 -177 -74 -184 -96 -184 L-115 -184 L-143 -184 L-169 -184 L-173 -210 L-186 -283 L-132 -283 L-109 -283 C-54 -283 -8 -267 27 -235 C65 -204 88 -161 97 -107 L194 448 L87 448 L87 448 Z M117 621 L101 529 L208 529 L224 621 L117 621 L117 621 Z " />
<glyph glyph-name="k" unicode="k" horiz-adv-x="529" d="M221 629 L113 629 L-13 -100 L94 -100 L127 86 L210 157 L345 -100 L476 -100 L296 232 L543 448 L400 448 L152 231 L221 629 L221 629 Z " />
<glyph glyph-name="l" unicode="l" horiz-adv-x="287" d="M155 -1 C141 -1 131 3 124 11 C118 19 116 30 118 43 L220 629 L113 629 L11 43 C3 -1 10 -36 33 -62 C54 -87 88 -100 134 -100 L213 -100 L230 -1 L155 -1 Z " />
<glyph glyph-name="m" unicode="m" horiz-adv-x="852" d="M807 398 C779 439 732 459 667 459 C633 459 601 451 570 435 C540 419 513 396 490 367 C468 428 415 458 334 458 C277 458 227 434 184 384 L195 448 L175 448 L97 448 L0 -100 L107 -100 L163 218 C172 267 186 303 209 327 C231 350 263 362 307 362 C341 362 365 351 380 327 C393 303 397 268 389 222 L332 -100 L439 -100 L496 222 C505 270 520 306 541 328 C563 351 596 362 640 362 C676 362 701 351 714 328 C728 306 731 270 722 222 L665 -100 L772 -100 L830 227 C843 300 836 357 807 398 L807 398 Z " />
<glyph glyph-name="n" unicode="n" horiz-adv-x="547" d="M499 399 C471 438 421 458 348 458 C282 458 226 431 178 377 L184 410 L187 428 L190 448 L170 448 L91 448 L85 410 L-3 -100 L102 -100 L158 219 C166 265 184 301 213 326 C241 351 278 363 324 363 C367 363 395 352 406 328 C418 305 420 269 411 219 L355 -100 L463 -100 L520 224 C533 301 526 360 499 399 L499 399 Z " />
<glyph glyph-name="o" unicode="o" horiz-adv-x="571" d="M239 -109 C320 -109 388 -84 444 -32 C499 19 535 85 549 173 C564 260 552 330 513 381 C475 433 415 458 334 458 C254 458 185 433 129 382 C74 330 39 261 24 173 C10 85 21 19 60 -32 C98 -84 159 -109 239 -109 L239 -109 Z M196 311 C228 345 269 362 318 362 C367 362 402 345 423 310 C446 277 451 231 441 173 C432 115 412 73 378 39 C345 5 304 -12 255 -12 C206 -12 171 5 150 39 C128 72 121 114 131 173 C141 231 163 277 196 311 L196 311 Z " />
<glyph glyph-name="p" unicode="p" horiz-adv-x="595" d="M554 383 C519 433 463 459 386 459 C315 459 251 430 193 372 L198 399 L204 428 L207 448 L186 448 L108 448 L99 399 L-22 -281 L84 -281 L126 -47 C161 -88 210 -109 276 -109 C357 -109 424 -84 479 -33 C533 18 568 88 584 177 C600 263 590 332 554 383 L554 383 Z M410 37 C377 3 336 -14 287 -14 C237 -14 202 2 180 33 C159 64 154 110 165 171 L167 183 C179 241 201 286 236 317 C269 348 311 364 359 364 C408 364 442 347 462 313 C482 279 486 233 476 175 C466 117 444 71 410 37 L410 37 Z " />
<glyph glyph-name="q" unicode="q" horiz-adv-x="595" d="M540 448 L519 448 L515 428 L511 403 L506 374 C469 430 415 459 345 459 C267 459 201 433 149 383 C95 332 61 263 46 177 C30 88 41 18 77 -33 C113 -84 172 -109 253 -109 C319 -109 377 -87 425 -44 L384 -281 L491 -281 L610 403 L618 448 L540 448 L540 448 Z M463 174 C453 113 431 67 398 35 C365 2 325 -14 276 -14 C227 -14 192 3 170 37 C148 71 143 117 153 175 C164 233 185 279 216 313 C248 347 288 364 337 364 C386 364 422 347 445 315 C467 283 474 237 464 178 L463 174 L463 174 Z " />
<glyph glyph-name="r" unicode="r" horiz-adv-x="371" d="M381 448 C301 448 234 421 182 365 L190 411 L193 428 L196 448 L175 448 L97 448 L91 411 L2 -100 L109 -100 L158 183 C167 235 187 277 218 307 C249 338 289 353 337 353 L339 353 L349 353 L374 353 L378 380 L390 448 L381 448 L381 448 Z " />
<glyph glyph-name="s" unicode="s" horiz-adv-x="467" d="M408 167 C382 197 343 218 291 230 L205 250 C190 253 177 260 170 270 C161 281 159 293 161 306 C164 324 174 339 192 350 C210 361 232 366 259 366 C306 366 344 352 374 323 C384 313 387 309 387 309 L467 381 C452 402 429 420 398 437 C366 453 328 461 285 461 C223 461 172 447 131 418 C90 388 64 349 56 300 C50 264 57 233 78 206 C98 180 129 163 171 154 C182 151 198 148 217 144 C236 140 250 137 258 135 C284 131 303 122 315 108 C328 95 332 78 329 60 C325 38 313 20 292 7 C271 -6 243 -13 206 -13 C183 -13 160 -8 139 1 C117 11 98 22 84 36 C74 44 69 49 69 49 L-9 -25 C12 -50 39 -71 74 -86 C108 -102 148 -109 192 -109 C259 -109 314 -94 357 -64 C401 -33 427 8 436 60 C443 101 433 136 408 167 L408 167 Z " />
<glyph glyph-name="t" unicode="t" horiz-adv-x="393" d="M384 349 L401 446 L226 446 L257 629 L149 629 L118 446 L32 446 L15 349 L101 349 L54 76 C45 22 54 -21 80 -52 C106 -84 146 -100 200 -100 L307 -100 L324 -1 L221 -1 C199 -1 183 6 173 20 C161 34 158 53 162 76 L209 349 L384 349 L384 349 Z " />
<glyph glyph-name="u" unicode="u" horiz-adv-x="553" d="M456 448 L400 130 C391 84 373 48 346 23 C317 -1 281 -14 235 -14 C192 -14 164 -2 152 21 C140 44 139 80 148 130 L204 448 L96 448 L38 123 C25 46 32 -12 60 -51 C88 -90 137 -109 210 -109 C275 -109 332 -82 380 -28 L367 -99 L388 -99 L467 -99 L564 448 L456 448 L456 448 Z " />
<glyph glyph-name="v" unicode="v" horiz-adv-x="540" d="M577 448 L460 448 L244 46 L170 448 L53 448 L162 -100 L275 -100 L577 448 L577 448 Z " />
<glyph glyph-name="w" unicode="w" horiz-adv-x="818" d="M564 66 L511 448 L404 448 L218 66 L168 448 L57 448 L132 -100 L242 -100 L429 286 L476 -100 L589 -100 L854 448 L745 448 L564 66 L564 66 Z " />
<glyph glyph-name="x" unicode="x" horiz-adv-x="556" d="M82 -100 L264 105 L379 -100 L510 -100 L346 192 L574 448 L449 448 L298 278 L201 448 L70 448 L216 191 L-42 -100 L82 -100 L82 -100 Z " />
<glyph glyph-name="y" unicode="y" horiz-adv-x="521" d="M479 448 L260 44 L185 448 L72 448 L184 -93 L160 -139 C144 -167 125 -181 101 -181 L96 -181 L69 -181 L49 -181 L45 -202 L31 -282 L78 -282 L88 -282 C121 -282 152 -272 181 -252 C211 -232 235 -203 256 -166 L598 448 L479 448 L479 448 Z " />
<glyph glyph-name="z" unicode="z" horiz-adv-x="522" d="M544 448 L94 448 L77 351 L388 351 L19 -3 L2 -100 L451 -100 L468 -3 L158 -3 L527 351 L544 448 L544 448 Z " />
<glyph glyph-name="braceleft" unicode="&#x7b;" horiz-adv-x="311" d="M337 721 L298 721 C258 721 223 708 193 683 C164 657 145 625 138 585 L96 350 C94 337 90 324 83 313 C72 291 56 276 40 262 C29 254 21 249 14 245 C23 238 29 233 34 228 C45 211 55 197 59 177 C62 165 61 152 59 140 L17 -97 C10 -137 17 -170 38 -195 C58 -220 89 -233 129 -233 L168 -233 L197 -233 L211 -157 L215 -131 L190 -131 L186 -131 L170 -131 C154 -131 143 -127 135 -118 C128 -109 126 -97 129 -81 L169 144 C171 157 170 169 169 182 C165 202 157 216 145 230 C140 235 134 240 127 245 C138 251 143 255 150 260 C173 279 183 293 191 308 C198 320 202 333 205 346 L244 568 C247 585 253 597 264 606 C274 615 287 619 303 619 L319 619 L323 619 L348 619 L352 645 L366 721 L337 721 L337 721 Z " />
<glyph glyph-name="bar" unicode="&#x7c;" horiz-adv-x="148" d="M195 721 L187 721 L108 721 L94 642 L-58 -221 L-60 -233 L38 -233 L53 -151 L205 710 L207 721 L195 721 L195 721 Z " />
<glyph glyph-name="braceright" unicode="&#x7d;" horiz-adv-x="305" d="M142 720 L113 720 L101 644 L96 618 L121 618 L125 618 L141 618 C157 618 169 614 176 605 C184 596 186 584 183 567 L146 345 C144 332 144 319 147 307 C149 295 153 286 156 278 C161 271 166 265 171 259 C176 254 181 250 184 248 L190 244 C188 244 185 242 182 241 C180 239 174 235 166 229 C159 223 152 216 145 209 C139 202 132 193 126 181 C119 168 115 156 113 143 L76 -82 C73 -98 67 -110 57 -119 C46 -128 34 -132 18 -132 L2 -132 L-1 -132 L-26 -132 L-31 -158 L-43 -234 L-14 -234 L24 -234 C64 -234 99 -221 128 -196 C157 -171 176 -138 182 -98 L221 139 C223 151 227 164 234 176 C240 188 247 198 254 205 C263 213 270 220 277 227 C284 232 291 237 295 240 L303 244 C301 245 299 247 296 248 C294 250 289 254 282 261 C277 268 271 275 267 282 C262 290 259 300 257 312 C254 323 254 336 256 349 L295 584 C301 624 294 656 273 682 C252 707 221 720 181 720 L142 720 L142 720 Z " />
<glyph glyph-name="asciitilde" unicode="&#x7e;" horiz-adv-x="572" d="M470 380 C470 380 462 360 459 352 C448 326 438 309 426 300 C414 291 400 287 383 287 C374 287 365 291 356 300 C347 308 338 318 330 329 C322 341 313 353 304 364 C293 376 281 386 266 395 C251 403 234 407 215 407 C171 407 133 392 101 363 C70 333 45 292 27 239 L116 225 C116 225 124 242 126 250 C138 277 149 295 161 304 C171 312 184 317 200 317 C209 317 218 312 228 304 C238 296 246 286 255 274 C263 263 272 251 282 239 C291 227 304 217 319 209 C334 201 350 197 368 197 C411 197 449 211 480 239 C512 267 537 309 556 363 L470 380 L470 380 Z " />
<glyph glyph-name="cent" unicode="&#xa2;" horiz-adv-x="593" d="M443 198 C443 198 436 182 432 175 C403 120 364 88 313 77 L377 447 C421 437 449 407 460 356 C463 343 465 335 465 335 L573 363 C569 417 550 460 520 491 C489 522 447 540 394 546 L412 651 L402 651 L385 651 L312 651 L294 542 C228 529 174 497 131 447 C87 398 58 334 45 258 C33 186 40 126 65 76 C92 26 135 -5 196 -18 L179 -118 L189 -118 L207 -118 L279 -118 L295 -22 C351 -16 402 4 445 38 C488 71 522 117 545 175 L443 198 L443 198 Z M171 124 C149 159 144 203 153 258 C163 317 184 363 217 398 C234 416 253 430 275 438 L214 86 C197 94 182 107 171 124 L171 124 Z " />
<glyph glyph-name="sterling" unicode="&#xa3;" horiz-adv-x="567" d="M116 3 C171 69 202 132 213 194 L214 201 L410 201 L437 201 L441 228 L453 295 L212 295 C210 307 205 323 199 342 C191 374 180 400 185 429 C191 464 207 491 234 510 C260 528 293 538 332 538 C383 538 422 522 448 492 C457 480 462 474 462 474 L547 548 C543 557 536 566 529 575 C520 585 509 595 494 606 C479 617 458 626 433 632 C407 639 379 643 348 643 C306 643 268 636 234 624 C200 612 172 595 149 574 C128 554 110 531 98 507 C74 462 66 417 71 369 C77 343 86 316 94 295 L43 295 L27 201 L103 201 L101 191 C92 138 59 75 0 3 L-17 -100 L467 -100 L484 3 L116 3 L116 3 Z " />
<glyph glyph-name="yen" unicode="&#xa5;" horiz-adv-x="611" d="M308 287 L300 307 L324 307 L308 287 L308 287 Z M679 630 L548 630 L352 394 L302 394 L191 630 L56 630 L171 394 L129 394 L109 394 L105 374 L92 303 L216 303 L243 249 L239 228 L79 228 L75 207 L62 136 L62 136 L222 136 L180 -100 L294 -100 L336 136 L477 136 C478 136 478 136 478 136 L498 136 L502 157 L515 228 L515 228 L353 228 L357 249 L401 303 L507 303 L528 303 L532 323 L545 394 L479 394 L679 630 L679 630 Z " />
<glyph glyph-name="dieresis" unicode="&#xa8;" horiz-adv-x="343" d="M23 615 L7 523 L114 523 L130 615 L23 615 L23 615 Z M228 615 L212 523 L319 523 L335 615 L228 615 L228 615 Z " />
<glyph glyph-name="acute" unicode="&#xb4;" horiz-adv-x="243" d="M8 503 L101 503 L241 629 L119 629 L8 503 L8 503 Z " />
<glyph glyph-name="cedilla" unicode="&#xb8;" horiz-adv-x="245" d="M212 -155 C199 -142 181 -135 155 -135 L115 -135 L126 -103 L82 -100 L64 -155 C59 -168 60 -177 67 -185 C71 -193 81 -196 94 -196 L141 -196 C147 -196 151 -198 155 -201 C158 -204 160 -208 159 -212 C158 -215 157 -218 155 -221 C154 -223 152 -225 147 -227 C143 -230 137 -231 129 -231 L76 -231 L58 -231 L32 -231 L21 -294 L65 -294 L113 -294 C140 -294 165 -287 186 -272 C207 -257 220 -236 224 -209 C228 -187 224 -168 212 -155 L212 -155 Z " />
<glyph glyph-name="Agrave" unicode="&#xc0;" horiz-adv-x="683" d="M174 95 L448 95 L485 -100 L607 -100 L465 629 L346 629 L-48 -100 L69 -100 L174 95 L174 95 Z M375 468 L427 198 L229 198 L375 468 L375 468 Z M485 703 L414 829 L291 829 L392 703 L485 703 L485 703 Z " />
<glyph glyph-name="Aacute" unicode="&#xc1;" horiz-adv-x="669" d="M164 95 L438 95 L475 -100 L597 -100 L455 629 L336 629 L-58 -100 L59 -100 L164 95 L164 95 Z M365 468 L417 198 L219 198 L365 468 L365 468 Z M331 705 L424 705 L564 831 L442 831 L331 705 Z " />
<glyph glyph-name="Acircumflex" unicode="&#xc2;" horiz-adv-x="675" d="M168 95 L442 95 L479 -100 L601 -100 L459 629 L340 629 L-54 -100 L63 -100 L168 95 L168 95 Z M369 468 L421 198 L223 198 L369 468 L369 468 Z M557 712 L533 740 L533 740 L479 809 C463 828 440 838 410 838 C381 838 355 828 331 809 L248 740 L216 712 L232 712 L272 712 L320 712 L352 740 L399 779 L429 741 C429 741 429 741 430 740 L452 712 L557 712 L557 712 Z " />
<glyph glyph-name="Atilde" unicode="&#xc3;" horiz-adv-x="675" d="M168 95 L442 95 L479 -100 L601 -100 L459 629 L340 629 L-54 -100 L63 -100 L168 95 L168 95 Z M369 468 L421 198 L223 198 L369 468 L369 468 Z M585 841 C585 841 577 821 574 813 C565 787 554 768 544 760 C534 751 521 747 506 747 C498 747 491 751 483 759 C475 767 469 777 462 790 C455 802 448 813 439 826 C431 838 420 848 407 857 C394 865 379 870 363 870 C325 870 291 855 263 824 C234 793 213 751 196 696 L273 682 C273 682 280 700 283 708 C294 736 305 755 314 763 C323 772 334 776 348 776 C357 776 364 772 372 764 C381 755 388 745 395 733 C402 721 410 710 418 697 C427 685 437 675 450 666 C462 658 477 653 492 653 C530 653 562 667 590 697 C618 726 641 768 658 824 L585 841 L585 841 Z " />
<glyph glyph-name="Adieresis" unicode="&#xc4;" horiz-adv-x="673" d="M168 95 L442 95 L479 -100 L601 -100 L459 629 L340 629 L-54 -100 L63 -100 L168 95 L168 95 Z M369 468 L421 198 L223 198 L369 468 L369 468 Z M267 810 L251 718 L358 718 L374 810 L267 810 L267 810 Z M472 810 L456 718 L563 718 L579 810 L472 810 L472 810 Z " />
<glyph glyph-name="Aring" unicode="&#xc5;" horiz-adv-x="677" d="M168 95 L442 95 L479 -100 L601 -100 L459 629 L340 629 L-54 -100 L63 -100 L168 95 L168 95 Z M369 468 L421 198 L223 198 L369 468 L369 468 Z M439 849 C392 849 347 812 340 767 C332 722 364 686 411 686 C458 686 501 722 509 767 C516 812 486 849 439 849 L439 849 Z M420 740 C404 740 394 752 397 767 C399 782 413 794 429 794 C445 794 455 782 453 767 C450 752 436 740 420 740 L420 740 Z " />
<glyph glyph-name="AE" unicode="&#xc6;" horiz-adv-x="850" d="M500 526 L861 526 L878 630 L345 630 L-42 -100 L74 -100 L178 94 L317 94 L285 -100 L759 -100 L776 4 L415 4 L451 223 L802 223 L818 326 L467 326 L500 526 L500 526 Z M333 197 L232 197 L377 465 L333 197 L333 197 Z " />
<glyph glyph-name="Ccedilla" unicode="&#xc7;" horiz-adv-x="740" d="M149 -60 C196 -92 256 -109 327 -109 C412 -109 487 -85 552 -39 C617 7 665 70 696 150 C608 172 592 176 592 176 C592 176 584 160 581 153 C559 105 528 67 488 38 C447 9 400 -5 344 -5 C295 -5 250 6 217 33 C174 66 160 121 153 174 C152 209 153 237 157 265 C166 318 182 365 206 406 C229 446 260 478 300 503 C340 527 384 539 434 539 C486 539 526 526 556 500 C586 475 606 440 617 395 C618 389 621 374 621 374 L734 402 C725 476 696 535 648 578 C599 621 534 642 451 642 C380 642 316 626 258 594 C201 563 153 518 117 462 C80 405 56 340 43 265 C31 191 35 130 53 73 C69 16 102 -28 149 -60 L149 -60 Z M460 -155 C447 -142 429 -135 403 -135 L363 -135 L374 -103 L330 -100 L312 -155 C307 -168 308 -177 315 -185 C319 -193 329 -196 342 -196 L389 -196 C395 -196 399 -198 403 -201 C406 -204 408 -208 407 -212 C406 -215 405 -218 403 -221 C402 -223 400 -225 395 -227 C391 -230 385 -231 377 -231 L324 -231 L306 -231 L280 -231 L269 -294 L313 -294 L361 -294 C388 -294 413 -287 434 -272 C455 -257 468 -236 472 -209 C476 -187 472 -168 460 -155 L460 -155 Z " />
<glyph glyph-name="Egrave" unicode="&#xc8;" horiz-adv-x="569" d="M489 3 L128 3 L166 222 L517 222 L535 325 L184 325 L219 526 L580 526 L598 629 L123 629 L-3 -100 L471 -100 L489 3 L489 3 Z M439 701 L368 827 L245 827 L346 701 L439 701 L439 701 Z " />
<glyph glyph-name="Eacute" unicode="&#xc9;" horiz-adv-x="569" d="M489 3 L128 3 L166 222 L517 222 L535 325 L184 325 L219 526 L580 526 L598 629 L123 629 L-3 -100 L471 -100 L489 3 L489 3 Z M252 701 L345 701 L485 827 L363 827 L252 701 Z " />
<glyph glyph-name="Ecircumflex" unicode="&#xca;" horiz-adv-x="571" d="M489 3 L128 3 L166 222 L517 222 L535 325 L184 325 L219 526 L580 526 L598 629 L123 629 L-3 -100 L471 -100 L489 3 L489 3 Z M560 714 L536 742 L536 742 L482 811 C466 830 443 840 413 840 C384 840 358 830 334 811 L251 742 L219 714 L235 714 L275 714 L323 714 L355 742 L402 781 L432 743 C432 743 432 743 433 742 L455 714 L560 714 L560 714 Z " />
<glyph glyph-name="Edieresis" unicode="&#xcb;" horiz-adv-x="571" d="M489 3 L128 3 L166 222 L517 222 L535 325 L184 325 L219 526 L580 526 L598 629 L123 629 L-3 -100 L471 -100 L489 3 L489 3 Z M262 815 L246 723 L353 723 L369 815 L262 815 L262 815 Z M467 815 L451 723 L558 723 L574 815 L467 815 L467 815 Z " />
<glyph glyph-name="Igrave" unicode="&#xcc;" horiz-adv-x="235" d="M250 629 L137 629 L11 -100 L123 -100 L250 629 L250 629 Z M275 703 L204 829 L81 829 L182 703 L275 703 L275 703 Z " />
<glyph glyph-name="Iacute" unicode="&#xcd;" horiz-adv-x="214" d="M219 629 L106 629 L-20 -100 L92 -100 L219 629 L219 629 Z M47 703 L140 703 L280 829 L158 829 L47 703 Z " />
<glyph glyph-name="Icircumflex" unicode="&#xce;" horiz-adv-x="347" d="M292 629 L179 629 L53 -100 L165 -100 L292 629 L292 629 Z M411 714 L387 742 L387 742 L333 811 C317 830 294 840 264 840 C235 840 209 830 185 811 L102 742 L70 714 L86 714 L126 714 L174 714 L206 742 L253 781 L283 743 C283 743 283 743 284 742 L306 714 L411 714 L411 714 Z " />
<glyph glyph-name="Idieresis" unicode="&#xcf;" horiz-adv-x="326" d="M281 629 L168 629 L42 -100 L154 -100 L281 629 L281 629 Z M90 813 L74 721 L181 721 L197 813 L90 813 L90 813 Z M295 813 L279 721 L386 721 L402 813 L295 813 L295 813 Z " />
<glyph glyph-name="Eth" unicode="&#xd0;" horiz-adv-x="775" d="M683 532 C635 597 558 630 451 630 L175 630 L121 319 L79 319 L34 319 L17 222 L104 222 L48 -100 L324 -100 C430 -100 519 -67 589 -2 C660 63 705 151 725 265 C744 377 730 466 683 532 L683 532 Z M521 74 C476 27 416 4 342 4 L180 4 L218 222 L321 222 L366 222 L383 319 L235 319 L271 526 L433 526 C506 526 557 503 588 457 C618 411 626 347 612 265 C597 183 567 120 521 74 L521 74 Z " />
<glyph glyph-name="Ntilde" unicode="&#xd1;" horiz-adv-x="700" d="M186 395 C189 413 197 454 197 454 L463 -100 L586 -100 L713 629 L600 629 L514 134 C511 115 504 75 504 75 L237 629 L113 629 L-13 -100 L100 -100 L186 395 L186 395 Z M615 843 C615 843 607 823 604 815 C595 789 584 770 574 762 C564 753 551 749 536 749 C528 749 521 753 513 761 C505 769 499 779 492 792 C485 804 478 815 469 828 C461 840 450 850 437 859 C424 867 409 872 393 872 C355 872 321 857 293 826 C264 795 243 753 226 698 L303 684 C303 684 310 702 313 710 C324 738 335 757 344 765 C353 774 364 778 378 778 C387 778 394 774 402 766 C411 757 418 747 425 735 C432 723 440 712 448 699 C457 687 467 677 480 668 C492 660 507 655 522 655 C560 655 592 669 620 699 C648 728 671 770 688 826 L615 843 L615 843 Z " />
<glyph glyph-name="Ograve" unicode="&#xd2;" horiz-adv-x="774" d="M181 -81 C221 -100 268 -109 321 -109 C427 -109 517 -75 589 -6 C663 62 708 154 728 268 C747 382 732 473 683 542 C633 611 555 645 448 645 C377 645 313 629 255 598 C198 566 151 522 115 465 C78 408 53 343 41 268 C31 213 31 162 39 116 C46 69 62 30 85 -4 C108 -37 140 -63 181 -81 L181 -81 Z M203 409 C227 449 258 482 297 506 C337 530 382 542 431 542 C506 542 558 517 589 467 C620 418 628 351 615 268 C601 185 569 119 522 69 C475 19 413 -6 338 -6 C283 -6 229 9 199 45 C171 79 155 115 151 156 C148 194 148 230 155 268 C163 321 179 368 203 409 L203 409 Z M493 703 L422 829 L299 829 L400 703 L493 703 L493 703 Z " />
<glyph glyph-name="Oacute" unicode="&#xd3;" horiz-adv-x="774" d="M181 -81 C221 -100 268 -109 321 -109 C427 -109 517 -75 589 -6 C663 62 708 154 728 268 C747 382 732 473 683 542 C633 611 555 645 448 645 C377 645 313 629 255 598 C198 566 151 522 115 465 C78 408 53 343 41 268 C31 213 31 162 39 116 C46 69 62 30 85 -4 C108 -37 140 -63 181 -81 L181 -81 Z M203 409 C227 449 258 482 297 506 C337 530 382 542 431 542 C506 542 558 517 589 467 C620 418 628 351 615 268 C601 185 569 119 522 69 C475 19 413 -6 338 -6 C283 -6 229 9 199 45 C171 79 155 115 151 156 C148 194 148 230 155 268 C163 321 179 368 203 409 L203 409 Z M391 703 L484 703 L624 829 L502 829 L391 703 Z " />
<glyph glyph-name="Ocircumflex" unicode="&#xd4;" horiz-adv-x="774" d="M181 -81 C221 -100 268 -109 321 -109 C427 -109 517 -75 589 -6 C663 62 708 154 728 268 C747 382 732 473 683 542 C633 611 555 645 448 645 C377 645 313 629 255 598 C198 566 151 522 115 465 C78 408 53 343 41 268 C31 213 31 162 39 116 C46 69 62 30 85 -4 C108 -37 140 -63 181 -81 L181 -81 Z M203 409 C227 449 258 482 297 506 C337 530 382 542 431 542 C506 542 558 517 589 467 C620 418 628 351 615 268 C601 185 569 119 522 69 C475 19 413 -6 338 -6 C283 -6 229 9 199 45 C171 79 155 115 151 156 C148 194 148 230 155 268 C163 321 179 368 203 409 L203 409 Z M651 720 L627 748 L627 748 L573 817 C557 836 534 846 504 846 C475 846 449 836 425 817 L342 748 L310 720 L326 720 L366 720 L414 720 L446 748 L493 787 L523 749 C523 749 523 749 524 748 L546 720 L651 720 L651 720 Z " />
<glyph glyph-name="Otilde" unicode="&#xd5;" horiz-adv-x="774" d="M181 -81 C221 -100 268 -109 321 -109 C427 -109 517 -75 589 -6 C663 62 708 154 728 268 C747 382 732 473 683 542 C633 611 555 645 448 645 C377 645 313 629 255 598 C198 566 151 522 115 465 C78 408 53 343 41 268 C31 213 31 162 39 116 C46 69 62 30 85 -4 C108 -37 140 -63 181 -81 L181 -81 Z M203 409 C227 449 258 482 297 506 C337 530 382 542 431 542 C506 542 558 517 589 467 C620 418 628 351 615 268 C601 185 569 119 522 69 C475 19 413 -6 338 -6 C283 -6 229 9 199 45 C171 79 155 115 151 156 C148 194 148 230 155 268 C163 321 179 368 203 409 L203 409 Z M657 841 C657 841 649 821 646 813 C637 787 626 768 616 760 C606 751 593 747 578 747 C570 747 563 751 555 759 C547 767 541 777 534 790 C527 802 520 813 511 826 C503 838 492 848 479 857 C466 865 451 870 435 870 C397 870 363 855 335 824 C306 793 285 751 268 696 L345 682 C345 682 352 700 355 708 C366 736 377 755 386 763 C395 772 406 776 420 776 C429 776 436 772 444 764 C453 755 460 745 467 733 C474 721 482 710 490 697 C499 685 509 675 522 666 C534 658 549 653 564 653 C602 653 634 667 662 697 C690 726 713 768 730 824 L657 841 L657 841 Z " />
<glyph glyph-name="Odieresis" unicode="&#xd6;" horiz-adv-x="774" d="M181 -81 C221 -100 268 -109 321 -109 C427 -109 517 -75 589 -6 C663 62 708 154 728 268 C747 382 732 473 683 542 C633 611 555 645 448 645 C377 645 313 629 255 598 C198 566 151 522 115 465 C78 408 53 343 41 268 C31 213 31 162 39 116 C46 69 62 30 85 -4 C108 -37 140 -63 181 -81 L181 -81 Z M203 409 C227 449 258 482 297 506 C337 530 382 542 431 542 C506 542 558 517 589 467 C620 418 628 351 615 268 C601 185 569 119 522 69 C475 19 413 -6 338 -6 C283 -6 229 9 199 45 C171 79 155 115 151 156 C148 194 148 230 155 268 C163 321 179 368 203 409 L203 409 Z M352 815 L336 723 L443 723 L459 815 L352 815 L352 815 Z M557 815 L541 723 L648 723 L664 815 L557 815 L557 815 Z " />
<glyph glyph-name="multiply" unicode="&#xd7;" horiz-adv-x="233" d="M161 292 L244 358 L228 358 L190 358 L137 358 L129 350 L124 358 L72 358 L34 358 L17 358 L75 292 L22 237 L22 237 L22 237 L58 237 C58 237 58 237 58 237 L91 237 L110 252 L123 237 L156 237 C156 237 156 237 156 237 L192 237 L192 237 L192 237 L161 292 L161 292 Z " />
<glyph glyph-name="Oslash" unicode="&#xd8;" horiz-adv-x="774" d="M675 542 C661 561 646 578 627 591 L688 690 L582 690 L546 632 C515 641 479 645 441 645 C369 645 306 629 248 597 C191 566 143 522 107 465 C70 408 46 343 33 268 C24 213 22 162 30 116 C37 69 53 29 76 -4 C89 -22 105 -39 123 -53 L58 -160 L163 -160 L204 -94 C236 -104 273 -109 313 -109 C419 -109 507 -75 581 -6 C654 62 701 154 720 268 C740 382 724 473 675 542 L675 542 Z M158 96 C150 114 144 134 143 156 C141 178 140 198 141 215 C142 233 143 250 146 268 C155 321 172 368 195 409 C219 449 251 482 290 506 C329 530 374 542 424 542 C447 542 467 539 487 535 L187 49 C174 64 165 79 158 96 L158 96 Z M513 69 C465 19 404 -6 330 -6 C305 -6 283 -3 264 2 L564 490 C571 483 576 475 581 467 C612 418 620 351 606 268 C592 185 561 119 513 69 L513 69 Z " />
<glyph glyph-name="Ugrave" unicode="&#xd9;" horiz-adv-x="615" d="M54 -45 C75 -68 102 -84 133 -94 C164 -104 201 -109 243 -109 C276 -109 308 -106 336 -100 C364 -94 392 -84 418 -69 C445 -54 469 -36 489 -13 C509 10 527 39 544 74 C559 109 571 149 579 195 L656 629 L542 629 L465 195 C453 130 432 80 400 46 C367 11 321 -6 261 -6 C201 -6 161 11 142 46 C122 80 116 130 128 195 L204 629 L91 629 L14 195 C4 138 2 90 9 50 C16 9 31 -22 54 -45 L54 -45 Z M460 703 L389 829 L266 829 L367 703 L460 703 L460 703 Z " />
<glyph glyph-name="Uacute" unicode="&#xda;" horiz-adv-x="615" d="M54 -45 C75 -68 102 -84 133 -94 C164 -104 201 -109 243 -109 C276 -109 308 -106 336 -100 C364 -94 392 -84 418 -69 C445 -54 469 -36 489 -13 C509 10 527 39 544 74 C559 109 571 149 579 195 L656 629 L542 629 L465 195 C453 130 432 80 400 46 C367 11 321 -6 261 -6 C201 -6 161 11 142 46 C122 80 116 130 128 195 L204 629 L91 629 L14 195 C4 138 2 90 9 50 C16 9 31 -22 54 -45 L54 -45 Z M273 703 L366 703 L506 829 L384 829 L273 703 Z " />
<glyph glyph-name="Ucircumflex" unicode="&#xdb;" horiz-adv-x="615" d="M54 -45 C75 -68 102 -84 133 -94 C164 -104 201 -109 243 -109 C276 -109 308 -106 336 -100 C364 -94 392 -84 418 -69 C445 -54 469 -36 489 -13 C509 10 527 39 544 74 C559 109 571 149 579 195 L656 629 L542 629 L465 195 C453 130 432 80 400 46 C367 11 321 -6 261 -6 C201 -6 161 11 142 46 C122 80 116 130 128 195 L204 629 L91 629 L14 195 C4 138 2 90 9 50 C16 9 31 -22 54 -45 L54 -45 Z M557 714 L533 742 L533 742 L479 811 C463 830 440 840 410 840 C381 840 355 830 331 811 L248 742 L216 714 L232 714 L272 714 L320 714 L352 742 L399 781 L429 743 C429 743 429 743 430 742 L452 714 L557 714 L557 714 Z " />
<glyph glyph-name="Udieresis" unicode="&#xdc;" horiz-adv-x="615" d="M54 -45 C75 -68 102 -84 133 -94 C164 -104 201 -109 243 -109 C276 -109 308 -106 336 -100 C364 -94 392 -84 418 -69 C445 -54 469 -36 489 -13 C509 10 527 39 544 74 C559 109 571 149 579 195 L656 629 L542 629 L465 195 C453 130 432 80 400 46 C367 11 321 -6 261 -6 C201 -6 161 11 142 46 C122 80 116 130 128 195 L204 629 L91 629 L14 195 C4 138 2 90 9 50 C16 9 31 -22 54 -45 L54 -45 Z M264 811 L248 719 L355 719 L371 811 L264 811 L264 811 Z M469 811 L453 719 L560 719 L576 811 L469 811 L469 811 Z " />
<glyph glyph-name="Yacute" unicode="&#xdd;" horiz-adv-x="579" d="M171 -100 L285 -100 L346 248 L666 629 L535 629 L307 354 L178 629 L43 629 L232 248 L171 -100 L171 -100 Z M284 703 L377 703 L517 829 L395 829 L284 703 Z " />
<glyph glyph-name="agrave" unicode="&#xe0;" horiz-adv-x="582" d="M491 448 L481 391 C445 436 393 458 327 458 C246 458 180 433 127 382 C75 332 41 262 26 172 C12 86 23 19 60 -32 C97 -83 155 -109 233 -109 C301 -109 363 -80 420 -22 L415 -49 L410 -78 L407 -98 L428 -98 L506 -98 L514 -49 L598 448 L491 448 L491 448 Z M444 172 C434 112 413 67 380 35 C348 3 307 -13 258 -13 C209 -13 174 4 153 38 C130 72 125 116 135 174 C144 233 165 279 197 313 C228 346 268 363 317 363 C365 363 402 347 425 315 C448 283 455 238 446 180 L444 172 L444 172 Z M397 503 L326 629 L203 629 L304 503 L397 503 L397 503 Z " />
<glyph glyph-name="aacute" unicode="&#xe1;" horiz-adv-x="582" d="M491 448 L481 391 C445 436 393 458 327 458 C246 458 180 433 127 382 C75 332 41 262 26 172 C12 86 23 19 60 -32 C97 -83 155 -109 233 -109 C301 -109 363 -80 420 -22 L415 -49 L410 -78 L407 -98 L428 -98 L506 -98 L514 -49 L598 448 L491 448 L491 448 Z M444 172 C434 112 413 67 380 35 C348 3 307 -13 258 -13 C209 -13 174 4 153 38 C130 72 125 116 135 174 C144 233 165 279 197 313 C228 346 268 363 317 363 C365 363 402 347 425 315 C448 283 455 238 446 180 L444 172 L444 172 Z M268 503 L361 503 L501 629 L379 629 L268 503 Z " />
<glyph glyph-name="acircumflex" unicode="&#xe2;" horiz-adv-x="582" d="M491 448 L481 391 C445 436 393 458 327 458 C246 458 180 433 127 382 C75 332 41 262 26 172 C12 86 23 19 60 -32 C97 -83 155 -109 233 -109 C301 -109 363 -80 420 -22 L415 -49 L410 -78 L407 -98 L428 -98 L506 -98 L514 -49 L598 448 L491 448 L491 448 Z M444 172 C434 112 413 67 380 35 C348 3 307 -13 258 -13 C209 -13 174 4 153 38 C130 72 125 116 135 174 C144 233 165 279 197 313 C228 346 268 363 317 363 C365 363 402 347 425 315 C448 283 455 238 446 180 L444 172 L444 172 Z M511 520 L487 548 L487 548 L433 617 C417 636 394 646 364 646 C335 646 309 636 285 617 L202 548 L170 520 L186 520 L226 520 L274 520 L306 548 L353 587 L383 549 C383 549 383 549 384 548 L406 520 L511 520 L511 520 Z " />
<glyph glyph-name="atilde" unicode="&#xe3;" horiz-adv-x="582" d="M491 448 L481 391 C445 436 393 458 327 458 C246 458 180 433 127 382 C75 332 41 262 26 172 C12 86 23 19 60 -32 C97 -83 155 -109 233 -109 C301 -109 363 -80 420 -22 L415 -49 L410 -78 L407 -98 L428 -98 L506 -98 L514 -49 L598 448 L491 448 L491 448 Z M444 172 C434 112 413 67 380 35 C348 3 307 -13 258 -13 C209 -13 174 4 153 38 C130 72 125 116 135 174 C144 233 165 279 197 313 C228 346 268 363 317 363 C365 363 402 347 425 315 C448 283 455 238 446 180 L444 172 L444 172 Z M525 643 C525 643 517 623 514 615 C505 589 494 570 484 562 C474 553 461 549 446 549 C438 549 431 553 423 561 C415 569 409 579 402 592 C395 604 388 615 379 628 C371 640 360 650 347 659 C334 667 319 672 303 672 C265 672 231 657 203 626 C174 595 153 553 136 498 L213 484 C213 484 220 502 223 510 C234 538 245 557 254 565 C263 574 274 578 288 578 C297 578 304 574 312 566 C321 557 328 547 335 535 C342 523 350 512 358 499 C367 487 377 477 390 468 C402 460 417 455 432 455 C470 455 502 469 530 499 C558 528 581 570 598 626 L525 643 L525 643 Z " />
<glyph glyph-name="adieresis" unicode="&#xe4;" horiz-adv-x="582" d="M491 448 L481 391 C445 436 393 458 327 458 C246 458 180 433 127 382 C75 332 41 262 26 172 C12 86 23 19 60 -32 C97 -83 155 -109 233 -109 C301 -109 363 -80 420 -22 L415 -49 L410 -78 L407 -98 L428 -98 L506 -98 L514 -49 L598 448 L491 448 L491 448 Z M444 172 C434 112 413 67 380 35 C348 3 307 -13 258 -13 C209 -13 174 4 153 38 C130 72 125 116 135 174 C144 233 165 279 197 313 C228 346 268 363 317 363 C365 363 402 347 425 315 C448 283 455 238 446 180 L444 172 L444 172 Z M215 615 L199 523 L306 523 L322 615 L215 615 L215 615 Z M420 615 L404 523 L511 523 L527 615 L420 615 L420 615 Z " />
<glyph glyph-name="aring" unicode="&#xe5;" horiz-adv-x="582" d="M491 448 L481 391 C445 436 393 458 327 458 C246 458 180 433 127 382 C75 332 41 262 26 172 C12 86 23 19 60 -32 C97 -83 155 -109 233 -109 C301 -109 363 -80 420 -22 L415 -49 L410 -78 L407 -98 L428 -98 L506 -98 L514 -49 L598 448 L491 448 L491 448 Z M444 172 C434 112 413 67 380 35 C348 3 307 -13 258 -13 C209 -13 174 4 153 38 C130 72 125 116 135 174 C144 233 165 279 197 313 C228 346 268 363 317 363 C365 363 402 347 425 315 C448 283 455 238 446 180 L444 172 L444 172 Z M384 651 C337 651 292 614 285 569 C277 524 309 488 356 488 C403 488 446 524 454 569 C461 614 431 651 384 651 L384 651 Z M365 542 C349 542 339 554 342 569 C344 584 358 596 374 596 C390 596 400 584 398 569 C395 554 381 542 365 542 L365 542 Z " />
<glyph glyph-name="ae" unicode="&#xe6;" horiz-adv-x="1041" d="M979 136 L986 174 L986 173 C999 259 987 327 948 380 C908 433 848 460 766 460 C709 460 658 448 613 423 L617 446 L509 446 L500 390 C464 435 413 458 347 458 C267 458 200 433 148 382 C95 331 61 261 45 172 C30 85 41 17 78 -34 C115 -85 172 -111 250 -111 C318 -111 380 -82 437 -24 L424 -100 L523 -100 L527 -76 C564 -101 610 -113 667 -113 C729 -113 784 -98 833 -68 C882 -39 920 3 947 56 L850 88 C850 88 846 82 838 71 C822 44 799 23 773 8 C746 -7 717 -15 684 -15 C639 -15 604 -1 581 26 C568 41 559 58 554 79 C549 96 547 115 548 136 L979 136 L979 136 Z M398 33 C365 1 325 -15 275 -15 C227 -15 192 2 170 36 C149 70 143 116 153 174 C163 232 184 278 216 312 C248 346 288 363 336 363 C385 363 421 347 444 315 C456 298 464 277 467 253 C457 228 450 201 445 172 C440 144 438 118 439 93 C428 70 414 50 398 33 L398 33 Z M586 268 C600 292 618 312 639 328 C670 351 707 363 749 363 C789 363 821 351 845 327 C869 304 882 272 884 231 L568 231 C573 244 580 257 586 268 L586 268 Z " />
<glyph glyph-name="ccedilla" unicode="&#xe7;" horiz-adv-x="571" d="M29 27 C42 -15 67 -48 102 -73 C138 -97 183 -109 239 -109 C303 -109 360 -93 411 -59 C460 -25 498 25 524 89 L422 112 C422 112 414 96 411 89 C376 22 324 -12 256 -12 C207 -12 172 5 150 39 C128 73 122 113 131 168 C142 227 163 274 195 309 C228 344 269 361 319 361 C384 361 424 330 437 267 C441 253 442 245 442 245 L551 272 C546 332 524 378 487 410 C449 442 399 458 336 458 C253 458 185 432 130 380 C74 328 39 257 23 168 C14 114 17 69 29 27 L29 27 Z M373 -155 C360 -142 342 -135 316 -135 L276 -135 L287 -103 L243 -100 L225 -155 C220 -168 221 -177 228 -185 C232 -193 242 -196 255 -196 L302 -196 C308 -196 312 -198 316 -201 C319 -204 321 -208 320 -212 C319 -215 318 -218 316 -221 C315 -223 313 -225 308 -227 C304 -230 298 -231 290 -231 L237 -231 L219 -231 L193 -231 L182 -294 L226 -294 L274 -294 C301 -294 326 -287 347 -272 C368 -257 381 -236 385 -209 C389 -187 385 -168 373 -155 L373 -155 Z " />
<glyph glyph-name="egrave" unicode="&#xe8;" horiz-adv-x="573" d="M560 176 C573 261 559 330 521 382 C481 436 420 462 338 462 C255 462 184 436 126 383 C69 331 32 261 17 174 C3 89 16 21 57 -32 C96 -84 159 -109 242 -109 C304 -109 359 -95 407 -65 C456 -35 494 6 522 59 L423 90 C423 90 419 85 412 74 C396 47 373 26 347 11 C320 -4 291 -12 258 -12 C213 -12 178 2 155 29 C131 56 120 93 121 139 L553 139 L560 176 L560 176 L560 176 Z M141 234 C157 274 181 307 211 330 C242 354 279 365 321 365 C362 365 394 354 417 330 C441 306 455 274 457 234 L141 234 L141 234 Z M431 503 L360 629 L237 629 L338 503 L431 503 L431 503 Z " />
<glyph glyph-name="eacute" unicode="&#xe9;" horiz-adv-x="573" d="M560 176 C573 261 559 330 521 382 C481 436 420 462 338 462 C255 462 184 436 126 383 C69 331 32 261 17 174 C3 89 16 21 57 -32 C96 -84 159 -109 242 -109 C304 -109 359 -95 407 -65 C456 -35 494 6 522 59 L423 90 C423 90 419 85 412 74 C396 47 373 26 347 11 C320 -4 291 -12 258 -12 C213 -12 178 2 155 29 C131 56 120 93 121 139 L553 139 L560 176 L560 176 L560 176 Z M141 234 C157 274 181 307 211 330 C242 354 279 365 321 365 C362 365 394 354 417 330 C441 306 455 274 457 234 L141 234 L141 234 Z M230 505 L323 505 L463 631 L341 631 L230 505 Z " />
<glyph glyph-name="ecircumflex" unicode="&#xea;" horiz-adv-x="573" d="M560 176 C573 261 559 330 521 382 C481 436 420 462 338 462 C255 462 184 436 126 383 C69 331 32 261 17 174 C3 89 16 21 57 -32 C96 -84 159 -109 242 -109 C304 -109 359 -95 407 -65 C456 -35 494 6 522 59 L423 90 C423 90 419 85 412 74 C396 47 373 26 347 11 C320 -4 291 -12 258 -12 C213 -12 178 2 155 29 C131 56 120 93 121 139 L553 139 L560 176 L560 176 L560 176 Z M141 234 C157 274 181 307 211 330 C242 354 279 365 321 365 C362 365 394 354 417 330 C441 306 455 274 457 234 L141 234 L141 234 Z M505 520 L481 548 L481 548 L427 617 C411 636 388 646 358 646 C329 646 303 636 279 617 L196 548 L164 520 L180 520 L220 520 L268 520 L300 548 L347 587 L377 549 C377 549 377 549 378 548 L400 520 L505 520 L505 520 Z " />
<glyph glyph-name="edieresis" unicode="&#xeb;" horiz-adv-x="573" d="M560 176 C573 261 559 330 521 382 C481 436 420 462 338 462 C255 462 184 436 126 383 C69 331 32 261 17 174 C3 89 16 21 57 -32 C96 -84 159 -109 242 -109 C304 -109 359 -95 407 -65 C456 -35 494 6 522 59 L423 90 C423 90 419 85 412 74 C396 47 373 26 347 11 C320 -4 291 -12 258 -12 C213 -12 178 2 155 29 C131 56 120 93 121 139 L553 139 L560 176 L560 176 L560 176 Z M141 234 C157 274 181 307 211 330 C242 354 279 365 321 365 C362 365 394 354 417 330 C441 306 455 274 457 234 L141 234 L141 234 Z M203 615 L187 523 L294 523 L310 615 L203 615 L203 615 Z M408 615 L392 523 L499 523 L515 615 L408 615 L408 615 Z " />
<glyph glyph-name="igrave" unicode="&#xec;" horiz-adv-x="211" d="M-23 -100 L83 -100 L178 448 L71 448 L-23 -100 Z M218 503 L147 629 L24 629 L125 503 L218 503 L218 503 Z " />
<glyph glyph-name="iacute" unicode="&#xed;" horiz-adv-x="215" d="M-23 -100 L83 -100 L178 448 L71 448 L-23 -100 Z M-1 503 L92 503 L232 629 L110 629 L-1 503 Z " />
<glyph glyph-name="icircumflex" unicode="&#xee;" horiz-adv-x="186" d="M-23 -100 L83 -100 L178 448 L71 448 L-23 -100 Z M301 520 L277 548 L277 548 L223 617 C207 636 184 646 154 646 C125 646 99 636 75 617 L-8 548 L-40 520 L-24 520 L16 520 L64 520 L96 548 L143 587 L173 549 C173 549 173 549 174 548 L196 520 L301 520 L301 520 Z " />
<glyph glyph-name="idieresis" unicode="&#xef;" horiz-adv-x="343" d="M18 -100 L124 -100 L219 448 L112 448 L18 -100 Z M35 615 L19 523 L126 523 L142 615 L35 615 L35 615 Z M240 615 L224 523 L331 523 L347 615 L240 615 L240 615 Z " />
<glyph glyph-name="eth" unicode="&#xf0;" horiz-adv-x="592" d="M240 -109 C321 -109 389 -84 445 -32 C500 19 536 85 550 173 C565 260 553 330 514 381 C476 433 416 458 335 458 C255 458 186 433 130 382 C75 330 40 261 25 173 C11 85 22 19 61 -32 C99 -84 160 -109 240 -109 L240 -109 Z M197 311 C229 345 270 362 319 362 C368 362 403 345 424 310 C447 277 452 231 442 173 C433 115 413 73 379 39 C346 5 305 -12 256 -12 C207 -12 172 5 151 39 C129 72 122 114 132 173 C142 231 164 277 197 311 L197 311 Z " />
<glyph glyph-name="ntilde" unicode="&#xf1;" horiz-adv-x="497" d="M492 399 C464 438 414 458 341 458 C275 458 219 431 171 377 L177 410 L180 428 L183 448 L163 448 L84 448 L78 410 L-10 -100 L95 -100 L151 219 C159 265 177 301 206 326 C234 351 271 363 317 363 C360 363 388 352 399 328 C411 305 413 269 404 219 L348 -100 L456 -100 L513 224 C526 301 519 360 492 399 L492 399 Z M515 643 C515 643 507 623 504 615 C495 589 484 570 474 562 C464 553 451 549 436 549 C428 549 421 553 413 561 C405 569 399 579 392 592 C385 604 378 615 369 628 C361 640 350 650 337 659 C324 667 309 672 293 672 C255 672 221 657 193 626 C164 595 143 553 126 498 L203 484 C203 484 210 502 213 510 C224 538 235 557 244 565 C253 574 264 578 278 578 C287 578 294 574 302 566 C311 557 318 547 325 535 C332 523 340 512 348 499 C357 487 367 477 380 468 C392 460 407 455 422 455 C460 455 492 469 520 499 C548 528 571 570 588 626 L515 643 L515 643 Z " />
<glyph glyph-name="ograve" unicode="&#xf2;" horiz-adv-x="573" d="M240 -109 C321 -109 389 -84 445 -32 C500 19 536 85 550 173 C565 260 553 330 514 381 C476 433 416 458 335 458 C255 458 186 433 130 382 C75 330 40 261 25 173 C11 85 22 19 61 -32 C99 -84 160 -109 240 -109 L240 -109 Z M197 311 C229 345 270 362 319 362 C368 362 403 345 424 310 C447 277 452 231 442 173 C433 115 413 73 379 39 C346 5 305 -12 256 -12 C207 -12 172 5 151 39 C129 72 122 114 132 173 C142 231 164 277 197 311 L197 311 Z M450 503 L379 629 L256 629 L357 503 L450 503 L450 503 Z " />
<glyph glyph-name="oacute" unicode="&#xf3;" horiz-adv-x="573" d="M240 -109 C321 -109 389 -84 445 -32 C500 19 536 85 550 173 C565 260 553 330 514 381 C476 433 416 458 335 458 C255 458 186 433 130 382 C75 330 40 261 25 173 C11 85 22 19 61 -32 C99 -84 160 -109 240 -109 L240 -109 Z M197 311 C229 345 270 362 319 362 C368 362 403 345 424 310 C447 277 452 231 442 173 C433 115 413 73 379 39 C346 5 305 -12 256 -12 C207 -12 172 5 151 39 C129 72 122 114 132 173 C142 231 164 277 197 311 L197 311 Z M276 503 L369 503 L509 629 L387 629 L276 503 Z " />
<glyph glyph-name="ocircumflex" unicode="&#xf4;" horiz-adv-x="573" d="M240 -109 C321 -109 389 -84 445 -32 C500 19 536 85 550 173 C565 260 553 330 514 381 C476 433 416 458 335 458 C255 458 186 433 130 382 C75 330 40 261 25 173 C11 85 22 19 61 -32 C99 -84 160 -109 240 -109 L240 -109 Z M197 311 C229 345 270 362 319 362 C368 362 403 345 424 310 C447 277 452 231 442 173 C433 115 413 73 379 39 C346 5 305 -12 256 -12 C207 -12 172 5 151 39 C129 72 122 114 132 173 C142 231 164 277 197 311 L197 311 Z M517 522 L493 550 L493 550 L439 619 C423 638 400 648 370 648 C341 648 315 638 291 619 L208 550 L176 522 L192 522 L232 522 L280 522 L312 550 L359 589 L389 551 C389 551 389 551 390 550 L412 522 L517 522 L517 522 Z " />
<glyph glyph-name="otilde" unicode="&#xf5;" horiz-adv-x="573" d="M240 -109 C321 -109 389 -84 445 -32 C500 19 536 85 550 173 C565 260 553 330 514 381 C476 433 416 458 335 458 C255 458 186 433 130 382 C75 330 40 261 25 173 C11 85 22 19 61 -32 C99 -84 160 -109 240 -109 L240 -109 Z M197 311 C229 345 270 362 319 362 C368 362 403 345 424 310 C447 277 452 231 442 173 C433 115 413 73 379 39 C346 5 305 -12 256 -12 C207 -12 172 5 151 39 C129 72 122 114 132 173 C142 231 164 277 197 311 L197 311 Z M520 643 C520 643 512 623 509 615 C500 589 489 570 479 562 C469 553 456 549 441 549 C433 549 426 553 418 561 C410 569 404 579 397 592 C390 604 383 615 374 628 C366 640 355 650 342 659 C329 667 314 672 298 672 C260 672 226 657 198 626 C169 595 148 553 131 498 L208 484 C208 484 215 502 218 510 C229 538 240 557 249 565 C258 574 269 578 283 578 C292 578 299 574 307 566 C316 557 323 547 330 535 C337 523 345 512 353 499 C362 487 372 477 385 468 C397 460 412 455 427 455 C465 455 497 469 525 499 C553 528 576 570 593 626 L520 643 L520 643 Z " />
<glyph glyph-name="odieresis" unicode="&#xf6;" horiz-adv-x="573" d="M240 -109 C321 -109 389 -84 445 -32 C500 19 536 85 550 173 C565 260 553 330 514 381 C476 433 416 458 335 458 C255 458 186 433 130 382 C75 330 40 261 25 173 C11 85 22 19 61 -32 C99 -84 160 -109 240 -109 L240 -109 Z M197 311 C229 345 270 362 319 362 C368 362 403 345 424 310 C447 277 452 231 442 173 C433 115 413 73 379 39 C346 5 305 -12 256 -12 C207 -12 172 5 151 39 C129 72 122 114 132 173 C142 231 164 277 197 311 L197 311 Z M226 615 L210 523 L317 523 L333 615 L226 615 L226 615 Z M431 615 L415 523 L522 523 L538 615 L431 615 L431 615 Z " />
<glyph glyph-name="oslash" unicode="&#xf8;" horiz-adv-x="573" d="M514 386 C505 396 497 406 487 415 L544 506 L438 506 L405 455 C384 460 361 463 335 463 C255 463 186 437 130 386 C74 335 39 265 25 177 C10 89 21 20 60 -32 C68 -43 77 -52 87 -61 L31 -153 L136 -153 L168 -101 C189 -106 213 -109 239 -109 C320 -109 388 -83 444 -32 C499 20 535 89 550 177 C564 264 552 334 514 386 L514 386 Z M132 177 C141 235 163 281 196 315 C229 349 269 366 318 366 C329 366 339 365 349 364 L149 40 C128 73 122 119 132 177 L132 177 Z M377 39 C345 6 304 -12 255 -12 C244 -12 234 -11 224 -9 L425 314 C446 280 451 235 442 177 C432 119 411 73 377 39 L377 39 Z " />
<glyph glyph-name="ugrave" unicode="&#xf9;" horiz-adv-x="532" d="M443 448 L387 130 C378 84 360 48 333 23 C304 -1 268 -14 222 -14 C179 -14 151 -2 139 21 C127 44 126 80 135 130 L191 448 L83 448 L25 123 C12 46 19 -12 47 -51 C75 -90 124 -109 197 -109 C262 -109 319 -82 367 -28 L354 -99 L375 -99 L454 -99 L551 448 L443 448 L443 448 Z M358 503 L287 629 L164 629 L265 503 L358 503 L358 503 Z " />
<glyph glyph-name="uacute" unicode="&#xfa;" horiz-adv-x="530" d="M443 448 L387 130 C378 84 360 48 333 23 C304 -1 268 -14 222 -14 C179 -14 151 -2 139 21 C127 44 126 80 135 130 L191 448 L83 448 L25 123 C12 46 19 -12 47 -51 C75 -90 124 -109 197 -109 C262 -109 319 -82 367 -28 L354 -99 L375 -99 L454 -99 L551 448 L443 448 L443 448 Z M225 503 L318 503 L458 629 L336 629 L225 503 Z " />
<glyph glyph-name="ucircumflex" unicode="&#xfb;" horiz-adv-x="532" d="M443 448 L387 130 C378 84 360 48 333 23 C304 -1 268 -14 222 -14 C179 -14 151 -2 139 21 C127 44 126 80 135 130 L191 448 L83 448 L25 123 C12 46 19 -12 47 -51 C75 -90 124 -109 197 -109 C262 -109 319 -82 367 -28 L354 -99 L375 -99 L454 -99 L551 448 L443 448 L443 448 Z M493 520 L469 548 L469 548 L415 617 C399 636 376 646 346 646 C317 646 291 636 267 617 L184 548 L152 520 L168 520 L208 520 L256 520 L288 548 L335 587 L365 549 C365 549 365 549 366 548 L388 520 L493 520 L493 520 Z " />
<glyph glyph-name="udieresis" unicode="&#xfc;" horiz-adv-x="536" d="M443 448 L387 130 C378 84 360 48 333 23 C304 -1 268 -14 222 -14 C179 -14 151 -2 139 21 C127 44 126 80 135 130 L191 448 L83 448 L25 123 C12 46 19 -12 47 -51 C75 -90 124 -109 197 -109 C262 -109 319 -82 367 -28 L354 -99 L375 -99 L454 -99 L551 448 L443 448 L443 448 Z M181 613 L165 521 L272 521 L288 613 L181 613 L181 613 Z M386 613 L370 521 L477 521 L493 613 L386 613 L386 613 Z " />
<glyph glyph-name="yacute" unicode="&#xfd;" horiz-adv-x="546" d="M480 448 L261 44 L186 448 L73 448 L185 -93 L161 -139 C145 -167 126 -181 102 -181 L97 -181 L70 -181 L50 -181 L46 -202 L32 -282 L79 -282 L89 -282 C122 -282 153 -272 182 -252 C212 -232 236 -203 257 -166 L599 448 L480 448 L480 448 Z M220 503 L313 503 L453 629 L331 629 L220 503 Z " />
<glyph glyph-name="ydieresis" unicode="&#xff;" horiz-adv-x="544" d="M482 448 L263 44 L188 448 L75 448 L187 -93 L163 -139 C147 -167 128 -181 104 -181 L99 -181 L72 -181 L52 -181 L48 -202 L34 -282 L81 -282 L91 -282 C124 -282 155 -272 184 -252 C214 -232 238 -203 259 -166 L601 448 L482 448 L482 448 Z M201 611 L185 519 L292 519 L308 611 L201 611 L201 611 Z M406 611 L390 519 L497 519 L513 611 L406 611 L406 611 Z " />
<glyph glyph-name="Lslash" unicode="&#x141;" horiz-adv-x="616" d="M196 4 L238 230 L332 257 L376 270 L366 362 L257 331 L313 631 L199 631 L136 296 L59 274 L14 261 L25 169 L117 195 L63 -100 L529 -100 L548 4 L196 4 L196 4 Z " />
<glyph glyph-name="lslash" unicode="&#x142;" horiz-adv-x="371" d="M215 0 C201 0 191 4 184 12 C177 20 175 31 177 44 L210 236 L307 265 L352 278 L338 370 L227 337 L276 630 L169 630 L114 304 L34 280 L-10 266 L2 174 L97 203 L70 44 C63 0 70 -35 92 -61 C114 -87 148 -100 194 -100 L273 -100 L285 -27 L290 0 L215 0 Z " />
<glyph glyph-name="OE" unicode="&#x152;" horiz-adv-x="1108" d="M768 527 L1129 527 L1147 631 L672 631 L663 578 C615 621 549 643 464 643 C393 643 329 627 272 595 C213 563 167 519 130 462 C94 406 68 340 56 265 C46 210 46 160 54 113 C61 67 76 27 99 -6 C122 -40 154 -65 195 -84 C235 -102 282 -112 335 -112 C419 -112 493 -90 556 -47 L547 -100 L1022 -100 L1040 4 L679 4 L716 224 L1067 224 L1085 327 L734 327 L768 527 L768 527 Z M588 139 C574 112 557 88 537 67 C489 17 428 -8 353 -8 C322 -8 294 -4 270 5 C246 14 227 27 214 43 C200 58 189 75 181 94 C173 112 168 132 167 154 C164 175 164 195 165 213 C165 230 167 248 170 265 C179 319 195 366 219 406 C243 447 274 479 313 503 C352 527 397 539 446 539 C521 539 574 514 605 465 C618 444 627 420 631 392 L588 139 L588 139 Z " />
<glyph glyph-name="oe" unicode="&#x153;" horiz-adv-x="1025" d="M986 140 L993 177 L992 177 C1006 262 994 331 955 383 C917 437 855 463 773 463 C690 463 619 437 561 384 C560 385 559 385 559 386 C522 438 462 463 381 463 C300 463 232 438 175 386 C119 335 83 265 68 177 C52 90 64 20 102 -32 C139 -83 199 -109 280 -109 C361 -109 429 -83 486 -32 C486 -31 487 -31 487 -30 C487 -30 487 -30 487 -30 C526 -83 588 -109 672 -109 C733 -109 789 -94 838 -64 C887 -34 925 7 953 60 L855 91 C855 91 851 86 844 75 C827 48 805 27 778 12 C752 -3 722 -11 689 -11 C643 -11 610 3 585 30 C576 42 567 57 561 74 C556 93 553 115 554 140 L986 140 L986 140 Z M420 40 C387 6 346 -11 297 -11 C248 -11 213 6 192 40 C170 73 165 119 176 177 C186 236 207 282 241 315 C274 349 315 366 364 366 C413 366 448 349 469 315 C475 305 480 294 484 282 C468 250 457 214 450 175 C444 138 442 103 446 72 C439 60 430 50 420 40 L420 40 Z M575 234 C581 251 588 267 598 281 C611 301 627 317 646 331 C677 355 714 366 756 366 C796 366 828 355 852 331 C876 307 888 275 890 234 L575 234 L575 234 Z " />
<glyph glyph-name="Scaron" unicode="&#x160;" horiz-adv-x="584" d="M378 27 C343 4 300 -8 249 -8 C172 -8 108 14 60 57 C50 66 45 71 45 71 L-38 -9 C-8 -43 27 -68 69 -85 C112 -101 164 -109 227 -109 C315 -109 389 -91 447 -53 C505 -15 541 40 554 112 C563 168 552 214 520 250 C487 286 434 313 360 331 L257 356 C226 364 202 375 187 391 C172 408 166 426 171 447 C183 511 237 543 332 543 C380 543 434 521 492 478 C496 475 508 465 508 465 L593 546 C534 611 454 643 354 643 C274 643 207 626 154 593 C101 559 69 510 57 445 C53 418 53 393 61 371 C67 349 78 330 95 315 C111 299 131 287 152 277 C174 266 199 258 227 252 L320 230 C364 220 397 204 417 182 C437 161 444 136 438 110 C433 78 412 50 378 27 L378 27 Z M550 827 L446 827 L414 798 C414 798 413 798 413 797 L371 760 L336 798 L313 827 L265 827 L225 827 L208 827 L233 799 L293 730 C311 710 335 701 363 701 C393 701 419 710 441 730 L517 799 L518 799 L550 827 Z " />
<glyph glyph-name="scaron" unicode="&#x161;" horiz-adv-x="473" d="M414 167 C388 197 349 218 297 230 L211 250 C196 253 183 260 176 270 C167 281 165 293 167 306 C170 324 180 339 198 350 C216 361 238 366 265 366 C312 366 350 352 380 323 C390 313 393 309 393 309 L473 381 C458 402 435 420 404 437 C372 453 334 461 291 461 C229 461 178 447 137 418 C96 388 70 349 62 300 C56 264 63 233 84 206 C104 180 135 163 177 154 C188 151 204 148 223 144 C242 140 256 137 264 135 C290 131 309 122 321 108 C334 95 338 78 335 60 C331 38 319 20 298 7 C277 -6 249 -13 212 -13 C189 -13 166 -8 145 1 C123 11 104 22 90 36 C80 44 75 49 75 49 L-3 -25 C18 -50 45 -71 80 -86 C114 -102 154 -109 198 -109 C265 -109 320 -94 363 -64 C407 -33 433 8 442 60 C449 101 439 136 414 167 L414 167 Z M505 629 L401 629 L369 600 C369 600 368 600 368 599 L326 562 L291 600 L268 629 L220 629 L180 629 L163 629 L188 601 L248 532 C266 512 290 503 318 503 C348 503 374 512 396 532 L472 601 L473 601 L505 629 Z " />
<glyph glyph-name="Ydieresis" unicode="&#x178;" horiz-adv-x="579" d="M171 -100 L285 -100 L346 248 L666 629 L535 629 L307 354 L178 629 L43 629 L232 248 L171 -100 L171 -100 Z M219 808 L203 716 L310 716 L326 808 L219 808 L219 808 Z M424 808 L408 716 L515 716 L531 808 L424 808 L424 808 Z " />
<glyph glyph-name="Zcaron" unicode="&#x17d;" horiz-adv-x="558" d="M627 629 L83 629 L66 526 L467 526 L-20 3 L-37 -100 L506 -100 L523 3 L120 3 L610 526 L627 629 L627 629 Z M557 829 L453 829 L421 800 C421 800 420 800 420 799 L378 762 L343 800 L320 829 L272 829 L232 829 L215 829 L240 801 L300 732 C318 712 342 703 370 703 C400 703 426 712 448 732 L524 801 L525 801 L557 829 Z " />
<glyph glyph-name="zcaron" unicode="&#x17e;" horiz-adv-x="500" d="M522 448 L72 448 L55 351 L366 351 L-3 -3 L-20 -100 L429 -100 L446 -3 L136 -3 L505 351 L522 448 L522 448 Z M506 629 L402 629 L370 600 C370 600 369 600 369 599 L327 562 L292 600 L269 629 L221 629 L181 629 L164 629 L189 601 L249 532 C267 512 291 503 319 503 C349 503 375 512 397 532 L473 601 L474 601 L506 629 Z " />
<glyph glyph-name="circumflex" unicode="&#x2c6;" horiz-adv-x="368" d="M351 520 L327 548 L327 548 L273 617 C257 636 234 646 204 646 C175 646 149 636 125 617 L42 548 L10 520 L26 520 L66 520 L114 520 L146 548 L193 587 L223 549 C223 549 223 549 224 548 L246 520 L351 520 L351 520 Z " />
<glyph glyph-name="caron" unicode="&#x2c7;" horiz-adv-x="349" d="M349 629 L245 629 L213 600 C213 600 212 600 212 599 L170 562 L135 600 L112 629 L64 629 L24 629 L7 629 L32 601 L92 532 C110 512 134 503 162 503 C192 503 218 512 240 532 L316 601 L317 601 L349 629 L349 629 Z " />
<glyph glyph-name="ring" unicode="&#x2da;" horiz-adv-x="224" d="M125 651 C78 651 33 614 26 569 C18 524 50 488 97 488 C144 488 187 524 195 569 C202 614 172 651 125 651 L125 651 Z M106 542 C90 542 80 554 83 569 C85 584 99 596 115 596 C131 596 141 584 139 569 C136 554 122 542 106 542 L106 542 Z " />
<glyph glyph-name="tilde" unicode="&#x2dc;" horiz-adv-x="545" d="M435 643 C435 643 427 623 424 615 C415 589 404 570 394 562 C384 553 371 549 356 549 C348 549 341 553 333 561 C325 569 319 579 312 592 C305 604 298 615 289 628 C281 640 270 650 257 659 C244 667 229 672 213 672 C175 672 141 657 113 626 C84 595 63 553 46 498 L123 484 C123 484 130 502 133 510 C144 538 155 557 164 565 C173 574 184 578 198 578 C207 578 214 574 222 566 C231 557 238 547 245 535 C252 523 260 512 268 499 C277 487 287 477 300 468 C312 460 327 455 342 455 C380 455 412 469 440 499 C468 528 491 570 508 626 L435 643 L435 643 Z " />
<glyph glyph-name="quoteleft" unicode="&#x2018;" horiz-adv-x="151" d="M93 641 C74 641 58 634 44 622 C29 610 20 595 17 576 C14 554 19 537 33 526 C40 520 40 510 34 497 L13 454 C12 451 12 448 14 445 C16 443 18 441 22 441 C44 441 62 445 75 453 C89 461 101 475 111 495 C132 540 144 567 145 576 C148 595 145 611 135 623 C125 635 111 641 93 641 L93 641 Z " />
<glyph glyph-name="quoteright" unicode="&#x2019;" horiz-adv-x="153" d="M93 641 C74 641 58 634 44 622 C29 610 20 595 17 576 C14 554 19 537 33 526 C40 520 40 510 34 497 L13 454 C12 451 12 448 14 445 C16 443 18 441 22 441 C44 441 62 445 75 453 C89 461 101 475 111 495 C132 540 144 567 145 576 C148 595 145 611 135 623 C125 635 111 641 93 641 L93 641 Z " />
<glyph glyph-name="quotedblleft" unicode="&#x201c;" horiz-adv-x="299" d="M240 647 C221 647 205 640 191 628 C176 616 168 601 164 582 C160 560 165 543 178 532 C186 526 186 516 179 503 L158 460 C156 457 156 454 158 451 C159 449 162 448 166 448 C188 448 206 451 219 459 C233 467 244 481 255 502 C278 546 290 573 292 582 C296 601 293 617 283 628 C273 641 259 647 240 647 L240 647 Z M92 647 C74 647 57 640 43 628 C28 616 20 601 16 582 C12 560 17 543 30 532 C38 526 38 516 31 503 L9 460 C8 457 8 454 9 451 C10 449 13 448 17 448 C40 448 58 451 71 459 C85 467 96 481 108 502 C130 546 142 573 144 582 C148 601 145 617 135 628 C125 641 111 647 92 647 L92 647 Z " />
<glyph glyph-name="quotedblright" unicode="&#x201d;" horiz-adv-x="301" d="M240 647 C221 647 205 640 191 628 C176 616 168 601 164 582 C160 560 165 543 178 532 C186 526 186 516 179 503 L158 460 C156 457 156 454 158 451 C159 449 162 448 166 448 C188 448 206 451 219 459 C233 467 244 481 255 502 C278 546 290 573 292 582 C296 601 293 617 283 628 C273 641 259 647 240 647 L240 647 Z M92 647 C74 647 57 640 43 628 C28 616 20 601 16 582 C12 560 17 543 30 532 C38 526 38 516 31 503 L9 460 C8 457 8 454 9 451 C10 449 13 448 17 448 C40 448 58 451 71 459 C85 467 96 481 108 502 C130 546 142 573 144 582 C148 601 145 617 135 628 C125 641 111 647 92 647 L92 647 Z " />
<glyph glyph-name="Euro" unicode="&#x20ac;" horiz-adv-x="625" d="M590 631 L479 631 C395 631 322 611 260 569 C198 528 152 470 120 395 L81 395 L36 395 L21 308 L90 308 C89 299 87 285 83 266 C81 252 79 241 78 235 L54 235 L9 235 L-5 147 L76 147 C80 68 106 5 155 -41 C203 -86 269 -109 354 -109 L484 -109 L524 -109 L538 -26 L543 3 L515 3 L503 3 L373 3 C265 3 206 51 193 147 L425 147 L470 147 L485 235 L194 235 C194 241 196 252 198 266 C200 276 203 290 207 308 L493 308 L538 308 L553 395 L240 395 C286 478 359 520 460 520 L571 520 L602 520 L630 520 L635 549 L649 631 L590 631 L590 631 Z " />
<glyph glyph-name="fi" unicode="&#xfb01;" horiz-adv-x="527" d="M385 637 L320 637 C272 637 231 623 199 596 C166 568 145 531 137 484 L131 447 L87 447 L49 447 L37 376 L33 350 L59 350 L71 350 L115 350 L38 -100 L146 -100 L223 350 L492 350 L508 447 L239 447 L245 484 C248 500 255 513 266 523 C277 533 291 538 307 538 L368 538 L401 538 L427 538 L431 564 L444 637 L385 637 L385 637 Z M308 -100 L415 -100 L508 447 L401 447 L308 -100 L308 -100 Z " />
<glyph glyph-name="fl" unicode="&#xfb02;" horiz-adv-x="562" d="M317 629 C269 629 228 615 196 588 C163 560 143 523 135 476 L129 439 L46 439 L30 342 L113 342 L38 -100 L145 -100 L220 342 L348 342 L364 439 L236 439 L242 476 C245 492 252 505 263 515 C274 525 288 530 304 530 L424 530 L441 629 L317 629 Z M435 -1 C421 -1 411 3 404 11 C398 19 396 30 398 43 L500 629 L393 629 L291 43 C283 -1 290 -36 313 -62 C334 -87 368 -100 414 -100 L493 -100 L510 -1 L435 -1 Z " />
</font>
</svg>
