<?xml version="1.0" encoding="UTF-8"?>
<svg xmlns="http://www.w3.org/2000/svg" xmlns:xlink="http://www.w3.org/1999/xlink" version="1.2" >
<font id="Noirden Extra Light">
<font-face  font-family="Noirden" units-per-em="1000" ascent="750" descent="-250" font-style="normal" font-weight="400" font-stretch="normal" cap-height="900" x-height="700" underline-position="-75" underline-thickness="50" />
<missing-glyph  horiz-adv-x="197" d="" />
<glyph glyph-name="NULL" d="" />
<glyph glyph-name="CR" unicode="&#xd;" horiz-adv-x="197" d="" />
<glyph glyph-name="space" unicode="&#x20;" horiz-adv-x="197" d="" />
<glyph glyph-name="exclam" unicode="&#x21;" horiz-adv-x="124" d="M45 0 L79 0 C79 32 79 171 79 629 L44 629 L45 0 Z M41 -100 L82 -100 L82 -59 L41 -59 L41 -100 L41 -100 Z " />
<glyph glyph-name="quotedbl" unicode="&#x22;" horiz-adv-x="187" d="M35 511 C44 511 51 513 56 516 C61 519 64 525 67 534 C83 586 91 614 91 619 C91 627 88 635 82 640 C77 646 70 648 62 648 C53 648 46 645 40 640 C34 634 31 627 31 619 C31 609 35 601 43 595 C48 592 49 587 47 580 L30 520 C29 518 29 516 30 514 C31 512 33 511 35 511 L35 511 Z M108 511 C117 511 124 513 129 516 C134 519 137 525 140 534 C155 584 163 612 163 619 C163 628 160 635 154 640 C149 646 142 648 133 648 C125 648 118 645 112 640 C107 634 104 627 104 619 C104 608 108 601 115 595 C120 591 122 586 120 580 L102 520 C101 518 102 516 103 514 C104 512 106 511 108 511 L108 511 Z " />
<glyph glyph-name="numbersign" unicode="&#x23;" horiz-adv-x="624" d="M571 370 L578 400 L471 400 L519 629 L489 629 L441 400 L228 400 L276 629 L246 629 L198 400 L91 400 L84 370 L190 370 L146 157 L39 157 L32 127 L139 127 L90 -100 L120 -100 L169 127 L382 127 L333 -100 L364 -100 L412 127 L519 127 L526 157 L419 157 L464 370 L571 370 Z M389 157 L176 157 L221 370 L433 370 L389 157 Z " />
<glyph glyph-name="dollar" unicode="&#x24;" horiz-adv-x="577" d="M369 290 L308 305 L308 611 C336 608 363 601 390 590 C427 574 454 558 483 533 C491 526 501 518 501 518 L521 542 C494 569 461 591 425 609 C388 627 349 638 308 642 L308 734 L277 734 L277 643 C277 643 277 643 276 643 L276 643 C199 643 139 627 98 597 C56 567 35 523 35 467 C35 379 94 322 212 294 L277 278 L277 -78 C191 -77 118 -49 57 5 C52 9 42 18 42 18 L19 -8 C90 -74 176 -108 277 -109 L277 -203 L277 -207 L282 -207 C282 -207 282 -207 282 -207 L285 -207 C286 -207 286 -207 286 -207 L308 -207 L308 -188 L308 -109 C387 -105 448 -86 490 -51 C533 -17 554 32 554 95 C554 194 492 259 369 290 L369 290 Z M219 327 C120 351 71 398 71 467 C71 514 89 550 124 575 C159 600 210 612 277 612 L277 312 L219 327 L219 327 Z M458 -33 C422 -60 372 -75 308 -78 L308 270 L361 257 C466 233 518 178 518 94 C518 40 498 -2 458 -33 L458 -33 Z " />
<glyph glyph-name="percent" unicode="&#x25;" horiz-adv-x="618" d="M148 395 C183 395 212 407 236 432 C261 456 273 486 273 521 C273 556 261 585 236 609 C212 633 183 645 148 645 C113 645 84 633 59 609 C35 585 23 556 23 521 C23 486 35 456 59 432 C84 407 113 395 148 395 L148 395 Z M79 590 C98 609 121 619 148 619 C175 619 198 609 217 590 C237 570 246 547 246 521 C246 493 237 470 218 451 C198 432 175 422 148 422 C121 422 98 432 79 451 C59 470 50 493 50 521 C50 548 59 571 79 590 L79 590 Z M522 105 C498 130 469 142 434 142 C399 142 369 130 345 105 C321 81 309 51 309 16 C309 -19 321 -48 345 -72 C369 -96 399 -109 434 -109 C469 -109 498 -96 522 -72 C546 -48 558 -19 558 16 C558 51 546 81 522 105 L522 105 Z M503 -53 C484 -73 460 -82 434 -82 C407 -82 384 -73 365 -53 C346 -34 336 -11 336 16 C336 43 345 66 365 86 C384 105 407 114 434 114 C461 114 484 105 503 86 C523 66 532 43 532 16 C532 -11 523 -34 503 -53 L503 -53 Z M556 633 L520 633 C520 633 516 627 508 615 L28 -96 L43 -96 L64 -96 L76 -79 C76 -79 76 -79 76 -78 L556 633 L556 633 Z " />
<glyph glyph-name="ampersand" unicode="&#x26;" horiz-adv-x="720" d="M694 -68 L683 -68 C662 -68 642 -64 623 -54 C603 -45 587 -32 575 -16 L549 15 C603 77 640 153 661 246 L645 251 C640 253 629 256 629 256 C629 256 625 242 623 236 C605 160 573 95 529 40 L283 348 L345 389 C401 425 429 466 429 513 C429 553 416 585 390 608 C363 630 328 641 283 641 C241 641 207 630 182 607 C157 584 144 554 144 516 C144 485 157 452 184 419 L235 355 L137 292 C104 270 78 244 60 214 C42 184 33 152 33 117 C33 50 57 -5 105 -47 C153 -88 217 -109 295 -109 C383 -109 461 -76 528 -9 L551 -39 C566 -57 585 -72 608 -82 C633 -93 658 -98 683 -98 L693 -98 L712 -98 L712 -80 L712 -68 L694 -68 L694 -68 Z M212 436 C190 465 178 492 178 516 C178 545 188 568 207 586 C226 603 251 611 283 611 C317 611 344 603 364 585 C384 568 394 543 394 512 C394 493 389 475 379 460 C368 444 351 429 328 414 L263 373 L212 436 L212 436 Z M295 -78 C227 -78 172 -61 131 -25 C89 11 68 58 68 117 C68 176 96 224 152 262 L256 330 L507 16 C446 -47 375 -78 295 -78 L295 -78 Z " />
<glyph glyph-name="quotesingle" unicode="&#x27;" horiz-adv-x="139" d="M47 504 C56 504 63 506 68 509 C73 512 77 518 79 527 C95 579 103 607 103 612 C103 620 100 628 95 633 C89 639 82 641 74 641 C65 641 58 638 52 633 C46 627 43 620 43 612 C43 601 47 593 55 587 C60 585 61 580 59 573 L42 513 C41 511 41 509 42 507 C44 505 45 504 47 504 L47 504 Z " />
<glyph glyph-name="parenleft" unicode="&#x28;" horiz-adv-x="235" d="M168 -212 L176 -208 C182 -205 195 -198 195 -198 C195 -198 189 -186 186 -181 C118 -40 84 99 84 237 C84 401 118 544 185 668 C188 673 195 688 195 688 L169 700 C90 563 51 409 51 237 C51 91 90 -58 168 -212 L168 -212 Z " />
<glyph glyph-name="parenright" unicode="&#x29;" horiz-adv-x="234" d="M59 -208 L67 -212 C145 -58 185 91 185 237 C185 409 145 563 66 700 L40 688 C40 688 48 673 51 668 C118 544 151 401 151 237 C151 99 117 -40 49 -181 C46 -186 40 -198 40 -198 C40 -198 53 -205 59 -208 L59 -208 Z " />
<glyph glyph-name="asterisk" unicode="&#x2a;" horiz-adv-x="448" d="M406 501 L397 530 L241 474 L245 641 L214 641 L221 474 L64 530 L54 501 L214 455 L112 324 L137 306 L230 443 L324 306 L349 324 L247 455 L406 501 L406 501 Z " />
<glyph glyph-name="plus" unicode="&#x2b;" horiz-adv-x="564" d="M526 269 L300 269 L300 506 L265 506 L265 269 L39 269 L39 238 L265 238 L265 0 L300 0 L300 238 L526 238 L526 269 L526 269 Z " />
<glyph glyph-name="comma" unicode="&#x2c;" horiz-adv-x="139" d="M55 -189 C64 -189 71 -187 76 -184 C81 -182 84 -176 86 -167 C103 -115 111 -87 111 -82 C111 -73 108 -66 102 -60 C96 -55 89 -52 81 -52 C73 -52 65 -55 59 -60 C54 -66 51 -73 51 -82 C51 -92 55 -100 63 -106 C67 -109 69 -114 67 -121 L50 -182 C49 -183 49 -185 50 -186 C51 -188 53 -189 55 -189 L55 -189 Z " />
<glyph glyph-name="hyphen" unicode="&#x2d;" horiz-adv-x="434" d="M60 275 L60 243 L380 243 L380 275 L60 275 Z " />
<glyph glyph-name="period" unicode="&#x2e;" horiz-adv-x="88" d="M44 -109 C61 -109 74 -96 74 -79 C74 -63 61 -49 44 -49 C27 -49 15 -62 15 -79 C15 -96 26 -109 44 -109 L44 -109 Z " />
<glyph glyph-name="slash" unicode="&#x2f;" horiz-adv-x="569" d="M55 -203 L89 -203 L514 750 L479 750 L55 -203 L55 -203 Z " />
<glyph glyph-name="zero" unicode="0" horiz-adv-x="633" d="M316 -109 C402 -109 467 -75 514 -9 C560 57 583 148 583 270 C583 389 560 480 514 545 C467 610 402 642 316 642 C231 642 165 610 118 545 C72 480 49 389 49 270 C49 148 72 57 118 -9 C165 -76 231 -109 316 -109 L316 -109 Z M316 -76 C242 -76 185 -46 145 15 C105 76 85 158 85 270 C85 378 105 462 145 521 C185 580 242 610 316 610 C390 610 447 580 487 521 C527 462 548 378 548 270 C548 158 527 76 487 15 C447 -46 390 -76 316 -76 L316 -76 Z " />
<glyph glyph-name="one" unicode="1" horiz-adv-x="215" d="M170 635 L143 635 L140 601 C139 588 136 558 136 558 L17 557 L17 534 L135 534 L135 -100 L170 -100 L170 635 L170 635 Z " />
<glyph glyph-name="two" unicode="2" horiz-adv-x="558" d="M312 212 C341 228 366 243 385 257 C405 271 424 287 443 305 C462 324 476 344 485 366 C495 388 500 411 500 437 C500 497 479 546 438 584 C397 622 341 640 270 640 C210 640 158 624 117 590 C75 556 51 515 43 465 L59 460 C64 458 76 455 76 455 L80 472 C90 513 112 546 146 571 C180 595 221 608 270 608 C329 608 376 592 411 561 C447 530 464 489 464 437 C464 419 461 403 456 388 C450 372 442 358 433 346 C424 334 412 321 396 309 C381 296 366 285 351 275 C336 266 318 255 297 242 C236 207 197 184 178 172 C129 140 95 110 75 81 C50 45 38 -7 38 -70 L38 -100 L490 -100 L490 -70 L74 -70 C74 -26 79 10 89 34 C100 63 123 90 158 116 C181 133 233 165 312 212 L312 212 Z " />
<glyph glyph-name="three" unicode="3" horiz-adv-x="530" d="M474 221 C449 252 415 274 371 286 C407 299 435 319 455 349 C476 378 486 413 486 454 C486 510 466 556 425 590 C385 624 332 641 266 641 C204 641 152 626 109 593 C67 562 41 519 33 466 L65 456 C73 503 97 544 137 572 C173 597 217 609 268 609 C323 609 367 595 400 566 C434 538 451 500 451 454 C451 407 436 370 407 342 C377 314 338 300 289 300 L207 300 L207 271 L290 271 C346 271 391 256 424 227 C458 197 475 158 475 109 C475 53 456 7 419 -27 C382 -61 332 -78 270 -78 C220 -78 176 -65 139 -39 C98 -10 72 30 62 78 L29 69 C38 16 66 -27 111 -59 C156 -92 209 -109 270 -109 C343 -109 401 -89 445 -49 C489 -9 511 44 511 109 C511 153 499 190 474 221 L474 221 Z " />
<glyph glyph-name="four" unicode="4" horiz-adv-x="488" d="M480 101 L394 101 L394 629 L359 629 L17 101 L17 70 L359 70 L359 -100 L394 -100 L394 70 L480 70 L480 101 Z M54 101 L359 572 C359 572 359 543 359 539 L359 101 L54 101 Z " />
<glyph glyph-name="five" unicode="5" horiz-adv-x="563" d="M284 379 C246 379 210 372 177 358 C144 343 115 323 91 298 L115 599 L489 599 L489 629 L80 629 L50 237 L86 237 C106 271 133 297 169 317 C204 336 243 346 284 346 C347 346 398 327 437 288 C475 249 495 198 495 135 C495 72 475 20 437 -18 C398 -57 347 -76 284 -76 C232 -76 187 -64 150 -40 C113 -16 89 16 77 56 C74 68 72 76 72 76 L38 64 C49 11 77 -30 122 -61 C167 -93 221 -109 284 -109 C358 -109 417 -86 463 -42 C507 3 530 62 530 135 C530 208 507 267 463 312 C417 357 358 379 284 379 L284 379 Z " />
<glyph glyph-name="six" unicode="6" horiz-adv-x="580" d="M300 -109 C376 -109 436 -87 480 -45 C524 -3 546 52 546 122 C546 194 526 252 484 296 C444 339 388 361 317 361 C259 361 209 349 167 327 C126 304 98 271 84 230 C84 483 159 610 309 610 C351 610 388 598 419 573 C451 549 475 516 491 473 C495 464 496 458 496 458 L530 470 C512 523 484 565 446 595 C407 626 362 641 310 641 C223 641 158 608 114 540 C69 473 47 374 47 242 C47 181 52 129 62 86 C71 43 88 7 111 -22 C135 -51 162 -73 192 -87 C221 -101 257 -109 300 -109 L300 -109 Z M301 -77 C238 -77 185 -53 143 -4 C127 14 115 34 106 59 C98 83 93 108 93 133 C93 196 113 245 152 279 C192 313 247 330 318 330 C378 330 425 311 459 273 C494 235 511 183 511 119 C511 59 492 11 455 -24 C418 -59 366 -77 301 -77 L301 -77 Z " />
<glyph glyph-name="seven" unicode="7" horiz-adv-x="466" d="M448 629 L14 629 L14 599 L416 599 C416 557 411 518 401 481 C391 444 378 411 362 381 C346 351 328 322 308 293 C289 265 268 236 248 207 C227 178 207 149 189 119 C170 90 154 56 139 18 C125 -20 115 -59 109 -100 L154 -100 C159 -62 168 -24 181 12 C195 49 210 81 227 110 C245 139 264 168 284 197 C304 226 324 255 343 284 C363 313 380 343 396 373 C411 404 424 438 433 476 C443 514 448 554 448 596 L448 629 L448 629 Z " />
<glyph glyph-name="eight" unicode="8" horiz-adv-x="519" d="M356 294 C397 307 428 327 450 355 C472 383 483 417 483 457 C483 513 463 557 423 591 C382 625 329 641 261 641 C192 641 137 625 96 591 C54 557 34 513 34 457 C34 417 45 383 68 355 C90 327 122 307 163 294 C115 280 77 257 50 224 C23 191 9 151 9 106 C9 41 32 -11 78 -50 C124 -89 185 -109 261 -109 C336 -109 395 -89 440 -50 C485 -11 507 41 507 106 C507 152 494 191 468 224 C441 257 404 280 356 294 L356 294 Z M262 -78 C196 -78 143 -61 104 -28 C64 6 45 50 45 106 C45 158 64 200 104 232 C143 263 196 279 262 279 C326 279 377 263 415 232 C453 200 472 158 472 106 C472 50 453 6 415 -28 C376 -61 326 -78 262 -78 L262 -78 Z M69 457 C69 503 86 541 122 569 C156 597 203 611 262 611 C319 611 364 597 398 569 C431 541 448 503 448 457 C448 412 431 376 398 349 C364 322 319 308 262 308 C203 308 156 322 122 349 C86 376 69 412 69 457 L69 457 Z " />
<glyph glyph-name="nine" unicode="9" horiz-adv-x="582" d="M260 -109 C349 -109 416 -74 463 -4 C510 66 533 168 533 303 C533 354 528 400 519 441 C509 482 495 517 475 548 C456 578 430 601 399 617 C368 633 331 641 289 641 C212 641 152 620 106 579 C61 537 39 483 39 416 C39 341 58 282 97 238 C136 195 191 173 262 173 C322 173 373 183 413 204 C454 224 482 255 498 296 C498 177 477 85 436 20 C395 -45 336 -77 261 -77 C218 -77 179 -64 145 -39 C111 -14 86 20 72 64 C69 74 67 79 67 79 L33 68 C49 14 78 -29 119 -61 C159 -92 206 -109 260 -109 L260 -109 Z M261 203 C201 203 155 223 123 261 C91 299 75 352 75 419 C75 475 95 522 136 557 C176 593 227 611 290 611 C329 611 363 601 395 580 C426 559 450 533 466 500 C483 467 491 432 491 394 C491 332 471 284 431 252 C391 220 334 203 261 203 L261 203 Z " />
<glyph glyph-name="colon" unicode="&#x3a;" horiz-adv-x="175" d="M86 443 C94 443 102 446 107 451 C113 456 115 464 115 472 C115 481 113 488 107 494 C102 499 94 502 86 502 C77 502 70 499 65 493 C59 488 56 481 56 472 C56 464 59 457 65 451 C70 446 77 443 86 443 L86 443 Z M86 -59 C94 -59 102 -56 107 -50 C113 -45 115 -38 115 -29 C115 -21 113 -13 107 -8 C102 -2 94 1 86 1 C78 1 71 -2 65 -8 C59 -13 56 -21 56 -29 C56 -38 59 -45 65 -50 C70 -56 77 -59 86 -59 L86 -59 Z " />
<glyph glyph-name="semicolon" unicode="&#x3b;" horiz-adv-x="172" d="M55 -137 C64 -137 71 -135 75 -132 C80 -130 84 -124 86 -115 C103 -63 111 -35 111 -30 C111 -21 108 -14 102 -8 C96 -3 89 0 81 0 C73 0 65 -3 59 -8 C53 -14 50 -21 50 -30 C50 -40 55 -48 63 -54 C67 -57 69 -62 67 -69 L50 -130 C48 -131 49 -133 50 -134 C51 -136 53 -137 55 -137 L55 -137 Z M81 442 C89 442 96 445 102 450 C108 456 111 463 111 471 C111 480 108 487 102 492 C96 498 89 501 81 501 C73 501 65 498 59 492 C53 487 50 480 50 471 C50 463 53 456 59 450 C65 445 73 442 81 442 L81 442 Z " />
<glyph glyph-name="less" unicode="&#x3c;" horiz-adv-x="588" d="M534 494 L534 529 L48 313 L48 289 L534 73 L534 109 L102 300 L534 494 L534 494 Z " />
<glyph glyph-name="equal" unicode="&#x3d;" horiz-adv-x="635" d="M79 353 L565 353 L565 384 L79 384 L79 353 Z M79 191 L565 191 L565 222 L79 222 L79 191 Z " />
<glyph glyph-name="greater" unicode="&#x3e;" horiz-adv-x="590" d="M59 528 L59 493 C59 493 62 491 490 299 L59 108 L59 72 L545 288 L545 312 L59 528 L59 528 Z " />
<glyph glyph-name="question" unicode="&#x3f;" horiz-adv-x="473" d="M378 589 C340 624 291 641 228 641 C164 641 114 623 76 586 C39 549 20 504 19 450 L52 444 L53 467 C57 508 74 542 106 569 C137 597 178 611 228 611 C280 611 321 596 352 566 C383 537 398 498 398 449 C398 431 395 415 388 399 C381 382 372 368 361 354 C350 341 338 327 324 314 C311 301 298 287 285 273 C271 258 259 243 248 228 C237 213 228 195 221 176 C215 156 211 135 211 113 L211 59 L211 3 L245 3 L245 59 L245 59 L246 112 C247 134 251 154 258 173 C265 192 274 209 285 223 C296 237 308 251 322 264 C335 277 348 290 361 304 C375 316 387 330 397 343 C408 357 417 373 424 391 C431 409 434 428 434 449 C434 507 415 553 378 589 L378 589 Z M208 -58 L208 -100 L249 -100 L249 -58 L208 -58 L208 -58 Z " />
<glyph glyph-name="at" unicode="&#x40;" horiz-adv-x="997" d="M941 359 C920 415 889 462 851 500 C812 539 765 570 709 591 C653 613 593 624 526 624 C438 624 361 605 292 568 C224 531 172 478 135 410 C97 343 79 264 79 176 C79 88 97 10 135 -58 C172 -126 224 -179 292 -216 C361 -253 438 -272 526 -272 C580 -272 634 -263 688 -244 C741 -226 786 -201 823 -171 L813 -159 C804 -151 795 -150 785 -158 C751 -184 711 -204 664 -220 C618 -235 572 -243 526 -243 C445 -243 373 -225 310 -190 C247 -155 198 -106 164 -42 C129 21 112 94 112 176 C112 238 122 295 142 347 C162 399 190 443 226 479 C262 515 305 544 357 564 C409 584 465 595 526 595 C588 595 644 584 696 564 C747 544 791 515 827 479 C863 443 891 399 911 347 C931 295 941 238 941 176 C941 113 926 65 896 31 C891 25 884 19 878 13 L878 14 C783 -51 778 51 778 51 L778 448 L745 448 L745 338 C738 354 729 368 718 381 C716 383 713 386 711 389 C697 404 680 417 662 428 C625 449 581 460 529 460 C450 460 387 434 342 384 C297 333 274 264 274 176 C274 89 297 19 342 -31 C388 -82 451 -107 530 -107 C582 -107 626 -96 664 -74 C683 -62 701 -48 715 -31 C722 -24 727 -16 733 -8 C738 1 743 10 747 19 C753 3 761 -10 769 -19 C772 -22 775 -25 778 -27 C801 -46 828 -43 850 -36 C878 -26 901 -11 921 11 C955 50 973 104 973 176 C973 243 962 304 941 359 L941 359 Z M745 144 C745 90 734 45 711 9 C705 0 699 -8 693 -15 C691 -16 690 -17 689 -19 C651 -59 598 -78 530 -78 C475 -78 429 -64 392 -34 C383 -27 375 -19 367 -10 C327 35 307 97 307 176 C307 193 308 209 309 224 C316 280 335 327 366 362 C406 408 460 430 529 430 C594 430 645 412 683 375 C685 374 687 371 688 370 C697 360 705 350 712 339 C734 303 745 257 745 202 L745 144 L745 144 Z " />
<glyph glyph-name="A" unicode="A" horiz-adv-x="614" d="M561 -100 L602 -100 L326 629 L289 629 L15 -100 L51 -100 L141 138 L473 138 L561 -100 Z M152 168 L308 590 L461 168 L152 168 Z " />
<glyph glyph-name="B" unicode="B" horiz-adv-x="557" d="M392 277 C435 289 468 309 490 338 C513 366 524 402 524 445 C524 504 504 549 463 581 C422 614 364 630 289 630 L46 630 L46 -100 L299 -100 C377 -100 438 -83 480 -50 C523 -16 544 32 544 93 C544 142 531 182 505 213 C479 244 441 265 392 277 L392 277 Z M81 599 L284 599 C349 599 399 585 434 559 C470 532 488 494 488 445 C488 395 470 357 436 330 C401 304 352 290 289 290 L81 290 L81 599 Z M290 -70 L81 -70 L81 260 L299 260 C366 260 417 246 453 217 C490 188 508 148 508 95 C508 42 489 2 451 -27 C413 -55 360 -70 290 -70 L290 -70 Z " />
<glyph glyph-name="C" unicode="C" horiz-adv-x="789" d="M383 -109 C470 -109 542 -87 599 -42 C656 2 694 66 713 147 L678 157 C678 157 675 142 673 136 C656 68 622 15 572 -23 C522 -60 459 -79 383 -79 C334 -79 290 -70 252 -54 C213 -37 182 -14 158 17 C134 48 115 84 103 126 C91 168 84 214 84 266 C84 375 110 459 162 520 C214 580 288 610 383 610 C454 610 514 593 563 558 C612 524 648 475 669 412 C671 407 674 394 674 394 C674 394 687 398 692 399 L709 403 C687 478 648 537 591 578 C535 620 465 641 383 641 C277 641 194 608 136 542 C78 476 49 384 49 266 C49 147 78 55 136 -11 C194 -76 277 -109 383 -109 L383 -109 Z " />
<glyph glyph-name="D" unicode="D" horiz-adv-x="701" d="M308 630 L60 630 L60 -100 L308 -100 C416 -100 499 -68 557 -5 C616 59 646 149 646 265 C646 381 616 470 558 534 C499 598 416 630 308 630 L308 630 Z M308 -70 L95 -70 L95 599 L308 599 C405 599 479 570 532 512 C584 453 610 371 610 265 C610 159 584 77 532 18 C480 -40 405 -70 308 -70 L308 -70 Z " />
<glyph glyph-name="E" unicode="E" horiz-adv-x="539" d="M487 598 L487 629 L60 629 L60 -100 L487 -100 L487 -70 L96 -70 L96 260 L479 260 L479 290 L96 290 L96 598 L487 598 L487 598 Z " />
<glyph glyph-name="F" unicode="F" horiz-adv-x="544" d="M487 598 L487 629 L61 629 L61 -100 L96 -100 L96 260 L479 260 L479 290 L96 290 L96 598 L487 598 L487 598 Z " />
<glyph glyph-name="G" unicode="G" horiz-adv-x="770" d="M458 279 L381 279 L381 248 L458 248 L684 248 C682 193 673 145 656 102 C639 60 616 25 588 -1 C560 -27 529 -46 494 -59 C460 -72 422 -79 383 -79 C333 -79 290 -70 251 -54 C213 -37 182 -14 157 17 C133 48 115 84 102 126 C90 168 84 214 84 266 C84 375 110 459 162 520 C213 580 287 610 383 610 C453 610 513 593 562 558 C612 524 647 475 668 412 C670 407 674 394 674 394 C674 394 683 396 692 399 L708 403 C686 478 647 537 591 578 C534 620 465 641 383 641 C276 641 194 608 136 542 C77 476 48 384 48 266 C48 147 77 55 136 -11 C194 -76 276 -109 383 -109 C420 -109 455 -105 487 -96 C520 -86 550 -72 579 -52 C608 -32 633 -7 654 23 C674 52 690 89 702 133 C714 176 720 225 720 279 L458 279 L458 279 Z " />
<glyph glyph-name="H" unicode="H" horiz-adv-x="629" d="M538 629 L538 290 L94 290 L94 629 L58 629 L58 -100 L94 -100 L94 260 L538 260 L538 -100 L573 -100 L573 629 L538 629 L538 629 Z " />
<glyph glyph-name="I" unicode="I" horiz-adv-x="124" d="M44 -100 L80 -100 L80 629 L44 629 L44 -100 L44 -100 Z " />
<glyph glyph-name="J" unicode="J" horiz-adv-x="555" d="M279 -109 C351 -109 406 -88 446 -47 C485 -6 505 53 505 129 L505 629 L468 629 L468 129 C468 63 451 12 418 -24 C384 -61 338 -79 279 -79 C234 -79 196 -66 163 -39 C130 -12 107 25 93 74 C89 87 87 94 87 94 L53 83 C68 21 95 -26 134 -60 C174 -93 222 -109 279 -109 L279 -109 Z " />
<glyph glyph-name="K" unicode="K" horiz-adv-x="555" d="M210 328 L517 629 L471 629 L86 256 L86 629 L50 629 L50 -100 L86 -100 L86 207 L187 306 L503 -100 L545 -100 L210 328 L210 328 Z " />
<glyph glyph-name="L" unicode="L" horiz-adv-x="494" d="M86 -70 L86 629 L50 629 L50 -100 L477 -100 L477 -70 L86 -70 L86 -70 Z " />
<glyph glyph-name="M" unicode="M" horiz-adv-x="705" d="M664 629 L625 629 L352 -57 L85 629 L40 629 L40 -100 L76 -100 L76 499 C76 518 76 554 76 554 L334 -100 L367 -100 L628 554 C628 554 628 519 628 500 L628 -100 L664 -100 L664 629 L664 629 Z " />
<glyph glyph-name="N" unicode="N" horiz-adv-x="601" d="M522 630 L522 12 C522 -8 522 -47 522 -47 L81 630 L44 630 L44 -100 L79 -100 L79 518 C79 538 79 576 79 576 L520 -100 L558 -100 L558 630 L522 630 L522 630 Z " />
<glyph glyph-name="O" unicode="O" horiz-adv-x="774" d="M637 -11 C696 54 725 146 725 266 C725 386 696 479 637 544 C579 609 495 641 388 641 C279 641 196 608 137 543 C78 478 49 386 49 266 C49 147 78 55 137 -11 C196 -76 279 -109 388 -109 C495 -109 579 -76 637 -11 L637 -11 Z M386 -79 C336 -79 291 -70 253 -54 C214 -37 182 -14 157 17 C133 48 114 84 102 126 C89 168 83 214 83 266 C83 375 109 460 162 520 C214 580 289 610 386 610 C482 610 557 580 609 520 C662 460 688 375 688 266 C688 156 662 72 609 11 C557 -49 483 -79 386 -79 L386 -79 Z " />
<glyph glyph-name="P" unicode="P" horiz-adv-x="552" d="M281 629 L45 629 L45 -100 L80 -100 L80 239 L281 239 C356 239 414 256 456 290 C497 324 518 372 518 434 C518 496 497 544 456 578 C414 612 356 629 281 629 L281 629 Z M277 269 L80 269 L80 598 L277 598 C342 598 393 584 429 555 C464 527 482 486 482 434 C482 381 464 340 428 312 C393 283 342 269 277 269 L277 269 Z " />
<glyph glyph-name="Q" unicode="Q" horiz-adv-x="774" d="M691 78 C713 132 724 194 724 266 C724 384 695 476 636 542 C578 608 494 641 387 641 C279 641 196 608 137 542 C77 476 48 384 48 266 C48 147 77 55 137 -11 C196 -76 279 -109 387 -109 C456 -109 516 -95 566 -67 L567 -66 L650 -192 L692 -192 L595 -48 C637 -17 669 25 691 78 L691 78 Z M548 -39 C504 -66 450 -79 387 -79 C337 -79 292 -70 253 -54 C214 -37 183 -14 158 17 C133 48 115 84 103 126 C90 168 84 214 84 266 C84 375 110 460 162 520 C215 580 289 610 387 610 C483 610 557 580 610 520 C662 460 689 375 689 266 C689 133 651 37 577 -21 L521 62 L481 62 L548 -39 L548 -39 L548 -39 Z " />
<glyph glyph-name="R" unicode="R" horiz-adv-x="537" d="M279 259 L289 259 C366 259 424 275 466 307 C507 339 528 385 528 444 C528 503 507 548 466 580 C424 613 366 629 289 629 L45 629 L45 -100 L80 -100 L80 259 L238 259 L486 -100 L530 -100 L279 259 Z M80 598 L285 598 C351 598 401 584 437 558 C473 531 491 493 491 444 C491 394 473 356 439 329 C403 303 354 289 289 289 L80 289 L80 598 Z " />
<glyph glyph-name="S" unicode="S" horiz-adv-x="584" d="M290 -109 C377 -109 445 -92 491 -57 C538 -22 562 28 562 94 C562 193 500 257 377 287 L227 324 C128 349 79 395 79 464 C79 511 96 547 131 572 C167 598 218 610 286 610 C323 610 361 602 398 587 C434 572 466 553 493 528 C502 521 507 517 507 517 L529 539 C498 569 462 594 420 613 C378 631 333 641 286 641 C208 641 148 626 106 595 C64 565 43 521 43 464 C43 376 102 319 219 291 L368 255 C473 230 525 178 525 93 C525 39 505 -3 465 -33 C424 -64 366 -79 290 -79 C201 -79 125 -51 63 4 C58 9 47 18 47 18 L27 -9 C97 -76 185 -109 290 -109 L290 -109 Z " />
<glyph glyph-name="T" unicode="T" horiz-adv-x="584" d="M551 629 L33 629 L33 598 L274 598 L274 -100 L309 -100 L309 598 L551 598 L551 629 L551 629 Z " />
<glyph glyph-name="U" unicode="U" horiz-adv-x="615" d="M307 -109 C393 -109 458 -85 502 -37 C546 11 568 85 568 187 L568 629 L531 629 L531 187 C531 98 512 32 475 -13 C439 -57 383 -79 307 -79 C231 -79 175 -57 138 -13 C101 32 82 98 82 187 L81 629 L46 629 L46 187 C46 85 68 11 112 -37 C155 -85 221 -109 307 -109 L307 -109 Z " />
<glyph glyph-name="V" unicode="V" horiz-adv-x="553" d="M506 629 L274 -45 L42 629 L2 629 L255 -100 L255 -100 L293 -100 L293 -100 L545 629 L506 629 L506 629 Z " />
<glyph glyph-name="W" unicode="W" horiz-adv-x="926" d="M874 629 L679 -41 L484 629 L484 629 L484 629 L445 629 L250 -41 L55 629 L17 629 L233 -100 L267 -100 L464 565 L661 -100 L696 -100 L912 629 L874 629 L874 629 Z " />
<glyph glyph-name="X" unicode="X" horiz-adv-x="649" d="M636 -100 L348 289 L601 629 L559 629 L327 316 L96 629 L51 629 L305 286 L19 -100 L60 -100 L326 259 L591 -100 L636 -100 L636 -100 Z " />
<glyph glyph-name="Y" unicode="Y" horiz-adv-x="579" d="M562 629 L518 629 L293 274 L68 629 L25 629 L275 242 L275 -100 L310 -100 L310 244 L562 629 L562 629 Z " />
<glyph glyph-name="Z" unicode="Z" horiz-adv-x="558" d="M540 629 L24 629 L24 598 L498 598 L24 -70 L24 -100 L540 -100 L540 -70 L69 -70 L540 598 L540 629 L540 629 Z " />
<glyph glyph-name="bracketleft" unicode="&#x5b;" horiz-adv-x="274" d="M50 721 L50 -232 L232 -232 L232 -202 L84 -202 L84 690 L232 690 L232 721 L50 721 Z " />
<glyph glyph-name="backslash" unicode="&#x5c;" horiz-adv-x="585" d="M482 -230 L515 -230 L92 723 L57 723 L482 -230 L482 -230 Z " />
<glyph glyph-name="bracketright" unicode="&#x5d;" horiz-adv-x="274" d="M42 721 L42 690 L190 690 L190 -202 L42 -202 L42 -232 L224 -232 L224 721 L42 721 Z " />
<glyph glyph-name="asciicircum" unicode="&#x5e;" horiz-adv-x="413" d="M227 697 L195 697 L49 448 L82 448 L211 669 L338 448 L371 448 L227 697 L227 697 Z " />
<glyph glyph-name="underscore" unicode="&#x5f;" horiz-adv-x="540" d="M45 -100 L491 -100 L491 -71 L45 -71 L45 -100 L45 -100 Z " />
<glyph glyph-name="grave" unicode="&#x60;" horiz-adv-x="249" d="M210 511 L100 629 L56 629 L172 511 L210 511 L210 511 Z " />
<glyph glyph-name="a" unicode="a" horiz-adv-x="582" d="M501 448 L501 336 C482 374 454 405 418 426 C381 447 337 458 285 458 C205 458 143 432 98 382 C52 331 30 262 30 174 C30 86 52 18 98 -33 C144 -83 206 -109 286 -109 C338 -109 382 -98 419 -75 C457 -53 485 -22 503 18 L503 -63 L503 -78 L503 -99 L521 -99 L533 -99 L533 -63 L533 448 L501 448 L501 448 Z M501 143 C501 73 482 19 445 -20 C407 -60 354 -80 286 -80 C217 -80 162 -57 122 -11 C82 34 63 95 63 174 C63 253 82 315 122 360 C161 405 216 428 285 428 C353 428 407 408 444 367 C482 327 501 271 501 200 L501 143 L501 143 Z " />
<glyph glyph-name="b" unicode="b" horiz-adv-x="582" d="M479 383 C434 433 372 459 292 459 C241 459 197 448 160 426 C123 405 95 375 76 336 L76 629 L43 629 L43 -100 L74 -100 L74 16 C93 -23 121 -54 158 -76 C195 -98 239 -109 291 -109 C371 -109 433 -83 479 -33 C525 18 547 87 547 175 C547 263 525 332 479 383 L479 383 Z M454 -11 C415 -57 360 -80 291 -80 C223 -80 170 -60 133 -20 C95 19 76 73 76 143 L76 200 C76 272 95 328 133 368 C170 409 223 429 292 429 C361 429 416 406 455 361 C494 316 514 254 514 175 C514 96 494 34 454 -11 L454 -11 Z " />
<glyph glyph-name="c" unicode="c" horiz-adv-x="593" d="M297 -109 C361 -109 415 -92 458 -58 C500 -25 529 23 544 84 L530 89 C523 90 512 93 512 93 C512 93 509 83 506 73 C491 24 465 -13 429 -40 C393 -66 349 -80 297 -80 C227 -80 173 -57 133 -11 C93 34 73 95 73 173 C73 251 93 314 133 360 C172 405 227 428 297 428 C346 428 388 416 424 391 C459 367 485 332 501 286 C506 275 509 268 509 268 L540 277 C524 335 495 379 453 410 C411 442 359 458 297 458 C217 458 154 432 109 381 C63 330 40 261 40 173 C40 86 63 18 108 -33 C154 -83 216 -109 297 -109 L297 -109 Z " />
<glyph glyph-name="d" unicode="d" horiz-adv-x="584" d="M503 629 L503 337 C484 375 457 406 420 427 C383 448 339 459 287 459 C207 459 145 433 100 383 C55 332 32 263 32 175 C32 87 55 18 100 -33 C146 -83 209 -109 288 -109 C340 -109 384 -98 421 -75 C459 -53 487 -22 505 18 L505 -100 L536 -100 L536 629 L503 629 L503 629 Z M503 143 C503 73 484 19 447 -20 C409 -60 356 -80 288 -80 C219 -80 164 -57 125 -11 C85 34 65 96 65 175 C65 254 84 316 124 361 C164 406 218 429 287 429 C356 429 409 409 446 368 C484 328 503 272 503 201 L503 143 L503 143 Z " />
<glyph glyph-name="e" unicode="e" horiz-adv-x="573" d="M528 290 C517 321 502 349 481 374 C461 399 433 420 400 435 C367 450 329 458 287 458 C208 458 146 431 99 380 C52 327 28 258 28 172 C28 87 52 20 98 -32 C145 -83 208 -109 287 -109 C347 -109 398 -94 439 -64 C475 -38 503 -2 522 43 C524 50 527 57 529 64 C514 68 514 68 498 73 L491 54 C473 12 447 -21 413 -44 C379 -68 337 -80 287 -80 C219 -80 165 -57 124 -12 C83 32 62 91 61 166 L499 166 L544 166 L544 193 C544 227 539 259 528 290 L528 290 Z M62 195 C66 266 89 323 129 365 C169 407 222 428 287 428 C354 428 407 407 447 363 C488 320 509 264 512 195 L62 195 L62 195 Z " />
<glyph glyph-name="f" unicode="f" horiz-adv-x="372" d="M217 629 C175 629 142 616 119 589 C96 562 85 524 85 476 L85 446 L7 446 L7 417 L85 417 L85 -100 L117 -100 L117 417 L299 417 L299 446 L117 446 L117 476 C117 515 126 546 143 567 C160 588 185 599 217 599 L337 599 L337 629 L217 629 Z " />
<glyph glyph-name="g" unicode="g" horiz-adv-x="583" d="M502 447 L502 336 C483 375 455 405 418 426 C381 447 337 458 286 458 C206 458 143 432 98 382 C53 331 30 262 30 174 C30 86 53 18 99 -33 C144 -83 207 -109 287 -109 C338 -109 383 -97 420 -75 C456 -53 483 -24 502 14 L502 -144 C502 -180 492 -207 473 -226 C453 -246 426 -256 390 -256 L136 -256 L136 -285 L390 -285 C436 -285 471 -273 496 -248 C522 -224 534 -189 534 -144 L534 447 L502 447 L502 447 Z M502 143 C502 74 483 19 445 -20 C407 -60 355 -79 287 -79 C217 -79 163 -57 123 -11 C83 34 63 95 63 174 C63 253 83 315 123 360 C162 406 216 428 286 428 C354 428 407 408 445 368 C483 327 502 271 502 200 L502 143 L502 143 Z " />
<glyph glyph-name="h" unicode="h" horiz-adv-x="497" d="M267 458 C175 458 114 422 82 350 L82 629 L49 629 L49 -100 L82 -100 L82 241 C82 366 144 428 267 428 C324 428 365 410 391 375 C417 339 430 286 430 215 L430 -100 L463 -100 L463 215 C463 295 448 355 416 396 C384 437 334 458 267 458 L267 458 Z " />
<glyph glyph-name="i" unicode="i" horiz-adv-x="123" d="M44 -100 L44 447 L77 447 L77 -100 L44 -100 L44 -100 Z M40 609 L40 567 L81 567 L81 609 L40 609 L40 609 Z " />
<glyph glyph-name="j" unicode="j" horiz-adv-x="122" d="M41 -143 C41 -179 32 -206 12 -225 C-7 -245 -35 -255 -70 -255 L-126 -255 L-146 -255 L-167 -255 L-167 -270 L-167 -284 L-126 -284 L-70 -284 C-24 -284 11 -271 36 -247 C61 -223 74 -188 74 -143 L74 447 L41 447 L41 -143 L41 -143 Z M37 609 L37 567 L78 567 L78 609 L37 609 L37 609 Z " />
<glyph glyph-name="k" unicode="k" horiz-adv-x="446" d="M152 216 L394 447 L347 447 L77 189 L77 629 L44 629 L44 -100 L77 -100 L77 145 L127 193 C383 -89 383 -90 392 -100 L438 -100 L152 216 L152 216 Z " />
<glyph glyph-name="l" unicode="l" horiz-adv-x="248" d="M181 -71 C150 -71 126 -60 109 -39 C92 -18 83 13 83 51 L83 629 L50 629 L50 51 C50 3 62 -34 84 -60 C107 -87 139 -100 181 -100 L234 -100 L234 -71 L181 -71 Z " />
<glyph glyph-name="m" unicode="m" horiz-adv-x="779" d="M577 458 C487 458 429 416 404 335 C382 416 329 458 245 458 C164 458 109 424 81 357 L81 448 L50 448 L50 -100 L83 -100 L83 241 C83 307 96 354 121 384 C146 413 187 428 245 428 C337 428 382 363 382 233 L382 -100 L416 -100 L416 233 C416 299 428 349 454 380 C479 412 520 428 577 428 C622 428 656 413 679 381 C702 349 714 300 714 233 L714 -100 L747 -100 L747 233 C747 382 690 458 577 458 L577 458 Z " />
<glyph glyph-name="n" unicode="n" horiz-adv-x="497" d="M415 396 C383 437 334 458 267 458 C174 458 112 420 81 346 L81 448 L50 448 L50 -100 L83 -100 L83 241 C83 366 144 428 267 428 C323 428 365 410 391 374 C417 339 430 285 430 215 L430 -100 L462 -100 L462 215 C462 295 447 355 415 396 L415 396 Z " />
<glyph glyph-name="o" unicode="o" horiz-adv-x="573" d="M287 -109 C367 -109 429 -83 475 -33 C521 18 543 86 543 174 C543 261 521 330 475 381 C429 432 367 458 287 458 C208 458 145 432 99 382 C54 331 31 262 31 174 C31 86 54 18 99 -33 C145 -83 208 -109 287 -109 L287 -109 Z M123 -11 C83 34 64 95 64 174 C64 253 83 315 123 360 C163 405 218 428 287 428 C356 428 411 405 450 360 C490 315 510 253 510 174 C510 95 490 34 450 -11 C411 -57 356 -80 287 -80 C218 -80 163 -57 123 -11 L123 -11 Z " />
<glyph glyph-name="p" unicode="p" horiz-adv-x="582" d="M487 383 C442 433 379 459 299 459 C248 459 203 448 166 426 C129 404 101 373 81 334 L81 448 L50 448 L50 -281 L84 -281 L84 11 C103 -27 131 -57 167 -78 C204 -98 247 -109 299 -109 C378 -109 441 -83 486 -33 C532 18 555 88 555 176 C555 263 532 332 487 383 L487 383 Z M462 -11 C422 -57 368 -80 299 -80 C230 -80 177 -59 140 -19 C102 21 84 77 84 149 L84 208 C84 277 104 331 141 370 C179 410 232 429 299 429 C369 429 423 406 462 361 C502 316 521 254 521 175 C521 96 501 34 462 -11 L462 -11 Z " />
<glyph glyph-name="q" unicode="q" horiz-adv-x="583" d="M505 448 L505 332 C487 371 459 402 421 424 C384 446 339 458 287 458 C208 458 146 432 100 382 C55 331 32 262 32 175 C32 87 55 19 100 -32 C146 -82 208 -108 288 -108 C340 -108 384 -97 421 -76 C457 -54 485 -24 503 14 L503 -280 L535 -280 L535 448 L505 448 Z M503 151 C503 79 484 23 447 -18 C410 -58 357 -79 288 -79 C219 -79 164 -56 124 -10 C84 35 65 95 65 174 C65 253 84 315 124 360 C163 405 218 428 287 428 C355 428 408 408 446 369 C484 330 503 276 503 206 L503 151 L503 151 Z " />
<glyph glyph-name="r" unicode="r" horiz-adv-x="297" d="M254 448 C167 444 110 409 80 343 L80 448 L50 448 L50 -100 L83 -100 L83 234 C83 297 98 344 128 374 C158 403 200 418 253 419 L277 419 L277 448 L254 448 Z " />
<glyph glyph-name="s" unicode="s" horiz-adv-x="473" d="M236 -109 C305 -109 358 -96 395 -69 C432 -43 451 -5 451 45 C451 85 436 118 405 143 C374 169 331 188 276 201 C267 203 254 206 238 210 C222 214 209 217 200 219 C164 227 136 240 117 257 C98 274 88 298 88 330 C88 357 102 380 130 400 C158 420 196 430 243 430 C274 430 302 425 325 412 C370 387 399 357 399 357 L419 378 C405 397 373 420 351 432 C320 449 284 459 243 459 C186 459 141 446 107 421 C73 396 56 365 56 329 C56 256 102 210 195 190 C205 187 219 184 235 180 C252 177 264 174 271 172 C369 149 417 107 417 45 C417 4 402 -27 370 -48 C339 -69 294 -80 236 -80 C204 -80 172 -73 141 -60 C114 -48 75 -24 60 -5 L36 -25 C53 -48 80 -67 118 -84 C156 -100 195 -109 236 -109 L236 -109 Z " />
<glyph glyph-name="t" unicode="t" horiz-adv-x="362" d="M341 419 L341 448 L128 448 L128 629 L94 629 L94 448 L9 448 L9 419 L94 419 L94 58 C94 8 106 -30 130 -58 C154 -86 187 -100 230 -100 L306 -100 L339 -100 L339 -71 L306 -71 L230 -71 C197 -71 172 -59 154 -37 C137 -14 128 18 128 58 L128 419 L341 419 L341 419 Z " />
<glyph glyph-name="u" unicode="u" horiz-adv-x="504" d="M426 448 L426 108 C426 -17 365 -80 243 -80 C186 -80 144 -62 118 -26 C92 10 79 63 79 133 L79 448 L47 448 L47 133 C47 53 62 -7 94 -48 C125 -89 175 -109 243 -109 C335 -109 397 -72 428 3 L428 -100 L459 -100 L459 448 L426 448 L426 448 Z " />
<glyph glyph-name="v" unicode="v" horiz-adv-x="481" d="M461 448 L425 448 L240 -50 L54 448 L18 448 L221 -100 L258 -100 L461 448 L461 448 Z " />
<glyph glyph-name="w" unicode="w" horiz-adv-x="777" d="M721 448 L561 -46 L401 448 L372 448 L211 -46 L51 448 L15 448 L194 -100 L229 -100 L386 382 L544 -100 L579 -100 L758 448 L721 448 L721 448 Z " />
<glyph glyph-name="x" unicode="x" horiz-adv-x="506" d="M496 -100 L274 199 L457 448 L419 448 L256 226 L90 448 L49 448 L235 197 L14 -100 L52 -100 L252 173 L455 -100 L496 -100 L496 -100 Z " />
<glyph glyph-name="y" unicode="y" horiz-adv-x="482" d="M426 448 L241 -56 L55 448 L18 448 L225 -99 L194 -181 C186 -202 175 -219 162 -231 C148 -242 133 -248 117 -248 L106 -248 L76 -248 L76 -281 L106 -281 L109 -281 C134 -281 157 -273 177 -258 C198 -242 213 -222 223 -196 L463 448 L426 448 L426 448 Z " />
<glyph glyph-name="z" unicode="z" horiz-adv-x="500" d="M476 448 L27 448 L27 419 L433 419 L27 -70 L27 -100 L476 -100 L476 -70 L70 -70 L476 419 L476 448 L476 448 Z " />
<glyph glyph-name="braceleft" unicode="&#x7b;" horiz-adv-x="246" d="M187 721 L184 721 C153 721 128 709 109 687 C89 664 80 634 80 597 L80 350 C80 336 78 322 73 310 C68 297 63 287 58 280 C52 273 46 267 38 260 C31 254 26 251 23 249 C20 247 18 246 16 245 L23 242 C27 240 32 235 39 230 C45 224 51 218 57 210 C64 202 69 192 73 180 C78 167 80 154 80 140 L80 -109 C80 -146 89 -176 109 -198 C128 -221 153 -232 184 -232 L187 -232 L210 -232 L210 -218 L210 -202 L193 -202 L187 -202 L183 -202 C162 -202 145 -193 133 -176 C121 -159 115 -136 115 -106 L115 144 C115 158 112 171 108 183 C104 195 99 204 94 212 C89 219 84 225 77 231 C70 237 65 240 63 242 C60 243 58 245 57 245 L63 249 C67 251 71 254 77 260 C83 265 88 272 94 279 C100 287 104 296 109 308 C112 320 115 332 115 346 L115 596 C115 625 121 648 133 665 C145 681 162 690 183 690 L187 690 L193 690 L210 690 L210 706 L210 721 L187 721 L187 721 Z " />
<glyph glyph-name="bar" unicode="&#x7c;" horiz-adv-x="124" d="M46 722 L46 -231 L78 -231 L78 722 L46 722 Z " />
<glyph glyph-name="braceright" unicode="&#x7d;" horiz-adv-x="245" d="M35 720 L35 689 L61 689 C82 689 99 680 111 664 C124 647 130 624 130 595 L130 345 C130 331 132 319 136 307 C140 295 145 286 150 278 C156 271 162 264 167 259 C173 253 178 250 182 248 L188 244 C186 244 184 242 181 241 C179 239 174 236 168 230 C161 224 155 218 150 211 C145 203 140 194 136 182 C132 170 130 157 130 143 L130 -107 C130 -137 124 -160 111 -177 C99 -194 82 -203 61 -203 L35 -203 L35 -233 L60 -233 C92 -233 117 -222 136 -199 C155 -177 165 -147 165 -110 L165 139 C165 153 167 166 171 179 C175 191 181 201 187 209 C193 217 200 223 206 229 C212 234 217 239 222 241 L228 244 C226 245 224 246 221 248 C219 250 213 253 206 259 C199 266 192 272 187 279 C181 286 176 296 171 309 C167 321 165 335 165 349 L165 596 C165 633 155 663 136 686 C117 708 92 720 60 720 L35 720 Z " />
<glyph glyph-name="asciitilde" unicode="&#x7e;" horiz-adv-x="572" d="M404 210 C442 210 472 223 492 247 C512 271 525 307 531 355 L499 361 C499 361 498 351 497 340 C493 306 484 281 469 265 C455 249 433 241 404 241 C391 241 378 246 363 256 C348 266 334 279 319 293 C305 308 290 323 275 337 C260 351 243 364 224 374 C204 384 186 390 167 390 C126 390 96 377 76 352 C56 327 44 291 40 242 L74 239 C74 239 74 243 75 257 C79 293 88 319 102 335 C116 352 137 360 167 360 C180 360 194 357 208 349 C222 342 235 332 246 321 C257 310 269 298 282 285 C295 272 308 260 319 249 C331 238 344 229 359 221 C374 214 389 210 404 210 L404 210 Z " />
<glyph glyph-name="cent" unicode="&#xa2;" horiz-adv-x="593" d="M551 179 C546 180 533 184 533 184 C533 184 528 169 527 164 C512 115 487 78 450 51 C414 24 370 11 317 11 C315 11 314 11 312 11 L312 520 C314 520 315 521 317 521 C367 521 410 508 445 483 C480 458 506 423 522 378 C524 373 528 359 528 359 C528 359 542 363 547 365 L560 369 C544 426 516 471 474 502 C432 534 380 550 317 550 L312 550 L312 641 L282 641 L282 548 L281 548 C212 541 158 512 119 462 C80 411 61 346 61 265 C61 185 80 120 119 70 C158 20 212 -9 282 -16 L282 -109 L312 -109 L312 -18 L317 -18 C382 -18 435 -1 479 32 C522 66 550 113 564 175 L551 179 L551 179 Z M154 80 C114 125 94 187 94 265 C94 344 114 406 154 452 C187 489 229 511 282 518 L282 13 C230 20 187 42 154 80 L154 80 Z " />
<glyph glyph-name="sterling" unicode="&#xa3;" horiz-adv-x="567" d="M96 -68 C143 4 166 88 166 183 C166 200 165 214 162 226 L430 226 L450 226 L450 246 L450 258 L154 258 C149 274 141 294 129 316 C118 339 109 360 102 379 C95 398 91 417 91 436 C91 492 110 534 146 564 C183 593 233 607 296 607 C366 607 423 586 466 543 L481 529 L503 551 C456 611 387 640 296 640 C252 640 215 634 182 622 C150 610 125 594 107 574 C89 554 76 532 67 509 C59 486 55 461 55 434 C55 412 58 391 65 372 C72 353 81 332 93 310 C105 289 113 271 118 258 L75 258 L55 258 L55 238 L55 226 L127 226 C129 207 131 192 131 180 C131 93 106 11 55 -68 L55 -100 L531 -100 L531 -68 L96 -68 L96 -68 Z " />
<glyph glyph-name="yen" unicode="&#xa5;" horiz-adv-x="579" d="M563 629 L520 629 L336 338 L255 338 L71 629 L26 629 L215 338 L115 338 L95 338 L95 318 L95 306 L235 306 L276 242 L276 172 L115 172 L95 172 L95 152 L95 140 L276 140 L276 -100 L313 -100 L313 140 L470 140 L490 140 L490 160 L490 172 L313 172 L313 243 L353 306 L470 306 L490 306 L490 326 L490 338 L375 338 L563 629 L563 629 Z M295 273 L275 306 L316 306 L295 273 L295 273 Z " />
<glyph glyph-name="dieresis" unicode="&#xa8;" horiz-adv-x="210" d="M34 555 L75 555 L75 597 L34 597 L34 555 L34 555 Z M140 597 L140 555 L180 555 L180 597 L140 597 L140 597 Z " />
<glyph glyph-name="acute" unicode="&#xb4;" horiz-adv-x="219" d="M30 511 L69 511 L184 629 L140 629 L30 511 L30 511 Z " />
<glyph glyph-name="cedilla" unicode="&#xb8;" horiz-adv-x="245" d="M203 -178 C192 -167 176 -162 156 -162 L79 -162 L89 -100 L66 -100 L58 -156 C56 -164 57 -177 62 -182 C66 -187 73 -190 83 -190 L162 -190 C180 -191 193 -204 193 -221 C193 -245 176 -257 142 -257 L38 -257 L38 -285 L137 -285 C163 -285 183 -279 198 -269 C212 -258 220 -242 220 -221 C220 -202 214 -188 203 -178 L203 -178 Z " />
<glyph glyph-name="Agrave" unicode="&#xc0;" horiz-adv-x="614" d="M561 -100 L473 138 L141 138 L51 -100 L15 -100 L289 629 L326 629 L602 -100 L561 -100 L561 -100 Z M152 168 L461 168 L308 590 L152 168 L152 168 Z M387 711 L277 829 L233 829 L349 711 L387 711 L387 711 Z " />
<glyph glyph-name="Aacute" unicode="&#xc1;" horiz-adv-x="614" d="M561 -100 L602 -100 L326 629 L289 629 L15 -100 L51 -100 L141 138 L473 138 L561 -100 Z M152 168 L308 590 L461 168 L152 168 Z M232 711 L271 711 L386 829 L342 829 L232 711 Z " />
<glyph glyph-name="Acircumflex" unicode="&#xc2;" horiz-adv-x="614" d="M561 -100 L473 138 L141 138 L51 -100 L15 -100 L289 629 L326 629 L602 -100 L561 -100 L561 -100 Z M152 168 L461 168 L308 590 L152 168 L152 168 Z M339 826 C329 836 318 841 306 841 C294 841 283 836 272 826 L170 725 L211 725 L306 818 L400 725 L442 725 L339 826 Z " />
<glyph glyph-name="Atilde" unicode="&#xc3;" horiz-adv-x="614" d="M561 -100 L602 -100 L326 629 L289 629 L15 -100 L51 -100 L141 138 L473 138 L561 -100 Z M152 168 L308 590 L461 168 L152 168 Z M422 684 C454 684 477 695 494 716 C510 737 520 768 525 810 L500 815 C500 815 499 806 498 797 C494 768 487 746 475 732 C464 718 446 711 422 711 C412 711 402 715 390 724 C377 733 366 744 354 756 C343 769 330 782 318 795 C307 806 293 817 278 827 C262 835 247 840 232 840 C199 840 174 829 158 807 C142 785 132 754 129 712 L156 709 C156 709 156 713 157 724 C160 756 168 778 179 792 C190 807 207 814 232 814 C242 814 253 811 264 805 C276 799 286 789 296 780 C304 771 313 760 324 749 C335 738 345 727 354 718 C364 708 375 701 387 693 C398 687 410 684 422 684 L422 684 Z " />
<glyph glyph-name="Adieresis" unicode="&#xc4;" horiz-adv-x="614" d="M561 -100 L473 138 L141 138 L51 -100 L15 -100 L289 629 L326 629 L602 -100 L561 -100 L561 -100 Z M152 168 L461 168 L308 590 L152 168 L152 168 Z M235 755 L276 755 L276 797 L235 797 L235 755 L235 755 Z M341 797 L341 755 L381 755 L381 797 L341 797 L341 797 Z " />
<glyph glyph-name="Aring" unicode="&#xc5;" horiz-adv-x="614" d="M561 -100 L602 -100 L326 629 L289 629 L15 -100 L51 -100 L141 138 L473 138 L561 -100 Z M152 168 L308 590 L461 168 L152 168 Z M357 715 C371 729 378 746 378 767 C378 809 346 842 304 842 C263 842 231 809 231 767 C231 726 263 694 304 694 C325 694 343 701 357 715 L357 715 Z M270 733 C261 742 257 753 257 767 C257 795 276 817 304 817 C333 817 352 795 352 767 C352 740 331 719 304 719 C291 719 279 724 270 733 L270 733 Z " />
<glyph glyph-name="AE" unicode="&#xc6;" horiz-adv-x="768" d="M337 598 L728 598 L728 629 L283 629 L9 -100 L45 -100 L134 138 L302 138 L302 -100 L728 -100 L728 -70 L337 -70 L337 260 L720 260 L720 290 L337 290 L337 598 L337 598 Z M302 168 L145 168 L302 590 L302 168 L302 168 Z " />
<glyph glyph-name="Ccedilla" unicode="&#xc7;" horiz-adv-x="833" d="M427 -109 C514 -109 586 -87 643 -42 C700 2 738 66 757 147 L722 157 C722 157 719 142 717 136 C700 68 666 15 616 -23 C566 -60 503 -79 427 -79 C378 -79 334 -70 296 -54 C257 -37 226 -14 202 17 C178 48 159 84 147 126 C135 168 128 214 128 266 C128 375 154 459 206 520 C258 580 332 610 427 610 C498 610 558 593 607 558 C656 524 692 475 713 412 C715 407 718 394 718 394 C718 394 731 398 736 399 L753 403 C731 478 692 537 635 578 C579 620 509 641 427 641 C321 641 238 608 180 542 C122 476 93 384 93 266 C93 147 122 55 180 -11 C238 -76 321 -109 427 -109 L427 -109 Z M490 -178 C479 -167 463 -162 443 -162 L366 -162 L376 -100 L353 -100 L345 -156 C343 -164 344 -177 349 -182 C353 -187 360 -190 370 -190 L449 -190 C467 -191 480 -204 480 -221 C480 -245 463 -257 429 -257 L325 -257 L325 -285 L424 -285 C450 -285 470 -279 485 -269 C499 -258 507 -242 507 -221 C507 -202 501 -188 490 -178 L490 -178 Z " />
<glyph glyph-name="Egrave" unicode="&#xc8;" horiz-adv-x="539" d="M487 598 L96 598 L96 290 L479 290 L479 260 L96 260 L96 -70 L487 -70 L487 -100 L60 -100 L60 629 L487 629 L487 598 L487 598 Z M349 711 L239 829 L195 829 L311 711 L349 711 L349 711 Z " />
<glyph glyph-name="Eacute" unicode="&#xc9;" horiz-adv-x="539" d="M487 598 L487 629 L60 629 L60 -100 L487 -100 L487 -70 L96 -70 L96 260 L479 260 L479 290 L96 290 L96 598 L487 598 Z M194 711 L233 711 L348 829 L304 829 L194 711 Z " />
<glyph glyph-name="Ecircumflex" unicode="&#xca;" horiz-adv-x="539" d="M487 598 L96 598 L96 290 L479 290 L479 260 L96 260 L96 -70 L487 -70 L487 -100 L60 -100 L60 629 L487 629 L487 598 L487 598 Z M302 826 C292 836 281 841 269 841 C257 841 246 836 235 826 L133 725 L174 725 L269 818 L363 725 L405 725 L302 826 Z " />
<glyph glyph-name="Edieresis" unicode="&#xcb;" horiz-adv-x="539" d="M487 598 L96 598 L96 290 L479 290 L479 260 L96 260 L96 -70 L487 -70 L487 -100 L60 -100 L60 629 L487 629 L487 598 L487 598 Z M198 755 L239 755 L239 797 L198 797 L198 755 L198 755 Z M304 797 L304 755 L344 755 L344 797 L304 797 L304 797 Z " />
<glyph glyph-name="Igrave" unicode="&#xcc;" horiz-adv-x="160" d="M64 -100 L64 629 L100 629 L100 -100 L64 -100 L64 -100 Z M162 711 L52 829 L8 829 L124 711 L162 711 L162 711 Z " />
<glyph glyph-name="Iacute" unicode="&#xcd;" horiz-adv-x="150" d="M64 -100 L100 -100 L100 629 L64 629 L64 -100 Z M7 711 L46 711 L161 829 L117 829 L7 711 Z " />
<glyph glyph-name="Icircumflex" unicode="&#xce;" horiz-adv-x="220" d="M94 -100 L94 629 L130 629 L130 -100 L94 -100 L94 -100 Z M145 826 C135 836 124 841 112 841 C100 841 89 836 78 826 L-24 725 L17 725 L112 818 L206 725 L248 725 L145 826 Z " />
<glyph glyph-name="Idieresis" unicode="&#xcf;" horiz-adv-x="150" d="M54 -100 L54 629 L90 629 L90 -100 L54 -100 L54 -100 Z M1 755 L42 755 L42 797 L1 797 L1 755 L1 755 Z M107 797 L107 755 L147 755 L147 797 L107 797 L107 797 Z " />
<glyph glyph-name="Eth" unicode="&#xd0;" horiz-adv-x="752" d="M618 534 C559 598 476 630 369 630 L120 630 L120 286 L10 286 L10 254 L120 254 L120 -100 L369 -100 C476 -100 559 -68 618 -5 C676 59 706 149 706 265 C706 381 677 470 618 534 L618 534 Z M592 18 C540 -40 466 -70 369 -70 L156 -70 L156 254 L329 254 L329 286 L156 286 L156 599 L369 599 C465 599 540 570 592 512 C644 453 670 371 670 265 C670 159 644 77 592 18 L592 18 Z " />
<glyph glyph-name="Ntilde" unicode="&#xd1;" horiz-adv-x="601" d="M522 630 L522 12 C522 -8 522 -47 522 -47 L81 630 L44 630 L44 -100 L79 -100 L79 518 C79 538 79 576 79 576 L520 -100 L558 -100 L558 630 L522 630 Z M416 684 C448 684 471 695 488 716 C504 737 514 768 519 810 L494 815 C494 815 493 806 492 797 C488 768 481 746 469 732 C458 718 440 711 416 711 C406 711 396 715 384 724 C371 733 360 744 348 756 C337 769 324 782 312 795 C301 806 287 817 272 827 C256 835 241 840 226 840 C193 840 168 829 152 807 C136 785 126 754 123 712 L150 709 C150 709 150 713 151 724 C154 756 162 778 173 792 C184 807 201 814 226 814 C236 814 247 811 258 805 C270 799 280 789 290 780 C298 771 307 760 318 749 C329 738 339 727 348 718 C358 708 369 701 381 693 C392 687 404 684 416 684 L416 684 Z " />
<glyph glyph-name="Ograve" unicode="&#xd2;" horiz-adv-x="774" d="M637 -11 C579 -76 495 -109 388 -109 C279 -109 196 -76 137 -11 C78 55 49 147 49 266 C49 386 78 478 137 543 C196 608 279 641 388 641 C495 641 579 609 637 544 C696 479 725 386 725 266 C725 146 696 54 637 -11 L637 -11 Z M386 -79 C483 -79 557 -49 609 11 C662 72 688 156 688 266 C688 375 662 460 609 520 C557 580 482 610 386 610 C289 610 214 580 162 520 C109 460 83 375 83 266 C83 214 89 168 102 126 C114 84 133 48 157 17 C182 -14 214 -37 253 -54 C291 -70 336 -79 386 -79 L386 -79 Z M467 711 L357 829 L313 829 L429 711 L467 711 L467 711 Z " />
<glyph glyph-name="Oacute" unicode="&#xd3;" horiz-adv-x="774" d="M637 -11 C696 54 725 146 725 266 C725 386 696 479 637 544 C579 609 495 641 388 641 C279 641 196 608 137 543 C78 478 49 386 49 266 C49 147 78 55 137 -11 C196 -76 279 -109 388 -109 C495 -109 579 -76 637 -11 L637 -11 Z M386 -79 C336 -79 291 -70 253 -54 C214 -37 182 -14 157 17 C133 48 114 84 102 126 C89 168 83 214 83 266 C83 375 109 460 162 520 C214 580 289 610 386 610 C482 610 557 580 609 520 C662 460 688 375 688 266 C688 156 662 72 609 11 C557 -49 483 -79 386 -79 L386 -79 Z M312 711 L351 711 L466 829 L422 829 L312 711 Z " />
<glyph glyph-name="Ocircumflex" unicode="&#xd4;" horiz-adv-x="774" d="M637 -11 C579 -76 495 -109 388 -109 C279 -109 196 -76 137 -11 C78 55 49 147 49 266 C49 386 78 478 137 543 C196 608 279 641 388 641 C495 641 579 609 637 544 C696 479 725 386 725 266 C725 146 696 54 637 -11 L637 -11 Z M386 -79 C483 -79 557 -49 609 11 C662 72 688 156 688 266 C688 375 662 460 609 520 C557 580 482 610 386 610 C289 610 214 580 162 520 C109 460 83 375 83 266 C83 214 89 168 102 126 C114 84 133 48 157 17 C182 -14 214 -37 253 -54 C291 -70 336 -79 386 -79 L386 -79 Z M419 826 C409 836 398 841 386 841 C374 841 363 836 352 826 L250 725 L291 725 L386 818 L480 725 L522 725 L419 826 Z " />
<glyph glyph-name="Otilde" unicode="&#xd5;" horiz-adv-x="774" d="M637 -11 C696 54 725 146 725 266 C725 386 696 479 637 544 C579 609 495 641 388 641 C279 641 196 608 137 543 C78 478 49 386 49 266 C49 147 78 55 137 -11 C196 -76 279 -109 388 -109 C495 -109 579 -76 637 -11 L637 -11 Z M386 -79 C336 -79 291 -70 253 -54 C214 -37 182 -14 157 17 C133 48 114 84 102 126 C89 168 83 214 83 266 C83 375 109 460 162 520 C214 580 289 610 386 610 C482 610 557 580 609 520 C662 460 688 375 688 266 C688 156 662 72 609 11 C557 -49 483 -79 386 -79 L386 -79 Z M502 684 C534 684 557 695 574 716 C590 737 600 768 605 810 L580 815 C580 815 579 806 578 797 C574 768 567 746 555 732 C544 718 526 711 502 711 C492 711 482 715 470 724 C457 733 446 744 434 756 C423 769 410 782 398 795 C387 806 373 817 358 827 C342 835 327 840 312 840 C279 840 254 829 238 807 C222 785 212 754 209 712 L236 709 C236 709 236 713 237 724 C240 756 248 778 259 792 C270 807 287 814 312 814 C322 814 333 811 344 805 C356 799 366 789 376 780 C384 771 393 760 404 749 C415 738 425 727 434 718 C444 708 455 701 467 693 C478 687 490 684 502 684 L502 684 Z " />
<glyph glyph-name="Odieresis" unicode="&#xd6;" horiz-adv-x="774" d="M637 -11 C579 -76 495 -109 388 -109 C279 -109 196 -76 137 -11 C78 55 49 147 49 266 C49 386 78 478 137 543 C196 608 279 641 388 641 C495 641 579 609 637 544 C696 479 725 386 725 266 C725 146 696 54 637 -11 L637 -11 Z M386 -79 C483 -79 557 -49 609 11 C662 72 688 156 688 266 C688 375 662 460 609 520 C557 580 482 610 386 610 C289 610 214 580 162 520 C109 460 83 375 83 266 C83 214 89 168 102 126 C114 84 133 48 157 17 C182 -14 214 -37 253 -54 C291 -70 336 -79 386 -79 L386 -79 Z M315 755 L356 755 L356 797 L315 797 L315 755 L315 755 Z M421 797 L421 755 L461 755 L461 797 L421 797 L421 797 Z " />
<glyph glyph-name="multiply" unicode="&#xd7;" horiz-adv-x="233" d="M195 357 L151 357 L118 321 L85 357 L41 357 L97 299 L41 239 L80 239 L118 278 L156 239 L195 239 L139 299 L195 357 L195 357 Z " />
<glyph glyph-name="Oslash" unicode="&#xd8;" horiz-adv-x="774" d="M637 -11 C696 54 725 146 725 266 C725 386 696 479 637 544 C579 609 495 641 388 641 C279 641 196 608 137 543 C78 478 49 386 49 266 C49 147 78 55 137 -11 C196 -76 279 -109 388 -109 C495 -109 579 -76 637 -11 L637 -11 Z M386 -79 C336 -79 291 -70 253 -54 C214 -37 182 -14 157 17 C133 48 114 84 102 126 C89 168 83 214 83 266 C83 375 109 460 162 520 C214 580 289 610 386 610 C482 610 557 580 609 520 C662 460 688 375 688 266 C688 156 662 72 609 11 C557 -49 483 -79 386 -79 L386 -79 Z M158 -203 L192 -203 L617 750 L582 750 L158 -203 Z " />
<glyph glyph-name="Ugrave" unicode="&#xd9;" horiz-adv-x="615" d="M307 -109 C221 -109 155 -85 112 -37 C68 11 46 85 46 187 L46 629 L81 629 L82 187 C82 98 101 32 138 -13 C175 -57 231 -79 307 -79 C383 -79 439 -57 475 -13 C512 32 531 98 531 187 L531 629 L568 629 L568 187 C568 85 546 11 502 -37 C458 -85 393 -109 307 -109 L307 -109 Z M387 711 L277 829 L233 829 L349 711 L387 711 L387 711 Z " />
<glyph glyph-name="Uacute" unicode="&#xda;" horiz-adv-x="615" d="M307 -109 C393 -109 458 -85 502 -37 C546 11 568 85 568 187 L568 629 L531 629 L531 187 C531 98 512 32 475 -13 C439 -57 383 -79 307 -79 C231 -79 175 -57 138 -13 C101 32 82 98 82 187 L81 629 L46 629 L46 187 C46 85 68 11 112 -37 C155 -85 221 -109 307 -109 L307 -109 Z M232 711 L271 711 L386 829 L342 829 L232 711 Z " />
<glyph glyph-name="Ucircumflex" unicode="&#xdb;" horiz-adv-x="615" d="M307 -109 C221 -109 155 -85 112 -37 C68 11 46 85 46 187 L46 629 L81 629 L82 187 C82 98 101 32 138 -13 C175 -57 231 -79 307 -79 C383 -79 439 -57 475 -13 C512 32 531 98 531 187 L531 629 L568 629 L568 187 C568 85 546 11 502 -37 C458 -85 393 -109 307 -109 L307 -109 Z M340 826 C330 836 319 841 307 841 C295 841 284 836 273 826 L171 725 L212 725 L307 818 L401 725 L443 725 L340 826 Z " />
<glyph glyph-name="Udieresis" unicode="&#xdc;" horiz-adv-x="615" d="M307 -109 C221 -109 155 -85 112 -37 C68 11 46 85 46 187 L46 629 L81 629 L82 187 C82 98 101 32 138 -13 C175 -57 231 -79 307 -79 C383 -79 439 -57 475 -13 C512 32 531 98 531 187 L531 629 L568 629 L568 187 C568 85 546 11 502 -37 C458 -85 393 -109 307 -109 L307 -109 Z M236 755 L277 755 L277 797 L236 797 L236 755 L236 755 Z M342 797 L342 755 L382 755 L382 797 L342 797 L342 797 Z " />
<glyph glyph-name="Yacute" unicode="&#xdd;" horiz-adv-x="579" d="M562 629 L518 629 L293 274 L68 629 L25 629 L275 242 L275 -100 L310 -100 L310 244 L562 629 Z M214 711 L253 711 L368 829 L324 829 L214 711 Z " />
<glyph glyph-name="agrave" unicode="&#xe0;" horiz-adv-x="582" d="M501 448 L501 336 C482 374 454 405 418 426 C381 447 337 458 285 458 C205 458 143 432 98 382 C52 331 30 262 30 174 C30 86 52 18 98 -33 C144 -83 206 -109 286 -109 C338 -109 382 -98 419 -75 C457 -53 485 -22 503 18 L503 -63 L503 -78 L503 -99 L521 -99 L533 -99 L533 -63 L533 448 L501 448 L501 448 Z M501 143 C501 73 482 19 445 -20 C407 -60 354 -80 286 -80 C217 -80 162 -57 122 -11 C82 34 63 95 63 174 C63 253 82 315 122 360 C161 405 216 428 285 428 C353 428 407 408 444 367 C482 327 501 271 501 200 L501 143 L501 143 Z M371 511 L261 629 L217 629 L333 511 L371 511 L371 511 Z " />
<glyph glyph-name="aacute" unicode="&#xe1;" horiz-adv-x="582" d="M501 448 L501 336 C482 374 454 405 418 426 C381 447 337 458 285 458 C205 458 143 432 98 382 C52 331 30 262 30 174 C30 86 52 18 98 -33 C144 -83 206 -109 286 -109 C338 -109 382 -98 419 -75 C457 -53 485 -22 503 18 L503 -63 L503 -78 L503 -99 L521 -99 L533 -99 L533 -63 L533 448 L501 448 L501 448 Z M501 143 C501 73 482 19 445 -20 C407 -60 354 -80 286 -80 C217 -80 162 -57 122 -11 C82 34 63 95 63 174 C63 253 82 315 122 360 C161 405 216 428 285 428 C353 428 407 408 444 367 C482 327 501 271 501 200 L501 143 L501 143 Z M216 511 L255 511 L370 629 L326 629 L216 511 Z " />
<glyph glyph-name="acircumflex" unicode="&#xe2;" horiz-adv-x="582" d="M501 448 L501 336 C482 374 454 405 418 426 C381 447 337 458 285 458 C205 458 143 432 98 382 C52 331 30 262 30 174 C30 86 52 18 98 -33 C144 -83 206 -109 286 -109 C338 -109 382 -98 419 -75 C457 -53 485 -22 503 18 L503 -63 L503 -78 L503 -99 L521 -99 L533 -99 L533 -63 L533 448 L501 448 L501 448 Z M501 143 C501 73 482 19 445 -20 C407 -60 354 -80 286 -80 C217 -80 162 -57 122 -11 C82 34 63 95 63 174 C63 253 82 315 122 360 C161 405 216 428 285 428 C353 428 407 408 444 367 C482 327 501 271 501 200 L501 143 L501 143 Z M323 626 C313 636 302 641 290 641 C278 641 267 636 256 626 L154 525 L195 525 L290 618 L384 525 L426 525 L323 626 Z " />
<glyph glyph-name="atilde" unicode="&#xe3;" horiz-adv-x="582" d="M501 448 L501 336 C482 374 454 405 418 426 C381 447 337 458 285 458 C205 458 143 432 98 382 C52 331 30 262 30 174 C30 86 52 18 98 -33 C144 -83 206 -109 286 -109 C338 -109 382 -98 419 -75 C457 -53 485 -22 503 18 L503 -63 L503 -78 L503 -99 L521 -99 L533 -99 L533 -63 L533 448 L501 448 L501 448 Z M501 143 C501 73 482 19 445 -20 C407 -60 354 -80 286 -80 C217 -80 162 -57 122 -11 C82 34 63 95 63 174 C63 253 82 315 122 360 C161 405 216 428 285 428 C353 428 407 408 444 367 C482 327 501 271 501 200 L501 143 L501 143 Z M407 484 C439 484 462 495 479 516 C495 537 505 568 510 610 L485 615 C485 615 484 606 483 597 C479 568 472 546 460 532 C449 518 431 511 407 511 C397 511 387 515 375 524 C362 533 351 544 339 556 C328 569 315 582 303 595 C292 606 278 617 263 627 C247 635 232 640 217 640 C184 640 159 629 143 607 C127 585 117 554 114 512 L141 509 C141 509 141 513 142 524 C145 556 153 578 164 592 C175 607 192 614 217 614 C227 614 238 611 249 605 C261 599 271 589 281 580 C289 571 298 560 309 549 C320 538 330 527 339 518 C349 508 360 501 372 493 C383 487 395 484 407 484 L407 484 Z " />
<glyph glyph-name="adieresis" unicode="&#xe4;" horiz-adv-x="582" d="M501 448 L501 336 C482 374 454 405 418 426 C381 447 337 458 285 458 C205 458 143 432 98 382 C52 331 30 262 30 174 C30 86 52 18 98 -33 C144 -83 206 -109 286 -109 C338 -109 382 -98 419 -75 C457 -53 485 -22 503 18 L503 -63 L503 -78 L503 -99 L521 -99 L533 -99 L533 -63 L533 448 L501 448 L501 448 Z M501 143 C501 73 482 19 445 -20 C407 -60 354 -80 286 -80 C217 -80 162 -57 122 -11 C82 34 63 95 63 174 C63 253 82 315 122 360 C161 405 216 428 285 428 C353 428 407 408 444 367 C482 327 501 271 501 200 L501 143 L501 143 Z M219 555 L260 555 L260 597 L219 597 L219 555 L219 555 Z M325 597 L325 555 L365 555 L365 597 L325 597 L325 597 Z " />
<glyph glyph-name="aring" unicode="&#xe5;" horiz-adv-x="582" d="M501 448 L501 336 C482 374 454 405 418 426 C381 447 337 458 285 458 C205 458 143 432 98 382 C52 331 30 262 30 174 C30 86 52 18 98 -33 C144 -83 206 -109 286 -109 C338 -109 382 -98 419 -75 C457 -53 485 -22 503 18 L503 -63 L503 -78 L503 -99 L521 -99 L533 -99 L533 -63 L533 448 L501 448 L501 448 Z M501 143 C501 73 482 19 445 -20 C407 -60 354 -80 286 -80 C217 -80 162 -57 122 -11 C82 34 63 95 63 174 C63 253 82 315 122 360 C161 405 216 428 285 428 C353 428 407 408 444 367 C482 327 501 271 501 200 L501 143 L501 143 Z M341 515 C355 529 362 546 362 567 C362 609 330 642 288 642 C247 642 215 609 215 567 C215 526 247 494 288 494 C309 494 327 501 341 515 L341 515 Z M254 533 C245 542 241 553 241 567 C241 595 260 617 288 617 C317 617 336 595 336 567 C336 540 315 519 288 519 C275 519 263 524 254 533 L254 533 Z " />
<glyph glyph-name="ae" unicode="&#xe6;" horiz-adv-x="1041" d="M1010 194 C1010 227 1005 260 994 291 C983 321 968 349 947 375 C927 400 900 420 866 436 C833 450 795 458 753 458 C675 458 612 432 565 380 C553 367 543 353 534 338 L534 435 L502 435 L502 341 C483 380 455 405 418 427 C382 448 337 458 286 458 C206 458 144 433 98 382 C53 332 31 263 31 175 C31 87 53 18 99 -33 C144 -83 207 -109 287 -109 C338 -109 383 -98 420 -75 C457 -53 485 -18 504 22 L504 -100 L534 -100 L534 9 C543 -5 553 -19 565 -32 C611 -84 674 -109 753 -109 C813 -109 864 -94 906 -64 C942 -39 969 -3 988 43 L988 43 L988 43 C991 50 993 57 995 64 L980 68 C980 68 980 68 980 68 L964 72 L957 53 C939 11 914 -21 880 -45 C845 -68 803 -80 753 -80 C685 -80 631 -57 590 -13 C562 18 544 56 534 101 C530 121 528 143 527 166 L1010 166 L1010 194 L1010 194 Z M446 -20 C408 -60 355 -79 287 -79 C218 -79 163 -57 123 -11 C83 34 63 96 63 175 C63 253 83 316 123 361 C162 407 217 429 286 429 C354 429 407 409 445 368 C476 335 495 291 500 237 C496 216 495 193 495 169 C495 146 496 124 500 103 C494 53 476 11 446 -20 L446 -20 Z M528 196 C530 212 531 228 534 243 C544 293 564 333 595 366 C636 408 688 429 753 429 C820 429 874 407 914 364 C954 320 975 264 978 196 L528 196 L528 196 Z " />
<glyph glyph-name="ccedilla" unicode="&#xe7;" horiz-adv-x="593" d="M297 -109 C361 -109 415 -92 458 -58 C500 -25 529 23 544 84 L530 89 C523 90 512 93 512 93 C512 93 509 83 506 73 C491 24 465 -13 429 -40 C393 -66 349 -80 297 -80 C227 -80 173 -57 133 -11 C93 34 73 95 73 173 C73 251 93 314 133 360 C172 405 227 428 297 428 C346 428 388 416 424 391 C459 367 485 332 501 286 C506 275 509 268 509 268 L540 277 C524 335 495 379 453 410 C411 442 359 458 297 458 C217 458 154 432 109 381 C63 330 40 261 40 173 C40 86 63 18 108 -33 C154 -83 216 -109 297 -109 L297 -109 Z M370 -178 C359 -167 343 -162 323 -162 L246 -162 L256 -100 L233 -100 L225 -156 C223 -164 224 -177 229 -182 C233 -187 240 -190 250 -190 L329 -190 C347 -191 360 -204 360 -221 C360 -245 343 -257 309 -257 L205 -257 L205 -285 L304 -285 C330 -285 350 -279 365 -269 C379 -258 387 -242 387 -221 C387 -202 381 -188 370 -178 L370 -178 Z " />
<glyph glyph-name="egrave" unicode="&#xe8;" horiz-adv-x="573" d="M528 290 C517 321 502 349 481 374 C461 399 433 420 400 435 C367 450 329 458 287 458 C208 458 146 431 99 380 C52 327 28 258 28 172 C28 87 52 20 98 -32 C145 -83 208 -109 287 -109 C347 -109 398 -94 439 -64 C475 -38 503 -2 522 43 C524 50 527 57 529 64 C514 68 514 68 498 73 L491 54 C473 12 447 -21 413 -44 C379 -68 337 -80 287 -80 C219 -80 165 -57 124 -12 C83 32 62 91 61 166 L499 166 L544 166 L544 193 C544 227 539 259 528 290 L528 290 Z M62 195 C66 266 89 323 129 365 C169 407 222 428 287 428 C354 428 407 407 447 363 C488 320 509 264 512 195 L62 195 L62 195 Z M366 511 L256 629 L212 629 L328 511 L366 511 L366 511 Z " />
<glyph glyph-name="eacute" unicode="&#xe9;" horiz-adv-x="573" d="M528 290 C517 321 502 349 481 374 C461 399 433 420 400 435 C367 450 329 458 287 458 C208 458 146 431 99 380 C52 327 28 258 28 172 C28 87 52 20 98 -32 C145 -83 208 -109 287 -109 C347 -109 398 -94 439 -64 C475 -38 503 -2 522 43 C524 50 527 57 529 64 C514 68 514 68 498 73 L491 54 C473 12 447 -21 413 -44 C379 -68 337 -80 287 -80 C219 -80 165 -57 124 -12 C83 32 62 91 61 166 L499 166 L544 166 L544 193 C544 227 539 259 528 290 L528 290 Z M62 195 C66 266 89 323 129 365 C169 407 222 428 287 428 C354 428 407 407 447 363 C488 320 509 264 512 195 L62 195 L62 195 Z M211 511 L250 511 L365 629 L321 629 L211 511 Z " />
<glyph glyph-name="ecircumflex" unicode="&#xea;" horiz-adv-x="573" d="M528 290 C517 321 502 349 481 374 C461 399 433 420 400 435 C367 450 329 458 287 458 C208 458 146 431 99 380 C52 327 28 258 28 172 C28 87 52 20 98 -32 C145 -83 208 -109 287 -109 C347 -109 398 -94 439 -64 C475 -38 503 -2 522 43 C524 50 527 57 529 64 C514 68 514 68 498 73 L491 54 C473 12 447 -21 413 -44 C379 -68 337 -80 287 -80 C219 -80 165 -57 124 -12 C83 32 62 91 61 166 L499 166 L544 166 L544 193 C544 227 539 259 528 290 L528 290 Z M62 195 C66 266 89 323 129 365 C169 407 222 428 287 428 C354 428 407 407 447 363 C488 320 509 264 512 195 L62 195 L62 195 Z M319 626 C309 636 298 641 286 641 C274 641 263 636 252 626 L150 525 L191 525 L286 618 L380 525 L422 525 L319 626 Z " />
<glyph glyph-name="edieresis" unicode="&#xeb;" horiz-adv-x="573" d="M528 290 C517 321 502 349 481 374 C461 399 433 420 400 435 C367 450 329 458 287 458 C208 458 146 431 99 380 C52 327 28 258 28 172 C28 87 52 20 98 -32 C145 -83 208 -109 287 -109 C347 -109 398 -94 439 -64 C475 -38 503 -2 522 43 C524 50 527 57 529 64 C514 68 514 68 498 73 L491 54 C473 12 447 -21 413 -44 C379 -68 337 -80 287 -80 C219 -80 165 -57 124 -12 C83 32 62 91 61 166 L499 166 L544 166 L544 193 C544 227 539 259 528 290 L528 290 Z M62 195 C66 266 89 323 129 365 C169 407 222 428 287 428 C354 428 407 407 447 363 C488 320 509 264 512 195 L62 195 L62 195 Z M215 555 L256 555 L256 597 L215 597 L215 555 L215 555 Z M321 597 L321 555 L361 555 L361 597 L321 597 L321 597 Z " />
<glyph glyph-name="igrave" unicode="&#xec;" horiz-adv-x="164" d="M6 629 L121 513 L150 513 L41 629 L6 629 Z M69 -100 L69 447 L102 447 L102 -100 L69 -100 Z " />
<glyph glyph-name="iacute" unicode="&#xed;" horiz-adv-x="123" d="M6 513 L123 629 L90 629 L-21 513 L6 513 Z M79 -100 L79 447 L46 447 L46 -100 L79 -100 Z " />
<glyph glyph-name="icircumflex" unicode="&#xee;" horiz-adv-x="123" d="M90 628 C81 637 72 641 62 641 C53 641 44 637 35 628 L-68 525 L-37 525 L62 624 L162 525 L193 525 L90 628 Z M48 -100 L48 447 L81 447 L81 -100 L48 -100 Z " />
<glyph glyph-name="idieresis" unicode="&#xef;" horiz-adv-x="123" d="M-4 592 L28 592 L28 629 L-4 629 L-4 592 Z M93 592 L125 592 L125 629 L93 629 L93 592 Z M79 -100 L79 447 L46 447 L46 -100 L79 -100 Z " />
<glyph glyph-name="eth" unicode="&#xf0;" horiz-adv-x="592" d="M361 606 L317 606 L284 570 L251 606 L207 606 L263 548 L207 488 L246 488 L284 527 L322 488 L361 488 L305 548 L361 606 Z M287 -109 C208 -109 145 -83 99 -33 C54 18 31 86 31 174 C31 262 54 331 99 382 C145 432 208 458 287 458 C367 458 429 432 475 381 C521 330 543 261 543 174 C543 86 521 18 475 -33 C429 -83 367 -109 287 -109 L287 -109 Z M123 -11 C163 -57 218 -80 287 -80 C356 -80 411 -57 450 -11 C490 34 510 95 510 174 C510 253 490 315 450 360 C411 405 356 428 287 428 C218 428 163 405 123 360 C83 315 64 253 64 174 C64 95 83 34 123 -11 L123 -11 Z " />
<glyph glyph-name="ntilde" unicode="&#xf1;" horiz-adv-x="497" d="M415 396 C383 437 334 458 267 458 C174 458 112 420 81 346 L81 448 L50 448 L50 -100 L83 -100 L83 241 C83 366 144 428 267 428 C323 428 365 410 391 374 C417 339 430 285 430 215 L430 -100 L462 -100 L462 215 C462 295 447 355 415 396 L415 396 Z M364 484 C396 484 419 495 436 516 C452 537 462 568 467 610 L442 615 C442 615 441 606 440 597 C436 568 429 546 417 532 C406 518 388 511 364 511 C354 511 344 515 332 524 C319 533 308 544 296 556 C285 569 272 582 260 595 C249 606 235 617 220 627 C204 635 189 640 174 640 C141 640 116 629 100 607 C84 585 74 554 71 512 L98 509 C98 509 98 513 99 524 C102 556 110 578 121 592 C132 607 149 614 174 614 C184 614 195 611 206 605 C218 599 228 589 238 580 C246 571 255 560 266 549 C277 538 287 527 296 518 C306 508 317 501 329 493 C340 487 352 484 364 484 L364 484 Z " />
<glyph glyph-name="ograve" unicode="&#xf2;" horiz-adv-x="573" d="M287 -109 C208 -109 145 -83 99 -33 C54 18 31 86 31 174 C31 262 54 331 99 382 C145 432 208 458 287 458 C367 458 429 432 475 381 C521 330 543 261 543 174 C543 86 521 18 475 -33 C429 -83 367 -109 287 -109 L287 -109 Z M123 -11 C163 -57 218 -80 287 -80 C356 -80 411 -57 450 -11 C490 34 510 95 510 174 C510 253 490 315 450 360 C411 405 356 428 287 428 C218 428 163 405 123 360 C83 315 64 253 64 174 C64 95 83 34 123 -11 L123 -11 Z M366 511 L256 629 L212 629 L328 511 L366 511 L366 511 Z " />
<glyph glyph-name="oacute" unicode="&#xf3;" horiz-adv-x="573" d="M287 -109 C367 -109 429 -83 475 -33 C521 18 543 86 543 174 C543 261 521 330 475 381 C429 432 367 458 287 458 C208 458 145 432 99 382 C54 331 31 262 31 174 C31 86 54 18 99 -33 C145 -83 208 -109 287 -109 L287 -109 Z M123 -11 C83 34 64 95 64 174 C64 253 83 315 123 360 C163 405 218 428 287 428 C356 428 411 405 450 360 C490 315 510 253 510 174 C510 95 490 34 450 -11 C411 -57 356 -80 287 -80 C218 -80 163 -57 123 -11 L123 -11 Z M211 511 L250 511 L365 629 L321 629 L211 511 Z " />
<glyph glyph-name="ocircumflex" unicode="&#xf4;" horiz-adv-x="573" d="M287 -109 C208 -109 145 -83 99 -33 C54 18 31 86 31 174 C31 262 54 331 99 382 C145 432 208 458 287 458 C367 458 429 432 475 381 C521 330 543 261 543 174 C543 86 521 18 475 -33 C429 -83 367 -109 287 -109 L287 -109 Z M123 -11 C163 -57 218 -80 287 -80 C356 -80 411 -57 450 -11 C490 34 510 95 510 174 C510 253 490 315 450 360 C411 405 356 428 287 428 C218 428 163 405 123 360 C83 315 64 253 64 174 C64 95 83 34 123 -11 L123 -11 Z M319 626 C309 636 298 641 286 641 C274 641 263 636 252 626 L150 525 L191 525 L286 618 L380 525 L422 525 L319 626 Z " />
<glyph glyph-name="otilde" unicode="&#xf5;" horiz-adv-x="573" d="M287 -109 C367 -109 429 -83 475 -33 C521 18 543 86 543 174 C543 261 521 330 475 381 C429 432 367 458 287 458 C208 458 145 432 99 382 C54 331 31 262 31 174 C31 86 54 18 99 -33 C145 -83 208 -109 287 -109 L287 -109 Z M123 -11 C83 34 64 95 64 174 C64 253 83 315 123 360 C163 405 218 428 287 428 C356 428 411 405 450 360 C490 315 510 253 510 174 C510 95 490 34 450 -11 C411 -57 356 -80 287 -80 C218 -80 163 -57 123 -11 L123 -11 Z M402 484 C434 484 457 495 474 516 C490 537 500 568 505 610 L480 615 C480 615 479 606 478 597 C474 568 467 546 455 532 C444 518 426 511 402 511 C392 511 382 515 370 524 C357 533 346 544 334 556 C323 569 310 582 298 595 C287 606 273 617 258 627 C242 635 227 640 212 640 C179 640 154 629 138 607 C122 585 112 554 109 512 L136 509 C136 509 136 513 137 524 C140 556 148 578 159 592 C170 607 187 614 212 614 C222 614 233 611 244 605 C256 599 266 589 276 580 C284 571 293 560 304 549 C315 538 325 527 334 518 C344 508 355 501 367 493 C378 487 390 484 402 484 L402 484 Z " />
<glyph glyph-name="odieresis" unicode="&#xf6;" horiz-adv-x="573" d="M287 -109 C208 -109 145 -83 99 -33 C54 18 31 86 31 174 C31 262 54 331 99 382 C145 432 208 458 287 458 C367 458 429 432 475 381 C521 330 543 261 543 174 C543 86 521 18 475 -33 C429 -83 367 -109 287 -109 L287 -109 Z M123 -11 C163 -57 218 -80 287 -80 C356 -80 411 -57 450 -11 C490 34 510 95 510 174 C510 253 490 315 450 360 C411 405 356 428 287 428 C218 428 163 405 123 360 C83 315 64 253 64 174 C64 95 83 34 123 -11 L123 -11 Z M215 555 L256 555 L256 597 L215 597 L215 555 L215 555 Z M321 597 L321 555 L361 555 L361 597 L321 597 L321 597 Z " />
<glyph glyph-name="oslash" unicode="&#xf8;" horiz-adv-x="573" d="M125 -174 L149 -174 L455 515 L430 515 L125 -174 Z M287 -109 C367 -109 429 -83 475 -33 C521 18 543 86 543 174 C543 261 521 330 475 381 C429 432 367 458 287 458 C208 458 145 432 99 382 C54 331 31 262 31 174 C31 86 54 18 99 -33 C145 -83 208 -109 287 -109 L287 -109 Z M123 -11 C83 34 64 95 64 174 C64 253 83 315 123 360 C163 405 218 428 287 428 C356 428 411 405 450 360 C490 315 510 253 510 174 C510 95 490 34 450 -11 C411 -57 356 -80 287 -80 C218 -80 163 -57 123 -11 L123 -11 Z " />
<glyph glyph-name="ugrave" unicode="&#xf9;" horiz-adv-x="504" d="M426 448 L426 108 C426 -17 365 -80 243 -80 C186 -80 144 -62 118 -26 C92 10 79 63 79 133 L79 448 L47 448 L47 133 C47 53 62 -7 94 -48 C125 -89 175 -109 243 -109 C335 -109 397 -72 428 3 L428 -100 L459 -100 L459 448 L426 448 L426 448 Z M332 511 L222 629 L178 629 L294 511 L332 511 L332 511 Z " />
<glyph glyph-name="uacute" unicode="&#xfa;" horiz-adv-x="504" d="M426 448 L426 108 C426 -17 365 -80 243 -80 C186 -80 144 -62 118 -26 C92 10 79 63 79 133 L79 448 L47 448 L47 133 C47 53 62 -7 94 -48 C125 -89 175 -109 243 -109 C335 -109 397 -72 428 3 L428 -100 L459 -100 L459 448 L426 448 L426 448 Z M177 511 L216 511 L331 629 L287 629 L177 511 Z " />
<glyph glyph-name="ucircumflex" unicode="&#xfb;" horiz-adv-x="504" d="M426 448 L426 108 C426 -17 365 -80 243 -80 C186 -80 144 -62 118 -26 C92 10 79 63 79 133 L79 448 L47 448 L47 133 C47 53 62 -7 94 -48 C125 -89 175 -109 243 -109 C335 -109 397 -72 428 3 L428 -100 L459 -100 L459 448 L426 448 L426 448 Z M284 626 C274 636 263 641 251 641 C239 641 228 636 217 626 L115 525 L156 525 L251 618 L345 525 L387 525 L284 626 Z " />
<glyph glyph-name="udieresis" unicode="&#xfc;" horiz-adv-x="504" d="M426 448 L426 108 C426 -17 365 -80 243 -80 C186 -80 144 -62 118 -26 C92 10 79 63 79 133 L79 448 L47 448 L47 133 C47 53 62 -7 94 -48 C125 -89 175 -109 243 -109 C335 -109 397 -72 428 3 L428 -100 L459 -100 L459 448 L426 448 L426 448 Z M180 555 L221 555 L221 597 L180 597 L180 555 L180 555 Z M286 597 L286 555 L326 555 L326 597 L286 597 L286 597 Z " />
<glyph glyph-name="yacute" unicode="&#xfd;" horiz-adv-x="482" d="M426 448 L241 -56 L55 448 L18 448 L225 -99 L194 -181 C186 -202 175 -219 162 -231 C148 -242 133 -248 117 -248 L106 -248 L76 -248 L76 -281 L106 -281 L109 -281 C134 -281 157 -273 177 -258 C198 -242 213 -222 223 -196 L463 448 L426 448 L426 448 Z M166 511 L276 629 L320 629 L205 511 L166 511 L166 511 Z " />
<glyph glyph-name="ydieresis" unicode="&#xff;" horiz-adv-x="482" d="M426 448 L241 -56 L55 448 L18 448 L225 -99 L194 -181 C186 -202 175 -219 162 -231 C148 -242 133 -248 117 -248 L106 -248 L76 -248 L76 -281 L106 -281 L109 -281 C134 -281 157 -273 177 -258 C198 -242 213 -222 223 -196 L463 448 L426 448 L426 448 Z M169 555 L210 555 L210 597 L169 597 L169 555 L169 555 Z M275 597 L275 555 L315 555 L315 597 L275 597 L275 597 Z " />
<glyph glyph-name="Lslash" unicode="&#x141;" horiz-adv-x="576" d="M171 -69 L171 240 L285 298 L304 307 L290 336 L171 275 L171 630 L136 630 L136 258 L24 201 L5 191 L20 163 L136 222 L136 -100 L562 -100 L562 -69 L171 -69 L171 -69 Z " />
<glyph glyph-name="lslash" unicode="&#x142;" horiz-adv-x="330" d="M293 -70 L290 -70 L259 -70 C228 -70 205 -60 188 -39 C171 -17 162 13 162 51 L162 256 L296 324 L282 352 L162 292 L162 632 L129 632 L129 275 L-3 208 L11 180 L129 240 L129 51 C129 3 140 -34 163 -60 C186 -87 218 -100 259 -100 L290 -100 L313 -100 L313 -87 L313 -70 L293 -70 L293 -70 Z " />
<glyph glyph-name="OE" unicode="&#x152;" horiz-adv-x="980" d="M557 598 L948 598 L948 629 L522 629 L522 614 C480 630 432 639 377 639 C270 639 186 606 127 540 C68 475 39 382 39 264 C39 145 68 55 127 -10 C186 -76 270 -109 377 -109 C432 -109 480 -101 522 -84 L522 -99 L948 -99 L948 -69 L557 -69 L557 259 L940 259 L940 289 L557 289 L557 598 L557 598 Z M522 -49 C481 -69 433 -79 377 -79 C327 -79 283 -71 244 -54 C205 -37 173 -14 149 17 C124 48 106 84 93 126 C81 168 74 212 74 264 C74 373 101 458 153 518 C205 578 280 608 377 608 C433 608 481 598 522 578 L522 -49 L522 -49 Z " />
<glyph glyph-name="oe" unicode="&#x153;" horiz-adv-x="1025" d="M1005 168 L1005 195 C1005 228 1000 261 989 292 C979 323 963 351 943 376 C922 401 895 421 862 437 C828 452 790 459 748 459 C670 459 607 433 560 381 C540 359 524 334 513 305 C501 334 486 361 465 383 C420 434 357 459 278 459 C198 459 135 434 90 383 C44 333 21 264 21 176 C21 88 44 18 90 -32 C135 -83 198 -108 278 -108 C357 -108 420 -83 465 -32 C485 -10 501 16 512 45 C524 17 540 -9 560 -31 C607 -82 669 -108 748 -108 C808 -108 859 -93 901 -63 C937 -38 964 -2 983 44 C985 51 988 58 990 65 C975 69 975 69 959 73 L952 55 C934 13 909 -20 875 -43 C840 -67 798 -79 748 -79 C680 -79 626 -56 585 -12 C556 20 538 59 529 106 C525 125 523 146 523 168 L1005 168 L1005 168 Z M441 -11 C401 -56 347 -79 278 -79 C208 -79 154 -56 114 -11 C74 35 54 97 54 176 C54 254 74 316 114 362 C154 407 208 430 278 430 C347 430 401 407 441 362 C469 330 487 290 495 242 C492 220 490 198 490 174 C490 150 491 129 495 108 C487 60 468 21 441 -11 L441 -11 Z M524 197 C524 213 526 228 529 242 C538 292 559 334 590 367 C630 409 683 430 748 430 C815 430 869 408 909 365 C949 321 971 265 973 197 L524 197 L524 197 Z " />
<glyph glyph-name="Scaron" unicode="&#x160;" horiz-adv-x="584" d="M290 -109 C377 -109 445 -92 491 -57 C538 -22 562 28 562 94 C562 193 500 257 377 287 L227 324 C128 349 79 395 79 464 C79 511 96 547 131 572 C167 598 218 610 286 610 C323 610 361 602 398 587 C434 572 466 553 493 528 C502 521 507 517 507 517 L529 539 C498 569 462 594 420 613 C378 631 333 641 286 641 C208 641 148 626 106 595 C64 565 43 521 43 464 C43 376 102 319 219 291 L368 255 C473 230 525 178 525 93 C525 39 505 -3 465 -33 C424 -64 366 -79 290 -79 C201 -79 125 -51 63 4 C58 9 47 18 47 18 L27 -9 C97 -76 185 -109 290 -109 L290 -109 Z M424 829 L381 829 L287 735 L193 829 L151 829 L254 727 C265 716 276 711 287 711 C299 711 310 716 320 727 L424 829 Z " />
<glyph glyph-name="scaron" unicode="&#x161;" horiz-adv-x="473" d="M236 -109 C305 -109 358 -96 395 -69 C432 -43 451 -5 451 45 C451 85 436 118 405 143 C374 169 331 188 276 201 C267 203 254 206 238 210 C222 214 209 217 200 219 C164 227 136 240 117 257 C98 274 88 298 88 330 C88 357 102 380 130 400 C158 420 196 430 243 430 C274 430 302 425 325 412 C370 387 399 357 399 357 L419 378 C405 397 373 420 351 432 C320 449 284 459 243 459 C186 459 141 446 107 421 C73 396 56 365 56 329 C56 256 102 210 195 190 C205 187 219 184 235 180 C252 177 264 174 271 172 C369 149 417 107 417 45 C417 4 402 -27 370 -48 C339 -69 294 -80 236 -80 C204 -80 172 -73 141 -60 C114 -48 75 -24 60 -5 L36 -25 C53 -48 80 -67 118 -84 C156 -100 195 -109 236 -109 L236 -109 Z M368 629 L325 629 L231 535 L137 629 L95 629 L198 527 C209 516 220 511 231 511 C243 511 254 516 264 527 L368 629 Z " />
<glyph glyph-name="Ydieresis" unicode="&#x178;" horiz-adv-x="579" d="M562 629 L310 244 L310 -100 L275 -100 L275 242 L25 629 L68 629 L293 274 L518 629 L562 629 L562 629 Z M218 755 L259 755 L259 797 L218 797 L218 755 L218 755 Z M324 797 L324 755 L364 755 L364 797 L324 797 L324 797 Z " />
<glyph glyph-name="Zcaron" unicode="&#x17d;" horiz-adv-x="558" d="M540 629 L24 629 L24 598 L498 598 L24 -70 L24 -100 L540 -100 L540 -70 L69 -70 L540 598 L540 629 Z M411 829 L368 829 L274 735 L180 829 L138 829 L241 727 C252 716 263 711 274 711 C286 711 297 716 307 727 L411 829 Z " />
<glyph glyph-name="zcaron" unicode="&#x17e;" horiz-adv-x="500" d="M476 448 L27 448 L27 419 L433 419 L27 -70 L27 -100 L476 -100 L476 -70 L70 -70 L476 419 L476 448 Z M382 629 L339 629 L245 535 L151 629 L109 629 L212 527 C223 516 234 511 245 511 C257 511 268 516 278 527 L382 629 Z " />
<glyph glyph-name="circumflex" unicode="&#x2c6;" horiz-adv-x="326" d="M201 626 C191 636 180 641 168 641 C156 641 145 636 134 626 L32 525 L73 525 L168 618 L262 525 L304 525 L201 626 Z " />
<glyph glyph-name="caron" unicode="&#x2c7;" horiz-adv-x="349" d="M307 629 L264 629 L170 535 L76 629 L34 629 L137 527 C148 516 159 511 170 511 C182 511 193 516 203 527 L307 629 Z " />
<glyph glyph-name="ring" unicode="&#x2da;" horiz-adv-x="224" d="M164 515 C178 529 185 546 185 567 C185 609 153 642 111 642 C70 642 38 609 38 567 C38 526 70 494 111 494 C132 494 150 501 164 515 L164 515 Z M77 533 C68 542 64 553 64 567 C64 595 83 617 111 617 C140 617 159 595 159 567 C159 540 138 519 111 519 C98 519 86 524 77 533 L77 533 Z " />
<glyph glyph-name="tilde" unicode="&#x2dc;" horiz-adv-x="595" d="M414 484 C446 484 469 495 486 516 C502 537 512 568 517 610 L492 615 C492 615 491 606 490 597 C486 568 479 546 467 532 C456 518 438 511 414 511 C404 511 394 515 382 524 C369 533 358 544 346 556 C335 569 322 582 310 595 C299 606 285 617 270 627 C254 635 239 640 224 640 C191 640 166 629 150 607 C134 585 124 554 121 512 L148 509 C148 509 148 513 149 524 C152 556 160 578 171 592 C182 607 199 614 224 614 C234 614 245 611 256 605 C268 599 278 589 288 580 C296 571 305 560 316 549 C327 538 337 527 346 518 C356 508 367 501 379 493 C390 487 402 484 414 484 L414 484 Z " />
<glyph glyph-name="quoteleft" unicode="&#x2018;" horiz-adv-x="128" d="M47 504 C56 504 63 506 68 509 C73 512 77 518 79 527 C95 579 103 607 103 612 C103 620 100 628 95 633 C89 639 82 641 74 641 C65 641 58 638 52 633 C46 627 43 620 43 612 C43 601 47 593 55 587 C60 585 61 580 59 573 L42 513 C41 511 41 509 42 507 C44 505 45 504 47 504 L47 504 Z " />
<glyph glyph-name="quoteright" unicode="&#x2019;" horiz-adv-x="123" d="M47 504 C56 504 63 506 68 509 C73 512 77 518 79 527 C95 579 103 607 103 612 C103 620 100 628 95 633 C89 639 82 641 74 641 C65 641 58 638 52 633 C46 627 43 620 43 612 C43 601 47 593 55 587 C60 585 61 580 59 573 L42 513 C41 511 41 509 42 507 C44 505 45 504 47 504 L47 504 Z " />
<glyph glyph-name="quotedblleft" unicode="&#x201c;" horiz-adv-x="186" d="M35 511 C44 511 51 513 56 516 C61 519 64 525 67 534 C83 586 91 614 91 619 C91 627 88 635 82 640 C77 646 70 648 62 648 C53 648 46 645 40 640 C34 634 31 627 31 619 C31 609 35 601 43 595 C48 592 49 587 47 580 L30 520 C29 518 29 516 30 514 C31 512 33 511 35 511 L35 511 Z M108 511 C117 511 124 513 129 516 C134 519 137 525 140 534 C155 584 163 612 163 619 C163 628 160 635 154 640 C149 646 142 648 133 648 C125 648 118 645 112 640 C107 634 104 627 104 619 C104 608 108 601 115 595 C120 591 122 586 120 580 L102 520 C101 518 102 516 103 514 C104 512 106 511 108 511 L108 511 Z " />
<glyph glyph-name="quotedblright" unicode="&#x201d;" horiz-adv-x="183" d="M35 511 C44 511 51 513 56 516 C61 519 64 525 67 534 C83 586 91 614 91 619 C91 627 88 635 82 640 C77 646 70 648 62 648 C53 648 46 645 40 640 C34 634 31 627 31 619 C31 609 35 601 43 595 C48 592 49 587 47 580 L30 520 C29 518 29 516 30 514 C31 512 33 511 35 511 L35 511 Z M108 511 C117 511 124 513 129 516 C134 519 137 525 140 534 C155 584 163 612 163 619 C163 628 160 635 154 640 C149 646 142 648 133 648 C125 648 118 645 112 640 C107 634 104 627 104 619 C104 608 108 601 115 595 C120 591 122 586 120 580 L102 520 C101 518 102 516 103 514 C104 512 106 511 108 511 L108 511 Z " />
<glyph glyph-name="Euro" unicode="&#x20ac;" horiz-adv-x="624" d="M414 629 C322 629 247 606 191 558 C135 511 99 443 85 355 L37 355 L37 324 L81 324 C79 305 78 285 78 264 C78 254 79 239 80 218 L37 218 L37 188 L83 188 C95 95 130 23 187 -27 C244 -78 320 -103 414 -103 L565 -103 L565 -70 L414 -70 C330 -70 262 -48 212 -3 C161 41 130 105 118 188 L465 188 L465 218 L116 218 C114 239 113 254 113 264 C113 285 115 305 117 324 L497 324 L497 355 L121 355 C135 432 166 492 216 534 C267 576 333 596 414 596 L566 596 L566 629 L414 629 Z " />
<glyph glyph-name="fi" unicode="&#xfb01;" horiz-adv-x="395" d="M322 -100 L345 -100 L345 447 L322 447 L322 -100 L322 -100 Z M299 632 L213 632 C171 632 139 618 117 591 C94 564 83 525 83 475 L83 449 L7 449 L7 430 L83 430 L83 -100 L105 -100 L105 430 L294 430 L294 449 L105 449 L105 475 C105 519 115 553 133 576 C152 600 178 612 213 612 L316 612 L316 594 L349 594 L349 632 L299 632 Z " />
<glyph glyph-name="fl" unicode="&#xfb02;" horiz-adv-x="519" d="M217 629 C175 629 142 616 119 589 C96 562 85 524 85 476 L85 446 L7 446 L7 417 L85 417 L85 -100 L117 -100 L117 417 L299 417 L299 446 L117 446 L117 476 C117 515 126 546 143 567 C160 588 185 599 217 599 L337 599 L337 629 L217 629 Z M435 -71 C404 -71 380 -60 363 -39 C346 -18 337 13 337 51 L337 629 L304 629 L304 51 C304 3 316 -34 338 -60 C361 -87 393 -100 435 -100 L488 -100 L488 -71 L435 -71 Z " />
</font>
</svg>
