<?xml version="1.0" encoding="UTF-8"?>
<svg xmlns="http://www.w3.org/2000/svg" xmlns:xlink="http://www.w3.org/1999/xlink" version="1.2" >
<font id="Noirden Semi Bold">
<font-face  font-family="Noirden" units-per-em="1000" ascent="750" descent="-250" font-style="normal" font-weight="400" font-stretch="normal" cap-height="900" x-height="700" underline-position="-75" underline-thickness="50" />
<missing-glyph  horiz-adv-x="197" d="" />
<glyph glyph-name="NULL" d="" />
<glyph glyph-name="CR" unicode="&#xd;" horiz-adv-x="197" d="" />
<glyph glyph-name="space" unicode="&#x20;" horiz-adv-x="197" d="" />
<glyph glyph-name="exclam" unicode="&#x21;" horiz-adv-x="124" d="M15 159 L18 56 L97 56 L104 158 C105 219 109 270 109 322 L109 629 L14 629 L14 321 C14 234 15 196 15 159 L15 159 Z M21 -16 L100 -16 L100 -97 L21 -97 L21 -16 L21 -16 Z " />
<glyph glyph-name="quotedbl" unicode="&#x22;" horiz-adv-x="254" d="M21 466 C41 466 57 470 68 477 C79 485 88 498 94 517 C108 557 114 582 114 592 C114 622 93 648 59 648 C29 648 3 625 3 592 C3 575 8 561 20 551 C27 545 29 536 26 523 L12 477 C11 475 11 472 13 470 C15 468 18 466 21 466 L21 466 Z M153 466 C173 466 189 470 200 477 C211 485 220 498 226 517 C239 557 246 582 246 592 C246 622 225 648 191 648 C160 648 135 626 135 592 C135 575 140 561 152 551 C159 545 161 536 158 523 L144 477 C143 475 143 472 145 470 C147 468 149 466 153 466 L153 466 Z " />
<glyph glyph-name="numbersign" unicode="&#x23;" horiz-adv-x="624" d="M566 345 L583 426 L502 426 L545 629 L465 629 L420 426 L258 426 L302 629 L221 629 L177 426 L96 426 L79 345 L160 345 L126 183 L44 183 L27 102 L108 102 L65 -100 L146 -100 L190 102 L352 102 L308 -100 L389 -100 L433 102 L514 102 L531 183 L450 183 L485 345 L566 345 Z M369 183 L207 183 L241 345 L403 345 L369 183 Z " />
<glyph glyph-name="dollar" unicode="&#x24;" horiz-adv-x="577" d="M515 251 C476 286 415 312 334 330 L334 557 C373 547 417 526 467 493 C470 491 481 483 481 483 L543 547 C485 602 415 635 334 644 L334 735 L249 735 L249 645 C182 640 128 622 90 590 C50 558 30 512 30 452 C30 354 100 290 238 263 L249 261 L249 -20 C185 -17 119 13 75 57 L14 -6 C47 -37 82 -60 119 -76 C156 -92 199 -101 249 -105 L249 -214 L334 -214 L334 -104 C408 -99 469 -78 511 -42 C554 -5 575 47 575 115 C575 171 555 216 515 251 L515 251 Z M241 350 C203 358 174 371 153 390 C132 408 122 429 122 452 C122 517 164 553 249 561 L249 348 L241 350 L241 350 Z M430 18 C405 -3 373 -15 334 -20 L334 244 C379 233 415 217 440 194 C467 169 481 142 481 113 C481 76 464 44 430 18 L430 18 Z " />
<glyph glyph-name="percent" unicode="&#x25;" horiz-adv-x="646" d="M169 362 C209 362 243 376 270 404 C297 431 311 465 311 504 C311 544 297 578 270 605 C243 633 209 647 169 647 C129 647 96 633 68 605 C41 578 27 544 27 504 C27 465 41 431 68 404 C96 376 129 362 169 362 L169 362 Z M111 563 C127 579 147 587 169 587 C192 587 212 579 228 563 C244 546 252 527 252 504 C252 482 244 462 228 446 C211 429 192 421 169 421 C147 421 127 429 111 445 C95 462 86 482 86 504 C86 527 95 546 111 563 L111 563 Z M573 135 C546 162 512 176 473 176 C433 176 399 162 372 135 C344 107 330 74 330 34 C330 -6 344 -40 372 -67 C399 -94 433 -108 473 -108 C512 -108 546 -94 573 -67 C601 -40 615 -6 615 34 C615 74 601 107 573 135 L573 135 Z M531 -25 C515 -41 495 -49 473 -49 C450 -49 430 -41 414 -25 C397 -8 389 11 389 34 C389 56 397 76 414 92 C430 109 450 117 473 117 C495 117 515 109 531 93 C548 76 556 57 556 34 C556 11 548 -9 531 -25 L531 -25 Z M563 634 L524 634 L32 -96 L76 -96 L115 -96 L606 634 L563 634 L563 634 Z " />
<glyph glyph-name="ampersand" unicode="&#x26;" horiz-adv-x="744" d="M700 -16 C664 -16 635 -2 611 25 L592 46 C633 100 662 167 680 246 L601 269 C601 269 596 254 594 248 C579 197 558 151 532 112 L335 330 L346 337 C377 358 402 381 420 408 C439 434 448 461 448 490 C448 537 433 574 404 601 C374 628 334 641 284 641 C237 641 200 628 171 601 C143 574 129 538 129 493 C129 453 152 407 198 356 L208 345 L158 314 C68 260 23 194 23 116 C23 48 47 -7 95 -49 C142 -90 204 -111 280 -111 C380 -111 464 -80 534 -18 L553 -39 C570 -58 590 -72 614 -83 C638 -94 662 -99 685 -99 L723 -99 L723 -16 L700 -16 L700 -16 Z M284 567 C332 566 363 533 363 487 C363 450 328 419 301 403 L280 391 L267 405 C243 431 215 459 215 493 C215 536 244 567 284 567 L284 567 Z M280 -30 C232 -30 191 -17 160 9 C128 36 112 70 112 113 C112 173 153 209 196 239 L263 283 L477 46 C422 -4 357 -30 280 -30 L280 -30 Z " />
<glyph glyph-name="quotesingle" unicode="&#x27;" horiz-adv-x="139" d="M40 459 C60 459 75 463 87 471 C98 478 106 491 113 509 C126 550 133 575 133 585 C133 601 128 615 117 625 C107 636 93 641 77 641 C61 641 48 636 37 625 C27 615 21 601 21 585 C21 568 27 554 38 544 C45 538 48 529 45 516 L30 471 C29 468 30 465 31 463 C34 460 36 459 40 459 L40 459 Z " />
<glyph glyph-name="parenleft" unicode="&#x28;" horiz-adv-x="235" d="M161 -213 L220 -182 C220 -182 215 -171 212 -165 C190 -111 171 -49 155 22 C139 93 132 164 132 236 C132 329 138 408 151 474 C164 540 184 599 214 648 C218 654 224 664 224 664 L170 699 C91 561 51 406 51 236 C51 161 61 85 83 7 C103 -71 130 -145 161 -213 L161 -213 Z " />
<glyph glyph-name="parenright" unicode="&#x29;" horiz-adv-x="234" d="M14 -181 L74 -212 C105 -144 131 -70 152 8 C173 86 183 163 183 237 C183 408 144 562 65 700 L10 666 C10 666 17 655 20 649 C51 600 70 541 83 475 C96 409 103 330 103 237 C103 166 95 95 79 23 C63 -47 45 -110 22 -163 C20 -170 14 -181 14 -181 L14 -181 Z " />
<glyph glyph-name="asterisk" unicode="&#x2a;" horiz-adv-x="448" d="M415 483 L393 551 L255 492 L266 641 L194 641 L206 493 L68 551 L46 483 L189 446 L95 333 L153 291 L230 420 L307 291 L365 333 L271 446 L415 483 L415 483 Z " />
<glyph glyph-name="plus" unicode="&#x2b;" horiz-adv-x="564" d="M523 294 L323 294 L323 506 L238 506 L238 294 L37 294 L37 213 L238 213 L238 -1 L323 -1 L323 213 L523 213 L523 294 L523 294 Z " />
<glyph glyph-name="comma" unicode="&#x2c;" horiz-adv-x="127" d="M28 -233 C49 -233 64 -230 75 -222 C86 -215 95 -202 102 -184 C115 -143 122 -118 122 -108 C122 -92 117 -78 106 -67 C96 -57 82 -52 66 -52 C50 -52 37 -57 26 -67 C16 -78 10 -92 10 -108 C10 -125 16 -139 27 -149 C34 -155 36 -164 33 -176 L19 -222 C18 -225 19 -228 20 -230 C22 -232 25 -233 28 -233 L28 -233 Z " />
<glyph glyph-name="hyphen" unicode="&#x2d;" horiz-adv-x="434" d="M84 301 L48 301 L48 220 L358 220 L393 220 L393 301 L84 301 L84 301 Z " />
<glyph glyph-name="period" unicode="&#x2e;" horiz-adv-x="120" d="M102 -94 C112 -83 117 -70 117 -54 C117 -38 112 -24 102 -13 C91 -3 78 2 62 2 C46 2 32 -3 21 -13 C11 -24 6 -38 6 -54 C6 -70 11 -83 21 -94 C32 -104 46 -109 62 -109 C78 -109 91 -104 102 -94 L102 -94 Z " />
<glyph glyph-name="slash" unicode="&#x2f;" horiz-adv-x="569" d="M33 -203 L114 -203 L538 751 L458 751 L33 -203 L33 -203 Z " />
<glyph glyph-name="zero" unicode="0" horiz-adv-x="633" d="M321 -109 C406 -109 472 -76 518 -9 C565 57 588 151 588 273 C588 392 565 484 518 548 C472 613 406 646 321 646 C236 646 169 613 123 549 C77 484 53 392 53 273 C53 151 77 57 123 -9 C169 -76 236 -109 321 -109 L321 -109 Z M321 -25 C266 -25 223 1 193 53 C162 106 147 179 147 273 C147 364 162 435 193 486 C223 537 266 562 321 562 C376 562 418 537 449 486 C479 434 495 364 495 273 C495 179 479 106 449 53 C418 1 376 -25 321 -25 L321 -25 Z " />
<glyph glyph-name="one" unicode="1" horiz-adv-x="297" d="M256 636 L178 636 L178 633 C174 584 165 524 165 524 L12 524 L12 465 L164 465 L164 -100 L256 -100 L256 636 L256 636 Z " />
<glyph glyph-name="two" unicode="2" horiz-adv-x="558" d="M162 98 C205 147 279 173 337 205 C436 256 515 305 515 432 C515 473 503 512 479 550 C449 589 410 616 360 630 C331 639 300 643 265 643 C235 643 207 638 180 629 C121 608 68 565 36 507 C29 493 24 481 22 471 L108 440 C108 440 113 453 115 459 C141 525 192 557 265 557 C311 557 348 546 378 524 C407 502 422 471 422 432 C422 388 404 350 365 324 C336 306 305 291 273 271 C242 252 209 235 177 215 C140 191 97 164 69 122 C44 82 30 34 29 -17 L29 -100 L505 -100 L505 -17 L124 -17 C124 2 125 17 127 30 C131 55 147 78 162 98 L162 98 Z " />
<glyph glyph-name="three" unicode="3" horiz-adv-x="530" d="M497 226 C478 257 452 281 418 300 C444 316 464 338 479 365 C493 391 501 420 501 453 C501 510 478 556 432 592 C386 628 330 646 262 646 C203 646 153 630 112 600 C71 569 44 527 31 474 L111 447 C111 447 113 453 118 465 C132 499 151 524 174 539 C198 555 227 562 262 562 C303 562 338 552 365 531 C393 511 407 484 407 453 C407 417 396 389 373 367 C350 346 318 335 277 335 L246 335 L216 335 L196 335 L196 315 L196 259 L246 259 L278 259 C326 259 363 247 390 222 C418 197 431 163 431 119 C431 76 416 41 386 15 C355 -12 316 -25 268 -25 C234 -25 204 -17 179 2 C153 20 132 46 117 78 C113 88 111 92 111 92 L28 64 C40 13 68 -28 110 -61 C152 -93 204 -109 268 -109 C343 -109 405 -88 453 -46 C501 -4 525 51 525 119 C525 159 515 195 497 226 L497 226 Z " />
<glyph glyph-name="four" unicode="4" horiz-adv-x="523" d="M432 136 L432 631 L338 631 L22 136 L22 53 L338 53 L338 -100 L432 -100 L432 53 L519 53 L519 136 L432 136 L432 136 Z M338 136 L118 136 L338 477 L338 136 L338 136 Z " />
<glyph glyph-name="five" unicode="5" horiz-adv-x="563" d="M284 360 C236 360 192 349 151 328 L167 546 L489 546 L489 630 L81 630 L50 217 L143 217 C158 236 178 250 204 261 C229 271 256 277 284 277 C328 277 364 262 394 233 C423 204 438 168 438 124 C438 81 423 45 393 15 C364 -15 327 -29 284 -29 C246 -29 213 -21 187 -3 C161 15 144 38 134 68 C132 75 126 92 126 92 L38 61 C49 8 77 -34 122 -66 C167 -97 221 -113 284 -113 C354 -113 413 -90 460 -45 C507 0 530 57 530 124 C530 192 507 248 460 293 C413 337 354 360 284 360 L284 360 Z " />
<glyph glyph-name="six" unicode="6" horiz-adv-x="580" d="M317 645 C229 645 161 615 116 554 C70 493 48 395 48 262 C48 218 50 178 55 142 C60 106 68 72 81 40 C93 8 108 -18 127 -39 C146 -61 170 -78 200 -90 C229 -102 263 -109 301 -109 C374 -109 435 -86 484 -41 C533 4 558 62 558 134 C558 201 536 256 492 298 C448 341 391 362 321 362 C284 362 249 356 217 344 C184 333 160 315 144 291 C144 341 149 383 157 419 C166 454 178 482 193 503 C208 524 226 539 246 548 C266 557 289 562 316 562 C347 562 378 553 406 534 C435 516 455 492 467 460 C469 455 474 441 474 441 L561 468 C543 525 513 569 470 600 C427 630 377 645 317 645 L317 645 Z M316 278 C360 278 396 264 424 237 C451 209 464 173 464 128 C464 82 449 45 419 17 C388 -11 351 -25 308 -25 C260 -25 221 -10 191 19 C162 49 147 88 147 137 C147 185 162 221 193 243 C223 266 264 278 316 278 L316 278 Z " />
<glyph glyph-name="seven" unicode="7" horiz-adv-x="486" d="M14 631 L14 547 L405 547 C403 483 377 426 346 375 C306 310 263 252 221 195 C174 127 136 68 110 2 C97 -33 88 -67 85 -100 L198 -100 C200 -68 207 -36 219 -3 C247 66 283 121 320 175 C362 234 401 292 436 352 C470 415 491 480 491 547 L491 631 L14 631 L14 631 Z " />
<glyph glyph-name="eight" unicode="8" horiz-adv-x="519" d="M401 298 C428 313 448 334 463 360 C477 385 484 414 484 447 C484 507 464 555 424 591 C384 628 330 646 262 646 C193 646 138 628 96 591 C55 555 35 507 35 447 C35 414 42 385 57 360 C71 334 93 313 120 298 C85 281 58 257 38 226 C19 195 10 160 10 119 C10 50 33 -5 79 -47 C124 -88 186 -109 262 -109 C336 -109 396 -88 441 -47 C486 -5 509 50 509 119 C509 160 499 195 481 226 C462 257 435 281 401 298 L401 298 Z M262 -25 C213 -25 174 -12 146 14 C117 41 103 75 103 119 C103 163 117 198 146 223 C174 249 213 262 262 262 C310 262 347 249 375 223 C402 198 416 163 416 119 C416 75 402 41 374 14 C347 -12 309 -25 262 -25 L262 -25 Z M262 562 C303 562 335 552 357 531 C380 510 391 482 391 447 C391 411 380 383 357 363 C335 342 303 332 262 332 C219 332 186 342 163 363 C139 383 127 411 127 447 C127 482 139 510 163 531 C186 552 219 562 262 562 L262 562 Z " />
<glyph glyph-name="nine" unicode="9" horiz-adv-x="582" d="M263 -109 C352 -109 419 -78 465 -18 C510 43 533 141 533 274 C533 319 530 358 525 395 C521 431 512 464 500 496 C488 528 472 554 453 576 C434 597 410 614 381 626 C351 638 317 645 279 645 C206 645 146 622 97 577 C47 532 23 474 23 402 C23 335 45 280 88 238 C133 195 189 174 259 174 C296 174 331 180 364 192 C396 204 420 221 437 245 C436 195 432 153 423 117 C415 82 403 54 387 33 C372 12 355 -2 334 -12 C315 -21 291 -26 265 -26 C233 -26 203 -16 174 2 C146 20 125 45 113 76 C111 82 107 96 107 96 L20 68 C38 11 68 -33 110 -64 C153 -94 204 -109 263 -109 L263 -109 Z M265 258 C220 258 184 272 157 300 C130 327 116 363 116 408 C116 454 131 491 162 519 C193 547 229 561 272 561 C321 561 360 546 390 517 C419 487 434 448 434 399 C434 351 418 316 388 293 C357 270 316 258 265 258 L265 258 Z " />
<glyph glyph-name="colon" unicode="&#x3a;" horiz-adv-x="175" d="M127 408 C137 418 142 432 142 448 C142 464 137 477 127 488 C116 498 103 504 87 504 C71 504 57 498 47 488 C36 477 31 464 31 448 C31 432 36 418 47 408 C57 397 71 392 87 392 C103 392 116 397 127 408 L127 408 Z M127 -52 C137 -41 142 -28 142 -12 C142 4 137 18 127 29 C116 39 103 44 87 44 C71 44 57 39 47 29 C36 18 31 4 31 -12 C31 -28 36 -41 47 -52 C57 -62 71 -67 87 -67 C103 -67 116 -62 127 -52 L127 -52 Z " />
<glyph glyph-name="semicolon" unicode="&#x3b;" horiz-adv-x="172" d="M121 408 C132 418 137 432 137 448 C137 464 132 477 121 488 C111 498 98 503 82 503 C65 503 52 498 41 488 C31 477 25 464 25 448 C25 432 31 418 41 408 C52 397 65 392 82 392 C98 392 111 397 121 408 L121 408 Z M43 -136 C64 -136 79 -133 91 -125 C102 -118 110 -105 117 -87 C130 -46 137 -21 137 -11 C137 5 132 19 121 30 C111 40 98 45 82 45 C65 45 52 40 41 30 C31 19 25 5 25 -11 C25 -28 31 -42 43 -52 C50 -58 52 -67 49 -79 L35 -125 C33 -128 34 -131 36 -133 C37 -135 40 -136 43 -136 L43 -136 Z " />
<glyph glyph-name="less" unicode="&#x3c;" horiz-adv-x="588" d="M534 455 L534 544 L47 329 L47 271 L534 53 L534 143 C534 143 518 150 512 153 L182 299 L512 445 C518 448 534 455 534 455 L534 455 Z " />
<glyph glyph-name="equal" unicode="&#x3d;" horiz-adv-x="635" d="M80 326 L567 326 L567 407 L80 407 L80 326 Z M80 163 L80 245 L567 245 L567 163 L80 163 L80 163 Z " />
<glyph glyph-name="greater" unicode="&#x3e;" horiz-adv-x="590" d="M68 544 L68 455 C68 455 84 448 90 445 L419 299 L90 153 C84 150 68 143 68 143 L68 53 L555 271 L555 329 L68 544 L68 544 Z " />
<glyph glyph-name="question" unicode="&#x3f;" horiz-adv-x="473" d="M395 587 C353 623 299 640 230 640 C200 640 173 635 147 625 C122 615 102 602 86 587 C70 572 57 555 45 537 C34 519 26 502 21 487 C16 472 13 459 12 447 L94 431 C94 431 95 438 98 450 C101 459 103 468 107 477 C111 486 116 495 123 506 C131 516 139 526 148 533 C157 541 169 548 184 553 C198 558 213 561 230 561 C271 561 303 551 328 530 C353 509 365 482 365 447 C365 432 362 417 355 403 C349 389 340 375 330 363 C319 351 308 339 295 327 C282 314 270 302 257 289 C245 276 234 263 223 249 C213 235 204 219 198 202 C191 184 188 165 188 145 L188 126 L188 73 L239 73 L255 73 L265 126 L265 126 L268 144 C272 162 278 179 287 195 C296 210 306 224 317 235 C328 247 340 258 353 269 C366 281 378 292 390 304 C402 315 414 328 423 341 C433 354 442 369 447 388 C453 406 456 426 456 447 C456 506 436 552 395 587 L395 587 Z M185 -16 L263 -16 L263 -97 L185 -97 L185 -16 L185 -16 Z " />
<glyph glyph-name="at" unicode="&#x40;" horiz-adv-x="970" d="M906 344 C882 401 850 449 809 490 C768 530 720 563 664 587 C607 611 548 623 486 623 C424 623 365 611 308 587 C252 563 203 530 163 490 C122 449 90 401 65 344 C41 288 29 229 29 167 C29 105 41 46 65 -11 C90 -67 122 -116 163 -156 C203 -197 252 -230 308 -254 C365 -278 424 -290 486 -290 C598 -290 697 -253 783 -180 L730 -119 C730 -119 724 -124 714 -132 C648 -183 572 -208 486 -208 C435 -208 386 -199 341 -179 C295 -159 256 -132 223 -99 C191 -66 165 -26 146 21 C126 67 117 116 117 167 C117 235 133 298 165 355 C197 413 242 458 299 491 C355 525 418 541 486 541 C554 541 616 525 673 491 C698 477 717 464 737 445 L750 432 C775 404 789 387 806 355 C839 298 855 235 855 167 C855 118 848 80 830 54 C801 10 742 4 742 37 L742 426 C742 426 655 426 655 426 L655 373 C653 376 652 378 650 379 C604 427 547 450 481 450 C401 450 339 425 295 374 C251 323 229 253 229 164 C229 77 252 9 298 -42 C343 -92 406 -117 486 -117 C520 -117 552 -109 582 -93 C609 -78 633 -59 653 -34 C655 -32 657 -29 659 -27 C659 -27 786 -123 898 7 C914 26 924 51 931 77 C938 103 942 133 942 167 C942 229 930 288 906 344 L906 344 Z M655 167 C655 99 641 48 611 14 C609 11 607 9 605 7 C585 -14 560 -27 530 -34 C516 -37 501 -38 486 -38 C432 -38 391 -20 361 17 C331 53 317 103 317 167 C317 231 331 281 359 317 C387 354 428 371 481 371 C535 371 577 355 608 320 C640 287 655 238 655 174 L655 167 L655 167 Z " />
<glyph glyph-name="A" unicode="A" horiz-adv-x="662" d="M548 -100 L648 -100 L381 630 L282 630 L12 -100 L109 -100 L187 113 L470 113 L548 -100 Z M218 195 L330 500 C330 499 335 481 439 195 L218 195 Z " />
<glyph glyph-name="B" unicode="B" horiz-adv-x="632" d="M502 278 C558 310 586 362 586 436 C586 497 566 545 527 578 C487 612 431 629 359 629 L50 629 L50 -100 L369 -100 C444 -100 502 -83 544 -48 C586 -12 606 37 606 102 C606 187 571 246 502 278 L502 278 Z M142 546 L359 546 C401 546 433 536 456 516 C479 496 491 468 491 431 C491 393 479 365 456 344 C433 323 401 313 359 313 L142 313 L142 546 Z M369 -17 L142 -17 L142 235 L369 235 C414 235 449 224 474 202 C498 179 511 148 511 107 C511 67 498 36 474 15 C449 -6 414 -17 369 -17 L369 -17 Z " />
<glyph glyph-name="C" unicode="C" horiz-adv-x="763" d="M385 -109 C470 -109 541 -86 597 -39 C654 7 691 70 710 150 L619 172 C602 111 580 60 534 23 C473 -27 380 -37 301 -13 C184 24 140 147 140 264 C140 335 154 411 199 473 C241 530 313 558 385 558 C497 558 588 485 615 376 L705 400 C684 475 646 534 591 577 C536 620 467 641 385 641 C260 641 142 581 85 460 C59 404 46 339 46 264 C46 142 89 11 201 -60 C253 -92 314 -109 385 -109 L385 -109 Z " />
<glyph glyph-name="D" unicode="D" horiz-adv-x="689" d="M316 630 L50 630 L50 -100 L316 -100 C422 -100 504 -68 564 -3 C623 62 653 151 653 265 C653 377 624 466 564 532 C506 597 422 630 316 630 L316 630 Z M316 -17 L143 -17 L143 547 L316 547 C397 547 458 522 499 472 C540 422 560 353 560 265 C560 178 540 109 499 58 C458 8 397 -17 316 -17 L316 -17 Z " />
<glyph glyph-name="E" unicode="E" horiz-adv-x="548" d="M506 546 L506 629 L50 629 L50 -100 L506 -100 L506 -17 L143 -17 L143 233 L498 233 L498 315 L143 315 L143 546 L506 546 L506 546 Z " />
<glyph glyph-name="F" unicode="F" horiz-adv-x="544" d="M516 546 L516 629 L60 629 L60 -100 L153 -100 L153 233 L508 233 L508 315 L153 315 L153 546 L516 546 L516 546 Z " />
<glyph glyph-name="G" unicode="G" horiz-adv-x="770" d="M457 282 L382 282 L382 199 L457 199 L621 199 C612 129 587 75 547 35 C508 -5 453 -25 384 -25 C208 -25 138 117 138 269 C138 345 155 422 198 478 C243 538 316 563 384 563 C500 563 583 485 614 381 L704 405 C683 480 645 539 590 582 C534 625 466 646 384 646 C253 646 137 581 84 465 C29 345 31 189 84 74 C137 -47 260 -109 384 -109 C492 -109 576 -74 634 -6 C692 63 722 159 722 282 L457 282 L457 282 Z " />
<glyph glyph-name="H" unicode="H" horiz-adv-x="622" d="M492 630 L492 316 L129 316 L129 630 L36 630 L36 -100 L129 -100 L129 234 L492 234 L492 -100 L586 -100 L586 630 L492 630 L492 630 Z " />
<glyph glyph-name="I" unicode="I" horiz-adv-x="148" d="M27 -100 L120 -100 L120 629 L27 629 L27 -100 L27 -100 Z " />
<glyph glyph-name="J" unicode="J" horiz-adv-x="527" d="M252 -109 C324 -109 380 -88 419 -46 C458 -4 478 55 478 132 L478 630 L385 630 L385 132 C385 82 373 43 350 16 C328 -12 295 -25 252 -25 C220 -25 193 -15 170 5 C148 24 131 53 121 90 C117 103 115 111 115 111 L26 87 C41 23 68 -25 107 -58 C146 -92 194 -109 252 -109 L252 -109 Z " />
<glyph glyph-name="K" unicode="K" horiz-adv-x="595" d="M300 330 L588 629 L469 629 L143 294 L143 629 L50 629 L50 -100 L143 -100 L143 167 L240 268 L511 -100 L610 -100 L300 330 L300 330 Z " />
<glyph glyph-name="L" unicode="L" horiz-adv-x="533" d="M143 -17 L143 629 L50 629 L50 -100 L506 -100 L506 -17 L143 -17 L143 -17 Z " />
<glyph glyph-name="M" unicode="M" horiz-adv-x="819" d="M651 630 L410 21 L171 630 L50 630 L50 -100 L143 -100 L143 446 L359 -100 L458 -100 L676 449 L676 -100 L769 -100 L769 630 L651 630 Z " />
<glyph glyph-name="N" unicode="N" horiz-adv-x="680" d="M537 630 L537 43 L154 630 L50 630 L50 -100 L143 -100 L143 487 L527 -100 L630 -100 L630 630 L537 630 L537 630 Z " />
<glyph glyph-name="O" unicode="O" horiz-adv-x="774" d="M386 -109 C456 -109 517 -93 568 -61 C619 -30 658 14 685 71 C711 127 724 188 724 264 C724 338 711 403 685 460 C660 516 621 561 570 593 C518 625 457 641 386 641 C316 641 255 625 203 593 C152 561 113 517 87 460 C61 404 48 339 48 264 C48 190 61 130 86 74 C112 17 151 -27 202 -60 C254 -92 316 -109 386 -109 L386 -109 Z M386 -25 C356 -25 328 -21 303 -13 C261 0 224 24 196 63 C157 122 141 189 141 264 C141 306 146 345 156 381 C174 444 213 507 278 535 C310 550 346 558 386 558 C427 558 463 551 494 536 C555 509 597 451 616 382 C626 347 631 307 631 264 C631 221 626 187 616 151 C598 86 560 27 495 -3 C464 -18 428 -25 386 -25 L386 -25 Z " />
<glyph glyph-name="P" unicode="P" horiz-adv-x="576" d="M319 630 L50 630 L50 -100 L143 -100 L143 213 L319 213 C395 213 455 231 496 267 C538 304 559 355 559 422 C559 488 538 539 496 575 C454 612 395 630 319 630 L319 630 Z M319 296 L143 296 L143 547 L319 547 C366 547 402 536 428 514 C453 493 466 462 466 422 C466 382 453 351 428 329 C402 307 366 296 319 296 L319 296 Z " />
<glyph glyph-name="Q" unicode="Q" horiz-adv-x="774" d="M690 80 C714 135 726 194 726 265 C726 339 713 405 687 461 C661 517 623 561 571 594 C520 626 459 642 388 642 C317 642 256 626 205 594 C90 523 49 389 49 265 C49 191 62 130 88 74 C114 18 152 -27 204 -60 C256 -92 317 -109 388 -109 C431 -109 472 -102 511 -90 L582 -197 L686 -197 L587 -50 C632 -18 666 25 690 80 L690 80 Z M538 22 L515 57 L413 57 L462 -16 C440 -22 415 -25 388 -25 C313 -25 239 3 198 63 C156 121 142 197 142 265 C142 372 181 491 279 536 C311 551 347 558 388 558 C428 558 464 551 496 537 C601 489 632 366 632 265 C632 173 608 80 538 22 L538 22 Z " />
<glyph glyph-name="R" unicode="R" horiz-adv-x="664" d="M395 233 C464 237 517 256 554 290 C591 324 610 371 610 431 C610 494 589 543 547 577 C506 612 446 629 370 629 L50 629 L50 -100 L143 -100 L143 232 L289 232 L532 -100 L636 -100 L395 233 Z M143 546 L370 546 C416 546 452 535 478 516 C504 495 516 467 516 431 C516 394 504 365 478 345 C452 325 416 315 370 315 L143 315 L143 546 Z " />
<glyph glyph-name="S" unicode="S" horiz-adv-x="584" d="M293 -109 C350 -109 400 -101 441 -86 C483 -71 516 -46 540 -13 C564 21 576 62 576 113 C576 169 556 212 517 247 C477 282 415 308 332 326 L242 345 C204 353 175 367 154 385 C134 404 123 425 123 448 C123 522 178 559 288 559 C341 559 415 528 483 479 L544 543 C475 609 390 642 288 642 C166 642 32 596 32 448 C32 349 101 286 240 258 L321 242 C374 232 414 214 441 190 C469 165 482 140 482 111 C482 74 465 42 431 15 C397 -12 351 -25 293 -25 C268 -25 244 -23 223 -19 C202 -15 183 -9 166 -2 C149 6 136 13 125 20 C115 26 103 34 91 43 C81 51 76 55 76 55 L16 -8 C52 -43 91 -68 135 -84 C178 -101 231 -109 293 -109 L293 -109 Z " />
<glyph glyph-name="T" unicode="T" horiz-adv-x="584" d="M550 629 L30 629 L30 546 L243 546 L243 -100 L336 -100 L336 546 L550 546 L550 629 L550 629 Z " />
<glyph glyph-name="U" unicode="U" horiz-adv-x="615" d="M395 -100 C421 -95 446 -85 470 -71 C494 -57 514 -38 530 -16 C546 7 559 36 569 72 C579 108 583 150 583 197 L583 630 L490 630 L490 197 C490 125 476 70 448 32 C420 -6 373 -25 308 -25 C242 -25 195 -6 167 32 C139 70 125 125 125 197 L124 630 L31 630 L31 197 C31 150 36 108 45 72 C55 36 68 7 84 -16 C100 -38 121 -57 145 -71 C169 -85 194 -95 220 -100 C247 -106 276 -109 308 -109 C339 -109 369 -106 395 -100 L395 -100 Z " />
<glyph glyph-name="V" unicode="V" horiz-adv-x="643" d="M533 629 L323 37 L115 629 L13 629 L271 -100 L371 -100 L631 629 L533 629 L533 629 Z " />
<glyph glyph-name="W" unicode="W" horiz-adv-x="997" d="M891 629 L720 51 L553 629 L455 629 L285 56 L116 629 L17 629 L233 -100 L330 -100 L499 475 L667 -100 L763 -100 L981 629 L891 629 L891 629 Z " />
<glyph glyph-name="X" unicode="X" horiz-adv-x="698" d="M695 -100 L406 290 L659 630 L547 630 L352 365 L154 630 L39 630 L293 286 L6 -100 L118 -100 L349 212 L579 -100 L695 -100 L695 -100 Z " />
<glyph glyph-name="Y" unicode="Y" horiz-adv-x="631" d="M613 629 L504 629 L315 340 L129 629 L15 629 L268 250 L268 -100 L361 -100 L361 250 L613 629 L613 629 Z " />
<glyph glyph-name="Z" unicode="Z" horiz-adv-x="585" d="M558 629 L24 629 L24 546 L444 546 L24 -16 L24 -100 L558 -100 L558 -16 L139 -16 L558 546 L558 629 L558 629 Z " />
<glyph glyph-name="bracketleft" unicode="&#x5b;" horiz-adv-x="274" d="M185 721 L50 721 L50 -233 L190 -233 L232 -233 L232 -172 L232 -151 L212 -151 L190 -151 L136 -151 L136 640 L185 640 L212 640 L232 640 L232 660 L232 721 L185 721 L185 721 Z " />
<glyph glyph-name="backslash" unicode="&#x5c;" horiz-adv-x="585" d="M457 -230 L537 -230 L113 724 L32 724 L457 -230 L457 -230 Z " />
<glyph glyph-name="bracketright" unicode="&#x5d;" horiz-adv-x="274" d="M43 722 L43 641 L138 641 L138 -150 L43 -150 L43 -232 L225 -232 L225 722 L43 722 Z " />
<glyph glyph-name="asciicircum" unicode="&#x5e;" horiz-adv-x="413" d="M250 698 L169 698 L24 449 L106 449 C106 449 108 453 113 462 L210 628 L305 462 C310 453 312 449 312 449 L394 449 L250 698 L250 698 Z " />
<glyph glyph-name="underscore" unicode="&#x5f;" horiz-adv-x="540" d="M44 -100 L491 -100 L491 -29 L44 -29 L44 -100 L44 -100 Z " />
<glyph glyph-name="grave" unicode="&#x60;" horiz-adv-x="249" d="M146 629 L39 629 L154 508 C202 508 202 508 238 508 L146 629 Z " />
<glyph glyph-name="a" unicode="a" horiz-adv-x="593" d="M456 448 L456 381 C409 432 351 458 281 458 C202 458 140 432 96 381 C52 330 30 260 30 171 C30 85 53 17 98 -33 C144 -84 207 -109 286 -109 C321 -109 353 -101 383 -84 C412 -68 438 -46 460 -18 L460 -99 L543 -99 L543 448 L456 448 L456 448 Z M456 174 C456 107 441 57 412 22 C383 -12 341 -30 286 -30 C233 -30 192 -11 162 25 C132 62 117 111 117 174 C117 238 131 288 159 325 C188 361 228 379 281 379 C335 379 378 362 409 328 C440 294 456 245 456 181 L456 174 L456 174 Z " />
<glyph glyph-name="b" unicode="b" horiz-adv-x="593" d="M497 381 C452 432 391 458 311 458 C241 458 180 423 136 374 L136 629 L50 629 L50 -100 L132 -100 L132 -18 C154 -46 180 -68 209 -84 C239 -101 271 -109 306 -109 C385 -109 448 -84 494 -33 C540 17 563 85 563 171 C563 260 541 330 497 381 L497 381 Z M430 25 C401 -11 359 -30 306 -30 C251 -30 209 -12 180 22 C151 57 136 107 136 174 L136 175 C136 241 152 292 183 327 C213 362 256 379 311 379 C364 379 405 361 433 325 C461 288 475 238 475 174 C475 111 460 62 430 25 L430 25 Z " />
<glyph glyph-name="c" unicode="c" horiz-adv-x="593" d="M295 -109 C358 -109 411 -92 454 -59 C497 -25 527 23 542 87 C471 105 458 108 458 108 C430 23 387 -28 295 -28 C189 -28 126 62 126 167 C126 231 141 282 170 320 C199 358 241 377 295 377 C370 377 421 341 449 270 C453 258 455 251 455 251 L539 276 C521 335 492 379 451 411 C410 442 358 458 295 458 C215 458 152 432 107 380 C61 328 39 257 39 167 C39 113 48 70 67 29 C86 -13 116 -46 155 -71 C194 -96 241 -109 295 -109 L295 -109 Z " />
<glyph glyph-name="d" unicode="d" horiz-adv-x="593" d="M456 629 L456 381 C409 432 351 458 281 458 C202 458 140 432 96 381 C52 330 30 260 30 171 C30 85 53 17 98 -33 C144 -84 207 -109 286 -109 C321 -109 353 -101 383 -84 C412 -68 438 -46 460 -18 L460 -100 L543 -100 L543 629 L456 629 L456 629 Z M456 174 C456 107 441 57 412 22 C383 -12 341 -30 286 -30 C233 -30 191 -11 162 25 C132 62 117 111 117 174 C117 238 131 288 160 325 C188 361 228 379 281 379 C335 379 378 362 409 328 C440 294 456 245 456 181 L456 174 L456 174 Z " />
<glyph glyph-name="e" unicode="e" horiz-adv-x="586" d="M294 458 C121 458 26 328 26 170 C26 3 134 -109 294 -109 C413 -109 507 -41 544 66 L460 88 C428 16 372 -27 294 -28 C187 -29 123 48 114 143 L560 143 L560 170 C555 336 463 458 294 458 L294 458 Z M119 224 C137 316 202 377 294 377 C388 377 453 310 468 224 L119 224 L119 224 Z " />
<glyph glyph-name="f" unicode="f" horiz-adv-x="377" d="M232 629 C189 629 155 616 129 592 C103 567 90 534 90 493 L90 446 L3 446 L3 365 L90 365 L90 -100 L178 -100 L178 365 L320 365 L320 446 L178 446 L178 493 C178 509 183 522 192 532 C202 542 215 547 232 547 L360 547 L360 629 L232 629 Z " />
<glyph glyph-name="g" unicode="g" horiz-adv-x="591" d="M453 448 L453 382 C407 433 349 458 279 458 C106 458 28 324 28 171 C28 9 123 -109 284 -109 C319 -109 351 -101 380 -84 C408 -69 433 -49 453 -24 L453 -115 C453 -141 446 -162 431 -177 C417 -193 397 -200 373 -200 L123 -200 L123 -281 L373 -281 C424 -281 465 -266 495 -236 C526 -205 541 -165 541 -115 L541 448 L453 448 L453 448 Z M453 157 C451 98 436 54 410 22 C380 -12 339 -29 284 -29 C167 -29 115 73 115 174 C115 284 162 379 279 379 C392 379 448 300 453 199 L453 157 L453 157 Z " />
<glyph glyph-name="h" unicode="h" horiz-adv-x="556" d="M303 458 C234 458 179 429 137 372 L137 629 L50 629 L50 -100 L137 -100 L137 222 C137 271 152 310 180 337 C210 364 249 379 302 379 C350 379 384 365 401 340 C418 316 426 276 426 222 L426 -100 L513 -100 L513 222 C513 300 497 359 463 398 C429 438 376 458 303 458 L303 458 Z " />
<glyph glyph-name="i" unicode="i" horiz-adv-x="186" d="M50 -100 L136 -100 L136 448 L50 448 L50 -100 Z M53 627 L53 546 L132 546 L132 627 L53 627 Z " />
<glyph glyph-name="j" unicode="j" horiz-adv-x="188" d="M50 -117 C50 -143 43 -164 28 -179 C14 -195 -6 -202 -30 -202 L-108 -202 L-108 -283 L-30 -283 C21 -283 61 -268 92 -238 C123 -207 138 -167 138 -117 L138 448 L50 448 L50 -117 L50 -117 Z M55 626 L55 545 L134 545 L134 626 L55 626 Z " />
<glyph glyph-name="k" unicode="k" horiz-adv-x="529" d="M274 236 L482 448 L365 448 L138 214 L138 629 L50 629 L50 -100 L138 -100 L138 97 L216 176 C406 -96 409 -100 409 -100 L515 -100 L274 236 L274 236 Z " />
<glyph glyph-name="l" unicode="l" horiz-adv-x="274" d="M182 -19 C168 -19 157 -14 148 -6 C140 2 137 12 137 26 L137 629 L50 629 L50 26 C50 -12 62 -42 85 -65 C109 -88 141 -100 182 -100 L260 -100 L260 -39 L260 -19 L182 -19 Z " />
<glyph glyph-name="m" unicode="m" horiz-adv-x="852" d="M755 399 C719 440 669 460 604 460 C569 460 538 452 510 435 C482 419 459 395 442 366 C408 428 349 459 267 459 C210 459 165 433 132 382 L132 448 L50 448 L50 -100 L136 -100 L136 225 C136 278 145 316 165 342 C184 367 218 379 267 379 C303 379 332 366 353 341 C375 316 385 278 385 229 L385 -100 L473 -100 L473 229 C473 282 482 320 501 343 C520 367 554 379 604 379 C644 379 673 367 692 343 C712 319 722 281 722 229 L722 -100 L809 -100 L809 229 C809 301 791 358 755 399 L755 399 Z " />
<glyph glyph-name="n" unicode="n" horiz-adv-x="547" d="M452 399 C419 438 365 458 292 458 C223 458 170 429 132 371 L132 448 L50 448 L50 -100 L136 -100 L136 224 C136 275 150 313 175 339 C201 366 240 379 292 379 C340 379 373 367 390 342 C407 318 416 278 416 224 L416 -100 L503 -100 L503 224 C503 301 486 360 452 399 L452 399 Z " />
<glyph glyph-name="o" unicode="o" horiz-adv-x="571" d="M287 -109 C366 -109 429 -83 474 -32 C520 19 543 84 543 172 C543 259 520 329 474 381 C429 432 366 458 287 458 C207 458 144 432 99 381 C53 329 30 260 30 172 C30 84 53 19 99 -32 C144 -83 207 -109 287 -109 L287 -109 Z M287 -28 C233 -28 192 -9 162 27 C132 64 117 109 117 172 C117 235 132 285 162 322 C192 359 233 377 287 377 C340 377 382 359 411 322 C441 285 456 235 456 172 C456 109 441 64 411 27 C382 -9 340 -28 287 -28 L287 -28 Z " />
<glyph glyph-name="p" unicode="p" horiz-adv-x="595" d="M497 383 C453 433 391 458 312 458 C276 458 243 450 212 434 C182 417 155 395 133 367 L133 448 L50 448 L50 406 L50 -281 L137 -281 L137 -38 C181 -86 238 -109 307 -109 C386 -109 449 -84 495 -33 C540 18 563 88 563 177 C563 264 541 333 497 383 L497 383 Z M431 25 C401 -12 360 -30 307 -30 C252 -30 210 -13 181 20 C152 53 137 103 137 170 L137 182 C138 247 154 296 185 329 C216 363 258 379 312 379 C364 379 405 361 434 325 C462 289 476 238 476 174 C476 111 461 61 431 25 L431 25 Z " />
<glyph glyph-name="q" unicode="q" horiz-adv-x="595" d="M482 448 L462 448 L462 428 L462 401 L462 369 C440 397 414 419 384 434 C353 450 320 458 283 458 C204 458 142 433 98 383 C53 333 31 264 31 177 C31 88 54 18 100 -33 C146 -84 208 -109 288 -109 C358 -109 414 -85 458 -36 L458 -282 L545 -282 L545 401 L545 448 L482 448 L482 448 Z M458 174 C458 107 443 56 414 22 C385 -13 343 -30 288 -30 C235 -30 193 -12 164 25 C134 61 119 111 119 174 C119 238 133 289 161 325 C190 361 230 379 283 379 C338 379 381 362 411 328 C442 293 457 243 458 176 L458 174 L458 174 Z " />
<glyph glyph-name="r" unicode="r" horiz-adv-x="360" d="M308 448 C232 444 173 416 133 361 L133 448 L50 448 L50 -100 L137 -100 L137 183 C137 240 151 285 178 318 C206 351 246 367 297 367 L332 367 L332 448 L308 448 L308 448 Z " />
<glyph glyph-name="s" unicode="s" horiz-adv-x="467" d="M238 -109 C305 -109 357 -94 394 -64 C432 -34 451 7 451 59 C451 99 435 131 403 162 C372 192 328 213 273 224 C263 226 249 229 230 233 C212 237 198 239 188 242 C168 246 153 253 141 266 C130 278 124 291 124 307 C124 329 133 346 152 359 C171 373 197 379 230 379 C277 379 317 364 348 332 C357 324 361 319 361 319 L426 372 C411 394 387 413 353 431 C320 449 281 458 235 458 C174 458 126 444 91 416 C56 388 39 351 39 303 C39 267 52 236 78 210 C104 184 140 167 185 159 L264 145 C295 140 319 129 337 113 C355 96 363 81 363 59 C363 32 353 11 331 -4 C310 -20 278 -27 238 -27 C213 -27 189 -22 165 -11 C140 0 120 12 105 26 C95 35 90 39 90 39 L28 -17 C85 -78 154 -109 238 -109 L238 -109 Z " />
<glyph glyph-name="t" unicode="t" horiz-adv-x="393" d="M370 367 L370 448 L187 448 L187 629 L100 629 L100 448 L13 448 L13 367 L100 367 L100 66 C100 16 115 -25 145 -55 C176 -85 216 -100 267 -100 L370 -100 L370 -19 L267 -19 C243 -19 223 -11 209 4 C194 20 187 40 187 66 L187 367 L370 367 L370 367 Z " />
<glyph glyph-name="u" unicode="u" horiz-adv-x="553" d="M416 448 L416 125 C416 74 403 36 377 9 C351 -17 312 -30 261 -30 C213 -30 180 -18 163 6 C146 31 137 70 137 125 L137 448 L50 448 L50 125 C50 47 67 -11 101 -50 C134 -90 188 -109 261 -109 C329 -109 382 -80 420 -22 L420 -100 L503 -100 L503 448 L416 448 L416 448 Z " />
<glyph glyph-name="v" unicode="v" horiz-adv-x="513" d="M413 448 L255 22 L100 448 L5 448 L209 -100 L299 -100 L506 448 L413 448 L413 448 Z " />
<glyph glyph-name="w" unicode="w" horiz-adv-x="818" d="M719 448 L587 36 L454 448 L366 448 L235 37 L102 448 L12 448 L188 -100 L279 -100 L410 312 L542 -100 L630 -100 L806 448 L719 448 L719 448 Z " />
<glyph glyph-name="x" unicode="x" horiz-adv-x="556" d="M549 -100 L331 194 L519 448 L416 448 L280 264 L143 448 L35 448 L226 191 L11 -100 L113 -100 L276 122 L440 -100 L549 -100 L549 -100 Z " />
<glyph glyph-name="y" unicode="y" horiz-adv-x="521" d="M416 448 L260 22 L102 448 L9 448 L216 -98 L196 -153 C187 -176 170 -201 145 -201 L95 -201 L95 -282 L145 -282 C206 -279 251 -239 273 -186 L512 448 L416 448 L416 448 Z " />
<glyph glyph-name="z" unicode="z" horiz-adv-x="500" d="M476 448 L26 448 L26 367 L362 367 L26 -18 L26 -100 L476 -100 L476 -18 L140 -18 L476 367 L476 448 L476 448 Z " />
<glyph glyph-name="braceleft" unicode="&#x7b;" horiz-adv-x="289" d="M201 721 C165 721 135 709 112 686 C88 663 77 633 77 597 L77 350 C75 314 59 284 35 262 C27 256 21 249 13 245 C24 238 29 234 36 227 C61 202 77 172 77 139 L77 -109 C77 -145 88 -175 112 -198 C135 -221 165 -233 201 -233 L260 -233 L260 -152 L215 -152 C199 -152 186 -147 177 -138 C168 -129 164 -117 164 -100 L164 144 C163 178 149 210 125 230 C117 237 111 241 104 245 C115 251 120 255 125 260 C151 286 164 313 164 346 L164 588 C164 604 168 617 177 626 C186 635 199 639 215 639 L260 639 L260 660 L260 721 L201 721 Z " />
<glyph glyph-name="bar" unicode="&#x7c;" horiz-adv-x="148" d="M37 723 L37 -231 L113 -231 L113 723 L37 723 Z " />
<glyph glyph-name="braceright" unicode="&#x7d;" horiz-adv-x="305" d="M80 720 L35 720 L35 659 L35 638 L79 638 C96 638 108 634 117 625 C126 616 131 603 131 587 L131 345 C131 331 133 319 137 307 C141 295 146 285 152 278 C158 271 164 265 169 259 C175 254 180 250 184 247 L191 244 C189 243 187 242 184 241 C181 239 177 235 170 229 C163 223 157 216 152 209 C146 202 141 193 137 180 C133 168 131 156 131 143 L131 -101 C131 -118 126 -130 117 -139 C109 -148 96 -153 79 -153 L72 -153 L56 -153 L35 -153 L35 -173 L35 -234 L72 -234 L94 -234 C130 -234 160 -222 183 -199 C206 -176 218 -146 218 -110 L218 138 C218 151 220 164 224 176 C229 188 234 197 240 205 C246 213 253 220 259 226 C265 233 271 237 275 239 L282 244 C280 245 277 247 275 248 C272 250 267 255 259 261 C252 268 245 275 240 283 C234 290 229 300 225 311 C220 323 218 336 218 349 L218 596 C218 632 206 662 183 685 C160 708 130 720 94 720 L80 720 L80 720 Z " />
<glyph glyph-name="asciitilde" unicode="&#x7e;" horiz-adv-x="572" d="M382 202 C422 202 455 215 481 242 C507 268 525 306 535 355 L462 369 C462 369 457 354 456 348 C448 320 439 301 428 292 C416 282 401 278 382 278 C371 278 360 282 350 290 C339 298 329 308 319 320 C309 331 299 343 287 355 C276 367 263 377 247 385 C230 393 213 397 194 397 C153 397 120 384 94 356 C68 328 51 290 43 242 L119 230 C119 230 122 244 124 250 C132 279 141 298 152 307 C162 317 176 321 194 321 C205 321 216 317 227 309 C239 300 250 291 260 279 C270 267 281 256 292 244 C303 233 317 222 333 214 C348 206 365 202 382 202 L382 202 Z " />
<glyph glyph-name="cent" unicode="&#xa2;" horiz-adv-x="593" d="M474 195 C474 195 469 181 468 175 C445 108 403 70 340 62 L340 468 C399 459 441 424 464 362 C469 351 472 343 472 343 L554 368 C521 480 449 540 340 550 L340 644 L329 644 L319 644 L254 644 L254 546 C191 534 143 503 108 454 C72 404 54 339 54 260 C54 188 72 126 107 76 C142 27 191 -4 254 -16 L254 -106 L268 -106 L277 -106 L340 -106 L340 -20 C395 -15 442 4 479 37 C517 70 543 116 557 175 L474 195 L474 195 Z M187 115 C157 152 142 200 142 260 C142 324 156 375 185 413 C203 436 226 452 254 461 L254 69 C227 77 205 93 187 115 L187 115 Z " />
<glyph glyph-name="sterling" unicode="&#xa3;" horiz-adv-x="567" d="M152 -17 C199 56 222 123 222 184 C222 191 222 197 221 201 L451 201 L451 284 L203 284 C198 298 191 316 181 336 C164 370 149 399 149 429 C149 468 162 498 189 519 C252 570 368 559 423 506 C434 494 440 489 440 489 L503 552 C486 577 464 593 440 608 C397 635 343 642 296 642 C261 642 230 638 202 629 C109 603 55 517 55 427 C55 380 74 345 91 305 C97 294 100 287 102 284 L55 284 L55 201 L130 201 C131 197 131 190 131 181 C131 128 106 62 55 -17 L55 -100 L531 -100 L531 -17 L152 -17 L152 -17 Z " />
<glyph glyph-name="yen" unicode="&#xa5;" horiz-adv-x="611" d="M305 287 L293 307 L317 307 L305 287 L305 287 Z M603 630 L494 630 L337 390 L273 390 L119 630 L5 630 L165 390 L128 390 L108 390 L108 369 L108 306 L221 306 L257 252 L257 224 L108 224 L108 203 L108 140 L108 140 L257 140 L257 -100 L351 -100 L351 140 L483 140 C483 140 483 140 483 140 L503 140 L503 160 L503 224 L503 224 L351 224 L351 252 L387 306 L483 306 L503 306 L503 327 L503 390 L443 390 L603 630 L603 630 Z " />
<glyph glyph-name="dieresis" unicode="&#xa8;" horiz-adv-x="273" d="M14 611 L14 530 L92 530 L92 611 L14 611 Z M181 611 L181 530 L260 530 L260 611 L181 611 Z " />
<glyph glyph-name="acute" unicode="&#xb4;" horiz-adv-x="219" d="M13 508 C49 508 49 508 96 508 L211 629 L104 629 L13 508 Z " />
<glyph glyph-name="cedilla" unicode="&#xb8;" horiz-adv-x="245" d="M198 -152 C184 -140 164 -134 138 -134 L103 -134 L107 -103 L67 -100 L59 -150 C57 -161 60 -171 66 -178 C73 -186 83 -190 95 -190 L137 -190 C143 -190 147 -192 152 -195 C156 -199 158 -202 158 -206 C158 -212 156 -217 153 -221 C149 -225 142 -227 130 -227 L83 -227 L65 -227 L39 -227 L39 -285 L83 -285 L123 -285 C151 -285 174 -278 192 -264 C211 -250 220 -231 220 -204 C220 -182 213 -164 198 -152 L198 -152 Z " />
<glyph glyph-name="Agrave" unicode="&#xc0;" horiz-adv-x="614" d="M523 -100 L445 113 L162 113 L84 -100 L-13 -100 L257 630 L356 630 L623 -100 L523 -100 L523 -100 Z M193 195 L414 195 C310 481 305 499 305 500 L193 195 L193 195 Z M323 829 L216 829 L331 708 C379 708 379 708 415 708 L323 829 Z " />
<glyph glyph-name="Aacute" unicode="&#xc1;" horiz-adv-x="614" d="M523 -100 L623 -100 L356 630 L257 630 L-13 -100 L84 -100 L162 113 L445 113 L523 -100 Z M193 195 L305 500 C305 499 310 481 414 195 L193 195 Z M215 708 C251 708 251 708 298 708 L413 829 L306 829 L215 708 Z " />
<glyph glyph-name="Acircumflex" unicode="&#xc2;" horiz-adv-x="614" d="M523 -100 L445 113 L162 113 L84 -100 L-13 -100 L257 630 L356 630 L623 -100 L523 -100 L523 -100 Z M193 195 L414 195 C310 481 305 499 305 500 L193 195 L193 195 Z M415 779 L415 779 L371 823 C356 839 335 846 307 846 C282 846 260 839 244 823 L197 777 L144 725 L160 725 L201 725 L236 725 L290 779 L307 796 L324 779 L377 725 L413 725 L453 725 L469 725 L415 779 L415 779 Z " />
<glyph glyph-name="Atilde" unicode="&#xc3;" horiz-adv-x="614" d="M523 -100 L623 -100 L356 630 L257 630 L-13 -100 L84 -100 L162 113 L445 113 L523 -100 Z M193 195 L305 500 C305 499 310 481 414 195 L193 195 Z M417 658 C454 658 483 671 506 697 C529 723 545 760 554 809 L489 822 C489 822 485 808 484 802 C476 774 468 755 458 747 C441 730 409 728 389 745 C368 762 353 785 333 809 C312 832 284 850 250 850 C166 850 128 773 115 697 L183 686 C183 686 185 699 187 705 C195 737 209 775 250 775 C272 775 294 753 308 734 C327 711 345 686 374 670 C387 662 403 658 417 658 L417 658 Z " />
<glyph glyph-name="Adieresis" unicode="&#xc4;" horiz-adv-x="614" d="M523 -100 L623 -100 L356 630 L257 630 L-13 -100 L84 -100 L162 113 L445 113 L523 -100 Z M193 195 L305 500 C305 499 310 481 414 195 L193 195 Z M184 811 L184 730 L262 730 L262 811 L184 811 Z M351 811 L351 730 L430 730 L430 811 L351 811 Z " />
<glyph glyph-name="Aring" unicode="&#xc5;" horiz-adv-x="614" d="M523 -100 L623 -100 L356 630 L257 630 L-13 -100 L84 -100 L162 113 L445 113 L523 -100 Z M193 195 L305 500 C305 499 310 481 414 195 L193 195 Z M304 696 C343 696 379 726 379 768 C379 809 347 842 304 842 C264 842 229 811 229 768 C229 727 263 697 304 696 L304 696 Z M304 739 C289 739 276 751 276 768 C276 783 286 798 304 798 C320 798 333 786 333 768 C333 752 321 740 304 739 L304 739 Z " />
<glyph glyph-name="AE" unicode="&#xc6;" horiz-adv-x="768" d="M382 569 L757 569 L757 631 L275 631 L4 -100 L77 -100 L160 124 L312 124 L312 -100 L757 -100 L757 -38 L382 -38 L382 244 L749 244 L749 307 L382 307 L382 569 L382 569 Z M312 185 L182 185 L312 536 L312 536 L312 185 L312 185 Z " />
<glyph glyph-name="Ccedilla" unicode="&#xc7;" horiz-adv-x="833" d="M428 -109 C513 -109 584 -86 640 -39 C697 7 734 70 753 150 L662 172 C645 111 623 60 577 23 C516 -27 423 -37 344 -13 C227 24 183 147 183 264 C183 335 197 411 242 473 C284 530 356 558 428 558 C540 558 631 485 658 376 L748 400 C727 475 689 534 634 577 C579 620 510 641 428 641 C303 641 185 581 128 460 C102 404 89 339 89 264 C89 142 132 11 244 -60 C296 -92 357 -109 428 -109 L428 -109 Z M485 -152 C471 -140 451 -134 425 -134 L390 -134 L394 -103 L354 -100 L346 -150 C344 -161 347 -171 353 -178 C360 -186 370 -190 382 -190 L424 -190 C430 -190 434 -192 439 -195 C443 -199 445 -202 445 -206 C445 -212 443 -217 440 -221 C436 -225 429 -227 417 -227 L370 -227 L352 -227 L326 -227 L326 -285 L370 -285 L410 -285 C438 -285 461 -278 479 -264 C498 -250 507 -231 507 -204 C507 -182 500 -164 485 -152 L485 -152 Z " />
<glyph glyph-name="Egrave" unicode="&#xc8;" horiz-adv-x="539" d="M516 546 L153 546 L153 315 L508 315 L508 233 L153 233 L153 -17 L516 -17 L516 -100 L60 -100 L60 629 L516 629 L516 546 L516 546 Z M285 829 L178 829 L293 708 C341 708 341 708 377 708 L285 829 Z " />
<glyph glyph-name="Eacute" unicode="&#xc9;" horiz-adv-x="539" d="M516 546 L516 629 L60 629 L60 -100 L516 -100 L516 -17 L153 -17 L153 233 L508 233 L508 315 L153 315 L153 546 L516 546 Z M177 708 C213 708 213 708 260 708 L375 829 L268 829 L177 708 Z " />
<glyph glyph-name="Ecircumflex" unicode="&#xca;" horiz-adv-x="539" d="M516 546 L153 546 L153 315 L508 315 L508 233 L153 233 L153 -17 L516 -17 L516 -100 L60 -100 L60 629 L516 629 L516 546 L516 546 Z M378 779 L378 779 L334 823 C319 839 298 846 270 846 C245 846 223 839 207 823 L160 777 L107 725 L123 725 L164 725 L199 725 L253 779 L270 796 L287 779 L340 725 L376 725 L416 725 L432 725 L378 779 L378 779 Z " />
<glyph glyph-name="Edieresis" unicode="&#xcb;" horiz-adv-x="539" d="M516 546 L516 629 L60 629 L60 -100 L516 -100 L516 -17 L153 -17 L153 233 L508 233 L508 315 L153 315 L153 546 L516 546 Z M147 811 L147 730 L225 730 L225 811 L147 811 Z M314 811 L314 730 L393 730 L393 811 L314 811 Z " />
<glyph glyph-name="Igrave" unicode="&#xcc;" horiz-adv-x="160" d="M35 -100 L35 629 L128 629 L128 -100 L35 -100 L35 -100 Z M98 829 L-9 829 L106 708 C154 708 154 708 190 708 L98 829 Z " />
<glyph glyph-name="Iacute" unicode="&#xcd;" horiz-adv-x="150" d="M35 -100 L128 -100 L128 629 L35 629 L35 -100 Z M-10 708 C26 708 26 708 73 708 L188 829 L81 829 L-10 708 Z " />
<glyph glyph-name="Icircumflex" unicode="&#xce;" horiz-adv-x="220" d="M65 -100 L65 629 L158 629 L158 -100 L65 -100 L65 -100 Z M221 779 L221 779 L177 823 C162 839 141 846 113 846 C88 846 66 839 50 823 L3 777 L-50 725 L-34 725 L7 725 L42 725 L96 779 L113 796 L130 779 L183 725 L219 725 L259 725 L275 725 L221 779 L221 779 Z " />
<glyph glyph-name="Idieresis" unicode="&#xcf;" horiz-adv-x="150" d="M25 -100 L118 -100 L118 629 L25 629 L25 -100 Z M-50 811 L-50 730 L28 730 L28 811 L-50 811 Z M117 811 L117 730 L196 730 L196 811 L117 811 Z " />
<glyph glyph-name="Eth" unicode="&#xd0;" horiz-adv-x="755" d="M626 531 C568 597 484 630 378 630 L112 630 L112 337 L44 337 L8 337 L8 255 L112 255 L112 -100 L378 -100 C484 -100 566 -67 626 -2 C685 63 715 151 715 265 C715 377 686 466 626 531 L626 531 Z M561 59 C520 9 459 -16 378 -16 L205 -16 L205 255 L318 255 L353 255 L353 337 L205 337 L205 546 L378 546 C459 546 520 522 561 472 C602 422 622 353 622 265 C622 177 602 110 561 59 L561 59 Z " />
<glyph glyph-name="Ntilde" unicode="&#xd1;" horiz-adv-x="601" d="M507 630 L507 43 L124 630 L20 630 L20 -100 L113 -100 L113 487 L497 -100 L600 -100 L600 630 L507 630 L507 630 Z M411 658 C448 658 477 671 500 697 C523 723 539 760 548 809 L483 822 C483 822 479 808 478 802 C470 774 462 755 452 747 C435 730 403 728 383 745 C362 762 347 785 327 809 C306 832 278 850 244 850 C160 850 122 773 109 697 L177 686 C177 686 179 699 181 705 C189 737 203 775 244 775 C266 775 288 753 302 734 C321 711 339 686 368 670 C381 662 397 658 411 658 L411 658 Z " />
<glyph glyph-name="Ograve" unicode="&#xd2;" horiz-adv-x="774" d="M386 -109 C316 -109 254 -92 202 -60 C151 -27 112 17 86 74 C61 130 48 190 48 264 C48 339 61 404 87 460 C113 517 152 561 203 593 C255 625 316 641 386 641 C457 641 518 625 570 593 C621 561 660 516 685 460 C711 403 724 338 724 264 C724 188 711 127 685 71 C658 14 619 -30 568 -61 C517 -93 456 -109 386 -109 L386 -109 Z M386 -25 C428 -25 464 -18 495 -3 C560 27 598 86 616 151 C626 187 631 221 631 264 C631 307 626 347 616 382 C597 451 555 509 494 536 C463 551 427 558 386 558 C346 558 310 550 278 535 C213 507 174 444 156 381 C146 345 141 306 141 264 C141 189 157 122 196 63 C224 24 261 0 303 -13 C328 -21 356 -25 386 -25 L386 -25 Z M403 829 L296 829 L411 708 C459 708 459 708 495 708 L403 829 Z " />
<glyph glyph-name="Oacute" unicode="&#xd3;" horiz-adv-x="774" d="M386 -109 C456 -109 517 -93 568 -61 C619 -30 658 14 685 71 C711 127 724 188 724 264 C724 338 711 403 685 460 C660 516 621 561 570 593 C518 625 457 641 386 641 C316 641 255 625 203 593 C152 561 113 517 87 460 C61 404 48 339 48 264 C48 190 61 130 86 74 C112 17 151 -27 202 -60 C254 -92 316 -109 386 -109 L386 -109 Z M386 -25 C356 -25 328 -21 303 -13 C261 0 224 24 196 63 C157 122 141 189 141 264 C141 306 146 345 156 381 C174 444 213 507 278 535 C310 550 346 558 386 558 C427 558 463 551 494 536 C555 509 597 451 616 382 C626 347 631 307 631 264 C631 221 626 187 616 151 C598 86 560 27 495 -3 C464 -18 428 -25 386 -25 L386 -25 Z M295 708 C331 708 331 708 378 708 L493 829 L386 829 L295 708 Z " />
<glyph glyph-name="Ocircumflex" unicode="&#xd4;" horiz-adv-x="774" d="M386 -109 C316 -109 254 -92 202 -60 C151 -27 112 17 86 74 C61 130 48 190 48 264 C48 339 61 404 87 460 C113 517 152 561 203 593 C255 625 316 641 386 641 C457 641 518 625 570 593 C621 561 660 516 685 460 C711 403 724 338 724 264 C724 188 711 127 685 71 C658 14 619 -30 568 -61 C517 -93 456 -109 386 -109 L386 -109 Z M386 -25 C428 -25 464 -18 495 -3 C560 27 598 86 616 151 C626 187 631 221 631 264 C631 307 626 347 616 382 C597 451 555 509 494 536 C463 551 427 558 386 558 C346 558 310 550 278 535 C213 507 174 444 156 381 C146 345 141 306 141 264 C141 189 157 122 196 63 C224 24 261 0 303 -13 C328 -21 356 -25 386 -25 L386 -25 Z M495 779 L495 779 L451 823 C436 839 415 846 387 846 C362 846 340 839 324 823 L277 777 L224 725 L240 725 L281 725 L316 725 L370 779 L387 796 L404 779 L457 725 L493 725 L533 725 L549 725 L495 779 L495 779 Z " />
<glyph glyph-name="Otilde" unicode="&#xd5;" horiz-adv-x="774" d="M386 -109 C456 -109 517 -93 568 -61 C619 -30 658 14 685 71 C711 127 724 188 724 264 C724 338 711 403 685 460 C660 516 621 561 570 593 C518 625 457 641 386 641 C316 641 255 625 203 593 C152 561 113 517 87 460 C61 404 48 339 48 264 C48 190 61 130 86 74 C112 17 151 -27 202 -60 C254 -92 316 -109 386 -109 L386 -109 Z M386 -25 C356 -25 328 -21 303 -13 C261 0 224 24 196 63 C157 122 141 189 141 264 C141 306 146 345 156 381 C174 444 213 507 278 535 C310 550 346 558 386 558 C427 558 463 551 494 536 C555 509 597 451 616 382 C626 347 631 307 631 264 C631 221 626 187 616 151 C598 86 560 27 495 -3 C464 -18 428 -25 386 -25 L386 -25 Z M497 658 C534 658 563 671 586 697 C609 723 625 760 634 809 L569 822 C569 822 565 808 564 802 C556 774 548 755 538 747 C521 730 489 728 469 745 C448 762 433 785 413 809 C392 832 364 850 330 850 C246 850 208 773 195 697 L263 686 C263 686 265 699 267 705 C275 737 289 775 330 775 C352 775 374 753 388 734 C407 711 425 686 454 670 C467 662 483 658 497 658 L497 658 Z " />
<glyph glyph-name="Odieresis" unicode="&#xd6;" horiz-adv-x="774" d="M386 -109 C456 -109 517 -93 568 -61 C619 -30 658 14 685 71 C711 127 724 188 724 264 C724 338 711 403 685 460 C660 516 621 561 570 593 C518 625 457 641 386 641 C316 641 255 625 203 593 C152 561 113 517 87 460 C61 404 48 339 48 264 C48 190 61 130 86 74 C112 17 151 -27 202 -60 C254 -92 316 -109 386 -109 L386 -109 Z M386 -25 C356 -25 328 -21 303 -13 C261 0 224 24 196 63 C157 122 141 189 141 264 C141 306 146 345 156 381 C174 444 213 507 278 535 C310 550 346 558 386 558 C427 558 463 551 494 536 C555 509 597 451 616 382 C626 347 631 307 631 264 C631 221 626 187 616 151 C598 86 560 27 495 -3 C464 -18 428 -25 386 -25 L386 -25 Z M264 811 L264 730 L342 730 L342 811 L264 811 Z M431 811 L431 730 L510 730 L510 811 L431 811 Z " />
<glyph glyph-name="multiply" unicode="&#xd7;" horiz-adv-x="233" d="M162 292 L232 358 L216 358 L178 358 L125 358 L119 350 L112 358 L60 358 L22 358 L5 358 L76 292 L34 237 L34 237 L34 237 L70 237 C70 237 70 237 70 237 L103 237 L119 252 L135 237 L168 237 C168 237 168 237 168 237 L204 237 L204 237 L204 237 L162 292 L162 292 Z " />
<glyph glyph-name="Oslash" unicode="&#xd8;" horiz-adv-x="774" d="M625 542 C604 566 581 585 554 600 L595 693 L532 693 L502 624 C464 637 422 643 376 643 C269 643 186 609 127 542 C67 474 37 382 37 267 C37 152 67 61 126 -7 C147 -31 171 -50 197 -66 L161 -147 L223 -147 L248 -90 C286 -103 329 -109 376 -109 C482 -109 565 -76 625 -9 C684 59 714 151 714 267 C714 383 685 474 625 542 L625 542 Z M189 25 C170 46 154 71 141 99 C129 128 120 156 115 183 C111 210 109 238 109 267 C109 363 131 440 177 496 C223 553 289 581 376 581 C413 581 446 576 476 566 L224 -5 C210 4 199 14 189 25 L189 25 Z M576 37 C530 -20 463 -48 376 -48 C338 -48 305 -42 274 -31 L527 541 C545 529 561 514 575 497 C621 441 644 364 644 267 C644 170 621 94 576 37 L576 37 Z " />
<glyph glyph-name="Ugrave" unicode="&#xd9;" horiz-adv-x="615" d="M395 -100 C369 -106 339 -109 308 -109 C276 -109 247 -106 220 -100 C194 -95 169 -85 145 -71 C121 -57 100 -38 84 -16 C68 7 55 36 45 72 C36 108 31 150 31 197 L31 630 L124 630 L125 197 C125 125 139 70 167 32 C195 -6 242 -25 308 -25 C373 -25 420 -6 448 32 C476 70 490 125 490 197 L490 630 L583 630 L583 197 C583 150 579 108 569 72 C559 36 546 7 530 -16 C514 -38 494 -57 470 -71 C446 -85 421 -95 395 -100 L395 -100 Z M323 829 L216 829 L331 708 C379 708 379 708 415 708 L323 829 Z " />
<glyph glyph-name="Uacute" unicode="&#xda;" horiz-adv-x="615" d="M395 -100 C421 -95 446 -85 470 -71 C494 -57 514 -38 530 -16 C546 7 559 36 569 72 C579 108 583 150 583 197 L583 630 L490 630 L490 197 C490 125 476 70 448 32 C420 -6 373 -25 308 -25 C242 -25 195 -6 167 32 C139 70 125 125 125 197 L124 630 L31 630 L31 197 C31 150 36 108 45 72 C55 36 68 7 84 -16 C100 -38 121 -57 145 -71 C169 -85 194 -95 220 -100 C247 -106 276 -109 308 -109 C339 -109 369 -106 395 -100 L395 -100 Z M215 708 C251 708 251 708 298 708 L413 829 L306 829 L215 708 Z " />
<glyph glyph-name="Ucircumflex" unicode="&#xdb;" horiz-adv-x="615" d="M395 -100 C369 -106 339 -109 308 -109 C276 -109 247 -106 220 -100 C194 -95 169 -85 145 -71 C121 -57 100 -38 84 -16 C68 7 55 36 45 72 C36 108 31 150 31 197 L31 630 L124 630 L125 197 C125 125 139 70 167 32 C195 -6 242 -25 308 -25 C373 -25 420 -6 448 32 C476 70 490 125 490 197 L490 630 L583 630 L583 197 C583 150 579 108 569 72 C559 36 546 7 530 -16 C514 -38 494 -57 470 -71 C446 -85 421 -95 395 -100 L395 -100 Z M416 779 L416 779 L372 823 C357 839 336 846 308 846 C283 846 261 839 245 823 L198 777 L145 725 L161 725 L202 725 L237 725 L291 779 L308 796 L325 779 L378 725 L414 725 L454 725 L470 725 L416 779 L416 779 Z " />
<glyph glyph-name="Udieresis" unicode="&#xdc;" horiz-adv-x="615" d="M395 -100 C421 -95 446 -85 470 -71 C494 -57 514 -38 530 -16 C546 7 559 36 569 72 C579 108 583 150 583 197 L583 630 L490 630 L490 197 C490 125 476 70 448 32 C420 -6 373 -25 308 -25 C242 -25 195 -6 167 32 C139 70 125 125 125 197 L124 630 L31 630 L31 197 C31 150 36 108 45 72 C55 36 68 7 84 -16 C100 -38 121 -57 145 -71 C169 -85 194 -95 220 -100 C247 -106 276 -109 308 -109 C339 -109 369 -106 395 -100 L395 -100 Z M185 811 L185 730 L263 730 L263 811 L185 811 Z M352 811 L352 730 L431 730 L431 811 L352 811 Z " />
<glyph glyph-name="Yacute" unicode="&#xdd;" horiz-adv-x="579" d="M590 629 L481 629 L292 340 L106 629 L-8 629 L245 250 L245 -100 L338 -100 L338 250 L590 629 Z M197 708 C233 708 233 708 280 708 L395 829 L288 829 L197 708 Z " />
<glyph glyph-name="agrave" unicode="&#xe0;" horiz-adv-x="582" d="M453 448 L453 381 C406 432 348 458 278 458 C199 458 137 432 93 381 C49 330 27 260 27 171 C27 85 50 17 95 -33 C141 -84 204 -109 283 -109 C318 -109 350 -101 380 -84 C409 -68 435 -46 457 -18 L457 -99 L540 -99 L540 448 L453 448 L453 448 Z M453 174 C453 107 438 57 409 22 C380 -12 338 -30 283 -30 C230 -30 189 -11 159 25 C129 62 114 111 114 174 C114 238 128 288 156 325 C185 361 225 379 278 379 C332 379 375 362 406 328 C437 294 453 245 453 181 L453 174 L453 174 Z M307 629 L200 629 L315 508 C363 508 363 508 399 508 L307 629 Z " />
<glyph glyph-name="aacute" unicode="&#xe1;" horiz-adv-x="582" d="M453 448 L453 381 C406 432 348 458 278 458 C199 458 137 432 93 381 C49 330 27 260 27 171 C27 85 50 17 95 -33 C141 -84 204 -109 283 -109 C318 -109 350 -101 380 -84 C409 -68 435 -46 457 -18 L457 -99 L540 -99 L540 448 L453 448 L453 448 Z M453 174 C453 107 438 57 409 22 C380 -12 338 -30 283 -30 C230 -30 189 -11 159 25 C129 62 114 111 114 174 C114 238 128 288 156 325 C185 361 225 379 278 379 C332 379 375 362 406 328 C437 294 453 245 453 181 L453 174 L453 174 Z M199 508 C235 508 235 508 282 508 L397 629 L290 629 L199 508 Z " />
<glyph glyph-name="acircumflex" unicode="&#xe2;" horiz-adv-x="582" d="M453 448 L453 381 C406 432 348 458 278 458 C199 458 137 432 93 381 C49 330 27 260 27 171 C27 85 50 17 95 -33 C141 -84 204 -109 283 -109 C318 -109 350 -101 380 -84 C409 -68 435 -46 457 -18 L457 -99 L540 -99 L540 448 L453 448 L453 448 Z M453 174 C453 107 438 57 409 22 C380 -12 338 -30 283 -30 C230 -30 189 -11 159 25 C129 62 114 111 114 174 C114 238 128 288 156 325 C185 361 225 379 278 379 C332 379 375 362 406 328 C437 294 453 245 453 181 L453 174 L453 174 Z M399 579 L399 579 L355 623 C340 639 319 646 291 646 C266 646 244 639 228 623 L181 577 L128 525 L144 525 L185 525 L220 525 L274 579 L291 596 L308 579 L361 525 L397 525 L437 525 L453 525 L399 579 L399 579 Z " />
<glyph glyph-name="atilde" unicode="&#xe3;" horiz-adv-x="582" d="M453 448 L453 381 C406 432 348 458 278 458 C199 458 137 432 93 381 C49 330 27 260 27 171 C27 85 50 17 95 -33 C141 -84 204 -109 283 -109 C318 -109 350 -101 380 -84 C409 -68 435 -46 457 -18 L457 -99 L540 -99 L540 448 L453 448 L453 448 Z M453 174 C453 107 438 57 409 22 C380 -12 338 -30 283 -30 C230 -30 189 -11 159 25 C129 62 114 111 114 174 C114 238 128 288 156 325 C185 361 225 379 278 379 C332 379 375 362 406 328 C437 294 453 245 453 181 L453 174 L453 174 Z M402 458 C439 458 468 471 491 497 C514 523 530 560 539 609 L474 622 C474 622 470 608 469 602 C461 574 453 555 443 547 C426 530 394 528 374 545 C353 562 338 585 318 609 C297 632 269 650 235 650 C151 650 113 573 100 497 L168 486 C168 486 170 499 172 505 C180 537 194 575 235 575 C257 575 279 553 293 534 C312 511 330 486 359 470 C372 462 388 458 402 458 L402 458 Z " />
<glyph glyph-name="adieresis" unicode="&#xe4;" horiz-adv-x="582" d="M453 448 L453 381 C406 432 348 458 278 458 C199 458 137 432 93 381 C49 330 27 260 27 171 C27 85 50 17 95 -33 C141 -84 204 -109 283 -109 C318 -109 350 -101 380 -84 C409 -68 435 -46 457 -18 L457 -99 L540 -99 L540 448 L453 448 L453 448 Z M453 174 C453 107 438 57 409 22 C380 -12 338 -30 283 -30 C230 -30 189 -11 159 25 C129 62 114 111 114 174 C114 238 128 288 156 325 C185 361 225 379 278 379 C332 379 375 362 406 328 C437 294 453 245 453 181 L453 174 L453 174 Z M168 611 L168 530 L246 530 L246 611 L168 611 Z M335 611 L335 530 L414 530 L414 611 L335 611 Z " />
<glyph glyph-name="aring" unicode="&#xe5;" horiz-adv-x="582" d="M453 448 L453 381 C406 432 348 458 278 458 C199 458 137 432 93 381 C49 330 27 260 27 171 C27 85 50 17 95 -33 C141 -84 204 -109 283 -109 C318 -109 350 -101 380 -84 C409 -68 435 -46 457 -18 L457 -99 L540 -99 L540 448 L453 448 L453 448 Z M453 174 C453 107 438 57 409 22 C380 -12 338 -30 283 -30 C230 -30 189 -11 159 25 C129 62 114 111 114 174 C114 238 128 288 156 325 C185 361 225 379 278 379 C332 379 375 362 406 328 C437 294 453 245 453 181 L453 174 L453 174 Z M288 496 C327 496 363 526 363 568 C363 609 331 642 288 642 C248 642 213 611 213 568 C213 527 247 497 288 496 L288 496 Z M288 539 C273 539 260 551 260 568 C260 583 270 598 288 598 C304 598 317 586 317 568 C317 552 305 540 288 539 L288 539 Z " />
<glyph glyph-name="ae" unicode="&#xe6;" horiz-adv-x="1041" d="M995 143 L995 170 C995 256 971 326 923 379 C875 432 811 458 729 458 C660 458 603 449 558 412 L558 448 L471 448 L471 382 C424 433 366 459 296 459 C217 459 155 433 111 382 C67 331 45 261 45 172 C45 86 68 17 114 -33 C159 -84 222 -109 302 -109 C336 -109 368 -101 398 -84 C428 -68 453 -46 475 -18 L475 -99 L558 -99 L558 -51 C603 -87 659 -109 729 -109 C789 -109 841 -94 886 -63 C930 -32 961 11 979 66 L894 89 C894 89 892 83 888 71 C873 40 852 15 825 -2 C798 -19 766 -27 729 -27 C677 -27 635 -12 604 20 C569 55 554 100 549 143 L995 143 L995 143 Z M427 22 C398 -12 356 -30 302 -30 C248 -30 207 -11 177 25 C147 62 132 112 132 175 C132 239 146 289 175 326 C203 362 243 380 296 380 C350 380 393 363 424 329 C445 307 459 278 466 243 C462 223 461 201 461 179 C461 156 463 134 466 113 C460 75 447 45 427 22 L427 22 Z M611 336 C642 364 681 377 729 377 C775 377 813 364 844 336 C875 309 894 272 903 224 L553 224 C560 272 577 304 611 336 L611 336 Z " />
<glyph glyph-name="ccedilla" unicode="&#xe7;" horiz-adv-x="593" d="M295 -109 C358 -109 411 -92 454 -59 C497 -25 527 23 542 87 C471 105 458 108 458 108 C430 23 387 -28 295 -28 C189 -28 126 62 126 167 C126 231 141 282 170 320 C199 358 241 377 295 377 C370 377 421 341 449 270 C453 258 455 251 455 251 L539 276 C521 335 492 379 451 411 C410 442 358 458 295 458 C215 458 152 432 107 380 C61 328 39 257 39 167 C39 113 48 70 67 29 C86 -13 116 -46 155 -71 C194 -96 241 -109 295 -109 L295 -109 Z M365 -152 C351 -140 331 -134 305 -134 L270 -134 L274 -103 L234 -100 L226 -150 C224 -161 227 -171 233 -178 C240 -186 250 -190 262 -190 L304 -190 C310 -190 314 -192 319 -195 C323 -199 325 -202 325 -206 C325 -212 323 -217 320 -221 C316 -225 309 -227 297 -227 L250 -227 L232 -227 L206 -227 L206 -285 L250 -285 L290 -285 C318 -285 341 -278 359 -264 C378 -250 387 -231 387 -204 C387 -182 380 -164 365 -152 L365 -152 Z " />
<glyph glyph-name="egrave" unicode="&#xe8;" horiz-adv-x="573" d="M293 458 C120 458 25 328 25 170 C25 3 133 -109 293 -109 C412 -109 506 -41 543 66 L459 88 C427 16 371 -27 293 -28 C186 -29 122 48 113 143 L559 143 L559 170 C554 336 462 458 293 458 L293 458 Z M118 224 C136 316 201 377 293 377 C387 377 452 310 467 224 L118 224 L118 224 Z M302 629 L195 629 L310 508 C358 508 358 508 394 508 L302 629 Z " />
<glyph glyph-name="eacute" unicode="&#xe9;" horiz-adv-x="573" d="M293 458 C120 458 25 328 25 170 C25 3 133 -109 293 -109 C412 -109 506 -41 543 66 L459 88 C427 16 371 -27 293 -28 C186 -29 122 48 113 143 L559 143 L559 170 C554 336 462 458 293 458 L293 458 Z M118 224 C136 316 201 377 293 377 C387 377 452 310 467 224 L118 224 L118 224 Z M194 508 C230 508 230 508 277 508 L392 629 L285 629 L194 508 Z " />
<glyph glyph-name="ecircumflex" unicode="&#xea;" horiz-adv-x="573" d="M293 458 C120 458 25 328 25 170 C25 3 133 -109 293 -109 C412 -109 506 -41 543 66 L459 88 C427 16 371 -27 293 -28 C186 -29 122 48 113 143 L559 143 L559 170 C554 336 462 458 293 458 L293 458 Z M118 224 C136 316 201 377 293 377 C387 377 452 310 467 224 L118 224 L118 224 Z M395 579 L395 579 L351 623 C336 639 315 646 287 646 C262 646 240 639 224 623 L177 577 L124 525 L140 525 L181 525 L216 525 L270 579 L287 596 L304 579 L357 525 L393 525 L433 525 L449 525 L395 579 L395 579 Z " />
<glyph glyph-name="edieresis" unicode="&#xeb;" horiz-adv-x="573" d="M293 458 C120 458 25 328 25 170 C25 3 133 -109 293 -109 C412 -109 506 -41 543 66 L459 88 C427 16 371 -27 293 -28 C186 -29 122 48 113 143 L559 143 L559 170 C554 336 462 458 293 458 L293 458 Z M118 224 C136 316 201 377 293 377 C387 377 452 310 467 224 L118 224 L118 224 Z M164 611 L164 530 L242 530 L242 611 L164 611 Z M331 611 L331 530 L410 530 L410 611 L331 611 Z " />
<glyph glyph-name="igrave" unicode="&#xec;" horiz-adv-x="218" d="M68 -100 L68 448 L154 448 L154 -100 L68 -100 Z M113 629 L6 629 L121 508 C169 508 169 508 205 508 L113 629 Z " />
<glyph glyph-name="iacute" unicode="&#xed;" horiz-adv-x="204" d="M143 -100 L143 448 L57 448 L57 -100 L143 -100 Z M3 508 C39 508 39 508 86 508 L201 629 L94 629 L3 508 Z " />
<glyph glyph-name="icircumflex" unicode="&#xee;" horiz-adv-x="325" d="M121 -100 L121 448 L207 448 L207 -100 L121 -100 Z M270 579 L270 579 L226 623 C211 639 190 646 162 646 C137 646 115 639 99 623 L52 577 L-1 525 L15 525 L56 525 L91 525 L145 579 L162 596 L179 579 L232 525 L268 525 L308 525 L324 525 L270 579 L270 579 Z " />
<glyph glyph-name="idieresis" unicode="&#xef;" horiz-adv-x="253" d="M170 -100 L170 448 L84 448 L84 -100 L170 -100 Z M3 611 L3 530 L81 530 L81 611 L3 611 Z M170 611 L170 530 L249 530 L249 611 L170 611 Z " />
<glyph glyph-name="eth" unicode="&#xf0;" horiz-adv-x="592" d="M326 564 L396 630 L380 630 L342 630 L289 630 L283 622 L276 630 L224 630 L186 630 L169 630 L240 564 L198 509 L198 509 L198 509 L234 509 C234 509 234 509 234 509 L267 509 L283 524 L299 509 L332 509 C332 509 332 509 332 509 L368 509 L368 509 L368 509 L326 564 Z M288 -109 C208 -109 145 -83 100 -32 C54 19 31 84 31 172 C31 260 54 329 100 381 C145 432 208 458 288 458 C367 458 430 432 475 381 C521 329 544 259 544 172 C544 84 521 19 475 -32 C430 -83 367 -109 288 -109 L288 -109 Z M288 -28 C341 -28 383 -9 412 27 C442 64 457 109 457 172 C457 235 442 285 412 322 C383 359 341 377 288 377 C234 377 193 359 163 322 C133 285 118 235 118 172 C118 109 133 64 163 27 C193 -9 234 -28 288 -28 L288 -28 Z " />
<glyph glyph-name="ntilde" unicode="&#xf1;" horiz-adv-x="497" d="M445 399 C412 438 358 458 285 458 C216 458 163 429 125 371 L125 448 L43 448 L43 -100 L129 -100 L129 224 C129 275 143 313 168 339 C194 366 233 379 285 379 C333 379 366 367 383 342 C400 318 409 278 409 224 L409 -100 L496 -100 L496 224 C496 301 479 360 445 399 L445 399 Z M359 458 C396 458 425 471 448 497 C471 523 487 560 496 609 L431 622 C431 622 427 608 426 602 C418 574 410 555 400 547 C383 530 351 528 331 545 C310 562 295 585 275 609 C254 632 226 650 192 650 C108 650 70 573 57 497 L125 486 C125 486 127 499 129 505 C137 537 151 575 192 575 C214 575 236 553 250 534 C269 511 287 486 316 470 C329 462 345 458 359 458 L359 458 Z " />
<glyph glyph-name="ograve" unicode="&#xf2;" horiz-adv-x="573" d="M288 -109 C208 -109 145 -83 100 -32 C54 19 31 84 31 172 C31 260 54 329 100 381 C145 432 208 458 288 458 C367 458 430 432 475 381 C521 329 544 259 544 172 C544 84 521 19 475 -32 C430 -83 367 -109 288 -109 L288 -109 Z M288 -28 C341 -28 383 -9 412 27 C442 64 457 109 457 172 C457 235 442 285 412 322 C383 359 341 377 288 377 C234 377 193 359 163 322 C133 285 118 235 118 172 C118 109 133 64 163 27 C193 -9 234 -28 288 -28 L288 -28 Z M302 629 L195 629 L310 508 C358 508 358 508 394 508 L302 629 Z " />
<glyph glyph-name="oacute" unicode="&#xf3;" horiz-adv-x="573" d="M288 -109 C367 -109 430 -83 475 -32 C521 19 544 84 544 172 C544 259 521 329 475 381 C430 432 367 458 288 458 C208 458 145 432 100 381 C54 329 31 260 31 172 C31 84 54 19 100 -32 C145 -83 208 -109 288 -109 L288 -109 Z M288 -28 C234 -28 193 -9 163 27 C133 64 118 109 118 172 C118 235 133 285 163 322 C193 359 234 377 288 377 C341 377 383 359 412 322 C442 285 457 235 457 172 C457 109 442 64 412 27 C383 -9 341 -28 288 -28 L288 -28 Z M194 508 C230 508 230 508 277 508 L392 629 L285 629 L194 508 Z " />
<glyph glyph-name="ocircumflex" unicode="&#xf4;" horiz-adv-x="573" d="M288 -109 C208 -109 145 -83 100 -32 C54 19 31 84 31 172 C31 260 54 329 100 381 C145 432 208 458 288 458 C367 458 430 432 475 381 C521 329 544 259 544 172 C544 84 521 19 475 -32 C430 -83 367 -109 288 -109 L288 -109 Z M288 -28 C341 -28 383 -9 412 27 C442 64 457 109 457 172 C457 235 442 285 412 322 C383 359 341 377 288 377 C234 377 193 359 163 322 C133 285 118 235 118 172 C118 109 133 64 163 27 C193 -9 234 -28 288 -28 L288 -28 Z M395 579 L395 579 L351 623 C336 639 315 646 287 646 C262 646 240 639 224 623 L177 577 L124 525 L140 525 L181 525 L216 525 L270 579 L287 596 L304 579 L357 525 L393 525 L433 525 L449 525 L395 579 L395 579 Z " />
<glyph glyph-name="otilde" unicode="&#xf5;" horiz-adv-x="573" d="M288 -109 C367 -109 430 -83 475 -32 C521 19 544 84 544 172 C544 259 521 329 475 381 C430 432 367 458 288 458 C208 458 145 432 100 381 C54 329 31 260 31 172 C31 84 54 19 100 -32 C145 -83 208 -109 288 -109 L288 -109 Z M288 -28 C234 -28 193 -9 163 27 C133 64 118 109 118 172 C118 235 133 285 163 322 C193 359 234 377 288 377 C341 377 383 359 412 322 C442 285 457 235 457 172 C457 109 442 64 412 27 C383 -9 341 -28 288 -28 L288 -28 Z M397 458 C434 458 463 471 486 497 C509 523 525 560 534 609 L469 622 C469 622 465 608 464 602 C456 574 448 555 438 547 C421 530 389 528 369 545 C348 562 333 585 313 609 C292 632 264 650 230 650 C146 650 108 573 95 497 L163 486 C163 486 165 499 167 505 C175 537 189 575 230 575 C252 575 274 553 288 534 C307 511 325 486 354 470 C367 462 383 458 397 458 L397 458 Z " />
<glyph glyph-name="odieresis" unicode="&#xf6;" horiz-adv-x="573" d="M288 -109 C367 -109 430 -83 475 -32 C521 19 544 84 544 172 C544 259 521 329 475 381 C430 432 367 458 288 458 C208 458 145 432 100 381 C54 329 31 260 31 172 C31 84 54 19 100 -32 C145 -83 208 -109 288 -109 L288 -109 Z M288 -28 C234 -28 193 -9 163 27 C133 64 118 109 118 172 C118 235 133 285 163 322 C193 359 234 377 288 377 C341 377 383 359 412 322 C442 285 457 235 457 172 C457 109 442 64 412 27 C383 -9 341 -28 288 -28 L288 -28 Z M164 611 L164 530 L242 530 L242 611 L164 611 Z M331 611 L331 530 L410 530 L410 611 L331 611 Z " />
<glyph glyph-name="oslash" unicode="&#xf8;" horiz-adv-x="573" d="M475 384 C461 400 445 413 428 424 L461 498 L398 498 L376 448 C349 456 319 461 287 461 C207 461 145 435 99 384 C53 333 30 264 30 176 C30 88 53 18 99 -33 C113 -48 128 -61 145 -72 L109 -154 L171 -154 L197 -96 C224 -105 254 -109 287 -109 C367 -109 429 -83 475 -33 C520 18 543 88 543 176 C543 263 520 333 475 384 L475 384 Z M146 11 C112 51 96 107 96 176 C96 245 112 300 146 340 C180 381 227 401 287 401 C310 401 332 398 351 392 L171 -13 C162 -6 154 2 146 11 L146 11 Z M427 11 C393 -29 347 -49 287 -49 C263 -49 241 -46 221 -40 L402 365 C411 358 419 350 427 340 C461 300 478 245 478 176 C478 107 461 51 427 11 L427 11 Z " />
<glyph glyph-name="ugrave" unicode="&#xf9;" horiz-adv-x="504" d="M403 448 L403 125 C403 74 390 36 364 9 C338 -17 299 -30 248 -30 C200 -30 167 -18 150 6 C133 31 124 70 124 125 L124 448 L37 448 L37 125 C37 47 54 -11 88 -50 C121 -90 175 -109 248 -109 C316 -109 369 -80 407 -22 L407 -100 L490 -100 L490 448 L403 448 L403 448 Z M268 629 L161 629 L276 508 C324 508 324 508 360 508 L268 629 Z " />
<glyph glyph-name="uacute" unicode="&#xfa;" horiz-adv-x="504" d="M403 448 L403 125 C403 74 390 36 364 9 C338 -17 299 -30 248 -30 C200 -30 167 -18 150 6 C133 31 124 70 124 125 L124 448 L37 448 L37 125 C37 47 54 -11 88 -50 C121 -90 175 -109 248 -109 C316 -109 369 -80 407 -22 L407 -100 L490 -100 L490 448 L403 448 L403 448 Z M160 508 C196 508 196 508 243 508 L358 629 L251 629 L160 508 Z " />
<glyph glyph-name="ucircumflex" unicode="&#xfb;" horiz-adv-x="504" d="M403 448 L403 125 C403 74 390 36 364 9 C338 -17 299 -30 248 -30 C200 -30 167 -18 150 6 C133 31 124 70 124 125 L124 448 L37 448 L37 125 C37 47 54 -11 88 -50 C121 -90 175 -109 248 -109 C316 -109 369 -80 407 -22 L407 -100 L490 -100 L490 448 L403 448 L403 448 Z M360 579 L360 579 L316 623 C301 639 280 646 252 646 C227 646 205 639 189 623 L142 577 L89 525 L105 525 L146 525 L181 525 L235 579 L252 596 L269 579 L322 525 L358 525 L398 525 L414 525 L360 579 L360 579 Z " />
<glyph glyph-name="udieresis" unicode="&#xfc;" horiz-adv-x="504" d="M403 448 L403 125 C403 74 390 36 364 9 C338 -17 299 -30 248 -30 C200 -30 167 -18 150 6 C133 31 124 70 124 125 L124 448 L37 448 L37 125 C37 47 54 -11 88 -50 C121 -90 175 -109 248 -109 C316 -109 369 -80 407 -22 L407 -100 L490 -100 L490 448 L403 448 L403 448 Z M129 611 L129 530 L207 530 L207 611 L129 611 Z M296 611 L296 530 L375 530 L375 611 L296 611 Z " />
<glyph glyph-name="yacute" unicode="&#xfd;" horiz-adv-x="482" d="M396 448 L240 22 L82 448 L-11 448 L196 -98 L176 -153 C167 -176 150 -201 125 -201 L75 -201 L75 -282 L125 -282 C186 -279 231 -239 253 -186 L492 448 L396 448 L396 448 Z M149 508 C185 508 185 508 232 508 L347 629 L240 629 L149 508 Z " />
<glyph glyph-name="ydieresis" unicode="&#xff;" horiz-adv-x="482" d="M396 448 L240 22 L82 448 L-11 448 L196 -98 L176 -153 C167 -176 150 -201 125 -201 L75 -201 L75 -282 L125 -282 C186 -279 231 -239 253 -186 L492 448 L396 448 L396 448 Z M118 611 L118 530 L196 530 L196 611 L118 611 Z M285 611 L285 530 L364 530 L364 611 L285 611 Z " />
<glyph glyph-name="Lslash" unicode="&#x141;" horiz-adv-x="616" d="M224 -17 L224 224 L329 268 L361 282 L330 357 L224 312 L224 630 L131 630 L131 273 L45 236 L12 222 L44 147 L131 184 L131 -100 L587 -100 L587 -17 L224 -17 L224 -17 Z " />
<glyph glyph-name="lslash" unicode="&#x142;" horiz-adv-x="371" d="M303 -19 L257 -19 C243 -19 232 -15 224 -7 C216 1 212 12 212 25 L212 223 L320 269 L353 283 L321 358 L212 311 L212 632 L125 632 L125 275 L36 237 L3 223 L35 148 L125 187 L125 25 C125 -13 137 -43 161 -66 C185 -89 216 -100 257 -100 L303 -100 L335 -100 L335 -40 L335 -19 L315 -19 L303 -19 L303 -19 Z " />
<glyph glyph-name="OE" unicode="&#x152;" horiz-adv-x="1108" d="M713 547 L1076 547 L1076 631 L620 631 L620 567 C609 577 596 586 583 595 C532 627 471 643 400 643 C329 643 268 627 217 595 C165 563 126 519 100 462 C74 406 61 340 61 266 C61 192 74 127 100 71 C125 15 164 -30 216 -63 C268 -95 329 -112 400 -112 C470 -112 530 -96 581 -64 C595 -56 608 -47 620 -36 L620 -100 L1076 -100 L1076 -16 L713 -16 L713 234 L1068 234 L1068 317 L713 317 L713 547 L713 547 Z M620 120 C611 96 599 75 585 56 C566 29 540 8 509 -6 C477 -21 441 -28 400 -28 C369 -28 341 -24 316 -16 C291 -8 270 2 253 15 C237 27 222 42 210 60 C197 78 188 96 181 113 C174 131 168 149 164 170 C160 190 157 207 156 222 C155 237 154 251 154 266 C154 308 160 347 170 382 C180 418 195 449 214 475 C234 502 260 523 291 537 C323 552 359 560 400 560 C440 560 476 552 507 538 C539 524 564 504 584 477 C599 458 611 436 620 412 L620 120 L620 120 Z " />
<glyph glyph-name="oe" unicode="&#x153;" horiz-adv-x="1025" d="M972 148 L972 175 C972 261 947 331 900 384 C852 437 787 463 705 463 C624 463 560 438 512 388 C467 438 405 463 327 463 C247 463 185 437 139 386 C93 334 70 265 70 177 C70 89 93 20 139 -32 C185 -83 247 -109 327 -109 C405 -109 467 -84 512 -35 C559 -84 623 -109 705 -109 C766 -109 818 -94 862 -63 C906 -32 937 11 955 66 L871 89 C871 89 869 82 864 71 C850 40 829 15 801 -2 C774 -19 742 -27 705 -27 C653 -27 612 -12 580 20 C573 27 567 35 561 43 C541 72 529 106 526 148 L972 148 L972 148 Z M452 27 C422 -9 380 -27 327 -27 C274 -27 232 -9 202 27 C173 64 158 114 158 177 C158 240 173 290 202 327 C232 364 274 382 327 382 C380 382 422 364 452 327 C456 322 459 317 463 312 C446 272 437 227 437 175 C437 124 445 80 462 41 C459 36 456 32 452 27 L452 27 Z M530 229 C535 261 545 288 561 310 C568 322 577 332 588 341 C618 368 657 382 705 382 C751 382 789 368 820 341 C851 314 871 277 880 229 L530 229 L530 229 Z " />
<glyph glyph-name="Scaron" unicode="&#x160;" horiz-adv-x="584" d="M293 -109 C350 -109 400 -101 441 -86 C483 -71 516 -46 540 -13 C564 21 576 62 576 113 C576 169 556 212 517 247 C477 282 415 308 332 326 L242 345 C204 353 175 367 154 385 C134 404 123 425 123 448 C123 522 178 559 288 559 C341 559 415 528 483 479 L544 543 C475 609 390 642 288 642 C166 642 32 596 32 448 C32 349 101 286 240 258 L321 242 C374 232 414 214 441 190 C469 165 482 140 482 111 C482 74 465 42 431 15 C397 -12 351 -25 293 -25 C268 -25 244 -23 223 -19 C202 -15 183 -9 166 -2 C149 6 136 13 125 20 C115 26 103 34 91 43 C81 51 76 55 76 55 L16 -8 C52 -43 91 -68 135 -84 C178 -101 231 -109 293 -109 L293 -109 Z M395 775 L449 829 L433 829 L393 829 L357 829 L304 775 L287 759 L270 775 L216 829 L181 829 L140 829 L124 829 L177 777 L224 731 C240 716 262 708 287 708 C315 708 336 716 351 731 L395 775 Z " />
<glyph glyph-name="scaron" unicode="&#x161;" horiz-adv-x="473" d="M244 -109 C311 -109 363 -94 400 -64 C438 -34 457 7 457 59 C457 99 441 131 409 162 C378 192 334 213 279 224 C269 226 255 229 236 233 C218 237 204 239 194 242 C174 246 159 253 147 266 C136 278 130 291 130 307 C130 329 139 346 158 359 C177 373 203 379 236 379 C283 379 323 364 354 332 C363 324 367 319 367 319 L432 372 C417 394 393 413 359 431 C326 449 287 458 241 458 C180 458 132 444 97 416 C62 388 45 351 45 303 C45 267 58 236 84 210 C110 184 146 167 191 159 L270 145 C301 140 325 129 343 113 C361 96 369 81 369 59 C369 32 359 11 337 -4 C316 -20 284 -27 244 -27 C219 -27 195 -22 171 -11 C146 0 126 12 111 26 C101 35 96 39 96 39 L34 -17 C91 -78 160 -109 244 -109 L244 -109 Z M339 575 L393 629 L377 629 L337 629 L301 629 L248 575 L231 559 L214 575 L160 629 L125 629 L84 629 L68 629 L121 577 L168 531 C184 516 206 508 231 508 C259 508 280 516 295 531 L339 575 Z " />
<glyph glyph-name="Ydieresis" unicode="&#x178;" horiz-adv-x="579" d="M590 629 L481 629 L292 340 L106 629 L-8 629 L245 250 L245 -100 L338 -100 L338 250 L590 629 Z M167 811 L167 730 L245 730 L245 811 L167 811 Z M334 811 L334 730 L413 730 L413 811 L334 811 Z " />
<glyph glyph-name="Zcaron" unicode="&#x17d;" horiz-adv-x="558" d="M558 629 L24 629 L24 546 L444 546 L24 -16 L24 -100 L558 -100 L558 -16 L139 -16 L558 546 L558 629 Z M382 775 L436 829 L420 829 L380 829 L344 829 L291 775 L274 759 L257 775 L203 829 L168 829 L127 829 L111 829 L164 777 L211 731 C227 716 249 708 274 708 C302 708 323 716 338 731 L382 775 Z " />
<glyph glyph-name="zcaron" unicode="&#x17e;" horiz-adv-x="500" d="M476 448 L26 448 L26 367 L362 367 L26 -18 L26 -100 L476 -100 L476 -18 L140 -18 L476 367 L476 448 Z M353 575 L407 629 L391 629 L351 629 L315 629 L262 575 L245 559 L228 575 L174 629 L139 629 L98 629 L82 629 L135 577 L182 531 C198 516 220 508 245 508 C273 508 294 516 309 531 L353 575 Z " />
<glyph glyph-name="circumflex" unicode="&#x2c6;" horiz-adv-x="326" d="M277 579 L277 579 L233 623 C218 639 197 646 169 646 C144 646 122 639 106 623 L59 577 L6 525 L22 525 L63 525 L98 525 L152 579 L169 596 L186 579 L239 525 L275 525 L315 525 L331 525 L277 579 L277 579 Z " />
<glyph glyph-name="caron" unicode="&#x2c7;" horiz-adv-x="349" d="M278 575 L332 629 L316 629 L276 629 L240 629 L187 575 L170 559 L153 575 L99 629 L64 629 L23 629 L7 629 L60 577 L107 531 C123 516 145 508 170 508 C198 508 219 516 234 531 L278 575 Z " />
<glyph glyph-name="ring" unicode="&#x2da;" horiz-adv-x="224" d="M111 496 C150 496 186 526 186 568 C186 609 154 642 111 642 C71 642 36 611 36 568 C36 527 70 497 111 496 L111 496 Z M111 539 C96 539 83 551 83 568 C83 583 93 598 111 598 C127 598 140 586 140 568 C140 552 128 540 111 539 L111 539 Z " />
<glyph glyph-name="tilde" unicode="&#x2dc;" horiz-adv-x="595" d="M409 458 C446 458 475 471 498 497 C521 523 537 560 546 609 L481 622 C481 622 477 608 476 602 C468 574 460 555 450 547 C433 530 401 528 381 545 C360 562 345 585 325 609 C304 632 276 650 242 650 C158 650 120 573 107 497 L175 486 C175 486 177 499 179 505 C187 537 201 575 242 575 C264 575 286 553 300 534 C319 511 337 486 366 470 C379 462 395 458 409 458 L409 458 Z " />
<glyph glyph-name="quoteleft" unicode="&#x2018;" horiz-adv-x="142" d="M40 459 C60 459 75 463 87 471 C98 478 106 491 113 509 C126 550 133 575 133 585 C133 601 128 615 117 625 C107 636 93 641 77 641 C61 641 48 636 37 625 C27 615 21 601 21 585 C21 568 27 554 38 544 C45 538 48 529 45 516 L30 471 C29 468 30 465 31 463 C34 460 36 459 40 459 L40 459 Z " />
<glyph glyph-name="quoteright" unicode="&#x2019;" horiz-adv-x="143" d="M40 459 C60 459 75 463 87 471 C98 478 106 491 113 509 C126 550 133 575 133 585 C133 601 128 615 117 625 C107 636 93 641 77 641 C61 641 48 636 37 625 C27 615 21 601 21 585 C21 568 27 554 38 544 C45 538 48 529 45 516 L30 471 C29 468 30 465 31 463 C34 460 36 459 40 459 L40 459 Z " />
<glyph glyph-name="quotedblleft" unicode="&#x201c;" horiz-adv-x="256" d="M21 466 C41 466 57 470 68 477 C79 485 88 498 94 517 C108 557 114 582 114 592 C114 622 93 648 59 648 C29 648 3 625 3 592 C3 575 8 561 20 551 C27 545 29 536 26 523 L12 477 C11 475 11 472 13 470 C15 468 18 466 21 466 L21 466 Z M153 466 C173 466 189 470 200 477 C211 485 220 498 226 517 C239 557 246 582 246 592 C246 622 225 648 191 648 C160 648 135 626 135 592 C135 575 140 561 152 551 C159 545 161 536 158 523 L144 477 C143 475 143 472 145 470 C147 468 149 466 153 466 L153 466 Z " />
<glyph glyph-name="quotedblright" unicode="&#x201d;" horiz-adv-x="256" d="M21 466 C41 466 57 470 68 477 C79 485 88 498 94 517 C108 557 114 582 114 592 C114 622 93 648 59 648 C29 648 3 625 3 592 C3 575 8 561 20 551 C27 545 29 536 26 523 L12 477 C11 475 11 472 13 470 C15 468 18 466 21 466 L21 466 Z M153 466 C173 466 189 470 200 477 C211 485 220 498 226 517 C239 557 246 582 246 592 C246 622 225 648 191 648 C160 648 135 626 135 592 C135 575 140 561 152 551 C159 545 161 536 158 523 L144 477 C143 475 143 472 145 470 C147 468 149 466 153 466 L153 466 Z " />
<glyph glyph-name="Euro" unicode="&#x20ac;" horiz-adv-x="625" d="M422 638 C338 638 269 617 214 576 C160 534 123 475 104 400 L60 400 L18 400 L18 319 L91 319 C90 298 89 283 89 273 C89 258 89 246 90 239 L16 239 L16 157 L101 157 C119 76 156 12 211 -35 C267 -81 337 -104 422 -104 L585 -104 L585 -11 L422 -11 C300 -11 225 45 196 157 L450 157 C450 157 450 157 451 157 L493 157 L493 239 L185 239 C184 246 184 258 184 273 C184 285 185 300 186 319 L491 319 L533 319 L533 400 L202 400 C233 496 306 545 422 545 L585 545 L585 565 L585 638 L422 638 Z " />
<glyph glyph-name="fi" unicode="&#xfb01;" horiz-adv-x="415" d="M168 493 C170 527 191 547 223 547 L398 547 L398 629 L223 629 C180 629 145 617 119 592 C94 567 81 534 81 493 L81 446 L-7 446 L-7 365 L81 365 L81 -100 L168 -100 L168 365 L310 365 L310 446 L168 446 L168 493 L168 493 Z M315 446 L315 -100 L402 -100 L402 446 L315 446 L315 446 Z " />
<glyph glyph-name="fl" unicode="&#xfb02;" horiz-adv-x="562" d="M242 629 C199 629 165 616 139 592 C113 567 100 534 100 493 L100 446 L13 446 L13 365 L100 365 L100 -100 L188 -100 L188 365 L330 365 L330 446 L188 446 L188 493 C188 509 193 522 202 532 C212 542 225 547 242 547 L370 547 L370 629 L242 629 Z M461 -19 C447 -19 436 -14 427 -6 C419 2 416 12 416 26 L416 629 L329 629 L329 26 C329 -12 341 -42 364 -65 C388 -88 420 -100 461 -100 L539 -100 L539 -39 L539 -19 L461 -19 Z " />
</font>
</svg>
