<?xml version="1.0" encoding="UTF-8"?>
<svg xmlns="http://www.w3.org/2000/svg" xmlns:xlink="http://www.w3.org/1999/xlink" version="1.2" >
<font id="Noirden Semi Bold Oblique">
<font-face  font-family="Noirden" units-per-em="1000" ascent="750" descent="-250" font-style="normal" font-weight="400" font-stretch="normal" cap-height="900" x-height="700" underline-position="-75" underline-thickness="50" />
<missing-glyph  horiz-adv-x="197" d="" />
<glyph glyph-name="NULL" d="" />
<glyph glyph-name="nonmarkingreturn" unicode="&#xd;" horiz-adv-x="197" d="" />
<glyph glyph-name="space" unicode="&#x20;" horiz-adv-x="197" d="" />
<glyph glyph-name="F" unicode="F" horiz-adv-x="544" d="M564 546 L201 546 L161 315 L516 315 L502 233 L147 233 L90 -100 L-2 -100 L122 629 L578 629 L564 546 L564 546 Z " />
<glyph glyph-name="E" unicode="E" horiz-adv-x="548" d="M555 546 L192 546 L152 315 L507 315 L492 233 L137 233 L93 -17 L456 -17 L441 -100 L-14 -100 L114 629 L570 629 L555 546 L555 546 Z " />
<glyph glyph-name="G" unicode="G" horiz-adv-x="770" d="M724 282 Q694 99 589 -6 Q484 -109 322 -109 Q275 -109 232 -97.5 Q189 -86 153 -63 Q117 -40 90.5 -5.5 Q64 29 52 74 Q39 117 37 166.5 Q35 216 43 267.5 Q51 319 69 369.5 Q87 420 115 465 Q142 508 178.5 542 Q215 576 258 599 Q301 622 348.5 634 Q396 646 445 646 Q567 646 640 582 Q713 517 726 405 L632 381 Q627 420 611 453.5 Q595 487 569.5 511 Q544 535 509 549 Q474 563 431 563 Q380 563 326.5 543 Q273 523 232 478 Q192 436 169.5 381 Q147 326 138 269 Q129 212 134 159 Q139 106 162 65 Q185 24 227.5 -0.5 Q270 -25 336 -25 Q440 -25 509 35 Q580 96 609 199 L445 199 L370 199 L384 282 L459 282 L724 282 Z " />
<glyph glyph-name="H" unicode="H" horiz-adv-x="622" d="M556 630 L650 630 L521 -100 L427 -100 L486 234 L123 234 L64 -100 L-28 -100 L100 630 L193 630 L138 316 L501 316 L556 630 L556 630 Z " />
<glyph glyph-name="I" unicode="I" horiz-adv-x="148" d="M-36 -100 L90 629 L183 629 L56 -100 L-36 -100 L-36 -100 Z " />
<glyph glyph-name="J" unicode="J" horiz-adv-x="527" d="M186 -109 Q99 -109 50 -58 Q2 -10 -4 87 L88 111 Q89 109 89 105 Q89 102 89 98.5 Q89 95 90 90 Q96 35 124 5 Q154 -25 201 -25 Q266 -25 306 16 Q348 57 362 132 L450 630 L543 630 L455 132 Q434 17 364 -46 Q295 -109 186 -109 Z " />
<glyph glyph-name="K" unicode="K" horiz-adv-x="595" d="M311 330 L546 -100 L447 -100 L240 268 L126 167 L79 -100 L-13 -100 L113 629 L206 629 L148 294 L532 629 L651 629 L311 330 L311 330 Z " />
<glyph glyph-name="L" unicode="L" horiz-adv-x="533" d="M93 -17 L456 -17 L441 -100 L-14 -100 L114 629 L207 629 L93 -17 L93 -17 Z " />
<glyph glyph-name="M" unicode="M" horiz-adv-x="819" d="M833 630 L704 -100 L611 -100 L708 449 L393 -100 L294 -100 L175 446 L78 -100 L-14 -100 L114 630 L235 630 L366 21 L715 630 L833 630 Z " />
<glyph glyph-name="N" unicode="N" horiz-adv-x="680" d="M601 630 L694 630 L565 -100 L462 -100 L182 487 L78 -100 L-14 -100 L114 630 L218 630 L497 43 L601 630 L601 630 Z " />
<glyph glyph-name="O" unicode="O" horiz-adv-x="774" d="M324 -109 Q218 -109 148 -60 Q77 -9 54 74 Q42 116 40 162 Q38 208 47 264 Q57 321 74.5 369.5 Q92 418 119 460 Q171 544 256 593 Q343 641 447 641 Q554 641 623 593 Q693 544 717 460 Q741 375 723 264 Q714 207 696.5 160 Q679 113 652 71 Q598 -15 514 -61 Q428 -109 324 -109 Z M337 -25 Q402 -25 450 -3 Q503 20 539 61 Q575 102 597 151 Q608 178 616.5 205 Q625 232 630 264 Q641 331 635 382 Q629 434 605 475 Q581 516 538 536 Q497 558 434 558 Q374 558 322 535 Q269 514 232.5 471.5 Q196 429 174 381 Q163 354 154 325 Q145 296 140 264 Q131 207 135.5 157.5 Q140 108 162 63 Q179 34 203 15.5 Q227 -3 256 -13 Q292 -25 337 -25 Z " />
<glyph glyph-name="P" unicode="P" horiz-adv-x="576" d="M382 630 Q497 630 549 575 Q603 521 586 422 Q568 323 496 267 Q425 213 309 213 L133 213 L79 -100 L-13 -100 L113 630 L382 630 Z M324 296 Q394 296 439 329 Q483 363 493 422 Q503 482 471 514 Q438 547 368 547 L192 547 L148 296 L324 296 Z " />
<glyph glyph-name="Q" unicode="Q" horiz-adv-x="774" d="M665 80 Q616 -1 540 -50 L614 -197 L510 -197 L457 -90 Q426 -99 394.5 -104 Q363 -109 331 -109 Q227 -109 155 -60 Q88 -12 62 74 Q50 116 48 162.5 Q46 209 56 265 Q64 311 80 358.5 Q96 406 122 449.5 Q148 493 184 530 Q220 567 268 594 Q353 642 459 642 Q566 642 634 594 Q703 544 727 461 Q753 377 733 265 Q724 211 707.5 166.5 Q691 122 665 80 Z M503 22 Q563 66 595 131 Q627 196 639 265 Q645 303 645.5 343.5 Q646 384 636.5 421 Q627 458 606 488.5 Q585 519 549 537 Q505 558 445 558 Q383 558 332 536 Q292 519 261 489.5 Q230 460 207.5 423.5 Q185 387 170.5 346 Q156 305 149 265 Q140 214 143 160.5 Q146 107 170 63 Q193 18 240.5 -3.5 Q288 -25 345 -25 Q386 -25 421 -16 L384 57 L486 57 L503 22 Z " />
<glyph glyph-name="S" unicode="S" horiz-adv-x="584" d="M227 -109 Q133 -109 74 -84 Q42 -72 17 -53 Q-8 -34 -31 -8 L39 55 L42 52 Q44 50 46 48 Q48 46 52 43 Q60 36 67.5 30.5 Q75 25 82 20 Q95 10 119 -2 Q145 -13 173 -19 Q203 -25 242 -25 Q329 -25 387 15 Q444 55 455 111 Q462 153 427 190 Q410 208 382.5 221 Q355 234 316 242 L238 258 Q38 300 63 448 Q73 503 102 540.5 Q131 578 171.5 600.5 Q212 623 259.5 632.5 Q307 642 353 642 Q505 642 592 543 L520 479 Q475 516 426.5 537.5 Q378 559 338 559 Q173 559 154 448 Q148 415 174 385 Q202 357 255 345 L342 326 Q463 299 513 247 Q538 221 547.5 188 Q557 155 549 113 Q536 38 491 -13 Q444 -64 379 -86 Q313 -109 227 -109 Z " />
<glyph glyph-name="R" unicode="R" horiz-adv-x="664" d="M389 233 L573 -100 L469 -100 L283 232 L137 232 L80 -100 L-12 -100 L112 629 L432 629 Q548 629 600 577 Q655 526 638 431 Q623 341 558 290 Q493 239 389 233 Z M191 546 L151 315 L378 315 Q447 315 491 345 Q535 374 544 431 Q553 485 521 516 Q485 546 418 546 L191 546 Z " />
<glyph glyph-name="T" unicode="T" horiz-adv-x="584" d="M613 629 L599 546 L385 546 L272 -100 L179 -100 L292 546 L79 546 L93 629 L613 629 L613 629 Z " />
<glyph glyph-name="U" unicode="U" horiz-adv-x="615" d="M332 -100 Q291 -109 243 -109 Q196 -109 157 -100 Q119 -92 87 -71 Q56 -51 35 -16 Q18 16 12 72 Q10 99 11.5 130.5 Q13 162 20 197 L95 630 L188 630 L114 197 Q94 88 127 32 Q158 -25 258 -25 Q355 -25 408 32 Q460 90 479 197 L554 630 L647 630 L572 197 Q565 162 556.5 130.5 Q548 99 536 72 Q524 45 510 23 Q496 1 481 -16 Q452 -49 412 -71 Q392 -82 372 -89 Q352 -96 332 -100 Z " />
<glyph glyph-name="V" unicode="V" horiz-adv-x="643" d="M596 629 L694 629 L307 -100 L207 -100 L76 629 L178 629 L283 37 L596 629 L596 629 Z " />
<glyph glyph-name="W" unicode="W" horiz-adv-x="997" d="M955 629 L1045 629 L698 -100 L602 -100 L536 475 L265 -100 L168 -100 L81 629 L180 629 L248 56 L519 629 L617 629 L682 51 L955 629 L955 629 Z " />
<glyph glyph-name="X" unicode="X" horiz-adv-x="698" d="M633 -100 L517 -100 L340 212 L56 -100 L-55 -100 L296 286 L100 630 L215 630 L368 365 L608 630 L720 630 L410 290 L633 -100 L633 -100 Z " />
<glyph glyph-name="Y" unicode="Y" horiz-adv-x="631" d="M673 629 L358 250 L300 -100 L207 -100 L265 250 L75 629 L189 629 L327 340 L564 629 L673 629 L673 629 Z " />
<glyph glyph-name="Z" unicode="Z" horiz-adv-x="585" d="M617 629 L603 546 L93 -16 L512 -16 L499 -100 L-34 -100 L-21 -16 L489 546 L69 546 L83 629 L617 629 L617 629 Z " />
<glyph glyph-name="a" unicode="a" horiz-adv-x="593" d="M589 448 L497 -99 L414 -99 L427 -18 Q389 -59 339 -84 Q290 -109 238 -109 Q118 -109 63 -33 Q8 41 29 171 Q51 304 130 381 Q210 458 328 458 Q433 458 490 381 L502 448 L589 448 Z M457 181 Q472 278 434 328 Q396 379 315 379 Q236 379 184 325 Q132 268 117 174 Q101 82 136 25 Q173 -30 251 -30 Q332 -30 386 22 Q438 74 456 174 L457 181 Z " />
<glyph glyph-name="b" unicode="b" horiz-adv-x="593" d="M517 381 Q571 303 547 171 Q526 43 443 -33 Q363 -109 242 -109 Q190 -109 150 -84 Q109 -60 84 -18 L70 -100 L-11 -100 L113 629 L199 629 L155 374 Q194 411 242.5 434.5 Q291 458 344 458 Q463 458 517 381 Z M389 25 Q443 79 460 174 Q476 268 444 325 Q411 379 331 379 Q247 379 194 327 Q137 273 121 175 L121 174 Q103 76 139 22 Q174 -30 256 -30 Q336 -30 389 25 Z " />
<glyph glyph-name="c" unicode="c" horiz-adv-x="593" d="M247 -109 Q166 -109 113 -71 Q87 -52 69 -27.5 Q51 -3 42 29 Q33 60 31.5 93 Q30 126 37 167 Q60 303 141 380 Q222 458 342 458 Q437 458 490 411 Q544 363 556 276 L467 251 L467 256 Q467 258 466.5 261.5 Q466 265 465 270 Q441 377 329 377 Q246 377 194 320 Q140 262 124 167 Q118 128 123.5 92.5 Q129 57 146.5 30 Q164 3 192.5 -12.5 Q221 -28 261 -28 Q295 -28 322.5 -18.5 Q350 -9 372 8.5 Q394 26 412 51 Q430 76 446 108 Q450 107 461 104 Q470 102 485.5 98 Q501 94 527 87 Q489 -7 414 -59 Q341 -109 247 -109 Z " />
<glyph glyph-name="d" unicode="d" horiz-adv-x="593" d="M604 629 L482 -100 L399 -100 L413 -18 Q373 -59 325 -84 Q276 -109 224 -109 Q105 -109 48 -33 Q-7 44 15 171 Q38 306 116 381 Q195 458 314 458 Q417 458 476 381 L517 629 L604 629 Z M442 181 Q458 276 420 328 Q382 379 300 379 Q221 379 170 325 Q119 271 102 174 Q86 81 122 25 Q157 -30 237 -30 Q318 -30 372 22 Q398 48 415.5 85.5 Q433 123 441 174 L442 181 Z " />
<glyph glyph-name="e" unicode="e" horiz-adv-x="586" d="M340 458 Q403 458 448.5 436.5 Q494 415 521 376.5 Q548 338 557.5 285 Q567 232 559 170 L554 143 L108 143 Q106 107 114.5 76 Q123 45 142 21.5 Q161 -2 190.5 -15 Q220 -28 260 -28 Q319 -27 365.5 3.5 Q412 34 445 88 L526 66 Q484 -15 410.5 -62 Q337 -109 247 -109 Q187 -109 141 -89 Q95 -69 66 -32 Q37 5 26 56 Q15 107 25 170 Q35 229 61 281.5 Q87 334 127.5 373 Q168 412 221.5 435 Q275 458 340 458 Z M476 224 Q476 256 465.5 284 Q455 312 436 332.5 Q417 353 389.5 365 Q362 377 327 377 Q258 377 205 335 Q152 293 127 224 L476 224 Z " />
<glyph glyph-name="f" unicode="f" horiz-adv-x="377" d="M422 629 L408 547 L280 547 Q255 547 237 532 Q229 524 224 514.5 Q219 505 217 493 L209 446 L351 446 L337 365 L195 365 L115 -100 L27 -100 L107 365 L20 365 L34 446 L121 446 L129 493 Q140 555 185 592 Q231 629 294 629 L422 629 Z " />
<glyph glyph-name="g" unicode="g" horiz-adv-x="591" d="M601 448 L506 -115 Q494 -189 440 -236 Q387 -281 311 -281 L61 -281 L74 -200 L324 -200 Q362 -200 386 -177 Q412 -156 418 -115 L434 -24 Q397 -61 351 -84 Q304 -109 250 -109 Q190 -109 146 -88 Q102 -67 75 -29.5 Q48 8 39.5 59 Q31 110 41 171 Q51 228 74.5 280 Q98 332 135.5 371.5 Q173 411 224.5 434.5 Q276 458 341 458 Q445 458 502 382 L513 448 L601 448 Z M471 199 Q475 237 469 270 Q463 303 445.5 327 Q428 351 398.5 365 Q369 379 327 379 Q283 379 249 362.5 Q215 346 190.5 318 Q166 290 151 252.5 Q136 215 129 174 Q123 136 126.5 99.5 Q130 63 146 34.5 Q162 6 191 -11.5 Q220 -29 264 -29 Q345 -29 398 22 Q446 70 464 157 L471 199 Z " />
<glyph glyph-name="h" unicode="h" horiz-adv-x="556" d="M336 458 Q445 458 486 398 Q526 340 505 222 L449 -100 L362 -100 L418 222 Q433 304 414 340 Q394 379 322 379 Q282 379 250 368 Q218 357 192 337 Q142 295 129 222 L73 -100 L-13 -100 L113 629 L200 629 L155 372 Q233 458 336 458 Z " />
<glyph glyph-name="backslash" unicode="&#x5c;" horiz-adv-x="585" d="M374 -230 L114 724 L195 724 L454 -230 L374 -230 L374 -230 Z " />
<glyph glyph-name="bracketright" unicode="&#x5d;" horiz-adv-x="274" d="M309 722 L140 -232 L-41 -232 L-26 -150 L68 -150 L208 641 L113 641 L127 722 L309 722 Z " />
<glyph glyph-name="asciicircum" unicode="&#x5e;" horiz-adv-x="413" d="M268 698 L375 449 L293 449 Q293 450 292 452 Q291 454 290.5 456 Q290 458 288 462 L218 628 L96 462 Q94 458 92 456 Q90 454 89 452 Q87 450 87 449 L5 449 L187 698 L268 698 Z " />
<glyph glyph-name="underscore" unicode="&#x5f;" horiz-adv-x="540" d="M37 -100 L49 -29 L496 -29 L484 -100 L37 -100 L37 -100 Z " />
<glyph glyph-name="i" unicode="i" horiz-adv-x="186" d="M-12 -100 L81 448 L167 448 L73 -100 L-12 -100 L-12 -100 Z M115 627 L194 627 L180 546 L101 546 L115 627 L115 627 Z " />
<glyph glyph-name="j" unicode="j" horiz-adv-x="188" d="M0 -117 Q-4 -156 -31 -179 Q-55 -202 -93 -202 L-171 -202 L-185 -283 L-107 -283 Q-32 -283 22 -238 Q76 -191 88 -117 L185 448 L97 448 L0 -117 Z M132 626 L211 626 L197 545 L118 545 L132 626 Z " />
<glyph glyph-name="k" unicode="k" horiz-adv-x="529" d="M269 236 L451 -100 L345 -100 Q342 -95 326 -64 Q312 -38 282.5 18 Q253 74 200 176 L108 97 L74 -100 L-13 -100 L113 629 L201 629 L129 214 L397 448 L514 448 L269 236 Z " />
<glyph glyph-name="l" unicode="l" horiz-adv-x="274" d="M210 -19 L207 -39 L196 -100 L118 -100 Q57 -100 27 -65 Q-2 -30 8 26 L113 629 L200 629 L95 26 Q92 4 101 -6 Q112 -19 132 -19 L210 -19 Z " />
<glyph glyph-name="n" unicode="n" horiz-adv-x="547" d="M490 399 Q531 340 510 224 L454 -100 L367 -100 L423 224 Q438 305 418 342 Q399 379 326 379 Q248 379 202 339 Q180 319 165 290.5 Q150 262 143 224 L87 -100 L1 -100 L96 448 L178 448 L165 371 Q237 458 340 458 Q451 458 490 399 Z " />
<glyph glyph-name="m" unicode="m" horiz-adv-x="852" d="M793 399 Q836 336 817 229 L760 -100 L673 -100 L730 229 Q744 308 720 343 Q697 379 638 379 Q563 379 529 343 Q494 308 481 229 L424 -100 L336 -100 L393 229 Q407 303 381 341 Q355 379 301 379 Q227 379 193 342 Q174 322 162.5 293.5 Q151 265 143 225 L87 -100 L1 -100 L96 448 L178 448 L167 382 Q230 459 315 459 Q439 459 474 366 Q491 388 511 405.5 Q531 423 554 435 Q600 460 652 460 Q750 460 793 399 Z " />
<glyph glyph-name="o" unicode="o" horiz-adv-x="571" d="M238 -109 Q119 -109 63 -32 Q35 6 26.5 56 Q18 106 29 172 Q51 303 134 381 Q216 458 335 458 Q455 458 509 381 Q565 303 542 172 Q531 106 505.5 56 Q480 6 438 -32 Q358 -109 238 -109 Z M252 -28 Q332 -28 385 27 Q413 55 430 89.5 Q447 124 455 172 Q471 265 436 322 Q402 377 321 377 Q241 377 187 322 Q133 268 116 172 Q108 124 113.5 89.5 Q119 55 136 27 Q173 -28 252 -28 Z " />
<glyph glyph-name="p" unicode="p" horiz-adv-x="595" d="M547 383 Q600 307 578 177 Q556 44 474 -33 Q392 -109 273 -109 Q168 -109 115 -38 L73 -281 L-13 -281 L104 406 L111 448 L194 448 L180 367 Q200 388 223 404.5 Q246 421 271 434 Q320 458 375 458 Q493 458 547 383 Z M420 25 Q473 78 490 174 Q507 271 474 325 Q439 379 361 379 Q280 379 226 329 Q171 280 153 182 L151 170 Q133 71 169 20 Q204 -30 286 -30 Q365 -30 420 25 Z " />
<glyph glyph-name="q" unicode="q" horiz-adv-x="595" d="M606 448 L598 401 L481 -282 L394 -282 L436 -36 Q359 -109 254 -109 Q134 -109 79 -33 Q23 43 46 177 Q69 310 148 383 Q226 458 346 458 Q399 458 443 434 Q482 412 510 369 L515 401 L520 428 L523 448 L543 448 L606 448 Z M473 176 Q488 277 452 328 Q414 379 332 379 Q253 379 201 325 Q150 271 133 174 Q117 80 153 25 Q186 -30 267 -30 Q350 -30 402 22 Q456 74 472 174 L473 176 Z " />
<glyph glyph-name="r" unicode="r" horiz-adv-x="360" d="M378 448 L364 367 L329 367 Q251 367 202 318 Q153 269 138 183 L90 -100 L3 -100 L96 448 L179 448 L164 361 Q236 442 354 448 L378 448 Z " />
<glyph glyph-name="s" unicode="s" horiz-adv-x="467" d="M188 -109 Q64 -109 -5 -17 L66 39 L79 26 Q96 6 132 -11 Q164 -27 203 -27 Q265 -27 300 -4 Q336 18 342 59 Q345 76 341 88 Q337 100 326 113 Q303 138 258 145 L182 159 Q115 171 84 210 Q52 248 61 303 Q73 374 133 416 Q191 458 284 458 Q352 458 397 431 Q444 404 460 372 L386 319 L383 322 Q381 324 379.5 326.5 Q378 329 375 332 Q338 379 265 379 Q214 379 184 359 Q151 340 147 307 Q143 285 157 266 Q169 248 199 242 Q207 240 216.5 238 Q226 236 240 233 Q254 230 264 228 Q274 226 281 224 Q362 207 400 162 Q420 139 427.5 114 Q435 89 430 59 Q416 -19 352 -64 Q289 -109 188 -109 Z " />
<glyph glyph-name="t" unicode="t" horiz-adv-x="393" d="M205 367 L151 66 Q145 27 162 4 Q180 -19 216 -19 L319 -19 L305 -100 L202 -100 Q127 -100 88 -55 Q52 -11 64 66 L118 367 L31 367 L45 448 L132 448 L164 629 L251 629 L219 448 L402 448 L388 367 L205 367 Z " />
<glyph glyph-name="u" unicode="u" horiz-adv-x="553" d="M550 448 L457 -100 L374 -100 L387 -22 Q315 -109 213 -109 Q101 -109 63 -50 Q23 8 42 125 L97 448 L184 448 L129 125 Q116 43 135 6 Q154 -30 226 -30 Q304 -30 349 9 Q395 49 408 125 L463 448 L550 448 Z " />
<glyph glyph-name="v" unicode="v" horiz-adv-x="513" d="M460 448 L553 448 L251 -100 L161 -100 L52 448 L147 448 L228 22 L460 448 L460 448 Z " />
<glyph glyph-name="w" unicode="w" horiz-adv-x="818" d="M768 448 L855 448 L580 -100 L492 -100 L434 312 L229 -100 L138 -100 L61 448 L151 448 L210 37 L415 448 L503 448 L562 36 L768 448 L768 448 Z " />
<glyph glyph-name="x" unicode="x" horiz-adv-x="556" d="M502 -100 L393 -100 L267 122 L66 -100 L-35 -100 L228 191 L81 448 L189 448 L295 264 L462 448 L565 448 L334 194 L502 -100 L502 -100 Z " />
<glyph glyph-name="y" unicode="y" horiz-adv-x="521" d="M576 448 L225 -186 Q202 -226 164 -253 Q126 -280 80 -282 L30 -282 L44 -201 L94 -201 Q113 -201 128.5 -185.5 Q144 -170 154 -153 L183 -98 L73 448 L166 448 L249 22 L480 448 L576 448 Z " />
<glyph glyph-name="z" unicode="z" horiz-adv-x="500" d="M522 448 L508 367 L107 -18 L443 -18 L429 -100 L-20 -100 L-6 -18 L394 367 L58 367 L72 448 L522 448 L522 448 Z " />
<glyph glyph-name="bar" unicode="&#x7c;" horiz-adv-x="148" d="M198 723 L27 -231 L-48 -231 L122 723 L198 723 Z " />
<glyph glyph-name="braceleft" unicode="&#x7b;" horiz-adv-x="289" d="M341 721 L331 660 L327 639 L282 639 Q256 639 242 626 Q227 614 222 588 L181 346 Q172 298 127 260 Q122 256 117.5 253 Q113 250 104 245 Q113 239 122 230 Q138 215 144 192.5 Q150 170 146 144 L105 -100 Q101 -125 111 -138 Q123 -152 147 -152 L192 -152 L178 -233 L119 -233 Q65 -233 36 -198 Q7 -164 16 -109 L59 139 Q63 164 55.5 186 Q48 208 33 227 Q28 232 24 236 Q20 240 13 245 Q19 248 25 252.5 Q31 257 38 262 Q58 279 73 301 Q88 323 95 350 L137 597 Q146 653 187 686 Q228 721 282 721 L341 721 Z " />
<glyph glyph-name="braceright" unicode="&#x7d;" horiz-adv-x="305" d="M171 720 L185 720 Q240 720 267 685 Q296 650 285 596 L238 349 Q233 329 238 311 Q239 303 241.5 295.5 Q244 288 247 283 Q252 272 262 261 Q267 256 270 253 Q273 250 275 248 Q277 247 278.5 246 Q280 245 282 244 L274 239 Q266 236 255 226 Q250 221 244 216 Q238 211 232 205 Q227 199 221.5 192 Q216 185 211 176 Q206 167 202.5 157.5 Q199 148 197 138 L150 -110 Q140 -164 98 -199 Q55 -234 2 -234 L-19 -234 L-56 -234 L-44 -173 L-41 -153 L-20 -153 L-4 -153 L2 -153 Q27 -153 43 -139 Q60 -125 64 -101 L111 143 Q116 163 124 180 Q129 190 134.5 197 Q140 204 145 209 Q153 219 167 229 Q173 234 177 236.5 Q181 239 183 241 Q189 243 191 244 L184 247 L172 259 Q169 264 165.5 268.5 Q162 273 158 278 Q155 283 152.5 290.5 Q150 298 149 307 Q146 326 150 345 L197 587 Q201 610 190 625 Q180 638 154 638 L110 638 L114 659 L126 720 L171 720 Z " />
<glyph glyph-name="asciitilde" unicode="&#x7e;" horiz-adv-x="572" d="M366 202 Q340 202 319 214 Q308 220 299 228 Q290 236 283 244 Q276 253 269 261.5 Q262 270 256 279 Q250 288 243 295 Q236 302 228 309 Q213 321 197 321 Q168 321 153 307 Q134 294 116 250 Q114 248 113.5 244.5 Q113 241 111 238 Q109 234 108 230 L33 242 Q57 315 103 356 Q147 397 209 397 Q236 397 260 385 Q281 374 295 355 Q303 346 309.5 337 Q316 328 322 320 Q328 311 334 303.5 Q340 296 348 290 Q361 278 378 278 Q408 278 426 292 Q444 305 463 348 Q464 350 465.5 353.5 Q467 357 469 361 L473 369 L543 355 Q517 281 471 242 Q427 202 366 202 Z " />
<glyph glyph-name="Euro" unicode="&#x20ac;" horiz-adv-x="625" d="M648 638 L635 565 L632 545 L469 545 Q296 545 224 400 L555 400 L541 319 L499 319 L194 319 Q188 289 185 273 Q180 248 180 239 L488 239 L474 157 L432 157 L431 157 L177 157 Q192 -11 374 -11 L537 -11 L521 -104 L358 -104 Q231 -104 159 -35 Q88 36 82 157 L-2 157 L11 239 L85 239 Q85 248 90 273 Q91 281 93.5 292 Q96 303 99 319 L26 319 L40 400 L82 400 L126 400 Q174 513 266 576 Q360 638 485 638 L648 638 Z " />
<glyph glyph-name="circumflex" unicode="&#x2c6;" horiz-adv-x="326" d="M320 525 L304 525 L264 525 L228 525 L184 579 L170 596 L150 579 L87 525 L52 525 L11 525 L-4 525 L57 577 L112 623 Q139 646 179 646 Q222 646 239 623 L275 579 L320 525 Z " />
<glyph glyph-name="D" unicode="D" horiz-adv-x="689" d="M379 630 Q539 630 610 532 Q682 434 653 265 Q623 96 517 -3 Q411 -100 252 -100 L-13 -100 L113 630 L379 630 Z M266 -17 Q388 -17 462 58 Q536 133 560 265 Q583 398 535 472 Q485 547 365 547 L192 547 L93 -17 L266 -17 Z " />
<glyph glyph-name="exclam" unicode="&#x21;" horiz-adv-x="205" d="M41 159 Q43 173 45 187.5 Q47 202 50 221 Q53 240 57 264 Q61 288 67 321 L122 629 L217 629 L162 322 Q155 283 146 243.5 Q137 204 128 158 L103 56 L25 56 L41 159 Z M16 -16 L94 -16 L79 -97 L1 -97 L16 -16 Z " />
<glyph glyph-name="quotedbl" unicode="&#x22;" horiz-adv-x="254" d="M5 466 Q1 466 -1 470 Q-3 472 -1 477 L20 523 Q27 542 19 551 Q3 565 8 592 Q13 617 32 632.5 Q51 648 74 648 Q100 648 111.5 631.5 Q123 615 119 592 Q117 575 87 517 Q74 489 54 477 Q35 466 5 466 Z M137 466 Q134 466 133 467 Q132 468 130 470 Q128 472 130 477 L152 523 Q159 542 151 551 Q135 565 140 592 Q145 618 164 633 Q183 648 206 648 Q232 648 243.5 631.5 Q255 615 251 592 Q250 578 219 517 Q206 489 186 477 Q167 466 137 466 Z " />
<glyph glyph-name="numbersign" unicode="&#x23;" horiz-adv-x="624" d="M579 345 L498 345 L436 183 L517 183 L486 102 L405 102 L326 -100 L245 -100 L324 102 L162 102 L83 -100 L2 -100 L80 102 L0 102 L30 183 L112 183 L173 345 L92 345 L123 426 L204 426 L283 629 L364 629 L285 426 L447 426 L527 629 L607 629 L529 426 L610 426 L579 345 L579 345 Z M355 183 L416 345 L254 345 L193 183 L355 183 L355 183 Z " />
<glyph glyph-name="percent" unicode="&#x25;" horiz-adv-x="646" d="M185 362 Q125 362 91 404 Q58 445 67 504 Q78 564 126 605 Q175 647 234 647 Q295 647 328 605 Q361 564 351 504 Q342 445 293 404 Q245 362 185 362 Z M162 563 Q132 536 126 504 Q121 471 141 445 Q160 421 195 421 Q229 421 258 446 Q287 471 292 504 Q298 538 279 563 Q258 587 224 587 Q189 587 162 563 Z M549 135 Q584 92 574 34 Q563 -27 514 -67 Q465 -108 407 -108 Q346 -108 313 -67 Q278 -26 289 34 Q299 94 348 135 Q397 176 456 176 Q516 176 549 135 Z M479 -25 Q509 -1 515 34 Q521 68 500 93 Q480 117 446 117 Q411 117 383 92 Q353 68 348 34 Q342 -1 362 -25 Q383 -49 417 -49 Q452 -49 479 -25 Z M669 634 L51 -96 L12 -96 L-31 -96 L587 634 L626 634 L669 634 Z " />
<glyph glyph-name="quotesingle" unicode="&#x27;" horiz-adv-x="139" d="M24 459 Q20 459 16 463 Q14 466 16 471 L39 516 Q46 535 37 544 Q21 559 26 585 Q31 610 49 625 Q68 641 92 641 Q117 641 129 625 Q143 610 138 585 Q137 572 106 509 Q98 495 90.5 485.5 Q83 476 73 471 Q53 459 24 459 Z " />
<glyph glyph-name="ampersand" unicode="&#x26;" horiz-adv-x="744" d="M675 -16 L661 -99 L623 -99 Q587 -99 555 -83 Q521 -66 501 -39 L486 -18 Q366 -111 216 -111 Q102 -111 42 -49 Q-19 13 -2 116 Q17 233 166 314 L221 345 L213 356 Q156 432 167 493 Q177 560 227 601 Q276 641 347 641 Q421 641 460 601 Q497 560 485 490 Q477 446 444 408 Q427 388 405.5 370.5 Q384 353 358 337 L345 330 L506 112 Q555 172 591 248 Q592 250 593.5 253.5 Q595 257 597 261 L601 269 L676 246 Q629 126 555 46 L570 25 Q600 -16 652 -16 L675 -16 Z M334 567 Q304 567 281 546 Q258 525 253 493 Q251 480 253.5 468.5 Q256 457 261.5 446 Q267 435 274.5 425 Q282 415 290 405 L301 391 L324 403 Q335 409 347.5 417.5 Q360 426 371 437 Q382 448 390 460.5 Q398 473 400 487 Q406 522 388 544 Q370 566 334 567 Z M230 -30 Q343 -30 440 46 L266 283 L191 239 Q173 228 155.5 215 Q138 202 124 187 Q110 172 100 153.5 Q90 135 86 113 Q76 49 116 9 Q156 -30 230 -30 Z " />
<glyph glyph-name="parenleft" unicode="&#x28;" horiz-adv-x="235" d="M83 -213 Q52 -109 42 7 Q35 66 37 122.5 Q39 179 49 236 Q71 364 120.5 479.5 Q170 595 247 699 L295 664 L291 658 Q289 656 287 653 Q285 650 283 648 Q254 611 231 567.5 Q208 524 190 474 Q154 375 130 236 Q121 182 117.5 129 Q114 76 117 22 Q120 -32 126 -78 Q132 -124 142 -165 Q143 -167 143.5 -170.5 Q144 -174 145 -176 Q146 -180 147 -182 L83 -213 Z " />
<glyph glyph-name="parenright" unicode="&#x29;" horiz-adv-x="234" d="M-58 -181 Q-56 -179 -54 -175 Q-52 -172 -50.5 -169 Q-49 -166 -47 -163 Q-23 -123 -1.5 -76.5 Q20 -30 41 23 Q83 131 101 237 Q125 376 122 475 Q120 525 113 568.5 Q106 612 89 649 Q88 651 87 654 Q86 657 85 660 Q83 663 82 666 L142 700 Q226 493 181 237 Q172 181 154.5 124 Q137 67 111 8 Q85 -51 56.5 -106 Q28 -161 -3 -212 L-58 -181 Z " />
<glyph glyph-name="asterisk" unicode="&#x2a;" horiz-adv-x="448" d="M417 483 L268 446 L345 333 L281 291 L223 420 L127 291 L75 333 L186 446 L48 483 L80 551 L209 493 L219 641 L291 641 L258 492 L405 551 L417 483 L417 483 Z " />
<glyph glyph-name="plus" unicode="&#x2b;" horiz-adv-x="564" d="M530 294 L516 213 L316 213 L280 -1 L195 -1 L231 213 L30 213 L44 294 L245 294 L280 506 L365 506 L330 294 L530 294 L530 294 Z " />
<glyph glyph-name="comma" unicode="&#x2c;" horiz-adv-x="127" d="M12 -233 Q6 -233 5 -230 Q3 -227 5 -222 L27 -176 Q34 -158 25 -149 Q11 -133 15 -108 Q20 -84 38 -67 Q57 -52 81 -52 Q106 -52 118 -67 Q132 -84 127 -108 Q126 -116 117.5 -134.5 Q109 -153 94 -184 Q79 -212 61 -222 Q44 -233 12 -233 Z " />
<glyph glyph-name="hyphen" unicode="&#x2d;" horiz-adv-x="434" d="M91 301 L400 301 L386 220 L351 220 L41 220 L55 301 L91 301 L91 301 Z " />
<glyph glyph-name="period" unicode="&#x2e;" horiz-adv-x="120" d="M95 -94 Q75 -109 52 -109 Q27 -109 14 -94 Q2 -79 5 -54 Q10 -29 27 -13 Q46 2 71 2 Q94 2 108 -13 Q120 -30 116 -54 Q113 -76 95 -94 Z " />
<glyph glyph-name="slash" unicode="&#x2f;" horiz-adv-x="569" d="M-44 -203 L535 751 L615 751 L36 -203 L-44 -203 L-44 -203 Z " />
<glyph glyph-name="zero" unicode="0" horiz-adv-x="633" d="M256 -109 Q127 -109 75 -9 Q22 91 53 273 Q85 452 171 549 Q256 646 385 646 Q512 646 565 548 Q619 451 588 273 Q556 89 470 -9 Q385 -109 256 -109 Z M270 -25 Q352 -25 412 53 Q471 134 495 273 Q507 342 504.5 394.5 Q502 447 486 486 Q452 562 371 562 Q287 562 230 486 Q171 411 147 273 Q123 132 156 53 Q187 -25 270 -25 Z " />
<glyph glyph-name="one" unicode="1" horiz-adv-x="297" d="M320 636 L191 -100 L99 -100 L198 465 L46 465 L56 524 L209 524 Q215 542 220 560 Q225 576 230.5 595 Q236 614 241 633 L242 636 L320 636 Z " />
<glyph glyph-name="two" unicode="2" horiz-adv-x="558" d="M133 98 Q119 83 106 66 Q93 49 87 30 Q84 20 81 8.5 Q78 -3 76 -17 L457 -17 L443 -100 L-32 -100 L-18 -17 Q-4 62 44 122 Q70 154 103 175.5 Q136 197 167 215 Q194 230 220.5 243.5 Q247 257 273 271 Q299 286 324 298 Q349 310 373 324 Q406 344 424.5 371.5 Q443 399 448 432 Q459 491 419 524 Q380 557 312 557 Q257 557 215 533 Q173 509 146 459 Q142 453 139 447 Q137 443 135 440 L55 471 Q57 479 62 487.5 Q67 496 74 507 Q106 551 148.5 582 Q191 613 239 629 Q283 643 326 643 Q379 643 419 630 Q489 609 525 550 Q551 492 541 432 Q533 384 513.5 350 Q494 316 465.5 290 Q437 264 401.5 244 Q366 224 326 205 Q302 193 276 181.5 Q250 170 224.5 157.5 Q199 145 175.5 130.5 Q152 116 133 98 Z " />
<glyph glyph-name="three" unicode="3" horiz-adv-x="530" d="M489 226 Q508 177 498 119 Q478 16 396 -46 Q312 -109 200 -109 Q105 -109 50 -61 Q-4 -12 -8 64 L79 92 Q79 91 80 89 Q80 88 82 78 Q98 28 131 2 Q147 -12 168 -18.5 Q189 -25 215 -25 Q287 -25 340 15 Q392 53 404 119 Q416 185 381 222 Q348 259 276 259 L244 259 L194 259 L204 315 L208 335 L228 335 L258 335 L289 335 Q350 335 390 367 Q430 399 440 453 Q448 501 412 531 Q378 562 314 562 Q261 562 222 539 Q183 515 153 465 Q150 460 148.5 456.5 Q147 453 145 451 Q143 448 143 447 L68 474 Q101 553 171 600 Q243 646 330 646 Q430 646 490 592 Q549 538 534 453 Q525 405 496 365 Q465 323 423 300 Q470 271 489 226 Z " />
<glyph glyph-name="four" unicode="4" horiz-adv-x="523" d="M409 136 L496 136 L482 53 L395 53 L368 -100 L274 -100 L301 53 L-14 53 L0 136 L401 631 L495 631 L409 136 Z M315 136 L374 477 L95 136 L315 136 Z " />
<glyph glyph-name="five" unicode="5" horiz-adv-x="563" d="M301 360 Q405 360 466 293 Q524 226 506 124 Q489 22 407 -45 Q324 -113 219 -113 Q126 -113 65 -66 Q6 -18 3 61 L97 92 Q97 87 98 83 Q100 73 100 68 Q107 23 141 -3 Q158 -17 181.5 -23 Q205 -29 234 -29 Q300 -29 350 15 Q404 61 414 124 Q426 189 389 233 Q351 277 287 277 Q247 277 204 261 Q163 245 135 217 L42 217 L145 630 L553 630 L539 546 L217 546 L163 328 Q230 360 301 360 Z " />
<glyph glyph-name="six" unicode="6" horiz-adv-x="580" d="M380 645 Q468 645 525 600 Q582 553 594 468 L503 441 L501 449 Q499 457 499 460 Q489 507 450 534 Q413 562 365 562 Q326 562 293 548 Q261 535 232 503 Q218 487 205.5 466 Q193 445 182 419 Q171 392 162.5 360.5 Q154 329 147 291 Q178 328 229 344 Q280 362 336 362 Q442 362 497 298 Q551 234 535 134 Q517 28 432 -41 Q346 -109 237 -109 Q182 -109 139 -90 Q98 -72 75 -39 Q63 -23 55 -3.5 Q47 16 42 40 Q31 88 33 142 Q34 169 37.5 199 Q41 229 46 262 Q63 362 92 435 Q121 508 164 554 Q246 645 380 645 Z M317 278 Q240 278 188 243 Q138 211 124 137 Q112 65 149 19 Q187 -25 258 -25 Q323 -25 376 17 Q428 59 440 128 Q452 196 418 237 Q383 278 317 278 Z " />
<glyph glyph-name="seven" unicode="7" horiz-adv-x="486" d="M551 631 L537 547 Q529 496 506 448 Q483 400 450 352 Q416 307 379.5 263.5 Q343 220 305 175 Q270 134 237 91.5 Q204 49 174 -3 Q149 -51 137 -100 L24 -100 Q37 -51 66 2 Q94 52 129.5 98 Q165 144 209 195 Q247 238 286.5 282 Q326 326 364 375 Q393 413 417 456 Q441 499 451 547 L60 547 L74 631 L551 631 Z " />
<glyph glyph-name="nine" unicode="9" horiz-adv-x="582" d="M198 -109 Q110 -109 53 -64 Q25 -41 9 -8 Q-7 25 -14 68 L77 96 Q77 92 78 88 Q79 85 79 81.5 Q79 78 80 76 Q89 30 128 2 Q168 -26 214 -26 Q253 -26 286 -12 Q303 -4 317.5 6.5 Q332 17 346 33 Q376 64 397 117 Q408 144 416.5 175.5 Q425 207 433 245 Q400 209 351 192 Q297 174 242 174 Q139 174 82 238 Q29 302 45 402 Q65 510 149 577 Q235 645 343 645 Q398 645 442 626 Q482 608 505 576 Q516 559 524.5 539.5 Q533 520 538 496 Q543 472 545.5 447 Q548 422 546 395 Q545 342 534 274 Q500 75 416 -18 Q330 -109 198 -109 Z M263 258 Q339 258 392 293 Q444 328 456 399 Q468 472 432 517 Q394 561 322 561 Q258 561 204 519 Q151 477 139 408 Q129 341 162 300 Q195 258 263 258 Z " />
<glyph glyph-name="eight" unicode="8" horiz-adv-x="519" d="M406 298 Q454 272 473 226 Q493 178 483 119 Q465 17 386 -47 Q307 -109 196 -109 Q81 -109 24 -47 Q-33 16 -15 119 Q-10 150 1 176.5 Q12 203 30 226 Q70 273 125 298 Q86 321 73 360 Q57 397 66 447 Q81 538 152 591 Q223 646 327 646 Q429 646 480 591 Q530 537 515 447 Q506 397 479 360 Q448 320 406 298 Z M211 -25 Q282 -25 329 14 Q378 54 390 119 Q400 185 367 223 Q331 262 260 262 Q186 262 138 223 Q88 186 77 119 Q65 54 101 14 Q137 -25 211 -25 Z M313 562 Q248 562 208 531 Q167 499 158 447 Q148 394 179 363 Q207 332 273 332 Q335 332 373 363 Q393 378 405 399 Q417 420 422 447 Q431 500 402 531 Q375 562 313 562 Z " />
<glyph glyph-name="colon" unicode="&#x3a;" horiz-adv-x="175" d="M159 408 Q140 392 116 392 Q91 392 79 408 Q65 423 70 448 Q75 472 93 488 Q111 504 135 504 Q157 504 173 488 Q185 471 181 448 Q176 422 159 408 Z M80 -52 Q62 -67 38 -67 Q13 -67 0 -52 Q-12 -35 -8 -12 Q-6 0 -1 10.5 Q4 21 14 29 Q32 44 57 44 Q80 44 94 29 Q106 12 102 -12 Q98 -36 80 -52 Z " />
<glyph glyph-name="semicolon" unicode="&#x3b;" horiz-adv-x="172" d="M158 408 Q141 392 117 392 Q91 392 78 408 Q65 425 69 448 Q73 471 92 488 Q110 503 135 503 Q158 503 172 488 Q185 472 181 448 Q176 422 158 408 Z M-10 -136 Q-16 -136 -17 -133 Q-19 -128 -16 -125 L4 -79 Q13 -62 3 -52 Q-11 -36 -7 -11 Q-2 14 15 30 Q33 45 58 45 Q81 45 95 30 Q109 13 104 -11 Q101 -25 71 -87 Q55 -116 39 -125 Q20 -136 -10 -136 Z " />
<glyph glyph-name="less" unicode="&#x3c;" horiz-adv-x="588" d="M561 455 Q556 453 552 451 Q548 449 544 447.5 Q540 446 538 445 L182 299 L486 153 Q488 151 491.5 150 Q495 149 498 147 L506 143 L490 53 L42 271 L52 329 L577 544 L561 455 Z " />
<glyph glyph-name="equal" unicode="&#x3d;" horiz-adv-x="635" d="M86 326 L99 407 L586 407 L573 326 L86 326 L86 326 Z M60 163 L73 245 L560 245 L547 163 L60 163 L60 163 Z " />
<glyph glyph-name="greater" unicode="&#x3e;" horiz-adv-x="590" d="M110 544 L560 329 L550 271 L26 53 L41 143 Q46 145 50 147 Q54 149 58 150 Q62 151 65 153 L419 299 L115 445 Q113 446 109 447.5 Q105 449 102 451 Q98 453 94 455 L110 544 Z " />
<glyph glyph-name="question" unicode="&#x3f;" horiz-adv-x="473" d="M449 587 Q501 535 486 447 Q480 413 467 388 Q454 361 434 341 Q418 322 395 304 Q384 295 373.5 286.5 Q363 278 352 269 Q341 261 330.5 252.5 Q320 244 310 235 Q300 227 291 216.5 Q282 206 274 195 Q257 172 246 144 L240 126 L221 73 L205 73 L154 73 L163 126 L166 145 Q170 174 186 202 Q200 229 219 249 Q229 260 239 269.5 Q249 279 260 289 Q271 299 282 308 Q293 317 304 327 Q315 336 325 345 Q335 354 345 363 Q354 372 362.5 382 Q371 392 377 403 Q390 424 395 447 Q404 498 372 530 Q340 561 279 561 Q256 561 232 553 Q210 546 192 533 Q184 528 177 521 Q170 514 163 506 Q156 498 151 491 Q146 484 142 477 Q137 470 134.5 463.5 Q132 457 128 450 Q126 445 125 441.5 Q124 438 123 436 Q122 433 121 431 L42 447 Q46 464 57 487 Q70 511 90 537 Q101 551 113.5 563.5 Q126 576 140 587 Q168 611 207 625 Q249 640 293 640 Q396 640 449 587 Z M135 -16 L213 -16 L200 -97 L122 -97 L135 -16 Z " />
<glyph glyph-name="caron" unicode="&#x2c7;" horiz-adv-x="349" d="M226 531 Q200 508 158 508 Q120 508 99 531 L61 577 L18 629 L34 629 L75 629 L110 629 L154 575 L168 559 L188 575 L251 629 L287 629 L327 629 L343 629 L279 575 L226 531 Z " />
<glyph glyph-name="at" unicode="&#x40;" horiz-adv-x="970" d="M936 344 Q957 260 942 167 Q933 116 915 77 Q907 57 896 39 Q885 21 870 7 Q845 -17 821 -31.5 Q797 -46 775 -53 Q753 -60 733 -61 Q713 -62 697 -59 Q657 -52 625 -27 Q623 -29 621.5 -30.5 Q620 -32 618 -34 Q584 -70 537 -93 Q487 -117 437 -117 Q316 -117 262 -42 Q206 35 228 164 Q250 297 330 374 Q409 450 529 450 Q630 450 686 379 Q688 378 688 376.5 Q688 375 690 373 L699 426 L786 426 L719 37 Q717 25 726 19.5 Q735 14 749 16.5 Q763 19 779.5 28 Q796 37 810 54 Q827 74 837.5 102 Q848 130 855 167 Q872 271 838 355 Q829 379 819.5 395 Q810 411 795 432 L784 445 Q771 459 758 469.5 Q745 480 728 491 Q653 541 550 541 Q499 541 450 529 Q401 517 354 491 Q260 442 197 355 Q133 269 117 167 Q103 89 121 21 Q137 -49 177 -99 Q198 -124 224 -144 Q250 -164 282 -179 Q313 -194 348.5 -201 Q384 -208 422 -208 Q551 -208 663 -132 Q667 -129 670.5 -127 Q674 -125 676 -123 Q679 -121 681 -119 L723 -180 Q575 -290 408 -290 Q315 -290 236 -254 Q156 -217 107 -156 Q81 -126 63.5 -89.5 Q46 -53 34 -11 Q13 75 29 167 Q44 260 95 344 Q148 430 218 490 Q290 552 379 587 Q472 623 564 623 Q657 623 735 587 Q812 552 864 490 Q915 428 936 344 Z M656 174 Q673 271 634 320 Q598 371 516 371 Q435 371 384 317 Q334 264 317 167 Q300 69 335 17 Q371 -38 451 -38 Q476 -38 495 -34 Q544 -23 577 7 Q580 9 585 14 Q637 64 655 167 L656 174 Z " />
<glyph glyph-name="bracketleft" unicode="&#x5b;" horiz-adv-x="274" d="M267 721 L314 721 L304 660 L300 640 L280 640 L253 640 L204 640 L67 -151 L121 -151 L143 -151 L163 -151 L159 -172 L149 -233 L107 -233 L-32 -233 L132 721 L267 721 L267 721 Z " />
<glyph glyph-name="grave" unicode="&#x60;" horiz-adv-x="249" d="M228 508 L144 508 L48 629 L155 629 L228 508 Z " />
<glyph glyph-name="dollar" unicode="&#x24;" horiz-adv-x="577" d="M513 251 Q564 199 550 115 Q532 13 459 -42 Q423 -69 375.5 -84.5 Q328 -100 271 -104 L252 -214 L167 -214 L186 -105 Q149 -102 118 -95 Q87 -88 61 -76 Q11 -52 -31 -6 L40 57 Q67 24 110 3 Q153 -18 201 -20 L249 261 L238 263 Q38 304 62 452 Q79 543 146 590 Q210 637 314 645 L330 735 L415 735 L399 644 Q517 631 592 547 L519 483 Q517 485 514 487 Q508 491 506 493 Q440 542 384 557 L345 330 Q404 316 446 296.5 Q488 277 513 251 Z M264 348 L300 561 Q170 549 154 452 Q148 417 175 390 Q200 362 256 350 L264 348 Z M388 18 Q446 57 455 113 Q462 156 428 194 Q398 227 331 244 L286 -20 Q315 -16 341 -7 Q367 2 388 18 Z " />
<glyph glyph-name="tilde" unicode="&#x2dc;" horiz-adv-x="595" d="M392 458 Q369 458 351 470 Q331 482 319 499.5 Q307 517 296 534 Q288 548 275 561.5 Q262 575 245 575 Q230 575 218 568.5 Q206 562 197 552 Q188 542 181.5 529.5 Q175 517 170 505 Q167 500 165 493 Q164 489 163 486 L97 497 Q107 525 121.5 552.5 Q136 580 156 602 Q176 624 201 637 Q226 650 258 650 Q284 650 302.5 638 Q321 626 334 609 Q346 591 355.5 574.5 Q365 558 379 545 Q392 532 412.5 533 Q433 534 448 547 Q457 553 465.5 567 Q474 581 484 602 Q486 608 489 614 Q491 618 492 622 L555 609 Q530 538 488 497 Q446 458 392 458 Z " />
<glyph glyph-name="cedilla" unicode="&#xb8;" horiz-adv-x="245" d="M205 -152 Q223 -169 217 -204 Q210 -244 178 -264 Q148 -285 105 -285 L65 -285 L21 -285 L32 -227 L58 -227 L76 -227 L123 -227 Q139 -227 147 -221 Q154 -214 155 -206 Q156 -202 151 -195 Q144 -190 137 -190 L95 -190 Q77 -190 68 -178 Q60 -167 66 -150 L84 -100 L123 -103 L113 -134 L148 -134 Q187 -134 205 -152 Z " />
<glyph glyph-name="dieresis" unicode="&#xa8;" horiz-adv-x="273" d="M21 611 L99 611 L84 530 L6 530 L21 611 L21 611 Z M188 611 L267 611 L252 530 L173 530 L188 611 L188 611 Z " />
<glyph glyph-name="Ydieresis" unicode="&#x178;" horiz-adv-x="579" d="M650 629 L335 250 L277 -100 L184 -100 L242 250 L52 629 L166 629 L304 340 L541 629 L650 629 L650 629 Z M274 806 L352 806 L337 725 L259 725 L274 806 L274 806 Z M441 806 L520 806 L505 725 L426 725 L441 806 L441 806 Z " />
<glyph glyph-name="Edieresis" unicode="&#xcb;" horiz-adv-x="539" d="M565 546 L202 546 L162 315 L517 315 L502 233 L147 233 L103 -17 L466 -17 L451 -100 L-4 -100 L124 629 L580 629 L565 546 L565 546 Z M291 809 L369 809 L354 728 L276 728 L291 809 L291 809 Z M458 809 L537 809 L522 728 L443 728 L458 809 L458 809 Z " />
<glyph glyph-name="Adieresis" unicode="&#xc4;" horiz-adv-x="614" d="M461 -100 L419 113 L136 113 L22 -100 L-74 -100 L318 630 L417 630 L561 -100 L461 -100 Z M181 195 L402 195 Q388 266 378.5 316.5 Q369 367 362.5 401 Q356 435 352 454.5 Q348 474 346.5 484 Q345 494 344.5 497 Q344 500 344 500 L181 195 Z M277 813 L355 813 L340 732 L262 732 L277 813 L277 813 Z M444 813 L523 813 L508 732 L429 732 L444 813 L444 813 Z " />
<glyph glyph-name="Odieresis" unicode="&#xd6;" horiz-adv-x="774" d="M324 -109 Q218 -109 148 -60 Q77 -9 54 74 Q42 116 40 162 Q38 208 47 264 Q57 321 74.5 369.5 Q92 418 119 460 Q171 544 256 593 Q343 641 447 641 Q554 641 623 593 Q693 544 717 460 Q741 375 723 264 Q714 207 696.5 160 Q679 113 652 71 Q598 -15 514 -61 Q428 -109 324 -109 Z M337 -25 Q402 -25 450 -3 Q503 20 539 61 Q575 102 597 151 Q608 178 616.5 205 Q625 232 630 264 Q641 331 635 382 Q629 434 605 475 Q581 516 538 536 Q497 558 434 558 Q374 558 322 535 Q269 514 232.5 471.5 Q196 429 174 381 Q163 354 154 325 Q145 296 140 264 Q131 207 135.5 157.5 Q140 108 162 63 Q179 34 203 15.5 Q227 -3 256 -13 Q292 -25 337 -25 Z M390 811 L468 811 L453 730 L375 730 L390 811 L390 811 Z M557 811 L636 811 L621 730 L542 730 L557 811 L557 811 Z " />
<glyph glyph-name="Udieresis" unicode="&#xdc;" horiz-adv-x="615" d="M332 -100 Q291 -109 243 -109 Q196 -109 157 -100 Q119 -92 87 -71 Q56 -51 35 -16 Q18 16 12 72 Q10 99 11.5 130.5 Q13 162 20 197 L95 630 L188 630 L114 197 Q94 88 127 32 Q158 -25 258 -25 Q355 -25 408 32 Q460 90 479 197 L554 630 L647 630 L572 197 Q565 162 556.5 130.5 Q548 99 536 72 Q524 45 510 23 Q496 1 481 -16 Q452 -49 412 -71 Q392 -82 372 -89 Q352 -96 332 -100 Z M280 811 L358 811 L343 730 L265 730 L280 811 L280 811 Z M447 811 L526 811 L511 730 L432 730 L447 811 L447 811 Z " />
<glyph glyph-name="adieresis" unicode="&#xe4;" horiz-adv-x="582" d="M586 448 L494 -99 L411 -99 L424 -18 Q386 -59 336 -84 Q287 -109 235 -109 Q115 -109 60 -33 Q5 41 26 171 Q48 304 127 381 Q207 458 325 458 Q430 458 487 381 L499 448 L586 448 Z M454 181 Q469 278 431 328 Q393 379 312 379 Q233 379 181 325 Q129 268 114 174 Q98 82 133 25 Q170 -30 248 -30 Q329 -30 383 22 Q435 74 453 174 L454 181 Z M244 613 L322 613 L307 532 L229 532 L244 613 L244 613 Z M411 613 L490 613 L475 532 L396 532 L411 613 L411 613 Z " />
<glyph glyph-name="edieresis" unicode="&#xeb;" horiz-adv-x="573" d="M339 458 Q402 458 447.5 436.5 Q493 415 520 376.5 Q547 338 556.5 285 Q566 232 558 170 L553 143 L107 143 Q105 107 113.5 76 Q122 45 141 21.5 Q160 -2 189.5 -15 Q219 -28 259 -28 Q318 -27 364.5 3.5 Q411 34 444 88 L525 66 Q483 -15 409.5 -62 Q336 -109 246 -109 Q186 -109 140 -89 Q94 -69 65 -32 Q36 5 25 56 Q14 107 24 170 Q34 229 60 281.5 Q86 334 126.5 373 Q167 412 220.5 435 Q274 458 339 458 Z M475 224 Q475 256 464.5 284 Q454 312 435 332.5 Q416 353 388.5 365 Q361 377 326 377 Q257 377 204 335 Q151 293 126 224 L475 224 Z M240 611 L318 611 L303 530 L225 530 L240 611 L240 611 Z M407 611 L486 611 L471 530 L392 530 L407 611 L407 611 Z " />
<glyph glyph-name="odieresis" unicode="&#xf6;" horiz-adv-x="573" d="M239 -109 Q120 -109 64 -32 Q36 6 27.5 56 Q19 106 30 172 Q52 303 135 381 Q217 458 336 458 Q456 458 510 381 Q566 303 543 172 Q532 106 506.5 56 Q481 6 439 -32 Q359 -109 239 -109 Z M253 -28 Q333 -28 386 27 Q414 55 431 89.5 Q448 124 456 172 Q472 265 437 322 Q403 377 322 377 Q242 377 188 322 Q134 268 117 172 Q109 124 114.5 89.5 Q120 55 137 27 Q174 -28 253 -28 Z M242 613 L320 613 L305 532 L227 532 L242 613 L242 613 Z M409 613 L488 613 L473 532 L394 532 L409 613 L409 613 Z " />
<glyph glyph-name="udieresis" unicode="&#xfc;" horiz-adv-x="504" d="M537 448 L444 -100 L361 -100 L374 -22 Q302 -109 200 -109 Q88 -109 50 -50 Q10 8 29 125 L84 448 L171 448 L116 125 Q103 43 122 6 Q141 -30 213 -30 Q291 -30 336 9 Q382 49 395 125 L450 448 L537 448 Z M220 611 L298 611 L283 530 L205 530 L220 611 L220 611 Z M387 611 L466 611 L451 530 L372 530 L387 611 L387 611 Z " />
<glyph glyph-name="acute" unicode="&#xb4;" horiz-adv-x="219" d="M115 629 L222 629 L84 508 L1 508 L115 629 Z " />
<glyph glyph-name="Aacute" unicode="&#xc1;" horiz-adv-x="614" d="M461 -100 L419 113 L136 113 L22 -100 L-74 -100 L318 630 L417 630 L561 -100 L461 -100 Z M181 195 L402 195 Q388 266 378.5 316.5 Q369 367 362.5 401 Q356 435 352 454.5 Q348 474 346.5 484 Q345 494 344.5 497 Q344 500 344 500 L181 195 Z M401 829 L508 829 L370 708 L287 708 L401 829 Z " />
<glyph glyph-name="Eacute" unicode="&#xc9;" horiz-adv-x="539" d="M565 546 L202 546 L162 315 L517 315 L502 233 L147 233 L103 -17 L466 -17 L451 -100 L-4 -100 L124 629 L580 629 L565 546 L565 546 Z M373 827 L480 827 L342 706 L259 706 L373 827 Z " />
<glyph glyph-name="Iacute" unicode="&#xcd;" horiz-adv-x="225" d="M-28 -100 L98 629 L191 629 L64 -100 L-28 -100 L-28 -100 Z M141 827 L248 827 L110 706 L27 706 L141 827 Z " />
<glyph glyph-name="Oacute" unicode="&#xd3;" horiz-adv-x="774" d="M324 -109 Q218 -109 148 -60 Q77 -9 54 74 Q42 116 40 162 Q38 208 47 264 Q57 321 74.5 369.5 Q92 418 119 460 Q171 544 256 593 Q343 641 447 641 Q554 641 623 593 Q693 544 717 460 Q741 375 723 264 Q714 207 696.5 160 Q679 113 652 71 Q598 -15 514 -61 Q428 -109 324 -109 Z M337 -25 Q402 -25 450 -3 Q503 20 539 61 Q575 102 597 151 Q608 178 616.5 205 Q625 232 630 264 Q641 331 635 382 Q629 434 605 475 Q581 516 538 536 Q497 558 434 558 Q374 558 322 535 Q269 514 232.5 471.5 Q196 429 174 381 Q163 354 154 325 Q145 296 140 264 Q131 207 135.5 157.5 Q140 108 162 63 Q179 34 203 15.5 Q227 -3 256 -13 Q292 -25 337 -25 Z M481 829 L588 829 L450 708 L367 708 L481 829 Z " />
<glyph glyph-name="Uacute" unicode="&#xda;" horiz-adv-x="615" d="M332 -100 Q291 -109 243 -109 Q196 -109 157 -100 Q119 -92 87 -71 Q56 -51 35 -16 Q18 16 12 72 Q10 99 11.5 130.5 Q13 162 20 197 L95 630 L188 630 L114 197 Q94 88 127 32 Q158 -25 258 -25 Q355 -25 408 32 Q460 90 479 197 L554 630 L647 630 L572 197 Q565 162 556.5 130.5 Q548 99 536 72 Q524 45 510 23 Q496 1 481 -16 Q452 -49 412 -71 Q392 -82 372 -89 Q352 -96 332 -100 Z M395 829 L502 829 L364 708 L281 708 L395 829 Z " />
<glyph glyph-name="Yacute" unicode="&#xdd;" horiz-adv-x="579" d="M650 629 L335 250 L277 -100 L184 -100 L242 250 L52 629 L166 629 L304 340 L541 629 L650 629 L650 629 Z M364 829 L471 829 L333 708 L250 708 L364 829 Z " />
<glyph glyph-name="yacute" unicode="&#xfd;" horiz-adv-x="482" d="M556 448 L205 -186 Q182 -226 144 -253 Q106 -280 60 -282 L10 -282 L24 -201 L74 -201 Q93 -201 108.5 -185.5 Q124 -170 134 -153 L163 -98 L53 448 L146 448 L229 22 L460 448 L556 448 Z M325 629 L432 629 L294 508 L211 508 L325 629 Z " />
<glyph glyph-name="uacute" unicode="&#xfa;" horiz-adv-x="504" d="M537 448 L444 -100 L361 -100 L374 -22 Q302 -109 200 -109 Q88 -109 50 -50 Q10 8 29 125 L84 448 L171 448 L116 125 Q103 43 122 6 Q141 -30 213 -30 Q291 -30 336 9 Q382 49 395 125 L450 448 L537 448 Z M327 629 L434 629 L296 508 L213 508 L327 629 Z " />
<glyph glyph-name="oacute" unicode="&#xf3;" horiz-adv-x="573" d="M239 -109 Q120 -109 64 -32 Q36 6 27.5 56 Q19 106 30 172 Q52 303 135 381 Q217 458 336 458 Q456 458 510 381 Q566 303 543 172 Q532 106 506.5 56 Q481 6 439 -32 Q359 -109 239 -109 Z M253 -28 Q333 -28 386 27 Q414 55 431 89.5 Q448 124 456 172 Q472 265 437 322 Q403 377 322 377 Q242 377 188 322 Q134 268 117 172 Q109 124 114.5 89.5 Q120 55 137 27 Q174 -28 253 -28 Z M357 629 L464 629 L326 508 L243 508 L357 629 Z " />
<glyph glyph-name="aacute" unicode="&#xe1;" horiz-adv-x="582" d="M586 448 L494 -99 L411 -99 L424 -18 Q386 -59 336 -84 Q287 -109 235 -109 Q115 -109 60 -33 Q5 41 26 171 Q48 304 127 381 Q207 458 325 458 Q430 458 487 381 L499 448 L586 448 Z M454 181 Q469 278 431 328 Q393 379 312 379 Q233 379 181 325 Q129 268 114 174 Q98 82 133 25 Q170 -30 248 -30 Q329 -30 383 22 Q435 74 453 174 L454 181 Z M356 629 L463 629 L325 508 L242 508 L356 629 Z " />
<glyph glyph-name="ring" unicode="&#x2da;" horiz-adv-x="224" d="M97 496 Q66 497 48 517 Q30 537 35 568 Q41 600 67.5 621 Q94 642 124 642 Q156 642 173.5 620.5 Q191 599 185 568 Q182 552 173.5 539 Q165 526 153 516.5 Q141 507 126.5 501.5 Q112 496 97 496 Z M105 539 Q118 540 127.5 548 Q137 556 139 568 Q142 582 135 590 Q128 598 116 598 Q102 598 93 588.5 Q84 579 82 568 Q80 555 87 547 Q94 539 105 539 Z " />
<glyph glyph-name="Aring" unicode="&#xc5;" horiz-adv-x="614" d="M461 -100 L419 113 L136 113 L22 -100 L-74 -100 L318 630 L417 630 L561 -100 L461 -100 Z M181 195 L402 195 Q388 266 378.5 316.5 Q369 367 362.5 401 Q356 435 352 454.5 Q348 474 346.5 484 Q345 494 344.5 497 Q344 500 344 500 L181 195 Z M374 696 Q343 697 325 717 Q307 737 312 768 Q318 800 344.5 821 Q371 842 401 842 Q433 842 450.5 820.5 Q468 799 462 768 Q459 752 450.5 739 Q442 726 430 716.5 Q418 707 403.5 701.5 Q389 696 374 696 Z M382 739 Q395 740 404.5 748 Q414 756 416 768 Q419 782 412 790 Q405 798 393 798 Q379 798 370 788.5 Q361 779 359 768 Q357 755 364 747 Q371 739 382 739 Z " />
<glyph glyph-name="aring" unicode="&#xe5;" horiz-adv-x="582" d="M586 448 L494 -99 L411 -99 L424 -18 Q386 -59 336 -84 Q287 -109 235 -109 Q115 -109 60 -33 Q5 41 26 171 Q48 304 127 381 Q207 458 325 458 Q430 458 487 381 L499 448 L586 448 Z M454 181 Q469 278 431 328 Q393 379 312 379 Q233 379 181 325 Q129 268 114 174 Q98 82 133 25 Q170 -30 248 -30 Q329 -30 383 22 Q435 74 453 174 L454 181 Z M347 494 Q316 495 298 515 Q280 535 285 566 Q291 598 317.5 619 Q344 640 374 640 Q406 640 423.5 618.5 Q441 597 435 566 Q432 550 423.5 537 Q415 524 403 514.5 Q391 505 376.5 499.5 Q362 494 347 494 Z M355 537 Q368 538 377.5 546 Q387 554 389 566 Q392 580 385 588 Q378 596 366 596 Q352 596 343 586.5 Q334 577 332 566 Q330 553 337 545 Q344 537 355 537 Z " />
<glyph glyph-name="Ecircumflex" unicode="&#xca;" horiz-adv-x="539" d="M565 546 L202 546 L162 315 L517 315 L502 233 L147 233 L103 -17 L466 -17 L451 -100 L-4 -100 L124 629 L580 629 L565 546 L565 546 Z M531 721 L515 721 L475 721 L439 721 L395 775 L381 792 L361 775 L298 721 L263 721 L222 721 L207 721 L268 773 L323 819 Q350 842 390 842 Q433 842 450 819 L486 775 L531 721 Z " />
<glyph glyph-name="ucircumflex" unicode="&#xfb;" horiz-adv-x="504" d="M537 448 L444 -100 L361 -100 L374 -22 Q302 -109 200 -109 Q88 -109 50 -50 Q10 8 29 125 L84 448 L171 448 L116 125 Q103 43 122 6 Q141 -30 213 -30 Q291 -30 336 9 Q382 49 395 125 L450 448 L537 448 Z M479 523 L463 523 L423 523 L387 523 L343 577 L329 594 L309 577 L246 523 L211 523 L170 523 L155 523 L216 575 L271 621 Q298 644 338 644 Q381 644 398 621 L434 577 L479 523 Z " />
<glyph glyph-name="ocircumflex" unicode="&#xf4;" horiz-adv-x="573" d="M239 -109 Q120 -109 64 -32 Q36 6 27.5 56 Q19 106 30 172 Q52 303 135 381 Q217 458 336 458 Q456 458 510 381 Q566 303 543 172 Q532 106 506.5 56 Q481 6 439 -32 Q359 -109 239 -109 Z M253 -28 Q333 -28 386 27 Q414 55 431 89.5 Q448 124 456 172 Q472 265 437 322 Q403 377 322 377 Q242 377 188 322 Q134 268 117 172 Q109 124 114.5 89.5 Q120 55 137 27 Q174 -28 253 -28 Z M522 521 L506 521 L466 521 L430 521 L386 575 L372 592 L352 575 L289 521 L254 521 L213 521 L198 521 L259 573 L314 619 Q341 642 381 642 Q424 642 441 619 L477 575 L522 521 Z " />
<glyph glyph-name="acircumflex" unicode="&#xe2;" horiz-adv-x="582" d="M586 448 L494 -99 L411 -99 L424 -18 Q386 -59 336 -84 Q287 -109 235 -109 Q115 -109 60 -33 Q5 41 26 171 Q48 304 127 381 Q207 458 325 458 Q430 458 487 381 L499 448 L586 448 Z M454 181 Q469 278 431 328 Q393 379 312 379 Q233 379 181 325 Q129 268 114 174 Q98 82 133 25 Q170 -30 248 -30 Q329 -30 383 22 Q435 74 453 174 L454 181 Z M515 525 L499 525 L459 525 L423 525 L379 579 L365 596 L345 579 L282 525 L247 525 L206 525 L191 525 L252 577 L307 623 Q334 646 374 646 Q417 646 434 623 L470 579 L515 525 Z " />
<glyph glyph-name="Acircumflex" unicode="&#xc2;" horiz-adv-x="614" d="M461 -100 L419 113 L136 113 L22 -100 L-74 -100 L318 630 L417 630 L561 -100 L461 -100 Z M181 195 L402 195 Q388 266 378.5 316.5 Q369 367 362.5 401 Q356 435 352 454.5 Q348 474 346.5 484 Q345 494 344.5 497 Q344 500 344 500 L181 195 Z M538 725 L522 725 L482 725 L446 725 L402 779 L388 796 L368 779 L305 725 L270 725 L229 725 L214 725 L275 777 L330 823 Q357 846 397 846 Q440 846 457 823 L493 779 L538 725 Z " />
<glyph glyph-name="ecircumflex" unicode="&#xea;" horiz-adv-x="573" d="M339 458 Q402 458 447.5 436.5 Q493 415 520 376.5 Q547 338 556.5 285 Q566 232 558 170 L553 143 L107 143 Q105 107 113.5 76 Q122 45 141 21.5 Q160 -2 189.5 -15 Q219 -28 259 -28 Q318 -27 364.5 3.5 Q411 34 444 88 L525 66 Q483 -15 409.5 -62 Q336 -109 246 -109 Q186 -109 140 -89 Q94 -69 65 -32 Q36 5 25 56 Q14 107 24 170 Q34 229 60 281.5 Q86 334 126.5 373 Q167 412 220.5 435 Q274 458 339 458 Z M475 224 Q475 256 464.5 284 Q454 312 435 332.5 Q416 353 388.5 365 Q361 377 326 377 Q257 377 204 335 Q151 293 126 224 L475 224 Z M513 525 L497 525 L457 525 L421 525 L377 579 L363 596 L343 579 L280 525 L245 525 L204 525 L189 525 L250 577 L305 623 Q332 646 372 646 Q415 646 432 623 L468 579 L513 525 Z " />
<glyph glyph-name="Otilde" unicode="&#xd5;" horiz-adv-x="774" d="M324 -109 Q218 -109 148 -60 Q77 -9 54 74 Q42 116 40 162 Q38 208 47 264 Q57 321 74.5 369.5 Q92 418 119 460 Q171 544 256 593 Q343 641 447 641 Q554 641 623 593 Q693 544 717 460 Q741 375 723 264 Q714 207 696.5 160 Q679 113 652 71 Q598 -15 514 -61 Q428 -109 324 -109 Z M337 -25 Q402 -25 450 -3 Q503 20 539 61 Q575 102 597 151 Q608 178 616.5 205 Q625 232 630 264 Q641 331 635 382 Q629 434 605 475 Q581 516 538 536 Q497 558 434 558 Q374 558 322 535 Q269 514 232.5 471.5 Q196 429 174 381 Q163 354 154 325 Q145 296 140 264 Q131 207 135.5 157.5 Q140 108 162 63 Q179 34 203 15.5 Q227 -3 256 -13 Q292 -25 337 -25 Z M572 664 Q549 664 531 676 Q511 688 499 705.5 Q487 723 476 740 Q468 754 455 767.5 Q442 781 425 781 Q410 781 398 774.5 Q386 768 377 758 Q368 748 361.5 735.5 Q355 723 350 711 Q347 706 345 699 Q344 695 343 692 L277 703 Q287 731 301.5 758.5 Q316 786 336 808 Q356 830 381 843 Q406 856 438 856 Q464 856 482.5 844 Q501 832 514 815 Q526 797 535.5 780.5 Q545 764 559 751 Q572 738 592.5 739 Q613 740 628 753 Q637 759 645.5 773 Q654 787 664 808 Q666 814 669 820 Q671 824 672 828 L735 815 Q710 744 668 703 Q626 664 572 664 Z " />
<glyph glyph-name="Atilde" unicode="&#xc3;" horiz-adv-x="614" d="M461 -100 L419 113 L136 113 L22 -100 L-74 -100 L318 630 L417 630 L561 -100 L461 -100 Z M181 195 L402 195 Q388 266 378.5 316.5 Q369 367 362.5 401 Q356 435 352 454.5 Q348 474 346.5 484 Q345 494 344.5 497 Q344 500 344 500 L181 195 Z M462 658 Q439 658 421 670 Q401 682 389 699.5 Q377 717 366 734 Q358 748 345 761.5 Q332 775 315 775 Q300 775 288 768.5 Q276 762 267 752 Q258 742 251.5 729.5 Q245 717 240 705 Q237 700 235 693 Q234 689 233 686 L167 697 Q177 725 191.5 752.5 Q206 780 226 802 Q246 824 271 837 Q296 850 328 850 Q354 850 372.5 838 Q391 826 404 809 Q416 791 425.5 774.5 Q435 758 449 745 Q462 732 482.5 733 Q503 734 518 747 Q527 753 535.5 767 Q544 781 554 802 Q556 808 559 814 Q561 818 562 822 L625 809 Q600 738 558 697 Q516 658 462 658 Z " />
<glyph glyph-name="atilde" unicode="&#xe3;" horiz-adv-x="582" d="M586 448 L494 -99 L411 -99 L424 -18 Q386 -59 336 -84 Q287 -109 235 -109 Q115 -109 60 -33 Q5 41 26 171 Q48 304 127 381 Q207 458 325 458 Q430 458 487 381 L499 448 L586 448 Z M454 181 Q469 278 431 328 Q393 379 312 379 Q233 379 181 325 Q129 268 114 174 Q98 82 133 25 Q170 -30 248 -30 Q329 -30 383 22 Q435 74 453 174 L454 181 Z M434 458 Q411 458 393 470 Q373 482 361 499.5 Q349 517 338 534 Q330 548 317 561.5 Q304 575 287 575 Q272 575 260 568.5 Q248 562 239 552 Q230 542 223.5 529.5 Q217 517 212 505 Q209 500 207 493 Q206 489 205 486 L139 497 Q149 525 163.5 552.5 Q178 580 198 602 Q218 624 243 637 Q268 650 300 650 Q326 650 344.5 638 Q363 626 376 609 Q388 591 397.5 574.5 Q407 558 421 545 Q434 532 454.5 533 Q475 534 490 547 Q499 553 507.5 567 Q516 581 526 602 Q528 608 531 614 Q533 618 534 622 L597 609 Q572 538 530 497 Q488 458 434 458 Z " />
<glyph glyph-name="ntilde" unicode="&#xf1;" horiz-adv-x="497" d="M483 399 Q524 340 503 224 L447 -100 L360 -100 L416 224 Q431 305 411 342 Q392 379 319 379 Q241 379 195 339 Q173 319 158 290.5 Q143 262 136 224 L80 -100 L-6 -100 L89 448 L171 448 L158 371 Q230 458 333 458 Q444 458 483 399 Z M383 464 Q360 464 342 476 Q322 488 310 505.5 Q298 523 287 540 Q279 554 266 567.5 Q253 581 236 581 Q221 581 209 574.5 Q197 568 188 558 Q179 548 172.5 535.5 Q166 523 161 511 Q158 506 156 499 Q155 495 154 492 L88 503 Q98 531 112.5 558.5 Q127 586 147 608 Q167 630 192 643 Q217 656 249 656 Q275 656 293.5 644 Q312 632 325 615 Q337 597 346.5 580.5 Q356 564 370 551 Q383 538 403.5 539 Q424 540 439 553 Q448 559 456.5 573 Q465 587 475 608 Q477 614 480 620 Q482 624 483 628 L546 615 Q521 544 479 503 Q437 464 383 464 Z " />
<glyph glyph-name="otilde" unicode="&#xf5;" horiz-adv-x="573" d="M239 -109 Q120 -109 64 -32 Q36 6 27.5 56 Q19 106 30 172 Q52 303 135 381 Q217 458 336 458 Q456 458 510 381 Q566 303 543 172 Q532 106 506.5 56 Q481 6 439 -32 Q359 -109 239 -109 Z M253 -28 Q333 -28 386 27 Q414 55 431 89.5 Q448 124 456 172 Q472 265 437 322 Q403 377 322 377 Q242 377 188 322 Q134 268 117 172 Q109 124 114.5 89.5 Q120 55 137 27 Q174 -28 253 -28 Z M439 458 Q416 458 398 470 Q378 482 366 499.5 Q354 517 343 534 Q335 548 322 561.5 Q309 575 292 575 Q277 575 265 568.5 Q253 562 244 552 Q235 542 228.5 529.5 Q222 517 217 505 Q214 500 212 493 Q211 489 210 486 L144 497 Q154 525 168.5 552.5 Q183 580 203 602 Q223 624 248 637 Q273 650 305 650 Q331 650 349.5 638 Q368 626 381 609 Q393 591 402.5 574.5 Q412 558 426 545 Q439 532 459.5 533 Q480 534 495 547 Q504 553 512.5 567 Q521 581 531 602 Q533 608 536 614 Q538 618 539 622 L602 609 Q577 538 535 497 Q493 458 439 458 Z " />
<glyph glyph-name="Ntilde" unicode="&#xd1;" horiz-adv-x="601" d="M571 630 L664 630 L535 -100 L432 -100 L152 487 L48 -100 L-44 -100 L84 630 L188 630 L467 43 L571 630 L571 630 Z M457 654 Q434 654 416 666 Q396 678 384 695.5 Q372 713 361 730 Q353 744 340 757.5 Q327 771 310 771 Q295 771 283 764.5 Q271 758 262 748 Q253 738 246.5 725.5 Q240 713 235 701 Q232 696 230 689 Q229 685 228 682 L162 693 Q172 721 186.5 748.5 Q201 776 221 798 Q241 820 266 833 Q291 846 323 846 Q349 846 367.5 834 Q386 822 399 805 Q411 787 420.5 770.5 Q430 754 444 741 Q457 728 477.5 729 Q498 730 513 743 Q522 749 530.5 763 Q539 777 549 798 Q551 804 554 810 Q556 814 557 818 L620 805 Q595 734 553 693 Q511 654 457 654 Z " />
<glyph glyph-name="Agrave" unicode="&#xc0;" horiz-adv-x="614" d="M461 -100 L419 113 L136 113 L22 -100 L-74 -100 L318 630 L417 630 L561 -100 L461 -100 Z M181 195 L402 195 Q388 266 378.5 316.5 Q369 367 362.5 401 Q356 435 352 454.5 Q348 474 346.5 484 Q345 494 344.5 497 Q344 500 344 500 L181 195 Z M450 706 L366 706 L270 827 L377 827 L450 706 Z " />
<glyph glyph-name="Ograve" unicode="&#xd2;" horiz-adv-x="774" d="M324 -109 Q218 -109 148 -60 Q77 -9 54 74 Q42 116 40 162 Q38 208 47 264 Q57 321 74.5 369.5 Q92 418 119 460 Q171 544 256 593 Q343 641 447 641 Q554 641 623 593 Q693 544 717 460 Q741 375 723 264 Q714 207 696.5 160 Q679 113 652 71 Q598 -15 514 -61 Q428 -109 324 -109 Z M337 -25 Q402 -25 450 -3 Q503 20 539 61 Q575 102 597 151 Q608 178 616.5 205 Q625 232 630 264 Q641 331 635 382 Q629 434 605 475 Q581 516 538 536 Q497 558 434 558 Q374 558 322 535 Q269 514 232.5 471.5 Q196 429 174 381 Q163 354 154 325 Q145 296 140 264 Q131 207 135.5 157.5 Q140 108 162 63 Q179 34 203 15.5 Q227 -3 256 -13 Q292 -25 337 -25 Z M549 708 L465 708 L369 829 L476 829 L549 708 Z " />
<glyph glyph-name="Ugrave" unicode="&#xd9;" horiz-adv-x="615" d="M332 -100 Q291 -109 243 -109 Q196 -109 157 -100 Q119 -92 87 -71 Q56 -51 35 -16 Q18 16 12 72 Q10 99 11.5 130.5 Q13 162 20 197 L95 630 L188 630 L114 197 Q94 88 127 32 Q158 -25 258 -25 Q355 -25 408 32 Q460 90 479 197 L554 630 L647 630 L572 197 Q565 162 556.5 130.5 Q548 99 536 72 Q524 45 510 23 Q496 1 481 -16 Q452 -49 412 -71 Q392 -82 372 -89 Q352 -96 332 -100 Z M460 708 L376 708 L280 829 L387 829 L460 708 Z " />
<glyph glyph-name="egrave" unicode="&#xe8;" horiz-adv-x="573" d="M339 458 Q402 458 447.5 436.5 Q493 415 520 376.5 Q547 338 556.5 285 Q566 232 558 170 L553 143 L107 143 Q105 107 113.5 76 Q122 45 141 21.5 Q160 -2 189.5 -15 Q219 -28 259 -28 Q318 -27 364.5 3.5 Q411 34 444 88 L525 66 Q483 -15 409.5 -62 Q336 -109 246 -109 Q186 -109 140 -89 Q94 -69 65 -32 Q36 5 25 56 Q14 107 24 170 Q34 229 60 281.5 Q86 334 126.5 373 Q167 412 220.5 435 Q274 458 339 458 Z M475 224 Q475 256 464.5 284 Q454 312 435 332.5 Q416 353 388.5 365 Q361 377 326 377 Q257 377 204 335 Q151 293 126 224 L475 224 Z M429 510 L345 510 L249 631 L356 631 L429 510 Z " />
<glyph glyph-name="eacute" unicode="&#xe9;" horiz-adv-x="573" d="M339 458 Q402 458 447.5 436.5 Q493 415 520 376.5 Q547 338 556.5 285 Q566 232 558 170 L553 143 L107 143 Q105 107 113.5 76 Q122 45 141 21.5 Q160 -2 189.5 -15 Q219 -28 259 -28 Q318 -27 364.5 3.5 Q411 34 444 88 L525 66 Q483 -15 409.5 -62 Q336 -109 246 -109 Q186 -109 140 -89 Q94 -69 65 -32 Q36 5 25 56 Q14 107 24 170 Q34 229 60 281.5 Q86 334 126.5 373 Q167 412 220.5 435 Q274 458 339 458 Z M475 224 Q475 256 464.5 284 Q454 312 435 332.5 Q416 353 388.5 365 Q361 377 326 377 Q257 377 204 335 Q151 293 126 224 L475 224 Z M341 629 L448 629 L310 508 L227 508 L341 629 Z " />
<glyph glyph-name="ugrave" unicode="&#xf9;" horiz-adv-x="504" d="M537 448 L444 -100 L361 -100 L374 -22 Q302 -109 200 -109 Q88 -109 50 -50 Q10 8 29 125 L84 448 L171 448 L116 125 Q103 43 122 6 Q141 -30 213 -30 Q291 -30 336 9 Q382 49 395 125 L450 448 L537 448 Z M403 508 L319 508 L223 629 L330 629 L403 508 Z " />
<glyph glyph-name="ograve" unicode="&#xf2;" horiz-adv-x="573" d="M239 -109 Q120 -109 64 -32 Q36 6 27.5 56 Q19 106 30 172 Q52 303 135 381 Q217 458 336 458 Q456 458 510 381 Q566 303 543 172 Q532 106 506.5 56 Q481 6 439 -32 Q359 -109 239 -109 Z M253 -28 Q333 -28 386 27 Q414 55 431 89.5 Q448 124 456 172 Q472 265 437 322 Q403 377 322 377 Q242 377 188 322 Q134 268 117 172 Q109 124 114.5 89.5 Q120 55 137 27 Q174 -28 253 -28 Z M384 508 L300 508 L204 629 L311 629 L384 508 Z " />
<glyph glyph-name="agrave" unicode="&#xe0;" horiz-adv-x="582" d="M586 448 L494 -99 L411 -99 L424 -18 Q386 -59 336 -84 Q287 -109 235 -109 Q115 -109 60 -33 Q5 41 26 171 Q48 304 127 381 Q207 458 325 458 Q430 458 487 381 L499 448 L586 448 Z M454 181 Q469 278 431 328 Q393 379 312 379 Q233 379 181 325 Q129 268 114 174 Q98 82 133 25 Q170 -30 248 -30 Q329 -30 383 22 Q435 74 453 174 L454 181 Z M434 508 L350 508 L254 629 L361 629 L434 508 Z " />
<glyph glyph-name="Egrave" unicode="&#xc8;" horiz-adv-x="539" d="M565 546 L202 546 L162 315 L517 315 L502 233 L147 233 L103 -17 L466 -17 L451 -100 L-4 -100 L124 629 L580 629 L565 546 L565 546 Z M431 708 L347 708 L251 829 L358 829 L431 708 Z " />
<glyph glyph-name="Igrave" unicode="&#xcc;" horiz-adv-x="206" d="M-28 -100 L98 629 L191 629 L64 -100 L-28 -100 L-28 -100 Z M216 706 L132 706 L36 827 L143 827 L216 706 Z " />
<glyph glyph-name="Idieresis" unicode="&#xcf;" horiz-adv-x="264" d="M-38 -100 L88 629 L181 629 L54 -100 L-38 -100 L-38 -100 Z M31 811 L109 811 L94 730 L16 730 L31 811 L31 811 Z M198 811 L277 811 L262 730 L183 730 L198 811 L198 811 Z " />
<glyph glyph-name="Icircumflex" unicode="&#xce;" horiz-adv-x="282" d="M2 -100 L128 629 L221 629 L94 -100 L2 -100 L2 -100 Z M337 725 L321 725 L281 725 L245 725 L201 779 L187 796 L167 779 L104 725 L69 725 L28 725 L13 725 L74 777 L129 823 Q156 846 196 846 Q239 846 256 823 L292 779 L337 725 Z " />
<glyph glyph-name="Ucircumflex" unicode="&#xdb;" horiz-adv-x="615" d="M332 -100 Q291 -109 243 -109 Q196 -109 157 -100 Q119 -92 87 -71 Q56 -51 35 -16 Q18 16 12 72 Q10 99 11.5 130.5 Q13 162 20 197 L95 630 L188 630 L114 197 Q94 88 127 32 Q158 -25 258 -25 Q355 -25 408 32 Q460 90 479 197 L554 630 L647 630 L572 197 Q565 162 556.5 130.5 Q548 99 536 72 Q524 45 510 23 Q496 1 481 -16 Q452 -49 412 -71 Q392 -82 372 -89 Q352 -96 332 -100 Z M539 723 L523 723 L483 723 L447 723 L403 777 L389 794 L369 777 L306 723 L271 723 L230 723 L215 723 L276 775 L331 821 Q358 844 398 844 Q441 844 458 821 L494 777 L539 723 Z " />
<glyph glyph-name="Ocircumflex" unicode="&#xd4;" horiz-adv-x="774" d="M324 -109 Q218 -109 148 -60 Q77 -9 54 74 Q42 116 40 162 Q38 208 47 264 Q57 321 74.5 369.5 Q92 418 119 460 Q171 544 256 593 Q343 641 447 641 Q554 641 623 593 Q693 544 717 460 Q741 375 723 264 Q714 207 696.5 160 Q679 113 652 71 Q598 -15 514 -61 Q428 -109 324 -109 Z M337 -25 Q402 -25 450 -3 Q503 20 539 61 Q575 102 597 151 Q608 178 616.5 205 Q625 232 630 264 Q641 331 635 382 Q629 434 605 475 Q581 516 538 536 Q497 558 434 558 Q374 558 322 535 Q269 514 232.5 471.5 Q196 429 174 381 Q163 354 154 325 Q145 296 140 264 Q131 207 135.5 157.5 Q140 108 162 63 Q179 34 203 15.5 Q227 -3 256 -13 Q292 -25 337 -25 Z M638 725 L622 725 L582 725 L546 725 L502 779 L488 796 L468 779 L405 725 L370 725 L329 725 L314 725 L375 777 L430 823 Q457 846 497 846 Q540 846 557 823 L593 779 L638 725 Z " />
<glyph glyph-name="Ccedilla" unicode="&#xc7;" horiz-adv-x="833" d="M363 -109 Q258 -109 188 -60 Q150 -33 127 3.5 Q104 40 92.5 83 Q81 126 80.5 172 Q80 218 88 264 Q108 377 161 460 Q190 505 227.5 539 Q265 573 308.5 595.5 Q352 618 398.5 629.5 Q445 641 492 641 Q616 641 687 577 Q758 512 770 400 L676 376 Q673 417 657.5 450.5 Q642 484 615.5 508 Q589 532 554 545 Q519 558 477 558 Q423 558 369.5 537 Q316 516 277 473 Q235 426 213 372 Q191 318 182 264 Q174 220 175.5 176.5 Q177 133 190 95.5 Q203 58 228.5 29.5 Q254 1 296 -13 Q353 -31 417.5 -23 Q482 -15 535 23 Q574 51 599.5 88.5 Q625 126 645 172 L733 150 Q683 29 587 -39 Q492 -109 363 -109 Z M492 -152 Q510 -169 504 -204 Q497 -244 465 -264 Q435 -285 392 -285 L352 -285 L308 -285 L319 -227 L345 -227 L363 -227 L410 -227 Q426 -227 434 -221 Q441 -214 442 -206 Q443 -202 438 -195 Q431 -190 424 -190 L382 -190 Q364 -190 355 -178 Q347 -167 353 -150 L371 -100 L410 -103 L400 -134 L435 -134 Q474 -134 492 -152 Z " />
<glyph glyph-name="ccedilla" unicode="&#xe7;" horiz-adv-x="593" d="M247 -109 Q166 -109 113 -71 Q87 -52 69 -27.5 Q51 -3 42 29 Q33 60 31.5 93 Q30 126 37 167 Q60 303 141 380 Q222 458 342 458 Q437 458 490 411 Q544 363 556 276 L467 251 L467 256 Q467 258 466.5 261.5 Q466 265 465 270 Q441 377 329 377 Q246 377 194 320 Q140 262 124 167 Q118 128 123.5 92.5 Q129 57 146.5 30 Q164 3 192.5 -12.5 Q221 -28 261 -28 Q295 -28 322.5 -18.5 Q350 -9 372 8.5 Q394 26 412 51 Q430 76 446 108 Q450 107 461 104 Q470 102 485.5 98 Q501 94 527 87 Q489 -7 414 -59 Q341 -109 247 -109 Z M372 -152 Q390 -169 384 -204 Q377 -244 345 -264 Q315 -285 272 -285 L232 -285 L188 -285 L199 -227 L225 -227 L243 -227 L290 -227 Q306 -227 314 -221 Q321 -214 322 -206 Q323 -202 318 -195 Q311 -190 304 -190 L262 -190 Q244 -190 235 -178 Q227 -167 233 -150 L251 -100 L290 -103 L280 -134 L315 -134 Q354 -134 372 -152 Z " />
<glyph glyph-name="ydieresis" unicode="&#xff;" horiz-adv-x="482" d="M556 448 L205 -186 Q182 -226 144 -253 Q106 -280 60 -282 L10 -282 L24 -201 L74 -201 Q93 -201 108.5 -185.5 Q124 -170 134 -153 L163 -98 L53 448 L146 448 L229 22 L460 448 L556 448 Z M210 609 L288 609 L273 528 L195 528 L210 609 L210 609 Z M377 609 L456 609 L441 528 L362 528 L377 609 L377 609 Z " />
<glyph glyph-name="Zcaron" unicode="&#x17d;" horiz-adv-x="558" d="M617 629 L603 546 L93 -16 L512 -16 L499 -100 L-34 -100 L-21 -16 L489 546 L69 546 L83 629 L617 629 L617 629 Z M449 733 Q423 710 381 710 Q343 710 322 733 L284 779 L241 831 L257 831 L298 831 L333 831 L377 777 L391 761 L411 777 L474 831 L510 831 L550 831 L566 831 L502 777 L449 733 Z " />
<glyph glyph-name="zcaron" unicode="&#x17e;" horiz-adv-x="500" d="M522 448 L508 367 L107 -18 L443 -18 L429 -100 L-20 -100 L-6 -18 L394 367 L58 367 L72 448 L522 448 L522 448 Z M395 531 Q369 508 327 508 Q289 508 268 531 L230 577 L187 629 L203 629 L244 629 L279 629 L323 575 L337 559 L357 575 L420 629 L456 629 L496 629 L512 629 L448 575 L395 531 Z " />
<glyph glyph-name="Scaron" unicode="&#x160;" horiz-adv-x="584" d="M227 -109 Q133 -109 74 -84 Q42 -72 17 -53 Q-8 -34 -31 -8 L39 55 L42 52 Q44 50 46 48 Q48 46 52 43 Q60 36 67.5 30.5 Q75 25 82 20 Q95 10 119 -2 Q145 -13 173 -19 Q203 -25 242 -25 Q329 -25 387 15 Q444 55 455 111 Q462 153 427 190 Q410 208 382.5 221 Q355 234 316 242 L238 258 Q38 300 63 448 Q73 503 102 540.5 Q131 578 171.5 600.5 Q212 623 259.5 632.5 Q307 642 353 642 Q505 642 592 543 L520 479 Q475 516 426.5 537.5 Q378 559 338 559 Q173 559 154 448 Q148 415 174 385 Q202 357 255 345 L342 326 Q463 299 513 247 Q538 221 547.5 188 Q557 155 549 113 Q536 38 491 -13 Q444 -64 379 -86 Q313 -109 227 -109 Z M429 731 Q403 708 361 708 Q323 708 302 731 L264 777 L221 829 L237 829 L278 829 L313 829 L357 775 L371 759 L391 775 L454 829 L490 829 L530 829 L546 829 L482 775 L429 731 Z " />
<glyph glyph-name="scaron" unicode="&#x161;" horiz-adv-x="473" d="M194 -109 Q70 -109 1 -17 L72 39 L85 26 Q102 6 138 -11 Q170 -27 209 -27 Q271 -27 306 -4 Q342 18 348 59 Q351 76 347 88 Q343 100 332 113 Q309 138 264 145 L188 159 Q121 171 90 210 Q58 248 67 303 Q79 374 139 416 Q197 458 290 458 Q358 458 403 431 Q450 404 466 372 L392 319 L389 322 Q387 324 385.5 326.5 Q384 329 381 332 Q344 379 271 379 Q220 379 190 359 Q157 340 153 307 Q149 285 163 266 Q175 248 205 242 Q213 240 222.5 238 Q232 236 246 233 Q260 230 270 228 Q280 226 287 224 Q368 207 406 162 Q426 139 433.5 114 Q441 89 436 59 Q422 -19 358 -64 Q295 -109 194 -109 Z M360 531 Q334 508 292 508 Q254 508 233 531 L195 577 L152 629 L168 629 L209 629 L244 629 L288 575 L302 559 L322 575 L385 629 L421 629 L461 629 L477 629 L413 575 L360 531 Z " />
<glyph glyph-name="sterling" unicode="&#xa3;" horiz-adv-x="567" d="M480 -17 L466 -100 L-9 -100 L4 -17 Q101 101 115 181 Q116 188 117 193 Q118 198 117 201 L42 201 L57 284 L104 284 Q102 286 101 291.5 Q100 297 96 305 Q88 335 81.5 363.5 Q75 392 82 427 Q88 461 103 493 Q118 525 141.5 552 Q165 579 196 599 Q227 619 264 629 Q306 642 360 642 Q395 642 432 635 Q469 628 498 608 Q515 597 528.5 584 Q542 571 551 552 L477 489 Q475 490 473 493 Q471 495 468.5 498 Q466 501 463 506 Q446 526 418 537.5 Q390 549 357.5 551.5 Q325 554 292 546 Q259 538 232 519 Q187 488 176 429 Q172 406 178 384 Q184 362 192 336 Q197 321 200 308 Q203 295 205 284 L453 284 L438 201 L208 201 Q209 196 206 184 Q191 92 101 -17 L480 -17 Z " />
<glyph glyph-name="yen" unicode="&#xa5;" horiz-adv-x="611" d="M324 307 L300 307 L308 287 L324 307 Z M464 390 L524 390 L513 327 L510 306 L490 306 L394 306 L348 252 L343 224 L495 224 L484 160 L481 140 L461 140 L329 140 L287 -100 L193 -100 L235 140 L86 140 L97 203 L100 224 L249 224 L254 252 L228 306 L115 306 L126 369 L129 390 L149 390 L186 390 L68 630 L182 630 L294 390 L358 390 L557 630 L666 630 L464 390 Z " />
<glyph glyph-name="cent" unicode="&#xa2;" horiz-adv-x="593" d="M540 175 Q504 87 439 37 Q375 -12 290 -20 L275 -106 L212 -106 L203 -106 L189 -106 L205 -16 Q114 2 73 76 Q34 151 52 260 Q62 320 84 368 Q106 416 139 454 Q206 528 301 546 L318 644 L383 644 L393 644 L404 644 L388 550 Q551 535 570 368 L484 343 Q484 345 483 348 Q482 350 481.5 353.5 Q481 357 479 362 Q461 454 374 468 L304 62 Q400 74 451 175 Q452 177 453.5 180.5 Q455 184 457 187 L461 195 L540 175 Z M160 115 Q182 81 219 69 L286 461 Q242 447 209 413 Q156 356 140 260 Q125 169 160 115 Z " />
<glyph glyph-name="lslash" unicode="&#x142;" horiz-adv-x="371" d="M264 -19 L284 -19 L280 -40 L270 -100 L238 -100 L192 -100 Q132 -100 102 -66 Q72 -31 82 25 L111 187 L14 148 L-4 223 L30 237 L126 275 L189 632 L276 632 L219 311 L337 358 L356 283 L320 269 L204 223 L169 25 Q166 5 175 -7 Q185 -19 206 -19 L252 -19 L264 -19 Z " />
<glyph glyph-name="Lslash" unicode="&#x141;" horiz-adv-x="616" d="M176 -17 L539 -17 L525 -100 L69 -100 L117 184 L24 147 L4 222 L40 236 L132 273 L192 630 L285 630 L231 312 L345 357 L363 282 L329 268 L217 224 L176 -17 L176 -17 Z " />
<glyph glyph-name="Eth" unicode="&#xd0;" horiz-adv-x="755" d="M673 531 Q744 435 715 265 Q684 95 578 -2 Q471 -100 313 -100 L47 -100 L110 255 L6 255 L20 337 L56 337 L124 337 L176 630 L442 630 Q602 630 673 531 Z M524 59 Q598 135 622 265 Q645 398 597 472 Q550 546 427 546 L254 546 L217 337 L365 337 L351 255 L316 255 L203 255 L155 -16 L328 -16 Q449 -16 524 59 Z " />
<glyph glyph-name="multiply" unicode="&#xd7;" horiz-adv-x="233" d="M193 237 L157 237 L124 237 L111 252 L92 237 L59 237 L23 237 L75 292 L15 358 L32 358 L70 358 L122 358 L127 350 L135 358 L188 358 L226 358 L242 358 L161 292 L193 237 Z " />
<glyph glyph-name="eth" unicode="&#xf0;" horiz-adv-x="592" d="M438 509 L402 509 L369 509 L355 524 L337 509 L304 509 L268 509 L319 564 L258 630 L275 630 L313 630 L365 630 L371 622 L378 630 L431 630 L469 630 L485 630 L405 564 L438 509 Z M239 -109 Q120 -109 64 -32 Q36 6 27.5 56 Q19 106 30 172 Q52 303 135 381 Q217 458 336 458 Q456 458 510 381 Q566 303 543 172 Q532 106 506.5 56 Q481 6 439 -32 Q359 -109 239 -109 Z M253 -28 Q333 -28 386 27 Q414 55 431 89.5 Q448 124 456 172 Q472 265 437 322 Q403 377 322 377 Q242 377 188 322 Q134 268 117 172 Q109 124 114.5 89.5 Q120 55 137 27 Q174 -28 253 -28 Z " />
<glyph glyph-name="fi" unicode="&#xfb01;" horiz-adv-x="415" d="M200 446 L342 446 L327 365 L185 365 L103 -100 L16 -100 L98 365 L10 365 L25 446 L113 446 L121 493 Q131 554 177 592 Q221 629 287 629 L462 629 L448 547 L273 547 Q249 547 231.5 533 Q214 519 208 493 L200 446 Z M434 446 L337 -100 L250 -100 L347 446 L434 446 Z " />
<glyph glyph-name="fl" unicode="&#xfb02;" horiz-adv-x="562" d="M432 629 L418 547 L290 547 Q265 547 247 532 Q239 524 234 514.5 Q229 505 227 493 L219 446 L361 446 L347 365 L205 365 L125 -100 L37 -100 L117 365 L30 365 L44 446 L131 446 L139 493 Q150 555 195 592 Q241 629 304 629 L432 629 Z M489 -19 L486 -39 L475 -100 L397 -100 Q336 -100 306 -65 Q277 -30 287 26 L392 629 L479 629 L374 26 Q371 4 380 -6 Q391 -19 411 -19 L489 -19 Z " />
<glyph glyph-name="AE" unicode="&#xc6;" horiz-adv-x="768" d="M415 317 L769 317 L756 234 L402 234 L360 -17 L722 -17 L708 -100 L254 -100 L290 114 L146 114 L32 -100 L-64 -100 L325 629 L829 629 L815 546 L453 546 L415 317 Z M353 499 L351 499 L189 196 L303 196 L353 499 Z " />
<glyph glyph-name="ae" unicode="&#xe6;" horiz-adv-x="1041" d="M543 143 Q541 111 548 78.5 Q555 46 577 20 Q614 -27 693 -27 Q750 -27 794 -2 Q838 23 869 71 Q874 81 876 84 Q878 87 879 89 L960 66 Q918 -16 844 -63 Q770 -109 679 -109 Q626 -109 586.5 -93.5 Q547 -78 518 -51 L510 -99 L427 -99 L441 -18 Q400 -61 352 -84 Q303 -109 252 -109 Q131 -109 77 -33 Q21 42 44 172 Q66 304 147 382 Q226 459 345 459 Q448 459 507 382 L518 448 L605 448 L599 412 Q637 440 681.5 449 Q726 458 778 458 Q900 458 958 379 Q1017 299 994 170 L989 143 L543 143 Z M400 22 Q436 56 455 113 Q455 144 461 179 Q464 196 468 212 Q472 228 477 243 Q475 296 450 329 Q412 380 331 380 Q252 380 201 326 Q149 272 132 175 Q115 80 150 25 Q187 -30 266 -30 Q346 -30 400 22 Z M639 336 Q609 312 590.5 286 Q572 260 561 224 L911 224 Q909 297 872 336 Q832 377 764 377 Q690 377 639 336 Z " />
<glyph glyph-name="OE" unicode="&#x152;" horiz-adv-x="1108" d="M721 317 L1076 317 L1062 234 L707 234 L664 -16 L1027 -16 L1013 -100 L557 -100 L568 -36 Q547 -53 524 -64 Q440 -112 335 -112 Q231 -112 159 -63 Q90 -14 66 71 Q42 156 61 266 Q70 322 88.5 371 Q107 420 133 462 Q187 548 273 595 Q357 643 464 643 Q570 643 639 595 Q647 588 655.5 581.5 Q664 575 671 567 L682 631 L1138 631 L1124 547 L761 547 L721 317 Z M645 412 Q637 450 620 477 Q596 518 553 538 Q509 560 450 560 Q391 560 337 537 Q287 516 249 475 Q213 435 190 382 Q178 356 168.5 327 Q159 298 154 266 Q152 255 151 244 Q150 233 148 222 Q147 211 147 198 Q147 185 147 170 Q148 154 150 140.5 Q152 127 155 113 Q162 85 174 60 Q181 46 190 35 Q199 24 210 15 Q232 -4 267 -16 Q303 -28 349 -28 Q412 -28 462 -6 Q512 15 549 56 Q562 70 573.5 86 Q585 102 595 120 L645 412 Z " />
<glyph glyph-name="oe" unicode="&#x153;" horiz-adv-x="1025" d="M520 148 Q517 116 521 90.5 Q525 65 536 43 Q540 37 543.5 31 Q547 25 551 20 Q589 -27 668 -27 Q724 -27 768 -2 Q815 24 844 71 Q846 75 848 78.5 Q850 82 852 84 Q854 87 855 89 L935 66 Q893 -17 818 -63 Q745 -109 653 -109 Q532 -109 473 -35 Q393 -109 275 -109 Q157 -109 101 -32 Q46 45 70 177 Q92 307 176 386 Q259 463 378 463 Q495 463 549 388 Q634 463 756 463 Q879 463 937 384 Q965 344 974 292 Q983 240 971 175 L966 148 L520 148 Z M425 27 Q428 31 431 34 Q434 37 437 41 Q422 98 436 175 Q451 252 487 312 Q485 316 483 319.5 Q481 323 479 327 Q443 382 363 382 Q283 382 229 327 Q174 271 158 177 Q140 83 175 27 Q209 -27 290 -27 Q369 -27 425 27 Z M889 229 Q889 299 849 341 Q810 382 741 382 Q670 382 617 341 Q607 334 599.5 326.5 Q592 319 584 310 Q569 293 558 273 Q547 253 539 229 L889 229 Z " />
<glyph glyph-name="igrave" unicode="&#xec;" horiz-adv-x="202" d="M-12 -100 L81 448 L167 448 L73 -100 L-12 -100 Z M207 508 L123 508 L27 629 L134 629 L207 508 Z " />
<glyph glyph-name="iacute" unicode="&#xed;" horiz-adv-x="213" d="M-12 -100 L81 448 L167 448 L73 -100 L-12 -100 Z M129 629 L236 629 L98 508 L15 508 L129 629 Z " />
<glyph glyph-name="icircumflex" unicode="&#xee;" horiz-adv-x="225" d="M-12 -100 L81 448 L167 448 L73 -100 L-12 -100 Z M294 525 L278 525 L238 525 L202 525 L158 579 L144 596 L124 579 L61 525 L26 525 L-15 525 L-30 525 L31 577 L86 623 Q113 646 153 646 Q196 646 213 623 L249 579 L294 525 Z " />
<glyph glyph-name="idieresis" unicode="&#xef;" horiz-adv-x="268" d="M-12 -100 L81 448 L167 448 L73 -100 L-12 -100 Z M29 611 L107 611 L92 530 L14 530 L29 611 L29 611 Z M196 611 L275 611 L260 530 L181 530 L196 611 L196 611 Z " />
<glyph glyph-name="Oslash" unicode="&#xd8;" horiz-adv-x="774" d="M106 -135 L613 701 L693 701 L186 -135 L106 -135 Z M324 -109 Q218 -109 148 -60 Q77 -9 54 74 Q42 116 40 162 Q38 208 47 264 Q57 321 74.5 369.5 Q92 418 119 460 Q171 544 256 593 Q343 641 447 641 Q554 641 623 593 Q693 544 717 460 Q741 375 723 264 Q714 207 696.5 160 Q679 113 652 71 Q598 -15 514 -61 Q428 -109 324 -109 Z M337 -25 Q402 -25 450 -3 Q503 20 539 61 Q575 102 597 151 Q608 178 616.5 205 Q625 232 630 264 Q641 331 635 382 Q629 434 605 475 Q581 516 538 536 Q497 558 434 558 Q374 558 322 535 Q269 514 232.5 471.5 Q196 429 174 381 Q163 354 154 325 Q145 296 140 264 Q131 207 135.5 157.5 Q140 108 162 63 Q179 34 203 15.5 Q227 -3 256 -13 Q292 -25 337 -25 Z " />
<glyph glyph-name="oslash" unicode="&#xf8;" horiz-adv-x="571" d="M24 -157 L427 507 L507 507 L104 -157 L24 -157 Z M238 -109 Q119 -109 63 -32 Q35 6 26.5 56 Q18 106 29 172 Q51 303 134 381 Q216 458 335 458 Q455 458 509 381 Q565 303 542 172 Q531 106 505.5 56 Q480 6 438 -32 Q358 -109 238 -109 Z M252 -28 Q332 -28 385 27 Q413 55 430 89.5 Q447 124 455 172 Q471 265 436 322 Q402 377 321 377 Q241 377 187 322 Q133 268 116 172 Q108 124 113.5 89.5 Q119 55 136 27 Q173 -28 252 -28 Z " />
<glyph glyph-name="B" unicode="B" horiz-adv-x="632" d="M504 278 Q599 229 577 102 Q561 6 489 -48 Q418 -100 305 -100 L-13 -100 L113 629 L422 629 Q530 629 581 578 Q631 527 615 436 Q597 326 504 278 Z M191 546 L150 313 L367 313 Q431 313 469 344 Q510 376 520 431 Q529 486 499 516 Q470 546 408 546 L191 546 Z M320 -17 Q387 -17 430 15 Q472 47 483 107 Q493 167 463 202 Q431 235 363 235 L136 235 L93 -17 L320 -17 Z " />
<glyph glyph-name="C" unicode="C" horiz-adv-x="763" d="M320 -109 Q215 -109 145 -60 Q107 -33 84 3.5 Q61 40 49.5 83 Q38 126 37.5 172 Q37 218 45 264 Q65 377 118 460 Q147 505 184.5 539 Q222 573 265.5 595.5 Q309 618 355.5 629.5 Q402 641 449 641 Q573 641 644 577 Q715 512 727 400 L633 376 Q630 417 614.5 450.5 Q599 484 572.5 508 Q546 532 511 545 Q476 558 434 558 Q380 558 326.5 537 Q273 516 234 473 Q192 426 170 372 Q148 318 139 264 Q131 220 132.5 176.5 Q134 133 147 95.5 Q160 58 185.5 29.5 Q211 1 253 -13 Q310 -31 374.5 -23 Q439 -15 492 23 Q531 51 556.5 88.5 Q582 126 602 172 L690 150 Q640 29 544 -39 Q449 -109 320 -109 Z " />
<glyph glyph-name="A" unicode="A" horiz-adv-x="662" d="M486 -100 L444 113 L161 113 L47 -100 L-49 -100 L343 630 L442 630 L586 -100 L486 -100 Z M206 195 L427 195 Q413 266 403.5 316.5 Q394 367 387.5 401 Q381 435 377 454.5 Q373 474 371.5 484 Q370 494 369.5 497 Q369 500 369 500 L206 195 Z " />
<glyph glyph-name="quoteleft" unicode="&#x2018;" horiz-adv-x="144" d="M24 459 Q20 459 16 463 Q14 466 16 471 L39 516 Q46 535 37 544 Q21 559 26 585 Q31 610 49 625 Q68 641 92 641 Q117 641 129 625 Q143 610 138 585 Q137 572 106 509 Q98 495 90.5 485.5 Q83 476 73 471 Q53 459 24 459 Z " />
<glyph glyph-name="quoteright" unicode="&#x2019;" horiz-adv-x="145" d="M24 459 Q20 459 16 463 Q14 466 16 471 L39 516 Q46 535 37 544 Q21 559 26 585 Q31 610 49 625 Q68 641 92 641 Q117 641 129 625 Q143 610 138 585 Q137 572 106 509 Q98 495 90.5 485.5 Q83 476 73 471 Q53 459 24 459 Z " />
<glyph glyph-name="quotedblleft" unicode="&#x201c;" horiz-adv-x="258" d="M5 466 Q1 466 -1 470 Q-3 472 -1 477 L20 523 Q27 542 19 551 Q3 565 8 592 Q13 617 32 632.5 Q51 648 74 648 Q100 648 111.5 631.5 Q123 615 119 592 Q117 575 87 517 Q74 489 54 477 Q35 466 5 466 Z M137 466 Q134 466 133 467 Q132 468 130 470 Q128 472 130 477 L152 523 Q159 542 151 551 Q135 565 140 592 Q145 618 164 633 Q183 648 206 648 Q232 648 243.5 631.5 Q255 615 251 592 Q250 578 219 517 Q206 489 186 477 Q167 466 137 466 Z " />
<glyph glyph-name="quotedblright" unicode="&#x201d;" horiz-adv-x="258" d="M5 466 Q1 466 -1 470 Q-3 472 -1 477 L20 523 Q27 542 19 551 Q3 565 8 592 Q13 617 32 632.5 Q51 648 74 648 Q100 648 111.5 631.5 Q123 615 119 592 Q117 575 87 517 Q74 489 54 477 Q35 466 5 466 Z M137 466 Q134 466 133 467 Q132 468 130 470 Q128 472 130 477 L152 523 Q159 542 151 551 Q135 565 140 592 Q145 618 164 633 Q183 648 206 648 Q232 648 243.5 631.5 Q255 615 251 592 Q250 578 219 517 Q206 489 186 477 Q167 466 137 466 Z " />
</font>
</svg>
