<?xml version="1.0" encoding="UTF-8"?>
<svg xmlns="http://www.w3.org/2000/svg" xmlns:xlink="http://www.w3.org/1999/xlink" version="1.2" >
<font id="Noirden Thin Oblique">
<font-face  font-family="Noirden" units-per-em="1000" ascent="750" descent="-250" font-style="normal" font-weight="400" font-stretch="normal" cap-height="900" x-height="700" underline-position="-75" underline-thickness="50" />
<missing-glyph  horiz-adv-x="197" d="" />
<glyph glyph-name="NULL" d="" />
<glyph glyph-name="nonmarkingreturn" unicode="&#xd;" horiz-adv-x="197" d="" />
<glyph glyph-name="space" unicode="&#x20;" horiz-adv-x="197" d="" />
<glyph glyph-name="F" unicode="F" horiz-adv-x="544" d="M542 608 L145 608 L88 285 L477 285 L474 264 L85 264 L20 -100 L-3 -100 L125 629 L546 629 L542 608 L542 608 Z " />
<glyph glyph-name="E" unicode="E" horiz-adv-x="539" d="M541 608 L143 608 L87 285 L477 285 L474 264 L84 264 L24 -80 L422 -80 L418 -100 L-3 -100 L123 629 L545 629 L541 608 L541 608 Z " />
<glyph glyph-name="G" unicode="G" horiz-adv-x="770" d="M383 279 L722 279 Q714 237 703.5 200.5 Q693 164 678 131 Q647 65 608 20 Q588 -2 566 -20 Q544 -38 520 -53 Q496 -68 471 -78.5 Q446 -89 421 -96 Q372 -109 317 -109 Q158 -109 87 -11 Q18 87 49 266 Q79 445 184 544 Q287 641 448 641 Q573 641 645 579 Q720 518 732 403 L708 397 Q707 400 707 404 Q706 407 706 410 Q706 413 705 415 Q691 514 622 567 Q553 621 444 621 Q296 621 199 529 Q151 483 119.5 417.5 Q88 352 74 266 Q44 97 108 4 Q170 -88 321 -88 Q345 -88 368 -85.5 Q391 -83 414 -76 Q461 -64 506 -37 Q551 -10 587 29 Q625 71 652 128 Q666 157 676.5 189.5 Q687 222 693 258 L379 258 L383 279 Z " />
<glyph glyph-name="H" unicode="H" horiz-adv-x="629" d="M608 629 L632 629 L505 -100 L481 -100 L545 264 L84 264 L20 -100 L-3 -100 L123 629 L147 629 L87 285 L548 285 L608 629 L608 629 Z " />
<glyph glyph-name="I" unicode="I" horiz-adv-x="124" d="M-13 -100 L113 629 L137 629 L10 -100 L-13 -100 L-13 -100 Z " />
<glyph glyph-name="J" unicode="J" horiz-adv-x="555" d="M215 -109 Q129 -109 79 -59 Q30 -8 21 84 L47 91 L47 86 Q47 84 47.5 80 Q48 76 49 71 Q58 -5 103 -47 Q147 -88 219 -88 Q311 -88 376 -31 Q439 26 457 130 L543 629 L568 629 L482 130 Q463 17 393 -47 Q322 -109 215 -109 Z " />
<glyph glyph-name="K" unicode="K" horiz-adv-x="555" d="M204 328 L468 -100 L436 -100 L185 313 L65 213 L10 -100 L-13 -100 L113 629 L137 629 L71 247 L535 629 L567 629 L204 328 L204 328 Z " />
<glyph glyph-name="L" unicode="L" horiz-adv-x="494" d="M14 -80 L411 -80 L407 -100 L-13 -100 L113 629 L137 629 L14 -80 L14 -80 Z " />
<glyph glyph-name="M" unicode="M" horiz-adv-x="705" d="M718 629 L591 -100 L566 -100 L683 573 L298 -100 L277 -100 L127 573 L10 -100 L-13 -100 L113 629 L142 629 L295 -68 L689 629 L718 629 L718 629 Z " />
<glyph glyph-name="N" unicode="N" horiz-adv-x="601" d="M590 629 L614 629 L487 -100 L462 -100 L131 592 Q129 582 127 571 Q125 562 123.5 552.5 Q122 543 121 536 L10 -100 L-13 -100 L113 629 L138 629 L469 -64 Q471 -54 473 -43 Q475 -34 476 -24.5 Q477 -15 479 -7 L590 629 Z " />
<glyph glyph-name="O" unicode="O" horiz-adv-x="774" d="M589 -11 Q485 -109 323 -109 Q161 -109 89 -11 Q17 87 49 266 Q79 445 184 543 Q290 641 452 641 Q614 641 684 544 Q755 448 725 266 Q694 86 589 -11 Z M327 -88 Q478 -88 574 4 Q670 95 700 266 Q728 437 663 529 Q598 621 448 621 Q297 621 199 529 Q151 482 119 417 Q87 352 73 266 Q43 97 110 4 Q174 -88 327 -88 Z " />
<glyph glyph-name="P" unicode="P" horiz-adv-x="552" d="M343 629 Q456 629 509 579 Q562 527 546 436 Q531 345 460 294 Q389 244 276 244 L70 244 L10 -100 L-13 -100 L113 629 L343 629 Z M275 264 Q378 264 443 309 Q509 354 522 436 Q537 518 488 564 Q440 608 334 608 L133 608 L74 264 L275 264 Z " />
<glyph glyph-name="Q" unicode="Q" horiz-adv-x="774" d="M596 -136 L628 -199 L621 -199 L617 -199 L597 -199 L527 -62 Q442 -109 330 -109 Q169 -109 97 -11 Q26 87 56 266 Q72 357 105 425.5 Q138 494 192 543 Q298 641 458 641 Q620 641 692 544 Q764 447 732 266 Q694 47 552 -47 L596 -136 Z M334 -88 Q437 -88 517 -43 L468 54 L483 54 L500 54 L542 -27 Q672 61 707 266 Q737 437 670 529 Q605 621 455 621 Q305 621 207 529 Q110 436 80 266 Q51 95 117 4 Q182 -88 334 -88 Z " />
<glyph glyph-name="S" unicode="S" horiz-adv-x="584" d="M224 -109 Q68 -109 -19 -8 L-17 -5 L-8 4 L-2 10 Q0 8 2 5 Q5 0 10 -3 Q48 -44 104 -66 Q161 -89 228 -89 Q344 -89 417 -42 Q488 5 503 91 Q526 223 376 260 L219 300 Q139 321 102 364 Q68 406 79 470 Q92 552 163 598 Q233 643 350 643 Q418 643 475 616 Q504 602 528.5 583.5 Q553 565 573 542 L556 527 L544 539 Q512 577 458 599 Q405 623 346 623 Q242 623 178 583 Q115 543 103 470 Q84 362 232 323 L387 282 Q552 237 527 91 Q510 -6 432 -57 Q352 -109 224 -109 Z " />
<glyph glyph-name="R" unicode="R" horiz-adv-x="537" d="M280 264 L262 264 L450 -100 L420 -100 L235 264 L74 264 L10 -100 L-13 -100 L113 629 L343 629 Q456 629 510 581 Q563 534 548 447 Q533 359 463 312 Q392 264 280 264 Z M283 285 Q386 285 447 327 Q509 369 523 447 Q537 524 488 566 Q438 608 334 608 L133 608 L77 285 L283 285 Z " />
<glyph glyph-name="T" unicode="T" horiz-adv-x="584" d="M614 629 L610 608 L362 608 L241 -100 L217 -100 L338 608 L91 608 L95 629 L614 629 L614 629 Z " />
<glyph glyph-name="U" unicode="U" horiz-adv-x="615" d="M449 -36 Q372 -109 242 -109 Q113 -109 62 -36 Q11 38 36 185 L114 630 L137 630 L60 185 Q13 -88 246 -88 Q479 -88 526 185 L604 630 L629 630 L551 185 Q525 36 449 -36 Z " />
<glyph glyph-name="V" unicode="V" horiz-adv-x="553" d="M575 629 L602 629 L218 -100 L217 -100 L191 -100 L191 -100 L73 629 L100 629 L211 -63 L575 629 L575 629 Z " />
<glyph glyph-name="W" unicode="W" horiz-adv-x="926" d="M938 629 L965 629 L624 -100 L602 -100 L517 580 L198 -100 L176 -100 L85 629 L111 629 L194 -62 L511 625 L513 629 L537 629 L537 625 L620 -62 L938 629 L938 629 Z " />
<glyph glyph-name="X" unicode="X" horiz-adv-x="649" d="M565 -100 L533 -100 L326 267 L-10 -100 L-38 -100 L314 285 L120 629 L152 629 L334 308 L628 629 L656 629 L345 289 L565 -100 L565 -100 Z " />
<glyph glyph-name="Y" unicode="Y" horiz-adv-x="579" d="M625 630 L308 241 L250 -100 L226 -100 L284 240 L101 630 L131 630 L300 260 L595 630 L625 630 L625 630 Z " />
<glyph glyph-name="Z" unicode="Z" horiz-adv-x="558" d="M600 630 L596 609 L0 -79 L481 -79 L477 -100 L-35 -100 L-31 -79 L566 609 L83 609 L87 630 L600 630 Z " />
<glyph glyph-name="a" unicode="a" horiz-adv-x="582" d="M579 453 L491 -65 L485 -100 L465 -100 L471 -65 L487 29 Q451 -37 386 -73 Q323 -109 237 -109 Q177 -109 134 -90 Q91 -71 62 -33 Q8 44 30 175 Q53 306 133 382 Q215 458 334 458 Q418 458 470 423 Q522 386 535 323 L557 453 L579 453 Z M515 205 Q533 314 486 376 Q438 439 331 439 Q224 439 148 368 Q74 297 53 175 Q32 53 81 -19 Q132 -90 240 -90 Q348 -90 416 -29 Q485 31 503 136 L515 205 Z " />
<glyph glyph-name="b" unicode="b" horiz-adv-x="582" d="M504 382 Q560 307 537 175 Q515 44 433 -33 Q351 -109 232 -109 Q145 -109 96 -73 Q42 -36 30 29 L13 -68 L8 -100 L-11 -100 L-6 -68 L113 629 L135 629 L82 323 Q118 387 181 423 Q245 458 329 458 Q449 458 504 382 Z M419 -18 Q494 53 515 175 Q536 297 485 368 Q434 439 326 439 Q219 439 149 376 Q80 313 62 205 L50 136 Q32 32 81 -29 Q129 -90 236 -90 Q344 -90 419 -18 Z " />
<glyph glyph-name="c" unicode="c" horiz-adv-x="593" d="M248 -109 Q188 -109 145 -90 Q102 -71 73 -33 Q18 43 40 175 Q63 307 144 382 Q226 458 345 458 Q437 458 493 411 Q548 363 557 278 L554 277 Q552 276 548 276 Q544 276 541 275 Q537 274 533 273 Q532 276 532 280 Q532 283 531.5 285.5 Q531 288 531 290 Q517 362 469 400 Q419 439 342 439 Q234 439 158 368 Q84 297 63 175 Q42 53 91 -19 Q142 -90 251 -90 Q333 -90 398 -48 Q461 -7 499 70 Q500 72 500.5 75.5 Q501 79 503 82 Q504 86 506 90 L528 84 Q492 -6 418 -59 Q344 -109 248 -109 Z " />
<glyph glyph-name="d" unicode="d" horiz-adv-x="584" d="M598 629 L476 -68 L471 -100 L450 -100 L455 -68 L472 29 Q436 -37 372 -73 Q307 -109 222 -109 Q104 -109 48 -33 Q-8 42 16 175 Q39 308 120 382 Q202 458 321 458 Q404 458 457 423 Q508 387 521 323 L575 629 L598 629 Z M501 205 Q519 314 473 376 Q425 439 318 439 Q210 439 134 368 Q59 298 38 175 Q16 52 67 -19 Q118 -90 226 -90 Q333 -90 401 -29 Q471 34 489 136 L501 205 Z " />
<glyph glyph-name="e" unicode="e" horiz-adv-x="573" d="M548 272 Q551 236 545 198 L543 191 L540 171 L522 171 L504 171 L50 171 Q30 52 82 -19 Q133 -90 240 -90 Q318 -90 378 -53 Q438 -16 478 53 Q480 57 481.5 60 Q483 63 485 65 Q486 68 487 69 L507 64 Q465 -20 396 -65 Q326 -109 237 -109 Q120 -109 63 -32 Q6 44 27 173 Q49 301 134 380 Q216 458 334 458 Q385 458 424 443 Q464 429 489 402 Q515 378 529 343 Q537 326 541.5 308.5 Q546 291 548 272 Z M521 190 Q539 298 488 369 Q437 439 331 439 Q227 439 153 371 Q79 304 53 190 L521 190 Z " />
<glyph glyph-name="f" unicode="f" horiz-adv-x="372" d="M403 629 L402 625 L400 609 L380 609 L367 609 L281 609 Q227 609 194 574 Q160 539 148 472 L144 446 L334 446 L330 427 L140 427 L47 -100 L25 -100 L118 427 L64 427 L62 427 L42 427 L45 444 L46 446 L68 446 L122 446 L126 472 Q140 548 181 588 Q222 629 284 629 L370 629 L403 629 Z " />
<glyph glyph-name="g" unicode="g" horiz-adv-x="583" d="M492 -147 Q481 -214 438 -248 Q395 -283 329 -283 L95 -283 L72 -283 L73 -279 L75 -264 L95 -264 L98 -264 L332 -264 Q390 -264 425 -233 Q460 -203 469 -147 L499 24 Q464 -39 401 -73 Q338 -109 252 -109 Q132 -109 77 -33 Q22 45 44 175 Q66 306 148 382 Q230 459 349 459 Q434 459 485 423 Q537 386 550 323 L571 448 L594 448 L492 -147 Z M530 205 Q548 315 501 376 Q453 439 346 439 Q237 439 162 368 Q88 297 67 175 Q46 52 96 -19 Q147 -90 255 -90 Q361 -90 430 -29 Q466 2 487.5 43 Q509 84 518 136 L530 205 Z " />
<glyph glyph-name="h" unicode="h" horiz-adv-x="497" d="M293 457 Q395 457 429 396 Q466 334 445 213 L390 -100 L368 -100 L423 213 Q462 438 290 438 Q101 438 68 244 L8 -100 L-13 -100 L113 629 L135 629 L85 342 Q148 457 293 457 Z " />
<glyph glyph-name="backslash" unicode="&#x5c;" horiz-adv-x="585" d="M406 -230 L141 723 L167 723 L430 -230 L406 -230 L406 -230 Z " />
<glyph glyph-name="bracketright" unicode="&#x5d;" horiz-adv-x="274" d="M305 721 L142 -232 L-39 -232 L-35 -212 L122 -212 L277 700 L119 700 L123 721 L305 721 Z " />
<glyph glyph-name="asciicircum" unicode="&#x5e;" horiz-adv-x="413" d="M34 450 L218 699 L241 699 L346 450 L324 450 L226 679 L57 450 L34 450 L34 450 Z " />
<glyph glyph-name="underscore" unicode="&#x5f;" horiz-adv-x="540" d="M41 -100 L45 -79 L491 -79 L487 -100 L41 -100 L41 -100 Z " />
<glyph glyph-name="i" unicode="i" horiz-adv-x="123" d="M-11 -100 L83 447 L106 447 L11 -100 L-11 -100 L-11 -100 Z M105 605 L137 605 L130 567 L98 567 L105 605 L105 605 Z " />
<glyph glyph-name="j" unicode="j" horiz-adv-x="122" d="M-4 -148 Q-15 -205 -50 -234 Q-85 -265 -143 -265 L-242 -265 L-245 -284 L-146 -284 Q-79 -284 -36 -249 Q5 -216 17 -148 L122 447 L100 447 L-4 -148 Z M123 605 L155 605 L149 567 L117 567 L123 605 Z " />
<glyph glyph-name="k" unicode="k" horiz-adv-x="446" d="M366 -100 L345 -100 L333 -100 L104 197 L54 156 L10 -100 L-12 -100 L112 630 L135 630 L58 183 L381 447 L415 447 L122 212 L366 -100 Z " />
<glyph glyph-name="l" unicode="l" horiz-adv-x="248" d="M170 -81 L167 -96 L166 -100 L141 -100 L117 -100 Q55 -100 28 -59 Q15 -39 11 -10.5 Q7 18 14 56 L112 629 L135 629 L37 56 Q25 -10 48 -45 Q69 -81 121 -81 L145 -81 L150 -81 L170 -81 Z " />
<glyph glyph-name="n" unicode="n" horiz-adv-x="497" d="M445 396 Q482 332 461 213 L406 -100 L383 -100 L438 213 Q477 438 306 438 Q117 438 84 244 L24 -100 L1 -100 L96 448 L117 448 L98 336 Q159 457 309 457 Q409 457 445 396 Z " />
<glyph glyph-name="m" unicode="m" horiz-adv-x="779" d="M618 457 Q781 457 742 234 L684 -100 L662 -100 L720 234 Q738 339 712 389 Q685 438 615 438 Q527 438 479 388 Q430 339 412 234 L354 -100 L331 -100 L389 234 Q407 341 381 389 Q354 438 285 438 Q194 438 148 392 Q101 346 83 244 L23 -100 L1 -100 L96 448 L116 448 L99 348 Q156 457 288 457 Q413 457 420 324 Q474 457 618 457 Z " />
<glyph glyph-name="o" unicode="o" horiz-adv-x="573" d="M237 -109 Q119 -109 63 -33 Q8 43 30 175 Q53 307 134 382 Q214 458 334 458 Q455 458 509 382 Q565 304 543 175 Q521 44 438 -33 Q357 -109 237 -109 Z M81 -19 Q132 -90 240 -90 Q348 -90 425 -18 Q500 53 521 175 Q542 297 491 368 Q440 439 331 439 Q224 439 148 368 Q74 297 53 175 Q32 53 81 -19 Z " />
<glyph glyph-name="p" unicode="p" horiz-adv-x="582" d="M536 382 Q591 304 567 175 Q543 44 462 -33 Q378 -109 260 -109 Q176 -109 124 -74 Q75 -38 61 27 L5 -281 L-16 -281 L114 448 L134 448 L111 321 Q130 353 155 378.5 Q180 404 213 422 Q276 458 362 458 Q482 458 536 382 Z M447 -18 Q522 51 545 175 Q567 296 517 368 Q466 439 359 439 Q251 439 183 378 Q114 319 94 213 L82 144 Q62 34 109 -27 Q157 -90 263 -90 Q372 -90 447 -18 Z " />
<glyph glyph-name="q" unicode="q" horiz-adv-x="583" d="M594 448 L469 -281 L447 -281 L500 27 Q464 -37 400 -74 Q336 -109 253 -109 Q133 -109 78 -33 Q22 45 44 175 Q66 305 149 382 Q228 458 350 458 Q434 458 487 422 Q538 386 552 321 L574 448 L594 448 Z M532 213 Q550 317 501 378 Q452 439 347 439 Q238 439 162 368 Q88 297 67 175 Q46 52 96 -19 Q147 -90 256 -90 Q363 -90 432 -27 Q502 37 520 144 L532 213 Z " />
<glyph glyph-name="r" unicode="r" horiz-adv-x="297" d="M315 447 L311 428 L289 428 Q210 427 155 384 Q102 342 84 244 L22 -100 L0 -100 L99 448 L119 448 L98 335 Q131 394 182 420 Q230 444 296 447 L315 447 Z " />
<glyph glyph-name="s" unicode="s" horiz-adv-x="473" d="M185 -109 Q122 -109 71 -84 Q44 -71 27 -57 Q10 -43 1 -27 L19 -11 L22 -14 Q24 -16 25.5 -18.5 Q27 -21 29 -24 Q39 -37 54.5 -48 Q70 -59 93 -69 Q138 -90 188 -90 Q281 -90 337 -57 Q392 -24 404 42 Q413 94 377 127 Q342 159 271 177 L197 195 Q134 210 104 243 Q73 275 84 334 Q93 384 150 422 Q207 458 291 458 Q322 458 352 450 Q380 441 399 428 Q409 421 417 415 Q425 409 430 402 Q445 389 449 377 L431 363 Q423 373 414 384 Q406 393 395.5 402.5 Q385 412 372 420 Q338 439 288 439 Q214 439 164 408 Q113 375 106 334 Q97 282 123 255 Q148 230 206 214 L278 196 Q445 152 426 42 Q413 -33 351 -71 Q287 -109 185 -109 Z " />
<glyph glyph-name="t" unicode="t" horiz-adv-x="362" d="M149 427 L86 56 Q74 -10 97 -45 Q118 -81 170 -81 L280 -81 L276 -100 L166 -100 Q106 -100 77 -59 Q51 -17 64 56 L127 427 L41 427 L45 446 L131 446 L162 629 L184 629 L153 446 L372 446 L368 427 L149 427 Z " />
<glyph glyph-name="u" unicode="u" horiz-adv-x="504" d="M506 448 L403 -100 L383 -100 L404 13 Q341 -109 190 -109 Q91 -109 56 -47 Q20 14 43 135 L102 448 L124 448 L65 135 Q44 26 76 -32 Q104 -90 194 -90 Q383 -90 419 105 L484 448 L506 448 Z " />
<glyph glyph-name="v" unicode="v" horiz-adv-x="481" d="M478 448 L503 448 L205 -100 L180 -100 L72 448 L96 448 L197 -68 L478 448 L478 448 Z " />
<glyph glyph-name="w" unicode="w" horiz-adv-x="777" d="M775 448 L800 448 L521 -100 L497 -100 L424 390 L175 -100 L151 -100 L70 448 L95 448 L170 -64 L429 448 L441 448 L516 -64 L775 448 L775 448 Z " />
<glyph glyph-name="x" unicode="x" horiz-adv-x="506" d="M442 -100 L414 -100 L253 183 L-3 -100 L-28 -100 L245 199 L104 447 L131 447 L262 217 L472 447 L496 447 L271 201 L442 -100 L442 -100 Z " />
<glyph glyph-name="y" unicode="y" horiz-adv-x="482" d="M520 448 L168 -198 Q157 -217 143 -232.5 Q129 -248 112 -259 Q78 -281 42 -281 L12 -281 L16 -259 L56 -259 Q83 -259 106 -240 Q131 -222 151 -187 L199 -99 L87 448 L113 448 L214 -71 L496 448 L520 448 Z " />
<glyph glyph-name="z" unicode="z" horiz-adv-x="500" d="M522 448 L519 429 L14 -81 L432 -81 L429 -100 L-19 -100 L-16 -81 L489 429 L70 429 L73 448 L522 448 L522 448 Z " />
<glyph glyph-name="bar" unicode="&#x7c;" horiz-adv-x="124" d="M156 721 L-8 -231 L-32 -231 L132 721 L156 721 Z " />
<glyph glyph-name="braceleft" unicode="&#x7b;" horiz-adv-x="246" d="M300 721 L299 715 L296 700 L276 700 L273 700 Q240 700 215 672 Q190 644 181 597 L134 346 Q129 325 121 308 Q110 290 101 279 Q96 274 91 269.5 Q86 265 81 260 Q69 251 63 249 L57 245 Q60 245 62 242 Q65 241 75 231 Q79 226 82.5 221.5 Q86 217 88 212 Q94 202 97 183 Q99 174 98.5 164.5 Q98 155 96 144 L48 -108 Q39 -156 54 -183 Q68 -212 100 -212 L105 -212 L123 -212 L120 -227 L120 -232 L102 -232 Q55 -232 34 -198 Q13 -166 24 -108 L71 140 Q74 159 72 181 Q69 198 61 211 Q56 221 46 231 Q37 240 33 242 L27 245 Q31 247 34 249 Q37 251 41.5 253.5 Q46 256 52 260 Q59 265 64.5 270 Q70 275 75 280 Q85 290 96 310 Q101 320 105 329.5 Q109 339 111 350 L157 597 Q167 653 201 687 Q233 719 280 721 L300 721 Z " />
<glyph glyph-name="braceright" unicode="&#x7d;" horiz-adv-x="245" d="M218 244 Q215 244 211 241 Q208 240 193 230 Q179 220 171 210 Q160 199 151 180 Q140 159 137 139 L94 -109 Q85 -167 51 -199 Q18 -233 -28 -233 L-46 -233 L-42 -213 L-24 -213 L-19 -213 Q13 -213 37 -184 Q62 -157 70 -109 L113 143 Q117 164 125 182 Q134 200 145 211 Q155 223 165 230 Q170 234 174 236.5 Q178 239 181 241 L188 244 Q184 246 182 248 Q180 250 177.5 252 Q175 254 170 259 Q166 264 162.5 268.5 Q159 273 156 278 Q154 283 151.5 290.5 Q149 298 147 307 Q145 316 145.5 325 Q146 334 148 345 L191 596 Q199 644 184 671 Q169 700 136 700 L134 700 L113 700 L116 720 L134 720 L137 720 Q181 719 202 686 Q224 654 215 596 L173 349 Q169 330 172 309 Q174 300 176.5 292.5 Q179 285 183 279 Q187 274 190.5 269 Q194 264 198 259 Q206 251 212 248 L218 244 Z " />
<glyph glyph-name="asciitilde" unicode="&#x7e;" horiz-adv-x="572" d="M396 212 Q377 212 359 221 Q340 231 326 243 Q319 250 311.5 257.5 Q304 265 297 273 Q290 281 283.5 289.5 Q277 298 269 306 Q256 324 241 337 Q229 349 209 359 Q201 364 191.5 365.5 Q182 367 173 367 Q125 367 100 341 Q73 313 60 258 Q55 238 33 243 L31 243 Q47 315 82 351 Q116 388 176 388 Q203 388 232 372 Q259 355 279 333 Q290 322 299.5 310 Q309 298 318 287 Q329 276 338.5 266.5 Q348 257 359 249 Q379 233 399 233 Q447 233 473 259 Q498 283 514 338 Q517 355 539 355 L540 355 Q522 285 487 248 Q452 212 396 212 Z " />
<glyph glyph-name="Euro" unicode="&#x20ac;" horiz-adv-x="624" d="M627 629 L626 624 L623 609 L608 609 L586 609 L473 609 Q345 609 253 541 Q165 475 122 347 L475 347 L506 347 L503 327 L482 327 L472 327 L116 327 Q112 312 108.5 296.5 Q105 281 103 264 Q100 248 97 217 L415 217 L455 217 L451 196 L429 196 L411 196 L95 196 Q89 63 157 -8 Q224 -80 358 -80 L474 -80 L492 -80 L507 -80 L504 -95 L503 -100 L470 -100 L354 -100 Q210 -100 136 -23 Q64 54 71 196 L54 196 L33 196 L37 217 L58 217 L59 217 L73 217 Q76 248 79 264 Q81 281 84.5 296.5 Q88 312 92 327 L79 327 L55 327 L58 347 L80 347 L86 347 L98 347 Q142 485 239 557 Q336 629 477 629 L590 629 L627 629 Z " />
<glyph glyph-name="circumflex" unicode="&#x2c6;" horiz-adv-x="326" d="M289 525 L258 525 L174 624 L59 525 L28 525 L148 628 Q162 641 177 641 Q191 641 203 628 L289 525 Z " />
<glyph glyph-name="D" unicode="D" horiz-adv-x="701" d="M369 629 Q532 629 602 534 Q672 440 642 264 Q610 90 507 -6 Q403 -100 240 -100 L-4 -100 L124 629 L369 629 Z M244 -80 Q395 -80 491 9 Q588 98 618 264 Q646 429 582 519 Q515 608 365 608 L144 608 L23 -80 L244 -80 Z " />
<glyph glyph-name="exclam" unicode="&#x21;" horiz-adv-x="124" d="M28 0 L4 0 L113 629 L137 629 L28 0 Z M-10 -63 L21 -63 L14 -100 L-17 -100 L-10 -63 L-10 -63 Z " />
<glyph glyph-name="quotedbl" unicode="&#x22;" horiz-adv-x="187" d="M35 520 Q32 520 31 522 Q31 524 30.5 524.5 Q30 525 31 527 L61 590 Q65 597 59 602 Q50 611 53 623 Q54 632 63 641 Q72 647 82 647 Q92 647 98 641 Q104 635 102 623 Q101 621 91.5 599.5 Q82 578 62 536 Q58 527 52 523 Q44 520 35 520 Z M96 520 Q93 520 92 522 Q92 524 91.5 524.5 Q91 525 92 527 L122 590 Q126 597 120 602 Q111 611 114 623 Q115 632 124 641 Q133 647 142 647 Q153 647 158 641 Q165 634 163 623 Q162 621 152 599.5 Q142 578 122 536 Q119 527 112 523 Q106 520 96 520 Z " />
<glyph glyph-name="numbersign" unicode="&#x23;" horiz-adv-x="624" d="M590 376 L480 376 L393 153 L505 153 L496 133 L385 133 L295 -100 L275 -100 L365 133 L141 133 L52 -100 L32 -100 L121 133 L10 133 L19 153 L129 153 L216 376 L104 376 L112 396 L223 396 L313 629 L333 629 L243 396 L467 396 L556 629 L576 629 L487 396 L598 396 L590 376 L590 376 Z M373 153 L460 376 L237 376 L150 153 L373 153 L373 153 Z " />
<glyph glyph-name="percent" unicode="&#x25;" horiz-adv-x="618" d="M262 434 Q221 398 170 398 Q118 398 90 434 Q60 469 69 520 Q78 572 120 606 Q160 642 212 642 Q263 642 292 606 Q322 571 313 520 Q304 468 262 434 Z M107 448 Q131 418 173 418 Q215 418 250 448 Q284 478 292 520 Q300 562 274 591 Q250 621 208 621 Q165 621 131 591 Q98 564 90 520 Q82 477 107 448 Z M459 -73 Q415 -109 365 -109 Q314 -109 287 -73 Q256 -39 265 13 Q274 65 316 99 Q356 135 407 135 Q458 135 488 99 Q517 64 508 13 Q499 -38 459 -73 Z M369 -88 Q411 -88 446 -58 Q480 -30 488 13 Q495 54 471 85 Q446 114 404 114 Q361 114 328 85 Q294 56 286 13 Q278 -30 303 -58 Q328 -88 369 -88 Z M584 629 L613 629 L-6 -100 L-31 -100 L584 629 Z " />
<glyph glyph-name="quotesingle" unicode="&#x27;" horiz-adv-x="139" d="M38 514 Q34 514 33 516 Q32 518 32.5 518.5 Q33 519 33 521 L63 584 Q66 591 60 596 Q52 604 53 617 Q56 627 64 635 Q73 641 82 641 Q92 641 98 635 Q105 629 102 617 Q102 612 63 530 Q59 520 53 517 Q47 514 38 514 Z " />
<glyph glyph-name="ampersand" unicode="&#x26;" horiz-adv-x="720" d="M617 -78 L647 -78 L646 -81 Q645 -83 645 -85.5 Q645 -88 644 -91 Q643 -95 643 -98 L625 -98 L615 -98 Q575 -98 543 -82 Q509 -65 493 -39 L475 -8 Q357 -109 229 -109 Q109 -109 48 -46 Q-12 14 5 118 Q9 143 19.5 166.5 Q30 190 47 212 Q80 255 133 287 L252 357 L205 431 Q200 442 195.5 452.5 Q191 463 189 476 Q185 499 188 522 Q197 576 240 609 Q283 641 343 641 Q410 641 442 609 Q474 577 464 517 Q454 452 365 399 L284 351 L483 26 Q569 110 620 234 Q624 242 626 248 Q627 251 628 253 L649 246 Q620 174 582 115 Q544 56 493 9 L513 -24 Q527 -47 556 -63 Q586 -78 617 -78 Z M233 -88 Q353 -88 465 10 L262 339 L140 266 Q117 252 98.5 236 Q80 220 65 201 Q51 181 42 160.5 Q33 140 29 118 Q12 25 69 -32 Q123 -88 233 -88 Z M228 443 L272 369 L355 416 Q394 439 416 464 Q435 486 440 517 Q449 564 422 594 Q395 621 339 621 Q291 621 255 594 Q220 567 212 522 Q206 483 228 443 Z " />
<glyph glyph-name="parenleft" unicode="&#x28;" horiz-adv-x="235" d="M46 237 Q89 492 243 700 L261 691 Q259 687 256 683 Q254 680 252 677 Q250 674 248 672 Q179 572 135 464 Q91 356 71 237 Q37 32 107 -184 Q108 -186 108.5 -189 Q109 -192 111 -195 Q112 -199 114 -202 L91 -212 Q9 16 46 237 Z " />
<glyph glyph-name="parenright" unicode="&#x29;" horiz-adv-x="234" d="M-12 -212 L-31 -202 Q-29 -199 -26 -195 Q-20 -187 -18 -184 Q124 31 160 237 Q202 472 132 672 Q129 677 128 683 L126 691 L147 700 Q229 494 184 237 Q165 125 116 14 Q67 -97 -12 -212 Z " />
<glyph glyph-name="asterisk" unicode="&#x2a;" horiz-adv-x="448" d="M411 501 L241 454 L320 318 L297 304 L225 444 L104 304 L88 318 L210 454 L56 501 L67 524 L220 471 L246 641 L270 641 L238 471 L408 524 L411 501 L411 501 Z " />
<glyph glyph-name="plus" unicode="&#x2b;" horiz-adv-x="564" d="M526 264 L523 243 L292 243 L251 0 L227 0 L268 243 L37 243 L40 264 L271 264 L312 506 L336 506 L295 264 L526 264 L526 264 Z " />
<glyph glyph-name="comma" unicode="&#x2c;" horiz-adv-x="139" d="M47 -180 Q43 -180 42 -177 Q40 -176 43 -173 L72 -109 Q76 -102 70 -96 Q61 -90 63 -76 Q66 -64 73 -59 Q81 -52 91 -52 Q101 -52 107 -58 Q115 -65 112 -76 Q112 -82 72 -163 Q67 -174 62 -177 Q57 -180 47 -180 Z " />
<glyph glyph-name="hyphen" unicode="&#x2d;" horiz-adv-x="434" d="M381 269 L378 247 L64 247 L67 269 L381 269 Z " />
<glyph glyph-name="period" unicode="&#x2e;" horiz-adv-x="91" d="M61 -103 Q53 -109 42 -109 Q32 -109 25 -103 Q19 -94 22 -85 Q23 -76 31 -68 Q39 -61 51 -61 Q61 -61 67 -68 Q73 -74 71 -85 Q68 -96 61 -103 Z " />
<glyph glyph-name="slash" unicode="&#x2f;" horiz-adv-x="569" d="M-20 -203 L563 750 L588 750 L4 -203 L-20 -203 L-20 -203 Z " />
<glyph glyph-name="zero" unicode="0" horiz-adv-x="633" d="M251 -109 Q124 -109 70 -10 Q18 91 49 272 Q80 449 167 548 Q255 645 382 645 Q509 645 562 548 Q616 451 584 272 Q552 88 465 -10 Q379 -109 251 -109 Z M92 6 Q138 -87 255 -87 Q370 -87 450 6 Q529 100 559 272 Q589 440 541 531 Q494 623 378 623 Q263 623 183 531 Q104 440 74 272 Q44 101 92 6 Z " />
<glyph glyph-name="one" unicode="1" horiz-adv-x="194" d="M210 635 L77 -100 L52 -100 L170 546 L59 546 L62 563 L173 563 L193 635 L210 635 L210 635 Z " />
<glyph glyph-name="two" unicode="2" horiz-adv-x="558" d="M308 215 Q239 179 195.5 154.5 Q152 130 132 116 Q100 96 79 75.5 Q58 55 44 34 Q20 -7 8 -80 L431 -80 L427 -100 L-20 -100 L-16 -80 Q-13 -59 -9 -41 Q-5 -23 0 -8 Q9 23 27 48 Q36 62 45.5 73 Q55 84 65 94 Q84 113 119 135 Q136 146 153.5 156.5 Q171 167 188 176 Q205 186 227.5 198 Q250 210 278 225 Q285 229 290 231.5 Q295 234 298 236 Q344 259 380 283 Q416 307 442 330 Q494 377 504 437 Q517 517 471 568 Q423 618 333 618 Q258 618 195 578 Q135 539 110 474 L104 456 L82 463 Q108 543 177 591 Q245 640 337 640 Q437 640 490 584 Q543 528 528 437 Q516 372 461 318 Q405 267 308 215 Z " />
<glyph glyph-name="three" unicode="3" horiz-adv-x="530" d="M357 282 Q425 267 459 221 Q491 174 479 107 Q463 10 386 -50 Q311 -109 202 -109 Q142 -109 96 -88 Q71 -77 52.5 -61 Q34 -45 20 -25 Q-8 16 -6 69 L18 74 L18 62 Q22 -6 74 -48 Q126 -89 206 -89 Q303 -89 371 -36 Q439 18 454 107 Q467 182 424 227 Q379 272 292 272 L210 272 L213 292 L231 292 L295 292 Q371 292 424 336 Q478 381 491 454 Q505 529 460 574 Q415 619 330 619 Q289 619 253 609 Q217 599 184 579 Q120 539 95 475 Q93 470 92 467 Q91 464 90 462 Q89 459 88 458 L67 464 Q93 544 165 592 Q236 641 332 641 Q430 641 480 590 Q530 538 515 454 Q503 388 461 343 Q421 299 357 282 Z " />
<glyph glyph-name="four" unicode="4" horiz-adv-x="488" d="M443 93 L440 73 L355 73 L325 -100 L300 -100 L330 73 L-15 73 L-12 93 L425 630 L450 630 L358 93 L443 93 L443 93 Z M12 93 L333 93 L418 590 L12 93 L12 93 Z " />
<glyph glyph-name="five" unicode="5" horiz-adv-x="563" d="M305 381 Q417 381 472 314 Q528 248 508 136 Q488 23 410 -42 Q331 -109 219 -109 Q123 -109 66 -62 Q8 -16 3 63 L26 70 Q26 69 27 66 Q27 63 29 53 Q36 -11 89 -49 Q141 -87 223 -87 Q325 -87 395 -26 Q466 34 484 136 Q502 236 451 298 Q402 359 301 359 Q237 359 173 327 Q110 294 71 240 L46 240 L145 629 L553 629 L549 608 L163 608 L82 285 Q103 308 128.5 325 Q154 342 183 356 Q242 381 305 381 Z " />
<glyph glyph-name="six" unicode="6" horiz-adv-x="580" d="M234 -109 Q170 -109 131 -88 Q89 -65 61 -22 Q47 0 39.5 26 Q32 52 30 83 Q27 145 42 234 Q113 641 374 641 Q449 641 501 594 Q550 547 563 469 L538 460 L538 464 Q538 466 537.5 468.5 Q537 471 537 475 Q524 542 479 582 Q437 621 370 621 Q249 621 175 520 Q137 469 109 394 Q81 319 64 218 Q97 285 167 322 Q239 360 333 360 Q440 360 489 296 Q537 230 518 121 Q500 17 424 -47 Q350 -109 234 -109 Z M238 -89 Q342 -89 408 -33 Q478 23 494 118 Q512 219 469 280 Q428 339 331 339 Q218 339 148 285 Q77 231 59 132 Q53 92 60 54 Q66 16 87 -13 Q141 -89 238 -89 Z " />
<glyph glyph-name="seven" unicode="7" horiz-adv-x="466" d="M505 629 L501 605 Q495 573 486.5 542.5 Q478 512 466 483 Q443 426 410 378 Q395 355 378 333 Q361 311 343 289 Q325 267 306.5 245.5 Q288 224 269 202 Q250 181 232.5 159.5 Q215 138 198 115 Q181 93 164.5 68.5 Q148 44 134 16 Q104 -39 86 -100 L55 -100 Q65 -68 77.5 -38 Q90 -8 107 21 Q138 79 173 123 Q191 146 208.5 167.5 Q226 189 246 210 Q266 231 284.5 252.5 Q303 274 321 295 Q339 316 355.5 338 Q372 360 388 383 Q421 430 444 486 Q456 515 465 545 Q474 575 479 608 L75 608 L79 629 L505 629 Z " />
<glyph glyph-name="nine" unicode="9" horiz-adv-x="582" d="M192 -109 Q113 -109 61 -61 Q9 -13 0 66 L23 74 Q23 72 24 70 Q24 68 26 60 Q36 -8 83 -48 Q130 -89 197 -89 Q316 -89 400 15 Q484 122 515 304 Q482 238 411 205 Q343 171 244 171 Q136 171 93 237 Q47 302 67 418 Q84 516 161 578 Q238 640 354 640 Q435 640 483 598 Q532 556 544 482 Q557 411 539 307 Q503 104 415 -2 Q371 -56 315 -82.5 Q259 -109 192 -109 Z M246 192 Q363 192 435 243 Q505 294 523 392 Q532 450 516 502 Q499 553 455 586 Q412 620 353 620 Q253 620 180 563 Q108 507 93 421 Q73 312 112 252 Q151 192 246 192 Z " />
<glyph glyph-name="eight" unicode="8" horiz-adv-x="519" d="M348 292 Q421 274 456 224 Q491 174 479 103 Q463 6 385 -51 Q309 -109 197 -109 Q82 -109 23 -51 Q-35 7 -19 103 Q-7 175 45 224 Q98 274 180 292 Q114 310 85 353 Q55 397 65 458 Q79 541 149 591 Q220 641 323 641 Q424 641 476 591 Q527 540 514 458 Q503 396 460 353 Q416 310 348 292 Z M201 -89 Q303 -89 371 -37 Q439 16 454 103 Q467 184 416 232 Q364 281 263 281 Q159 281 89 232 Q18 184 5 103 Q-9 14 44 -37 Q97 -89 201 -89 Z M89 458 Q77 387 126 345 Q173 302 267 302 Q357 302 418 345 Q478 388 490 458 Q502 531 457 576 Q410 621 320 621 Q228 621 165 576 Q101 530 89 458 Z " />
<glyph glyph-name="colon" unicode="&#x3a;" horiz-adv-x="175" d="M143 458 Q135 451 124 451 Q112 451 108 458 Q103 465 104 475 Q105 486 114 493 Q123 500 132 500 Q142 500 149 493 Q151 489 152.5 485 Q154 481 153 475 Q152 467 143 458 Z M56 -52 Q47 -58 37 -58 Q25 -58 21 -52 Q15 -45 17 -34 Q19 -23 27 -17 Q34 -10 45 -10 Q56 -10 62 -17 Q67 -24 66 -34 Q65 -43 56 -52 Z " />
<glyph glyph-name="semicolon" unicode="&#x3b;" horiz-adv-x="172" d="M3 -138 Q0 -138 0 -135 Q-2 -133 0 -131 L28 -67 Q33 -58 26 -54 Q17 -48 19 -34 Q22 -24 29 -17 Q37 -10 48 -10 Q58 -10 64 -16 Q71 -24 68 -34 Q68 -37 30 -121 Q25 -132 18 -135 Q13 -138 3 -138 Z M144 458 Q137 451 126 451 Q115 451 109 458 Q104 465 105 475 Q107 486 115 493 Q125 500 134 500 Q145 500 150 493 Q156 486 154 475 Q153 465 144 458 Z " />
<glyph glyph-name="less" unicode="&#x3c;" horiz-adv-x="588" d="M510 98 L496 76 L48 292 L51 310 L575 525 L582 505 L88 300 L510 98 L510 98 Z " />
<glyph glyph-name="equal" unicode="&#x3d;" horiz-adv-x="635" d="M90 358 L94 378 L580 378 L576 358 L90 358 L90 358 Z M63 196 L67 216 L553 216 L549 196 L63 196 L63 196 Z " />
<glyph glyph-name="greater" unicode="&#x3e;" horiz-adv-x="590" d="M502 299 L78 504 L93 524 L541 309 L538 291 L15 75 L7 97 L502 299 L502 299 Z " />
<glyph glyph-name="question" unicode="&#x3f;" horiz-adv-x="473" d="M431 589 Q476 538 461 449 Q455 420 441 391 Q426 366 406 344 Q395 333 384 323 Q373 313 361 303 Q350 293 338 283 Q326 273 314 262 Q303 252 292 241.5 Q281 231 270 220 Q248 197 234 168 Q218 141 212 105 L194 3 L169 3 L187 106 Q191 123 196 139 Q201 155 209 170 Q217 185 226 198.5 Q235 212 245 224 Q267 247 290 269 Q302 280 314 290.5 Q326 301 338 311 Q362 332 382 352 Q392 363 400.5 374 Q409 385 417 398 Q431 421 436 449 Q450 528 410 574 Q372 621 290 621 Q209 621 154 579 Q98 538 80 472 L76 451 L53 451 Q54 456 55 462 Q56 468 57 473 Q68 508 86.5 537 Q105 566 134 589 Q198 641 293 641 Q385 641 431 589 Z M155 -63 L187 -63 L180 -100 L148 -100 L155 -63 Z " />
<glyph glyph-name="caron" unicode="&#x2c7;" horiz-adv-x="349" d="M269 594 L187 526 Q173 513 158 513 Q144 513 132 526 L79 594 L50 629 L60 629 L64 629 L81 629 L91 617 L110 594 L161 530 L266 617 L267 618 L280 629 L297 629 L302 629 L312 629 L269 594 Z " />
<glyph glyph-name="at" unicode="&#x40;" horiz-adv-x="997" d="M954 409 Q972 358 976 300 Q980 242 969 174 Q964 146 956 121.5 Q948 97 936 76 Q914 34 883 6 Q863 -13 842.5 -25 Q822 -37 803 -39 Q785 -43 766.5 -37.5 Q748 -32 740 -24 Q730 -16 727.5 -6.5 Q725 3 726 11 L729 28 L728 28 Q714 1 696 -18 Q692 -23 688.5 -27 Q685 -31 680 -35 Q655 -58 628 -74 Q565 -109 478 -109 Q358 -109 304 -33 Q248 42 271 174 Q294 307 375 382 Q457 458 575 458 Q660 458 711 422 Q732 408 748 387 L749 386 Q759 372 765.5 356 Q772 340 777 322 L799 453 L821 453 L750 34 Q746 13 751 2 Q756 -9 765.5 -13.5 Q775 -18 786.5 -18.5 Q798 -19 807 -18 Q819 -15 837 -3 Q855 9 872 23 Q928 74 946 174 Q961 271 945 349 Q927 429 884 484 Q837 540 764 570 Q692 601 596 601 Q500 601 416 570 Q334 541 268 484 Q202 427 159 349 Q137 309 122 265.5 Q107 222 99 174 Q91 126 91.5 82.5 Q92 39 100 -1 Q116 -79 161 -136 Q207 -191 281 -222 Q357 -253 449 -253 Q519 -253 596 -229 Q672 -206 728 -167 Q745 -156 756 -168 L760 -172 Q698 -217 613 -244 Q529 -272 446 -272 Q347 -272 268 -240 Q190 -209 142 -150 Q95 -92 77 -10 Q59 74 77 174 Q85 225 100.5 270.5 Q116 316 140 358 Q185 440 253 499 Q323 557 409 588 Q500 620 599 620 Q735 620 824 565 Q915 511 954 409 Z M757 204 Q772 296 740 357 Q737 362 734 366.5 Q731 371 727 376 Q725 378 724 378 Q679 438 572 438 Q463 438 390 368 Q315 297 294 174 Q291 163 291 153 Q278 51 319 -13 Q319 -13 319 -14 Q320 -16 323 -19 Q372 -90 481 -90 Q588 -90 658 -29 Q661 -28 664 -23 Q673 -16 680 -7 Q730 51 745 136 L757 204 Z " />
<glyph glyph-name="bracketleft" unicode="&#x5b;" horiz-adv-x="274" d="M314 721 L311 700 L153 700 L-5 -212 L152 -212 L149 -232 L-32 -232 L132 721 L314 721 Z " />
<glyph glyph-name="grave" unicode="&#x60;" horiz-adv-x="249" d="M67 629 L102 629 L192 513 L163 513 L67 629 L67 629 Z " />
<glyph glyph-name="dollar" unicode="&#x24;" horiz-adv-x="577" d="M385 281 Q549 236 524 90 Q507 -3 436 -54 Q366 -105 238 -109 L221 -207 L201 -207 L218 -109 Q65 -109 -21 -9 L-4 9 Q16 -16 42 -35 Q68 -54 101 -67 Q129 -78 159 -83.5 Q189 -89 222 -89 L286 282 L216 300 Q134 321 100 364 Q66 405 77 469 Q91 552 161 597 Q230 642 349 642 L364 730 L384 730 L369 642 Q431 638 483 610 Q534 583 570 541 L554 527 Q534 549 510.5 567 Q487 585 456 599 Q414 618 365 621 L309 301 L385 281 Z M345 622 Q305 622 260.5 615 Q216 608 176 582 Q114 543 102 469 Q83 363 230 322 L290 306 L345 622 Z M414 -43 Q485 4 500 90 Q523 222 373 259 L305 277 L242 -89 Q350 -86 414 -43 Z " />
<glyph glyph-name="tilde" unicode="&#x2dc;" horiz-adv-x="595" d="M400 494 Q386 494 372 502 Q365 506 358.5 510.5 Q352 515 347 520 Q342 526 336.5 532 Q331 538 326 545 Q313 560 305 573 Q299 581 294 587 Q289 593 283 598 Q278 604 271.5 608.5 Q265 613 258 617 Q252 621 245 622 Q238 623 231 623 Q213 623 198.5 618 Q184 613 174 602 Q163 590 155 573 Q147 556 140 533 Q137 517 120 520 L118 520 Q125 550 135.5 572.5 Q146 595 160 610 Q187 641 235 641 Q254 641 277 628 Q287 620 295.5 612.5 Q304 605 312 595 Q320 586 327.5 576 Q335 566 342 557 Q350 547 357 539 Q364 531 373 525 Q380 518 388 515 Q396 512 403 512 Q441 512 461 533 Q482 555 494 599 Q498 613 515 613 L516 613 Q500 555 472 524 Q458 509 440.5 501.5 Q423 494 400 494 Z " />
<glyph glyph-name="cedilla" unicode="&#xb8;" horiz-adv-x="245" d="M205 -182 Q219 -196 214 -224 Q210 -252 186 -269 Q163 -285 124 -285 L58 -285 L23 -285 L27 -263 L47 -263 L62 -263 L133 -263 Q157 -263 174 -253 Q191 -242 194 -224 Q197 -210 189 -199 Q181 -190 168 -190 L81 -190 Q66 -190 62 -183 Q59 -174 61 -166 L82 -100 L101 -100 L78 -168 L164 -168 Q193 -168 205 -182 Z " />
<glyph glyph-name="dieresis" unicode="&#xa8;" horiz-adv-x="210" d="M46 592 L78 592 L71 555 L39 555 L46 592 L46 592 Z M143 592 L175 592 L168 555 L136 555 L143 592 L143 592 Z " />
<glyph glyph-name="Ydieresis" unicode="&#x178;" horiz-adv-x="579" d="M625 630 L308 241 L250 -100 L226 -100 L284 240 L101 630 L131 630 L300 260 L595 630 L625 630 L625 630 Z M324 794 L356 794 L349 757 L317 757 L324 794 L324 794 Z M421 794 L453 794 L446 757 L414 757 L421 794 L421 794 Z " />
<glyph glyph-name="Edieresis" unicode="&#xcb;" horiz-adv-x="539" d="M541 608 L143 608 L87 285 L477 285 L474 264 L84 264 L24 -80 L422 -80 L418 -100 L-3 -100 L123 629 L545 629 L541 608 L541 608 Z M290 790 L322 790 L315 753 L283 753 L290 790 L290 790 Z M387 790 L419 790 L412 753 L380 753 L387 790 L387 790 Z " />
<glyph glyph-name="Adieresis" unicode="&#xc4;" horiz-adv-x="614" d="M507 -100 L457 143 L116 143 L-16 -100 L-41 -100 L355 629 L379 629 L536 -100 L507 -100 L507 -100 Z M126 163 L453 163 L364 604 L126 163 L126 163 Z M304 796 L336 796 L329 759 L297 759 L304 796 L304 796 Z M401 796 L433 796 L426 759 L394 759 L401 796 L401 796 Z " />
<glyph glyph-name="Odieresis" unicode="&#xd6;" horiz-adv-x="774" d="M589 -11 Q485 -109 323 -109 Q161 -109 89 -11 Q17 87 49 266 Q79 445 184 543 Q290 641 452 641 Q614 641 684 544 Q755 448 725 266 Q694 86 589 -11 Z M327 -88 Q478 -88 574 4 Q670 95 700 266 Q728 437 663 529 Q598 621 448 621 Q297 621 199 529 Q151 482 119 417 Q87 352 73 266 Q43 97 110 4 Q174 -88 327 -88 Z M413 794 L445 794 L438 757 L406 757 L413 794 L413 794 Z M510 794 L542 794 L535 757 L503 757 L510 794 L510 794 Z " />
<glyph glyph-name="Udieresis" unicode="&#xdc;" horiz-adv-x="615" d="M449 -36 Q372 -109 242 -109 Q113 -109 62 -36 Q11 38 36 185 L114 630 L137 630 L60 185 Q13 -88 246 -88 Q479 -88 526 185 L604 630 L629 630 L551 185 Q525 36 449 -36 Z M319 788 L351 788 L344 751 L312 751 L319 788 L319 788 Z M416 788 L448 788 L441 751 L409 751 L416 788 L416 788 Z " />
<glyph glyph-name="adieresis" unicode="&#xe4;" horiz-adv-x="582" d="M579 453 L491 -65 L485 -100 L465 -100 L471 -65 L487 29 Q451 -37 386 -73 Q323 -109 237 -109 Q177 -109 134 -90 Q91 -71 62 -33 Q8 44 30 175 Q53 306 133 382 Q215 458 334 458 Q418 458 470 423 Q522 386 535 323 L557 453 L579 453 Z M515 205 Q533 314 486 376 Q438 439 331 439 Q224 439 148 368 Q74 297 53 175 Q32 53 81 -19 Q132 -90 240 -90 Q348 -90 416 -29 Q485 31 503 136 L515 205 Z M318 578 L350 578 L343 541 L311 541 L318 578 L318 578 Z M415 578 L447 578 L440 541 L408 541 L415 578 L415 578 Z " />
<glyph glyph-name="edieresis" unicode="&#xeb;" horiz-adv-x="573" d="M548 272 Q551 236 545 198 L543 191 L540 171 L522 171 L504 171 L50 171 Q30 52 82 -19 Q133 -90 240 -90 Q318 -90 378 -53 Q438 -16 478 53 Q480 57 481.5 60 Q483 63 485 65 Q486 68 487 69 L507 64 Q465 -20 396 -65 Q326 -109 237 -109 Q120 -109 63 -32 Q6 44 27 173 Q49 301 134 380 Q216 458 334 458 Q385 458 424 443 Q464 429 489 402 Q515 378 529 343 Q537 326 541.5 308.5 Q546 291 548 272 Z M521 190 Q539 298 488 369 Q437 439 331 439 Q227 439 153 371 Q79 304 53 190 L521 190 Z M301 590 L333 590 L326 553 L294 553 L301 590 L301 590 Z M398 590 L430 590 L423 553 L391 553 L398 590 L398 590 Z " />
<glyph glyph-name="odieresis" unicode="&#xf6;" horiz-adv-x="573" d="M237 -109 Q119 -109 63 -33 Q8 43 30 175 Q53 307 134 382 Q214 458 334 458 Q455 458 509 382 Q565 304 543 175 Q521 44 438 -33 Q357 -109 237 -109 Z M81 -19 Q132 -90 240 -90 Q348 -90 425 -18 Q500 53 521 175 Q542 297 491 368 Q440 439 331 439 Q224 439 148 368 Q74 297 53 175 Q32 53 81 -19 Z M306 590 L338 590 L331 553 L299 553 L306 590 L306 590 Z M403 590 L435 590 L428 553 L396 553 L403 590 L403 590 Z " />
<glyph glyph-name="udieresis" unicode="&#xfc;" horiz-adv-x="504" d="M506 448 L403 -100 L383 -100 L404 13 Q341 -109 190 -109 Q91 -109 56 -47 Q20 14 43 135 L102 448 L124 448 L65 135 Q44 26 76 -32 Q104 -90 194 -90 Q383 -90 419 105 L484 448 L506 448 Z M253 590 L285 590 L278 553 L246 553 L253 590 L253 590 Z M350 590 L382 590 L375 553 L343 553 L350 590 L350 590 Z " />
<glyph glyph-name="acute" unicode="&#xb4;" horiz-adv-x="219" d="M24 513 L156 629 L189 629 L51 513 L24 513 L24 513 Z " />
<glyph glyph-name="Aacute" unicode="&#xc1;" horiz-adv-x="614" d="M507 -100 L457 143 L116 143 L-16 -100 L-41 -100 L355 629 L379 629 L536 -100 L507 -100 L507 -100 Z M126 163 L453 163 L364 604 L126 163 L126 163 Z M283 715 L415 831 L448 831 L310 715 L283 715 L283 715 Z " />
<glyph glyph-name="Eacute" unicode="&#xc9;" horiz-adv-x="539" d="M541 608 L143 608 L87 285 L477 285 L474 264 L84 264 L24 -80 L422 -80 L418 -100 L-3 -100 L123 629 L545 629 L541 608 L541 608 Z M237 713 L369 829 L402 829 L264 713 L237 713 L237 713 Z " />
<glyph glyph-name="Iacute" unicode="&#xcd;" horiz-adv-x="192" d="M7 -100 L133 629 L157 629 L30 -100 L7 -100 L7 -100 Z M58 715 L190 831 L223 831 L85 715 L58 715 L58 715 Z " />
<glyph glyph-name="Oacute" unicode="&#xd3;" horiz-adv-x="774" d="M589 -11 Q485 -109 323 -109 Q161 -109 89 -11 Q17 87 49 266 Q79 445 184 543 Q290 641 452 641 Q614 641 684 544 Q755 448 725 266 Q694 86 589 -11 Z M327 -88 Q478 -88 574 4 Q670 95 700 266 Q728 437 663 529 Q598 621 448 621 Q297 621 199 529 Q151 482 119 417 Q87 352 73 266 Q43 97 110 4 Q174 -88 327 -88 Z M406 713 L538 829 L571 829 L433 713 L406 713 L406 713 Z " />
<glyph glyph-name="Uacute" unicode="&#xda;" horiz-adv-x="615" d="M449 -36 Q372 -109 242 -109 Q113 -109 62 -36 Q11 38 36 185 L114 630 L137 630 L60 185 Q13 -88 246 -88 Q479 -88 526 185 L604 630 L629 630 L551 185 Q525 36 449 -36 Z M294 711 L426 827 L459 827 L321 711 L294 711 L294 711 Z " />
<glyph glyph-name="Yacute" unicode="&#xdd;" horiz-adv-x="579" d="M625 630 L308 241 L250 -100 L226 -100 L284 240 L101 630 L131 630 L300 260 L595 630 L625 630 L625 630 Z M276 713 L408 829 L441 829 L303 713 L276 713 L276 713 Z " />
<glyph glyph-name="yacute" unicode="&#xfd;" horiz-adv-x="482" d="M520 448 L168 -198 Q157 -217 143 -232.5 Q129 -248 112 -259 Q78 -281 42 -281 L12 -281 L16 -259 L56 -259 Q83 -259 106 -240 Q131 -222 151 -187 L199 -99 L87 448 L113 448 L214 -71 L496 448 L520 448 Z M223 513 L355 629 L388 629 L250 513 L223 513 L223 513 Z " />
<glyph glyph-name="uacute" unicode="&#xfa;" horiz-adv-x="504" d="M506 448 L403 -100 L383 -100 L404 13 Q341 -109 190 -109 Q91 -109 56 -47 Q20 14 43 135 L102 448 L124 448 L65 135 Q44 26 76 -32 Q104 -90 194 -90 Q383 -90 419 105 L484 448 L506 448 Z M230 513 L362 629 L395 629 L257 513 L230 513 L230 513 Z " />
<glyph glyph-name="oacute" unicode="&#xf3;" horiz-adv-x="573" d="M237 -109 Q119 -109 63 -33 Q8 43 30 175 Q53 307 134 382 Q214 458 334 458 Q455 458 509 382 Q565 304 543 175 Q521 44 438 -33 Q357 -109 237 -109 Z M81 -19 Q132 -90 240 -90 Q348 -90 425 -18 Q500 53 521 175 Q542 297 491 368 Q440 439 331 439 Q224 439 148 368 Q74 297 53 175 Q32 53 81 -19 Z M293 513 L425 629 L458 629 L320 513 L293 513 L293 513 Z " />
<glyph glyph-name="aacute" unicode="&#xe1;" horiz-adv-x="582" d="M579 453 L491 -65 L485 -100 L465 -100 L471 -65 L487 29 Q451 -37 386 -73 Q323 -109 237 -109 Q177 -109 134 -90 Q91 -71 62 -33 Q8 44 30 175 Q53 306 133 382 Q215 458 334 458 Q418 458 470 423 Q522 386 535 323 L557 453 L579 453 Z M515 205 Q533 314 486 376 Q438 439 331 439 Q224 439 148 368 Q74 297 53 175 Q32 53 81 -19 Q132 -90 240 -90 Q348 -90 416 -29 Q485 31 503 136 L515 205 Z M282 513 L414 629 L447 629 L309 513 L282 513 L282 513 Z " />
<glyph glyph-name="ring" unicode="&#x2da;" horiz-adv-x="224" d="M154 514 Q130 494 98 494 Q65 494 49 514 Q32 534 38 567 Q42 598 68 620 Q93 641 125 641 Q156 641 173 620 Q190 600 185 567 Q179 536 154 514 Z M67 530 Q79 515 102 515 Q124 515 141 530 Q158 544 163 567 Q166 591 154 605 Q143 620 121 620 Q98 620 80 605 Q72 597 67 587.5 Q62 578 60 567 Q55 543 67 530 Z " />
<glyph glyph-name="Aring" unicode="&#xc5;" horiz-adv-x="614" d="M507 -100 L457 143 L116 143 L-16 -100 L-41 -100 L355 629 L379 629 L536 -100 L507 -100 L507 -100 Z M126 163 L453 163 L364 604 L126 163 L126 163 Z M408 716 Q384 696 352 696 Q319 696 303 716 Q286 736 292 769 Q296 800 322 822 Q347 843 379 843 Q410 843 427 822 Q444 802 439 769 Q433 738 408 716 Z M321 732 Q333 717 356 717 Q378 717 395 732 Q412 746 417 769 Q420 793 408 807 Q397 822 375 822 Q352 822 334 807 Q326 799 321 789.5 Q316 780 314 769 Q309 745 321 732 Z " />
<glyph glyph-name="aring" unicode="&#xe5;" horiz-adv-x="582" d="M579 453 L491 -65 L485 -100 L465 -100 L471 -65 L487 29 Q451 -37 386 -73 Q323 -109 237 -109 Q177 -109 134 -90 Q91 -71 62 -33 Q8 44 30 175 Q53 306 133 382 Q215 458 334 458 Q418 458 470 423 Q522 386 535 323 L557 453 L579 453 Z M515 205 Q533 314 486 376 Q438 439 331 439 Q224 439 148 368 Q74 297 53 175 Q32 53 81 -19 Q132 -90 240 -90 Q348 -90 416 -29 Q485 31 503 136 L515 205 Z M415 514 Q391 494 359 494 Q326 494 310 514 Q293 534 299 567 Q303 598 329 620 Q354 641 386 641 Q417 641 434 620 Q451 600 446 567 Q440 536 415 514 Z M328 530 Q340 515 363 515 Q385 515 402 530 Q419 544 424 567 Q427 591 415 605 Q404 620 382 620 Q359 620 341 605 Q333 597 328 587.5 Q323 578 321 567 Q316 543 328 530 Z " />
<glyph glyph-name="Ecircumflex" unicode="&#xca;" horiz-adv-x="539" d="M541 608 L143 608 L87 285 L477 285 L474 264 L84 264 L24 -80 L422 -80 L418 -100 L-3 -100 L123 629 L545 629 L541 608 L541 608 Z M476 721 L445 721 L361 820 L246 721 L215 721 L335 824 Q349 837 364 837 Q378 837 390 824 L476 721 Z " />
<glyph glyph-name="ucircumflex" unicode="&#xfb;" horiz-adv-x="504" d="M506 448 L403 -100 L383 -100 L404 13 Q341 -109 190 -109 Q91 -109 56 -47 Q20 14 43 135 L102 448 L124 448 L65 135 Q44 26 76 -32 Q104 -90 194 -90 Q383 -90 419 105 L484 448 L506 448 Z M437 525 L406 525 L322 624 L207 525 L176 525 L296 628 Q310 641 325 641 Q339 641 351 628 L437 525 Z " />
<glyph glyph-name="ocircumflex" unicode="&#xf4;" horiz-adv-x="573" d="M237 -109 Q119 -109 63 -33 Q8 43 30 175 Q53 307 134 382 Q214 458 334 458 Q455 458 509 382 Q565 304 543 175 Q521 44 438 -33 Q357 -109 237 -109 Z M81 -19 Q132 -90 240 -90 Q348 -90 425 -18 Q500 53 521 175 Q542 297 491 368 Q440 439 331 439 Q224 439 148 368 Q74 297 53 175 Q32 53 81 -19 Z M487 525 L456 525 L372 624 L257 525 L226 525 L346 628 Q360 641 375 641 Q389 641 401 628 L487 525 Z " />
<glyph glyph-name="acircumflex" unicode="&#xe2;" horiz-adv-x="582" d="M579 453 L491 -65 L485 -100 L465 -100 L471 -65 L487 29 Q451 -37 386 -73 Q323 -109 237 -109 Q177 -109 134 -90 Q91 -71 62 -33 Q8 44 30 175 Q53 306 133 382 Q215 458 334 458 Q418 458 470 423 Q522 386 535 323 L557 453 L579 453 Z M515 205 Q533 314 486 376 Q438 439 331 439 Q224 439 148 368 Q74 297 53 175 Q32 53 81 -19 Q132 -90 240 -90 Q348 -90 416 -29 Q485 31 503 136 L515 205 Z M475 525 L444 525 L360 624 L245 525 L214 525 L334 628 Q348 641 363 641 Q377 641 389 628 L475 525 Z " />
<glyph glyph-name="Acircumflex" unicode="&#xc2;" horiz-adv-x="614" d="M507 -100 L457 143 L116 143 L-16 -100 L-41 -100 L355 629 L379 629 L536 -100 L507 -100 L507 -100 Z M126 163 L453 163 L364 604 L126 163 L126 163 Z M492 725 L461 725 L377 824 L262 725 L231 725 L351 828 Q365 841 380 841 Q394 841 406 828 L492 725 Z " />
<glyph glyph-name="ecircumflex" unicode="&#xea;" horiz-adv-x="573" d="M548 272 Q551 236 545 198 L543 191 L540 171 L522 171 L504 171 L50 171 Q30 52 82 -19 Q133 -90 240 -90 Q318 -90 378 -53 Q438 -16 478 53 Q480 57 481.5 60 Q483 63 485 65 Q486 68 487 69 L507 64 Q465 -20 396 -65 Q326 -109 237 -109 Q120 -109 63 -32 Q6 44 27 173 Q49 301 134 380 Q216 458 334 458 Q385 458 424 443 Q464 429 489 402 Q515 378 529 343 Q537 326 541.5 308.5 Q546 291 548 272 Z M521 190 Q539 298 488 369 Q437 439 331 439 Q227 439 153 371 Q79 304 53 190 L521 190 Z M488 525 L457 525 L373 624 L258 525 L227 525 L347 628 Q361 641 376 641 Q390 641 402 628 L488 525 Z " />
<glyph glyph-name="Otilde" unicode="&#xd5;" horiz-adv-x="774" d="M589 -11 Q485 -109 323 -109 Q161 -109 89 -11 Q17 87 49 266 Q79 445 184 543 Q290 641 452 641 Q614 641 684 544 Q755 448 725 266 Q694 86 589 -11 Z M327 -88 Q478 -88 574 4 Q670 95 700 266 Q728 437 663 529 Q598 621 448 621 Q297 621 199 529 Q151 482 119 417 Q87 352 73 266 Q43 97 110 4 Q174 -88 327 -88 Z M545 692 Q531 692 517 700 Q510 704 503.5 708.5 Q497 713 492 718 Q487 724 481.5 730 Q476 736 471 743 Q458 758 450 771 Q444 779 439 785 Q434 791 428 796 Q423 802 416.5 806.5 Q410 811 403 815 Q397 819 390 820 Q383 821 376 821 Q358 821 343.5 816 Q329 811 319 800 Q308 788 300 771 Q292 754 285 731 Q282 715 265 718 L263 718 Q270 748 280.5 770.5 Q291 793 305 808 Q332 839 380 839 Q399 839 422 826 Q432 818 440.5 810.5 Q449 803 457 793 Q465 784 472.5 774 Q480 764 487 755 Q495 745 502 737 Q509 729 518 723 Q525 716 533 713 Q541 710 548 710 Q586 710 606 731 Q627 753 639 797 Q643 811 660 811 L661 811 Q645 753 617 722 Q603 707 585.5 699.5 Q568 692 545 692 Z " />
<glyph glyph-name="Atilde" unicode="&#xc3;" horiz-adv-x="614" d="M507 -100 L457 143 L116 143 L-16 -100 L-41 -100 L355 629 L379 629 L536 -100 L507 -100 L507 -100 Z M126 163 L453 163 L364 604 L126 163 L126 163 Z M447 694 Q433 694 419 702 Q412 706 405.5 710.5 Q399 715 394 720 Q389 726 383.5 732 Q378 738 373 745 Q360 760 352 773 Q346 781 341 787 Q336 793 330 798 Q325 804 318.5 808.5 Q312 813 305 817 Q299 821 292 822 Q285 823 278 823 Q260 823 245.5 818 Q231 813 221 802 Q210 790 202 773 Q194 756 187 733 Q184 717 167 720 L165 720 Q172 750 182.5 772.5 Q193 795 207 810 Q234 841 282 841 Q301 841 324 828 Q334 820 342.5 812.5 Q351 805 359 795 Q367 786 374.5 776 Q382 766 389 757 Q397 747 404 739 Q411 731 420 725 Q427 718 435 715 Q443 712 450 712 Q488 712 508 733 Q529 755 541 799 Q545 813 562 813 L563 813 Q547 755 519 724 Q505 709 487.5 701.5 Q470 694 447 694 Z " />
<glyph glyph-name="atilde" unicode="&#xe3;" horiz-adv-x="582" d="M579 453 L491 -65 L485 -100 L465 -100 L471 -65 L487 29 Q451 -37 386 -73 Q323 -109 237 -109 Q177 -109 134 -90 Q91 -71 62 -33 Q8 44 30 175 Q53 306 133 382 Q215 458 334 458 Q418 458 470 423 Q522 386 535 323 L557 453 L579 453 Z M515 205 Q533 314 486 376 Q438 439 331 439 Q224 439 148 368 Q74 297 53 175 Q32 53 81 -19 Q132 -90 240 -90 Q348 -90 416 -29 Q485 31 503 136 L515 205 Z M440 494 Q426 494 412 502 Q405 506 398.5 510.5 Q392 515 387 520 Q382 526 376.5 532 Q371 538 366 545 Q353 560 345 573 Q339 581 334 587 Q329 593 323 598 Q318 604 311.5 608.5 Q305 613 298 617 Q292 621 285 622 Q278 623 271 623 Q253 623 238.5 618 Q224 613 214 602 Q203 590 195 573 Q187 556 180 533 Q177 517 160 520 L158 520 Q165 550 175.5 572.5 Q186 595 200 610 Q227 641 275 641 Q294 641 317 628 Q327 620 335.5 612.5 Q344 605 352 595 Q360 586 367.5 576 Q375 566 382 557 Q390 547 397 539 Q404 531 413 525 Q420 518 428 515 Q436 512 443 512 Q481 512 501 533 Q522 555 534 599 Q538 613 555 613 L556 613 Q540 555 512 524 Q498 509 480.5 501.5 Q463 494 440 494 Z " />
<glyph glyph-name="ntilde" unicode="&#xf1;" horiz-adv-x="497" d="M445 396 Q482 332 461 213 L406 -100 L383 -100 L438 213 Q477 438 306 438 Q117 438 84 244 L24 -100 L1 -100 L96 448 L117 448 L98 336 Q159 457 309 457 Q409 457 445 396 Z M405 494 Q391 494 377 502 Q370 506 363.5 510.5 Q357 515 352 520 Q347 526 341.5 532 Q336 538 331 545 Q318 560 310 573 Q304 581 299 587 Q294 593 288 598 Q283 604 276.5 608.5 Q270 613 263 617 Q257 621 250 622 Q243 623 236 623 Q218 623 203.5 618 Q189 613 179 602 Q168 590 160 573 Q152 556 145 533 Q142 517 125 520 L123 520 Q130 550 140.5 572.5 Q151 595 165 610 Q192 641 240 641 Q259 641 282 628 Q292 620 300.5 612.5 Q309 605 317 595 Q325 586 332.5 576 Q340 566 347 557 Q355 547 362 539 Q369 531 378 525 Q385 518 393 515 Q401 512 408 512 Q446 512 466 533 Q487 555 499 599 Q503 613 520 613 L521 613 Q505 555 477 524 Q463 509 445.5 501.5 Q428 494 405 494 Z " />
<glyph glyph-name="otilde" unicode="&#xf5;" horiz-adv-x="573" d="M237 -109 Q119 -109 63 -33 Q8 43 30 175 Q53 307 134 382 Q214 458 334 458 Q455 458 509 382 Q565 304 543 175 Q521 44 438 -33 Q357 -109 237 -109 Z M81 -19 Q132 -90 240 -90 Q348 -90 425 -18 Q500 53 521 175 Q542 297 491 368 Q440 439 331 439 Q224 439 148 368 Q74 297 53 175 Q32 53 81 -19 Z M435 496 Q421 496 407 504 Q400 508 393.5 512.5 Q387 517 382 522 Q377 528 371.5 534 Q366 540 361 547 Q348 562 340 575 Q334 583 329 589 Q324 595 318 600 Q313 606 306.5 610.5 Q300 615 293 619 Q287 623 280 624 Q273 625 266 625 Q248 625 233.5 620 Q219 615 209 604 Q198 592 190 575 Q182 558 175 535 Q172 519 155 522 L153 522 Q160 552 170.5 574.5 Q181 597 195 612 Q222 643 270 643 Q289 643 312 630 Q322 622 330.5 614.5 Q339 607 347 597 Q355 588 362.5 578 Q370 568 377 559 Q385 549 392 541 Q399 533 408 527 Q415 520 423 517 Q431 514 438 514 Q476 514 496 535 Q517 557 529 601 Q533 615 550 615 L551 615 Q535 557 507 526 Q493 511 475.5 503.5 Q458 496 435 496 Z " />
<glyph glyph-name="Ntilde" unicode="&#xd1;" horiz-adv-x="601" d="M590 629 L614 629 L487 -100 L462 -100 L131 592 Q129 582 127 571 Q125 562 123.5 552.5 Q122 543 121 536 L10 -100 L-13 -100 L113 629 L138 629 L469 -64 Q471 -54 473 -43 Q475 -34 476 -24.5 Q477 -15 479 -7 L590 629 Z M467 694 Q453 694 439 702 Q432 706 425.5 710.5 Q419 715 414 720 Q409 726 403.5 732 Q398 738 393 745 Q380 760 372 773 Q366 781 361 787 Q356 793 350 798 Q345 804 338.5 808.5 Q332 813 325 817 Q319 821 312 822 Q305 823 298 823 Q280 823 265.5 818 Q251 813 241 802 Q230 790 222 773 Q214 756 207 733 Q204 717 187 720 L185 720 Q192 750 202.5 772.5 Q213 795 227 810 Q254 841 302 841 Q321 841 344 828 Q354 820 362.5 812.5 Q371 805 379 795 Q387 786 394.5 776 Q402 766 409 757 Q417 747 424 739 Q431 731 440 725 Q447 718 455 715 Q463 712 470 712 Q508 712 528 733 Q549 755 561 799 Q565 813 582 813 L583 813 Q567 755 539 724 Q525 709 507.5 701.5 Q490 694 467 694 Z " />
<glyph glyph-name="Agrave" unicode="&#xc0;" horiz-adv-x="614" d="M507 -100 L457 143 L116 143 L-16 -100 L-41 -100 L355 629 L379 629 L536 -100 L507 -100 L507 -100 Z M126 163 L453 163 L364 604 L126 163 L126 163 Z M302 829 L337 829 L427 713 L398 713 L302 829 L302 829 Z " />
<glyph glyph-name="Ograve" unicode="&#xd2;" horiz-adv-x="774" d="M589 -11 Q485 -109 323 -109 Q161 -109 89 -11 Q17 87 49 266 Q79 445 184 543 Q290 641 452 641 Q614 641 684 544 Q755 448 725 266 Q694 86 589 -11 Z M327 -88 Q478 -88 574 4 Q670 95 700 266 Q728 437 663 529 Q598 621 448 621 Q297 621 199 529 Q151 482 119 417 Q87 352 73 266 Q43 97 110 4 Q174 -88 327 -88 Z M389 827 L424 827 L514 711 L485 711 L389 827 L389 827 Z " />
<glyph glyph-name="Ugrave" unicode="&#xd9;" horiz-adv-x="615" d="M449 -36 Q372 -109 242 -109 Q113 -109 62 -36 Q11 38 36 185 L114 630 L137 630 L60 185 Q13 -88 246 -88 Q479 -88 526 185 L604 630 L629 630 L551 185 Q525 36 449 -36 Z M315 831 L350 831 L440 715 L411 715 L315 831 L315 831 Z " />
<glyph glyph-name="egrave" unicode="&#xe8;" horiz-adv-x="573" d="M548 272 Q551 236 545 198 L543 191 L540 171 L522 171 L504 171 L50 171 Q30 52 82 -19 Q133 -90 240 -90 Q318 -90 378 -53 Q438 -16 478 53 Q480 57 481.5 60 Q483 63 485 65 Q486 68 487 69 L507 64 Q465 -20 396 -65 Q326 -109 237 -109 Q120 -109 63 -32 Q6 44 27 173 Q49 301 134 380 Q216 458 334 458 Q385 458 424 443 Q464 429 489 402 Q515 378 529 343 Q537 326 541.5 308.5 Q546 291 548 272 Z M521 190 Q539 298 488 369 Q437 439 331 439 Q227 439 153 371 Q79 304 53 190 L521 190 Z M280 629 L315 629 L405 513 L376 513 L280 629 L280 629 Z " />
<glyph glyph-name="eacute" unicode="&#xe9;" horiz-adv-x="573" d="M548 272 Q551 236 545 198 L543 191 L540 171 L522 171 L504 171 L50 171 Q30 52 82 -19 Q133 -90 240 -90 Q318 -90 378 -53 Q438 -16 478 53 Q480 57 481.5 60 Q483 63 485 65 Q486 68 487 69 L507 64 Q465 -20 396 -65 Q326 -109 237 -109 Q120 -109 63 -32 Q6 44 27 173 Q49 301 134 380 Q216 458 334 458 Q385 458 424 443 Q464 429 489 402 Q515 378 529 343 Q537 326 541.5 308.5 Q546 291 548 272 Z M521 190 Q539 298 488 369 Q437 439 331 439 Q227 439 153 371 Q79 304 53 190 L521 190 Z M295 513 L427 629 L460 629 L322 513 L295 513 L295 513 Z " />
<glyph glyph-name="ugrave" unicode="&#xf9;" horiz-adv-x="504" d="M506 448 L403 -100 L383 -100 L404 13 Q341 -109 190 -109 Q91 -109 56 -47 Q20 14 43 135 L102 448 L124 448 L65 135 Q44 26 76 -32 Q104 -90 194 -90 Q383 -90 419 105 L484 448 L506 448 Z M228 629 L263 629 L353 513 L324 513 L228 629 L228 629 Z " />
<glyph glyph-name="ograve" unicode="&#xf2;" horiz-adv-x="573" d="M237 -109 Q119 -109 63 -33 Q8 43 30 175 Q53 307 134 382 Q214 458 334 458 Q455 458 509 382 Q565 304 543 175 Q521 44 438 -33 Q357 -109 237 -109 Z M81 -19 Q132 -90 240 -90 Q348 -90 425 -18 Q500 53 521 175 Q542 297 491 368 Q440 439 331 439 Q224 439 148 368 Q74 297 53 175 Q32 53 81 -19 Z M280 629 L315 629 L405 513 L376 513 L280 629 L280 629 Z " />
<glyph glyph-name="agrave" unicode="&#xe0;" horiz-adv-x="582" d="M579 453 L491 -65 L485 -100 L465 -100 L471 -65 L487 29 Q451 -37 386 -73 Q323 -109 237 -109 Q177 -109 134 -90 Q91 -71 62 -33 Q8 44 30 175 Q53 306 133 382 Q215 458 334 458 Q418 458 470 423 Q522 386 535 323 L557 453 L579 453 Z M515 205 Q533 314 486 376 Q438 439 331 439 Q224 439 148 368 Q74 297 53 175 Q32 53 81 -19 Q132 -90 240 -90 Q348 -90 416 -29 Q485 31 503 136 L515 205 Z M277 627 L312 627 L402 511 L373 511 L277 627 L277 627 Z " />
<glyph glyph-name="Egrave" unicode="&#xc8;" horiz-adv-x="539" d="M541 608 L143 608 L87 285 L477 285 L474 264 L84 264 L24 -80 L422 -80 L418 -100 L-3 -100 L123 629 L545 629 L541 608 L541 608 Z M240 831 L275 831 L365 715 L336 715 L240 831 L240 831 Z " />
<glyph glyph-name="Igrave" unicode="&#xcc;" horiz-adv-x="188" d="M7 -100 L133 629 L157 629 L30 -100 L7 -100 L7 -100 Z M68 829 L103 829 L193 713 L164 713 L68 829 L68 829 Z " />
<glyph glyph-name="Idieresis" unicode="&#xcf;" horiz-adv-x="196" d="M-3 -100 L123 629 L147 629 L20 -100 L-3 -100 L-3 -100 Z M81 792 L113 792 L106 755 L74 755 L81 792 L81 792 Z M178 792 L210 792 L203 755 L171 755 L178 792 L178 792 Z " />
<glyph glyph-name="Icircumflex" unicode="&#xce;" horiz-adv-x="260" d="M37 -100 L163 629 L187 629 L60 -100 L37 -100 L37 -100 Z M307 719 L276 719 L192 818 L77 719 L46 719 L166 822 Q180 835 195 835 Q209 835 221 822 L307 719 Z " />
<glyph glyph-name="Ucircumflex" unicode="&#xdb;" horiz-adv-x="615" d="M449 -36 Q372 -109 242 -109 Q113 -109 62 -36 Q11 38 36 185 L114 630 L137 630 L60 185 Q13 -88 246 -88 Q479 -88 526 185 L604 630 L629 630 L551 185 Q525 36 449 -36 Z M504 720 L473 720 L389 819 L274 720 L243 720 L363 823 Q377 836 392 836 Q406 836 418 823 L504 720 Z " />
<glyph glyph-name="Ocircumflex" unicode="&#xd4;" horiz-adv-x="774" d="M589 -11 Q485 -109 323 -109 Q161 -109 89 -11 Q17 87 49 266 Q79 445 184 543 Q290 641 452 641 Q614 641 684 544 Q755 448 725 266 Q694 86 589 -11 Z M327 -88 Q478 -88 574 4 Q670 95 700 266 Q728 437 663 529 Q598 621 448 621 Q297 621 199 529 Q151 482 119 417 Q87 352 73 266 Q43 97 110 4 Q174 -88 327 -88 Z M589 725 L558 725 L474 824 L359 725 L328 725 L448 828 Q462 841 477 841 Q491 841 503 828 L589 725 Z " />
<glyph glyph-name="Ccedilla" unicode="&#xc7;" horiz-adv-x="833" d="M362 -109 Q204 -109 133 -11 Q62 85 94 266 Q124 448 228 544 Q331 641 491 641 Q615 641 689 579 Q764 517 777 403 L752 398 Q751 401 751 405 Q751 408 750.5 410.5 Q750 413 750 415 Q733 516 666 567 Q597 621 487 621 Q340 621 242 529 Q146 436 118 266 Q88 96 153 4 Q217 -88 366 -88 Q485 -88 573 -31 Q608 -8 634.5 23.5 Q661 55 679 84 Q700 117 716 153 L737 148 Q714 93 677 42.5 Q640 -8 590 -42 Q491 -109 362 -109 Z M492 -182 Q506 -196 501 -224 Q497 -252 473 -269 Q450 -285 411 -285 L345 -285 L310 -285 L314 -263 L334 -263 L349 -263 L420 -263 Q444 -263 461 -253 Q478 -242 481 -224 Q484 -210 476 -199 Q468 -190 455 -190 L368 -190 Q353 -190 349 -183 Q346 -174 348 -166 L369 -100 L388 -100 L365 -168 L451 -168 Q480 -168 492 -182 Z " />
<glyph glyph-name="ccedilla" unicode="&#xe7;" horiz-adv-x="593" d="M248 -109 Q188 -109 145 -90 Q102 -71 73 -33 Q18 43 40 175 Q63 307 144 382 Q226 458 345 458 Q437 458 493 411 Q548 363 557 278 L554 277 Q552 276 548 276 Q544 276 541 275 Q537 274 533 273 Q532 276 532 280 Q532 283 531.5 285.5 Q531 288 531 290 Q517 362 469 400 Q419 439 342 439 Q234 439 158 368 Q84 297 63 175 Q42 53 91 -19 Q142 -90 251 -90 Q333 -90 398 -48 Q461 -7 499 70 Q500 72 500.5 75.5 Q501 79 503 82 Q504 86 506 90 L528 84 Q492 -6 418 -59 Q344 -109 248 -109 Z M372 -182 Q386 -196 381 -224 Q377 -252 353 -269 Q330 -285 291 -285 L225 -285 L190 -285 L194 -263 L214 -263 L229 -263 L300 -263 Q324 -263 341 -253 Q358 -242 361 -224 Q364 -210 356 -199 Q348 -190 335 -190 L248 -190 Q233 -190 229 -183 Q226 -174 228 -166 L249 -100 L268 -100 L245 -168 L331 -168 Q360 -168 372 -182 Z " />
<glyph glyph-name="ydieresis" unicode="&#xff;" horiz-adv-x="482" d="M520 448 L168 -198 Q157 -217 143 -232.5 Q129 -248 112 -259 Q78 -281 42 -281 L12 -281 L16 -259 L56 -259 Q83 -259 106 -240 Q131 -222 151 -187 L199 -99 L87 448 L113 448 L214 -71 L496 448 L520 448 Z M260 590 L292 590 L285 553 L253 553 L260 590 L260 590 Z M357 590 L389 590 L382 553 L350 553 L357 590 L357 590 Z " />
<glyph glyph-name="Zcaron" unicode="&#x17d;" horiz-adv-x="558" d="M600 630 L596 609 L0 -79 L481 -79 L477 -100 L-35 -100 L-31 -79 L566 609 L83 609 L87 630 L600 630 Z M471 792 L389 724 Q375 711 360 711 Q346 711 334 724 L281 792 L252 827 L262 827 L266 827 L283 827 L293 815 L312 792 L363 728 L468 815 L469 816 L482 827 L499 827 L504 827 L514 827 L471 792 Z " />
<glyph glyph-name="zcaron" unicode="&#x17e;" horiz-adv-x="500" d="M522 448 L519 429 L14 -81 L432 -81 L429 -100 L-19 -100 L-16 -81 L489 429 L70 429 L73 448 L522 448 L522 448 Z M432 594 L350 526 Q336 513 321 513 Q307 513 295 526 L242 594 L213 629 L223 629 L227 629 L244 629 L254 617 L273 594 L324 530 L429 617 L430 618 L443 629 L460 629 L465 629 L475 629 L432 594 Z " />
<glyph glyph-name="Scaron" unicode="&#x160;" horiz-adv-x="584" d="M224 -109 Q68 -109 -19 -8 L-17 -5 L-8 4 L-2 10 Q0 8 2 5 Q5 0 10 -3 Q48 -44 104 -66 Q161 -89 228 -89 Q344 -89 417 -42 Q488 5 503 91 Q526 223 376 260 L219 300 Q139 321 102 364 Q68 406 79 470 Q92 552 163 598 Q233 643 350 643 Q418 643 475 616 Q504 602 528.5 583.5 Q553 565 573 542 L556 527 L544 539 Q512 577 458 599 Q405 623 346 623 Q242 623 178 583 Q115 543 103 470 Q84 362 232 323 L387 282 Q552 237 527 91 Q510 -6 432 -57 Q352 -109 224 -109 Z M472 796 L390 728 Q376 715 361 715 Q347 715 335 728 L282 796 L253 831 L263 831 L267 831 L284 831 L294 819 L313 796 L364 732 L469 819 L470 820 L483 831 L500 831 L505 831 L515 831 L472 796 Z " />
<glyph glyph-name="scaron" unicode="&#x161;" horiz-adv-x="473" d="M185 -109 Q122 -109 71 -84 Q44 -71 27 -57 Q10 -43 1 -27 L19 -11 L22 -14 Q24 -16 25.5 -18.5 Q27 -21 29 -24 Q39 -37 54.5 -48 Q70 -59 93 -69 Q138 -90 188 -90 Q281 -90 337 -57 Q392 -24 404 42 Q413 94 377 127 Q342 159 271 177 L197 195 Q134 210 104 243 Q73 275 84 334 Q93 384 150 422 Q207 458 291 458 Q322 458 352 450 Q380 441 399 428 Q409 421 417 415 Q425 409 430 402 Q445 389 449 377 L431 363 Q423 373 414 384 Q406 393 395.5 402.5 Q385 412 372 420 Q338 439 288 439 Q214 439 164 408 Q113 375 106 334 Q97 282 123 255 Q148 230 206 214 L278 196 Q445 152 426 42 Q413 -33 351 -71 Q287 -109 185 -109 Z M414 594 L332 526 Q318 513 303 513 Q289 513 277 526 L224 594 L195 629 L205 629 L209 629 L226 629 L236 617 L255 594 L306 530 L411 617 L412 618 L425 629 L442 629 L447 629 L457 629 L414 594 Z " />
<glyph glyph-name="sterling" unicode="&#xa3;" horiz-adv-x="567" d="M472 -78 L468 -100 L-7 -100 L-3 -78 Q47 -14 76 48 Q90 79 99.5 112 Q109 145 115 180 Q117 193 118.5 205.5 Q120 218 119 231 L85 231 L49 231 L49 233 L53 253 L73 253 L89 253 L117 253 Q115 265 111.5 279 Q108 293 101 310 Q96 326 91.5 341.5 Q87 357 84 372 Q80 387 80.5 403 Q81 419 84 437 Q88 466 101 496 Q113 524 137 551 Q157 577 188 597 Q221 617 263 629 Q309 640 359 640 Q493 640 551 551 L532 538 Q532 539 530 541 Q525 546 522 550 Q464 620 355 620 Q257 620 189 573 Q123 527 108 439 Q103 405 109 377 Q115 345 127 313 Q138 281 143 253 L404 253 L448 253 L447 251 L444 231 L423 231 L400 231 L143 231 Q144 219 143.5 207 Q143 195 141 183 Q114 32 26 -78 L472 -78 Z " />
<glyph glyph-name="yen" unicode="&#xa5;" horiz-adv-x="579" d="M619 629 L373 328 L500 328 L499 326 L496 306 L476 306 L355 306 L300 240 L287 162 L416 162 L471 162 L470 160 L467 140 L447 140 L412 140 L283 140 L241 -100 L217 -100 L259 140 L112 140 L72 140 L72 142 L76 162 L96 162 L116 162 L263 162 L276 239 L246 306 L224 306 L160 306 L101 306 L101 308 L105 328 L125 328 L164 328 L228 328 L236 328 L94 629 L124 629 L261 328 L347 328 L588 629 L619 629 Z M292 259 L329 306 L271 306 L292 259 Z " />
<glyph glyph-name="cent" unicode="&#xa2;" horiz-adv-x="593" d="M551 175 Q515 85 441 32 Q368 -18 271 -18 L259 -18 L243 -109 L222 -109 L238 -16 Q135 -6 89 69 Q42 143 64 266 Q84 388 156 462 Q228 537 334 547 L350 641 L371 641 L355 549 L368 549 Q460 549 516 502 Q571 453 580 369 L577 368 Q575 367 571.5 366.5 Q568 366 565 365 Q561 364 557 364 Q557 367 556 371 Q554 379 554 381 Q540 453 492 491 Q442 530 365 530 Q356 530 351 529 L261 2 Q265 2 267.5 1.5 Q270 1 274 1 Q358 1 421 43 Q487 86 522 161 Q522 164 526 172 L530 180 Q533 179 537 178 Q545 176 548 176 L551 175 Z M115 72 Q157 12 242 3 L331 528 Q243 519 182 459 Q106 389 86 266 Q64 143 115 72 Z " />
<glyph glyph-name="igrave" unicode="&#xec;" horiz-adv-x="164" d="M12 -100 L106 447 L129 447 L35 -100 L12 -100 Z M103 629 L192 513 L163 513 L68 629 L103 629 Z " />
<glyph glyph-name="iacute" unicode="&#xed;" horiz-adv-x="123" d="M-12 -100 L81 447 L104 447 L10 -100 L-12 -100 Z M21 513 L152 629 L185 629 L48 513 L21 513 Z " />
<glyph glyph-name="icircumflex" unicode="&#xee;" horiz-adv-x="123" d="M-12 -100 L79 447 L102 447 L10 -100 L-12 -100 Z M235 525 L204 525 L121 624 L5 525 L-25 525 L95 628 Q109 641 124 641 Q138 641 150 628 L235 525 Z " />
<glyph glyph-name="idieresis" unicode="&#xef;" horiz-adv-x="123" d="M-13 -100 L81 447 L104 447 L9 -100 L-13 -100 Z M59 629 L91 629 L85 592 L53 592 L59 629 Z M156 629 L188 629 L182 592 L150 592 L156 629 Z " />
<glyph glyph-name="lslash" unicode="&#x142;" horiz-adv-x="330" d="M254 -81 L251 -96 L250 -100 L225 -100 L202 -100 Q138 -100 113 -59 Q86 -18 99 56 L131 245 L31 195 L1 180 L-5 199 L12 208 L24 214 L135 269 L197 629 L219 629 L160 282 L266 335 L296 350 L303 331 L285 322 L273 316 L155 257 L121 56 Q109 -10 132 -45 Q153 -81 206 -81 L229 -81 L234 -81 L254 -81 Z " />
<glyph glyph-name="Lslash" unicode="&#x141;" horiz-adv-x="576" d="M105 -80 L502 -80 L498 -100 L77 -100 L129 206 L31 157 L1 142 L-5 161 L12 171 L23 176 L134 231 L202 630 L226 630 L160 244 L266 298 L296 313 L303 294 L286 285 L273 279 L156 220 L105 -80 L105 -80 Z " />
<glyph glyph-name="Eth" unicode="&#xd0;" horiz-adv-x="752" d="M661 534 Q731 438 703 264 Q671 88 568 -6 Q466 -101 302 -101 L57 -101 L118 253 L7 253 L10 275 L121 275 L182 629 L427 629 Q589 629 661 534 Z M553 9 Q650 100 678 264 Q705 431 640 518 Q574 608 423 608 L203 608 L146 275 L324 275 L321 253 L143 253 L86 -81 L306 -81 Q457 -81 553 9 Z " />
<glyph glyph-name="Oslash" unicode="&#xd8;" horiz-adv-x="774" d="M589 -11 Q485 -109 323 -109 Q161 -109 89 -11 Q17 87 49 266 Q79 445 184 543 Q290 641 452 641 Q614 641 684 544 Q755 448 725 266 Q694 86 589 -11 Z M327 -88 Q478 -88 574 4 Q670 95 700 266 Q728 437 663 529 Q598 621 448 621 Q297 621 199 529 Q151 482 119 417 Q87 352 73 266 Q43 97 110 4 Q174 -88 327 -88 Z M83 -203 L666 750 L691 750 L107 -203 L83 -203 L83 -203 Z " />
<glyph glyph-name="oslash" unicode="&#xf8;" horiz-adv-x="573" d="M68 -174 L486 515 L511 515 L92 -174 L68 -174 Z M237 -109 Q119 -109 63 -33 Q8 43 30 175 Q53 307 134 382 Q214 458 334 458 Q455 458 509 382 Q565 304 543 175 Q521 44 438 -33 Q357 -109 237 -109 Z M81 -19 Q132 -90 240 -90 Q348 -90 425 -18 Q500 53 521 175 Q542 297 491 368 Q440 439 331 439 Q224 439 148 368 Q74 297 53 175 Q32 53 81 -19 Z " />
<glyph glyph-name="multiply" unicode="&#xd7;" horiz-adv-x="233" d="M201 355 L134 298 L180 239 L152 239 L116 283 L64 239 L36 239 L104 298 L57 355 L90 355 L121 314 L168 355 L201 355 L201 355 Z " />
<glyph glyph-name="eth" unicode="&#xf0;" horiz-adv-x="592" d="M376 560 L422 501 L394 501 L358 545 L306 501 L278 501 L346 560 L299 617 L332 617 L363 576 L410 617 L443 617 L376 560 Z M237 -109 Q119 -109 63 -33 Q8 43 30 175 Q53 307 134 382 Q214 458 334 458 Q455 458 509 382 Q565 304 543 175 Q521 44 438 -33 Q357 -109 237 -109 Z M81 -19 Q132 -90 240 -90 Q348 -90 425 -18 Q500 53 521 175 Q542 297 491 368 Q440 439 331 439 Q224 439 148 368 Q74 297 53 175 Q32 53 81 -19 Z " />
<glyph glyph-name="fi" unicode="&#xfb01;" horiz-adv-x="395" d="M352 447 L375 447 L282 -100 L259 -100 L352 447 Z M411 632 L405 594 L372 594 L375 612 L272 612 Q220 612 186 576 Q152 540 140 475 L136 449 L325 449 L322 430 L133 430 L42 -100 L20 -100 L111 430 L35 430 L38 449 L114 449 L118 475 Q132 552 172 591 Q213 632 275 632 L361 632 L411 632 Z " />
<glyph glyph-name="fl" unicode="&#xfb02;" horiz-adv-x="519" d="M403 629 L402 625 L400 609 L380 609 L367 609 L281 609 Q227 609 194 574 Q160 539 148 472 L144 446 L334 446 L330 427 L140 427 L47 -100 L25 -100 L118 427 L64 427 L62 427 L42 427 L45 444 L46 446 L68 446 L122 446 L126 472 Q140 548 181 588 Q222 629 284 629 L370 629 L403 629 Z M436 -81 L433 -96 L432 -100 L407 -100 L383 -100 Q321 -100 294 -59 Q281 -39 277 -10.5 Q273 18 280 56 L378 629 L401 629 L303 56 Q291 -10 314 -45 Q335 -81 387 -81 L411 -81 L416 -81 L436 -81 Z " />
<glyph glyph-name="AE" unicode="&#xc6;" horiz-adv-x="768" d="M382 608 L331 284 L719 284 L716 264 L328 264 L273 -81 L670 -81 L666 -101 L244 -101 L283 143 L111 143 L-18 -101 L-44 -101 L349 629 L783 629 L779 608 L382 608 Z M286 163 L357 604 L357 604 L121 163 L286 163 Z " />
<glyph glyph-name="ae" unicode="&#xe6;" horiz-adv-x="1064" d="M1029 270 Q1034 234 1026 196 L1025 189 L1022 169 L1004 169 L986 169 L532 169 Q511 51 563 -21 Q616 -92 721 -92 Q797 -92 860 -55 Q920 -17 959 51 Q961 55 962.5 57.5 Q964 60 965 62 L967 66 L988 62 Q945 -23 877 -67 Q809 -111 718 -111 Q601 -111 544 -34 Q518 1 509 46 L490 -65 L484 -99 L482 -99 L464 -99 L468 -78 L470 -65 L486 29 Q448 -38 385 -73 Q320 -109 236 -109 Q117 -109 61 -33 Q6 43 28 175 Q50 306 132 382 Q212 458 333 458 Q416 458 468 423 Q521 386 534 322 L557 454 L579 454 L552 297 Q564 320 580 340.5 Q596 361 615 378 Q697 456 815 456 Q865 456 906 441 Q944 427 971 400 Q995 376 1011 341 Q1026 306 1029 270 Z M514 205 Q532 314 484 376 Q436 439 330 439 Q219 439 147 368 Q72 298 51 175 Q30 52 81 -19 Q131 -90 240 -90 Q345 -90 415 -29 Q484 32 502 136 L514 205 Z M1003 188 Q1021 297 970 367 Q919 437 812 437 Q710 437 634 369 Q559 302 535 188 L1003 188 Z " />
<glyph glyph-name="OE" unicode="&#x152;" horiz-adv-x="1093" d="M666 285 L1056 285 L1052 265 L662 265 L602 -80 L1000 -80 L997 -100 L575 -100 L590 -10 L588 -12 Q484 -109 321 -109 Q160 -109 88 -12 Q18 86 48 265 Q80 445 185 542 Q290 641 452 641 Q613 641 685 542 Q686 542 686 540 L702 629 L1124 629 L1120 608 L722 608 L666 285 Z M572 3 Q587 17 597 29 L679 501 Q672 516 663 528 Q597 621 448 621 Q299 621 200 528 Q102 436 72 265 Q58 180 66.5 114.5 Q75 49 109 3 Q173 -89 325 -89 Q476 -89 572 3 Z " />
<glyph glyph-name="oe" unicode="&#x153;" horiz-adv-x="1025" d="M503 170 Q499 149 498 129.5 Q497 110 497 92 Q499 82 500.5 72 Q502 62 504 53 Q511 14 535 -19 Q586 -90 693 -90 Q771 -90 832 -53 Q892 -15 931 53 Q936 62 937 64 L939 68 L960 64 Q918 -20 849 -65 Q779 -109 690 -109 Q571 -109 515 -32 Q506 -19 499 -5.5 Q492 8 487 24 Q466 -8 439 -33 Q357 -109 238 -109 Q118 -109 63 -33 Q8 41 31 174 Q42 240 67 292 Q92 344 134 382 Q216 458 335 458 Q455 458 510 382 Q529 355 538 324 Q560 355 586 380 Q670 458 787 458 Q838 458 877 443 Q898 435 914 425 Q930 415 943 402 Q968 376 982 342 Q997 309 1000 272 Q1004 237 998 198 L993 170 L503 170 Z M424 -19 Q456 12 480 52 Q469 105 480 172 Q492 240 521 295 Q517 316 509.5 334 Q502 352 491 368 Q440 439 332 439 Q223 439 149 368 Q74 298 53 174 Q32 52 82 -19 Q132 -90 241 -90 Q348 -90 424 -19 Z M974 190 Q992 298 941 369 Q890 439 784 439 Q682 439 606 371 Q568 338 545 294 Q540 285 535.5 275.5 Q531 266 526 255 Q513 223 506 190 L974 190 Z " />
<glyph glyph-name="B" unicode="B" horiz-adv-x="557" d="M365 276 Q444 261 480 214 Q514 166 501 91 Q486 -1 413 -51 Q340 -100 221 -100 L-18 -100 L108 629 L338 629 Q451 629 505 581 Q558 534 543 447 Q533 381 485 336 Q440 292 365 276 Z M128 608 L72 285 L278 285 Q381 285 442 327 Q504 369 518 447 Q532 524 483 566 Q433 608 329 608 L128 608 Z M215 -80 Q326 -80 394 -36 Q464 9 477 91 Q492 172 442 219 Q391 264 285 264 L69 264 L9 -80 L215 -80 Z " />
<glyph glyph-name="C" unicode="C" horiz-adv-x="789" d="M318 -109 Q160 -109 89 -11 Q18 85 50 266 Q80 448 184 544 Q287 641 447 641 Q571 641 645 579 Q720 517 733 403 L708 398 Q707 401 707 405 Q707 408 706.5 410.5 Q706 413 706 415 Q689 516 622 567 Q553 621 443 621 Q296 621 198 529 Q102 436 74 266 Q44 96 109 4 Q173 -88 322 -88 Q441 -88 529 -31 Q564 -8 590.5 23.5 Q617 55 635 84 Q656 117 672 153 L693 148 Q670 93 633 42.5 Q596 -8 546 -42 Q447 -109 318 -109 Z " />
<glyph glyph-name="A" unicode="A" horiz-adv-x="614" d="M507 -100 L457 143 L116 143 L-16 -100 L-41 -100 L355 629 L379 629 L536 -100 L507 -100 L507 -100 Z M126 163 L453 163 L364 604 L126 163 L126 163 Z " />
<glyph glyph-name="quoteleft" unicode="&#x2018;" horiz-adv-x="123" d="M38 514 Q34 514 33 516 Q32 518 32.5 518.5 Q33 519 33 521 L63 584 Q66 591 60 596 Q52 604 53 617 Q56 627 64 635 Q73 641 82 641 Q92 641 98 635 Q105 629 102 617 Q102 612 63 530 Q59 520 53 517 Q47 514 38 514 Z " />
<glyph glyph-name="quoteright" unicode="&#x2019;" horiz-adv-x="119" d="M38 514 Q34 514 33 516 Q32 518 32.5 518.5 Q33 519 33 521 L63 584 Q66 591 60 596 Q52 604 53 617 Q56 627 64 635 Q73 641 82 641 Q92 641 98 635 Q105 629 102 617 Q102 612 63 530 Q59 520 53 517 Q47 514 38 514 Z " />
<glyph glyph-name="quotedblleft" unicode="&#x201c;" horiz-adv-x="178" d="M35 520 Q32 520 31 522 Q31 524 30.5 524.5 Q30 525 31 527 L61 590 Q65 597 59 602 Q50 611 53 623 Q54 632 63 641 Q72 647 82 647 Q92 647 98 641 Q104 635 102 623 Q101 621 91.5 599.5 Q82 578 62 536 Q58 527 52 523 Q44 520 35 520 Z M96 520 Q93 520 92 522 Q92 524 91.5 524.5 Q91 525 92 527 L122 590 Q126 597 120 602 Q111 611 114 623 Q115 632 124 641 Q133 647 142 647 Q153 647 158 641 Q165 634 163 623 Q162 621 152 599.5 Q142 578 122 536 Q119 527 112 523 Q106 520 96 520 Z " />
<glyph glyph-name="quotedblright" unicode="&#x201d;" horiz-adv-x="176" d="M35 520 Q32 520 31 522 Q31 524 30.5 524.5 Q30 525 31 527 L61 590 Q65 597 59 602 Q50 611 53 623 Q54 632 63 641 Q72 647 82 647 Q92 647 98 641 Q104 635 102 623 Q101 621 91.5 599.5 Q82 578 62 536 Q58 527 52 523 Q44 520 35 520 Z M96 520 Q93 520 92 522 Q92 524 91.5 524.5 Q91 525 92 527 L122 590 Q126 597 120 602 Q111 611 114 623 Q115 632 124 641 Q133 647 142 647 Q153 647 158 641 Q165 634 163 623 Q162 621 152 599.5 Q142 578 122 536 Q119 527 112 523 Q106 520 96 520 Z " />
</font>
</svg>
