<?xml version="1.0" encoding="UTF-8"?>
<svg xmlns="http://www.w3.org/2000/svg" xmlns:xlink="http://www.w3.org/1999/xlink" version="1.2" >
<font id="Leibra">
<font-face  font-family="Leibra" units-per-em="2000" ascent="2314" descent="-1180" font-style="normal" font-weight="400" font-stretch="normal" cap-height="1222" x-height="552" underline-position="-75" underline-thickness="50" />
<missing-glyph  horiz-adv-x="242" d="" />
<glyph glyph-name="NULL" d="" />
<glyph glyph-name="CR" unicode="&#xd;" horiz-adv-x="242" d="" />
<glyph glyph-name="space" unicode="&#x20;" horiz-adv-x="382" d="" />
<glyph glyph-name="exclam" unicode="&#x21;" horiz-adv-x="738" d="M462 1194 C451 1197 445 1194 440 1182 C439 1179 438 1177 437 1174 C433 1159 429 1143 425 1127 C411 1051 396 974 375 900 C321 717 268 533 214 350 C166 190 120 30 87 -134 C80 -166 67 -197 74 -232 C74 -232 73 -232 73 -233 C75 -239 75 -246 79 -251 C87 -260 98 -263 109 -261 C112 -260 115 -259 116 -256 C125 -241 136 -228 140 -210 C142 -198 145 -187 148 -176 C179 -33 215 107 255 246 C308 428 360 610 413 791 C438 881 462 971 473 1065 C477 1100 480 1135 482 1170 C483 1182 476 1190 462 1194 L462 1194 Z M93 -348 C84 -342 74 -341 64 -340 C52 -340 43 -345 38 -356 C35 -362 33 -368 31 -373 C28 -381 27 -388 32 -395 C34 -398 34 -401 34 -403 C36 -410 39 -415 45 -417 C52 -421 60 -422 67 -424 C74 -425 80 -422 84 -417 C87 -414 90 -410 93 -407 C98 -403 101 -397 101 -390 C101 -382 101 -374 102 -366 C102 -359 99 -353 93 -348 L93 -348 Z " />
<glyph glyph-name="quotedbl" unicode="&#x22;" horiz-adv-x="346" d="M218 1087 C220 1096 203 1110 194 1108 C193 1108 192 1107 191 1106 C187 1098 180 1090 178 1080 C168 1046 157 1013 136 984 C125 969 111 956 99 943 C97 940 94 938 97 934 C101 925 110 922 118 928 C140 945 158 965 176 986 C192 1005 205 1026 215 1049 C217 1055 218 1062 219 1069 C220 1075 219 1081 218 1087 L218 1087 Z M134 1089 C135 1099 123 1112 112 1111 C110 1111 107 1110 107 1109 C102 1101 97 1093 94 1085 C88 1072 84 1058 78 1045 C67 1025 57 1005 45 985 C37 972 26 962 16 950 C15 948 15 945 16 944 C20 938 28 936 34 941 C43 947 51 955 60 960 C79 972 93 988 105 1007 C121 1032 138 1057 134 1089 L134 1089 Z " />
<glyph glyph-name="numbersign" unicode="&#x23;" horiz-adv-x="1349" d="M1254 597 C1252 605 1246 609 1238 609 C1189 609 1071 606 998 604 C1010 656 1089 1000 1094 1028 C1095 1037 1092 1044 1086 1049 C1079 1053 1070 1058 1062 1060 C1052 1063 1038 1050 1034 1040 C989 912 936 699 910 606 C908 600 906 598 899 597 C791 587 626 567 503 559 C520 625 603 945 611 988 C614 1004 613 1018 599 1026 C593 1029 586 1031 579 1033 C566 1036 557 1033 548 1020 C538 1005 533 987 528 970 C487 831 449 692 410 553 C408 548 406 546 401 545 C307 532 249 527 167 514 C116 506 76 501 89 463 C94 451 100 448 116 450 C147 455 179 460 210 464 C273 472 321 479 389 488 C367 395 342 292 317 203 C315 198 313 196 308 195 C245 183 186 184 125 167 C119 165 116 160 117 154 C117 139 127 129 142 128 C145 128 148 128 152 129 C201 134 249 136 295 143 C270 48 202 -228 197 -287 C197 -292 205 -297 208 -301 C216 -309 226 -314 239 -314 C245 -314 246 -309 251 -305 C296 -223 371 88 387 146 C388 150 390 153 396 153 C535 166 667 181 799 192 C753 19 711 -152 676 -325 C674 -334 680 -346 686 -352 C693 -359 702 -365 713 -367 C722 -369 735 -359 738 -349 C751 -302 897 209 898 209 C1000 220 1080 232 1168 248 C1178 250 1182 265 1181 276 C1180 288 1178 291 1167 290 C1082 281 936 261 910 259 C924 313 954 443 977 525 C978 531 981 533 987 534 C1074 542 1189 547 1247 560 C1254 562 1255 570 1256 575 C1256 582 1256 590 1254 597 L1254 597 Z M887 519 C861 439 847 340 821 261 C821 257 818 255 814 255 C733 251 444 216 411 212 C434 299 458 400 482 487 C485 497 483 498 495 498 C632 510 757 515 881 526 C887 526 888 524 887 519 L887 519 Z " />
<glyph glyph-name="dollar" unicode="&#x24;" horiz-adv-x="771" d="M674 801 C631 857 569 864 499 874 C494 874 492 876 493 881 C503 930 523 1034 525 1070 C526 1089 517 1100 500 1102 C493 1102 488 1100 484 1094 C481 1089 478 1084 476 1078 C455 1014 434 947 415 882 C414 877 412 875 407 874 C380 868 353 864 326 856 C249 834 181 795 124 735 C74 683 42 624 25 557 C15 516 13 475 22 436 C37 375 73 329 124 296 C158 273 196 256 237 245 C244 243 245 241 243 234 C218 145 190 -37 152 -145 C147 -144 144 -144 141 -143 C92 -131 64 -102 62 -50 C60 -16 66 19 80 52 C86 66 92 74 104 82 C112 88 112 91 104 95 C103 96 101 96 99 97 C76 101 55 83 44 69 C23 42 9 14 3 -21 C-8 -89 11 -135 66 -164 C88 -174 111 -180 135 -184 C141 -184 143 -186 142 -193 C131 -256 124 -305 121 -338 C122 -352 135 -357 148 -361 C166 -366 177 -362 183 -344 C207 -265 210 -262 231 -195 C233 -189 234 -187 240 -186 C288 -180 335 -169 381 -148 C429 -127 471 -98 504 -55 C537 -10 557 37 554 90 C551 142 529 182 482 203 C461 213 439 222 417 230 C394 238 369 244 344 251 C340 252 338 254 339 259 C383 453 435 636 480 819 C481 825 483 829 490 828 C511 826 533 825 554 822 C585 818 630 813 655 772 C689 716 629 604 551 580 C555 573 561 572 569 573 C576 574 583 575 589 578 C617 590 642 605 659 632 C690 681 712 751 674 801 L674 801 Z M341 223 C383 215 424 206 463 191 C499 177 514 149 515 110 C517 57 491 14 456 -27 C415 -74 364 -102 309 -123 C289 -130 269 -135 248 -140 C247 -141 246 -141 243 -141 C273 -11 297 101 328 213 C331 225 331 225 341 223 L341 223 Z M254 278 C252 278 251 278 250 278 C210 291 172 308 142 338 C95 385 83 445 99 515 C124 620 188 699 281 759 C320 785 360 801 394 810 C343 632 297 455 254 278 L254 278 Z " />
<glyph glyph-name="percent" unicode="&#x25;" horiz-adv-x="833" d="M771 1106 C765 1111 758 1114 750 1113 C749 1113 747 1111 746 1109 C739 1099 732 1089 725 1079 C691 1028 663 975 627 926 C585 868 538 816 478 776 C461 763 443 752 422 746 C412 743 410 744 405 754 C398 768 395 783 397 798 C403 858 431 905 481 937 C496 946 512 952 530 951 C536 951 542 950 546 947 C560 938 568 913 563 898 C561 893 563 890 568 888 C574 886 579 885 582 891 C586 897 590 904 590 911 C590 931 583 948 565 960 C537 978 505 985 473 978 C422 966 381 937 353 892 C337 866 327 838 327 807 C326 756 366 715 420 711 C446 709 468 718 489 732 C519 752 545 776 569 802 C576 809 583 816 589 824 C590 823 590 823 591 823 C590 821 589 819 588 817 C572 789 555 762 540 734 C478 623 418 512 364 396 C300 256 239 113 185 -32 C162 -96 141 -161 121 -225 C108 -265 91 -304 89 -347 C89 -350 88 -353 91 -356 C101 -363 121 -360 127 -350 C130 -345 132 -341 135 -336 C139 -329 144 -322 147 -314 C155 -294 162 -272 168 -251 C199 -152 232 -55 270 41 C325 180 386 316 451 450 C499 548 552 645 605 740 C657 832 709 923 749 1021 C758 1044 766 1067 775 1090 C777 1096 775 1101 771 1106 L771 1106 Z M500 27 C467 47 434 48 402 29 C357 3 330 -37 318 -86 C315 -96 316 -108 316 -118 C317 -123 320 -129 323 -133 C326 -136 332 -137 337 -136 C338 -136 340 -131 341 -128 C342 -126 343 -122 343 -119 C356 -76 380 -39 413 -9 C423 0 435 6 447 12 C457 17 458 16 464 6 C474 -13 478 -33 477 -53 C476 -86 465 -115 450 -143 C438 -166 422 -186 398 -198 C393 -201 391 -200 389 -195 C389 -193 388 -191 388 -189 C391 -167 389 -144 408 -126 C405 -125 402 -123 400 -123 C387 -122 377 -127 372 -139 C366 -155 362 -171 356 -188 C351 -205 360 -213 372 -218 C388 -225 404 -225 420 -221 C446 -216 468 -201 486 -183 C527 -142 547 -93 538 -34 C533 -9 523 14 500 27 L500 27 Z " />
<glyph glyph-name="ampersand" unicode="&#x26;" horiz-adv-x="833" d="M200 -165 C229 -157 260 -142 285 -125 C328 -96 369 -59 407 -24 C488 52 560 129 641 205 C645 209 650 213 654 216 C657 218 661 219 665 220 C668 220 671 218 675 217 C673 214 671 211 669 208 C595 136 522 63 448 -9 C404 -51 360 -94 310 -129 C276 -152 241 -173 201 -182 C177 -188 153 -190 131 -185 C88 -174 68 -144 67 -99 C66 -57 78 -16 96 26 C126 95 168 159 217 220 C257 270 301 317 348 362 C353 366 353 369 350 373 C334 404 319 436 312 471 C302 518 302 566 316 616 C347 722 412 806 514 862 C550 882 588 891 626 895 C664 898 699 892 730 876 C773 852 792 813 789 761 C787 709 759 667 719 629 C686 598 649 572 614 543 C553 495 493 445 433 396 C428 392 428 390 430 385 C452 337 593 188 628 149 C640 134 651 118 661 102 C666 96 664 92 655 88 C642 81 630 83 620 90 C603 101 586 113 570 126 C533 153 396 290 375 330 C374 332 373 333 372 334 C363 325 354 317 345 308 C296 258 249 206 210 148 C177 99 144 38 125 -16 C125 -16 49 -205 200 -165 L200 -165 Z M413 421 C433 448 535 524 566 550 C597 576 628 601 659 627 C800 748 740 907 587 860 C558 850 513 818 485 790 C414 720 378 640 378 551 C378 503 392 462 413 421 L413 421 Z " />
<glyph glyph-name="quotesingle" unicode="&#x27;" horiz-adv-x="242" d="M133 1066 C131 1080 126 1092 114 1098 C104 1103 95 1098 93 1087 C92 1081 92 1074 90 1069 C80 1043 71 1017 61 991 C55 976 44 964 33 952 C28 948 24 944 20 939 C18 938 17 935 17 933 C19 923 31 919 39 924 C43 926 46 928 49 930 C83 956 109 988 124 1029 C128 1042 131 1055 133 1066 L133 1066 Z " />
<glyph glyph-name="parenleft" unicode="&#x28;" horiz-adv-x="704" d="M71 261 C71 261 71 261 71 261 C68 246 66 232 64 218 C53 154 48 91 48 29 C49 -61 60 -147 89 -228 C104 -270 122 -310 147 -346 C173 -384 208 -412 246 -437 C250 -440 254 -439 259 -436 C264 -432 269 -428 268 -422 C268 -420 266 -417 265 -417 C258 -420 256 -415 254 -412 C250 -407 247 -402 243 -397 C228 -377 212 -358 198 -337 C159 -278 136 -211 122 -139 C110 -81 107 -21 108 40 C108 90 111 140 121 190 C134 261 148 332 163 403 C171 439 182 475 193 511 C216 579 246 646 278 711 C317 791 362 869 418 940 C464 996 512 1051 560 1105 C604 1154 655 1196 709 1232 C714 1236 714 1238 711 1240 C705 1245 698 1246 691 1243 C682 1239 673 1235 665 1229 C609 1189 555 1148 505 1100 C455 1053 407 1004 364 951 C295 867 241 775 196 679 C150 582 115 482 94 380 C86 340 79 300 71 261 L71 261 Z " />
<glyph glyph-name="parenright" unicode="&#x29;" horiz-adv-x="716" d="M581 260 C595 299 609 339 622 379 C656 481 673 581 679 678 C684 774 679 866 655 950 C640 1003 619 1052 594 1099 C569 1147 538 1188 503 1228 C498 1234 491 1238 484 1242 C478 1245 471 1244 463 1239 C458 1237 457 1235 460 1231 C496 1195 523 1153 541 1104 C561 1050 580 995 596 939 C614 868 618 790 615 710 C612 645 605 578 592 510 C585 474 576 438 565 402 C542 331 518 260 493 189 C476 139 453 89 427 39 C395 -22 359 -82 318 -140 C265 -212 206 -279 137 -338 C112 -359 85 -378 59 -398 C53 -403 48 -408 41 -413 C36 -416 32 -421 27 -418 C26 -418 23 -421 21 -423 C17 -429 20 -433 23 -437 C26 -440 31 -441 36 -438 C87 -413 137 -385 182 -347 C226 -311 266 -271 303 -229 C374 -148 433 -62 480 28 C514 90 542 153 565 217 C570 231 575 245 581 260 C581 260 581 260 581 260 L581 260 Z " />
<glyph glyph-name="asterisk" unicode="&#x2a;" horiz-adv-x="526" d="M156 1018 C129 996 130 984 130 984 C131 972 146 964 159 970 C173 977 186 984 199 993 C201 994 202 995 204 996 C204 979 204 963 203 947 C202 934 204 923 219 923 C219 923 236 924 246 945 C250 951 251 959 253 965 C260 988 266 1010 272 1033 C274 1037 275 1041 276 1045 C277 1045 278 1045 278 1046 C279 1044 281 1042 283 1041 C290 1032 298 1023 305 1014 C320 996 336 978 351 960 C353 958 355 956 357 955 C360 954 363 954 366 954 C365 956 366 960 365 961 C357 974 349 987 340 999 C325 1019 308 1039 292 1058 C291 1060 291 1063 291 1066 C293 1067 296 1069 299 1069 C340 1073 367 1066 422 1078 C427 1079 434 1080 440 1085 C446 1090 449 1093 447 1099 C444 1107 438 1111 429 1111 C403 1114 376 1116 350 1118 C350 1118 350 1118 349 1119 C357 1127 366 1135 374 1144 C389 1161 403 1177 416 1194 C423 1203 423 1209 417 1215 C408 1223 402 1223 389 1213 C363 1190 337 1168 310 1145 C308 1143 305 1141 301 1138 C303 1144 304 1147 305 1151 C309 1174 314 1198 318 1221 C320 1230 316 1236 310 1241 C302 1246 297 1245 291 1234 C289 1232 289 1230 287 1228 C277 1203 267 1179 257 1154 C254 1149 252 1144 251 1139 C250 1139 249 1139 248 1138 C248 1139 248 1140 248 1141 C236 1165 225 1190 213 1214 C211 1219 206 1223 202 1226 C201 1227 198 1227 197 1226 C195 1225 195 1222 194 1221 C197 1213 198 1204 201 1197 C212 1170 224 1142 235 1115 C235 1114 235 1113 235 1112 C232 1111 230 1111 227 1111 C198 1110 169 1110 139 1108 C127 1107 113 1104 100 1100 C91 1098 88 1093 92 1087 C97 1082 103 1077 110 1075 C118 1072 128 1071 138 1070 C162 1069 186 1069 211 1069 C213 1068 215 1068 219 1068 C215 1065 213 1063 210 1061 C192 1046 173 1033 156 1018 L156 1018 Z " />
<glyph glyph-name="plus" unicode="&#x2b;" horiz-adv-x="833" d="M703 342 C643 343 554 340 469 337 C484 384 492 436 506 484 C510 502 511 527 493 529 C448 535 441 490 437 477 C419 420 408 383 392 338 C390 333 387 330 382 330 C310 326 194 325 140 309 C123 304 123 290 123 283 C124 270 134 256 148 256 C184 255 287 266 368 267 C329 114 305 3 300 -25 C298 -43 304 -65 329 -68 C339 -69 352 -52 356 -42 C366 -15 363 -16 376 19 C405 96 429 198 445 256 C446 259 449 269 454 269 C492 270 675 278 698 281 C730 285 730 301 732 306 C736 324 721 342 703 342 L703 342 Z " />
<glyph glyph-name="comma" unicode="&#x2c;" horiz-adv-x="190" d="M62 15 C79 39 89 68 78 88 C69 101 52 105 38 93 C21 78 14 55 6 32 C-8 6 -21 -16 -42 -39 C-54 -52 -67 -63 -81 -74 C-86 -78 -86 -81 -83 -85 C-77 -92 -69 -94 -60 -89 C-48 -83 -36 -76 -25 -68 C4 -48 41 -15 62 15 L62 15 Z " />
<glyph glyph-name="hyphen" unicode="&#x2d;" horiz-adv-x="480" d="M100 334 C92 333 76 325 76 302 C77 294 83 285 107 287 C193 287 272 291 384 291 C394 291 403 300 402 310 C400 323 404 337 385 338 L100 334 Z " />
<glyph glyph-name="period" unicode="&#x2e;" horiz-adv-x="210" d="M76 78 C74 86 70 94 61 97 C36 104 12 85 3 64 C-4 49 3 30 18 26 C41 18 84 53 76 78 L76 78 Z " />
<glyph glyph-name="slash" unicode="&#x2f;" horiz-adv-x="741" d="M612 1152 C599 1151 589 1145 585 1133 C484 834 79 -305 35 -361 C28 -380 35 -388 55 -384 C72 -380 85 -370 93 -355 C230 -86 633 1059 625 1131 C625 1134 625 1136 625 1138 C625 1149 622 1152 612 1152 L612 1152 Z " />
<glyph glyph-name="zero" unicode="0" horiz-adv-x="645" d="M559 410 C558 431 553 451 545 469 C535 491 516 506 493 514 C467 523 445 533 416 536 C408 537 401 534 400 530 C399 526 403 523 411 522 C415 522 419 521 423 519 C438 515 452 508 467 503 C496 493 514 473 522 443 C536 391 534 336 517 279 C498 215 462 157 417 104 C383 64 344 30 298 6 C275 -6 252 -15 228 -17 C200 -19 178 -9 160 9 C136 34 125 68 121 105 C116 156 126 209 144 263 C169 334 207 402 255 465 C295 518 341 566 397 603 C421 619 446 631 474 636 C479 636 484 635 489 634 C493 633 497 628 502 634 C507 639 503 644 500 647 C493 657 481 662 469 665 C446 671 422 666 397 659 C357 646 320 623 286 595 C168 495 68 339 48 186 C27 49 105 -64 250 -44 C296 -37 338 -13 375 19 C407 46 434 77 458 110 C503 172 537 238 553 315 C558 343 561 376 559 410 L559 410 Z " />
<glyph glyph-name="one" unicode="1" horiz-adv-x="337" d="M273 700 C268 709 259 713 248 714 C238 714 233 706 228 699 C167 625 106 550 45 475 C33 460 20 445 7 430 C3 426 4 424 8 422 C13 419 18 420 22 424 C35 437 49 450 61 464 C114 526 168 589 221 652 C223 655 225 657 228 661 C227 658 227 657 227 656 C220 637 213 618 206 598 C185 544 163 489 143 435 C108 339 82 242 61 145 C50 97 43 49 38 2 C33 -29 41 -37 41 -37 C47 -46 76 -51 85 -44 C96 -37 105 -28 107 -14 C117 38 125 89 138 140 C160 233 182 326 208 418 C224 476 243 534 259 592 C266 617 271 643 275 669 C278 679 278 690 273 700 L273 700 Z " />
<glyph glyph-name="two" unicode="2" horiz-adv-x="612" d="M112 442 C115 450 115 451 119 457 C125 469 131 480 139 490 C195 563 261 625 341 671 C377 692 414 708 453 710 C479 712 492 703 496 679 C497 678 497 677 497 676 C501 650 495 625 485 600 C463 547 436 496 404 448 C339 349 266 255 189 164 C139 105 88 48 29 -2 C23 -8 17 -16 11 -22 C8 -26 8 -29 10 -33 C14 -41 22 -44 30 -47 C36 -49 43 -48 49 -44 C59 -39 69 -34 79 -32 C99 -27 119 -23 139 -21 C166 -18 194 -17 222 -15 C265 -12 308 -11 350 -14 C400 -18 449 -22 499 -26 C505 -26 512 -27 518 -27 C520 -27 522 -25 524 -24 C523 -22 523 -19 521 -18 C518 -16 514 -14 510 -14 C486 -9 462 -5 439 0 C399 8 358 8 318 9 C286 10 254 9 222 8 C193 7 164 4 135 3 C127 2 118 1 107 0 C110 3 112 5 113 6 C136 29 159 52 181 76 C242 143 299 214 352 288 C395 348 437 408 469 474 C489 516 510 558 519 603 C525 630 525 655 516 679 C503 716 470 733 428 724 C392 717 359 702 326 683 C249 637 167 568 119 487 C112 474 107 461 102 447 C99 440 103 431 112 442 L112 442 Z " />
<glyph glyph-name="three" unicode="3" horiz-adv-x="622" d="M464 628 C441 585 402 550 365 517 C318 474 268 436 215 400 C184 378 154 355 126 329 C124 327 122 324 122 322 C120 309 138 297 150 303 C150 303 294 387 428 404 C456 408 482 404 506 395 C523 388 533 375 534 356 C535 349 535 341 534 333 C530 298 515 265 495 233 C453 168 400 113 337 69 C283 31 225 3 163 -10 C36 -12 169 118 169 118 C207 156 251 182 298 201 C320 210 342 218 364 226 C367 227 372 231 368 237 C364 242 359 242 352 239 C335 233 317 229 300 223 C243 203 182 164 137 119 C106 89 89 67 74 28 C68 12 70 -1 79 -13 C89 -27 103 -36 120 -41 C148 -48 177 -45 207 -39 C266 -25 320 4 369 43 C431 91 480 149 518 215 C539 252 553 290 554 329 C554 371 538 402 499 417 C475 427 449 428 423 426 C387 424 351 414 316 403 C313 402 311 402 308 401 C308 402 308 403 309 403 C310 405 312 406 314 408 C367 450 418 494 459 548 C482 577 504 607 516 641 C523 661 529 682 527 702 C523 735 495 758 458 760 C410 763 363 751 316 732 C240 702 172 656 110 600 C74 568 41 534 14 494 C11 489 6 483 4 477 C3 474 2 468 4 465 C6 462 10 460 14 464 C17 468 21 473 24 476 C30 485 37 494 45 503 C95 560 153 608 216 649 C274 686 334 713 399 727 C399 727 526 744 464 628 L464 628 Z " />
<glyph glyph-name="four" unicode="4" horiz-adv-x="587" d="M398 313 C408 352 417 391 428 429 C444 488 462 546 478 604 C488 641 496 679 504 716 C507 730 503 741 491 746 C483 750 479 748 474 739 C472 734 469 729 467 724 C457 698 447 671 437 645 C416 589 394 533 375 477 C355 413 337 348 319 284 C316 273 313 263 311 253 C310 247 307 244 301 245 C300 245 299 245 297 245 C229 243 161 236 92 226 C81 224 71 224 59 223 C69 233 79 242 87 251 C135 306 184 362 232 417 C289 483 344 549 394 619 C415 648 434 677 448 708 C454 720 454 730 445 737 C438 742 433 742 426 734 C417 725 409 716 401 706 C359 658 318 609 276 560 C208 481 140 403 72 324 C49 298 26 270 9 241 C5 235 2 227 2 221 C2 206 21 192 38 195 C70 199 102 204 134 210 C189 219 243 223 296 225 C302 225 303 223 302 218 C296 193 290 168 285 143 C276 98 267 54 259 9 C256 -4 254 -15 254 -24 C254 -24 257 -58 295 -46 C307 -43 316 -31 319 -18 C324 2 330 22 334 42 C348 102 362 162 376 221 C377 226 379 228 384 228 C416 229 448 231 481 233 C484 233 490 233 493 239 C493 239 494 247 481 246 C450 246 419 247 388 247 C384 247 383 248 384 253 C389 273 393 293 398 313 L398 313 Z " />
<glyph glyph-name="five" unicode="5" horiz-adv-x="647" d="M113 -23 C17 -7 3 99 3 99 C3 119 -6 113 -6 113 C-12 110 -12 104 -11 93 C-11 93 -3 -43 133 -50 C164 -52 196 -47 230 -40 C271 -31 311 -14 350 13 C421 62 473 125 511 196 C546 262 559 323 535 375 C525 395 506 411 483 419 C448 432 409 437 364 430 C282 416 201 383 123 333 C115 328 107 323 99 318 C99 318 98 319 97 319 C99 324 101 329 103 334 C119 375 135 416 151 457 C169 505 187 553 205 600 C216 630 226 659 236 688 C236 689 236 692 237 692 C253 693 259 694 274 695 C333 697 391 700 450 702 C506 704 563 705 619 707 C637 708 656 709 675 711 C681 711 683 714 682 719 C680 724 677 727 671 727 C615 727 559 726 502 726 C489 726 475 725 461 724 C413 722 366 720 317 716 C284 714 251 709 218 706 C212 705 206 705 200 706 C190 708 182 704 178 693 C170 676 163 658 156 641 C131 580 106 519 82 458 C68 421 55 384 42 347 C34 325 29 303 32 283 C35 270 43 263 57 262 C60 262 64 263 66 265 C74 269 79 277 85 283 C89 288 97 297 102 300 C168 347 231 376 303 397 C303 397 646 483 448 150 C417 98 334 34 292 13 C230 -17 170 -29 113 -23 L113 -23 Z " />
<glyph glyph-name="six" unicode="6" horiz-adv-x="659" d="M366 80 L382 99 C405 127 426 156 442 187 C455 213 468 238 471 265 C473 289 465 307 443 316 C422 324 399 320 378 302 C345 274 327 238 326 199 C325 170 333 142 342 115 C344 111 343 108 339 104 C300 69 258 38 212 15 C192 6 173 -3 152 -8 C131 -12 118 -7 110 10 C104 24 100 38 99 54 C96 108 105 163 121 217 C137 272 159 326 186 378 C234 475 297 563 381 638 C408 661 436 683 468 698 C495 711 522 717 548 710 C554 708 558 704 559 697 C562 678 556 660 545 642 C541 635 543 632 547 629 C551 625 555 629 558 632 C579 652 588 687 576 709 C565 729 547 740 525 746 C481 758 437 748 393 724 C342 696 299 658 260 616 C193 545 143 466 102 382 C74 324 50 266 37 206 C28 165 22 124 25 83 C29 43 42 9 70 -16 C113 -55 167 -62 231 -27 C282 1 327 37 366 80 L366 80 Z M359 124 C358 125 357 125 357 125 C344 176 351 225 392 274 C402 285 413 294 427 299 C441 304 446 301 448 288 C450 270 444 253 436 236 C417 196 391 160 361 127 C360 126 360 125 359 124 L359 124 Z " />
<glyph glyph-name="seven" unicode="7" horiz-adv-x="617" d="M142 -10 C149 2 155 15 160 28 C174 66 187 105 202 142 C239 232 287 316 334 402 C335 404 339 406 341 407 C369 410 396 413 423 416 C451 420 478 424 506 427 C510 428 517 429 521 432 C525 434 527 437 524 441 C521 444 518 448 512 445 C506 443 499 442 493 441 C451 436 409 432 367 428 C361 427 355 427 347 426 C349 430 350 432 351 434 C359 447 366 460 374 473 C406 524 439 574 467 629 C477 649 487 671 496 693 C502 710 495 723 478 732 C468 737 458 739 446 738 C409 733 372 729 335 725 C295 721 255 716 215 713 C176 709 136 707 97 704 C86 703 75 700 64 697 C62 697 58 694 59 692 C59 690 61 687 64 686 C68 684 73 683 77 683 C88 683 99 685 110 685 C162 688 215 689 268 693 C317 697 366 703 414 709 C426 710 437 711 449 712 C450 711 450 711 450 710 C442 697 434 683 425 671 C394 631 364 591 333 551 C302 510 275 467 248 423 C247 420 243 416 240 416 C209 412 179 409 148 406 C117 403 85 399 54 395 C47 395 35 395 35 386 C36 378 40 380 47 380 C66 381 85 383 104 384 C140 387 176 390 212 393 C218 394 224 394 232 395 C230 391 229 389 228 387 C190 321 156 254 126 184 C104 135 84 85 72 32 C72 32 62 -20 68 -29 C69 -33 77 -40 80 -42 C88 -47 98 -47 108 -46 C108 -46 127 -41 142 -10 L142 -10 Z " />
<glyph glyph-name="eight" unicode="8" horiz-adv-x="550" d="M225 371 L243 342 C231 332 222 324 213 315 C182 282 150 250 119 216 C92 186 65 155 42 122 C28 101 16 80 12 56 C6 25 13 -3 36 -22 C59 -41 89 -47 121 -49 C174 -52 226 -38 277 -14 C309 1 337 21 360 49 C377 71 386 94 388 119 C390 147 383 173 374 198 C361 234 340 265 320 297 C305 323 290 349 275 375 C273 378 273 381 276 384 C298 404 319 424 341 444 C385 486 422 533 452 585 C468 614 481 643 483 674 C483 684 483 696 479 705 C463 745 409 782 342 744 C313 728 288 706 267 680 C215 618 192 551 196 478 C198 439 209 404 225 371 L225 371 Z M250 327 C271 293 291 260 310 226 C317 214 322 200 325 186 C341 122 318 73 259 30 C219 2 175 -15 129 -21 C111 -24 93 -23 76 -19 C62 -15 54 -4 49 9 C41 34 45 59 57 85 C72 117 92 147 115 175 C152 219 190 262 228 306 C234 313 242 319 250 327 L250 327 Z M265 398 C263 404 261 410 259 416 C231 518 275 631 360 705 C371 714 384 722 396 728 C431 745 453 723 457 698 C461 675 454 651 445 628 C427 586 401 547 372 510 C341 470 305 436 268 400 C268 400 267 399 265 398 L265 398 Z " />
<glyph glyph-name="nine" unicode="9" horiz-adv-x="605" d="M36 -11 L24 -6 C20 -4 16 0 10 -4 C8 -8 8 -10 11 -12 C15 -16 20 -19 25 -21 C39 -26 53 -30 72 -36 C125 -51 182 -53 243 -41 C300 -30 347 -1 384 49 C402 75 416 101 427 129 C444 169 456 210 468 251 C483 306 501 361 516 417 C532 478 546 540 560 601 C564 616 567 631 570 646 C573 661 566 670 554 674 C543 679 536 676 530 663 C528 661 527 658 526 655 C517 633 509 611 501 589 C496 577 493 564 486 553 C448 491 401 434 350 380 C312 339 271 301 223 271 C196 254 168 238 139 228 C125 223 112 220 99 222 C96 223 92 225 91 228 C89 237 86 246 86 257 C86 284 96 311 107 338 C130 394 162 448 202 499 C236 543 274 583 319 617 C339 631 359 643 382 651 C391 654 399 655 407 651 C408 651 411 650 412 651 C413 652 414 655 414 656 C412 661 410 666 407 670 C390 687 366 689 338 682 C308 675 282 657 257 637 C150 552 76 449 37 329 C28 301 26 274 34 250 C45 214 71 194 112 191 C137 189 162 199 187 212 C222 230 253 255 283 281 C351 340 409 407 462 478 C463 480 465 483 467 485 C468 485 468 485 469 485 C468 483 468 481 467 479 C464 469 461 460 458 451 C443 400 428 348 413 297 C399 245 385 193 364 142 C351 109 335 76 312 46 C284 11 250 -15 208 -23 C163 -32 121 -30 80 -23 C65 -20 50 -15 36 -11 L36 -11 Z " />
<glyph glyph-name="colon" unicode="&#x3a;" horiz-adv-x="288" d="M92 125 C87 127 81 127 74 128 C68 127 62 127 56 125 C45 122 36 115 31 105 C29 101 28 96 27 92 C24 76 30 62 48 60 C61 59 72 64 85 71 C98 79 107 89 108 102 C108 113 104 122 92 125 L92 125 Z M182 473 C174 482 154 479 143 471 C125 458 118 435 127 422 C134 413 145 410 156 409 C174 408 189 420 194 437 C200 455 190 465 182 473 L182 473 Z " />
<glyph glyph-name="semicolon" unicode="&#x3b;" horiz-adv-x="288" d="M140 113 C131 121 119 122 106 115 C103 113 99 110 98 106 C93 97 89 87 85 77 C74 50 62 23 43 -1 C34 -13 24 -25 14 -36 C9 -42 10 -45 16 -46 C23 -49 31 -50 39 -44 C55 -33 71 -23 86 -11 C119 15 137 48 143 86 C144 91 145 97 144 102 C144 106 143 111 140 113 L140 113 Z M196 439 C187 448 168 445 157 437 C141 424 137 401 148 388 C155 379 166 376 178 375 C196 374 210 386 213 403 C216 421 206 431 196 439 L196 439 Z " />
<glyph glyph-name="less" unicode="&#x3c;" horiz-adv-x="564" d="M57 217 C64 221 70 225 75 229 C109 255 143 281 175 308 C212 340 247 374 282 407 C330 452 378 496 420 545 C435 563 450 581 464 599 C478 619 476 636 459 646 C453 649 447 649 439 643 C433 638 426 633 420 627 C356 572 292 516 229 460 C175 412 122 364 69 315 C51 298 33 280 15 263 C2 250 2 238 7 226 C13 214 23 204 35 197 C53 187 72 178 92 169 C171 131 254 99 341 74 C350 72 360 70 369 68 C375 67 378 71 378 76 C377 80 371 86 366 86 C361 86 357 86 353 88 C340 93 327 98 314 103 C278 117 240 129 205 145 C161 164 119 185 77 206 C70 209 64 213 57 217 L57 217 Z " />
<glyph glyph-name="equal" unicode="&#x3d;" horiz-adv-x="740" d="M605 207 C526 218 73 206 22 203 C18 203 1 200 -1 196 C-12 179 -4 160 14 159 C96 153 553 156 593 162 C602 162 619 161 623 169 C628 184 620 207 605 207 L605 207 Z M677 406 C560 414 90 417 49 409 C38 407 33 400 32 390 C32 385 32 380 33 375 C34 367 39 364 48 364 C12 364 641 366 684 370 C686 370 689 371 690 373 C698 387 691 404 677 406 L677 406 Z " />
<glyph glyph-name="greater" unicode="&#x3e;" horiz-adv-x="541" d="M426 238 C419 234 413 230 406 227 C364 206 322 185 278 166 C243 150 205 138 169 124 C156 119 143 114 130 109 C126 107 122 107 117 107 C112 107 106 101 105 97 C105 92 108 88 114 89 C123 91 133 93 142 95 C229 120 312 152 391 190 C411 199 430 208 448 218 C460 225 470 235 476 247 C481 259 481 271 468 284 C450 301 432 319 414 336 C361 385 308 433 254 481 C191 537 127 593 63 648 C57 654 50 659 44 664 C36 670 30 670 24 667 C7 657 5 640 19 620 C33 602 48 584 63 566 C105 517 153 473 201 428 C236 395 271 361 308 329 C340 302 374 276 408 250 C413 246 419 242 426 238 L426 238 Z " />
<glyph glyph-name="question" unicode="&#x3f;" horiz-adv-x="784" d="M715 1013 C713 1063 700 1108 670 1145 C623 1203 558 1230 479 1231 C449 1231 419 1227 390 1219 C322 1201 259 1168 201 1126 C144 1084 94 1035 56 974 C21 918 1 859 11 796 C15 773 19 749 32 730 C57 691 95 671 142 664 C146 664 150 665 155 666 C156 666 159 668 159 669 C159 671 158 673 156 674 C152 676 148 677 144 678 C105 686 73 705 58 742 C41 783 41 827 55 872 C69 915 92 953 121 989 C196 1079 289 1140 396 1176 C446 1193 497 1199 546 1190 C583 1182 614 1166 633 1134 C653 1100 658 1063 657 1022 C656 987 647 952 636 917 C620 869 598 823 570 779 C523 705 475 632 426 559 C357 457 291 353 235 244 C173 124 127 1 108 -129 C106 -143 104 -156 104 -169 C102 -187 103 -205 102 -223 C101 -239 111 -250 127 -249 C132 -249 135 -247 136 -243 C144 -223 153 -203 159 -182 C168 -153 175 -123 183 -93 C198 -38 215 18 237 72 C283 187 342 297 410 403 C463 486 519 567 573 649 C611 707 646 766 674 828 C701 888 718 950 715 1013 L715 1013 Z M120 -295 C113 -294 96 -300 92 -314 C89 -323 86 -332 85 -341 C82 -358 76 -375 77 -393 C77 -393 78 -422 105 -419 C111 -419 116 -415 117 -408 C118 -406 119 -403 120 -401 C123 -396 127 -391 128 -386 L133 -356 C134 -348 135 -340 136 -332 C137 -322 138 -314 137 -311 C137 -301 127 -295 120 -295 L120 -295 Z " />
<glyph glyph-name="at" unicode="&#x40;" horiz-adv-x="1046" d="M403 -2 C429 9 420 17 420 17 C417 21 409 20 404 15 C398 12 392 8 387 6 C350 -16 310 -32 266 -40 C232 -49 201 -45 173 -24 C123 15 108 82 109 144 C112 310 192 465 303 586 C443 727 692 885 869 795 C945 697 918 548 882 435 C838 310 762 203 670 107 C643 78 614 53 580 33 C575 30 569 27 563 24 C563 47 567 69 572 94 C584 142 613 237 630 280 C656 347 682 415 701 484 C705 497 708 510 710 523 C712 536 707 544 695 549 C689 551 681 552 674 553 C664 554 656 550 651 542 C645 532 639 523 634 513 C620 482 606 449 592 417 C587 407 582 395 574 387 C553 362 531 337 508 314 C467 273 422 237 369 213 C356 207 344 202 331 198 C311 193 308 196 308 217 C309 252 320 284 332 317 C355 376 390 428 438 470 C462 491 489 506 519 512 C545 518 559 509 563 484 C565 475 563 465 563 456 C564 452 564 448 566 445 C571 438 578 438 584 445 C597 460 599 485 588 502 C569 531 541 546 506 548 C463 549 424 534 390 507 C330 460 291 399 267 328 C257 299 251 269 253 238 C257 190 297 167 333 168 C351 169 368 177 384 186 C445 220 495 267 541 318 C546 323 550 327 554 332 C554 332 555 332 555 331 C548 310 525 244 516 216 C501 159 432 -22 561 -14 C581 -12 598 -4 615 7 C647 27 675 53 701 82 C828 223 989 470 976 678 C936 1054 412 836 241 640 C140 537 71 417 36 280 C-7 112 51 -100 270 -59 C289 -55 313 -46 332 -38 C357 -27 378 -15 403 -2 L403 -2 Z " />
<glyph glyph-name="A" unicode="A" horiz-adv-x="823" d="M685 198 C692 221 702 255 710 285 C710 285 710 286 710 286 C711 288 711 290 712 291 C760 463 918 1021 882 1139 C850 1246 757 1166 746 1151 C640 1056 339 545 131 228 C126 218 119 213 105 211 C28 200 -54 187 -136 161 C-144 158 -151 152 -149 146 C-149 139 -143 133 -133 130 C-73 120 -15 119 55 118 C-58 -56 -123 -181 -233 -355 C-237 -361 -232 -365 -223 -363 C-220 -362 -215 -359 -213 -356 C-89 -179 10 7 135 185 C139 190 143 193 150 193 C297 211 448 228 597 246 C605 247 619 247 617 239 C602 189 452 -304 428 -408 C424 -426 420 -443 430 -463 C436 -474 455 -477 469 -472 C476 -467 488 -461 497 -437 C528 -310 624 3 685 198 C685 198 685 198 685 198 L685 198 Z M101 180 L85 157 C73 140 73 139 50 140 C3 142 -41 143 -88 146 C-91 146 -98 147 -100 148 C-33 167 35 176 102 187 C105 188 105 186 101 180 L101 180 Z M606 270 C457 254 309 241 160 220 C329 493 496 771 696 1049 C712 1067 829 1253 839 1093 C843 1001 699 531 631 277 C630 273 613 271 606 270 L606 270 Z " />
<glyph glyph-name="B" unicode="B" horiz-adv-x="860" d="M771 253 C759 341 708 380 675 397 C582 439 449 418 380 403 L380 403 L379 403 C376 402 374 402 371 401 C370 401 370 401 369 401 L296 383 C299 385 302 388 307 391 C336 411 417 468 502 544 C509 549 516 556 524 563 C548 584 571 606 593 628 L593 628 C593 628 593 629 594 629 C594 629 594 630 594 630 C611 647 773 819 756 962 C755 969 753 977 751 984 C751 985 751 985 751 985 C737 1038 706 1075 679 1099 C649 1125 618 1140 606 1146 C481 1202 347 1185 299 1176 C-20 1114 -183 849 -183 849 C-187 840 -192 823 -196 812 C-196 812 -193 800 -185 800 C-185 800 -180 799 -177 811 C-175 821 -169 829 -164 837 C-122 895 -73 943 -17 985 C72 1058 178 1112 301 1129 C415 1148 605 1156 673 1024 C714 952 677 851 584 728 C504 620 406 536 305 462 C277 443 213 404 184 385 C179 383 174 380 169 377 C169 376 169 376 169 376 L169 376 C159 371 150 364 139 358 C124 350 127 340 127 339 C132 314 147 321 147 321 L341 370 C343 371 345 371 348 372 C496 407 820 453 704 121 C664 23 608 -58 533 -122 C442 -200 350 -254 243 -284 C125 -316 19 -303 -10 -299 C-264 -255 -66 -85 -66 -85 C-24 -47 106 10 165 13 C170 14 174 20 171 24 C169 31 165 31 156 31 C153 30 150 30 147 30 C39 16 -34 -33 -34 -33 C50 300 76 399 165 743 C167 750 167 766 147 770 C138 772 132 771 128 768 C128 768 128 768 128 769 C126 767 124 766 122 765 L92 660 C9 353 20 378 -60 94 C-63 79 -78 30 -90 -10 L-107 -74 C-107 -74 -231 -199 -134 -287 C-96 -319 -28 -344 96 -345 C275 -346 409 -296 536 -200 C577 -169 616 -134 650 -94 C650 -94 650 -94 650 -94 C741 18 769 119 773 195 C773 196 773 196 773 197 C774 217 773 236 771 253 L771 253 Z " />
<glyph glyph-name="C" unicode="C" horiz-adv-x="1038" d="M-27 -147 C-27 -147 51 -684 612 -205 C775 -65 908 82 1043 263 C1060 285 1058 299 1038 300 C734 -109 456 -281 410 -300 C-97 -555 74 258 74 258 C170 751 522 1010 522 1010 C566 1041 611 1069 663 1084 C663 1084 986 1178 892 833 C882 792 862 763 831 742 C806 725 784 733 784 733 C784 733 749 747 796 814 C799 818 801 821 798 824 C792 827 787 825 783 820 C774 805 762 786 759 768 C759 768 743 701 817 714 C890 731 929 822 942 880 C1009 1189 708 1158 708 1158 C389 1118 161 701 161 701 C86 568 40 471 3 323 C3 323 -64 30 -27 -147 L-27 -147 Z " />
<glyph glyph-name="D" unicode="D" horiz-adv-x="720" d="M-35 22 C-31 29 -28 38 -25 46 C11 163 162 755 193 870 C208 926 190 922 173 920 C142 914 138 859 138 859 C116 774 -11 263 -54 91 C-59 65 -78 1 -58 2 C-45 2 -41 12 -35 22 L-35 22 Z M626 1054 C600 1084 573 1107 548 1124 C184 1369 -225 895 -330 762 C-331 761 -341 747 -334 743 C-326 738 -316 749 -316 749 C-316 749 -316 749 -316 749 C-302 768 -287 787 -271 805 C-141 954 27 1087 220 1138 C861 1280 779 132 -28 -261 C-41 -268 -112 -298 -120 -243 C-124 -221 -112 -198 -95 -179 C-93 -178 -73 -157 -47 -140 C20 -94 97 -43 173 -16 C179 -14 183 -9 178 -5 C174 -1 173 -2 167 -3 C105 -20 22 -67 -52 -118 C-61 -124 -100 -152 -120 -177 C-123 -180 -125 -184 -127 -187 C-128 -188 -128 -188 -128 -189 C-142 -211 -148 -237 -136 -263 C-130 -274 -123 -283 -115 -289 C-115 -289 -114 -290 -114 -290 C-112 -292 -109 -293 -106 -295 C-106 -295 -105 -295 -105 -296 C-105 -296 -105 -296 -105 -296 C-53 -321 46 -273 91 -249 C404 -78 629 280 698 599 C698 601 698 603 699 606 C700 610 701 614 702 619 C704 631 706 645 709 660 C711 676 713 692 715 708 C732 894 666 1005 626 1054 L626 1054 Z " />
<glyph glyph-name="E" unicode="E" horiz-adv-x="941" d="M404 373 C408 373 419 373 421 379 C423 383 416 389 410 391 C296 424 258 596 258 596 C228 767 298 923 405 1027 C467 1091 737 1231 801 1025 C815 979 811 931 789 892 C789 892 726 782 664 901 C664 902 662 909 655 908 C654 908 650 905 652 898 C656 884 661 869 670 855 C687 831 716 815 741 819 C768 820 790 834 807 850 C855 906 863 1000 834 1070 C743 1250 508 1172 508 1172 C343 1120 218 956 188 795 C174 710 179 633 208 552 C231 500 258 456 300 420 C273 421 254 418 236 414 C169 398 116 365 71 317 C-54 184 -104 4 -51 -172 C-29 -247 8 -313 75 -358 C148 -407 232 -416 311 -406 C451 -384 553 -286 636 -190 C692 -127 742 -60 788 10 C847 99 906 190 951 279 C957 292 941 302 941 300 C926 276 915 257 900 235 C788 68 689 -93 553 -222 C442 -324 352 -386 200 -367 C121 -353 64 -294 36 -225 C-29 -62 16 120 102 238 C102 238 220 407 404 373 L404 373 Z " />
<glyph glyph-name="F" unicode="F" horiz-adv-x="1045" d="M1226 1155 C1255 1157 1320 1145 1265 1112 C1226 1093 1188 1074 1150 1055 C1127 1044 1104 1033 1080 1021 C1072 1017 1070 1010 1070 1003 C1070 995 1075 993 1082 993 C1087 993 1091 993 1096 993 C1136 996 1176 999 1215 1002 C1270 1005 1324 1009 1377 1012 C1425 1014 1473 1017 1521 1019 C1533 1020 1532 1019 1543 1019 C1546 1020 1552 1020 1554 1027 C1553 1033 1551 1035 1545 1035 C1504 1033 1452 1031 1411 1029 C1357 1026 1303 1023 1246 1020 C1202 1017 1158 1014 1114 1012 C1111 1012 1107 1011 1104 1011 C1164 1044 1228 1067 1289 1106 C1316 1124 1325 1171 1237 1175 C1199 1178 977 1168 850 1152 C791 1144 733 1134 676 1124 C677 1133 689 1154 684 1162 C685 1169 676 1171 669 1171 C663 1170 651 1165 647 1159 C644 1154 631 1134 626 1115 C626 1115 574 1104 549 1098 C414 1066 279 1024 145 968 C122 959 101 947 79 937 C72 933 71 929 74 924 C76 919 82 921 86 923 C260 983 412 1030 606 1076 L338 415 C335 408 332 406 325 405 C286 396 249 388 210 379 C158 364 72 342 16 294 C-4 274 -15 250 -5 224 C-3 219 0 215 3 211 C13 191 25 172 37 153 C62 114 81 73 93 26 C105 -29 106 -86 103 -145 C102 -189 101 -232 91 -346 C90 -360 84 -382 109 -381 C120 -381 136 -365 141 -341 C171 -230 210 -121 248 -13 C296 119 344 252 394 384 C395 389 398 392 403 392 C487 409 804 427 955 434 C969 434 981 435 995 434 C997 434 1001 435 1003 441 C1005 449 1001 450 998 450 C985 452 968 451 953 451 C898 453 527 431 412 418 C407 417 405 418 408 424 C492 639 586 864 664 1082 C804 1106 951 1138 1226 1155 L1226 1155 Z M325 379 C258 184 191 -9 126 -203 C128 -180 128 -96 127 -73 C124 10 102 83 59 147 C45 168 31 189 20 211 C18 214 16 217 14 220 C9 233 11 247 21 260 C37 293 113 324 163 340 C214 356 265 368 318 378 C320 379 322 379 325 379 L325 379 Z " />
<glyph glyph-name="G" unicode="G" horiz-adv-x="905" d="M905 300 C877 277 813 222 785 198 L621 51 C626 71 638 109 646 137 C662 197 677 257 694 317 C721 415 750 513 778 611 L786 642 C785 648 781 653 773 655 C753 658 743 646 739 638 C738 637 738 635 737 634 C737 633 737 633 737 633 L737 633 C718 590 697 551 674 511 C670 503 374 -1 176 83 C89 127 78 279 78 279 C73 333 79 387 88 440 C107 557 147 665 208 763 C271 865 350 950 445 1018 C515 1069 590 1109 676 1123 C711 1128 747 1129 783 1122 C813 1115 841 1102 859 1074 C886 1034 892 990 882 944 C867 871 826 817 770 777 C762 772 758 770 755 770 C751 770 749 773 749 775 C748 781 750 787 751 790 L759 814 C760 820 757 825 750 829 C747 830 743 831 741 827 C733 810 726 794 725 775 C725 774 725 773 725 773 L725 773 C725 773 725 773 725 773 C725 770 726 767 726 765 C729 755 738 740 770 749 C783 753 800 761 819 777 C854 807 884 845 904 888 C932 946 933 1017 906 1074 C860 1168 752 1178 712 1178 C631 1177 547 1148 474 1110 C209 967 -13 660 -6 335 C-6 335 -6 223 35 136 C53 101 104 23 211 37 C212 37 213 37 214 38 C215 38 216 38 217 38 C218 38 219 38 220 39 C222 39 223 39 224 39 C451 83 683 465 683 465 L659 390 C624 273 597 171 557 14 L550 -17 L517 -48 C516 -49 516 -49 515 -50 L514 -51 L514 -51 C513 -52 512 -52 512 -53 C446 -117 383 -185 325 -258 C310 -277 297 -296 284 -315 C266 -342 202 -445 242 -496 C252 -509 270 -517 299 -514 C315 -512 335 -506 359 -493 C410 -462 456 -405 485 -356 C510 -312 531 -257 547 -205 C567 -138 586 -70 605 -2 C607 7 611 13 617 19 L784 173 C818 203 874 252 907 283 C920 295 905 300 905 300 L905 300 Z M526 -101 L513 -149 C497 -205 485 -241 461 -293 C433 -354 398 -414 350 -452 C350 -452 350 -452 350 -452 C346 -454 343 -457 340 -459 C320 -472 299 -476 297 -477 C285 -479 277 -478 271 -476 C271 -476 270 -475 270 -475 C270 -475 269 -475 269 -475 C253 -466 261 -437 262 -431 C270 -404 283 -379 297 -355 C325 -308 358 -265 392 -222 C432 -171 464 -137 509 -91 L537 -63 C537 -63 525 -101 526 -101 L526 -101 Z " />
<glyph glyph-name="H" unicode="H" horiz-adv-x="1014" d="M427 1064 C427 1064 473 1090 471 1051 C468 1008 458 966 446 924 C430 853 291 451 258 310 C257 305 255 303 250 303 C234 303 217 302 200 301 C159 299 117 297 73 289 C58 286 49 285 37 279 C18 270 16 255 25 231 C43 175 59 119 71 60 C94 -47 110 -156 107 -268 C106 -285 108 -301 104 -318 C99 -338 97 -358 94 -378 C93 -389 96 -393 106 -395 C111 -396 116 -396 121 -395 C126 -394 132 -392 134 -388 C143 -375 153 -361 159 -346 C186 -282 281 136 316 266 C318 275 318 275 327 275 C379 274 681 263 795 254 C799 253 800 252 799 247 C795 230 789 213 787 195 C775 161 676 -282 669 -354 C667 -359 668 -365 671 -370 C679 -385 692 -392 709 -392 C716 -392 721 -389 725 -382 C726 -375 731 -369 731 -362 C744 -318 851 143 876 242 C876 248 878 251 884 250 C933 246 935 277 893 279 C888 279 886 281 886 287 C894 314 900 341 906 367 C916 400 1057 975 1072 1075 C1075 1099 1079 1123 1081 1148 C1083 1164 1080 1177 1063 1177 C1057 1177 1042 1173 1038 1156 C1034 1141 1033 1139 1028 1125 C1017 1069 854 485 810 291 C809 286 808 284 802 285 C754 287 434 304 344 304 C340 304 335 304 331 304 C327 304 326 305 327 309 C328 311 329 313 330 315 C339 366 458 739 499 895 C508 937 517 980 519 1022 C518 1039 517 1055 513 1071 C499 1110 461 1123 421 1103 C398 1091 379 1075 361 1058 C280 986 212 904 148 816 C118 772 90 726 71 677 C67 670 64 662 64 654 C63 648 63 644 69 642 C70 642 73 643 74 645 C83 667 93 689 104 711 C163 812 237 903 323 983 C355 1013 388 1042 427 1064 L427 1064 Z M138 -193 L131 -148 C120 -28 95 87 61 199 C50 235 42 253 63 259 C81 262 90 264 105 265 C149 269 194 272 241 275 C243 275 245 275 248 275 C212 119 175 -37 138 -193 L138 -193 Z " />
<glyph glyph-name="I" unicode="I" horiz-adv-x="627" d="M627 300 C589 278 598 284 567 264 C461 197 356 128 256 51 C246 44 233 33 223 26 L233 52 C292 248 473 880 491 1010 C515 1170 426 1204 292 1157 C98 1089 -118 844 -215 676 C-218 671 -229 651 -219 649 C-210 647 -201 663 -197 669 C-103 795 140 1136 386 1136 C465 1136 423 979 415 942 C383 805 139 22 117 -55 C114 -62 113 -68 106 -74 C84 -94 63 -115 42 -136 C-1 -177 -37 -223 -66 -274 C-80 -301 -98 -345 -68 -366 C-46 -381 -19 -382 8 -378 C42 -372 66 -351 83 -323 C108 -284 125 -244 141 -203 C164 -141 186 -79 209 -17 C210 -13 213 -9 216 -6 C273 42 332 86 392 127 C486 190 535 220 629 282 C641 290 635 299 627 300 L627 300 Z M26 -301 C19 -315 9 -329 -1 -342 C-7 -351 -17 -356 -28 -357 C-35 -357 -39 -355 -42 -349 C-49 -337 -49 -323 -45 -308 C-37 -278 -19 -251 -1 -224 C34 -174 72 -138 98 -111 C78 -177 57 -240 26 -301 L26 -301 Z " />
<glyph glyph-name="J" unicode="J" horiz-adv-x="787" d="M772 269 C809 291 790 298 787 300 C766 290 751 281 730 269 C664 230 597 192 532 153 C530 152 528 151 524 148 C525 153 526 155 526 158 C551 242 577 325 600 409 C619 481 635 554 653 626 C675 720 698 815 703 912 C716 1065 652 1190 467 1142 C392 1122 324 1088 260 1045 C201 1005 146 960 94 911 C28 847 -34 780 -88 704 C-105 681 -121 657 -132 630 C-137 620 -140 609 -142 598 C-143 589 -136 583 -127 583 C-125 588 -124 593 -122 597 C-113 612 -105 628 -95 642 C-46 715 12 780 74 842 C144 914 220 977 305 1029 C369 1069 438 1099 513 1113 C604 1130 642 1098 647 1025 C647 994 646 963 643 932 C640 901 637 869 630 838 C615 768 599 699 582 630 C557 527 532 424 502 323 C480 246 459 168 432 93 C430 89 427 85 423 82 C412 74 401 67 390 59 C294 -8 207 -86 125 -170 C85 -211 49 -255 19 -304 C5 -327 -7 -352 -13 -379 C-19 -403 -17 -425 6 -440 C14 -446 23 -450 32 -453 C72 -464 111 -456 148 -440 C189 -423 223 -395 254 -363 C316 -300 364 -228 404 -150 C447 -67 479 19 509 107 C511 112 515 116 520 119 C601 171 687 223 772 269 L772 269 Z M416 50 C414 43 412 36 409 30 C385 -37 357 -103 324 -166 C286 -237 241 -303 184 -360 C157 -386 128 -409 93 -423 C82 -427 71 -430 60 -432 C46 -434 35 -426 30 -413 C25 -401 26 -389 29 -377 C36 -342 53 -312 71 -283 C108 -225 153 -175 201 -128 C265 -63 335 -5 410 47 C412 48 413 49 415 50 C416 50 416 50 416 50 L416 50 Z " />
<glyph glyph-name="K" unicode="K" horiz-adv-x="1011" d="M516 -376 C516 -376 554 -438 612 -382 C612 -382 612 -382 613 -381 C640 -353 660 -321 681 -288 C736 -199 790 -111 843 -21 C900 72 959 170 1014 263 C1037 297 1019 300 1011 300 C1011 300 998 280 991 269 C952 206 913 143 875 80 C824 -6 770 -92 718 -178 C684 -231 654 -280 611 -327 C570 -384 552 -336 552 -336 C516 -276 436 69 377 213 C361 244 344 274 316 296 C316 296 316 297 316 298 C322 302 329 307 336 311 C436 374 530 447 619 525 C700 597 778 672 855 749 C915 810 972 871 1027 936 C1069 988 1110 1041 1152 1093 C1154 1094 1153 1098 1151 1100 C1147 1106 1140 1106 1134 1100 C1113 1075 1090 1051 1069 1026 C1039 991 1011 955 981 921 C927 862 871 804 814 747 C713 646 610 548 499 458 C442 413 383 370 323 330 C321 329 319 328 314 326 C316 330 316 332 316 335 C365 520 418 704 457 892 C466 939 473 986 475 1033 C478 1058 477 1082 472 1105 C466 1137 450 1160 417 1168 C411 1170 403 1170 394 1169 C376 1165 360 1152 345 1140 C279 1083 223 1018 174 947 C134 890 101 829 68 768 C49 731 31 694 13 657 C8 644 6 630 2 617 C2 613 4 608 7 605 C11 600 15 601 20 609 C24 619 30 629 34 639 C77 720 123 799 171 875 C219 946 271 1013 333 1073 C356 1095 378 1117 408 1131 C424 1140 423 1139 425 1122 C430 1087 425 1052 419 1016 C412 974 402 932 392 890 C340 691 286 492 224 280 C223 274 220 271 215 268 C160 241 106 217 49 199 C3 185 -39 171 -85 157 C-95 154 -106 149 -115 144 C-126 138 -130 129 -127 117 C-125 108 -120 99 -117 91 C-94 47 -70 3 -46 -41 C-12 -110 13 -182 26 -260 C34 -304 44 -346 53 -388 C55 -396 57 -405 60 -411 C64 -419 73 -420 81 -419 C88 -418 98 -410 99 -403 C104 -390 108 -375 111 -363 C130 -299 152 -235 172 -171 C201 -69 231 32 290 243 C294 252 296 263 299 272 L306 260 C363 175 440 -262 516 -376 L516 -376 Z M65 -345 L63 -333 C56 -295 49 -258 42 -221 C29 -161 7 -105 -18 -52 C-40 -3 -67 45 -92 93 C-95 99 -99 105 -99 112 C-104 123 -101 130 -89 135 C-73 142 -57 148 -39 154 C3 168 51 181 98 197 C132 209 168 224 202 238 C205 240 208 241 213 242 C156 50 113 -151 65 -345 L65 -345 Z " />
<glyph glyph-name="L" unicode="L" horiz-adv-x="623" d="M22 -343 C19 -344 17 -345 14 -345 C-35 -359 -84 -372 -132 -387 C-145 -390 -159 -394 -172 -400 C-177 -402 -178 -407 -177 -412 C-177 -417 -171 -418 -166 -417 C-162 -416 -158 -415 -156 -414 C-99 -399 -42 -383 15 -368 C27 -365 20 -373 32 -377 C44 -380 61 -375 69 -364 C71 -359 75 -354 80 -353 C119 -345 159 -337 198 -329 C388 -295 579 -275 769 -278 C810 -279 851 -281 892 -283 C966 -288 1039 -294 1113 -300 C1134 -302 1140 -303 1161 -305 C1166 -306 1175 -305 1177 -297 C1181 -285 1164 -285 1159 -285 C1088 -277 1014 -268 943 -263 C823 -253 700 -251 578 -258 C414 -268 251 -293 90 -328 C87 -328 85 -329 82 -329 C84 -319 88 -310 90 -301 C175 48 406 822 468 1049 C477 1084 481 1117 478 1147 C475 1178 465 1202 438 1217 C420 1226 390 1219 371 1208 C363 1203 354 1197 347 1191 C304 1153 268 1109 234 1063 C175 983 123 901 77 815 C55 776 36 736 17 696 C11 686 10 675 8 664 C5 658 10 654 16 654 C18 654 20 656 21 657 C27 669 30 682 36 693 C69 762 107 829 150 893 C191 954 233 1016 282 1072 C310 1105 327 1126 361 1152 C361 1152 412 1192 422 1139 C427 1121 410 1060 399 1020 C356 885 53 -154 26 -326 L22 -343 L22 -343 Z " />
<glyph glyph-name="M" unicode="M" horiz-adv-x="1220" d="M1233 1124 C1221 1081 1212 1034 1201 990 C1187 932 1172 875 1157 818 C1114 667 931 -79 948 -273 C948 -297 948 -322 962 -343 C968 -352 981 -357 992 -350 C994 -349 996 -346 996 -344 C998 -333 999 -322 1000 -311 C1001 -300 1001 -288 1002 -277 C989 -111 1195 722 1222 827 C1242 911 1260 996 1276 1081 C1282 1107 1287 1137 1288 1163 C1289 1178 1287 1200 1277 1210 C1253 1236 1228 1228 1204 1204 C1186 1187 1168 1168 1152 1148 C1017 981 907 751 824 584 C754 428 691 285 625 144 C629 163 639 207 641 217 C697 469 766 740 771 986 C770 1019 766 1052 756 1082 C750 1100 746 1120 732 1132 C704 1155 674 1152 646 1130 C638 1124 631 1117 624 1109 C592 1073 565 1033 540 992 C492 916 453 836 415 755 C345 601 281 446 220 289 C186 201 153 114 119 26 C113 14 115 22 115 22 C133 84 150 147 169 209 C238 435 300 647 334 862 C340 900 343 938 339 975 C337 1000 331 1023 321 1045 C287 1115 203 1057 203 1057 C169 1035 139 1006 111 977 C46 908 -6 832 -49 749 C-65 717 -79 684 -94 652 C-96 647 -97 640 -98 635 C-99 629 -95 627 -90 626 C-85 624 -84 629 -83 632 C-74 651 -65 671 -56 690 C-1 800 67 900 156 986 C181 1011 208 1034 239 1051 C239 1051 286 1070 295 1033 C303 1000 303 965 299 931 C293 881 280 831 267 782 C253 726 239 671 224 616 C159 378 89 168 34 -47 C19 -100 7 -154 -7 -207 C-20 -259 -33 -310 -46 -362 C-46 -362 -49 -388 -33 -397 C-17 -405 3 -386 8 -368 C15 -347 17 -336 23 -315 C33 -282 43 -234 55 -203 C75 -148 87 -109 108 -55 C171 103 242 261 305 419 C360 557 419 694 487 827 C521 895 558 962 603 1025 C623 1054 645 1083 673 1106 C673 1106 705 1130 714 1096 C724 1058 727 1018 725 979 C696 674 594 332 529 19 C522 -15 516 -48 509 -81 C507 -96 505 -111 503 -126 C503 -126 503 -137 520 -141 C526 -141 534 -136 537 -131 L592 -7 C702 256 820 516 949 770 C1026 926 1100 1043 1202 1163 C1202 1163 1262 1229 1233 1124 L1233 1124 Z " />
<glyph glyph-name="N" unicode="N" horiz-adv-x="920" d="M921 1062 C916 1170 881 1191 881 1191 C851 1219 825 1209 787 1183 C763 1167 735 1140 714 1119 C667 1068 624 1012 583 956 C497 837 428 715 357 588 C307 500 255 408 209 317 C208 314 149 204 146 199 C147 202 187 318 187 321 C261 534 375 841 400 1046 C401 1064 402 1083 397 1101 C388 1132 356 1153 322 1146 C309 1144 296 1138 284 1131 C265 1120 247 1107 230 1094 C166 1043 109 984 57 921 C10 865 -33 808 -69 744 C-79 726 -89 708 -94 688 C-96 677 -92 671 -80 669 C-75 668 -72 669 -69 675 C-63 687 -64 705 -57 717 C18 838 111 950 222 1043 C222 1043 380 1180 332 1002 C319 953 297 878 280 829 C200 583 108 340 -118 -332 C-125 -352 -139 -392 -113 -405 C-113 -405 -76 -417 -50 -345 C-44 -327 -47 -336 -41 -318 C-25 -269 1 -215 20 -165 C30 -140 47 -101 58 -76 C88 -3 120 69 153 140 C261 374 383 602 530 820 C585 902 642 983 709 1059 C709 1059 867 1276 869 1076 C870 1015 863 954 855 893 C834 733 655 -83 650 -265 C647 -287 648 -309 655 -329 C656 -336 664 -341 672 -340 C679 -339 686 -334 687 -326 C693 -301 699 -277 702 -253 C708 -129 904 793 916 924 C922 970 924 1016 921 1062 L921 1062 Z " />
<glyph glyph-name="O" unicode="O" horiz-adv-x="1139" d="M1085 572 C1091 655 1090 706 1083 766 C1073 851 1050 932 1007 1004 C958 1090 893 1159 798 1195 C741 1217 679 1214 617 1202 C557 1184 517 1160 470 1122 C385 1044 380 1008 372 994 C371 990 277 879 274 875 C262 861 250 847 238 832 C153 722 84 603 29 477 C-13 382 -41 283 -54 181 C-60 130 -63 79 -61 28 C-59 -23 -52 -72 -38 -121 C-18 -193 15 -257 68 -309 C160 -398 272 -425 403 -392 C471 -374 542 -344 601 -303 C704 -231 786 -144 858 -42 C928 56 975 166 1015 277 C1053 381 1078 486 1085 572 L1085 572 Z M594 1149 C594 1149 740 1201 840 1128 C902 1081 953 1009 982 937 C1008 874 1010 809 1016 739 C1021 672 1012 609 1002 541 C985 422 948 304 899 192 C847 71 778 -27 689 -126 C178 -603 34 -163 34 -163 C11 -108 0 -60 -6 1 C-10 53 -12 102 -6 155 C5 248 28 363 50 416 C94 536 141 646 213 754 C226 773 239 791 253 810 C254 812 357 942 359 945 C359 945 306 731 449 552 C462 535 478 519 494 504 C511 487 532 472 557 473 C571 473 574 480 574 480 C574 487 566 488 566 488 C547 486 530 500 518 512 C325 704 410 986 410 986 C448 1020 491 1051 543 1081 C562 1092 582 1100 603 1105 C604 1105 606 1106 608 1106 C608 1106 608 1107 609 1107 C607 1114 603 1117 596 1116 C574 1112 553 1103 533 1093 C504 1078 476 1061 450 1041 C447 1039 423 1022 427 1032 C503 1129 586 1142 594 1149 L594 1149 Z " />
<glyph glyph-name="P" unicode="P" horiz-adv-x="835" d="M566 1160 C327 1162 80 1000 -95 797 C-126 762 -153 725 -178 684 C-182 678 -185 672 -187 666 C-191 658 -184 650 -179 650 C-177 649 -175 651 -174 652 C-168 663 -163 673 -155 683 C-113 741 -64 792 -14 840 C84 929 189 1002 303 1051 C386 1087 515 1105 599 1102 C746 1095 1077 985 791 585 C580 293 227 134 5 150 L46 262 C47 269 51 271 56 273 C124 297 198 312 268 329 C280 332 288 335 298 338 C301 338 308 340 308 342 C309 349 302 348 296 347 C282 346 267 342 254 339 C206 327 158 316 110 303 C96 301 71 295 56 290 C56 290 115 481 126 519 C126 519 126 519 126 519 L166 658 L169 669 C169 669 187 699 161 708 C134 718 126 690 126 690 L-3 303 C-7 291 -11 281 -14 273 C-15 270 -18 267 -21 265 C-31 260 -42 258 -52 252 C-70 243 -88 236 -102 220 C-117 205 -120 193 -114 175 C-107 154 -92 142 -71 136 C-68 135 -66 133 -69 128 C-125 -29 -185 -186 -237 -362 C-242 -380 -246 -397 -250 -415 C-253 -427 -251 -447 -234 -449 C-203 -448 -190 -420 -190 -420 C-173 -373 -43 9 -13 104 C-10 108 -7 118 -4 125 C402 84 755 456 755 456 C1275 1047 702 1166 566 1160 L566 1160 Z M-57 157 C-57 157 -78 155 -93 173 C-93 174 -116 195 -81 217 C-62 233 -38 239 -22 248 L-57 157 L-57 157 Z " />
<glyph glyph-name="Q" unicode="Q" horiz-adv-x="1194" d="M197 -225 C214 -222 204 -216 204 -216 L184 -210 C165 -200 151 -186 139 -170 C107 -128 83 -81 68 -29 C34 86 28 205 48 329 C56 380 69 432 86 482 C148 663 247 824 386 963 C453 1030 527 1086 612 1126 C688 1162 765 1182 845 1174 C900 1169 948 1149 987 1112 C1037 1065 1068 1005 1087 938 C1115 839 1115 737 1097 632 C1087 570 1070 509 1048 449 C971 244 854 61 692 -95 C604 -180 506 -252 399 -309 C396 -311 391 -312 387 -312 C373 -313 358 -313 343 -314 C293 -317 242 -325 192 -340 C167 -347 143 -355 121 -371 C105 -382 103 -393 115 -406 C116 -408 117 -409 119 -410 C134 -424 153 -427 174 -428 C210 -428 246 -421 282 -412 C336 -397 389 -374 440 -348 C445 -346 451 -344 457 -344 C476 -344 496 -345 515 -346 C545 -347 575 -348 605 -350 C652 -353 699 -355 746 -359 C790 -362 834 -365 878 -369 C915 -372 949 -376 986 -379 C987 -379 994 -378 995 -374 C997 -365 991 -365 990 -365 C983 -363 982 -363 974 -362 C967 -361 959 -359 951 -358 C871 -349 792 -339 712 -331 C648 -324 583 -320 518 -315 C513 -315 509 -314 505 -314 C507 -311 509 -310 511 -308 C642 -230 755 -133 853 -16 C952 102 1029 231 1087 370 C1118 447 1141 526 1154 606 C1163 662 1167 718 1164 773 C1160 848 1146 920 1117 986 C1087 1052 1046 1109 987 1151 C936 1187 879 1208 813 1212 C761 1215 709 1207 658 1191 C574 1165 498 1121 428 1066 C344 1000 273 922 212 836 C112 693 40 541 8 375 C-2 320 -7 265 -7 209 C-7 156 -1 103 10 52 C26 -25 53 -97 100 -158 C117 -180 135 -201 161 -213 C172 -218 184 -223 197 -225 L197 -225 Z M165 -392 C211 -367 260 -358 309 -351 C290 -365 196 -392 165 -392 L165 -392 Z " />
<glyph glyph-name="R" unicode="R" horiz-adv-x="945" d="M966 -410 C786 -346 656 -194 542 -47 C479 33 418 115 348 189 C348 189 347 189 347 189 C617 277 815 485 815 485 C1335 1076 761 1195 626 1189 C386 1191 139 1029 -36 827 C-66 791 -94 754 -119 713 C-123 707 -126 701 -128 695 C-131 688 -125 680 -120 679 C-118 679 -116 681 -115 682 C-109 692 -104 702 -95 712 C-53 770 -5 821 45 869 C144 958 249 1031 362 1080 C446 1117 574 1134 659 1131 C806 1124 1137 1014 850 614 C708 418 504 282 317 219 C293 242 267 262 237 278 C210 292 181 302 152 308 C137 310 123 311 110 311 C119 340 126 365 129 377 L129 377 L169 516 L172 527 C172 527 190 557 164 566 C137 576 129 547 129 547 L49 305 C45 304 41 304 38 303 C1 294 -36 277 -52 251 C-52 251 -53 250 -53 250 C-54 248 -55 247 -55 245 L-55 245 C-56 244 -57 242 -58 240 C-66 220 -73 180 -9 162 L-12 152 C-67 -4 -127 -159 -177 -333 C-183 -351 -186 -368 -191 -386 C-194 -398 -191 -418 -174 -420 C-143 -419 -130 -391 -130 -391 C-115 -346 0 -8 40 112 C40 112 40 112 40 112 C42 117 45 127 48 136 C51 141 53 148 55 153 C55 154 55 154 55 154 C146 145 233 156 315 179 C321 173 328 166 334 160 C466 20 565 -147 706 -279 C779 -347 863 -405 958 -439 C977 -445 985 -416 966 -410 L966 -410 Z M2 187 C2 187 -41 192 -28 231 C-27 233 -26 236 -24 238 C-16 249 -4 256 9 261 C17 265 26 269 36 272 L2 187 L2 187 Z M65 179 L87 240 C87 240 87 240 87 240 C89 245 94 262 101 282 C104 282 107 282 110 282 C152 281 193 269 230 248 C250 236 268 223 284 208 C205 184 130 175 65 179 L65 179 Z " />
<glyph glyph-name="S" unicode="S" horiz-adv-x="844" d="M406 -118 C333 8 101 230 53 344 C21 411 7 484 14 563 C19 618 33 673 54 726 C99 845 168 950 262 1041 C330 1106 406 1157 493 1188 C588 1222 678 1223 765 1187 C834 1158 873 1107 885 1032 C894 974 886 916 863 859 C821 750 719 607 600 568 C581 561 563 557 544 558 C531 559 528 563 527 575 C527 581 528 588 530 594 C539 626 556 654 578 681 C580 684 583 688 586 692 C589 695 588 698 585 701 C579 707 574 706 565 698 C536 670 477 591 523 552 C541 538 563 538 585 541 C708 563 807 674 870 783 C907 849 929 917 926 989 C914 1199 706 1280 510 1248 C219 1190 -39 847 -44 570 C-62 282 252 47 334 -73 C343 -87 352 -100 361 -115 C300 -153 228 -206 190 -247 C148 -289 117 -363 177 -404 C248 -448 355 -408 405 -345 C437 -302 444 -257 437 -210 C432 -177 420 -147 406 -118 L406 -118 Z M367 -135 C378 -160 384 -187 384 -215 C384 -259 368 -300 335 -334 C299 -371 255 -390 206 -388 C175 -386 164 -369 169 -342 C178 -302 204 -271 233 -244 C273 -205 319 -164 367 -135 L367 -135 Z " />
<glyph glyph-name="T" unicode="T" horiz-adv-x="425" d="M-149 649 C-148 652 -151 655 -153 655 C-294 692 -213 833 -213 833 C-97 1023 177 1057 374 1071 C379 1072 382 1071 380 1065 C374 1041 368 1017 361 993 C328 868 35 -127 29 -375 C33 -389 43 -398 55 -400 C58 -401 64 -399 66 -397 C71 -391 76 -383 78 -376 C127 -127 401 866 417 948 C427 986 434 1026 441 1065 C443 1074 443 1074 452 1074 C619 1073 847 1061 1010 1082 C1143 1094 1252 1136 1367 1174 C1373 1176 1379 1179 1384 1183 C1391 1188 1394 1192 1391 1200 C1390 1202 1383 1205 1379 1203 C1373 1200 1371 1199 1365 1197 C1340 1190 1315 1183 1291 1176 C1192 1148 1090 1123 987 1117 C792 1113 624 1118 456 1115 C451 1115 450 1117 451 1121 C455 1141 459 1161 462 1181 C465 1194 467 1208 468 1221 C469 1233 462 1241 451 1243 C445 1245 439 1241 433 1231 C429 1223 425 1215 421 1207 C408 1178 400 1148 393 1118 C391 1114 390 1112 385 1112 C370 1111 356 1109 341 1108 C208 1099 75 1072 -46 1017 C-107 987 -161 948 -204 894 C-238 851 -257 804 -251 750 C-247 706 -225 674 -186 654 C-186 654 -168 647 -157 647 C-154 647 -150 647 -149 649 L-149 649 Z " />
<glyph glyph-name="U" unicode="U" horiz-adv-x="1193" d="M1193 300 C1143 237 887 -166 826 -257 C804 -291 761 -348 755 -356 C743 -374 737 -355 737 -355 C729 -331 730 -270 731 -233 C744 5 814 394 877 647 C888 691 905 746 919 789 L919 789 L919 789 C923 801 926 813 929 823 L929 823 L929 823 C930 824 930 825 931 827 C937 855 941 891 919 902 C888 919 873 901 869 893 L867 890 L867 890 L767 694 L767 694 C591 363 398 -19 218 -216 C217 -217 217 -217 217 -218 C213 -222 209 -226 205 -230 C180 -256 148 -281 143 -285 C-35 -415 -61 -303 -63 -289 C-63 -288 -63 -288 -63 -288 C-63 -288 -63 -288 -63 -288 C-63 -287 -63 -287 -63 -287 C-63 -287 -63 -287 -63 -287 C-70 -245 -60 -193 -53 -160 C9 163 195 714 251 963 C261 1005 257 1055 214 1065 C119 1081 14 947 -48 868 C-100 800 -149 733 -180 660 C-182 656 -181 653 -176 652 C-172 651 -170 654 -167 660 C-154 682 -130 717 -113 744 C-63 821 -6 895 62 960 C92 989 124 1015 160 1035 C160 1035 248 1084 201 950 C78 593 -89 20 -112 -172 C-119 -232 -116 -308 -71 -345 L-71 -345 L-71 -345 C-60 -354 -47 -361 -31 -365 C-31 -365 -30 -365 -29 -365 C-29 -365 -28 -365 -27 -366 C-24 -366 -22 -366 -19 -367 C-9 -368 2 -368 12 -368 C204 -357 414 -16 485 110 L829 741 L831 743 C828 732 825 721 821 706 C784 551 577 -341 717 -404 C743 -414 764 -399 780 -377 C826 -317 908 -177 973 -77 C993 -44 1177 250 1198 282 C1208 298 1193 300 1193 300 L1193 300 Z " />
<glyph glyph-name="V" unicode="V" horiz-adv-x="861" d="M149 -317 C18 -425 54 -285 54 -285 C84 -107 235 437 315 752 C337 833 356 965 318 1019 C295 1045 267 1055 231 1046 C213 1041 186 1028 170 1018 C136 996 106 968 78 939 C26 885 -18 824 -57 761 C-77 729 -95 697 -114 665 C-118 658 -120 650 -123 642 C-125 637 -123 634 -118 633 C-114 632 -111 634 -109 638 C-106 645 -103 651 -100 658 C-75 702 -47 744 -18 786 C22 842 65 896 116 943 C144 969 174 992 208 1008 C208 1008 271 1036 280 992 C285 970 285 946 282 923 C276 867 262 812 247 757 C175 516 45 25 -6 -241 C-12 -270 -15 -299 -14 -328 C-13 -358 -2 -380 27 -391 C51 -400 77 -399 102 -388 C135 -373 162 -351 186 -324 C249 -254 306 -179 359 -100 C476 56 987 921 1098 1139 C1099 1141 1099 1150 1096 1152 C1088 1154 1085 1151 1081 1148 C1004 988 561 236 318 -108 C267 -181 213 -253 149 -317 L149 -317 Z " />
<glyph glyph-name="W" unicode="W" horiz-adv-x="955" d="M1098 1093 C1094 1096 1088 1096 1084 1091 C1079 1086 1078 1081 1076 1074 C897 653 773 206 607 -223 C600 -240 567 -321 557 -312 C557 -310 556 -309 556 -308 C549 -284 545 -239 543 -182 C543 -182 543 -182 543 -182 C540 -132 532 166 522 337 C521 339 521 341 521 342 C521 347 521 351 520 355 C517 403 508 429 500 443 C492 456 482 459 477 459 C467 460 460 458 454 454 C445 448 441 439 438 435 C438 434 438 433 437 432 C437 432 437 432 437 432 L437 432 C178 -165 61 -299 61 -299 C16 -359 -11 -380 -26 -382 C-26 -382 -26 -382 -26 -382 C-27 -382 -27 -382 -28 -382 C-28 -382 -28 -382 -28 -382 C-29 -382 -30 -382 -31 -382 C-50 -380 -44 -324 -44 -319 C-40 -295 -37 -272 -33 -249 C-17 -156 228 776 274 955 C285 997 298 1054 286 1101 C280 1126 270 1141 258 1149 C229 1170 188 1152 176 1146 C-20 1040 -165 758 -204 675 C-204 675 -204 675 -204 675 C-204 675 -204 675 -205 674 C-213 655 -223 623 -223 623 L-223 623 C-223 622 -224 622 -224 621 C-225 615 -222 612 -216 611 C-210 609 -209 614 -207 618 C-168 722 -104 815 -30 918 C29 999 98 1080 190 1129 C201 1135 233 1147 238 1112 C239 1109 239 1107 239 1104 C239 1104 239 1104 239 1104 C239 1102 239 1101 239 1099 C237 1059 226 1020 214 981 C120 631 -118 -161 -120 -319 C-120 -319 -120 -319 -120 -320 C-120 -320 -120 -321 -120 -322 C-120 -350 -113 -420 -52 -422 C-37 -422 -19 -416 0 -401 C157 -276 391 274 455 428 L463 21 C463 -4 463 -30 464 -55 L464 -55 L464 -55 C467 -137 473 -216 484 -279 C485 -284 486 -290 488 -296 C491 -307 502 -337 527 -346 C539 -350 553 -350 571 -338 C574 -336 585 -327 593 -311 C631 -242 670 -132 672 -125 C803 256 942 708 1101 1081 C1102 1086 1103 1089 1098 1093 L1098 1093 Z " />
<glyph glyph-name="X" unicode="X" horiz-adv-x="719" d="M291 175 C335 -40 434 -231 641 -332 C665 -342 682 -352 706 -346 C708 -346 713 -343 713 -341 C714 -337 715 -331 711 -330 C321 -191 337 277 317 338 C402 488 491 636 579 768 C684 922 795 1075 938 1175 C942 1178 942 1180 939 1183 C933 1189 925 1190 916 1186 C860 1158 816 1114 771 1069 C580 871 440 652 308 430 L292 676 C284 758 279 844 261 912 C256 934 237 974 223 993 C199 1026 150 1021 104 982 C30 920 -25 781 -32 684 C-33 666 -15 659 -15 671 C-15 680 -15 689 -13 698 C0 783 44 867 93 926 C93 926 184 1034 206 903 C218 829 228 752 234 660 C241 557 251 444 260 342 C160 177 -9 -156 -72 -382 C-74 -387 -76 -393 -77 -399 C-79 -405 -71 -410 -66 -411 C-58 -413 -47 -404 -44 -399 C-32 -375 -17 -316 33 -191 C94 -38 156 81 270 277 L291 182 L291 175 Z " />
<glyph glyph-name="Y" unicode="Y" horiz-adv-x="945" d="M1020 1195 C1012 1197 1002 1194 998 1188 C994 1183 991 1177 989 1171 C972 1124 964 1092 946 1046 C893 906 784 695 709 563 C634 432 557 302 471 178 C426 114 380 52 326 -7 C287 -48 246 -89 198 -121 C173 -137 146 -152 117 -160 C103 -162 92 -160 84 -150 C78 -142 72 -133 68 -124 C55 -93 52 -60 53 -26 C56 124 105 269 152 411 C201 553 248 697 289 841 C314 939 354 1037 353 1138 C353 1139 353 1141 353 1142 C353 1142 353 1142 353 1143 C352 1161 348 1170 346 1173 C336 1193 315 1203 292 1197 C278 1193 265 1187 252 1180 C222 1161 195 1138 169 1114 C121 1068 78 1017 37 965 C-19 891 -70 814 -110 731 C-115 723 -118 715 -122 706 C-124 702 -123 697 -119 695 C-115 695 -110 696 -107 701 C-104 709 -101 716 -96 724 C-65 781 -30 835 7 888 C64 970 127 1045 200 1112 C225 1135 252 1158 283 1174 C286 1176 290 1177 294 1179 C303 1182 318 1184 322 1168 C323 1167 323 1165 323 1164 C323 1164 323 1164 323 1164 C323 1164 323 1163 323 1163 C323 1163 324 1162 324 1162 C324 1160 324 1158 324 1157 C327 1132 323 1108 317 1085 C269 896 195 715 127 532 C83 418 39 302 12 183 C-6 111 -17 38 -14 -36 C-13 -61 -10 -84 -3 -107 C8 -138 27 -163 58 -177 C99 -194 141 -192 182 -172 C282 -124 359 -32 435 67 C486 136 532 207 577 280 C648 394 715 513 776 633 C816 710 860 795 895 872 C862 768 865 771 850 726 C761 442 638 8 547 -216 C529 -260 509 -304 482 -344 C478 -350 473 -355 465 -357 C457 -359 450 -362 442 -365 C418 -375 390 -380 367 -391 C367 -391 364 -392 359 -395 L359 -395 C359 -395 327 -414 351 -439 C356 -444 364 -449 379 -452 C390 -453 402 -453 414 -451 C454 -446 484 -430 511 -402 C535 -377 552 -348 568 -319 C602 -257 628 -192 653 -126 C764 190 888 600 978 922 C998 1004 1021 1085 1033 1168 C1034 1181 1031 1191 1020 1195 L1020 1195 Z M365 -427 C351 -423 365 -410 369 -408 C379 -401 396 -394 407 -390 C425 -382 442 -377 459 -369 C445 -397 390 -431 365 -427 L365 -427 Z " />
<glyph glyph-name="Z" unicode="Z" horiz-adv-x="1065" d="M46 -323 C49 -321 51 -319 53 -318 C130 -268 197 -206 256 -135 C333 -43 397 57 456 160 C537 303 607 451 665 603 C704 703 739 804 756 908 C763 952 767 995 764 1038 C756 1132 686 1184 612 1194 C574 1198 537 1194 499 1185 C405 1161 319 1117 239 1061 C173 1016 115 962 61 903 C11 847 -34 788 -69 722 C-79 702 -88 681 -97 661 C-99 657 -99 652 -99 647 C-99 641 -94 640 -89 639 C-84 639 -83 642 -82 646 C-66 683 -46 719 -22 753 C65 874 169 977 297 1054 C364 1096 435 1129 511 1148 C552 1159 594 1164 636 1157 C685 1149 709 1125 715 1075 C718 1056 717 1036 716 1016 C712 945 694 876 672 807 C637 702 595 599 549 497 C494 375 431 256 361 141 C295 33 223 -70 133 -160 C79 -216 18 -262 -49 -301 C-51 -303 -54 -303 -57 -303 C-62 -303 -68 -302 -73 -301 C-112 -299 -150 -300 -188 -311 C-204 -316 -219 -322 -232 -333 C-248 -345 -251 -359 -241 -374 C-229 -392 -213 -403 -191 -407 C-169 -410 -146 -406 -124 -401 C-79 -389 -49 -378 -8 -355 C-3 -352 2 -351 9 -352 C87 -367 165 -372 250 -361 C364 -344 465 -281 570 -205 C687 -117 795 -16 906 98 C959 154 1009 213 1063 274 C1077 289 1088 298 1065 300 C1065 300 1053 288 1051 286 C978 213 910 136 827 57 C688 -79 539 -217 353 -298 C267 -335 174 -345 80 -330 C69 -328 58 -326 46 -323 L46 -323 Z M-193 -362 C-169 -344 -141 -338 -113 -334 C-139 -347 -165 -357 -193 -362 L-193 -362 Z " />
<glyph glyph-name="bracketleft" unicode="&#x5b;" horiz-adv-x="797" d="M113 12 C83 -102 54 -220 36 -336 C32 -365 33 -392 43 -417 C58 -455 103 -462 140 -458 C168 -456 196 -453 224 -450 C239 -448 255 -444 270 -440 C278 -439 285 -434 290 -427 C291 -425 292 -421 291 -420 C288 -414 276 -413 270 -418 C262 -424 253 -427 244 -428 C237 -429 229 -430 221 -431 C182 -435 144 -437 107 -430 C104 -430 100 -427 99 -424 C96 -414 93 -403 92 -392 C93 -331 113 -273 124 -213 C143 -140 172 -29 191 45 C305 484 381 722 489 1134 C495 1157 501 1189 504 1208 C505 1213 508 1217 515 1217 C539 1217 564 1217 589 1218 C626 1219 664 1221 701 1223 C709 1224 716 1225 724 1226 C726 1226 730 1228 730 1229 C730 1231 729 1234 728 1235 C724 1237 719 1240 714 1241 C701 1242 687 1243 673 1243 C641 1243 608 1242 575 1242 C545 1242 514 1243 484 1242 C471 1242 464 1237 460 1225 C360 924 390 978 262 553 L113 12 Z " />
<glyph glyph-name="backslash" unicode="&#x5c;" horiz-adv-x="506" d="M81 1163 C71 1163 62 1158 60 1147 C53 1111 58 1085 63 1036 C70 956 187 4 254 -248 C262 -280 271 -312 280 -344 C285 -359 295 -369 312 -373 C331 -377 340 -369 337 -350 C330 -310 322 -270 315 -230 C290 -76 154 785 122 1042 C117 1077 113 1110 105 1144 C101 1161 94 1162 81 1163 L81 1163 Z " />
<glyph glyph-name="bracketright" unicode="&#x5d;" horiz-adv-x="785" d="M665 951 C680 1023 684 1066 708 1164 C714 1185 719 1206 722 1227 C725 1239 720 1244 708 1244 C677 1245 647 1244 616 1244 C583 1244 551 1245 518 1245 C505 1245 490 1244 476 1243 C471 1242 465 1239 460 1237 C458 1236 456 1233 455 1231 C455 1230 457 1228 459 1228 C466 1227 473 1226 480 1225 C517 1223 553 1221 590 1220 C615 1219 639 1219 664 1219 C671 1219 671 1215 669 1210 C608 1015 565 820 518 626 C472 410 429 209 378 10 C338 -156 314 -243 287 -330 C281 -350 275 -371 264 -390 C257 -401 248 -412 239 -422 C237 -425 232 -428 228 -428 C188 -435 151 -433 114 -429 C106 -428 99 -427 92 -426 C84 -425 77 -422 72 -416 C68 -411 55 -412 49 -418 C48 -419 47 -423 47 -425 C49 -432 53 -437 60 -438 C74 -442 87 -446 102 -448 C128 -451 154 -454 180 -456 C201 -458 223 -457 246 -449 C266 -443 284 -432 299 -415 C322 -390 337 -363 347 -334 C490 100 569 527 665 951 L665 951 Z " />
<glyph glyph-name="asciicircum" unicode="&#x5e;" horiz-adv-x="288" d="M184 1154 C184 1152 185 1151 185 1150 C186 1137 188 1124 189 1110 C192 1070 197 1029 199 989 C201 968 206 947 210 927 C211 921 217 919 225 920 C230 921 230 925 230 929 C230 972 231 1015 231 1058 C231 1078 232 1099 232 1119 C233 1151 233 1184 233 1216 C233 1233 225 1241 209 1245 C203 1246 197 1247 191 1247 C180 1247 169 1243 162 1234 C156 1226 150 1219 144 1211 C104 1149 65 1087 31 1022 C23 1008 17 992 11 977 C9 973 9 968 13 964 C24 954 48 954 58 964 C65 971 71 978 76 986 C111 1040 145 1094 179 1148 C181 1150 182 1152 184 1154 L184 1154 Z " />
<glyph glyph-name="underscore" unicode="&#x5f;" horiz-adv-x="736" d="M71 -120 C62 -122 44 -120 44 -150 C46 -169 56 -174 65 -175 C267 -175 448 -178 661 -168 C679 -167 682 -144 680 -134 C678 -121 669 -116 650 -115 L71 -120 Z " />
<glyph glyph-name="grave" unicode="&#x60;" horiz-adv-x="192" d="M132 941 C130 947 128 954 125 960 C109 994 93 1027 77 1061 C73 1069 68 1077 63 1084 C53 1097 39 1100 24 1098 C14 1096 12 1092 15 1084 C16 1080 17 1075 19 1071 C29 1047 39 1023 51 999 C63 974 76 950 97 932 C100 929 104 926 108 925 C125 919 130 922 132 941 L132 941 Z " />
<glyph glyph-name="a" unicode="a" horiz-adv-x="430" d="M430 300 C392 252 361 212 332 176 L332 176 C332 176 332 176 332 176 C330 173 329 171 327 169 C310 148 283 117 265 95 C264 95 202 23 176 11 C176 11 174 42 182 83 C186 102 191 122 196 142 C205 178 215 214 224 251 C224 251 224 251 224 251 L224 251 C226 262 229 273 231 284 C232 288 235 309 212 315 C189 320 178 300 176 296 C148 239 114 190 113 189 C72 131 14 58 1 89 C1 89 1 89 1 89 C-1 99 0 113 0 113 C4 157 16 199 31 239 L31 239 C31 239 38 259 50 283 C50 283 102 388 160 377 C166 376 170 372 172 366 C173 361 178 357 183 359 C189 361 188 365 188 369 C187 378 182 385 176 390 C170 396 162 399 155 402 C130 409 104 399 90 391 C-6 335 -56 210 -56 115 C-55 104 -53 93 -49 83 L-49 83 C-49 83 -49 83 -49 82 C-45 74 -20 30 40 75 C96 118 153 210 153 210 L146 188 C142 173 135 146 128 114 C119 76 102 -35 179 -11 C194 -6 224 11 268 61 C283 78 297 95 309 109 L309 110 C318 121 326 132 335 143 L336 144 C336 144 336 144 336 144 C365 181 393 220 423 263 C445 296 448 298 430 300 L430 300 Z " />
<glyph glyph-name="b" unicode="b" horiz-adv-x="561" d="M311 374 C306 522 190 403 190 403 C159 374 132 336 109 300 C82 260 65 222 40 181 C39 179 38 177 37 175 C36 175 36 175 36 175 C36 179 37 184 38 188 C47 236 56 284 66 332 C86 418 104 503 127 588 C164 721 171 749 211 881 C223 922 237 962 250 1003 C254 1017 251 1028 236 1029 C217 1030 214 1015 209 1004 C167 919 140 829 113 747 C87 668 63 589 44 509 C14 367 -26 223 -28 64 C-27 53 -21 48 -10 47 C5 46 13 50 17 62 C19 68 20 75 22 82 C24 99 27 116 35 132 C55 179 81 223 108 266 C137 313 171 357 213 394 C228 407 244 419 263 425 C268 426 271 425 273 420 C278 410 280 398 280 386 C280 352 274 317 267 283 C252 214 230 147 205 81 C204 78 200 75 197 74 C174 64 153 59 129 50 C87 33 44 9 9 -22 C-117 -135 7 -246 153 -85 C194 -40 223 20 247 75 C249 80 252 82 256 84 C292 101 322 116 356 135 C431 178 469 207 534 263 C541 269 551 278 557 283 C571 295 570 298 561 300 C561 300 533 276 520 265 C494 243 486 234 454 212 C394 166 328 127 258 98 C256 97 257 97 253 96 C255 99 255 100 255 102 C263 123 267 143 274 164 C296 232 313 302 311 374 L311 374 Z M196 61 C195 58 195 57 194 55 C174 7 155 -43 120 -81 C97 -106 27 -167 -9 -135 C-42 -105 12 -35 36 -17 C70 10 109 28 148 43 C164 49 179 55 196 61 L196 61 Z " />
<glyph glyph-name="c" unicode="c" horiz-adv-x="326" d="M241 160 C274 206 282 219 315 265 C330 288 336 298 326 300 C320 292 305 269 299 261 C271 223 254 199 227 162 C197 122 159 71 121 38 C-6 -73 -9 63 -9 63 C-10 102 -1 139 9 177 C27 243 60 304 100 360 C100 360 158 432 171 403 C179 381 176 358 164 336 C160 330 162 326 169 326 C172 327 176 329 178 332 C194 353 202 375 198 400 C195 417 182 432 167 435 C122 446 71 399 40 362 C-23 282 -107 93 -39 0 C-8 -35 44 -37 82 -14 C82 -14 145 18 241 160 L241 160 Z " />
<glyph glyph-name="d" unicode="d" horiz-adv-x="405" d="M389 985 C397 1015 392 1031 381 1033 C365 1037 353 1024 350 1018 C346 1009 346 1007 343 997 C270 753 235 583 190 413 C189 409 188 404 186 399 C152 425 105 411 72 386 C42 361 19 330 -2 298 C-40 234 -76 141 -69 89 C-62 51 -24 44 -1 55 C12 61 24 70 34 80 C73 120 104 165 131 212 C133 214 133 214 137 219 C129 194 124 170 107 112 C95 68 85 24 82 -20 C80 -45 116 -121 194 -6 C405 278 385 248 392 257 C409 280 419 295 405 300 C386 274 362 246 343 221 C311 178 282 139 245 95 L162 -13 C115 -77 140 11 140 11 C152 69 171 126 188 182 C206 242 224 303 389 985 L389 985 Z M3 85 C-26 61 -19 96 -19 96 C-12 147 5 195 28 243 C48 284 71 324 102 360 C117 378 130 389 153 393 C161 394 172 392 174 386 C179 376 178 367 175 357 C172 342 168 328 164 314 C163 310 162 305 159 302 C135 258 111 213 81 171 C59 140 33 110 3 85 L3 85 Z " />
<glyph glyph-name="e" unicode="e" horiz-adv-x="393" d="M249 111 C305 171 315 180 364 241 C392 276 416 300 393 300 C367 267 346 241 318 209 C265 148 196 76 133 25 C25 -59 14 72 14 72 C10 107 12 143 20 179 C29 227 44 273 68 316 C84 342 99 369 122 390 C122 390 166 430 180 399 C186 377 177 356 165 338 C111 272 65 316 65 316 C40 338 61 311 61 311 C61 311 89 275 146 296 C183 310 206 353 204 389 C203 415 190 432 165 438 C148 442 131 439 114 432 C15 380 -37 234 -47 137 C-56 35 1 -76 106 -22 C106 -22 148 1 249 111 L249 111 Z " />
<glyph glyph-name="f" unicode="f" horiz-adv-x="325" d="M325 300 C301 278 277 254 253 231 C89 83 2 116 2 116 C54 298 189 848 238 1037 C247 1072 241 1078 233 1080 C219 1083 205 1085 197 1051 C160 923 -146 -219 -147 -355 C-149 -372 -148 -394 -142 -410 C-137 -422 -128 -430 -116 -433 C-114 -434 -112 -434 -110 -435 C-107 -435 -104 -435 -101 -435 C-43 -435 -4 -353 9 -322 C11 -316 13 -310 15 -305 C46 -219 60 -131 58 -43 C54 9 43 56 11 97 C11 98 7 100 7 102 C7 102 40 93 75 106 C75 106 169 128 275 238 C295 257 305 266 324 286 C336 298 333 299 325 300 L325 300 Z M23 32 C33 3 36 -28 36 -59 C37 -120 28 -182 12 -243 C11 -246 9 -255 6 -266 C-3 -294 -29 -366 -70 -398 C-72 -399 -73 -401 -75 -402 C-75 -402 -75 -402 -76 -402 C-78 -404 -80 -405 -80 -405 C-113 -420 -105 -368 -105 -368 C-101 -335 -95 -302 -88 -268 C-83 -239 -77 -210 -71 -181 C-48 -93 -25 -5 -3 83 C7 68 17 49 23 32 L23 32 Z " />
<glyph glyph-name="g" unicode="g" horiz-adv-x="478" d="M478 300 C385 200 292 133 190 37 C207 112 224 188 234 230 C236 240 239 251 241 262 C241 262 241 262 241 262 L241 262 C250 299 258 340 269 398 C270 403 269 412 266 415 C259 425 242 431 231 420 C229 418 227 415 225 411 C225 411 163 261 105 171 C87 143 70 127 68 125 C16 78 23 153 24 162 C30 203 43 243 59 283 C76 320 102 379 144 396 C157 403 166 402 172 395 C175 392 177 387 179 382 C180 378 185 374 190 375 C196 377 195 381 195 385 L193 393 C183 422 135 422 113 415 C85 406 62 387 43 365 C10 327 -21 270 -37 216 C-38 213 -45 187 -46 158 C-46 155 -46 103 -13 84 C-7 81 0 78 8 77 C10 77 13 76 16 76 C35 76 60 86 89 118 C90 119 90 119 90 119 L90 119 C92 120 93 122 94 123 C95 124 95 125 96 126 C97 127 99 128 100 130 C101 131 102 132 103 133 C103 133 103 134 103 134 C141 182 169 244 189 276 C127 17 123 3 119 -11 L13 -114 C-72 -195 -147 -284 -209 -385 C-273 -486 -294 -561 -294 -617 C-294 -623 -293 -632 -291 -642 C-286 -672 -271 -720 -225 -741 C-212 -746 -200 -749 -188 -751 C-177 -752 -164 -752 -150 -751 C-97 -742 -57 -703 -35 -675 C45 -569 96 -385 120 -281 L143 -167 C144 -167 144 -167 144 -167 C149 -140 166 -67 184 11 C287 99 406 192 486 288 C491 294 493 300 478 300 L478 300 Z M97 -121 C61 -294 -37 -707 -170 -722 C-173 -723 -175 -723 -178 -723 C-179 -723 -179 -723 -180 -723 C-204 -723 -227 -713 -244 -689 C-262 -663 -266 -635 -265 -604 C-262 -556 -248 -512 -228 -469 C-202 -412 -168 -360 -132 -310 C-70 -224 4 -148 111 -46 C106 -71 101 -96 97 -121 L97 -121 Z " />
<glyph glyph-name="h" unicode="h" horiz-adv-x="430" d="M240 402 C232 449 197 428 197 428 C171 414 147 380 147 380 C117 338 91 294 66 249 C58 234 50 219 42 203 C38 195 34 186 30 178 C58 372 157 710 253 1009 C253 1018 245 1027 235 1027 C226 1028 212 1019 209 1012 C127 809 12 392 -21 199 C-28 159 -38 95 -36 66 C-35 52 -33 47 -22 45 C-17 44 -3 49 -1 56 C4 70 11 84 15 101 C22 121 31 141 40 161 C66 219 98 274 133 328 C150 356 169 382 193 405 C193 405 217 423 206 387 C160 248 108 116 73 -36 C51 -131 66 -207 114 -211 C155 -214 198 -146 215 -118 C295 16 363 127 432 266 C444 291 448 300 430 300 C426 292 421 281 416 271 C366 171 307 64 237 -51 C213 -91 191 -131 161 -166 C125 -208 108 -173 108 -173 C89 -129 118 -35 134 28 C157 121 220 307 231 347 C236 364 243 384 240 402 L240 402 Z " />
<glyph glyph-name="i" unicode="i" horiz-adv-x="230" d="M230 300 C175 224 121 148 45 93 C-12 52 4 127 4 127 C12 171 57 309 81 394 C84 405 82 411 72 416 C61 422 51 422 46 412 C5 331 -44 177 -44 134 C-44 115 -44 97 -37 80 C-7 9 88 98 111 121 C158 169 201 228 232 283 C241 299 241 299 230 300 L230 300 Z M107 513 C114 528 120 544 126 559 C127 561 127 563 127 565 C127 572 122 574 117 576 C112 577 110 574 109 570 C103 552 97 535 91 517 C91 515 91 513 92 512 C97 505 104 505 107 513 L107 513 Z " />
<glyph glyph-name="j" unicode="j" horiz-adv-x="280" d="M280 300 C187 200 94 133 -9 37 C9 112 26 188 36 230 C38 240 41 251 43 262 C43 262 43 262 43 262 L43 262 C52 299 60 340 71 398 C72 403 71 412 68 415 C61 425 44 431 33 420 C31 418 29 415 27 411 C27 411 26 408 24 403 L-54 89 C-61 62 -65 43 -69 29 L-69 29 L-77 -8 L-111 -42 L-185 -114 C-270 -195 -345 -284 -407 -385 C-471 -486 -492 -561 -492 -617 C-492 -623 -491 -632 -489 -642 C-485 -672 -469 -720 -423 -741 C-411 -746 -398 -749 -386 -751 C-375 -752 -362 -752 -348 -751 C-295 -742 -255 -703 -233 -675 C-153 -569 -102 -385 -78 -281 L-55 -167 C-55 -167 -55 -167 -55 -167 C-49 -140 -32 -67 -15 11 C89 99 208 192 288 288 C293 294 295 300 280 300 L280 300 Z M-99 -109 C-100 -113 -101 -117 -102 -121 C-137 -294 -235 -707 -368 -722 C-371 -723 -374 -723 -376 -723 C-377 -723 -377 -723 -378 -723 C-402 -723 -425 -713 -442 -689 C-460 -663 -464 -635 -463 -604 C-460 -556 -446 -512 -426 -469 C-400 -412 -366 -360 -330 -310 C-270 -226 -198 -152 -96 -54 L-96 -54 L-91 -50 L-85 -44 L-99 -109 L-99 -109 Z M75 506 C82 521 88 537 94 552 C95 554 95 556 95 558 C95 565 90 567 85 569 C80 570 78 567 77 563 L59 510 C59 508 59 506 60 505 C65 498 72 498 75 506 L75 506 Z " />
<glyph glyph-name="k" unicode="k" horiz-adv-x="402" d="M392 260 C409 286 417 299 402 300 C402 300 341 206 307 154 C280 112 253 68 221 29 C158 -50 126 37 126 37 C104 91 87 133 62 198 C59 203 62 204 66 206 C79 213 93 219 105 227 C123 240 141 255 159 270 C187 295 211 324 226 359 C233 374 239 390 238 407 C237 421 231 432 217 438 C201 445 186 444 171 435 C155 425 143 411 132 397 C102 360 78 318 55 276 C53 273 35 244 33 240 C110 542 163 759 247 1088 C260 1129 256 1150 244 1154 C215 1164 215 1142 204 1111 C124 807 4 371 -45 68 C-48 47 -15 25 -3 68 L28 208 C28 208 91 56 96 47 C115 7 145 -46 195 -16 C212 -5 228 14 237 27 C289 103 339 179 392 260 L392 260 Z M59 220 L49 217 C58 234 68 254 77 272 C101 315 126 356 159 393 C169 404 179 415 191 423 C208 434 213 432 214 411 C214 400 211 389 207 378 C190 332 160 296 123 265 C103 248 83 232 59 220 L59 220 Z " />
<glyph glyph-name="l" unicode="l" horiz-adv-x="316" d="M149 72 C112 32 -15 -92 -2 22 C54 281 180 808 248 1064 L256 1105 C262 1135 242 1137 242 1137 C227 1142 222 1136 217 1123 C131 854 4 338 -49 76 C-57 39 -62 -29 -14 -40 C82 -65 214 126 298 248 C319 279 331 299 316 300 C316 300 201 126 149 72 L149 72 Z " />
<glyph glyph-name="m" unicode="m" horiz-adv-x="604" d="M604 300 C604 300 580 262 568 243 C496 128 343 -114 266 -166 C259 -171 255 -168 253 -158 C252 -154 252 -150 252 -146 C260 -58 284 28 309 112 L350 246 C352 252 354 259 356 265 L368 305 C369 311 371 316 372 321 L372 321 L372 321 C388 377 383 399 376 408 L376 408 C376 408 376 408 376 408 C376 408 376 409 376 409 C369 419 356 414 356 414 L356 414 C303 400 194 216 194 216 L213 284 C216 295 223 321 226 344 L226 344 C226 344 236 390 216 403 C208 409 199 408 193 406 C188 404 183 401 178 397 C173 394 169 390 164 385 C163 385 163 385 163 385 C163 384 163 384 162 384 C98 321 17 151 17 151 C17 151 32 221 40 252 C47 276 53 300 59 323 C66 350 75 376 82 402 C84 409 82 414 76 417 C64 424 50 425 43 410 C31 382 17 353 7 324 C-18 254 -32 181 -44 108 L-49 62 C-49 62 -52 33 -26 34 C-26 34 -15 32 -4 55 C-4 55 54 183 110 281 C112 284 170 375 191 386 C191 385 191 384 190 382 C165 298 131 223 110 144 C103 120 97 95 91 70 C90 69 89 46 109 49 C122 52 137 81 144 95 C170 149 219 229 262 289 C285 324 312 358 343 388 C343 388 360 405 355 390 C330 311 300 235 275 158 C258 104 243 48 229 -7 C217 -53 209 -117 215 -148 C215 -148 225 -226 291 -171 C419 -54 502 105 599 262 C614 289 617 299 604 300 L604 300 Z " />
<glyph glyph-name="n" unicode="n" horiz-adv-x="424" d="M239 401 C230 454 182 414 182 414 C123 362 63 262 25 178 C28 198 39 244 45 268 C56 310 68 351 79 393 C81 401 81 412 75 416 C70 419 64 422 59 423 C50 425 43 419 39 411 C4 332 -17 249 -33 166 C-37 133 -43 101 -41 66 C-41 52 -38 47 -27 45 C-23 44 -9 49 -7 56 C-5 64 -2 71 0 79 C38 183 110 323 195 405 C195 405 219 423 207 387 C195 351 180 315 166 280 C140 218 114 156 95 93 C79 34 26 -131 70 -193 C83 -214 116 -228 143 -199 C166 -175 184 -147 202 -118 C287 16 342 109 416 248 C437 287 441 299 424 300 C365 188 308 77 227 -51 C202 -91 178 -131 147 -166 C115 -209 97 -174 97 -174 C88 -109 110 -36 126 28 C144 90 166 151 185 213 C201 257 214 299 229 344 C234 361 241 383 239 401 L239 401 Z " />
<glyph glyph-name="o" unicode="o" horiz-adv-x="354" d="M354 300 C354 300 266 218 192 229 C192 229 217 287 208 329 C206 337 203 343 200 348 C190 360 176 363 168 363 C149 363 126 354 116 312 C115 301 113 282 124 260 C131 246 144 231 166 221 C153 191 130 135 91 103 C61 80 36 89 20 115 C4 144 6 174 7 183 C12 225 36 284 100 364 C100 364 102 383 79 378 C63 374 -31 295 -42 197 L-42 197 C-42 197 -42 197 -42 197 C-42 196 -42 194 -43 192 C-43 186 -43 173 -41 158 C-39 143 -27 86 30 72 C33 71 36 71 40 70 C41 70 43 70 44 70 C44 70 45 70 45 70 C45 70 45 70 45 70 C49 69 53 69 57 70 C111 74 152 142 173 184 C179 197 183 209 188 218 C188 218 262 202 355 286 C363 293 360 300 354 300 L354 300 Z M174 243 C173 240 172 236 170 233 C161 236 150 247 143 254 C129 269 123 305 139 331 C141 334 158 360 176 346 C179 344 188 336 189 319 C191 293 180 259 174 243 L174 243 Z " />
<glyph glyph-name="p" unicode="p" horiz-adv-x="498" d="M498 300 C407 181 333 140 211 122 C248 180 278 230 293 299 C298 323 303 347 300 372 C299 385 295 400 287 411 C250 460 193 418 154 389 C114 355 83 313 54 268 L31 230 L31 230 C31 234 33 238 34 240 C49 295 65 349 73 404 C74 416 74 428 75 440 C75 450 68 457 59 459 C51 461 47 458 44 449 C41 440 37 432 34 423 C17 362 0 302 -14 241 C-29 185 -44 128 -56 71 C-73 5 -111 -189 -124 -255 C-142 -337 -153 -419 -168 -502 C-173 -529 -181 -536 -178 -564 C-178 -564 -182 -582 -164 -588 C-164 -588 -148 -592 -142 -568 C-135 -534 -124 -480 -116 -446 C-101 -375 -89 -304 -73 -232 C-60 -175 -24 9 -13 66 C-7 84 -3 104 2 121 C20 168 45 212 71 254 C100 300 135 343 177 376 C195 390 215 403 235 410 C280 422 273 347 265 319 C247 249 205 162 157 110 C157 110 66 95 29 72 C14 64 2 53 -7 37 C-12 28 -13 11 -8 0 C9 -23 48 -9 69 1 C119 24 158 59 194 100 C196 102 200 106 204 106 C296 112 421 162 498 278 C506 290 511 300 498 300 L498 300 Z M117 65 C95 41 67 21 38 6 C12 -4 -5 10 12 35 C24 52 39 63 59 71 C74 79 123 92 145 95 C136 84 128 74 117 65 L117 65 Z " />
<glyph glyph-name="q" unicode="q" horiz-adv-x="472" d="M209 368 C202 349 205 355 198 337 C185 300 141 224 120 191 C101 163 81 136 56 113 C51 109 47 105 42 101 C10 78 18 132 18 132 C23 181 37 228 57 275 C71 308 88 341 114 368 C117 370 119 373 122 375 C128 380 135 385 141 388 C159 398 171 392 176 374 C177 370 182 366 187 367 C193 369 193 373 192 377 C191 386 187 394 180 398 C159 412 136 415 111 407 C82 398 60 379 40 357 C-13 295 -56 198 -51 124 C-49 88 -38 62 0 58 C83 49 151 201 184 261 C57 -237 39 -305 26 -471 C24 -496 23 -522 28 -547 C32 -568 42 -582 59 -587 C78 -593 96 -590 109 -570 C116 -558 123 -545 128 -531 C154 -462 165 -388 168 -313 C169 -268 166 -224 152 -182 C146 -165 148 -152 159 -143 C253 -65 406 121 479 266 C492 293 490 298 473 300 C473 300 354 43 152 -118 L137 -135 C185 82 227 202 267 390 C268 394 267 400 265 404 C259 416 240 424 228 412 C226 410 224 407 223 403 L209 368 L209 368 Z M93 -530 C61 -578 72 -505 72 -505 C85 -421 109 -286 124 -201 C124 -199 125 -197 126 -195 C159 -259 132 -474 93 -530 L93 -530 Z " />
<glyph glyph-name="r" unicode="r" horiz-adv-x="473" d="M473 300 L181 -101 C125 -172 141 -108 141 -108 L177 35 C185 70 192 105 191 141 C189 196 169 230 113 252 C102 256 65 266 40 278 L40 278 C40 278 39 278 39 278 C38 279 38 279 37 279 C37 279 36 280 36 280 C31 282 27 285 23 288 C18 292 16 295 16 295 C117 464 133 537 130 568 L130 568 L130 568 C129 576 127 581 124 585 C124 585 124 585 124 585 C122 589 118 593 112 596 C109 597 106 599 103 599 C101 600 100 600 98 600 C73 603 50 585 42 577 C41 575 39 574 38 573 C-18 515 -73 352 -22 284 C-10 268 0 255 85 226 C136 209 149 160 142 108 C132 40 116 -25 104 -92 C91 -149 122 -200 175 -135 C283 -3 375 133 474 271 C488 291 487 300 473 300 L473 300 Z M2 309 C-4 320 -7 329 -8 341 C-15 406 23 505 73 563 C77 567 85 575 94 580 C99 582 108 585 113 576 C132 542 55 398 3 307 C2 308 2 309 2 309 L2 309 Z " />
<glyph glyph-name="s" unicode="s" horiz-adv-x="400" d="M400 300 C400 300 315 242 216 172 C200 161 184 150 169 138 L133 111 C123 136 109 166 89 203 L78 222 L71 236 C71 236 59 260 53 273 C44 296 39 313 36 324 C84 409 98 454 99 477 C99 478 99 478 99 479 C99 479 99 480 99 481 C99 493 94 499 90 502 C90 503 89 503 89 504 C89 504 89 504 89 504 L89 504 C81 509 66 513 43 493 C40 490 37 487 35 484 C34 484 33 483 33 482 C33 482 33 482 33 482 C32 482 31 481 31 480 C28 477 25 474 22 470 C-7 432 -12 390 -12 368 C-10 277 48 187 48 187 C57 170 69 147 69 147 L75 137 C83 122 91 104 99 86 L91 79 L83 73 L82 71 C46 41 9 10 -21 -27 C-36 -47 -66 -94 -36 -127 C-22 -142 8 -156 73 -131 C74 -131 75 -130 75 -130 C108 -115 175 -70 153 49 C151 59 147 74 139 94 C152 105 164 114 164 114 L216 155 C311 225 283 206 387 277 C407 291 411 300 400 300 L400 300 Z M30 357 C30 376 34 415 59 458 C59 458 59 458 59 458 C63 465 66 471 70 476 C72 479 81 491 86 485 C89 482 88 475 88 471 C83 444 55 389 30 346 C30 350 30 354 30 357 L30 357 Z M116 -35 C114 -41 112 -48 109 -54 C109 -55 109 -55 108 -56 L103 -67 C88 -92 63 -106 59 -108 C30 -122 5 -120 5 -120 C-49 -120 -11 -56 -11 -56 C7 -26 32 0 58 25 L100 62 C100 63 102 64 104 65 L106 67 C118 32 124 -5 116 -35 L116 -35 Z " />
<glyph glyph-name="t" unicode="t" horiz-adv-x="466" d="M175 940 C-277 940 -545 882 -545 882 C-550 881 -557 878 -562 875 C-567 872 -567 868 -565 864 C-563 859 -559 859 -555 860 C-546 862 -530 864 -522 865 C-468 872 -412 878 -358 885 C-186 905 -16 910 166 916 C111 719 60 543 10 345 C-21 217 -94 -43 -62 -107 C-39 -153 9 -159 49 -137 C78 -121 105 -100 129 -77 C191 -20 248 41 305 103 C346 146 385 192 425 236 C443 256 441 254 458 274 C472 290 483 300 466 300 C466 300 394 219 356 177 C293 109 232 39 165 -25 C133 -55 92 -91 52 -111 C-42 -161 -10 -21 -10 -21 C-1 25 12 95 23 140 C81 386 163 647 232 916 C372 916 509 920 649 920 C660 920 672 920 683 920 C688 920 692 925 692 928 C693 934 691 937 685 939 C676 941 665 940 654 940 C514 940 376 942 236 942 L287 1129 C297 1164 267 1167 267 1167 C240 1167 233 1140 233 1140 L175 940 L175 940 Z " />
<glyph glyph-name="u" unicode="u" horiz-adv-x="506" d="M506 300 C414 177 267 -40 179 -120 C134 -160 153 -98 153 -98 C172 -46 189 6 208 57 C241 150 277 242 303 336 C304 337 304 338 304 338 C306 346 306 360 292 369 C278 377 268 371 263 367 C262 366 261 365 260 364 C260 364 260 363 260 363 L260 363 C256 358 253 353 251 350 C250 350 250 349 249 348 L249 348 C227 312 188 241 156 190 C156 190 156 190 156 190 C148 176 112 129 111 127 C-56 -81 41 228 41 228 C55 272 74 321 88 358 C103 395 114 410 93 421 C65 435 48 403 35 380 C12 335 -14 275 -27 221 C-38 182 -65 70 -18 38 C-18 38 -18 38 -18 38 C-17 37 -16 37 -15 36 C-15 36 -15 36 -15 35 C-15 35 -15 35 -14 35 C-12 34 -9 33 -7 32 C-5 31 -3 31 -1 30 C53 19 121 109 154 159 C161 170 168 181 173 190 L173 190 L173 190 C175 192 176 195 178 197 L241 310 L195 195 C177 144 158 93 140 42 C140 42 140 42 140 42 L137 34 C137 34 137 34 137 34 C136 31 135 28 134 26 L132 18 L132 18 C124 -4 117 -26 110 -48 C110 -50 110 -51 109 -53 C103 -77 101 -101 100 -102 C98 -141 108 -187 178 -140 C201 -123 221 -100 237 -83 C326 18 403 132 488 246 C502 267 527 299 506 300 L506 300 Z " />
<glyph glyph-name="v" unicode="v" horiz-adv-x="569" d="M321 279 C321 279 344 156 570 289 C587 299 569 300 569 300 C331 169 332 296 332 296 C362 347 402 410 425 473 C431 490 434 508 432 525 C428 552 402 562 376 537 C333 490 324 415 319 350 C317 315 318 306 317 299 C280 245 231 175 190 123 C162 88 130 53 100 22 C-28 -112 -3 50 -3 50 C7 112 19 172 35 232 C49 284 71 334 86 385 C89 395 88 401 80 406 C76 409 71 411 67 412 C59 415 53 413 49 406 C46 402 43 399 41 395 C29 369 16 344 7 318 C-20 244 -40 167 -52 90 C-52 90 -97 -165 69 -36 C69 -36 193 79 321 279 L321 279 Z M333 326 C340 497 390 530 404 536 C422 539 418 502 413 488 C394 431 363 378 333 326 L333 326 Z " />
<glyph glyph-name="w" unicode="w" horiz-adv-x="691" d="M487 540 C513 558 533 534 532 509 C528 421 491 343 461 259 C461 259 554 187 691 300 C700 299 701 296 690 285 C570 180 455 244 455 244 C406 123 371 37 324 -64 C286 -138 251 -118 251 -118 C175 -99 214 142 219 265 C216 261 201 242 199 239 C134 152 89 95 35 30 C7 -3 -19 -18 -39 -16 C-94 -12 -58 140 -26 233 C-15 264 28 378 33 390 C37 398 43 410 63 408 C81 406 87 390 80 375 C36 259 -4 180 -33 63 C-33 63 -72 -75 61 88 C109 146 136 182 180 239 L222 296 C229 305 236 311 244 309 C260 307 261 299 261 282 C262 259 262 239 261 211 C258 119 251 16 255 -68 C255 -68 261 -128 298 -67 C357 38 401 145 441 252 C382 311 436 457 436 457 C436 457 454 518 487 540 L487 540 Z M491 512 C473 495 453 438 453 438 C453 438 410 311 449 270 C559 581 491 512 491 512 L491 512 Z " />
<glyph glyph-name="x" unicode="x" horiz-adv-x="427" d="M430 278 C438 292 440 300 427 300 C427 300 292 87 195 -59 C112 -185 93 -93 93 -93 C82 -44 79 -3 75 50 C70 110 66 165 62 226 C61 233 63 244 67 249 C108 307 146 364 186 420 C188 423 187 428 185 429 C181 434 175 430 171 426 C128 371 95 315 59 266 C55 337 55 401 41 464 C37 474 29 479 19 479 C8 480 3 475 3 465 C2 419 1 373 0 328 C0 284 1 241 2 198 C2 184 -4 170 -10 160 C-33 123 -103 -3 -124 -40 C-130 -51 -137 -64 -125 -63 C-123 -63 -120 -59 -119 -57 C-94 -17 -28 101 2 146 C5 77 9 12 21 -55 C30 -101 50 -167 110 -161 C136 -158 161 -142 183 -113 C183 -113 263 -14 430 278 L430 278 Z " />
<glyph glyph-name="y" unicode="y" horiz-adv-x="521" d="M521 300 C429 199 336 133 233 37 C248 101 263 165 272 208 C272 208 272 208 272 208 C280 243 298 316 301 332 C303 341 304 356 293 365 C292 366 291 366 290 367 C290 367 289 368 288 368 C288 368 288 368 288 368 C275 375 266 369 262 365 C261 364 260 363 259 362 C259 362 259 362 259 362 L259 362 C255 357 251 352 249 349 C249 348 248 347 248 346 L248 346 C226 310 187 239 155 188 C155 188 155 188 155 188 C146 174 111 127 110 125 C-57 -83 39 226 39 226 C53 270 73 319 87 356 C101 393 112 408 91 419 C63 433 46 401 33 378 C10 333 -15 273 -29 219 C-39 180 -67 68 -20 36 C-20 36 -20 36 -20 36 C-19 35 -18 35 -17 34 C-17 34 -17 34 -16 34 C-16 34 -16 34 -16 33 C-14 32 -11 31 -8 30 C-6 29 -4 29 -3 28 C52 17 120 107 152 157 C159 168 166 179 172 188 L172 188 L172 188 C173 190 175 193 176 195 L234 296 L234 296 L234 296 L240 308 L240 308 L243 313 L216 201 L205 158 L188 89 C181 62 176 43 173 29 L173 29 L165 -7 L131 -42 L57 -114 C-28 -195 -103 -284 -165 -385 C-229 -486 -250 -561 -250 -617 C-250 -622 -250 -631 -248 -642 C-243 -672 -228 -720 -181 -741 C-169 -746 -157 -749 -145 -751 C-133 -752 -121 -752 -106 -750 C-53 -742 -14 -703 9 -676 C88 -569 139 -385 163 -281 L187 -167 C187 -167 187 -167 187 -167 C193 -140 209 -67 227 11 C331 99 450 192 529 288 C535 294 537 300 521 300 L521 300 Z M142 -109 C142 -113 141 -117 140 -121 C105 -294 7 -707 -127 -722 C-129 -723 -132 -723 -135 -723 C-135 -723 -136 -723 -136 -723 C-160 -723 -183 -713 -200 -689 C-218 -663 -223 -635 -222 -604 C-218 -556 -204 -512 -184 -469 C-158 -412 -125 -360 -88 -310 C-28 -226 44 -152 146 -54 L146 -54 L151 -50 L157 -44 L142 -109 L142 -109 Z " />
<glyph glyph-name="z" unicode="z" horiz-adv-x="578" d="M61 -133 C-407 -564 -230 -639 -230 -639 C-139 -680 28 -602 128 -491 C184 -427 222 -359 253 -289 C276 -238 291 -188 307 -136 C321 -75 330 -13 322 43 C320 49 323 52 328 56 C437 132 474 163 565 261 C602 302 578 300 578 300 C507 214 424 138 325 68 C319 64 315 63 314 68 C306 84 298 104 286 117 C225 185 77 176 77 176 C110 188 154 208 183 229 C232 261 276 298 311 344 C329 370 339 398 329 416 C315 446 275 450 235 444 C153 430 44 373 0 299 C-5 290 -5 283 3 280 C7 278 12 280 14 287 C14 289 17 292 19 295 C24 301 30 307 36 312 C83 354 135 386 190 406 C216 416 242 423 267 422 C279 422 289 420 293 410 C297 395 293 377 280 360 C267 342 250 324 234 308 C203 278 167 253 130 230 C94 207 24 179 -14 159 C-33 150 -16 140 -10 143 C-10 143 173 179 255 103 C272 88 279 68 283 45 C283 41 281 38 277 35 C269 29 260 23 252 17 C185 -29 121 -78 61 -133 L61 -133 Z M284 24 C282 -27 277 -65 258 -131 C233 -212 203 -286 156 -359 C127 -407 94 -454 50 -496 C-12 -559 -96 -618 -181 -624 C-216 -628 -240 -600 -239 -571 C-233 -508 -199 -449 -157 -392 C-112 -327 -58 -267 -1 -209 C80 -128 167 -56 262 10 C268 14 274 18 280 22 C281 23 282 23 284 24 L284 24 Z " />
<glyph glyph-name="braceleft" unicode="&#x7b;" horiz-adv-x="649" d="M93 353 C118 364 135 382 149 402 C177 444 200 488 216 534 C235 590 247 646 261 702 C265 719 269 735 273 751 C281 787 290 822 299 858 C307 895 315 932 324 969 C332 998 340 1027 350 1056 C358 1080 366 1104 377 1127 C392 1158 414 1186 445 1206 C476 1226 509 1221 524 1193 C527 1187 531 1182 534 1176 C535 1173 536 1170 537 1167 C539 1164 541 1161 543 1158 C544 1158 547 1159 547 1159 C548 1163 550 1168 548 1171 C540 1186 533 1202 522 1215 C492 1250 442 1250 398 1216 C371 1196 350 1171 333 1143 C306 1097 287 1049 271 1000 C259 963 249 925 238 887 C225 837 211 787 198 738 C186 691 175 645 162 598 C150 554 134 510 110 467 C98 445 85 423 66 404 C56 395 47 387 40 374 C37 367 35 361 39 356 C47 346 55 337 63 327 C84 300 98 269 102 232 C105 206 105 179 104 152 C104 110 103 68 100 26 C96 -27 92 -81 83 -135 C74 -190 62 -245 48 -299 C41 -328 35 -356 31 -384 C28 -411 38 -433 58 -447 C77 -459 100 -462 124 -459 C129 -458 135 -455 140 -451 C143 -449 146 -444 143 -440 C139 -436 131 -435 127 -439 C111 -452 84 -448 80 -431 C77 -421 76 -410 78 -400 C88 -358 98 -316 109 -274 C122 -227 134 -179 140 -132 C150 -60 160 11 164 83 C166 117 169 152 168 186 C165 252 141 307 96 351 C95 351 94 352 93 353 L93 353 Z " />
<glyph glyph-name="bar" unicode="&#x7c;" horiz-adv-x="599" d="M447 1184 C447 1200 437 1210 421 1214 C405 1218 389 1208 389 1192 C369 1064 98 -346 89 -431 C89 -434 89 -439 90 -441 C100 -452 113 -453 126 -452 C139 -451 142 -441 146 -432 C186 -375 443 1148 447 1184 L447 1184 Z " />
<glyph glyph-name="braceright" unicode="&#x7d;" horiz-adv-x="664" d="M462 369 C461 368 459 367 458 367 C395 323 347 268 316 202 C300 168 288 133 275 99 C249 27 228 -44 207 -116 C194 -163 185 -211 177 -258 C171 -300 163 -342 154 -384 C152 -394 146 -405 140 -415 C128 -432 100 -436 89 -423 C86 -419 78 -420 73 -424 C68 -428 69 -433 71 -435 C74 -439 79 -442 83 -443 C106 -446 130 -443 154 -431 C181 -417 200 -395 208 -368 C217 -340 223 -312 228 -283 C238 -229 248 -174 263 -119 C278 -65 297 -11 316 42 C331 84 348 126 365 168 C376 195 388 222 402 248 C421 285 449 316 482 343 C493 353 506 362 517 372 C524 377 525 383 524 390 C523 403 517 411 512 420 C500 439 497 461 494 483 C488 526 491 570 498 614 C506 661 514 707 522 754 C530 803 538 853 546 903 C552 941 558 979 562 1016 C567 1065 568 1113 561 1159 C556 1187 545 1212 527 1232 C498 1266 448 1266 403 1231 C386 1218 372 1202 358 1187 C355 1184 355 1179 354 1175 C353 1175 357 1174 357 1174 C361 1177 364 1180 367 1183 C370 1186 371 1189 374 1192 C380 1198 386 1203 392 1209 C419 1237 453 1242 476 1222 C498 1202 508 1174 510 1143 C511 1120 509 1096 507 1072 C504 1043 500 1014 495 985 C489 948 480 911 473 874 C466 838 460 803 454 767 C451 751 447 735 444 718 C434 662 422 606 417 550 C413 504 418 460 428 418 C433 398 442 380 462 369 L462 369 Z " />
<glyph glyph-name="asciitilde" unicode="&#x7e;" horiz-adv-x="706" d="M233 227 C233 228 232 229 232 229 C232 231 232 234 233 235 C243 265 253 295 264 325 C270 343 277 361 279 380 C281 402 272 418 252 428 C236 436 220 433 204 427 C163 414 128 390 95 363 C76 346 56 330 40 309 C39 307 38 303 39 302 C42 299 45 297 50 299 C52 301 53 302 55 304 C73 320 91 336 110 351 C141 376 174 397 211 409 C219 412 226 414 234 415 C244 417 245 415 243 406 C242 398 240 390 237 383 C227 363 217 344 208 324 C196 299 184 274 178 246 C174 227 177 210 194 198 C213 184 233 179 256 187 C287 197 316 211 344 228 C412 271 483 311 546 363 C559 373 573 383 586 393 C590 396 593 400 590 406 C587 413 574 417 567 413 C544 401 521 386 497 375 C469 363 443 348 417 332 C370 304 324 276 278 249 C264 241 248 235 233 227 L233 227 Z " />
<glyph glyph-name="quoteleft" unicode="&#x2018;" horiz-adv-x="242" d="M133 1066 C131 1080 126 1092 114 1098 C104 1103 95 1098 93 1087 C92 1081 92 1074 90 1069 C80 1043 71 1017 61 991 C55 976 44 964 33 952 C28 948 24 944 20 939 C18 938 17 935 17 933 C19 923 31 919 39 924 C43 926 46 928 49 930 C83 956 109 988 124 1029 C128 1042 131 1055 133 1066 L133 1066 Z " />
<glyph glyph-name="quoteright" unicode="&#x2019;" horiz-adv-x="242" d="M133 1066 C131 1080 126 1092 114 1098 C104 1103 95 1098 93 1087 C92 1081 92 1074 90 1069 C80 1043 71 1017 61 991 C55 976 44 964 33 952 C28 948 24 944 20 939 C18 938 17 935 17 933 C19 923 31 919 39 924 C43 926 46 928 49 930 C83 956 109 988 124 1029 C128 1042 131 1055 133 1066 L133 1066 Z " />
<glyph glyph-name="quotedblleft" unicode="&#x201c;" horiz-adv-x="346" d="M218 1087 C220 1096 203 1110 194 1108 C193 1108 192 1107 191 1106 C187 1098 180 1090 178 1080 C168 1046 157 1013 136 984 C125 969 111 956 99 943 C97 940 94 938 97 934 C101 925 110 922 118 928 C140 945 158 965 176 986 C192 1005 205 1026 215 1049 C217 1055 218 1062 219 1069 C220 1075 219 1081 218 1087 L218 1087 Z M134 1089 C135 1099 123 1112 112 1111 C110 1111 107 1110 107 1109 C102 1101 97 1093 94 1085 C88 1072 84 1058 78 1045 C67 1025 57 1005 45 985 C37 972 26 962 16 950 C15 948 15 945 16 944 C20 938 28 936 34 941 C43 947 51 955 60 960 C79 972 93 988 105 1007 C121 1032 138 1057 134 1089 L134 1089 Z " />
<glyph glyph-name="quotedblright" unicode="&#x201d;" horiz-adv-x="346" d="M218 1087 C220 1096 203 1110 194 1108 C193 1108 192 1107 191 1106 C187 1098 180 1090 178 1080 C168 1046 157 1013 136 984 C125 969 111 956 99 943 C97 940 94 938 97 934 C101 925 110 922 118 928 C140 945 158 965 176 986 C192 1005 205 1026 215 1049 C217 1055 218 1062 219 1069 C220 1075 219 1081 218 1087 L218 1087 Z M134 1089 C135 1099 123 1112 112 1111 C110 1111 107 1110 107 1109 C102 1101 97 1093 94 1085 C88 1072 84 1058 78 1045 C67 1025 57 1005 45 985 C37 972 26 962 16 950 C15 948 15 945 16 944 C20 938 28 936 34 941 C43 947 51 955 60 960 C79 972 93 988 105 1007 C121 1032 138 1057 134 1089 L134 1089 Z " />
</font>
</svg>
