<?xml version="1.0" encoding="UTF-8"?>
<svg xmlns="http://www.w3.org/2000/svg" xmlns:xlink="http://www.w3.org/1999/xlink" version="1.2" >
<font id="Ladytron">
<font-face  font-family="Ladytron" units-per-em="1000" ascent="750" descent="-250" font-style="normal" font-weight="400" font-stretch="normal" cap-height="900" x-height="500" underline-position="-75" underline-thickness="50" />
<missing-glyph  horiz-adv-x="296" d="" />
<glyph glyph-name="NULL" d="" />
<glyph glyph-name="CR" unicode="&#xd;" horiz-adv-x="296" d="" />
<glyph glyph-name="space" unicode="&#x20;" horiz-adv-x="198" d="" />
<glyph glyph-name="exclam" unicode="&#x21;" horiz-adv-x="157" d="M95 116 C95 108 96 93 101 93 C106 93 99 136 99 161 C95 250 98 338 99 427 C99 470 101 514 102 557 C104 591 110 682 107 685 C100 686 101 639 100 627 C94 537 91 446 89 355 C88 309 88 264 90 219 C92 185 92 151 95 116 L95 116 Z M103 27 C103 32 103 37 103 48 C103 49 101 51 98 48 C96 47 97 37 97 31 C97 21 96 11 101 12 C105 13 103 23 103 27 L103 27 Z " />
<glyph glyph-name="quotedbl" unicode="&#x22;" horiz-adv-x="152" d="M110 672 C108 662 104 645 106 645 C112 644 114 659 116 667 C117 673 119 681 120 687 C121 691 122 699 120 699 C115 700 112 680 110 672 L110 672 Z M90 675 C84 650 86 649 89 650 C93 651 97 673 98 676 C100 684 105 700 101 701 C95 703 92 683 90 675 L90 675 Z " />
<glyph glyph-name="numbersign" unicode="&#x23;" horiz-adv-x="280" d="M58 283 C40 278 8 265 11 266 C11 262 22 267 24 268 C30 270 36 272 42 274 C48 276 54 278 60 280 C65 282 72 276 76 274 C82 271 84 269 84 269 C82 259 80 251 79 246 C77 232 60 149 63 146 C67 141 68 154 68 155 C75 191 83 229 90 266 C90 266 99 261 101 260 C106 257 109 255 113 253 C116 251 121 249 120 245 C119 239 118 234 117 229 C116 222 111 199 113 196 C114 194 118 194 121 197 C123 199 125 203 127 207 C131 215 134 227 133 236 C132 241 131 242 126 249 C126 249 129 264 130 268 L137 297 C137 298 202 307 208 301 C210 299 208 296 209 293 C215 299 210 304 203 305 C196 307 152 305 138 302 C142 323 148 346 154 371 C154 371 159 372 163 373 C201 381 238 391 277 396 C278 396 288 392 285 396 C283 401 268 397 264 397 C242 394 220 391 198 385 C183 382 171 378 155 375 C158 389 172 432 174 439 C175 441 182 454 179 455 C171 458 152 387 151 383 C149 377 148 373 148 373 C137 371 122 366 111 364 C116 389 121 415 127 440 C125 442 119 421 108 375 C107 371 105 362 105 362 C103 361 98 360 95 359 C73 353 35 344 23 326 C10 306 45 291 58 283 L58 283 Z M50 340 C67 347 89 353 104 357 C101 340 97 329 96 323 C95 319 90 298 89 293 L63 285 C55 289 45 296 36 302 C27 308 23 314 27 323 C31 331 42 336 50 340 L50 340 Z M110 359 C123 362 146 369 147 369 C142 347 135 324 131 301 C131 301 96 293 96 294 C100 314 105 333 109 354 C110 358 110 359 110 359 L110 359 Z M130 296 C127 281 124 267 121 252 C114 256 107 261 100 265 C98 266 91 271 91 271 L95 290 C105 292 119 295 130 296 L130 296 Z M127 218 C122 203 119 199 117 199 C119 213 122 228 125 243 C131 236 130 227 127 218 L127 218 Z M88 288 C87 283 86 278 85 273 C79 276 73 279 68 282 C73 284 85 287 88 288 L88 288 Z " />
<glyph glyph-name="dollar" unicode="&#x24;" horiz-adv-x="363" d="M182 598 C185 622 189 666 189 662 C185 665 184 643 183 639 C182 629 179 613 177 597 C177 597 171 594 169 593 C161 590 153 586 146 581 C117 559 96 527 86 493 C76 457 80 419 107 392 C120 380 136 371 152 365 C157 363 159 363 159 357 C159 353 159 348 159 344 C159 335 159 326 158 317 C157 271 157 277 156 231 C156 225 156 194 156 188 C156 183 157 151 156 147 C155 143 147 142 144 140 C140 139 135 137 130 136 C114 130 93 129 79 140 C63 152 59 173 58 191 C58 213 66 231 73 251 C80 271 91 289 103 307 C108 315 113 324 122 329 C132 334 134 327 138 319 C140 325 136 332 130 333 C124 334 117 329 113 325 C102 316 95 303 88 291 C73 266 59 237 54 208 C49 182 53 150 78 135 C102 120 132 129 156 138 C157 131 156 122 156 115 C156 105 156 91 156 82 C156 67 156 54 161 40 C163 48 161 59 161 68 C161 77 161 87 161 97 C161 104 161 141 161 141 C166 143 168 145 171 147 C205 165 236 189 262 218 C283 239 321 284 294 313 C281 327 262 333 245 339 C227 345 208 350 189 356 C183 358 171 363 164 365 C164 365 164 363 164 369 C164 380 165 390 165 401 C167 424 168 447 169 470 C171 491 173 513 175 535 C176 549 180 592 181 593 C186 596 202 597 209 596 C217 595 226 592 232 586 C246 572 244 548 240 530 C236 509 228 489 220 469 C216 459 211 448 206 438 C204 434 202 431 199 428 C197 426 196 423 196 420 C199 415 204 425 205 426 C208 431 211 436 213 441 C218 451 222 461 226 471 C235 491 242 512 246 533 C249 551 250 573 236 587 C221 601 201 600 182 598 L182 598 Z M184 162 C182 161 160 149 160 148 C159 170 160 192 160 214 C161 263 160 312 164 360 C169 360 177 356 182 355 C192 352 203 348 214 345 C234 339 255 334 274 324 C292 313 300 297 293 276 C287 257 272 239 258 225 C243 210 228 195 211 181 C202 174 193 168 184 162 L184 162 Z M177 592 C167 517 162 442 159 366 C137 376 116 387 102 409 C90 428 86 454 90 476 C100 523 130 575 177 592 L177 592 Z " />
<glyph glyph-name="percent" unicode="&#x25;" horiz-adv-x="368" d="M236 198 C226 206 209 196 204 193 C202 192 216 197 223 198 C229 199 234 195 237 190 C244 178 240 164 236 153 C227 130 211 104 189 93 C179 88 165 85 158 96 C151 108 155 125 159 137 C163 151 169 164 176 177 C179 184 183 191 187 198 C190 203 197 213 195 214 C192 215 185 202 182 196 C178 189 173 181 169 174 C159 159 150 145 139 131 C120 104 100 76 78 51 C72 45 48 19 44 37 C40 52 46 70 49 85 C57 117 69 149 81 181 C111 262 149 340 192 415 C215 453 239 490 264 527 C289 563 316 596 346 628 C342 633 333 622 330 620 C325 615 319 611 314 606 C279 582 245 556 201 529 C189 521 176 514 163 508 C150 503 141 502 127 500 C127 499 137 492 139 490 C142 485 143 480 142 474 C141 463 137 451 130 442 C120 429 100 418 89 433 C68 461 96 523 121 543 C124 545 126 545 129 546 C129 548 126 547 125 547 C120 545 116 542 113 539 C94 522 79 490 77 461 C77 445 82 423 100 421 C117 419 132 435 140 448 C144 456 148 468 148 478 C149 487 143 491 137 498 C172 504 205 527 235 547 C251 558 267 569 282 580 C290 585 298 591 305 596 C309 599 313 602 317 605 C319 607 322 610 325 610 C317 600 308 590 300 580 C291 570 283 560 275 549 C259 528 244 506 229 484 C200 440 174 394 150 348 C109 268 71 185 48 99 C44 83 33 48 39 34 C48 13 75 40 81 47 C109 79 131 112 157 146 C155 141 152 130 151 122 C150 111 150 96 159 89 C177 76 205 95 216 108 C229 122 244 149 246 171 C247 182 245 192 236 198 L236 198 Z " />
<glyph glyph-name="ampersand" unicode="&#x26;" horiz-adv-x="286" d="M182 43 C184 31 193 35 192 35 C184 35 185 78 185 85 C185 105 186 125 188 145 C191 183 194 221 205 258 C207 264 209 270 211 276 C212 279 211 285 207 280 C204 277 203 271 201 267 C199 263 196 258 194 254 C183 235 171 217 158 200 C146 185 132 167 114 159 C95 151 78 164 70 180 C51 218 68 264 90 296 C114 331 148 357 184 379 C187 381 207 390 206 396 C204 401 185 397 180 397 C159 395 137 393 115 394 C105 395 93 397 87 404 C81 411 82 422 85 430 C91 449 106 466 120 479 C134 492 150 502 169 507 C171 507 175 509 174 506 C172 499 170 494 167 484 C164 474 160 463 162 455 C165 443 179 452 184 456 C190 462 195 468 199 475 C204 484 206 494 200 502 C195 507 188 509 181 510 C198 556 216 602 239 646 C240 643 240 643 243 643 C243 645 244 652 240 652 C237 652 234 645 233 642 C214 608 199 572 184 533 C182 528 180 523 178 517 C177 514 176 511 173 510 C155 506 140 500 126 490 C111 478 98 464 88 449 C81 437 71 419 80 406 C89 392 113 391 128 391 C147 391 166 393 186 395 C189 395 200 398 202 394 C198 392 194 389 190 387 C181 381 171 376 162 370 C145 359 127 346 112 331 C84 303 59 265 56 224 C55 204 60 184 72 169 C83 155 101 150 117 156 C135 164 149 181 161 196 C174 212 184 230 195 248 C196 244 193 238 193 234 C190 220 188 207 186 191 C184 171 183 152 181 133 C180 113 179 93 180 73 C180 63 181 53 182 43 L182 43 Z M169 453 C162 457 174 488 177 497 C179 502 179 509 186 507 C190 506 195 504 197 500 C203 489 194 475 188 467 C184 462 180 458 175 455 C173 454 171 452 169 453 L169 453 Z " />
<glyph glyph-name="quotesingle" unicode="&#x27;" horiz-adv-x="121" d="M82 664 C81 659 78 645 81 644 C85 643 89 667 90 670 C92 678 96 694 93 695 C88 696 84 672 82 664 L82 664 Z " />
<glyph glyph-name="parenleft" unicode="&#x28;" horiz-adv-x="216" d="M140 59 C152 38 161 38 158 41 C152 48 138 70 134 81 C127 96 120 111 112 126 C75 207 61 298 73 386 C78 429 90 472 105 513 C117 543 132 571 151 599 C154 603 158 607 161 612 C164 615 168 618 170 622 C163 623 157 613 153 609 C136 589 123 567 110 538 C91 497 78 452 70 410 C61 366 60 321 64 278 C68 234 79 191 96 150 C105 130 114 110 124 90 C129 80 133 70 140 59 L140 59 Z " />
<glyph glyph-name="parenright" unicode="&#x29;" horiz-adv-x="201" d="M113 158 C98 120 68 60 56 36 C62 32 77 65 81 74 C89 90 96 105 104 121 C123 159 137 200 144 242 C151 285 152 329 150 373 C148 417 143 462 132 505 C127 526 120 548 111 568 C107 578 102 588 96 597 C91 604 85 613 77 616 C79 610 83 606 87 601 C91 597 94 592 96 587 C102 576 107 564 111 552 C127 510 134 465 138 421 C143 376 145 331 142 286 C138 242 130 199 113 158 L113 158 Z " />
<glyph glyph-name="asterisk" unicode="&#x2a;" horiz-adv-x="217" d="M98 461 C83 460 43 460 34 454 C31 452 40 454 42 454 C60 457 76 456 99 457 C84 444 69 434 56 418 C71 432 102 452 102 452 C102 439 101 430 100 416 C100 412 97 383 107 387 C103 395 103 408 104 418 C105 431 107 442 107 453 C107 453 120 440 126 434 C130 429 136 422 142 421 C132 433 122 444 110 457 C110 457 117 458 120 458 C127 458 135 458 163 458 C170 458 177 459 184 456 C185 455 187 457 184 458 C181 459 178 460 175 460 C151 461 134 461 112 461 C112 461 136 479 139 481 C142 483 154 490 152 493 C146 490 142 486 137 483 C128 476 109 464 109 464 C111 475 112 482 114 490 C116 498 119 507 122 515 C123 516 129 522 125 523 C122 524 120 518 119 516 C115 507 112 497 110 488 C109 485 104 464 103 464 C101 464 93 471 91 473 C86 478 83 482 78 487 C77 488 67 500 66 496 C65 494 74 486 75 485 C83 477 91 469 98 461 L98 461 Z " />
<glyph glyph-name="plus" unicode="&#x2b;" horiz-adv-x="153" d="M68 223 C68 214 72 205 76 205 C72 223 75 232 75 261 C75 263 76 284 76 284 C91 284 106 286 123 287 C125 287 132 293 126 293 C109 294 93 292 76 291 C77 308 78 325 78 343 C78 346 79 354 73 352 C71 351 71 340 71 338 C70 332 71 305 69 290 C60 290 40 288 30 288 C24 288 20 288 19 285 C18 282 33 283 36 283 C47 284 57 283 68 284 C68 263 67 244 68 223 L68 223 Z " />
<glyph glyph-name="comma" unicode="&#x2c;" horiz-adv-x="65" d="M21 218 C18 211 17 205 15 198 C19 195 26 213 27 216 C30 222 35 233 31 234 C25 232 23 224 21 218 L21 218 Z " />
<glyph glyph-name="hyphen" unicode="&#x2d;" horiz-adv-x="148" d="M73 240 C90 240 113 240 121 240 C128 240 109 248 103 248 C94 248 83 247 74 247 C65 247 53 247 47 247 C41 247 31 245 28 240 C28 238 43 239 49 239 C57 239 65 240 73 240 L73 240 Z " />
<glyph glyph-name="period" unicode="&#x2e;" horiz-adv-x="80" d="M28 241 C23 244 21 237 22 235 C23 232 28 233 29 235 C30 237 30 240 28 241 L28 241 Z " />
<glyph glyph-name="slash" unicode="&#x2f;" horiz-adv-x="294" d="M34 70 C33 58 32 49 36 49 C55 129 75 208 95 287 C118 373 144 458 172 543 C193 607 215 670 241 736 C246 747 265 794 259 795 C255 796 222 703 216 688 C201 649 187 611 174 572 C143 484 115 395 89 305 C76 261 67 217 57 172 C50 138 42 104 34 70 L34 70 Z " />
<glyph glyph-name="zero" unicode="0" horiz-adv-x="293" d="M110 481 C105 473 104 464 109 464 C112 477 120 489 127 499 C145 526 180 561 219 541 C236 532 246 514 253 497 C262 476 265 454 266 433 C267 389 258 346 245 306 C233 267 216 229 193 196 C175 170 142 130 103 145 C85 152 73 170 66 186 C55 206 51 228 47 249 C39 294 38 339 43 382 C48 422 55 463 76 497 C70 497 66 488 64 483 C61 477 57 471 55 465 C50 450 47 436 43 421 C34 379 32 334 34 291 C37 250 45 201 71 166 C83 150 100 139 119 139 C139 138 156 147 170 159 C184 172 196 188 206 205 C217 222 227 239 235 258 C250 296 263 335 268 376 C274 417 275 465 255 505 C247 521 235 538 219 545 C202 553 182 551 167 544 C149 537 136 523 126 508 C120 500 115 491 110 481 L110 481 Z " />
<glyph glyph-name="one" unicode="1" horiz-adv-x="153" d="M70 546 C75 553 86 564 89 568 C95 565 89 524 88 516 C86 498 84 479 82 460 C79 423 75 386 73 348 C71 311 71 273 71 235 C72 216 73 200 73 179 C73 173 76 154 73 153 C65 150 57 150 50 148 C56 145 112 148 109 154 C106 158 81 151 81 154 C81 154 80 172 80 173 C80 188 80 191 80 206 C80 293 83 379 92 465 C94 497 102 527 100 562 C99 570 92 578 85 571 C77 564 71 555 65 546 C64 543 50 525 52 523 C60 528 64 539 70 546 L70 546 Z " />
<glyph glyph-name="two" unicode="2" horiz-adv-x="257" d="M234 202 C227 217 137 213 118 208 C120 215 127 222 130 228 C142 245 152 264 170 299 C190 342 257 495 199 534 C166 556 123 528 102 502 C89 487 81 470 75 452 C73 445 63 393 74 395 C74 430 81 464 102 492 C112 505 125 517 138 526 C151 533 167 540 182 536 C240 521 195 388 181 351 C166 311 146 271 123 235 C117 226 111 217 104 208 C99 201 88 200 79 197 C63 191 42 183 30 168 C25 161 25 152 34 149 C41 147 53 150 61 155 C79 165 94 180 107 195 C111 200 117 200 123 201 C153 206 188 209 222 203 C226 203 229 200 234 202 L234 202 Z M58 180 C68 185 90 192 91 193 C81 182 74 174 60 164 C53 159 36 150 34 157 C33 167 51 176 58 180 L58 180 Z " />
<glyph glyph-name="three" unicode="3" horiz-adv-x="274" d="M65 128 C36 160 58 211 68 234 C63 234 61 225 59 221 C53 203 46 189 46 169 C46 152 52 132 67 121 C84 108 106 107 125 110 C164 117 194 147 213 180 C233 214 239 262 224 301 C217 319 205 335 189 346 C176 354 166 357 149 361 C146 362 139 362 136 365 C135 368 139 375 141 377 C144 381 146 385 150 390 C155 398 161 407 166 415 C178 433 188 451 198 470 C206 489 215 508 218 529 C219 544 216 564 202 575 C187 586 169 582 155 575 C138 566 127 549 117 533 C108 516 101 498 96 479 C94 468 92 457 94 446 C94 443 96 421 103 424 C101 435 99 445 100 457 C103 477 110 496 118 515 C126 532 137 550 151 563 C162 573 184 585 198 569 C211 554 207 531 204 514 C193 474 169 439 147 405 C142 397 125 371 126 365 C128 361 134 360 137 359 C155 353 175 351 190 338 C223 311 228 263 222 227 C214 189 194 155 165 133 C140 115 93 98 65 128 L65 128 Z " />
<glyph glyph-name="four" unicode="4" horiz-adv-x="249" d="M183 132 C184 130 187 129 190 129 C192 164 195 199 197 238 C200 277 205 316 208 355 C211 394 215 432 217 471 C218 481 218 492 219 502 C219 507 222 524 215 526 C207 527 208 513 207 508 C205 499 203 491 201 482 C192 443 180 403 161 368 C150 345 115 292 79 329 C64 344 57 367 53 385 C44 426 41 533 81 561 C86 564 75 561 72 559 C35 527 34 429 45 382 C49 363 57 342 72 326 C89 310 113 309 130 319 C146 327 157 345 165 360 C182 396 198 440 205 471 C208 483 199 400 198 385 C195 356 193 327 191 298 C188 248 183 197 183 142 C183 139 183 135 183 132 L183 132 Z " />
<glyph glyph-name="five" unicode="5" horiz-adv-x="218" d="M82 529 C97 540 128 534 135 534 C132 540 119 540 108 540 C100 540 92 539 84 537 C68 533 60 520 56 501 C47 461 41 419 38 377 C37 366 36 354 36 343 C35 340 35 336 38 335 C41 335 44 335 46 336 C49 339 51 345 53 348 C59 359 65 369 74 381 C93 402 127 433 158 411 C193 387 193 329 189 293 C183 250 171 207 150 172 C133 141 102 103 62 111 C44 115 32 131 33 152 C33 156 35 201 51 200 C38 211 21 151 34 127 C51 97 90 106 108 117 C140 136 163 173 177 210 C191 250 202 294 198 339 C196 361 190 383 177 400 C165 415 150 424 133 423 C96 421 67 385 47 354 C47 357 53 407 54 419 C57 442 61 515 82 529 L82 529 Z " />
<glyph glyph-name="six" unicode="6" horiz-adv-x="281" d="M111 504 C128 536 151 583 186 601 C175 611 152 582 144 571 C130 551 109 513 98 491 C77 445 59 398 46 349 C36 308 29 265 31 223 C33 188 42 139 78 121 C116 103 156 131 180 157 C208 187 230 224 243 261 C254 296 265 342 243 375 C233 389 216 396 198 394 C179 391 163 378 150 365 C122 334 101 299 87 261 C73 221 68 180 64 138 C34 168 36 229 41 269 C45 309 53 349 65 388 C77 428 92 467 111 504 L111 504 Z M232 379 C267 337 238 258 214 214 C204 196 193 180 179 165 C167 150 153 137 135 128 C118 119 96 115 79 125 C76 127 70 131 68 134 C68 134 70 163 73 177 C79 218 87 256 106 293 C121 324 150 370 184 386 C201 393 220 393 232 379 L232 379 Z " />
<glyph glyph-name="seven" unicode="7" horiz-adv-x="240" d="M79 361 C97 365 143 367 143 367 C132 341 125 328 116 306 C92 249 77 213 55 150 C54 146 46 123 56 123 C59 141 66 158 72 175 C91 227 108 270 131 321 C135 329 152 367 152 367 C156 367 157 367 161 367 C173 367 222 363 232 358 C227 363 218 366 210 367 C191 370 174 371 154 371 C160 384 166 397 173 409 C193 446 212 483 233 524 C241 540 249 561 246 579 C243 597 229 604 212 605 C170 607 122 589 78 575 C57 568 35 561 14 555 C8 553 3 551 -3 550 C-8 548 4 549 5 549 C56 558 103 583 164 595 C182 599 206 605 224 598 C241 591 240 572 237 557 C232 537 223 521 214 502 C192 460 168 417 146 372 C119 369 87 369 60 358 C60 356 64 357 65 358 C70 359 74 360 79 361 L79 361 Z " />
<glyph glyph-name="eight" unicode="8" horiz-adv-x="242" d="M211 496 C208 485 204 474 200 464 C186 430 159 383 135 354 C131 349 124 340 124 340 C133 328 141 320 147 312 C171 282 197 249 198 209 C199 176 181 144 151 128 C122 113 87 116 61 136 C33 159 25 197 37 230 C43 248 54 265 65 280 C81 300 95 316 115 339 C115 339 100 360 97 365 C57 427 70 514 120 558 C137 573 162 583 184 576 C196 572 205 563 210 551 C212 546 213 541 214 536 C215 524 214 508 211 496 L211 496 Z M187 177 C199 214 181 253 160 283 C148 301 133 316 119 334 C109 321 94 305 84 292 C60 261 30 227 37 185 C44 149 75 120 113 122 C111 122 108 122 105 122 C108 122 110 122 112 122 C107 122 168 120 187 177 L187 177 Z M207 510 C209 526 210 543 202 557 C183 589 144 571 123 551 C97 526 83 490 82 454 C82 434 85 414 91 395 C98 376 108 361 120 345 C123 348 128 355 131 359 C163 403 196 457 207 510 L207 510 Z " />
<glyph glyph-name="nine" unicode="9" horiz-adv-x="285" d="M213 471 C218 489 224 516 227 534 C227 537 227 422 226 411 C224 369 220 327 212 287 C203 246 189 205 165 170 C145 142 110 107 72 113 C54 115 42 128 37 144 C31 164 38 186 47 203 C56 222 69 236 85 249 C94 256 103 263 112 269 C119 273 127 280 135 279 C130 286 116 274 112 271 C103 265 94 259 86 253 C72 242 58 231 49 216 C30 189 17 142 49 118 C79 95 120 117 145 138 C173 162 191 198 204 232 C219 271 227 314 231 355 C235 399 238 443 237 487 C237 510 237 532 237 554 C237 559 239 582 232 582 C224 582 225 567 224 562 C218 518 211 474 194 433 C186 413 176 394 164 377 C153 362 138 345 119 342 C77 336 67 398 68 427 C69 472 82 513 105 550 C115 566 132 581 150 586 C159 589 169 588 178 584 C186 580 188 574 191 566 C196 565 195 570 193 574 C192 578 189 582 185 584 C175 590 165 592 154 591 C132 588 113 572 100 555 C75 522 62 479 59 439 C57 404 64 346 107 338 C148 331 176 377 191 409 C200 429 208 450 213 471 L213 471 Z " />
<glyph glyph-name="colon" unicode="&#x3a;" horiz-adv-x="91" d="M51 350 C43 350 41 335 50 335 C60 335 62 350 51 350 L51 350 Z M45 276 C38 273 43 266 46 266 C53 266 54 279 45 276 L45 276 Z " />
<glyph glyph-name="semicolon" unicode="&#x3b;" horiz-adv-x="95" d="M46 278 C40 269 40 254 37 242 C37 240 40 235 41 238 C44 248 52 267 52 277 C52 281 47 280 46 278 L46 278 Z M47 339 C57 339 61 354 50 354 C42 354 38 339 47 339 L47 339 Z " />
<glyph glyph-name="less" unicode="&#x3c;" horiz-adv-x="195" d="M80 326 C105 338 134 346 165 361 C165 367 139 356 136 355 C125 351 114 347 103 343 C83 336 62 328 42 319 C35 316 25 312 32 303 C37 295 47 291 55 287 C75 277 95 267 115 257 C125 252 135 247 145 241 C147 240 155 234 156 238 C153 241 153 244 148 246 C128 257 107 268 87 279 C76 284 69 288 58 294 C54 297 39 305 47 311 C56 317 67 320 80 326 L80 326 Z " />
<glyph glyph-name="equal" unicode="&#x3d;" horiz-adv-x="161" d="M108 307 C128 307 131 305 135 305 C131 315 107 312 88 312 C72 312 33 312 33 309 C32 307 52 307 68 307 C76 307 94 307 108 307 L108 307 Z M56 277 C43 277 35 276 35 274 C35 271 72 272 77 272 C92 273 122 271 122 274 C122 277 61 278 56 277 L56 277 Z " />
<glyph glyph-name="greater" unicode="&#x3e;" horiz-adv-x="187" d="M137 291 C146 297 164 310 164 314 C164 320 154 324 147 327 C138 330 130 333 121 336 C103 343 60 360 47 361 C45 361 41 360 44 357 C47 355 51 354 55 352 C72 346 86 340 103 335 C113 331 123 327 133 324 C135 323 154 317 150 313 C138 301 126 292 112 282 C106 277 35 227 38 223 C41 220 66 241 70 243 C81 251 93 260 104 267 C115 275 126 283 137 291 L137 291 Z " />
<glyph glyph-name="question" unicode="&#x3f;" horiz-adv-x="255" d="M71 595 C69 586 68 573 73 575 C74 586 76 594 82 604 C88 612 94 621 101 629 C114 644 129 657 147 667 C163 676 182 685 202 682 C221 680 236 667 242 649 C248 630 244 608 239 589 C227 546 207 505 189 465 C171 423 153 383 138 340 C130 319 123 298 118 277 C113 255 110 233 107 211 C104 189 101 166 99 144 C99 139 102 139 106 138 C109 137 108 145 109 147 C110 157 111 168 113 178 C120 222 128 265 141 307 C155 349 171 390 188 431 C206 472 225 514 240 556 C252 590 266 640 237 670 C208 701 158 685 129 664 C112 652 97 639 86 622 C80 613 75 604 71 595 L71 595 Z M100 49 C102 24 109 72 104 71 C99 67 100 54 100 49 L100 49 Z " />
<glyph glyph-name="at" unicode="&#x40;" horiz-adv-x="338" d="M206 313 C214 328 232 368 233 368 C233 368 229 343 229 339 C228 329 227 317 228 307 C229 291 237 272 256 275 C274 277 285 298 292 312 C301 331 307 353 311 373 C318 412 305 455 272 477 C238 500 191 501 155 484 C117 466 91 434 72 397 C37 332 22 226 84 173 C114 147 164 142 198 165 C215 176 227 192 238 209 C239 211 247 220 241 220 C237 220 235 214 233 212 C228 204 222 197 216 189 C203 175 188 162 169 158 C149 153 127 156 109 165 C72 182 53 219 49 258 C44 301 56 346 74 385 C92 423 118 460 156 479 C192 497 237 497 270 473 C304 449 311 406 303 367 C299 347 293 327 284 309 C278 298 260 268 245 281 C230 293 234 322 236 338 C237 349 240 361 242 372 C242 376 244 383 243 387 C242 389 238 390 236 388 C232 385 231 379 229 375 C222 361 216 347 208 332 C198 313 189 293 176 276 C166 262 150 242 131 244 C110 246 107 274 106 290 C104 311 105 333 111 353 C117 372 123 390 138 404 C152 418 173 424 187 407 C199 391 198 370 198 352 C207 351 204 370 204 376 C202 393 195 412 177 419 C160 426 141 415 129 403 C102 374 96 326 98 289 C99 272 104 249 122 242 C141 235 160 247 173 261 C186 277 196 295 206 313 L206 313 Z " />
<glyph glyph-name="A" unicode="A" horiz-adv-x="593" d="M432 293 C453 362 493 498 492 493 C473 348 459 183 460 36 C460 -1 461 -38 462 -75 C463 -91 463 -108 468 -125 C468 -130 470 -140 477 -138 C485 -135 476 -129 475 -126 C472 -120 473 -110 473 -103 C471 -94 471 -86 470 -77 C470 -59 469 -40 469 -22 C469 14 469 51 471 87 C477 233 490 379 511 523 C522 594 537 665 553 735 C555 744 557 754 559 763 C560 767 561 772 561 777 C561 781 557 786 552 783 C549 781 548 776 547 772 C539 737 530 703 523 668 C516 632 509 596 500 561 C491 526 480 492 470 457 C450 388 429 319 408 249 C386 184 365 118 333 57 C308 8 254 -60 189 -31 C161 -19 141 5 124 29 C105 58 92 90 80 122 C70 157 61 192 54 227 C47 264 45 301 43 337 C39 409 45 480 60 548 C75 611 98 673 134 726 C165 773 221 827 286 802 C314 791 337 766 351 739 C359 725 365 710 369 694 C371 685 374 676 376 667 C377 663 377 656 382 655 C386 654 378 691 376 696 C374 708 369 720 365 731 C353 754 338 776 318 791 C297 807 271 816 246 814 C214 811 186 795 163 775 C140 754 122 728 106 700 C91 671 76 640 66 608 C44 541 33 472 30 401 C28 329 34 258 50 187 C64 128 84 67 122 17 C137 -3 155 -21 178 -33 C200 -45 227 -47 251 -40 C279 -32 300 -12 317 10 C337 36 353 65 365 96 C392 160 411 226 432 293 L432 293 Z " />
<glyph glyph-name="B" unicode="B" horiz-adv-x="548" d="M109 391 C85 325 65 238 54 183 C54 219 57 254 58 289 C61 362 68 434 76 507 C80 541 86 576 91 611 C99 670 112 728 127 793 C128 796 133 812 131 814 C125 820 121 800 121 798 C91 721 75 589 64 504 C55 432 49 359 46 286 C43 238 41 189 41 122 C41 113 42 103 42 94 C42 92 41 86 43 85 C44 84 50 84 52 84 C37 63 22 43 12 20 C1 -5 -8 -31 -11 -57 C-14 -83 -13 -111 -2 -136 C8 -158 27 -173 49 -180 C83 -191 120 -187 153 -177 C186 -168 217 -154 247 -137 C306 -102 360 -58 405 -7 C428 19 449 48 467 78 C475 94 483 109 489 125 C496 142 501 159 506 176 C515 209 516 246 505 278 C496 305 477 328 451 341 C399 367 334 356 280 341 C254 335 230 322 203 315 C209 329 219 342 227 356 C241 379 257 401 272 424 C304 476 337 529 364 584 C371 600 378 616 384 633 C389 649 395 665 396 682 C396 696 394 711 383 720 C371 731 354 730 340 726 C308 716 282 692 261 668 C237 642 217 615 198 585 C161 524 133 458 109 391 L109 391 Z M86 117 C82 114 53 89 53 86 C60 198 87 307 125 412 C149 478 180 543 219 601 C238 630 260 657 285 681 C296 692 309 702 323 711 C335 718 353 727 367 722 C384 716 384 695 382 680 C380 663 374 647 368 631 C355 598 338 566 321 535 C281 465 229 389 194 325 C192 322 185 312 189 308 C195 304 205 307 211 309 C249 321 287 339 336 346 C369 350 406 351 437 337 C467 323 487 297 494 265 C501 231 496 194 486 160 C476 127 461 96 443 67 C407 8 357 -45 301 -87 C250 -126 194 -162 130 -176 C98 -183 62 -184 34 -166 C5 -148 -4 -114 -4 -82 C-3 -47 5 -13 20 19 C35 49 54 78 79 101 C103 124 131 142 163 151 C198 161 234 159 270 157 C288 156 306 154 324 153 C333 152 344 150 352 151 C356 152 355 155 351 154 C347 153 343 155 339 155 C303 158 267 162 231 164 C196 166 160 160 128 144 C113 136 99 128 86 117 L86 117 Z " />
<glyph glyph-name="C" unicode="C" horiz-adv-x="427" d="M306 517 C308 517 310 521 306 517 C311 517 313 518 316 522 C318 525 321 529 324 532 C329 540 335 548 339 555 C349 571 357 588 364 605 C379 641 393 676 399 714 C403 745 398 782 372 802 C349 820 316 814 292 801 C232 769 189 711 156 653 C121 590 94 523 73 455 C52 385 38 312 34 239 C29 167 36 94 56 25 C62 8 68 -8 77 -24 C84 -39 92 -54 104 -66 C125 -89 153 -102 184 -99 C217 -95 242 -74 262 -50 C284 -23 302 7 320 38 C337 67 355 97 369 127 C372 131 373 136 374 140 C375 143 376 147 372 146 C366 144 362 131 360 127 C352 111 343 95 334 80 C316 49 298 18 278 -11 C268 -25 258 -38 247 -50 C236 -62 225 -74 211 -82 C197 -90 181 -95 165 -93 C150 -91 136 -84 125 -74 C101 -53 86 -21 76 9 C52 77 45 149 46 221 C48 292 62 362 78 431 C87 466 99 500 112 534 C124 567 139 599 155 630 C171 662 190 693 212 721 C232 748 257 773 286 791 C311 807 344 819 369 796 C394 774 392 734 387 705 C381 671 369 637 356 605 C342 574 325 545 306 517 L306 517 Z " />
<glyph glyph-name="D" unicode="D" horiz-adv-x="554" d="M174 24 C178 23 180 19 184 17 C186 17 181 22 180 23 C178 25 174 26 171 26 C154 26 140 -6 135 -20 C128 -46 137 -79 167 -88 C197 -97 229 -85 254 -71 C281 -57 303 -38 324 -17 C420 77 485 206 508 343 C521 412 525 484 514 555 C507 591 498 626 482 660 C469 688 449 716 422 732 C357 773 286 737 242 694 C216 670 195 644 176 616 C168 604 160 591 154 579 C148 568 142 558 135 545 C133 541 135 557 135 586 C135 603 135 620 135 637 C136 671 135 706 137 740 C137 757 139 774 138 790 C139 798 139 806 136 814 C136 815 135 819 133 819 C129 819 131 814 131 811 C132 803 130 794 130 786 C129 777 128 768 128 760 C127 743 126 726 125 710 C123 674 124 638 123 602 C123 575 123 551 123 521 C123 514 118 506 115 499 C89 436 72 368 60 299 C55 264 49 229 47 193 C44 158 42 121 42 85 C43 67 43 49 46 30 C48 13 51 -4 58 -21 C61 -26 64 -32 69 -34 C75 -36 82 -36 85 -34 C99 -27 104 -8 108 5 C118 38 122 73 125 107 C129 142 131 178 132 214 C135 285 135 356 135 427 C135 445 136 463 135 481 C135 492 130 518 136 530 C147 554 165 590 185 617 C203 644 224 669 249 691 C272 713 298 731 330 740 C361 749 398 745 424 722 C452 699 469 666 481 633 C494 599 499 562 504 527 C507 491 507 454 504 419 C493 278 443 145 360 38 C339 12 316 -12 291 -33 C279 -44 266 -53 252 -62 C245 -66 238 -70 230 -74 C223 -77 215 -80 208 -82 C193 -86 177 -87 162 -80 C147 -73 141 -57 139 -43 C137 -26 143 -11 150 2 C154 9 159 16 164 21 C167 23 170 25 174 24 L174 24 Z M114 477 C117 484 123 498 123 498 C124 450 124 402 123 355 C123 308 122 260 120 214 C118 177 116 141 113 104 C109 70 107 34 96 1 C95 -4 83 -39 73 -30 C67 -25 64 -14 61 -7 C58 1 56 9 56 17 C49 53 49 89 50 124 C52 159 53 195 58 229 C62 263 66 297 73 330 C81 364 88 397 99 430 C103 445 108 461 114 477 L114 477 Z " />
<glyph glyph-name="E" unicode="E" horiz-adv-x="548" d="M165 757 C164 756 156 755 165 757 C162 746 159 735 157 725 C155 714 153 703 151 692 C146 670 142 648 138 626 C125 554 116 482 108 409 C107 392 105 377 104 366 C103 358 104 349 102 348 C82 343 52 337 38 331 C37 330 34 330 35 328 C37 328 39 327 41 328 C44 329 47 331 50 331 C68 336 85 340 102 344 C97 282 93 219 94 157 C94 125 95 94 100 63 C104 34 111 4 126 -22 C142 -51 168 -72 201 -77 C235 -83 269 -74 301 -61 C367 -33 434 -3 500 25 C498 32 486 25 482 23 C474 20 467 16 460 13 C445 7 430 1 415 -6 C400 -12 385 -18 370 -25 C356 -31 342 -37 328 -43 C296 -55 265 -70 231 -72 C199 -75 169 -63 150 -38 C130 -11 122 22 117 54 C111 89 109 125 109 160 C108 196 109 232 111 268 C111 286 113 303 114 322 C115 330 116 339 116 347 C116 347 132 352 134 352 C204 370 275 385 346 397 C364 400 382 402 400 405 C409 406 418 406 427 407 C430 407 430 404 433 404 C437 404 435 407 433 408 C425 411 415 409 406 408 C380 405 355 402 325 397 C289 391 254 385 218 377 C184 370 150 362 117 352 C119 404 122 445 133 516 C137 544 141 572 145 600 C150 628 155 657 160 685 C162 702 166 719 170 736 C171 742 172 748 174 755 C174 756 175 759 176 760 C179 760 183 761 187 762 C220 769 253 777 287 783 C323 789 359 794 396 799 C414 802 481 809 490 804 C492 803 493 800 495 798 C508 810 476 809 469 809 C455 809 441 808 426 806 C398 803 369 799 341 795 C300 789 259 782 215 773 C202 770 190 767 177 765 C179 772 180 780 182 788 C182 790 184 795 181 797 C180 799 178 799 176 798 C174 797 174 793 173 791 C172 787 171 783 170 779 C169 774 169 762 163 761 C147 756 132 752 116 747 C109 745 101 742 94 739 C90 738 79 734 79 729 C82 727 85 728 87 730 C90 733 93 734 97 735 C104 739 111 741 118 743 C133 748 149 753 165 757 L165 757 Z " />
<glyph glyph-name="F" unicode="F" horiz-adv-x="554" d="M255 734 C230 727 181 708 167 701 C167 737 168 772 168 818 C168 823 167 834 159 833 C156 832 156 811 156 809 C154 776 153 746 152 700 C152 697 153 694 150 692 C146 690 143 688 139 686 C125 677 110 667 97 656 C73 635 52 610 41 580 C28 547 27 513 29 479 C31 442 37 406 42 370 C53 298 62 226 71 154 C80 81 87 9 99 -62 C101 -80 104 -98 108 -116 C110 -122 111 -127 119 -126 C124 -125 124 -111 124 -107 C126 -89 128 -71 129 -53 C135 -2 136 50 139 107 C141 143 143 179 144 215 C145 251 147 287 149 323 C149 325 150 356 150 356 C170 361 190 370 212 375 C233 380 331 401 344 385 C349 380 347 373 343 368 C342 367 340 365 338 364 C338 362 341 363 342 363 C345 364 348 366 350 368 C353 372 355 380 352 385 C345 395 325 395 305 395 C287 394 269 391 250 388 C216 382 183 374 150 363 C154 447 158 531 164 626 C165 640 166 686 166 686 C170 686 209 708 214 710 C247 724 282 733 317 742 C388 758 459 773 532 782 C550 784 568 787 586 788 C595 788 604 788 613 787 C618 787 624 786 627 782 C630 780 631 777 631 773 C633 773 635 771 636 774 C637 781 631 787 625 789 C610 795 590 793 574 792 C501 787 429 772 357 758 C323 751 289 743 255 734 L255 734 Z M115 -111 C114 -109 114 -108 114 -107 C108 -76 105 -46 101 -15 C96 21 92 57 87 94 C77 166 68 239 59 312 C55 348 49 385 45 421 C41 457 37 494 42 530 C45 563 58 594 78 619 C96 643 123 664 151 679 C148 613 144 547 141 481 C139 447 138 414 137 381 C137 376 137 367 136 358 C121 354 105 345 87 338 C82 336 88 335 90 335 C105 341 120 345 136 351 C136 343 135 335 135 327 C128 181 121 35 115 -111 L115 -111 Z " />
<glyph glyph-name="G" unicode="G" horiz-adv-x="541" d="M392 735 C398 717 399 691 397 684 C403 683 404 685 406 691 C408 697 407 704 407 711 C406 724 401 737 396 750 C385 777 364 803 336 814 C304 827 272 815 245 797 C217 778 194 751 177 722 C158 693 143 661 131 629 C106 561 93 489 88 417 C85 381 86 343 89 307 C91 272 97 236 107 202 C125 143 167 65 240 81 C273 87 296 111 314 137 C335 165 350 196 365 228 C394 291 418 356 440 422 C451 454 462 487 470 521 C476 548 485 574 493 602 C493 602 496 573 496 558 C495 531 494 504 493 477 C490 423 485 370 477 317 C468 245 452 174 428 105 C423 90 418 75 411 61 C410 59 397 57 391 56 C384 55 376 53 368 51 C334 43 301 29 269 15 C238 1 206 -12 181 -35 C160 -55 137 -89 156 -118 C174 -145 214 -145 242 -137 C274 -128 302 -109 327 -86 C352 -63 373 -35 390 -5 C399 10 407 25 414 41 C416 45 418 49 420 52 C420 53 425 49 425 49 C427 46 428 44 429 41 C430 39 433 40 433 43 C432 47 429 50 426 52 C425 53 421 55 422 56 C424 64 428 71 431 78 C437 95 443 112 448 128 C459 162 468 197 476 232 C491 301 498 372 503 442 C505 478 507 514 507 550 C507 568 507 586 503 604 C502 611 501 620 492 619 C486 618 485 610 484 606 C472 572 464 536 454 501 C445 466 434 432 423 397 C400 330 375 262 341 200 C326 171 308 142 285 119 C264 97 233 79 202 88 C172 98 152 127 138 154 C123 184 114 218 108 251 C102 287 98 323 98 359 C98 394 101 429 104 464 C112 534 130 605 159 669 C173 700 191 730 212 756 C232 780 259 803 290 812 C322 822 352 804 371 778 C381 765 388 751 392 735 L392 735 Z M308 26 C338 38 386 54 408 54 C389 12 367 -30 336 -64 C306 -97 269 -129 223 -136 C194 -140 156 -130 156 -94 C156 -79 165 -64 174 -52 C184 -39 199 -28 212 -20 C227 -10 243 -3 259 5 C275 12 291 20 308 26 L308 26 Z " />
<glyph glyph-name="H" unicode="H" horiz-adv-x="548" d="M296 315 C342 368 393 429 433 481 C433 481 434 482 434 482 C430 457 425 432 421 406 C418 380 414 353 411 326 C407 282 404 238 405 193 C406 119 410 44 419 -30 C421 -51 424 -72 427 -94 C429 -105 430 -115 433 -126 C434 -135 437 -144 440 -153 C441 -157 442 -162 445 -165 C448 -167 457 -172 459 -168 C462 -163 454 -162 452 -160 C450 -158 449 -151 448 -148 C447 -143 446 -139 445 -135 C444 -131 443 -127 443 -123 C440 -102 437 -81 434 -60 C427 -8 424 45 422 97 C419 161 421 224 426 287 C431 360 441 431 454 503 C456 512 460 519 465 527 C470 534 475 541 479 548 C489 563 499 578 507 594 C524 625 538 657 550 690 C555 707 560 724 563 741 C566 758 568 777 563 794 C561 800 558 807 551 810 C545 812 538 811 533 807 C520 798 513 782 508 768 C494 735 485 700 475 665 C465 629 456 594 449 558 C445 540 441 522 438 504 C436 496 429 489 425 482 C397 450 372 416 340 380 C316 353 292 326 268 299 C256 285 243 271 231 257 C220 244 209 229 196 217 C202 280 206 344 207 407 C207 478 205 550 199 621 C197 657 194 694 192 730 C191 739 190 749 190 759 C190 767 191 776 189 784 C188 786 185 791 182 787 C181 785 181 780 181 778 C181 769 181 761 181 752 C185 679 191 606 193 533 C195 459 195 385 191 311 C189 275 185 239 181 202 C180 194 172 188 168 182 C162 175 157 169 152 162 C140 148 129 133 118 119 C97 91 78 61 61 31 C45 1 31 -32 27 -66 C24 -93 30 -138 67 -132 C83 -130 95 -118 105 -107 C115 -94 123 -79 130 -65 C160 -1 175 70 186 140 C189 157 191 175 193 192 C194 201 202 207 207 213 C213 220 219 227 224 233 C248 261 272 288 296 315 L296 315 Z M178 177 C171 126 161 74 148 23 C142 -1 134 -26 124 -49 C115 -71 104 -93 88 -111 C80 -120 64 -133 51 -125 C38 -117 36 -97 37 -83 C37 -47 50 -13 66 19 C82 51 103 80 123 109 C140 133 158 156 178 177 L178 177 Z M459 529 C464 557 470 585 476 613 C484 649 492 685 503 720 C508 737 513 753 520 770 C524 777 527 786 532 793 C534 797 542 808 547 806 C551 805 553 799 554 797 C556 793 557 789 557 785 C559 777 558 769 558 760 C557 743 554 726 549 710 C540 677 526 645 511 614 C495 584 475 558 459 529 L459 529 Z " />
<glyph glyph-name="I" unicode="I" horiz-adv-x="280" d="M206 789 C220 796 247 805 254 807 C252 813 243 809 239 808 C234 806 228 804 222 802 C209 798 195 794 182 790 C149 781 117 769 82 759 C80 758 74 757 75 755 C77 755 79 755 82 756 C119 767 155 779 193 790 C186 785 179 782 174 777 C151 760 153 725 150 699 C142 508 130 317 120 99 C120 63 118 27 118 -9 C118 -38 117 -65 118 -93 C118 -95 119 -100 116 -101 C114 -103 110 -103 107 -104 C90 -109 72 -114 54 -119 C49 -120 45 -121 40 -122 C37 -123 31 -123 30 -126 C29 -132 42 -129 45 -128 C61 -124 79 -126 95 -130 C104 -133 112 -137 120 -135 C126 -133 126 -125 126 -119 C126 -115 126 -104 131 -102 C139 -100 147 -98 155 -96 C173 -91 190 -86 208 -82 C226 -77 244 -73 261 -69 C273 -66 290 -62 301 -63 C304 -63 312 -66 310 -64 C298 -53 254 -67 235 -71 C206 -78 176 -84 141 -95 C139 -95 128 -100 128 -96 C127 -91 128 -84 128 -79 C129 -47 129 -15 131 19 C134 78 136 137 140 234 C145 300 148 367 151 446 C155 538 156 620 160 714 C162 731 164 749 172 762 C180 776 193 783 206 789 L206 789 Z M109 -130 C101 -128 71 -120 70 -121 C85 -116 102 -111 118 -106 C118 -112 119 -119 118 -125 C117 -131 116 -132 109 -130 L109 -130 Z " />
<glyph glyph-name="J" unicode="J" horiz-adv-x="535" d="M126 671 C101 649 70 618 50 598 C52 594 60 603 62 605 C75 618 89 630 104 645 C123 662 142 678 162 694 C190 716 220 737 250 756 C278 775 309 793 342 803 C372 813 407 816 433 794 C457 774 469 740 476 710 C492 639 492 564 484 492 C476 419 462 348 441 278 C436 262 430 245 424 228 C423 224 407 181 407 181 C390 178 373 174 356 170 C338 166 321 161 303 156 C269 147 236 136 204 121 C173 106 143 87 117 64 C93 42 72 16 60 -14 C49 -43 47 -78 70 -101 C92 -125 130 -126 160 -119 C192 -112 223 -96 249 -76 C276 -56 301 -32 321 -5 C343 23 362 52 379 83 C388 98 396 115 403 131 C410 146 415 159 424 179 C440 180 456 183 472 181 C478 180 487 178 489 171 C491 165 487 161 485 156 C492 158 497 162 496 170 C495 177 486 181 480 183 C463 188 444 185 426 183 C432 200 438 215 443 231 C451 255 458 279 465 303 C478 352 488 402 495 453 C504 525 506 599 496 672 C487 727 465 806 398 814 C334 821 266 777 210 738 C181 717 153 695 126 671 L126 671 Z M307 152 C336 160 385 169 405 176 C384 123 358 71 326 25 C307 -3 286 -30 261 -52 C249 -63 236 -74 222 -83 C187 -106 128 -133 86 -105 C75 -98 68 -86 64 -73 C61 -58 62 -40 67 -23 C79 9 101 36 125 59 C150 83 179 101 209 116 C240 132 274 142 307 152 L307 152 Z " />
<glyph glyph-name="K" unicode="K" horiz-adv-x="497" d="M100 754 C103 756 106 759 108 763 C108 762 108 720 107 713 C103 569 98 424 97 280 C85 281 72 280 61 273 C50 266 41 255 39 242 C38 230 42 218 55 215 C70 211 84 216 97 222 C97 156 99 89 100 23 C101 -27 103 -77 106 -128 C107 -136 107 -144 109 -151 C110 -156 112 -159 118 -158 C112 -137 112 -114 111 -93 C108 -24 108 45 108 132 C108 159 109 186 109 228 C109 228 111 229 112 230 C122 237 133 247 142 254 C151 249 160 241 168 234 C181 222 194 210 206 198 C230 172 252 144 273 116 C316 60 360 3 403 -53 C440 -101 484 -163 523 -200 C528 -205 534 -209 542 -207 C537 -203 531 -199 526 -194 C490 -150 455 -105 419 -58 C375 1 332 60 288 118 C248 171 204 223 149 260 C157 269 166 276 175 286 C207 321 236 357 269 401 C311 460 350 521 386 584 C422 647 452 712 483 777 C485 781 500 811 499 813 C498 814 494 815 492 813 C485 798 478 783 470 766 C453 734 437 701 419 669 C384 605 347 542 308 481 C269 420 226 362 180 307 C168 293 152 276 140 264 C140 264 133 267 124 272 C122 273 110 278 110 278 C110 307 111 336 111 365 C112 437 113 510 114 582 C115 619 115 655 116 692 C116 697 120 770 111 770 C107 770 100 757 100 754 L100 754 Z M97 274 C97 262 97 250 97 238 C97 236 97 233 97 230 C97 230 73 216 60 218 C31 223 52 268 75 273 C82 275 92 277 97 274 L97 274 Z M134 259 C127 252 117 246 110 239 C110 250 110 260 110 271 C118 268 127 263 134 259 L134 259 Z " />
<glyph glyph-name="L" unicode="L" horiz-adv-x="352" d="M46 -62 C46 -62 52 -37 53 -26 C55 -8 58 10 60 29 C71 152 74 268 78 395 C80 523 83 650 93 790 C92 795 94 800 95 805 C95 806 94 807 94 808 C93 808 92 808 91 808 C90 807 90 806 89 805 C88 800 85 795 85 790 C72 665 71 528 65 406 C62 283 59 161 50 32 C48 8 47 -16 43 -39 C41 -50 39 -60 32 -68 C31 -68 31 -69 31 -70 C31 -71 32 -71 32 -72 C36 -73 39 -72 42 -71 C54 -67 67 -62 80 -58 C127 -43 176 -35 227 -28 C300 -17 370 -23 452 -33 C477 -37 502 -41 527 -49 C532 -52 525 -53 532 -55 C533 -55 535 -54 535 -53 C535 -52 535 -50 534 -49 C532 -46 513 -40 501 -37 C407 -17 308 -9 214 -22 C174 -30 133 -37 91 -47 C77 -53 62 -56 46 -62 L46 -62 Z " />
<glyph glyph-name="M" unicode="M" horiz-adv-x="591" d="M133 480 C114 414 94 305 90 266 C88 252 87 243 86 231 C86 305 83 378 82 451 C80 523 75 595 71 667 C69 700 67 732 65 765 C65 779 64 795 61 809 C61 811 60 812 58 812 C55 812 55 810 55 808 C53 789 56 770 56 748 C57 715 59 682 61 648 C65 575 69 502 71 428 C73 354 74 280 74 207 C75 171 76 134 75 98 C74 62 75 26 77 -10 C78 -22 80 -35 80 -51 C81 -53 80 -57 82 -58 C83 -58 87 -59 88 -58 C90 -56 89 -50 89 -49 C89 -40 89 -31 89 -22 C88 14 88 50 88 86 C88 122 87 159 90 195 C93 231 98 267 104 303 C108 337 115 372 122 406 C130 440 139 474 149 508 C155 524 160 541 166 557 C172 573 179 590 185 606 C190 622 198 637 206 652 C214 667 222 683 233 695 C240 703 255 721 268 712 C280 703 283 683 286 669 C293 634 293 597 294 561 C295 470 291 379 296 287 C297 270 297 251 301 235 C302 229 306 229 311 229 C317 230 319 244 320 249 C324 266 328 283 332 300 C347 370 365 440 388 508 C399 541 412 574 426 607 C439 638 455 671 476 698 C485 709 494 719 504 728 C511 733 522 741 531 734 C553 716 547 661 546 635 C543 562 530 489 520 417 C509 344 500 272 491 199 C482 127 473 55 468 -18 C467 -36 465 -54 466 -72 C467 -76 468 -78 472 -78 C475 -78 475 -79 475 -76 C475 -74 475 -72 475 -69 C475 -61 475 -53 476 -45 C479 -9 483 26 487 62 C497 133 504 204 515 275 C532 380 548 497 557 598 C560 634 563 671 554 706 C551 719 545 736 531 741 C516 745 502 735 492 725 C467 703 450 672 435 642 C418 611 405 577 393 544 C381 509 370 474 360 439 C350 404 341 368 332 333 C328 315 324 298 320 281 C317 268 314 254 310 241 C298 326 308 416 306 505 C305 541 306 577 303 613 C302 631 300 648 297 665 C294 681 290 698 279 710 C255 739 225 698 213 678 C195 647 181 614 168 582 C155 548 143 514 133 480 L133 480 Z " />
<glyph glyph-name="N" unicode="N" horiz-adv-x="468" d="M75 132 C69 93 63 33 58 5 C57 52 58 99 59 145 C61 217 63 288 64 360 C66 430 66 501 66 571 C68 643 64 715 70 786 C70 796 72 805 72 814 C72 816 72 821 69 818 C67 815 67 812 67 809 C63 792 62 774 60 757 C57 720 57 684 56 647 C55 574 56 500 55 427 C53 353 51 280 49 206 C47 170 47 133 47 97 C47 61 47 24 50 -12 C50 -16 50 -22 56 -23 C64 -24 63 -18 65 -12 C67 6 70 23 72 41 C75 76 81 111 84 146 C94 214 108 282 123 349 C140 415 158 481 182 545 C194 578 208 610 222 642 C234 674 252 703 271 731 C281 745 292 757 305 767 C316 775 331 783 346 775 C359 768 368 753 374 739 C381 723 385 706 389 688 C396 652 399 615 400 578 C405 471 397 364 396 247 C394 174 393 101 393 27 C393 9 393 -9 394 -27 C394 -34 394 -43 397 -50 C397 -52 404 -54 406 -52 C407 -50 405 -43 405 -40 C405 -35 405 -31 405 -27 C404 -19 404 -10 405 -2 C405 16 405 34 405 53 C406 124 409 196 411 268 C413 340 416 411 416 482 C417 519 417 555 414 591 C411 627 408 663 398 697 C395 714 390 731 381 746 C375 759 365 774 351 780 C317 796 287 764 268 741 C248 714 231 683 216 652 C202 620 188 587 176 553 C151 486 131 416 115 345 C98 275 85 204 75 132 L75 132 Z " />
<glyph glyph-name="O" unicode="O" horiz-adv-x="662" d="M263 793 C268 797 279 799 281 799 C276 809 256 793 251 789 C242 781 233 772 225 763 C207 743 191 722 178 699 C150 652 130 601 113 549 C92 480 78 408 73 336 C67 263 71 190 88 119 C104 54 138 -15 197 -49 C258 -86 331 -68 387 -30 C444 9 489 65 525 123 C562 183 591 248 611 315 C631 384 643 457 639 529 C636 597 619 667 577 722 C559 745 537 765 510 779 C480 793 447 800 414 800 C379 800 347 790 315 776 C298 768 282 761 266 753 C258 748 249 745 242 740 C240 738 235 736 234 733 C233 729 236 728 239 729 C237 733 245 736 247 738 C284 753 317 773 356 786 C399 799 446 798 488 782 C552 757 592 697 612 633 C633 563 633 488 621 417 C610 346 590 278 561 213 C532 151 495 91 449 40 C426 15 401 -7 374 -26 C348 -45 314 -58 280 -62 C213 -71 159 -17 130 37 C97 99 86 171 82 240 C78 309 84 379 97 450 C112 519 131 587 161 651 C175 682 192 711 212 739 C222 752 232 765 244 777 C249 782 256 788 263 793 L263 793 Z " />
<glyph glyph-name="P" unicode="P" horiz-adv-x="486" d="M194 622 C152 567 117 487 99 431 C97 432 99 472 99 476 C99 492 98 509 98 525 C98 558 97 590 96 623 C95 656 93 688 92 721 C92 737 91 754 90 771 C90 779 90 787 89 795 C89 801 90 809 85 813 C81 807 83 796 83 789 C83 715 86 641 87 567 C88 531 87 495 87 458 C86 440 86 422 85 403 C85 386 80 369 76 352 C58 281 45 209 37 136 C33 99 30 63 29 26 C27 -18 27 -71 33 -112 C33 -115 33 -119 36 -122 C39 -124 42 -123 45 -123 C52 -124 53 -113 55 -108 C57 -100 58 -91 60 -83 C66 -47 69 -11 73 25 C76 59 79 94 82 129 C83 131 82 140 84 141 C88 142 91 144 95 145 C103 149 111 152 118 156 C135 164 150 173 166 182 C288 251 409 336 474 463 C506 524 523 600 501 667 C492 696 474 723 448 738 C418 756 384 755 352 745 C320 736 292 717 266 696 C239 675 215 649 194 622 L194 622 Z M176 195 C149 178 106 154 84 146 C84 167 87 188 88 209 C90 241 92 273 94 305 C95 322 95 338 96 355 C97 370 96 385 99 400 C102 415 107 429 112 444 C118 458 122 473 129 487 C136 503 142 519 150 535 C159 550 167 565 176 581 C194 611 216 639 241 664 C265 688 292 709 322 725 C351 740 388 753 421 743 C488 721 503 637 496 576 C487 508 454 445 413 391 C371 336 318 291 261 250 C234 231 205 213 176 195 L176 195 Z M82 342 C81 302 78 262 75 222 C74 200 72 178 70 155 C70 152 71 143 68 142 C66 142 61 142 61 144 C60 145 64 148 64 148 C60 150 56 145 58 141 C60 138 65 138 69 138 C65 94 61 50 57 6 C54 -17 52 -40 49 -63 C47 -78 46 -94 42 -109 C39 -98 39 -85 38 -73 C34 -2 40 69 47 140 C50 175 55 211 62 245 C68 277 74 311 82 342 L82 342 Z " />
<glyph glyph-name="Q" unicode="Q" horiz-adv-x="593" d="M379 316 C435 448 462 564 505 725 C506 727 501 688 501 684 C499 670 497 657 495 643 C473 499 438 356 428 210 C427 204 427 199 427 194 C426 191 427 186 425 183 C421 177 412 173 407 168 C368 140 314 98 287 68 C285 65 277 56 283 53 C290 50 298 52 305 53 C322 57 340 62 357 66 C380 71 403 75 425 77 C428 51 431 25 437 0 C443 -24 452 -54 472 -71 C484 -80 502 -82 516 -74 C528 -67 537 -51 541 -38 C550 -9 549 25 528 49 C511 68 487 77 463 81 C456 82 448 84 440 84 C440 84 440 92 440 95 C440 111 441 170 443 188 C443 191 449 193 452 195 C458 200 465 205 472 210 C500 232 557 270 588 289 C595 294 596 301 593 300 C577 294 546 273 527 259 C500 239 475 221 444 198 C444 218 447 239 449 260 C452 282 454 303 457 324 C463 367 470 409 477 451 C489 522 501 594 511 666 C515 693 517 720 520 748 C520 756 521 765 519 773 C518 778 509 782 507 776 C504 768 502 760 500 752 C495 734 491 717 486 699 C452 558 414 417 353 285 C339 254 323 224 304 196 C286 169 265 143 238 126 C224 117 208 111 192 110 C176 109 160 114 146 123 C120 139 103 168 91 196 C76 228 67 262 61 296 C55 331 51 367 51 402 C52 474 64 546 88 613 C99 646 115 678 134 706 C152 734 175 761 202 781 C226 798 258 814 289 805 C303 802 316 792 324 781 C329 775 332 768 336 761 C338 756 338 749 344 750 C342 760 336 772 330 781 C324 789 317 796 309 801 C284 816 253 813 228 802 C197 788 170 767 148 741 C103 689 75 623 58 557 C40 486 34 413 42 341 C49 273 64 201 108 146 C129 119 159 102 194 103 C224 103 251 118 273 138 C297 162 316 191 332 220 C350 251 365 284 379 316 L379 316 Z M504 62 C531 47 539 21 539 2 C539 -20 533 -42 518 -59 C512 -67 501 -76 490 -72 C480 -68 473 -59 468 -50 C455 -29 450 -2 446 22 C443 40 441 59 440 78 C462 75 484 73 504 62 L504 62 Z M296 60 C301 67 308 73 314 79 C336 101 361 123 387 143 C399 153 411 165 425 174 C425 151 425 129 425 106 C425 99 425 91 425 84 C425 83 403 82 400 81 C365 78 331 68 296 60 L296 60 Z " />
<glyph glyph-name="R" unicode="R" horiz-adv-x="484" d="M72 222 C62 158 53 61 45 12 C44 4 44 0 43 -1 C45 31 47 63 50 95 C63 239 80 384 91 528 C96 599 101 671 110 742 C112 760 115 778 117 795 C118 798 120 803 116 805 C113 805 111 803 111 800 C109 792 108 784 106 776 C100 740 96 704 92 667 C84 594 79 520 72 447 C64 374 57 301 50 229 C43 157 35 85 33 12 C33 -6 32 -24 33 -42 C33 -43 33 -51 35 -52 C37 -52 44 -53 45 -51 C48 -45 47 -35 49 -28 C54 7 58 42 61 77 C69 148 79 218 93 288 C100 322 107 356 118 388 C128 422 137 456 149 489 C173 555 201 620 238 680 C256 710 277 739 302 763 C323 783 354 806 385 805 C418 803 435 769 439 740 C445 705 438 669 427 635 C406 569 368 509 325 456 C280 401 228 352 173 307 C160 296 146 286 134 273 C123 262 116 247 125 232 C142 204 166 178 190 150 C213 124 236 97 261 73 C286 47 312 23 338 -2 C364 -26 390 -50 417 -73 C429 -82 443 -99 459 -104 C462 -105 467 -106 470 -104 C472 -102 470 -99 468 -100 C461 -101 453 -93 449 -89 C421 -68 396 -42 368 -16 C341 9 315 34 290 60 C265 85 241 112 217 139 C194 166 169 193 146 222 C141 228 135 236 134 244 C132 251 136 258 141 263 C146 270 154 276 160 281 C166 287 173 292 179 298 C207 321 234 344 259 369 C311 419 357 472 395 533 C414 563 429 594 440 628 C451 660 458 695 454 730 C451 757 440 787 416 802 C388 819 354 810 328 794 C299 776 277 750 257 724 C235 696 218 666 201 635 C168 572 143 505 122 436 C100 367 84 294 72 222 L72 222 Z " />
<glyph glyph-name="S" unicode="S" horiz-adv-x="751" d="M640 147 C601 89 526 23 499 -4 C498 -2 498 0 497 1 C479 67 363 95 301 93 C267 93 235 83 206 66 C179 49 156 26 142 -3 C128 -31 125 -66 143 -93 C161 -118 193 -128 223 -130 C258 -132 293 -125 326 -115 C360 -104 391 -88 422 -72 C452 -55 482 -35 510 -13 C537 8 564 31 588 56 C612 82 636 108 657 138 C693 189 725 265 678 320 C657 345 628 358 598 368 C565 379 529 385 494 388 C422 396 348 394 275 395 C239 396 202 397 166 403 C136 408 103 419 88 447 C56 505 92 586 125 641 C172 715 268 814 367 808 C399 806 430 791 452 767 C475 743 486 709 489 676 C490 658 488 641 485 623 C484 614 481 605 480 596 C479 591 478 585 485 586 C489 604 494 622 495 640 C496 659 497 677 493 696 C488 727 474 758 450 779 C427 800 397 813 366 814 C349 815 332 814 316 809 C292 804 264 792 237 775 C195 750 159 712 127 668 C92 616 52 542 66 474 C72 441 94 416 126 405 C160 394 196 391 232 389 C305 385 379 388 452 383 C488 381 524 377 559 370 C576 366 593 361 609 354 C625 348 639 339 653 328 C679 306 686 271 681 238 C675 205 658 174 640 147 L640 147 Z M208 55 C270 98 435 96 482 19 C486 12 489 5 491 -3 C492 -6 493 -9 490 -11 C473 -22 458 -36 437 -50 C382 -83 322 -115 255 -123 C224 -127 187 -124 163 -102 C139 -81 138 -47 147 -19 C158 12 181 37 208 55 L208 55 Z " />
<glyph glyph-name="T" unicode="T" horiz-adv-x="303" d="M216 753 C216 745 215 738 213 731 C202 659 190 588 180 516 C169 443 164 371 159 298 C151 152 146 6 143 -139 C143 -144 143 -149 143 -154 C143 -157 142 -162 144 -164 C148 -170 151 -158 152 -156 C156 -111 155 -66 159 4 C162 75 165 146 169 218 C173 291 178 364 186 437 C192 508 204 578 213 649 C217 684 223 717 226 751 C227 756 227 755 231 756 C236 756 241 759 248 759 C264 761 275 760 298 763 C335 768 370 776 407 783 C435 789 461 794 490 800 C492 801 511 804 511 806 C510 812 499 809 495 809 C469 806 442 802 412 798 C376 792 339 785 304 778 C286 774 268 770 251 766 C240 764 235 767 227 772 C221 776 219 768 218 763 C218 758 217 759 213 758 C184 751 155 744 125 735 C89 726 53 716 17 705 C-8 698 -35 689 -61 682 C-65 681 -69 680 -73 679 C-75 679 -77 679 -77 680 C-75 682 -74 683 -72 684 C-72 687 -80 683 -81 681 C-83 678 -78 677 -77 676 C-70 675 -60 677 -53 679 C30 703 114 729 216 753 L216 753 Z M267 764 C340 779 415 794 488 804 C446 795 403 787 362 779 C330 773 300 767 267 764 L267 764 Z M227 765 C228 766 233 762 234 762 C232 762 230 762 227 761 C227 761 227 765 227 765 L227 765 Z " />
<glyph glyph-name="U" unicode="U" horiz-adv-x="490" d="M451 686 C453 691 463 723 463 723 C458 685 451 648 444 610 C433 538 421 465 414 392 C406 319 401 247 399 174 C396 100 393 27 394 -46 C394 -73 394 -104 398 -129 C399 -134 400 -141 406 -143 C408 -144 413 -144 415 -142 C417 -139 413 -138 411 -137 C409 -136 409 -130 408 -128 C408 -124 407 -120 407 -116 C405 -98 406 -80 405 -63 C405 10 408 83 411 156 C415 227 419 298 426 369 C433 441 443 512 454 583 C459 618 464 654 469 689 C472 707 474 724 476 742 C476 748 479 760 470 760 C463 761 462 751 460 746 C448 712 439 676 429 641 C418 606 408 570 397 535 C376 465 354 395 329 325 C304 256 279 186 249 119 C235 88 220 58 199 31 C183 9 153 -24 123 -7 C110 1 100 14 93 27 C85 42 78 58 73 74 C63 108 57 143 53 178 C46 250 48 322 52 393 C57 465 68 537 82 607 C88 642 96 677 106 711 C112 737 119 762 128 789 C129 793 131 797 132 801 C133 805 135 806 137 809 C139 812 134 814 132 814 C129 813 127 810 126 808 C115 785 110 759 101 732 C91 697 83 662 75 626 C59 555 48 483 41 411 C35 338 33 264 40 191 C43 155 49 120 59 86 C68 53 82 20 106 -4 C131 -28 168 -17 190 5 C215 29 233 61 248 92 C262 124 275 156 288 188 C294 205 300 221 306 238 C311 253 318 269 323 284 C346 349 370 414 390 480 C411 549 432 617 451 686 L451 686 Z " />
<glyph glyph-name="V" unicode="V" horiz-adv-x="478" d="M65 794 C63 749 69 680 74 624 C78 585 81 545 85 505 C91 432 99 359 108 287 C116 214 125 141 143 70 C150 38 161 1 180 -28 C189 -42 200 -55 217 -56 C233 -57 246 -50 256 -39 C267 -27 275 -12 283 2 C307 48 322 98 339 150 C360 219 378 289 395 360 C412 429 429 499 445 569 C453 604 460 639 469 674 C478 708 486 742 495 776 C496 780 502 799 499 802 C494 810 491 792 490 789 C485 772 480 754 475 737 C466 701 457 666 448 630 C412 487 381 343 341 202 C331 166 321 132 309 97 C299 64 286 31 270 1 C259 -19 231 -67 204 -42 C182 -22 171 18 162 50 C142 119 133 191 124 263 C115 334 108 405 100 477 C91 549 85 621 78 694 C77 721 73 747 73 778 C73 786 72 794 73 802 C74 806 75 810 78 814 C79 816 77 816 76 816 C75 817 74 815 73 814 C67 808 65 802 65 794 L65 794 Z " />
<glyph glyph-name="W" unicode="W" horiz-adv-x="739" d="M375 441 C370 368 363 295 359 222 C356 148 355 72 373 0 C383 -43 406 -107 458 -109 C507 -111 542 -64 565 -27 C620 62 651 166 674 267 C685 319 693 371 696 424 C699 476 695 528 686 580 C678 632 668 683 656 734 C654 747 650 760 647 773 C643 785 640 797 633 808 C631 811 630 813 627 813 C626 813 623 813 623 811 C623 808 628 804 629 801 C634 790 637 779 640 767 C653 714 663 660 672 606 C681 553 686 500 685 446 C681 338 656 233 622 130 C605 81 584 31 557 -13 C544 -34 530 -55 513 -72 C498 -88 475 -105 452 -101 C429 -96 415 -74 406 -55 C396 -33 389 -8 385 16 C376 68 374 121 372 174 C371 226 375 280 379 332 C381 359 383 386 385 413 C385 426 388 441 387 454 C385 466 375 468 370 457 C360 432 353 406 345 380 C337 354 330 329 321 303 C305 251 288 199 270 148 C252 98 233 47 208 1 C202 -11 195 -21 186 -31 C180 -38 172 -47 161 -46 C150 -46 143 -33 138 -24 C133 -14 129 -3 125 9 C111 59 106 112 103 164 C100 217 98 270 99 322 C100 429 107 535 124 640 C128 666 133 691 138 717 C142 734 146 753 153 771 C154 775 154 780 148 776 C144 772 142 764 140 758 C103 633 86 443 86 304 C85 249 86 195 91 141 C95 89 100 33 122 -16 C131 -36 147 -58 172 -52 C195 -47 208 -21 218 -2 C243 45 261 95 280 144 C316 242 344 342 375 441 L375 441 Z " />
<glyph glyph-name="X" unicode="X" horiz-adv-x="573" d="M485 -79 C487 -81 491 -83 493 -81 C496 -78 494 -74 494 -70 C493 -65 490 -66 488 -63 C486 -60 482 -48 479 -41 C473 -25 467 -9 461 7 C437 71 418 136 400 210 C396 228 392 246 388 263 C386 272 383 281 382 290 C382 293 385 297 386 300 C388 304 390 308 391 312 C422 375 448 440 475 505 C503 571 526 639 549 706 C558 731 566 757 572 785 C573 792 576 802 574 808 C571 818 562 810 559 805 C554 798 550 791 546 784 C542 776 538 768 535 760 C534 757 527 742 531 741 C538 752 560 801 567 805 C567 797 565 790 564 782 C557 748 544 715 532 683 C507 614 480 546 453 478 C430 420 406 362 379 306 C366 354 357 402 346 450 C329 520 312 590 288 657 C278 686 266 724 243 749 C234 759 221 765 208 757 C175 734 154 658 141 620 C130 585 120 550 112 516 C94 445 80 374 71 302 C62 230 55 156 62 84 C66 49 71 14 85 -18 C92 -32 101 -47 113 -56 C126 -64 142 -66 156 -62 C187 -55 209 -26 227 -2 C247 26 264 56 281 87 C298 117 314 149 329 180 C337 197 345 213 353 229 C360 243 365 260 374 274 C388 212 401 149 420 87 C436 35 458 -16 479 -68 C481 -72 482 -76 485 -79 L485 -79 Z M180 -35 C169 -44 154 -56 139 -56 C126 -55 116 -45 109 -34 C102 -22 96 -9 92 5 C82 39 78 77 77 112 C75 148 76 185 79 221 C83 293 93 364 108 435 C122 506 139 577 162 645 C173 677 184 710 204 739 C208 745 214 753 221 754 C227 756 232 749 236 745 C263 713 283 644 295 600 C314 532 334 460 349 391 C355 364 361 338 367 310 C368 303 373 293 369 286 C337 221 305 155 270 91 C253 61 234 30 213 3 C203 -11 192 -23 180 -35 L180 -35 Z " />
<glyph glyph-name="Y" unicode="Y" horiz-adv-x="579" d="M484 122 C489 132 494 148 497 157 C516 215 531 275 542 341 C554 413 560 487 564 560 C566 597 567 634 568 671 C568 707 569 744 568 781 C568 790 569 817 553 814 C547 813 545 807 542 803 C539 796 535 789 531 782 C514 750 501 715 487 682 C457 614 428 546 396 480 C365 416 333 351 293 292 C273 264 237 208 194 211 C179 213 167 223 158 234 C138 260 127 293 118 324 C85 439 81 562 96 700 C97 709 99 718 101 727 C101 730 102 733 103 736 C103 738 105 741 104 742 C102 747 97 739 97 738 C95 735 95 731 94 728 C89 711 87 694 84 676 C80 640 77 604 77 567 C77 497 82 426 99 350 C107 318 116 285 132 256 C145 233 164 209 192 206 C221 202 246 220 264 240 C285 264 303 291 319 318 C338 348 354 380 370 412 C402 478 434 544 463 611 C478 644 493 678 508 712 C515 729 522 745 530 762 C537 776 544 792 554 804 C555 800 554 795 555 791 C555 757 554 723 552 687 C551 646 549 606 547 566 C543 492 536 419 525 346 C515 284 503 222 482 161 C480 156 480 148 473 150 C457 154 439 149 425 143 C409 137 394 129 379 121 C350 104 322 84 295 62 C271 42 251 16 239 -15 C230 -40 224 -77 243 -100 C265 -125 302 -112 326 -97 C353 -80 376 -57 396 -32 C427 8 457 57 475 101 C478 108 481 115 484 122 L484 122 Z M349 -67 C332 -83 296 -109 274 -109 C272 -109 269 -108 267 -108 C244 -103 239 -76 239 -56 C239 11 295 57 347 93 C375 112 404 132 436 143 C440 145 477 152 476 144 C474 129 464 114 459 100 C446 68 430 37 411 8 C393 -19 373 -44 349 -67 L349 -67 Z " />
<glyph glyph-name="Z" unicode="Z" horiz-adv-x="618" d="M358 442 C296 419 221 375 183 342 C177 338 171 333 165 329 C172 343 181 356 188 370 C196 384 204 398 212 412 C227 440 241 469 255 497 C284 554 310 612 331 672 C343 703 354 737 354 771 C354 784 351 799 340 808 C328 816 313 812 301 806 C287 799 275 789 263 779 C250 767 238 754 226 741 C202 715 179 687 159 659 C138 630 117 600 100 569 C82 540 67 509 59 475 C57 467 56 458 55 449 C55 447 54 432 58 436 C61 438 61 444 62 447 C62 458 65 472 70 484 C79 518 96 549 113 578 C149 639 192 695 241 746 C253 758 265 771 278 781 C289 791 303 802 318 806 C343 812 341 775 339 760 C334 725 322 691 309 658 C296 625 281 592 265 559 C235 493 201 429 168 364 C161 349 152 334 145 318 C142 312 143 305 151 306 C157 307 163 312 168 316 C194 337 220 359 249 378 C308 416 373 447 440 463 C468 470 499 476 527 469 C554 462 572 443 574 415 C577 386 568 357 557 331 C545 300 527 270 509 242 C472 185 427 132 380 84 C356 58 330 34 302 12 C276 -11 248 -33 218 -51 C190 -69 159 -85 126 -93 C99 -99 64 -99 48 -71 C35 -48 40 -20 49 4 C60 34 79 61 100 84 C122 108 147 129 175 145 C243 183 349 215 423 215 C430 214 438 213 444 208 C449 204 447 197 447 191 C457 195 450 208 444 212 C401 237 231 185 175 152 C120 120 68 73 42 13 C31 -14 23 -50 41 -77 C59 -104 96 -105 125 -100 C159 -95 190 -80 219 -63 C249 -46 277 -25 304 -4 C358 39 406 87 451 138 C496 191 538 248 568 312 C590 360 614 439 551 468 C522 482 487 478 457 473 C423 466 390 454 358 442 L358 442 Z " />
<glyph glyph-name="bracketleft" unicode="&#x5b;" horiz-adv-x="179" d="M121 92 C130 91 141 90 150 90 C151 95 127 96 124 96 C114 97 104 96 99 106 C95 117 95 129 93 141 C92 151 91 162 90 173 C86 215 81 257 80 300 C80 344 79 389 82 434 C86 479 89 523 93 568 C94 591 97 613 98 636 C99 645 98 657 103 665 C105 669 109 666 111 665 C115 663 119 662 123 662 C124 665 115 669 112 670 C108 672 104 674 99 673 C89 670 90 656 89 648 C87 621 85 595 83 568 C76 477 68 386 71 294 C72 250 75 205 79 160 C80 148 81 136 84 125 C86 115 87 105 95 98 C101 92 112 93 121 92 L121 92 Z " />
<glyph glyph-name="backslash" unicode="&#x5c;" horiz-adv-x="287" d="M235 19 C234 30 232 42 231 53 C229 76 226 98 224 121 C219 166 214 210 207 254 C191 344 173 433 153 522 C143 560 134 599 124 637 C116 668 108 695 100 721 C99 727 98 739 93 744 C90 738 94 725 95 718 C98 707 101 696 104 686 C110 664 116 642 121 621 C131 578 141 535 151 492 C170 407 186 322 198 237 C210 157 221 78 230 -2 C234 -2 235 6 235 19 L235 19 Z " />
<glyph glyph-name="bracketright" unicode="&#x5d;" horiz-adv-x="143" d="M83 662 C74 663 60 666 53 666 C52 660 80 659 85 658 C94 657 96 646 97 638 C100 615 98 591 97 568 C94 521 90 474 88 427 C83 336 82 244 83 153 C83 142 84 129 83 118 C81 110 69 106 62 104 C58 102 43 100 41 101 C40 102 37 104 35 103 C32 101 36 97 38 96 C41 95 48 96 52 96 C62 97 73 99 83 103 C92 106 94 115 94 124 C94 146 94 169 94 191 C94 278 93 366 98 453 C101 497 103 542 104 586 C105 606 108 629 101 648 C98 656 91 660 83 662 L83 662 Z " />
<glyph glyph-name="asciicircum" unicode="&#x5e;" horiz-adv-x="215" d="M156 602 C159 599 163 592 165 594 C166 595 151 649 146 673 C143 686 142 700 137 713 C131 725 125 717 120 708 C105 681 94 651 83 619 C81 614 79 608 77 603 C76 601 72 594 73 592 C81 596 83 600 86 609 C89 618 97 638 101 648 C108 667 112 676 121 694 C123 697 126 705 129 706 C132 706 135 693 135 692 C137 682 140 670 142 659 C146 639 151 621 156 602 L156 602 Z " />
<glyph glyph-name="underscore" unicode="&#x5f;" horiz-adv-x="214" d="M77 172 C100 174 142 175 137 175 C145 175 160 175 168 175 C170 175 189 173 188 178 C187 181 165 182 163 182 C150 182 143 182 117 182 C95 182 73 180 51 178 C48 177 39 176 37 174 C34 170 43 171 44 171 C55 171 66 171 77 172 L77 172 Z " />
<glyph glyph-name="grave" unicode="&#x60;" horiz-adv-x="144" d="M94 668 C97 657 104 651 107 650 C107 657 102 669 100 677 C100 678 96 699 92 694 C87 689 92 674 94 668 L94 668 Z " />
<glyph glyph-name="a" unicode="a" horiz-adv-x="216" d="M216 300 C216 300 132 237 113 241 C101 247 120 304 125 330 C126 336 127 339 123 343 C121 345 119 346 117 347 C115 348 110 348 107 345 C104 342 69 300 63 302 C49 316 20 313 5 304 C-5 298 -18 282 -20 265 C-23 234 19 245 33 254 C54 267 70 284 87 301 C92 306 105 320 110 325 C104 291 83 237 104 231 C139 221 210 289 217 292 C223 295 216 300 216 300 L216 300 Z M55 291 C48 285 42 280 36 275 C27 268 18 261 7 257 C1 255 -4 255 -5 259 C-8 276 27 314 51 301 C54 299 57 293 55 291 L55 291 Z " />
<glyph glyph-name="b" unicode="b" horiz-adv-x="222" d="M222 300 C222 300 155 273 133 263 C135 274 137 292 137 303 C137 324 134 348 116 354 C103 358 92 356 81 350 C53 332 33 302 15 275 C17 305 18 341 18 371 C18 380 20 382 24 386 C36 400 47 414 59 428 C95 473 128 531 151 584 C169 626 174 698 157 713 C149 720 136 724 123 717 C80 695 56 640 42 598 C21 534 12 471 5 408 C3 391 2 374 1 357 C1 319 -1 289 0 254 C0 244 3 241 9 241 C13 242 16 242 18 246 C24 261 31 273 39 285 C57 312 78 336 104 347 C108 348 111 348 114 345 C128 331 125 309 125 294 C124 283 122 270 120 259 C61 229 64 210 65 205 C66 199 74 194 81 194 C90 194 101 198 108 204 C123 215 131 237 133 248 C173 267 216 289 222 292 C226 294 227 298 222 300 L222 300 Z M136 710 C139 712 146 712 148 708 C163 678 155 645 147 615 C134 566 111 521 85 481 C64 449 39 421 17 392 C29 503 47 665 136 710 L136 710 Z M108 226 C103 218 94 208 85 206 C80 205 76 207 77 210 C79 219 87 225 94 230 C100 233 107 237 115 241 C113 236 111 231 108 226 L108 226 Z " />
<glyph glyph-name="c" unicode="c" horiz-adv-x="187" d="M187 300 C128 247 25 237 25 237 C19 237 13 237 9 239 C-24 252 10 295 24 303 C44 315 62 315 79 313 C94 311 105 298 109 296 C111 295 116 296 116 297 C118 299 115 303 115 303 C101 323 77 327 57 326 C23 325 -11 299 -19 267 C-26 229 13 221 40 226 C95 235 154 256 192 294 C197 299 187 300 187 300 L187 300 Z " />
<glyph glyph-name="d" unicode="d" horiz-adv-x="193" d="M222 735 C213 750 198 759 180 759 C104 759 37 651 13 594 C-18 515 -25 422 22 352 C36 331 68 304 84 298 C84 298 82 295 80 292 C65 270 55 252 39 231 C26 214 11 198 -2 187 C-7 183 -19 175 -25 174 C-32 173 -31 192 -27 208 C-18 240 -5 265 12 290 C16 295 23 301 26 306 C23 313 19 317 12 314 C9 313 1 303 -1 299 C-23 270 -39 234 -45 205 C-48 193 -49 170 -38 166 C-35 165 -32 164 -29 164 C-21 163 -13 165 -6 168 C8 175 19 186 30 196 C54 222 72 250 88 277 C91 281 94 286 98 293 C114 287 134 283 148 283 C172 283 191 291 194 294 C197 296 193 300 193 300 C157 284 121 296 105 305 C112 317 119 329 124 339 C143 374 164 418 180 453 C206 510 225 567 235 626 C242 667 233 717 222 735 L222 735 Z M149 427 C129 387 112 347 90 309 C54 331 33 354 17 389 C-12 455 1 525 23 585 C46 644 113 751 184 748 C188 748 200 745 202 742 C208 736 213 730 216 722 C246 635 188 511 149 427 L149 427 Z " />
<glyph glyph-name="e" unicode="e" horiz-adv-x="135" d="M12 322 C-1 303 -15 273 -5 238 C-3 231 4 221 14 218 C25 214 36 217 47 220 C72 229 90 245 110 263 C121 273 126 279 134 288 C137 292 145 299 135 300 C135 300 114 282 106 274 C91 261 56 231 29 226 C22 224 16 227 12 233 C9 238 8 246 7 251 C10 252 15 254 19 256 C34 264 44 276 51 292 C61 321 38 350 12 322 L12 322 Z M7 259 C7 272 10 283 14 296 C17 303 20 311 32 324 C41 326 43 303 37 292 C31 280 23 271 12 263 C11 262 8 260 7 259 L7 259 Z " />
<glyph glyph-name="f" unicode="f" horiz-adv-x="171" d="M171 300 C115 234 12 239 12 252 C19 307 27 357 35 401 C36 403 40 405 41 406 C46 412 52 416 57 422 C87 452 125 512 114 550 C112 556 109 561 103 563 C97 565 91 563 86 560 C40 531 30 446 19 400 C11 357 0 286 -3 268 C-11 276 -27 275 -31 266 C-34 257 -34 249 -26 242 C-23 239 -19 237 -15 235 C-13 234 -12 233 -12 230 C-21 141 -39 -51 -24 -140 C-21 -157 -16 -195 -1 -213 C10 -227 27 -223 34 -202 C81 -63 67 146 14 232 C100 222 164 270 174 288 C181 300 171 300 171 300 L171 300 Z M79 532 C83 540 97 565 102 552 C104 541 103 530 100 519 C94 497 85 476 72 457 C64 446 40 421 39 419 C46 450 61 499 79 532 L79 532 Z M-14 258 C-10 255 -8 250 -10 245 C-18 248 -16 260 -14 258 L-14 258 Z M50 12 C48 -52 42 -140 25 -192 C2 -261 -13 -87 -12 -53 C-9 45 -4 127 2 220 C39 157 51 80 50 12 L50 12 Z " />
<glyph glyph-name="g" unicode="g" horiz-adv-x="234" d="M234 300 C209 290 190 277 177 265 C174 271 172 276 171 278 C167 286 162 293 157 299 C148 308 135 310 124 302 C112 292 100 283 87 274 C71 263 54 252 36 244 C20 238 -7 233 -7 256 C-7 278 6 291 20 303 C32 313 48 317 62 317 C77 317 86 315 97 309 C101 307 105 305 108 308 C110 311 103 314 100 316 C92 319 73 328 46 323 C3 316 -15 285 -18 261 C-20 245 -11 232 6 231 C18 230 30 232 42 236 C76 250 103 272 130 292 C133 294 135 296 138 297 C140 299 142 299 144 297 C146 295 149 292 150 289 C156 281 162 264 166 255 C134 205 115 176 91 127 C73 92 30 -5 13 -91 C9 -111 1 -162 17 -192 C22 -203 30 -214 50 -216 C70 -219 83 -214 99 -200 C119 -183 136 -149 145 -125 C154 -101 213 97 181 254 C206 281 231 291 235 294 C240 298 234 300 234 300 L234 300 Z M89 -193 C83 -199 68 -207 60 -209 C50 -212 40 -207 34 -198 C28 -188 25 -178 23 -167 C20 -149 21 -132 23 -114 C29 -74 40 -35 54 3 C66 37 79 71 94 103 C118 158 163 230 168 237 C187 126 151 -135 89 -193 L89 -193 Z " />
<glyph glyph-name="h" unicode="h" horiz-adv-x="172" d="M172 300 C172 300 143 248 117 250 C113 251 113 254 111 258 C109 264 101 303 95 311 C92 315 88 316 84 316 C66 316 52 289 46 278 C35 259 12 216 11 214 C10 251 11 264 14 300 C52 357 200 634 138 731 C132 738 122 741 108 728 C84 705 69 661 59 631 C31 533 14 445 4 354 C2 329 0 303 -2 278 C-5 252 -6 226 -5 201 C-5 196 -4 193 -1 190 C3 187 10 189 13 193 C15 197 26 218 29 224 C49 263 46 256 66 289 C72 299 81 308 84 309 C91 291 94 273 99 256 C102 248 107 243 113 241 C143 233 169 282 175 293 C175 293 175 300 172 300 L172 300 Z M122 729 C127 732 128 731 132 727 C141 716 165 670 119 544 C81 441 31 354 14 320 C16 334 22 401 23 406 C35 487 67 689 122 729 L122 729 Z " />
<glyph glyph-name="i" unicode="i" horiz-adv-x="115" d="M6 351 C8 351 10 353 10 354 C12 358 16 369 17 371 C17 372 18 373 17 374 C15 376 13 376 10 371 C8 368 5 359 4 354 C4 353 4 352 6 351 L6 351 Z M115 300 C63 261 44 256 37 254 C28 253 20 258 17 267 C12 280 9 297 9 310 C9 312 9 314 5 314 C2 314 1 312 1 310 C0 305 -2 275 7 260 C12 252 19 243 37 246 C65 250 115 290 118 294 C121 298 115 300 115 300 L115 300 Z " />
<glyph glyph-name="j" unicode="j" horiz-adv-x="79" d="M3 356 C6 355 13 370 13 371 C11 374 8 372 6 369 C4 366 -1 358 3 356 L3 356 Z M79 300 L8 223 C9 228 10 292 10 310 C10 311 10 313 9 315 C8 316 7 317 6 317 C4 317 3 316 2 315 C1 313 1 311 1 309 C0 300 -2 291 -2 281 C-5 258 -5 251 -6 240 C-7 236 -9 206 -9 206 C-28 184 -51 155 -70 132 C-93 103 -115 75 -135 44 C-151 19 -166 -8 -175 -37 C-181 -54 -184 -71 -184 -88 C-183 -97 -182 -105 -178 -113 C-172 -125 -163 -131 -149 -132 C-140 -133 -132 -132 -123 -129 C-101 -123 -84 -111 -69 -94 C-52 -74 -41 -50 -32 -26 C-25 -7 -19 13 -15 33 C-10 57 -6 81 -2 105 C0 121 2 138 4 154 C5 170 8 204 8 205 C37 238 81 291 84 294 C88 298 79 300 79 300 L79 300 Z M-13 172 C-19 123 -25 73 -37 25 C-44 -4 -53 -33 -67 -60 C-77 -79 -90 -96 -108 -108 C-118 -116 -129 -122 -142 -124 C-153 -126 -161 -122 -166 -113 C-170 -105 -172 -96 -172 -88 C-173 -71 -170 -54 -164 -38 C-158 -19 -149 -1 -138 17 C-125 40 -110 62 -94 83 C-79 102 -63 121 -48 141 C-41 149 -28 166 -19 176 C-19 176 -16 179 -11 185 C-11 183 -12 175 -13 172 L-13 172 Z " />
<glyph glyph-name="k" unicode="k" horiz-adv-x="265" d="M265 300 C209 229 155 209 124 210 C94 211 74 237 74 237 C83 239 100 245 111 252 C135 265 151 285 157 309 C159 324 145 331 132 330 C106 328 76 281 66 264 C51 240 26 174 18 143 C13 198 16 249 16 300 C24 306 35 316 42 323 C84 365 112 413 135 461 C159 517 176 579 183 633 C186 658 187 684 185 711 C184 726 181 741 176 756 C173 763 169 770 163 776 C148 791 126 787 111 776 C73 745 51 673 40 635 C17 553 7 469 3 384 C2 358 1 331 0 305 C-1 284 -1 264 -1 244 C-2 210 -3 177 0 143 C0 131 2 118 3 106 C3 102 4 96 12 96 C20 96 22 100 22 102 C24 105 24 108 25 111 C31 130 35 150 40 169 C47 190 52 204 61 224 C62 225 64 230 66 234 C66 234 86 204 123 201 C193 194 248 255 269 291 C272 296 265 300 265 300 L265 300 Z M22 455 C30 557 52 677 105 755 C112 766 131 786 145 780 C155 778 161 765 164 757 C169 741 171 725 172 708 C173 657 165 607 152 559 C142 523 129 488 114 454 C90 405 64 358 30 324 C24 318 18 313 16 311 C14 351 19 408 22 455 L22 455 Z M81 262 C87 271 103 295 123 313 C127 316 131 319 134 321 C138 323 140 322 142 318 C143 309 139 301 136 296 C123 276 106 262 86 251 C83 250 74 246 72 246 C73 248 76 255 81 262 L81 262 Z " />
<glyph glyph-name="l" unicode="l" horiz-adv-x="228" d="M228 300 C228 300 186 236 181 226 C169 209 120 123 73 146 C24 175 17 249 13 293 C58 343 99 408 124 469 C141 509 154 554 164 600 C170 628 176 674 172 717 C168 745 159 798 125 794 C30 768 7 530 -1 416 C-1 415 -12 241 33 167 C72 103 125 138 142 155 C162 172 185 209 203 238 C211 250 235 290 235 290 C237 300 228 300 228 300 L228 300 Z M15 466 C20 511 31 716 116 782 C130 793 141 784 145 778 C155 759 159 735 159 715 C162 622 136 536 105 462 C79 404 47 352 11 310 C11 358 11 419 15 466 L15 466 Z " />
<glyph glyph-name="m" unicode="m" horiz-adv-x="282" d="M282 300 C280 296 233 236 210 228 C205 227 202 228 200 232 C198 236 199 244 199 253 C200 276 202 296 202 305 C202 313 193 317 185 312 C168 301 139 266 127 254 C125 252 116 241 113 239 C113 247 117 295 117 302 C117 308 117 314 112 317 C107 320 103 320 97 318 C81 313 38 260 24 245 C21 241 6 227 2 224 C-1 222 -1 222 -2 225 C-4 235 5 277 8 300 C9 303 8 304 5 304 C3 304 1 303 0 300 C-7 280 -16 231 -14 222 C-12 214 -7 213 -2 213 C6 213 11 216 18 222 C43 245 56 264 78 288 C83 293 94 304 99 309 C101 311 103 310 103 307 C103 291 103 281 102 268 C102 262 100 238 102 232 C103 230 105 227 109 227 C118 226 129 241 136 248 C153 268 172 289 182 299 C184 301 187 304 191 306 C188 283 187 267 186 251 C185 241 186 224 201 220 C207 219 210 220 212 221 C247 240 264 267 285 295 C288 299 282 300 282 300 L282 300 Z " />
<glyph glyph-name="n" unicode="n" horiz-adv-x="200" d="M200 300 C200 300 180 270 154 253 C131 238 121 253 118 257 C109 274 106 295 87 303 C77 307 70 303 64 300 C41 287 18 260 4 243 C4 262 11 296 11 305 C11 306 8 308 5 308 C-2 308 -19 229 -7 225 C-4 224 -1 223 4 227 C27 250 56 287 74 296 C79 298 83 297 86 294 C98 282 102 263 109 250 C109 250 115 238 132 238 C166 238 201 287 204 294 C206 298 200 300 200 300 L200 300 Z " />
<glyph glyph-name="o" unicode="o" horiz-adv-x="113" d="M113 300 C113 300 72 285 45 302 C40 305 40 309 39 310 C36 315 31 317 26 314 C24 313 24 312 23 311 C21 308 21 305 24 303 C27 301 37 297 37 294 C38 291 42 287 42 284 C43 268 38 255 29 242 C25 236 19 231 12 228 C10 227 6 229 5 231 C3 237 -11 273 19 309 C13 316 10 312 6 308 C-6 296 -20 266 -11 234 C-8 225 0 220 9 220 C16 220 23 222 29 226 C47 240 59 270 50 291 C74 284 98 287 112 293 C121 296 115 299 113 300 L113 300 Z " />
<glyph glyph-name="p" unicode="p" horiz-adv-x="414" d="M414 300 L295 273 C300 284 311 307 316 324 C328 363 334 418 296 444 C279 455 261 455 242 451 C175 434 119 377 75 331 C53 307 36 284 18 262 C16 260 13 256 11 253 C11 305 10 313 10 322 C10 325 8 327 4 326 C2 326 1 324 1 322 C-2 294 -1 266 -2 238 C-2 236 -3 234 -4 232 C-10 223 -16 215 -21 206 C-77 120 -118 27 -133 -70 C-137 -104 -139 -136 -137 -168 C-136 -188 -129 -231 -105 -233 C-88 -235 -76 -220 -70 -207 C-34 -137 -10 -12 0 75 C4 107 6 139 9 170 C11 199 11 212 11 232 C12 234 12 236 14 238 C19 246 25 254 30 261 C54 289 74 314 96 338 C116 361 141 382 165 400 C192 420 225 442 258 446 C315 450 312 374 303 339 C297 315 286 290 274 268 C229 261 187 251 141 234 C115 224 92 208 73 189 C61 176 48 151 59 134 C63 129 67 126 73 123 C98 112 133 122 155 133 C173 142 190 153 206 166 C227 182 245 200 261 221 C272 234 282 250 291 265 C331 275 377 281 415 296 C419 298 414 300 414 300 L414 300 Z M-21 38 C-35 -43 -50 -119 -79 -194 C-83 -203 -87 -211 -93 -219 C-95 -221 -98 -223 -101 -225 C-104 -227 -106 -227 -108 -224 C-120 -214 -124 -191 -125 -177 C-129 -133 -127 -89 -119 -54 C-102 30 -69 104 -28 174 C-22 184 -17 192 -11 202 C-9 205 -6 210 -4 213 C-6 154 -11 94 -21 38 L-21 38 Z M264 251 C246 223 224 198 198 176 C183 163 167 151 149 142 C142 138 134 134 125 131 C114 127 103 124 91 125 C85 125 79 127 74 130 C65 136 63 145 64 154 C66 165 71 174 77 182 C88 196 102 206 117 215 C167 242 226 253 270 262 C268 258 266 255 264 251 L264 251 Z " />
<glyph glyph-name="q" unicode="q" horiz-adv-x="486" d="M486 300 C486 300 457 233 304 162 C328 232 352 298 369 365 C370 369 365 375 361 376 C356 377 350 377 346 374 C302 343 262 309 216 283 C177 262 136 243 94 238 C69 235 36 238 22 259 C2 287 17 323 35 345 C66 383 118 398 163 392 C199 387 217 376 229 365 C233 361 239 364 238 365 C214 399 158 406 122 403 C42 396 -34 306 12 253 C87 167 279 309 339 353 C340 354 351 361 355 364 C354 361 352 351 351 348 C346 323 295 178 287 158 C287 157 287 156 286 156 C282 154 234 141 218 137 C214 136 210 129 215 125 C230 115 244 104 260 96 C263 94 263 94 262 90 C257 74 251 58 246 41 C219 -38 199 -118 194 -197 C191 -250 194 -314 233 -348 C266 -377 308 -352 332 -328 C381 -279 414 -201 414 -138 C414 -82 401 -34 374 7 C348 46 315 72 282 97 C282 97 284 101 285 104 C286 108 301 149 301 149 C441 207 487 286 491 292 C496 299 486 300 486 300 L486 300 Z M303 65 C325 47 343 28 359 5 C387 -37 399 -91 399 -137 C399 -199 338 -353 265 -353 C244 -353 230 -329 223 -314 C205 -271 209 -219 213 -176 C217 -138 223 -105 231 -73 C245 -17 262 38 279 85 C279 85 301 67 303 65 L303 65 Z M267 104 C256 111 233 125 227 130 C237 132 271 142 282 144 C277 131 272 118 267 104 L267 104 Z " />
<glyph glyph-name="r" unicode="r" horiz-adv-x="175" d="M58 142 C50 131 29 98 24 108 C19 136 42 191 44 235 C45 250 42 264 33 276 C27 284 20 291 13 299 C22 320 43 358 36 389 C32 406 17 413 5 405 C-9 396 -23 374 -28 356 C-36 330 -15 312 0 293 C8 283 17 273 21 260 C35 210 -7 140 7 104 C11 93 27 91 40 99 C55 110 107 192 130 224 C138 235 175 287 179 293 C180 294 182 299 175 300 C175 300 124 233 115 222 C94 193 81 174 58 142 L58 142 Z M3 308 C-1 313 -5 318 -8 322 C-12 327 -14 333 -16 339 C-18 358 -5 393 14 400 C17 401 21 402 23 397 C32 377 22 354 14 333 C11 326 7 318 3 308 L3 308 Z " />
<glyph glyph-name="s" unicode="s" horiz-adv-x="268" d="M268 300 C232 281 198 263 164 244 C110 280 20 262 7 275 C-5 286 43 360 75 355 C96 351 104 328 104 328 C104 328 108 323 113 328 C116 331 106 346 106 346 C65 400 -6 320 -6 277 C-6 269 1 257 53 257 C108 257 138 244 152 237 C112 214 88 201 39 167 C-138 45 -144 -71 -72 -88 C11 -108 131 -6 178 59 C229 130 221 202 175 235 C175 235 275 292 264 285 C281 295 268 300 268 300 L268 300 Z M164 56 C92 -43 -15 -94 -64 -81 C-161 -56 -63 87 56 165 C75 177 103 194 164 229 C181 214 236 155 164 56 L164 56 Z " />
<glyph glyph-name="t" unicode="t" horiz-adv-x="253" d="M55 582 C55 582 44 535 39 512 C35 492 31 471 27 451 C17 402 8 352 0 301 C-7 246 -16 191 -17 130 C-17 85 -13 30 17 -12 C27 -23 39 -28 54 -26 C67 -25 78 -20 87 -12 C96 -4 104 5 111 15 C130 46 149 77 171 119 C203 178 229 230 257 287 C259 292 262 298 253 300 C252 300 207 215 198 198 C171 149 147 99 116 47 C106 31 95 16 82 2 C75 -5 66 -12 56 -16 C48 -20 40 -18 33 -12 C29 -8 26 -4 23 1 C-3 49 -3 110 2 181 C17 313 38 450 70 582 C139 581 176 582 278 583 C280 583 282 584 283 589 C283 593 277 592 272 592 C208 592 143 592 72 591 C77 611 104 724 114 756 C115 759 114 761 112 761 C110 762 108 761 107 759 C104 753 102 747 100 741 C84 692 70 640 58 591 C-56 594 -191 584 -283 591 C-284 592 -285 591 -287 591 C-287 591 -287 590 -287 590 C-284 588 -280 587 -277 585 C-259 579 -241 579 -223 578 L55 582 Z " />
<glyph glyph-name="u" unicode="u" horiz-adv-x="209" d="M209 300 C186 285 164 269 139 257 C136 256 132 255 130 256 C114 267 127 316 130 332 C130 334 129 336 128 338 C125 343 119 343 115 339 C99 316 42 238 18 243 C6 250 7 265 7 276 C7 289 11 299 11 307 C11 310 4 312 2 307 C-3 289 -7 261 3 245 C6 241 9 238 14 237 C25 235 34 238 43 243 C73 263 98 305 115 323 C111 303 106 275 112 261 C118 248 132 244 144 249 C161 256 206 288 212 296 C213 297 212 299 209 300 L209 300 Z " />
<glyph glyph-name="v" unicode="v" horiz-adv-x="244" d="M244 300 C244 300 204 274 171 287 C144 298 130 341 129 345 C128 348 125 352 123 354 C120 358 113 356 111 352 C86 314 53 245 22 224 C18 222 17 222 16 226 C11 255 13 281 13 309 C13 312 12 315 9 315 C5 316 2 314 2 311 C-2 292 -1 258 2 236 C5 219 12 214 19 214 C31 214 46 230 51 237 C78 272 95 306 116 341 C116 341 132 289 170 277 C198 269 241 283 249 294 C251 297 244 300 244 300 L244 300 Z " />
<glyph glyph-name="w" unicode="w" horiz-adv-x="381" d="M96 339 C94 332 91 320 90 315 C86 295 84 278 85 258 C86 245 88 233 95 222 C98 218 107 208 124 208 C134 208 143 211 153 217 C188 240 212 290 225 313 C234 300 238 292 245 285 C281 247 350 276 358 280 C371 285 378 289 385 293 C387 296 386 299 381 300 C381 300 325 273 282 281 C260 286 249 302 238 321 C235 326 232 331 224 330 C222 329 220 329 219 327 C199 293 173 233 128 219 C121 217 116 218 112 223 C97 247 103 282 107 312 C109 326 111 339 113 352 C114 356 113 360 108 362 C102 363 100 364 97 359 C92 352 86 342 80 333 C63 308 46 282 20 263 C13 258 6 259 6 266 C6 280 9 293 14 307 C15 310 15 314 9 315 C7 315 6 314 5 312 C-2 299 -8 270 -2 259 C1 253 6 251 12 251 C38 250 78 312 96 339 L96 339 Z " />
<glyph glyph-name="x" unicode="x" horiz-adv-x="217" d="M217 300 C217 300 196 295 168 285 C135 273 128 267 119 314 C112 349 82 350 65 330 C65 330 48 311 25 283 C13 300 2 313 -1 317 C-11 328 -15 319 -11 314 C-11 314 1 299 18 276 C-6 241 -26 207 -44 169 C-44 169 -38 156 -33 168 C-33 168 -12 214 26 266 C49 235 80 194 106 156 C117 140 131 141 122 153 C119 158 68 227 32 274 C43 288 54 303 67 317 C70 320 101 357 109 307 C116 266 136 263 162 273 C187 283 216 292 216 292 C216 292 225 297 217 300 L217 300 Z " />
<glyph glyph-name="y" unicode="y" horiz-adv-x="290" d="M290 300 L159 193 C160 205 172 297 174 311 C176 321 180 353 178 360 C177 364 175 367 172 368 C167 369 163 368 161 364 C156 357 125 316 111 297 C89 270 50 229 24 237 C8 246 10 289 10 301 C10 306 12 312 11 318 C11 320 3 324 2 313 C0 301 -1 288 0 275 C1 265 4 236 23 230 C37 226 69 230 117 289 C140 318 148 331 167 358 C168 357 163 324 161 314 C159 297 142 181 141 180 C104 149 37 97 -10 57 C-49 23 -82 -9 -108 -47 C-126 -75 -141 -104 -151 -136 C-167 -195 -154 -275 -90 -285 C-20 -299 27 -227 53 -177 C69 -147 81 -116 92 -86 C118 -9 137 62 149 135 C151 147 156 174 157 175 C157 175 157 176 157 176 C204 215 283 281 293 294 C295 297 290 300 290 300 L290 300 Z M106 8 C99 -20 90 -49 80 -77 C67 -113 53 -148 35 -181 C25 -200 13 -219 -1 -236 C-14 -251 -29 -263 -47 -272 C-77 -285 -107 -276 -126 -251 C-137 -238 -142 -223 -144 -206 C-154 -142 -120 -80 -85 -36 C-71 -17 -55 0 -37 17 C-20 33 -2 49 17 64 C55 95 92 122 128 152 C131 154 135 157 137 159 C128 108 118 58 106 8 L106 8 Z " />
<glyph glyph-name="z" unicode="z" horiz-adv-x="190" d="M190 300 C190 300 132 241 102 210 C76 223 48 205 23 197 C36 218 46 241 56 263 C69 289 82 340 56 350 C29 361 2 307 0 301 C-2 294 4 295 5 297 C6 297 36 355 54 344 C72 334 50 284 44 271 C32 244 12 210 8 193 C7 191 8 188 11 187 C15 186 19 187 22 188 C52 196 68 213 95 204 C94 203 40 146 15 117 C0 97 -16 77 -30 56 C-81 -14 -129 -100 -124 -182 C-122 -217 -107 -244 -81 -259 C-71 -264 -60 -267 -48 -268 C-28 -268 -11 -262 5 -252 C66 -211 112 -100 129 -33 C137 -3 142 26 146 56 C150 94 151 131 139 167 C133 182 124 193 113 204 C146 240 188 286 192 291 C198 297 190 300 190 300 L190 300 Z M107 197 C119 182 124 172 127 160 C148 94 120 -4 102 -64 C81 -127 41 -229 -21 -255 C-34 -260 -47 -263 -62 -259 C-96 -248 -110 -214 -112 -184 C-115 -133 -96 -83 -74 -41 C-56 -5 -37 22 -19 50 C21 103 61 153 107 197 L107 197 Z " />
<glyph glyph-name="braceleft" unicode="&#x7b;" horiz-adv-x="196" d="M144 666 C150 672 161 673 165 671 C166 675 157 677 154 677 C150 677 146 675 142 673 C135 668 130 661 127 654 C118 638 113 621 109 603 C101 563 100 523 97 482 C94 444 90 407 66 375 C60 368 54 361 49 354 C43 345 53 341 61 340 C67 339 77 340 82 335 C87 330 84 318 84 312 C83 290 81 268 79 246 C78 223 78 201 80 179 C81 157 86 135 94 115 C101 95 114 80 131 67 C135 64 140 61 145 60 C147 59 156 59 154 63 C153 66 149 62 145 63 C141 65 138 68 134 71 C118 83 108 99 102 118 C89 159 86 205 89 248 C91 270 94 292 94 314 C94 321 95 330 89 336 C83 342 72 342 65 344 C62 344 51 345 54 350 C57 354 60 357 63 361 C70 369 76 377 81 386 C92 404 100 425 103 446 C106 468 106 490 108 513 C109 534 110 557 114 578 C117 599 120 621 129 641 C133 650 137 659 144 666 L144 666 Z " />
<glyph glyph-name="bar" unicode="&#x7c;" horiz-adv-x="141" d="M58 -67 C60 -55 61 -43 62 -32 C64 -8 71 98 73 122 C76 167 81 213 82 258 C84 350 84 442 81 532 C79 572 77 612 75 651 C73 681 71 709 68 737 C68 744 70 756 66 761 C62 754 63 741 63 734 C63 723 64 712 65 701 C67 679 69 657 70 634 C71 591 73 546 74 503 C76 416 75 328 70 240 C66 159 57 -6 50 -87 C53 -88 58 -80 58 -67 L58 -67 Z " />
<glyph glyph-name="braceright" unicode="&#x7d;" horiz-adv-x="167" d="M93 656 C84 669 70 688 53 688 C53 685 59 683 62 682 C69 679 79 667 85 658 C94 643 100 626 103 609 C111 572 110 535 107 499 C105 480 103 461 100 442 C98 427 92 408 97 392 C100 386 105 380 112 376 C116 373 128 368 130 363 C132 359 119 352 117 350 C111 345 110 337 109 330 C104 286 105 240 104 195 C104 155 112 107 86 73 C83 69 79 63 75 63 C73 63 72 65 71 63 C70 61 72 59 74 59 C82 57 90 67 95 74 C107 91 111 112 112 132 C115 177 114 222 115 266 C115 287 114 308 117 328 C119 337 119 345 127 350 C135 356 144 360 133 368 C125 374 115 378 109 385 C103 391 102 399 103 408 C104 428 109 449 112 470 C117 512 121 557 113 599 C109 619 103 638 93 656 L93 656 Z " />
<glyph glyph-name="asciitilde" unicode="&#x7e;" horiz-adv-x="240" d="M98 302 C120 298 137 251 159 252 C170 253 185 273 190 282 C195 291 204 309 199 311 C196 312 189 295 183 287 C178 280 171 270 163 265 C153 260 145 269 139 276 C132 284 126 291 119 299 C105 314 87 317 69 306 C61 301 53 294 47 287 C42 282 27 260 35 256 C44 265 51 275 63 287 C71 295 86 304 98 302 L98 302 Z " />
<glyph glyph-name="cent" unicode="&#xa2;" horiz-adv-x="245" d="M107 36 C107 26 107 12 113 12 C113 21 116 113 116 113 C122 113 130 115 136 117 C147 120 158 128 166 137 C182 154 207 203 212 225 C213 229 208 233 207 228 C204 216 197 202 192 192 C173 159 157 123 116 119 C116 119 116 131 116 136 C119 228 130 321 139 418 C155 412 167 403 176 387 C179 380 185 362 188 365 C189 372 184 385 180 392 C171 405 160 416 140 423 C140 423 145 475 146 487 C146 488 146 499 143 494 C141 490 141 484 140 480 C140 475 132 424 132 424 C92 424 66 376 53 344 C36 304 28 257 31 214 C33 175 49 132 88 117 C93 116 98 114 103 114 C109 113 108 111 108 105 C108 86 107 67 107 36 L107 36 Z M88 389 C100 406 122 419 131 419 C119 328 109 244 108 137 C108 132 108 124 108 119 C108 119 103 119 101 119 C63 124 44 169 41 205 C34 266 49 338 88 389 L88 389 Z " />
<glyph glyph-name="sterling" unicode="&#xa3;" horiz-adv-x="272" d="M34 250 C22 248 3 245 1 242 C-1 239 38 246 43 247 C53 248 72 251 72 251 C72 206 69 149 57 105 C56 102 53 95 53 95 C40 97 24 93 17 81 C10 69 12 46 31 48 C39 50 46 58 51 66 C53 69 60 88 64 86 C85 78 103 67 122 56 C140 46 161 37 181 32 C200 28 226 24 244 34 C249 37 252 40 255 45 C257 47 262 53 261 56 C258 61 255 54 253 52 C251 49 248 46 245 43 C231 31 210 34 193 37 C151 45 118 73 78 88 C76 89 64 93 64 93 C64 93 67 103 68 107 C71 117 73 126 75 136 C79 158 81 180 82 203 C83 214 83 225 83 237 C83 241 83 248 83 252 C83 252 97 254 103 255 C121 257 135 261 156 262 C153 268 145 265 140 265 C122 262 103 260 83 257 C82 297 82 336 85 375 C88 411 95 450 111 483 C118 498 128 513 143 522 C159 532 174 524 184 510 C195 497 200 478 203 461 C205 451 206 442 206 433 C207 428 205 415 212 416 C213 424 214 431 213 438 C212 459 208 481 198 500 C190 516 175 532 156 531 C115 528 97 476 88 444 C75 394 72 341 72 277 C72 272 72 267 72 262 C72 257 72 256 67 255 C56 254 45 252 34 250 L34 250 Z M20 63 C18 88 42 90 51 90 C48 80 44 71 38 62 C33 55 23 48 20 63 L20 63 Z " />
<glyph glyph-name="yen" unicode="&#xa5;" horiz-adv-x="302" d="M119 303 C128 300 144 299 145 299 C142 270 144 255 143 226 C143 222 142 203 142 200 C142 200 135 200 130 200 C115 200 109 200 94 198 C92 198 85 195 91 194 C102 194 113 194 124 195 C128 195 142 195 142 195 C142 195 142 158 142 154 C142 154 128 152 121 150 C117 149 109 149 107 145 C106 144 112 144 112 144 C121 146 132 148 142 150 C143 111 144 74 144 32 C144 28 144 13 150 12 C159 11 155 39 155 44 C155 70 155 152 155 152 C155 152 161 153 163 153 C174 154 179 155 187 156 C194 158 193 161 187 161 C184 161 180 160 173 159 C166 158 162 158 155 157 C155 167 155 196 155 196 C164 196 176 197 184 197 C187 197 199 197 199 200 C199 201 190 201 185 201 C176 201 155 200 155 200 C155 200 156 255 156 261 C156 273 155 298 155 300 C155 300 168 303 174 307 C191 314 207 329 218 345 C224 354 228 363 232 374 C235 382 237 391 241 400 C246 409 248 420 250 430 C253 439 255 449 257 460 C260 471 262 482 264 494 C265 497 270 517 261 514 C261 500 257 485 254 471 C251 456 247 440 242 425 C234 396 224 366 206 343 C189 322 165 303 136 305 C110 307 90 327 78 348 C57 383 55 425 55 464 C55 487 57 509 58 532 C58 534 60 539 58 541 C57 542 56 542 55 541 C54 536 53 531 53 527 C52 516 50 506 49 495 C45 452 43 406 60 365 C67 347 78 330 93 318 C101 311 110 306 119 303 L119 303 Z " />
<glyph glyph-name="quoteleft" unicode="&#x2018;" horiz-adv-x="134" d="M82 664 C81 659 78 645 81 644 C85 643 89 667 90 670 C92 678 96 694 93 695 C88 696 84 672 82 664 L82 664 Z " />
<glyph glyph-name="quoteright" unicode="&#x2019;" horiz-adv-x="128" d="M82 664 C81 659 78 645 81 644 C85 643 89 667 90 670 C92 678 96 694 93 695 C88 696 84 672 82 664 L82 664 Z " />
<glyph glyph-name="quotedblleft" unicode="&#x201c;" horiz-adv-x="145" d="M110 672 L110 672 C108 662 104 645 106 645 C112 644 114 659 116 667 L120 687 C121 691 122 699 120 699 C115 700 112 680 110 672 L110 672 Z M90 675 C84 650 86 649 89 650 C93 651 97 673 98 676 C100 684 105 700 101 701 C95 703 92 683 90 675 L90 675 Z " />
<glyph glyph-name="quotedblright" unicode="&#x201d;" horiz-adv-x="146" d="M110 672 L110 672 C108 662 104 645 106 645 C112 644 114 659 116 667 L120 687 C121 691 122 699 120 699 C115 700 112 680 110 672 L110 672 Z M90 675 C84 650 86 649 89 650 C93 651 97 673 98 676 C100 684 105 700 101 701 C95 703 92 683 90 675 L90 675 Z " />
<glyph glyph-name="Euro" unicode="&#x20ac;" horiz-adv-x="299" d="M46 226 C56 229 66 234 64 233 C64 209 65 186 68 163 C71 141 75 119 82 98 C88 78 96 58 108 42 C132 13 180 -1 212 23 C245 49 251 95 257 134 C258 144 262 156 259 166 C257 171 255 160 255 160 C254 155 253 150 252 145 C248 123 245 101 240 79 C230 45 202 8 162 16 C119 24 102 63 91 101 C79 144 75 188 74 233 C74 238 98 241 103 242 C130 247 157 253 186 258 C190 258 193 256 197 257 C194 263 183 260 178 259 C146 255 114 249 79 241 C75 240 74 240 74 245 C74 248 74 252 74 255 C75 274 78 296 80 315 C81 320 82 320 86 321 C132 329 176 333 222 344 C227 345 220 345 219 345 C211 345 204 344 196 343 C174 339 151 336 128 332 C116 330 105 328 93 326 C91 326 82 323 82 325 C82 325 86 346 87 349 C95 390 103 417 121 456 C129 474 142 492 156 507 C169 521 185 533 204 534 C224 536 242 523 253 508 C266 491 271 471 271 450 C284 450 276 476 274 483 C262 517 229 546 192 538 C153 528 127 487 111 453 C92 414 81 371 73 329 C72 325 71 322 67 321 C52 315 36 313 19 308 C17 307 16 307 18 306 C21 305 23 305 26 306 C40 309 55 313 70 317 C66 293 67 283 65 259 C65 257 64 239 64 239 C60 237 54 234 50 233 C46 232 22 223 23 219 C31 219 39 224 46 226 L46 226 Z " />
<glyph glyph-name="ll" unicode="&#xf6c0;" horiz-adv-x="426" d="M427 300 C427 300 399 251 381 224 C358 190 316 117 264 140 C223 161 214 213 208 252 C220 271 234 292 241 304 C315 425 376 576 373 712 C373 728 364 763 350 778 C343 786 337 790 324 789 C222 762 196 524 188 410 C187 409 181 331 192 255 C137 177 109 143 74 152 C29 172 17 256 14 296 C22 307 29 317 35 324 C55 349 104 417 124 463 C157 540 180 622 173 700 C172 715 166 748 152 762 C144 770 139 775 127 773 C30 748 6 521 -2 412 C-2 411 -13 244 29 174 C66 115 119 138 151 177 C172 202 187 222 195 234 C200 206 209 179 221 160 C262 96 326 126 350 156 C367 177 388 206 403 234 C410 247 434 291 434 291 C437 300 427 300 427 300 L427 300 Z M17 457 C22 503 37 703 124 765 C127 767 132 768 136 766 C146 762 151 750 153 744 C158 729 160 713 160 698 C162 649 153 602 141 556 C132 521 120 487 104 456 C84 417 46 355 11 319 C12 370 13 411 17 457 L17 457 Z M208 456 C213 502 229 716 320 780 C324 783 328 784 333 782 C344 778 348 767 351 758 C357 742 359 726 359 710 C360 658 353 609 339 561 C303 438 260 364 204 273 C196 327 201 396 208 456 L208 456 Z " />
</font>
</svg>
