<?xml version="1.0" encoding="UTF-8"?>
<svg xmlns="http://www.w3.org/2000/svg" xmlns:xlink="http://www.w3.org/1999/xlink" version="1.2" >
<font id="Rossa">
<font-face  font-family="Rossa" units-per-em="1000" ascent="750" descent="-250" font-style="normal" font-weight="400" font-stretch="normal" cap-height="900" x-height="900" underline-position="-75" underline-thickness="50" />
<missing-glyph  horiz-adv-x="150" d="" />
<glyph glyph-name="NULL" d="" />
<glyph glyph-name="nonmarkingreturn" unicode="&#xd;" horiz-adv-x="150" d="" />
<glyph glyph-name="space" unicode="&#x20;" horiz-adv-x="270" d="" />
<glyph glyph-name="dollar" unicode="&#x24;" horiz-adv-x="304" d="M175 392 Q163 354 150 320 Q148 315 150.5 311.5 Q153 308 155 305 Q162 296 169 287 Q176 278 183 269 Q190 259 195 248.5 Q200 238 202 227 Q205 214 204.5 202 Q204 190 202 178 Q184 102 118 60 Q105 53 90 48.5 Q75 44 66 42 Q58 15 50 -14 Q42 -43 34 -71 L31 -83 Q30 -83 30 -82.5 Q30 -82 29 -82 L28 -82 Q21 -83 17 -79 Q13 -75 15 -69 Q17 -58 19.5 -47.5 Q22 -37 25 -26 Q30 -9 34 9.5 Q38 28 43 42 Q41 43 38.5 43 Q36 43 34 44 Q12 47 -3.5 62.5 Q-19 78 -24 101 Q-27 115 -26 133 Q-25 151 -22 165 Q-15 191 -9 204.5 Q-3 218 5 230 Q9 237 17 235 Q19 234 19.5 233 Q20 232 21 231 Q19 231 16 229.5 Q13 228 13 227 Q6 213 2 201 Q-15 157 -7 111 Q-4 85 13 70 Q22 62 34.5 59 Q47 56 47 57 Q53 79 60.5 102.5 Q68 126 74 148 L110 271 Q112 279 114.5 286.5 Q117 294 119 302 Q121 308 117 314 Q106 328 95.5 341.5 Q85 355 75 369 Q63 387 55 407 Q47 427 45 450 Q43 498 67 539 Q91 580 123 610 Q139 625 157.5 638 Q176 651 196 660.5 Q216 670 236.5 674.5 Q257 679 278 677 Q313 674 333 643 Q347 622 351 599 Q355 576 353 552 Q351 517 339.5 485 Q328 453 310 424 Q303 413 296 402.5 Q289 392 279 383 Q270 375 260.5 369 Q251 363 239 361 Q213 357 197.5 368.5 Q182 380 175 392 Z M130 335 Q144 378 159 417.5 Q174 457 188 497 Q193 508 196.5 517.5 Q200 527 206 536 Q209 541 216 539 Q219 539 219 533 Q217 525 215.5 518.5 Q214 512 212 504 Q205 481 198 459.5 Q191 438 183 415 Q181 411 183 408 Q188 392 196 383 Q216 361 241 372 Q261 382 273.5 396 Q286 410 297 426 Q309 446 319 469 Q329 492 335 516 Q341 540 341.5 563.5 Q342 587 336 610 Q330 634 314 651 Q300 665 283 668.5 Q266 672 248 667 Q225 661 205 649.5 Q185 638 166 624 Q142 604 122 581.5 Q102 559 88 531 Q80 517 75.5 502 Q71 487 70 470 Q68 446 75.5 424 Q83 402 95 382 Q105 368 113.5 357 Q122 346 130 335 Z M139 287 Q122 231 105 174 Q88 117 71 61 Q73 62 83.5 67.5 Q94 73 99 77 Q128 101 147 133 Q166 165 170 200 Q172 219 166.5 236 Q161 253 150 270 Q148 274 145 278 Q142 282 139 287 Z " />
<glyph glyph-name="percent" unicode="&#x25;" horiz-adv-x="294" d="M258 551 Q246 548 238 546 Q230 544 222 541.5 Q214 539 204.5 537.5 Q195 536 182 535 Q176 534 169.5 534.5 Q163 535 157 535 Q155 519 147 508 Q138 495 126 489 Q117 484 106 484 Q95 484 87 490 Q70 505 78 528 Q85 547 100 558 Q110 563 112 559 Q106 553 101 546 Q96 539 94 532 Q92 527 91 519 Q90 511 93 504 Q97 497 104 496 Q111 495 118 500 Q126 507 130.5 514 Q135 521 139 531 Q142 540 132 546 Q128 550 125 554 Q120 559 127 561 Q135 563 142 562 Q149 561 153 552 Q155 546 163 546 Q171 546 179 546 Q187 546 195 548 Q211 551 226 555 Q241 559 256 562 Q261 563 266.5 564 Q272 565 277 565 Q285 563 282 555 Q279 547 277 542 Q268 525 256 506 Q244 487 234 472 Q213 438 193.5 408 Q174 378 153 344 Q139 322 126.5 299.5 Q114 277 102 254 Q83 217 64.5 180 Q46 143 26 106 Q23 100 19 92 Q15 84 11 76.5 Q7 69 4 63 Q1 57 1 56 Q24 85 47.5 112 Q71 139 94 168 Q107 184 119.5 199.5 Q132 215 145 232 Q149 237 157 237 Q159 237 161 236.5 Q163 236 165 236 Q170 236 168 229.5 Q166 223 165 221 Q162 213 157 203.5 Q152 194 148.5 184.5 Q145 175 143.5 166 Q142 157 145 150 Q148 143 153 146 Q168 153 181 166 Q194 179 202 194.5 Q210 210 210 226 Q210 241 196 234 Q190 232 188 236 Q184 241 191 243 Q202 245 216 240 Q226 235 226 222 Q226 196 210 174.5 Q194 153 175 139 Q158 128 141 132 Q133 134 126.5 142.5 Q120 151 120 160 Q120 164 120.5 167.5 Q121 171 122 176 Q121 175 117.5 171 Q114 167 110 162 Q106 157 102.5 153 Q99 149 99 148 Q89 135 83.5 128 Q78 121 73.5 115 Q69 109 63.5 102.5 Q58 96 48 83 Q39 72 23.5 53.5 Q8 35 -1 24 Q-7 16 -12.5 9 Q-18 2 -28 2 Q-36 2 -42 8 Q-48 15 -45 23 Q-40 37 -34.5 50.5 Q-29 64 -23 77 Q-6 117 12 154.5 Q30 192 50 228 Q76 276 100.5 316.5 Q125 357 151 396 Q165 417 178.5 437 Q192 457 206 477 Q235 516 258 551 Z " />
<glyph glyph-name="ampersand" unicode="&#x26;" horiz-adv-x="351" d="M119 153 Q103 139 83 133.5 Q63 128 46 143 Q34 156 30.5 171 Q27 186 29.5 201 Q32 216 39 230.5 Q46 245 54 258 Q72 287 96.5 310.5 Q121 334 150 353 Q145 354 141.5 354 Q138 354 134 355 Q119 357 105 359 Q91 361 77 367 Q65 373 56 382 Q47 391 42 404 Q39 414 41 423.5 Q43 433 47 443 Q55 461 67.5 477 Q80 493 94 507 Q131 544 174 567 Q197 579 220 586 Q243 593 269 595 L286 595 Q298 621 310.5 648.5 Q323 676 336 702 Q343 715 349 728 Q355 741 362 753 Q368 763 374 770.5 Q380 778 389 775 Q392 774 392 768.5 Q392 763 389.5 757 Q387 751 384.5 745 Q382 739 381 736 Q362 694 347 658 Q332 622 315 588 Q337 576 345.5 556 Q354 536 352.5 513.5 Q351 491 342 468.5 Q333 446 322 430 Q311 412 295 403 Q278 394 260.5 401.5 Q243 409 238 429 Q234 444 235.5 459.5 Q237 475 242 490.5 Q247 506 253 520.5 Q259 535 264 547 Q268 556 271.5 565 Q275 574 280 583 Q250 581 224.5 569.5 Q199 558 176 543 Q144 520 115.5 492 Q87 464 74 429 Q63 398 93 382 Q104 375 117 372.5 Q130 370 143 368 Q147 368 154.5 368 Q162 368 170 367.5 Q178 367 184 365.5 Q190 364 192 361 Q194 359 192 354.5 Q190 350 188 348 Q164 334 144.5 315.5 Q125 297 108 276 Q99 264 89 248.5 Q79 233 71.5 216 Q64 199 62 182.5 Q60 166 68 153 Q70 151 73.5 150.5 Q77 150 79 152 Q100 163 113 178 Q128 195 143 211.5 Q158 228 172 245 Q183 259 192.5 273.5 Q202 288 212 303 Q219 313 225 323 Q231 333 238 344 Q245 355 262 350 Q268 348 266.5 339 Q265 330 264 327 Q250 282 236 240 Q222 198 208 155 Q188 89 171.5 28.5 Q155 -32 141 -92 Q136 -109 133 -125 Q130 -141 127 -158 Q126 -161 126.5 -164 Q127 -167 127 -169 Q126 -172 123 -173 Q121 -174 120 -174 Q113 -175 108.5 -170.5 Q104 -166 105 -159 Q107 -121 114 -87.5 Q121 -54 127 -21 Q142 50 159.5 118.5 Q177 187 202 253 Q180 227 161 201.5 Q142 176 119 153 Z M309 577 Q301 555 292 534.5 Q283 514 275 492 Q273 486 269 471 Q265 456 264 441.5 Q263 427 267 418 Q271 409 285 415 Q296 420 307 435 Q318 450 325 469 Q332 488 334.5 509 Q337 530 332 548 Q329 557 324 564.5 Q319 572 309 577 Z " />
<glyph glyph-name="quotesingle" unicode="&#x27;" horiz-adv-x="112" d="M80 812 Q80 809 77 805 Q73 796 65.5 784 Q58 772 53 762 Q36 763 36.5 768.5 Q37 774 42 782 Q44 787 46 790 Q48 793 50 796 Q40 801 45 812 Q47 817 51.5 822 Q56 827 67 827 Q82 827 80 812 Z " />
<glyph glyph-name="parenleft" unicode="&#x28;" horiz-adv-x="247" d="M348 802 Q346 797 343 794 Q338 786 332 778 Q326 770 320 762 Q274 699 235.5 641.5 Q197 584 165 525 Q133 466 107.5 402.5 Q82 339 63 264 Q52 217 51 174 Q50 131 52 86 Q57 61 62 37.5 Q67 14 78 -8 Q80 -12 79 -13 Q78 -16 74.5 -17 Q71 -18 67 -16 Q61 -12 60 -8 Q29 59 23 127.5 Q17 196 28.5 263.5 Q40 331 66.5 397 Q93 463 128 524.5 Q163 586 203 642.5 Q243 699 282 748 Q296 765 312.5 780.5 Q329 796 336 801 Q338 802 342 803 Q346 804 348 802 Z " />
<glyph glyph-name="parenright" unicode="&#x29;" horiz-adv-x="217" d="M-36 -6 Q-38 -8 -42.5 -16.5 Q-47 -25 -49 -25 Q-54 -24 -57.5 -24 Q-61 -24 -63 -19 Q-64 -17 -62 -11 Q-57 -1 -50.5 10 Q-44 21 -38 30 Q51 191 110 358.5 Q169 526 174 698 Q174 705 173 716.5 Q172 728 171.5 741 Q171 754 169.5 766 Q168 778 167 786 Q164 799 169.5 804.5 Q175 810 180 797 Q184 789 187.5 775.5 Q191 762 193.5 747 Q196 732 198 717 Q200 702 200 690 Q197 578 181 487.5 Q165 397 135.5 316 Q106 235 63.5 157.5 Q21 80 -36 -6 Z " />
<glyph glyph-name="asterisk" unicode="&#x2a;" horiz-adv-x="232" d="M137 385 Q143 385 160 386.5 Q177 388 194 388 Q211 388 224.5 385 Q238 382 238 374 Q238 369 233 369 Q224 368 223 375 Q200 377 178 376 Q156 375 133 373 Q142 356 151 340.5 Q160 325 169 309 Q172 303 165 303 Q161 303 156 308 Q148 322 139.5 334.5 Q131 347 124 360 Q122 353 119 340 Q116 327 112 313.5 Q108 300 104.5 288 Q101 276 99 270 Q98 263 92 264 Q86 266 86 272 Q92 295 97 319 Q102 343 111 365 Q105 360 96 352 Q87 344 77.5 335.5 Q68 327 60 318.5 Q52 310 48 306 Q45 303 44 306 Q43 309 43 310 Q46 315 53 323.5 Q60 332 68 340.5 Q76 349 84.5 356.5 Q93 364 100 369 Q82 367 67.5 366 Q53 365 33 362 Q30 362 26 363.5 Q22 365 20 369 Q20 372 29.5 374.5 Q39 377 53 378.5 Q67 380 82 381 Q97 382 107 382 Q103 389 97 398 Q91 407 86 415.5 Q81 424 78.5 430.5 Q76 437 79 439 Q83 442 85.5 440 Q88 438 90 435 Q94 431 99 424.5 Q104 418 108.5 411.5 Q113 405 116.5 400 Q120 395 120 395 Q121 397 125 409.5 Q129 422 134 436 Q139 450 143.5 462 Q148 474 148 476 Q150 479 156 479 Q162 479 160 474 Q160 471 157.5 461.5 Q155 452 152 441 Q149 430 146 419 Q143 408 141 401 Q144 404 151 409 Q158 414 165.5 418.5 Q173 423 179 425.5 Q185 428 187 425 Q189 422 183.5 417 Q178 412 170 406.5 Q162 401 152.5 395 Q143 389 137 385 Z " />
<glyph glyph-name="plus" unicode="&#x2b;" horiz-adv-x="271" d="M223 239 Q232 233 227 227.5 Q222 222 221 222 Q221 221 198.5 221 Q176 221 146 221 L137 221 L113 221 Q110 215 110 212 Q105 194 99.5 176 Q94 158 89 139 Q84 122 78.5 105.5 Q73 89 68 72 Q68 70 66 64 Q64 64 62 64.5 Q60 65 58 65 Q46 67 47 77 Q52 98 60.5 124.5 Q69 151 74 172 Q75 177 78.5 190.5 Q82 204 87 222 L14 222 Q7 222 7 225 Q7 228 9 231 Q12 235 17 239 Q19 240 41 240 Q63 240 92 240 Q98 263 103.5 283.5 Q109 304 112 313 Q114 321 116.5 328 Q119 335 124 340 Q128 345 135 343 Q139 341 139 338 Q140 327 137 313.5 Q134 300 131 287 Q128 276 124.5 264 Q121 252 118 240 Q138 240 156.5 239.5 Q175 239 190 239 L223 239 L223 239 Z " />
<glyph glyph-name="comma" unicode="&#x2c;" horiz-adv-x="114" d="M41 84 Q41 80 38 77 Q34 67 26.5 55 Q19 43 13 34 Q-4 34 -3 39.5 Q-2 45 3 53 Q5 58 7 61.5 Q9 65 11 68 Q1 73 6 84 Q8 89 13 93.5 Q18 98 28 98 Q44 98 41 84 Z " />
<glyph glyph-name="hyphen" unicode="&#x2d;" horiz-adv-x="193" d="M147 228 Q153 227 153.5 224 Q154 221 152.5 218 Q151 215 148.5 212.5 Q146 210 146 210 L66 210 L7 210 Q2 210 1.5 213 Q1 216 3 219 Q5 223 8 228 Q10 229 31.5 229 Q53 229 79 229 Q109 229 147 228 Z " />
<glyph glyph-name="period" unicode="&#x2e;" horiz-adv-x="93" d="M21 98 Q36 98 36 84 Q36 77 31.5 71 Q27 65 17 65 Q9 65 5 70 Q1 75 2 83 Q4 89 7.5 93.5 Q11 98 21 98 Z " />
<glyph glyph-name="slash" unicode="&#x2f;" horiz-adv-x="289" d="M396 816 Q399 815 399 810.5 Q399 806 397 804 L379 774 Q376 769 358.5 739 Q341 709 314.5 663 Q288 617 254.5 559.5 Q221 502 186.5 440.5 Q152 379 117.5 319.5 Q83 260 54.5 209.5 Q26 159 6 123 Q-14 87 -21 74 Q-26 66 -28.5 60 Q-31 54 -36 46 Q-42 35 -49 38 Q-52 39 -53.5 42 Q-55 45 -55 48 Q-55 53 -50.5 61.5 Q-46 70 -43 76 Q-35 92 -26.5 106.5 Q-18 121 -11 134 Q-8 139 7.5 167 Q23 195 47.5 238.5 Q72 282 103 336.5 Q134 391 167 449 Q200 507 233 563.5 Q266 620 294 668 Q322 716 343 750.5 Q364 785 373 798 Q376 803 379.5 807.5 Q383 812 387 816 Q389 818 396 816 Z " />
<glyph glyph-name="zero" unicode="0" horiz-adv-x="323" d="M55 177 Q59 165 64.5 153.5 Q70 142 78 131 Q83 126 88.5 121.5 Q94 117 102 114 Q107 113 110.5 114 Q114 115 118 117 Q144 127 165 150 Q174 160 182.5 170 Q191 180 199 191 Q210 207 220 222.5 Q230 238 239 254 Q250 274 259 294.5 Q268 315 276 337 Q284 358 287.5 379.5 Q291 401 293 424 Q293 437 291.5 449.5 Q290 462 285 473 Q282 479 279.5 480 Q277 481 270 478 Q259 473 251.5 465.5 Q244 458 237 449 Q218 425 204 398.5 Q190 372 179 343 Q178 341 177 338 Q176 335 179 331 Q179 329 178 328 Q176 326 175 326 Q167 324 163 329 Q159 334 161 340 Q162 345 163 350 Q164 355 166 360 Q170 372 174 384.5 Q178 397 183 410 Q193 430 206.5 448 Q220 466 238 480 Q254 493 277 493 Q291 493 297 486 Q303 479 308 468 Q317 441 315 409.5 Q313 378 304 347 Q295 316 282.5 286.5 Q270 257 258 235 Q247 217 234 195 Q221 173 205.5 153.5 Q190 134 172 119 Q154 104 134 98 Q112 91 88.5 96.5 Q65 102 48 122 Q34 139 26 157.5 Q18 176 13 196 Q5 231 7 266.5 Q9 302 19 337 Q30 379 54 415 Q64 429 75.5 442 Q87 455 103 464 Q134 483 167 476 Q180 473 188 460.5 Q196 448 189 432 Q187 428 183 422 Q180 419 177 420 Q175 420 175 425 Q176 436 171 453 Q166 468 150 465 Q139 463 130 457.5 Q121 452 113 445 Q98 431 87 415 Q76 399 68 380 Q47 329 42.5 277 Q38 225 55 177 Z " />
<glyph glyph-name="two" unicode="2" horiz-adv-x="308" d="M156 144 Q190 133 223.5 130.5 Q257 128 289 126 Q293 126 296 126.5 Q299 127 302 127 Q304 127 306 126.5 Q308 126 308 124 Q308 118 303 117 Q300 116 294 116 Q249 115 208 120 Q167 125 125 140 Q117 142 110.5 141.5 Q104 141 97 135 Q77 118 52 112 Q37 108 23 111 Q9 114 1 128 Q-5 140 9 150 Q17 155 25.5 157.5 Q34 160 44 162 Q55 164 65 163.5 Q75 163 86 161 Q90 161 95 164 Q108 178 119.5 192.5 Q131 207 142 223 Q159 247 173 272.5 Q187 298 200 324 Q212 351 222.5 378 Q233 405 238 434 Q240 443 240 452.5 Q240 462 238 471 Q236 475 233.5 480.5 Q231 486 220 482 Q207 478 197 471 Q187 464 178 455 Q151 427 135 393 Q133 388 131.5 384.5 Q130 381 128 373 Q127 371 126.5 366.5 Q126 362 125 360 Q125 355 123 355 Q121 355 119 357 Q117 361 115.5 364.5 Q114 368 113 373 Q111 380 112.5 387 Q114 394 116 400 Q126 425 141 446 Q156 467 178 483 Q192 494 211.5 498 Q231 502 247 495 Q265 488 268 465 Q271 448 268.5 432.5 Q266 417 262 401 Q251 363 235 328 Q219 293 199 259 Q185 235 169.5 211.5 Q154 188 134 168 Q131 164 127 161 Q123 158 119 155 Q128 152 137.5 149.5 Q147 147 156 144 Z M80 150 Q78 151 77 151 Q59 154 43 150 Q33 148 25 145 Q17 142 17 134 Q17 129 22.5 124.5 Q28 120 33 122 Q58 128 80 150 Z " />
<glyph glyph-name="one" unicode="1" horiz-adv-x="151" d="M120 488 Q109 485 101.5 479.5 Q94 474 86 467 Q78 460 72 453 Q66 446 59 438 Q53 432 53 440 Q54 446 55.5 451.5 Q57 457 61 462 Q69 472 78 479.5 Q87 487 98 494 Q115 503 131 499 Q140 497 143.5 490.5 Q147 484 147.5 475 Q148 466 146.5 457.5 Q145 449 144 443 Q136 403 126 366.5 Q116 330 104.5 293.5 Q93 257 80.5 220.5 Q68 184 55 144 Q50 126 44 110 Q38 94 33 76 Q32 74 29.5 71 Q27 68 22 68 Q15 68 10 72.5 Q5 77 7 84 Q12 101 16 116 Q20 131 25 148 Q36 188 47.5 225 Q59 262 70 299 Q78 322 84.5 345.5 Q91 369 99 392 Q103 406 107 420.5 Q111 435 115 449 Q120 467 120 478 L120 488 Z " />
<glyph glyph-name="three" unicode="3" horiz-adv-x="274" d="M90 348 Q86 346 85 348 Q84 350 82 352 Q75 368 83 382 Q97 408 124 433 Q158 466 199 486 Q214 494 229 496.5 Q244 499 259 498 Q267 497 272.5 492 Q278 487 277 479 Q275 467 269 456.5 Q263 446 255 435 Q236 409 213 387 Q190 365 166 343 Q159 336 152 330 Q145 324 138 318 L134 314 Q139 313 144 312 Q149 311 154 310 Q168 307 179.5 302.5 Q191 298 201 290 Q209 282 214 272.5 Q219 263 220 251 Q221 211 193 167 Q169 131 133 106 Q120 97 105 90 Q90 83 74 80 Q58 77 43.5 79.5 Q29 82 18 91 Q1 104 6.5 125 Q12 146 33 160 Q69 182 99 188 Q104 189 109.5 188.5 Q115 188 117 186 Q118 185 115 182 Q113 182 109 182 Q105 182 103 181 Q88 176 73.5 169 Q59 162 46 152 Q32 142 26 128 Q20 114 31 101 Q42 92 54.5 92 Q67 92 79.5 98 Q92 104 103 112.5 Q114 121 122 128 Q134 140 147 155.5 Q160 171 170 188 Q180 205 184.5 223 Q189 241 184 259 Q182 274 171.5 282.5 Q161 291 145 295 Q139 297 132.5 298 Q126 299 119 300 Q114 302 106 307 Q98 312 104 318 Q109 324 115 329.5 Q121 335 127 340 Q144 356 160.5 371.5 Q177 387 194 403 Q211 420 228 439 Q245 458 248 480 Q248 487 241 486 Q232 485 224 482 Q216 479 208 475 Q186 464 167.5 449.5 Q149 435 132 418 Q124 411 118 404 Q112 397 106 389 Q98 379 93.5 369 Q89 359 90 348 Z " />
<glyph glyph-name="four" unicode="4" horiz-adv-x="262" d="M251 498 Q256 496 255 493 Q245 461 233.5 430.5 Q222 400 211 367 Q208 359 200.5 337.5 Q193 316 183 288 Q173 260 162.5 229 Q152 198 143 170 Q134 142 126.5 121 Q119 100 117 92 Q113 79 110 70.5 Q107 62 103 63 Q94 63 91.5 66.5 Q89 70 90 77 Q91 84 92 91 Q93 98 95 105 Q109 157 126.5 221 Q144 285 164 342 Q160 337 156.5 332.5 Q153 328 149 323 Q143 315 136 308.5 Q129 302 121 296 Q114 291 105 289.5 Q96 288 87 289.5 Q78 291 70.5 295.5 Q63 300 58 306 Q46 322 43 339.5 Q40 357 43 376 Q48 408 64.5 438 Q81 468 101 492 Q109 504 121 500 Q126 500 124 495 Q115 474 103.5 453 Q92 432 82 406 Q74 386 70.5 360.5 Q67 335 80 314 Q86 308 89 306 Q92 304 95 307 Q104 311 111.5 317 Q119 323 126 330 Q140 345 152.5 361.5 Q165 378 176 395 Q192 418 205 443 Q218 468 232 494 Q236 500 243 499 Q245 499 247 498.5 Q249 498 251 498 Z " />
<glyph glyph-name="five" unicode="5" horiz-adv-x="238" d="M33 273 Q25 281 29 294 Q37 317 44.5 340 Q52 363 60 386 Q66 405 73 422.5 Q80 440 86 458 Q89 465 92.5 471.5 Q96 478 104 479 Q117 480 136.5 482.5 Q156 485 176.5 486.5 Q197 488 216.5 488.5 Q236 489 249 488 Q253 488 252 483.5 Q251 479 248 479 Q241 478 221 476 Q201 474 179.5 472 Q158 470 140.5 467.5 Q123 465 121 463 Q119 461 117.5 455.5 Q116 450 115 447 Q110 428 105.5 413.5 Q101 399 95 380 Q90 363 84.5 345.5 Q79 328 73 311 Q75 312 81 315.5 Q87 319 88 320 Q111 334 130 337.5 Q149 341 171 334 Q186 330 196 315 Q204 303 207 289 Q210 275 209 261 Q207 210 185.5 163.5 Q164 117 126 90 Q115 82 102.5 76.5 Q90 71 76.5 68.5 Q63 66 49.5 67 Q36 68 24 75 Q9 84 3.5 100.5 Q-2 117 6 134 Q11 149 25.5 161.5 Q40 174 51 183 Q56 187 60.5 189 Q65 191 69 187 Q73 185 70 182 Q67 179 65 177 Q34 152 27.5 136 Q21 120 22 109 Q24 94 35.5 85 Q47 76 61 81 Q81 88 96.5 101 Q112 114 124 129.5 Q136 145 145 163 Q154 181 160 199 Q167 218 171 236.5 Q175 255 174 275 Q174 294 169 305 Q161 323 143 320 Q131 318 121 313 Q111 308 101 301 Q96 298 89 292.5 Q82 287 75.5 282 Q69 277 64.5 273 Q60 269 59 269 Q55 265 46.5 266.5 Q38 268 33 273 Z " />
<glyph glyph-name="six" unicode="6" horiz-adv-x="211" d="M173 478 Q162 458 135 412.5 Q108 367 76 289 Q66 267 60 244.5 Q54 222 49 199 Q46 185 45.5 164 Q45 143 48 134 Q50 140 53 146 Q56 152 58 157 Q67 176 75 195 Q83 214 94 231 Q101 242 109.5 254 Q118 266 128 276 Q138 286 149 292.5 Q160 299 171 298 Q179 298 183 291.5 Q187 285 188.5 277 Q190 269 189.5 260 Q189 251 188 245 Q176 190 146 138 Q131 112 109 94 Q91 83 76 82.5 Q61 82 45 92 Q44 88 43 83.5 Q42 79 45 75 Q47 73 45.5 72 Q44 71 42 71 Q35 71 32 76.5 Q29 82 32 90 Q35 99 30 105 Q22 114 18.5 125.5 Q15 137 13 149 Q10 194 23.5 236 Q37 278 53 316 Q58 328 68 348 Q78 368 90 389.5 Q102 411 115 432 Q128 453 139 467 Q150 479 156.5 485.5 Q163 492 171 495 Q180 498 177.5 490 Q175 482 173 478 Z M172 262 Q172 263 172 268 Q172 273 172 277.5 Q172 282 170.5 285 Q169 288 166 287 Q149 275 137 260 Q125 245 114 227 Q97 201 84 174.5 Q71 148 59 121 Q55 114 57.5 110.5 Q60 107 64 104 Q69 100 72 99.5 Q75 99 81 103 Q92 108 100 116 Q108 124 116 133 Q139 161 154 195 Q169 229 172 262 Z " />
<glyph glyph-name="seven" unicode="7" horiz-adv-x="181" d="M128 318 Q139 318 152 319 Q165 320 173 320 Q175 320 175 316.5 Q175 313 172 312 Q161 311 148 310 Q135 309 124 308 L121 302 Q108 276 97 252 Q86 228 75 201 Q68 184 59.5 163 Q51 142 43 123 Q35 104 29.5 90.5 Q24 77 24 75 Q24 73 23.5 71.5 Q23 70 18 70 Q10 71 5 76 Q0 81 2 89 Q5 96 9 107 Q13 118 17 129 Q21 140 25 150 Q29 160 31 166 Q36 180 45 203 Q54 226 62.5 248.5 Q71 271 78 287.5 Q85 304 85 305 Q68 303 53 301.5 Q38 300 21 299 Q16 299 14 301 Q12 303 14 305 Q30 307 50.5 310 Q71 313 87 315 Q90 315 92 319 Q100 336 109 352.5 Q118 369 126 386 Q132 398 138.5 409.5 Q145 421 150 434 Q153 440 156.5 448.5 Q160 457 160 464 Q159 474 156 476 Q153 478 143 477 Q117 474 95 469.5 Q73 465 52 459 Q40 456 31.5 453.5 Q23 451 15 451 Q12 450 10 452 Q8 454 10 459 Q13 464 28 468.5 Q43 473 56 477 Q92 487 133 493 Q147 494 155.5 494.5 Q164 495 174 493 Q185 491 189 484 Q193 477 193 467 Q194 457 189.5 444 Q185 431 180 419 Q172 402 164.5 387.5 Q157 373 148 356 Q144 348 138.5 337 Q133 326 128 318 Z " />
<glyph glyph-name="eight" unicode="8" horiz-adv-x="278" d="M3 155 Q5 177 12.5 197 Q20 217 32 235 Q43 251 55 264 Q67 277 81 291 Q94 304 110.5 319.5 Q127 335 135 343 Q129 353 124 363 Q119 371 115.5 378.5 Q112 386 110 390 Q99 419 114 448 Q134 484 170 504 Q199 519 227 513 Q238 511 245 502.5 Q252 494 251 483 Q251 470 247 458.5 Q243 447 238 436 Q221 401 193 373 Q182 362 176.5 357.5 Q171 353 166 348 Q185 319 199.5 288.5 Q214 258 219 227 Q223 209 220.5 190.5 Q218 172 213 154 Q200 117 172 93 Q158 81 140.5 74.5 Q123 68 104.5 67 Q86 66 68.5 70 Q51 74 37 82 Q17 97 10 115.5 Q3 134 3 155 Z M142 332 Q140 329 138 327.5 Q136 326 134 324 Q124 314 114 304 Q104 294 95 283 Q80 266 66 249.5 Q52 233 41 214 Q29 193 24.5 170.5 Q20 148 26 125 Q31 106 46 95 Q61 84 81 82 Q98 81 111.5 87.5 Q125 94 136 105 Q162 129 174 163 Q186 197 180 229 Q175 258 165 283.5 Q155 309 142 332 Z M157 361 L171 375 Q191 397 207 419.5 Q223 442 230 471 Q233 484 229 495 Q225 506 216 503 Q204 501 195 496 Q175 485 158.5 467 Q142 449 137 429 Q134 417 136.5 406 Q139 395 144 384 Q147 379 150 373 Q153 367 157 361 Z " />
<glyph glyph-name="colon" unicode="&#x3a;" horiz-adv-x="121" d="M81 351 Q96 351 96 337 Q96 330 91.5 324 Q87 318 77 318 Q69 318 65 323 Q61 328 62 336 Q64 342 67.5 346.5 Q71 351 81 351 Z M51 253 Q66 253 66 239 Q66 232 61.5 226 Q57 220 47 220 Q39 220 35 225 Q31 230 32 238 Q34 244 38 248.5 Q42 253 51 253 Z " />
<glyph glyph-name="nine" unicode="9" horiz-adv-x="203" d="M139 380 Q128 365 117 350.5 Q106 336 93 324 Q87 318 81.5 313.5 Q76 309 68 307 Q42 301 26 317 Q14 330 10.5 344.5 Q7 359 9 376 Q13 404 30.5 430 Q48 456 70 471 Q83 479 96.5 483 Q110 487 125 482 Q133 479 137 472 Q141 465 142 457 Q142 453 142 449 Q142 445 140 440 Q139 437 136.5 437.5 Q134 438 133 441 Q132 446 131.5 449.5 Q131 453 130 458 Q123 480 102 470 Q87 462 74 447 Q55 423 42 393 Q29 363 41 334 Q45 328 48 323.5 Q51 319 59 323 Q76 334 93 352 Q113 373 130 396.5 Q147 420 162 444 Q178 469 190 491 Q194 497 204 499 Q215 500 217 496.5 Q219 493 219 491 Q214 465 207.5 440 Q201 415 196 390 Q182 334 170.5 279.5 Q159 225 139 174 Q133 159 125 144.5 Q117 130 104 119 Q88 105 70 101 Q52 97 33 105 Q20 111 13.5 125.5 Q7 140 7 146 Q5 157 7 165 Q9 173 12 181 Q15 189 22.5 191 Q30 193 30 188 Q24 179 22 167 Q20 155 22 144 Q24 133 31.5 125 Q39 117 52 116 Q55 115 60 116 Q65 117 69 119 Q84 129 92.5 141 Q101 153 106 165.5 Q111 178 114 191 Q117 204 120 216 Q128 246 135.5 276 Q143 306 151 336 Q156 359 162.5 383 Q169 407 175 432 Q167 419 158 406 Q149 393 139 380 Z " />
<glyph glyph-name="semicolon" unicode="&#x3b;" horiz-adv-x="143" d="M96 351 Q112 349 110 334 Q109 328 103.5 322 Q98 316 89 318 Q81 319 77.5 324 Q74 329 76 337 Q78 342 82.5 347 Q87 352 96 351 Z M61 256 Q67 255 71 251 Q75 247 74 240 Q74 238 72 232 Q68 223 61.5 211 Q55 199 50 189 Q34 191 35 197 Q36 203 39 211 L46 225 Q37 232 41 243 Q43 248 47 252.5 Q51 257 61 256 Z " />
<glyph glyph-name="less" unicode="&#x3c;" horiz-adv-x="249" d="M238 366 Q239 365 238.5 361 Q238 357 221 354 Q190 343 159.5 331.5 Q129 320 100 305 Q95 303 88 299.5 Q81 296 74.5 293 Q68 290 63 287.5 Q58 285 58 285 Q60 284 70.5 279 Q81 274 94.5 267.5 Q108 261 121.5 254.5 Q135 248 143 244 Q150 241 156.5 237.5 Q163 234 169 231 Q174 229 171 226 Q168 223 166 223 Q157 222 148.5 224 Q140 226 132 229 Q122 233 108 239.5 Q94 246 80.5 252.5 Q67 259 55.5 264 Q44 269 40 271 Q29 277 28 282.5 Q27 288 30 292.5 Q33 297 38.5 300.5 Q44 304 46 305 Q95 327 143 345 Q191 363 223 368 Q231 370 238 366 Z " />
<glyph glyph-name="equal" unicode="&#x3d;" horiz-adv-x="203" d="M158 253 Q164 247 161 241.5 Q158 236 157 236 L110 236 Q103 236 96.5 235.5 Q90 235 83 236 L28 236 Q20 236 24 244 Q26 248 29 253 Q31 254 51 254 Q71 254 95 254 Q123 254 158 253 Z M139 212 Q144 206 141.5 200.5 Q139 195 138 195 Q137 194 123.5 194 Q110 194 91 194 L85 194 L64 194 Q53 194 43.5 194.5 Q34 195 26 195 L9 195 Q1 195 5 203 Q7 207 10 212 Q12 213 32 213 Q52 213 76 213 Q104 213 139 212 Z " />
<glyph glyph-name="greater" unicode="&#x3e;" horiz-adv-x="215" d="M196 313 Q207 307 208 301 Q209 295 206 290.5 Q203 286 197.5 282.5 Q192 279 190 278 Q140 257 92 240.5 Q44 224 12 219 Q8 219 4 219.5 Q0 220 -3 222 Q-4 223 -3.5 227 Q-3 231 14 234 Q45 244 76 255 Q107 266 136 280 Q146 285 162 291.5 Q178 298 179 299 Q177 300 166.5 305.5 Q156 311 142.5 317.5 Q129 324 115.5 330.5 Q102 337 94 341 Q87 344 81 347.5 Q75 351 68 355 Q63 358 66 361 Q67 363 68.5 363 Q70 363 72 364 Q89 364 105 356 Q115 351 129 344.5 Q143 338 156.5 331.5 Q170 325 181 320 Q192 315 196 313 Z " />
<glyph glyph-name="question" unicode="&#x3f;" horiz-adv-x="279" d="M264 798 Q243 797 224 791.5 Q205 786 188 777 Q170 767 151.5 754.5 Q133 742 117.5 726.5 Q102 711 90.5 693 Q79 675 73 656 Q71 648 70 641 Q69 634 74 626 Q74 621 69 624 Q64 627 62 629 Q52 642 53 657.5 Q54 673 60.5 688.5 Q67 704 77.5 717.5 Q88 731 97 740 Q148 794 216 810 Q237 815 258 815 Q279 815 300 810 Q317 805 327 795 Q337 785 341.5 772 Q346 759 346.5 744.5 Q347 730 345 716 Q338 676 319 637 Q293 580 265 528.5 Q237 477 208 426 Q170 355 133.5 286.5 Q97 218 68 146 Q66 138 64 131.5 Q62 125 63 117 Q65 108 53 112 Q47 114 44.5 120.5 Q42 127 43 132 Q54 174 76 226 Q98 278 122.5 330.5 Q147 383 171 430 Q195 477 211 507 Q227 536 242.5 566 Q258 596 273 626 Q294 667 306 711 Q309 726 310 741 Q311 756 306.5 769 Q302 782 292 790 Q282 798 264 798 Z M5 0 Q7 7 12 21 Q17 35 18 37 Q20 40 26.5 38 Q33 36 32 31 Q30 23 29 17.5 Q28 12 24 4 Q18 -10 16.5 -16.5 Q15 -23 2 -20 Q-1 -18 1 -12 Q3 -6 5 0 Z " />
<glyph glyph-name="at" unicode="&#x40;" horiz-adv-x="459" d="M229 259 Q227 254 224 249 Q221 244 218 239 Q205 218 188 201 Q172 185 148.5 187.5 Q125 190 111 209 Q94 233 96 264 Q97 284 101.5 303 Q106 322 114 341 Q122 361 133.5 379.5 Q145 398 160 413 Q178 433 203.5 444 Q229 455 253 453.5 Q277 452 294.5 436 Q312 420 314 387 Q314 345 289 308 Q278 291 265 281 Q264 280 262 277 Q257 257 254 237 Q251 217 251 197 Q252 188 254 180 Q256 172 261 167 Q267 161 274 164 Q285 169 294 175 Q303 181 311 189 Q327 206 340 223.5 Q353 241 364 261 Q388 303 406 348 Q414 368 419.5 389 Q425 410 428 431 Q432 470 423 506 Q414 542 382 562 Q357 579 330.5 582.5 Q304 586 276 581 Q247 575 222.5 562.5 Q198 550 175 533 Q122 492 89 437 Q71 407 55.5 371 Q40 335 30 296.5 Q20 258 16.5 218.5 Q13 179 19.5 142.5 Q26 106 43 73.5 Q60 41 91 16 Q114 -1 137 -6 Q158 -10 180.5 0.5 Q203 11 223 28 Q243 45 260 65 Q277 85 288 100 Q293 108 297 115 Q301 122 306 129 Q312 136 320 135 Q326 135 324 131 Q311 97 285 65.5 Q259 34 233 12 Q221 2 208 -5.5 Q195 -13 180 -17 Q139 -27 100 -11 Q72 0 52 19 Q32 38 16 63 Q-10 111 -13.5 163 Q-17 215 -9 265 Q0 319 21 368 Q35 403 54 435 Q73 467 99 496 Q125 525 155.5 547 Q186 569 223 582 Q270 599 317 595 Q347 593 371 582 Q408 565 425 537 Q442 509 445 475 Q448 441 439.5 403.5 Q431 366 416.5 330 Q402 294 384.5 262 Q367 230 352 207 Q342 194 331.5 182.5 Q321 171 308 161 Q296 152 282.5 148.5 Q269 145 255 150 Q245 152 236.5 162 Q228 172 225 188 Q222 210 225 235 Q226 240 226.5 246.5 Q227 253 229 259 Z M213 270 Q190 278 177.5 299 Q165 320 174 346 Q178 348 178.5 344.5 Q179 341 179 338 Q179 318 186.5 303 Q194 288 210 280 Q215 277 216.5 277.5 Q218 278 221 283 Q233 306 243.5 328.5 Q254 351 264 374 Q265 375 267 378.5 Q269 382 272 383 Q278 385 283 383 Q288 381 286 371 Q283 357 279 342 Q275 327 271 315 Q270 311 269 307 Q268 303 267 299 Q274 306 279 314 Q302 351 302 391 Q301 417 282.5 432 Q264 447 238 442 Q215 437 198 423.5 Q181 410 167 393 Q155 376 143.5 351.5 Q132 327 125 301 Q118 275 119.5 251 Q121 227 136 211 Q144 203 149 202 Q154 201 162 207 Q178 220 191 236.5 Q204 253 213 270 Z " />
<glyph glyph-name="A" unicode="A" horiz-adv-x="431" d="M181 -153 Q171 -156 165.5 -149.5 Q160 -143 162 -135 Q165 -121 167 -106 Q169 -91 173 -77 Q181 -46 189.5 -16 Q198 14 206 45 Q207 48 209 54 Q174 56 141.5 63 Q109 70 79 88 L73 76 Q59 51 45.5 26 Q32 1 15 -22 Q10 -30 4.5 -36.5 Q-1 -43 -7 -51 Q-10 -54 -13 -56.5 Q-16 -59 -19 -61 Q-30 -69 -44.5 -66 Q-59 -63 -64 -45 Q-67 -35 -67 -24 Q-68 -4 -64.5 16 Q-61 36 -56 56 Q-47 93 -34 127.5 Q-21 162 -7 197 Q-5 205 -3.5 211.5 Q-2 218 -3 226 Q-8 268 -2 307.5 Q4 347 20 386 Q27 403 35.5 419.5 Q44 436 55 451 Q66 465 76.5 470 Q87 475 98 473 Q104 472 107 467.5 Q110 463 111 457 Q112 451 111.5 445 Q111 439 110 436 Q107 417 101 399 Q95 381 88 363 Q72 325 56.5 287.5 Q41 250 25 212 Q20 199 24 189 Q30 170 38.5 152.5 Q47 135 58 124 Q60 123 63 120 Q66 117 69 114 Q71 116 72.5 119.5 Q74 123 76 125 Q102 170 125.5 214 Q149 258 175 303 Q212 368 248.5 431 Q285 494 324 557 Q348 594 372 630 Q396 666 424 701 Q431 711 439 719 Q446 727 454 729 Q462 731 469 729 Q477 726 476 716 Q475 706 473 701 Q468 683 462.5 665 Q457 647 450 630 Q430 579 411 529 Q392 479 372 428 Q338 340 306 253.5 Q274 167 245 79 Q244 77 243.5 74 Q243 71 241 68 Q246 68 248.5 68.5 Q251 69 254 70 Q276 75 297 82.5 Q318 90 338 100 Q340 101 343 102.5 Q346 104 347 103 Q348 101 344 97 Q333 86 319.5 79 Q306 72 291 67 Q280 64 268 61.5 Q256 59 243 57 Q241 56 238 56 Q237 56 237 55 Q223 13 210 -30.5 Q197 -74 186 -116 Q184 -124 182 -132 Q180 -140 182 -149 Q182 -151 181 -153 Z M442 695 Q440 693 436 688 Q432 683 431 681 Q423 672 418 665.5 Q413 659 406 648 Q380 612 356.5 575.5 Q333 539 310 501 Q251 404 196.5 306 Q142 208 90 108 Q88 106 86 100 Q115 80 146.5 72.5 Q178 65 212 65 Q213 68 214 71 Q215 74 216 76 Q230 118 242.5 160.5 Q255 203 269 245 Q292 317 319.5 387 Q347 457 376 528 Q392 567 404.5 598 Q417 629 432 668 Q433 670 435.5 677 Q438 684 442 695 Z M-40 -51 Q-32 -47 -18 -29.5 Q-4 -12 10.5 11.5 Q25 35 39 59 Q53 83 61 99 Q53 107 45.5 115.5 Q38 124 32 133 Q25 141 20 150.5 Q15 160 9 170 L6 164 Q2 153 -2 142.5 Q-6 132 -10 121 Q-20 95 -28.5 68.5 Q-37 42 -42 14 Q-44 1 -45.5 -12 Q-47 -25 -44 -38 Q-44 -46 -40 -51 Z M91 461 Q83 457 74.5 446 Q66 435 61 427 Q17 352 14 261 Q14 256 15 251 Q18 257 18 259 Q32 291 46 323.5 Q60 356 74 388 Q79 399 81 406 Q83 413 87 425 Q89 430 90 440.5 Q91 451 91 461 Z " />
<glyph glyph-name="B" unicode="B" horiz-adv-x="632" d="M75 103 Q78 101 80.5 99.5 Q83 98 86 97 Q127 77 169 89 Q210 101 245 123 Q250 127 255 130 Q260 133 266 136 Q268 137 271 138 Q274 139 278 137 Q280 134 273.5 128.5 Q267 123 262 119 Q236 99 208 87 Q180 75 147 74 Q108 71 72 89 Q72 89 68 91 L62 82 Q51 65 44 54.5 Q37 44 29 32 Q24 26 15 15.5 Q6 5 1 0 Q-13 -12 -29 -5 Q-36 -1 -38.5 8 Q-41 17 -41 27.5 Q-41 38 -40 48 Q-39 58 -38 63 Q-33 89 -25 113.5 Q-17 138 -8 162 Q-4 173 -3 183 Q-2 193 -4 205 Q-9 228 -8.5 251.5 Q-8 275 -5 299 Q3 368 28 429.5 Q53 491 92 548 Q115 584 146 610 Q150 614 154 616.5 Q158 619 162 622 Q175 631 194 629 Q204 628 205 618 Q205 613 205 608 Q205 603 203 598 Q199 579 192.5 561 Q186 543 178 526 Q158 481 138 438 Q118 395 98 351 Q60 269 26 181 Q22 172 26 164 Q36 141 50 124 Q56 118 60 115 Q62 118 63 120.5 Q64 123 66 126 Q83 158 100.5 188.5 Q118 219 135 251 Q165 305 196.5 356.5 Q228 408 264 457 Q306 514 352 564.5 Q398 615 452 660 Q466 672 481 682.5 Q496 693 513 701 Q546 718 579 714 Q605 711 605 686 Q605 668 597 650 Q587 626 571 602 Q551 573 529 545.5 Q507 518 484 491 Q452 455 418.5 420 Q385 385 351 350 Q346 345 341.5 339.5 Q337 334 332 329 Q330 327 328.5 324 Q327 321 325 318 Q329 315 333 314.5 Q337 314 341 314 L386 311 Q406 309 426 305.5 Q446 302 466 294 Q477 289 486.5 284 Q496 279 504 271 Q522 254 529.5 233 Q537 212 535 188 Q533 164 526.5 141.5 Q520 119 509 98 Q485 53 452 16 Q419 -21 377 -52 Q342 -78 303.5 -96 Q265 -114 222 -125 Q199 -130 176.5 -132.5 Q154 -135 131 -132 Q112 -129 96 -123 Q78 -114 67 -100 Q48 -75 67 -51 Q84 -27 116 -17 Q138 -9 161 -9 Q190 -9 206.5 -12 Q223 -15 243 -21 Q247 -22 255.5 -25.5 Q264 -29 268 -31 Q272 -33 270 -37 Q266 -42 262 -38 Q258 -33 252.5 -32 Q247 -31 242 -29 Q211 -21 177 -19 Q130 -17 97 -45 Q89 -50 82 -61 Q73 -77 84 -92 Q90 -102 99 -107.5 Q108 -113 119 -116 Q133 -121 148 -120.5 Q163 -120 177 -118 Q215 -113 250 -100 Q285 -87 317 -67 Q396 -19 450 54 Q468 78 481.5 104 Q495 130 503 160 Q507 175 508 190 Q509 205 506 220 Q500 257 466 277 Q450 286 432.5 290.5 Q415 295 397 297 Q383 299 370 299 Q357 299 343 300 Q337 301 330.5 301.5 Q324 302 318 303 Q309 303 302 312 Q294 320 300 330 Q305 337 309.5 343.5 Q314 350 320 356 Q346 385 371.5 412.5 Q397 440 423 468 Q450 498 476.5 528 Q503 558 528 590 Q540 606 551 622.5 Q562 639 570 658 Q573 664 574.5 670.5 Q576 677 578 684 L578 691 Q577 702 565 701 Q553 699 541.5 694.5 Q530 690 519 685 Q496 673 475.5 657 Q455 641 436 624 Q393 586 356 543 Q319 500 285 454 Q248 403 215.5 350.5 Q183 298 152 243 Q134 210 115.5 177 Q97 144 79 111 Q78 109 77.5 107 Q77 105 75 103 Z M184 616 L181 616 Q179 614 177.5 613.5 Q176 613 174 612 Q160 602 148.5 590.5 Q137 579 127 566 Q93 523 70 475.5 Q47 428 31 376 Q20 341 14.5 305 Q9 269 11 232 Q11 226 13 218 Q14 220 15.5 223 Q17 226 17 228 Q28 254 39 280 Q50 306 62 332 Q85 383 109 432.5 Q133 482 156 532 Q162 546 168 561 Q174 576 179 591 Q184 604 184 616 Z M14 149 Q11 143 11 141 Q6 127 1 112 Q-4 97 -8 83 Q-17 56 -20 27 Q-20 22 -20 17.5 Q-20 13 -18 8 Q5 29 21 52.5 Q37 76 52 101 Q40 112 31 123.5 Q22 135 14 149 Z " />
<glyph glyph-name="C" unicode="C" horiz-adv-x="691" d="M471 423 Q457 393 445 362.5 Q433 332 428 299 Q426 285 425.5 270.5 Q425 256 427 242 Q429 231 433 222 Q437 214 440 210 Q448 202 458 207 Q465 212 472 216 Q479 220 485 225 Q501 236 514 250 Q527 264 540 279 Q573 317 602 358.5 Q631 400 655 446 Q670 474 681.5 503 Q693 532 699 564 Q702 581 703 597.5 Q704 614 700 631 Q697 645 691 657 Q677 687 642 690 Q623 692 606 688 Q589 684 572 676 Q540 662 512 641.5 Q484 621 458 597 Q420 559 388.5 517.5 Q357 476 331 429 Q296 369 270.5 307 Q245 245 228 178 Q220 146 215 113 Q210 80 211 46 Q211 26 214 7 Q217 -12 225 -30 Q229 -39 233 -47 Q237 -55 245 -63 Q247 -61 249 -60.5 Q251 -60 253 -58 Q279 -39 305 -20.5 Q331 -2 357 17 Q387 39 421 63 Q426 66 430.5 68.5 Q435 71 440 73 Q455 80 473 78 Q489 77 488 61 Q488 54 484 44 Q481 34 476 25.5 Q471 17 465 9 Q439 -23 409 -47.5 Q379 -72 341 -88 Q295 -107 250 -90 Q246 -88 240 -92 Q223 -103 206.5 -111.5 Q190 -120 172 -128 Q149 -138 125 -144.5 Q101 -151 75 -152 Q55 -153 35 -150.5 Q15 -148 -4 -139 Q-33 -125 -51.5 -102 Q-70 -79 -80 -48 Q-88 -26 -90 -3 Q-92 20 -92 43 Q-92 61 -88 82.5 Q-84 104 -78.5 126 Q-73 148 -66 168.5 Q-59 189 -52 206 Q-44 225 -37 239 Q-30 253 -22.5 266 Q-15 279 -6.5 292 Q2 305 13 322 Q20 332 27 340.5 Q34 349 44 357 Q53 365 65 362 Q75 360 75 352 Q75 348 70 348 Q70 348 68 352 Q63 359 57 354 Q46 347 41 339 Q32 327 24 315.5 Q16 304 9 291 Q-5 268 -17 244.5 Q-29 221 -40 196 Q-51 170 -57.5 142.5 Q-64 115 -68 87 Q-71 60 -71 33.5 Q-71 7 -66 -20 Q-62 -40 -55.5 -57.5 Q-49 -75 -37 -91 Q1 -141 66 -139 Q83 -138 98.5 -134 Q114 -130 130 -125 Q155 -115 177.5 -103.5 Q200 -92 223 -78 L226 -75 Q225 -74 224.5 -73 Q224 -72 223 -71 Q208 -56 199.5 -38 Q191 -20 186 1 Q181 24 181 47.5 Q181 71 183 94 Q188 137 198.5 177.5 Q209 218 223 258 Q261 366 320 459 Q348 504 381 544 Q414 584 454 619 Q479 640 505.5 658 Q532 676 564 687 Q583 695 603 698 Q623 701 643 699 Q698 694 713 642 Q718 622 718 603.5 Q718 585 715 565 Q710 537 700.5 510 Q691 483 679 457 Q630 357 557 269 Q543 252 528 237.5 Q513 223 496 211 Q482 201 471 197 Q451 189 436 196.5 Q421 204 414 223 Q409 236 408 249 Q407 262 408 275 Q411 310 422 342 Q433 374 451 405 Q453 409 456 412.5 Q459 416 462 420 Q464 422 465 422.5 Q466 423 471 423 Z M265 -77 Q273 -82 279.5 -83 Q286 -84 294 -84 Q305 -83 314.5 -80 Q324 -77 334 -73 Q366 -59 393.5 -37.5 Q421 -16 444 11 Q452 20 458 30 Q464 40 467 51 Q468 55 468.5 58.5 Q469 62 467 66 Q460 65 454 62 Q448 59 442 55 Q431 47 419 38.5 Q407 30 396 22 Q364 -2 333 -26.5 Q302 -51 269 -73 Q268 -74 267.5 -75 Q267 -76 265 -77 Z " />
<glyph glyph-name="D" unicode="D" horiz-adv-x="610" d="M293 -21 Q304 -24 313.5 -27 Q323 -30 333 -33 Q335 -33 335 -34.5 Q335 -36 337 -37 Q335 -40 333 -39.5 Q331 -39 329 -39 Q318 -37 308.5 -35 Q299 -33 288 -30 Q279 -29 271 -34 Q248 -48 224.5 -58.5 Q201 -69 175 -76 Q156 -81 137 -83 Q118 -85 98 -81 Q88 -78 75 -73 Q66 -68 62 -61 Q46 -43 63 -24 Q67 -19 72 -16.5 Q77 -14 83 -12 Q94 -7 105.5 -5.5 Q117 -4 129 -3 Q145 -2 161 -3.5 Q177 -5 193 -7 Q208 -9 222.5 -11 Q237 -13 251 -15 Q257 -17 261 -14.5 Q265 -12 269 -9 Q293 8 316 27 Q339 46 359 68 Q409 119 447 176.5 Q485 234 514 300 Q530 335 541.5 371.5 Q553 408 561 446 Q568 475 570.5 505.5 Q573 536 571 567 Q570 583 567 598 Q564 613 557 627 Q537 666 496 667 Q476 669 458.5 664.5 Q441 660 424 652 Q398 641 374.5 625 Q351 609 330 589 Q295 559 265 524.5 Q235 490 209 452 Q179 410 153 366 Q127 322 104 275 Q88 244 74 213 Q60 182 45 150 Q41 141 46 133 Q63 112 83.5 97.5 Q104 83 131 78 Q165 71 202 87 Q214 92 225 98 Q236 104 248 110 Q251 112 254 113.5 Q257 115 260 117 Q262 118 263.5 118.5 Q265 119 267 117 Q264 109 251.5 100 Q239 91 222 83 Q205 75 185.5 70 Q166 65 150 66 Q81 69 34 125 Q29 113 25 102 Q21 91 16 80 Q0 38 -15.5 -4.5 Q-31 -47 -48 -89 Q-50 -96 -52.5 -102 Q-55 -108 -60 -113 L-68 -113 Q-76 -113 -80.5 -108.5 Q-85 -104 -83 -96 Q-80 -82 -77 -68.5 Q-74 -55 -71 -41 Q-57 16 -40 70.5 Q-23 125 -3 179 Q1 188 -2 199 Q-10 229 -12 259 Q-14 289 -11 320 Q-6 364 8 404.5 Q22 445 42 483 Q64 521 88 551 Q92 556 98 562 Q104 568 109 573 Q125 585 138 580 Q142 579 144.5 573.5 Q147 568 147 563 Q147 557 146.5 548 Q146 539 145 533 Q142 517 137 499 Q132 481 125 461 Q108 412 92 364 Q76 316 59 267 Q55 256 52.5 247.5 Q50 239 47.5 230.5 Q45 222 42 213.5 Q39 205 35 194 Q34 192 30.5 180.5 Q27 169 27 166 Q29 168 33.5 177.5 Q38 187 39 189 Q57 230 73 262.5 Q89 295 111 334 Q144 394 182.5 449.5 Q221 505 268 555 Q294 581 320.5 605 Q347 629 379 648 Q401 662 424.5 671 Q448 680 474 682 Q502 684 524 678 Q549 672 565 657 Q581 642 591 619 Q599 601 601.5 582 Q604 563 605 543 Q606 505 600 467.5 Q594 430 583 392 Q554 295 504.5 210 Q455 125 383 53 Q346 16 301 -15 Q299 -17 297 -18 Q295 -19 293 -21 Z M126 563 Q121 559 116 554 Q111 549 105.5 543.5 Q100 538 95 531 Q69 498 53.5 465.5 Q38 433 26 392 Q15 357 10 321 Q5 285 8 247 Q9 240 10 231 Q11 222 12 220 Q15 232 19 241 Q38 292 56.5 342.5 Q75 393 93 444 Q102 469 110 493.5 Q118 518 123 544 Q124 549 124.5 554 Q125 559 126 563 Z M244 -25 Q226 -22 203.5 -19.5 Q181 -17 161 -15 Q147 -14 133.5 -14.5 Q120 -15 106 -19 Q90 -23 81 -30 Q71 -38 71 -46.5 Q71 -55 82 -62 Q87 -65 92 -66.5 Q97 -68 102 -70 Q113 -73 125 -71.5 Q137 -70 148 -68 Q173 -62 191.5 -53.5 Q210 -45 232 -32 Q233 -31 237.5 -28.5 Q242 -26 244 -25 Z M16 139 L16 136 Q17 138 18 140.5 Q19 143 20 146 Q19 147 19 148 L19 149 Q16 144 16 139 Z " />
<glyph glyph-name="E" unicode="E" horiz-adv-x="491" d="M12 -45 Q2 -49 -6.5 -51.5 Q-15 -54 -24 -57 Q-48 -65 -72.5 -69 Q-97 -73 -123 -71 Q-166 -69 -198 -45 Q-238 -14 -236 39 Q-236 77 -210 106 Q-199 118 -188 129.5 Q-177 141 -164 150 Q-159 153 -154.5 155.5 Q-150 158 -145 158 Q-139 159 -135 153 Q-143 155 -148 151.5 Q-153 148 -158 144 Q-172 132 -183.5 119 Q-195 106 -205 90 Q-226 55 -219 16 Q-213 -13 -194.5 -30 Q-176 -47 -150 -55 Q-133 -61 -115.5 -60.5 Q-98 -60 -81 -56 Q-58 -51 -36 -44 Q-14 -37 8 -29 Q14 -27 14 -22 Q23 26 50 62 Q77 98 115 127 Q131 139 148 148 Q165 157 183 166 Q186 168 188.5 168.5 Q191 169 194 171 Q191 172 189 172 Q187 172 184 173 Q160 178 136.5 182.5 Q113 187 90 196 Q55 210 29 234 Q-10 271 -7 326 Q-5 348 1 369 Q7 390 16 410 Q33 446 56.5 478 Q80 510 108 539 Q137 570 170 597 Q203 624 239 647 Q272 667 306 682 Q340 697 377 706 Q396 710 414.5 711.5 Q433 713 453 711 Q488 706 507.5 685 Q527 664 532 630 Q535 607 532 585.5 Q529 564 522 543 Q513 514 500 488 Q487 462 471 436 Q449 402 424.5 370.5 Q400 339 371 311 Q355 297 338.5 284.5 Q322 272 302 263 Q279 252 256 253 Q218 254 203 290 Q195 306 195 323.5 Q195 341 199 358.5 Q203 376 210 392.5 Q217 409 225 423 Q230 434 236.5 443.5 Q243 453 250 463 Q254 468 258.5 472 Q263 476 268 480 Q274 484 282 483 L267 459 Q255 439 244.5 417.5 Q234 396 227 373 Q222 360 220.5 347 Q219 334 219 320 Q219 304 225 289 Q230 277 241 269.5 Q252 262 269 268 Q286 273 300 281.5 Q314 290 328 301 Q354 321 375.5 344 Q397 367 417 392 Q437 418 454 445 Q471 472 485 501 Q495 521 502 541 Q509 561 512 582 Q515 599 514.5 615.5 Q514 632 509 649 Q496 692 450 700 Q436 702 423 701 Q410 700 396 697 Q374 692 353.5 684.5 Q333 677 313 667 Q282 651 253 631.5 Q224 612 197 589 Q162 560 131.5 527.5 Q101 495 75 457 Q61 437 49 415 Q37 393 29 368 Q23 351 20.5 333.5 Q18 316 21 297 Q27 261 57 237 Q71 225 86.5 217.5 Q102 210 119 205 Q140 198 161.5 193.5 Q183 189 205 186 Q210 185 213.5 184.5 Q217 184 222 183 Q224 182 226.5 181.5 Q229 181 230 177 Q231 175 230 171 Q229 167 227 165 Q223 163 217 161 Q195 151 175 139.5 Q155 128 135 114 Q112 97 93 76.5 Q74 56 60 30 Q56 23 53.5 16.5 Q51 10 48 2 Q46 -1 45.5 -4.5 Q45 -8 43 -13 Q70 -2 96 11 Q122 24 148 36 Q166 45 184.5 52 Q203 59 223 64 Q232 66 241 67 Q250 68 258 66 Q273 62 276 46 Q279 30 274 16 Q271 5 265.5 -5.5 Q260 -16 253 -26 Q235 -52 213.5 -73 Q192 -94 165 -110 Q123 -134 76 -127 Q50 -122 33 -103.5 Q16 -85 13 -59 Q13 -56 12.5 -53 Q12 -50 12 -45 Z M107 -113 Q119 -111 129.5 -106.5 Q140 -102 151 -96 Q166 -87 183 -73 Q200 -59 215.5 -43.5 Q231 -28 242.5 -10.5 Q254 7 257 24 Q262 46 254.5 51 Q247 56 231 52 Q213 47 196.5 39.5 Q180 32 163 24 L49 -30 Q38 -35 39 -45 Q41 -77 58 -97 Q75 -117 107 -113 Z " />
<glyph glyph-name="F" unicode="F" horiz-adv-x="599" d="M480 703 L480 692 Q521 689 569 686 Q617 683 664 680.5 Q711 678 754 677 Q797 676 827 676 Q831 676 834 676.5 Q837 677 839 677 Q838 667 827 665 Q822 664 818.5 664 Q815 664 810 664 Q746 666 684.5 668 Q623 670 561 675 Q542 676 516.5 676.5 Q491 677 478 679 Q443 564 403 451 Q363 338 318 225 Q346 227 362.5 227.5 Q379 228 393 230 Q425 233 454.5 236.5 Q484 240 515 245 Q516 237 508 235 Q499 233 490 231.5 Q481 230 472 228 Q433 223 402.5 219 Q372 215 332 213 Q331 213 323.5 212.5 Q316 212 313 212 Q312 210 310 205.5 Q308 201 307 198 Q291 161 275.5 127.5 Q260 94 240 59 Q223 27 203 -3 Q183 -33 158 -60 Q139 -80 118.5 -96 Q98 -112 73 -123 Q37 -140 -1 -136 Q-34 -132 -55 -107 Q-69 -91 -76.5 -72 Q-84 -53 -88 -33 Q-93 -1 -91.5 31 Q-90 63 -84 95 Q-69 180 -27 257 Q-18 274 -6 292 Q6 310 21 326 Q36 342 52 353 Q68 364 85 367 Q99 369 113 367 Q127 365 135 355.5 Q143 346 148 333 Q156 310 154 287 Q153 278 152.5 269 Q152 260 150 251 Q157 248 176 243 Q195 238 217.5 234.5 Q240 231 260.5 228.5 Q281 226 290 227 Q328 321 363 416.5 Q398 512 432 609 Q428 605 427 603 Q404 575 379 550 Q354 525 325 505 Q306 491 285.5 482 Q265 473 242 470 Q227 468 212 469 Q197 470 183 476 Q138 496 134 542 Q128 599 171 640 Q191 658 213.5 669 Q236 680 261 685 Q290 692 320 694 Q350 696 379 695 Q416 695 454 692 Q464 692 468 699 Q471 707 480 703 Z M146 236 Q144 228 140.5 217 Q137 206 133 197 Q124 174 112.5 153 Q101 132 84 114 Q77 106 69.5 100 Q62 94 53 89 Q30 79 10 86 Q-10 93 -20 115 Q-25 124 -26 134 Q-30 158 -23.5 180.5 Q-17 203 -3 223 Q8 240 24.5 249 Q41 258 61 260 Q87 263 116 258 Q119 257 124 257 Q130 279 130 303 Q129 312 127.5 321.5 Q126 331 122 340 Q118 349 111 352 Q104 355 96.5 354.5 Q89 354 82 350.5 Q75 347 69 344 Q53 333 40.5 319.5 Q28 306 17 290 Q-32 220 -55 135 Q-65 100 -69.5 65 Q-74 30 -72 -6 Q-71 -24 -67 -42 Q-63 -60 -55 -77 Q-48 -91 -38 -101.5 Q-28 -112 -13 -118 Q1 -124 14 -123 Q27 -122 41 -117 Q63 -109 81.5 -96.5 Q100 -84 117 -69 Q143 -45 163 -17 Q183 11 201 42 Q228 90 245.5 131.5 Q263 173 283 212 Q266 214 249 216 Q232 218 215 221 Q198 224 181 228 Q164 232 146 236 Z M455 680 Q447 680 432 681 Q417 682 398.5 682.5 Q380 683 361.5 683.5 Q343 684 328 683 Q304 682 280.5 678 Q257 674 235 664 Q218 656 202 646 Q186 636 174 622 Q157 602 150.5 580.5 Q144 559 149 533 Q154 510 172 495 Q195 477 226 479 Q243 480 257.5 485.5 Q272 491 286 499 Q305 510 321.5 523.5 Q338 537 354 552 Q380 577 402 603.5 Q424 630 443 659 L455 680 Z M121 242 Q113 245 105.5 246 Q98 247 90 248 Q74 250 59 247.5 Q44 245 31 235 Q23 229 17.5 221.5 Q12 214 7 206 Q-14 171 -7 131 Q-4 112 8 103 Q21 93 33 100 Q51 110 65 128 Q82 148 93.5 171 Q105 194 114 219 Q116 225 117.5 230.5 Q119 236 121 242 Z " />
<glyph glyph-name="G" unicode="G" horiz-adv-x="767" d="M-16 366 Q-12 398 -1.5 427 Q9 456 26 484 Q83 579 174 635 Q198 650 223 660.5 Q248 671 276 676 Q312 682 344 674 Q366 667 379 650.5 Q392 634 398.5 613 Q405 592 407 569.5 Q409 547 408 528 Q407 521 399 521 Q398 553 394.5 579 Q391 605 381 629 Q373 646 356 657 Q339 668 319 670 Q299 672 281 668 Q263 664 244 657 Q215 646 189 630 Q163 614 140 594 Q107 566 80 533.5 Q53 501 33 462 Q11 423 4 382 Q0 363 1 344.5 Q2 326 10 308 Q18 290 34 280 Q50 270 70 271 Q82 273 93.5 275.5 Q105 278 116 282 Q143 293 168.5 306.5 Q194 320 219 335 Q254 357 285.5 381 Q317 405 348 431 Q383 460 418.5 488.5 Q454 517 489 545 Q514 565 539.5 582.5 Q565 600 592 615 Q608 623 623.5 629 Q639 635 656 637 Q665 638 674.5 637.5 Q684 637 693 635 Q710 631 722 620.5 Q734 610 742 595 Q750 578 753.5 560 Q757 542 757 524 Q758 495 753.5 467.5 Q749 440 741 413 Q728 368 710 327 Q692 286 670 245 Q640 191 604.5 141 Q569 91 527 44 Q498 12 467 -15.5 Q436 -43 399 -66 Q377 -79 354.5 -88 Q332 -97 306 -101 Q277 -104 253 -97 Q201 -81 189 -27 Q180 11 191 51 Q219 172 323 245 Q338 256 354 262.5 Q370 269 388 271 Q394 272 400.5 272.5 Q407 273 413 272 Q437 269 450.5 254 Q464 239 469 220 Q476 188 467 155 Q463 140 449 130 Q449 130 449 135 Q454 153 456.5 172 Q459 191 457 211 Q455 218 452 229 Q436 271 390 263 Q359 256 331 234 Q238 161 211 48 Q201 8 210 -28 Q218 -59 240 -75 Q268 -94 303 -86 Q323 -82 342 -74.5 Q361 -67 379 -56 Q409 -39 435.5 -17 Q462 5 487 29 Q536 78 576 132.5 Q616 187 651 247 Q671 281 687 316 Q703 351 715 388 Q726 419 732.5 450.5 Q739 482 740 514 Q741 528 740 541 Q739 554 735 568 Q733 575 730.5 581.5 Q728 588 725 595 Q715 613 699 618.5 Q683 624 663 621 Q649 619 639 614 Q629 609 617 603 Q597 592 579 580 Q561 568 544 554 L403 440 Q365 408 325.5 377.5 Q286 347 244 320 Q221 305 196 291.5 Q171 278 145 268 Q126 261 104.5 257 Q83 253 62 255 Q31 257 10.5 278.5 Q-10 300 -15 330 Q-16 339 -16.5 348 Q-17 357 -16 366 Z " />
<glyph glyph-name="H" unicode="H" horiz-adv-x="447" d="M550 693 Q552 688 550 684 Q548 680 546 676 Q523 631 499 591.5 Q475 552 452 511 Q379 379 320 236 Q256 77 217 -93 Q216 -99 215 -105 Q214 -111 214 -116 Q213 -120 212.5 -123.5 Q212 -127 215 -131 Q218 -133 216.5 -135.5 Q215 -138 212 -138 Q199 -141 195 -127 Q194 -124 194.5 -120.5 Q195 -117 194 -114 Q196 -96 199.5 -78 Q203 -60 208 -42 Q222 10 235.5 61 Q249 112 263 164 Q274 203 288 240.5 Q302 278 317 315 Q321 325 324.5 334.5 Q328 344 331 355 Q329 353 328 351.5 Q327 350 325 348 Q305 325 284 304 Q263 283 240 265 Q224 252 207.5 242 Q191 232 171 225 Q168 224 162 222 Q156 220 149 218.5 Q142 217 135.5 216 Q129 215 125 215 Q107 169 86 122.5 Q65 76 45 31 Q33 5 20 -19.5 Q7 -44 -8 -68 Q-11 -72 -14.5 -77.5 Q-18 -83 -21.5 -87.5 Q-25 -92 -29 -93.5 Q-33 -95 -36 -91 Q-36 -87 -34 -83 Q-29 -73 -25.5 -64 Q-22 -55 -17 -46 Q-3 -17 10.5 12.5 Q24 42 38 71 Q57 113 72.5 148.5 Q88 184 102 219 Q56 228 25 262 Q-3 291 -17.5 325.5 Q-32 360 -36 398 Q-41 443 -32 484.5 Q-23 526 -6 566 Q4 590 16.5 613 Q29 636 46 656 Q57 669 68.5 679.5 Q80 690 95 698 Q119 710 147 707 Q163 705 173.5 696.5 Q184 688 192 674 Q204 652 209 625 Q214 598 213.5 572 Q213 546 210 520 Q206 478 196.5 438.5 Q187 399 174 360 Q165 331 157.5 309 Q150 287 140 258 Q139 256 136.5 247 Q134 238 132 233 Q135 234 137.5 234 Q140 234 142 235 Q157 239 171 245 Q185 251 197 259 Q221 274 241.5 291.5 Q262 309 282 329 Q305 352 326 377.5 Q347 403 367 429 Q375 440 380.5 451 Q386 462 393 473 Q413 505 431.5 537.5 Q450 570 469 602 Q481 621 492.5 639.5 Q504 658 516 678 Q527 693 534.5 695 Q542 697 550 693 Z M109 234 Q111 238 113.5 245.5 Q116 253 117 255 Q124 272 127 280 Q130 288 135 305 Q149 344 161 383 Q173 422 182 463 Q188 489 191.5 515.5 Q195 542 194 568 Q196 611 184 649 Q177 668 168 681 Q152 701 129 694 Q118 690 106 683 Q92 674 81.5 662.5 Q71 651 62 638 Q39 605 24 568.5 Q9 532 0 493 Q-8 460 -8.5 426.5 Q-9 393 -1 358 Q7 329 21 303.5 Q35 278 60 258 Q71 249 82.5 243 Q94 237 109 234 Z " />
<glyph glyph-name="I" unicode="I" horiz-adv-x="279" d="M47 63 Q52 73 56.5 82.5 Q61 92 66 103 Q94 161 119 219 Q144 277 167 337 Q198 417 226.5 490.5 Q255 564 264 638 Q267 665 261 690 Q257 700 252 704 Q247 708 236 706 Q225 705 215.5 701.5 Q206 698 196 693 Q179 682 165 668.5 Q151 655 142 636 Q137 626 137 610 Q137 595 149 591 Q151 591 151 589 Q143 585 133 592 Q123 601 123 615 Q123 632 130.5 647.5 Q138 663 149.5 675.5 Q161 688 175.5 698 Q190 708 205 713 Q217 717 229 719 Q241 721 254 719 Q275 716 286 692 Q292 677 292 659 Q293 635 290 612 Q287 589 282 566 Q262 474 230 391 Q207 324 181 259.5 Q155 195 126 131 Q107 91 86.5 53 Q66 15 41 -21 Q10 -71 -32 -107 Q-45 -119 -58.5 -128.5 Q-72 -138 -89 -143 Q-106 -149 -122 -146 Q-137 -143 -146 -134 Q-155 -125 -161 -111 Q-168 -90 -165 -66.5 Q-162 -43 -152 -21 Q-142 1 -127 20 Q-112 39 -95 51 Q-76 63 -53.5 67.5 Q-31 72 -8 69 Q6 68 19 66.5 Q32 65 47 63 Z M44 56 Q29 58 17 59.5 Q5 61 -9 62 Q-59 67 -94 35 Q-137 -3 -146 -61 Q-148 -72 -148 -81.5 Q-148 -91 -146 -102 Q-141 -116 -134.5 -122.5 Q-128 -129 -120.5 -130.5 Q-113 -132 -106 -129.5 Q-99 -127 -93 -124 Q-76 -114 -63 -102 Q-50 -90 -38 -76 Q-21 -56 -8 -34.5 Q5 -13 19 10 Q25 21 30.5 32.5 Q36 44 44 56 Z " />
<glyph glyph-name="J" unicode="J" horiz-adv-x="396" d="M292 359 Q291 353 287.5 348.5 Q284 344 280 339 Q236 292 170 277 Q147 272 121 277 Q95 282 77.5 299 Q60 316 52 341 Q45 366 45.5 391 Q46 416 50.5 439.5 Q55 463 63 485 Q71 507 80 527 Q92 553 117.5 589 Q143 625 176 658.5 Q209 692 244.5 717 Q280 742 311.5 747.5 Q343 753 366.5 733.5 Q390 714 398 657 Q400 626 398 596.5 Q396 567 392 538 Q384 479 369 424.5 Q354 370 334 316 Q311 253 283.5 194.5 Q256 136 221 80 Q192 35 159.5 -6.5 Q127 -48 88 -83 Q71 -99 52 -112.5 Q33 -126 10 -136 Q-7 -143 -24 -145.5 Q-41 -148 -60 -144 Q-80 -140 -94 -125.5 Q-108 -111 -111 -91 Q-113 -82 -112.5 -73 Q-112 -64 -110 -55 Q-98 -6 -58 23 Q-50 31 -36 34.5 Q-22 38 -13 39 Q-3 40 11 40.5 Q25 41 39 39.5 Q53 38 66.5 35.5 Q80 33 88 28 Q95 24 95 18 Q77 28 52 30 Q27 32 10 31 Q-43 33 -69 -6 Q-84 -26 -92 -53 Q-100 -80 -88 -105 Q-80 -121 -66.5 -128 Q-53 -135 -38 -131 Q-27 -128 -16 -122.5 Q-5 -117 5 -110 Q26 -96 44 -79 Q62 -62 78 -44 Q116 -2 145.5 43 Q175 88 201 137 Q233 194 258.5 252.5 Q284 311 305 373 Q325 432 339 492 Q353 552 358 615 Q359 641 358.5 666.5 Q358 692 346 714 Q339 728 327 726 Q316 726 306 723 Q286 718 269.5 708 Q253 698 237 686 Q183 642 144 587 Q105 532 82 465 Q71 434 67 397.5 Q63 361 77 329 Q85 310 100.5 299 Q116 288 136 287 Q149 285 161.5 287.5 Q174 290 185 295 Q214 306 239.5 321 Q265 336 287 358 Q290 361 292 359 Z " />
<glyph glyph-name="K" unicode="K" horiz-adv-x="637" d="M218 143 Q225 135 232 127.5 Q239 120 246 112 Q264 91 282 69.5 Q300 48 318 26 Q352 -15 388 -49 Q424 -83 466 -112 Q471 -115 475.5 -117.5 Q480 -120 485 -123 Q491 -125 496 -123 Q501 -121 506 -119 Q504 -130 496.5 -131 Q489 -132 480 -129 Q471 -126 462 -121 Q453 -116 449 -113 Q404 -82 364 -47 Q324 -12 289 30 Q273 50 256.5 69 Q240 88 223 108 L208 123 Q206 120 205 117.5 Q204 115 202 113 Q182 77 159.5 43.5 Q137 10 110 -22 Q93 -43 74 -62 Q55 -81 32 -96 Q21 -104 9 -110 Q-3 -116 -17 -120 Q-39 -126 -59 -122 Q-76 -119 -87 -109 Q-98 -99 -106 -84 Q-113 -70 -114.5 -55 Q-116 -40 -115 -24 Q-113 4 -103.5 29.5 Q-94 55 -79 79 Q-48 130 -2 163 Q6 168 14.5 173 Q23 178 31 182 Q16 194 7 219.5 Q-2 245 -4 263 Q-9 295 -6.5 325.5 Q-4 356 3 386 Q45 551 172 663 Q185 674 198.5 683 Q212 692 227 699 Q259 715 297 709 Q322 704 334 684 Q341 674 344 663 Q347 652 349 640 Q352 619 351.5 597.5 Q351 576 349 554 Q344 501 332 450.5 Q320 400 304 349 Q289 304 271 260.5 Q253 217 233 173 Q237 174 252.5 181.5 Q268 189 286 199 Q304 209 321 218 Q338 227 344 231 Q390 262 431.5 296.5 Q473 331 513 369 Q548 401 580 435.5 Q612 470 642 506 Q670 538 695 571 Q720 604 743 639 Q747 645 750.5 650.5 Q754 656 758 661 Q762 666 767.5 671 Q773 676 779 674 Q771 655 762 638 Q753 621 742 604 Q707 547 665 497 Q623 447 577 399 Q538 358 496 321 Q454 284 409 250 Q379 227 347 207 Q315 187 280 171 Q275 169 266.5 165 Q258 161 248.5 156.5 Q239 152 230.5 148.5 Q222 145 218 143 Z M189 164 Q200 193 213.5 220 Q227 247 238 275 Q263 337 280.5 399 Q298 461 309 527 Q313 552 315.5 576.5 Q318 601 316 626 Q316 653 306 676 Q297 698 273 694 Q263 692 253.5 689 Q244 686 235 681 Q202 664 172 634 Q145 608 122.5 578.5 Q100 549 81 516 Q58 477 42 434.5 Q26 392 20 347 Q16 324 15.5 300 Q15 276 20 253 Q24 237 29.5 223 Q35 209 45 195 Q50 189 59 190 Q105 199 147 186 Q158 182 168 176.5 Q178 171 189 164 Z M42 170 Q34 165 26.5 161.5 Q19 158 12 153 Q-20 130 -43 99.5 Q-66 69 -81 32 Q-96 -7 -95 -45 Q-94 -57 -91 -68.5 Q-88 -80 -81 -91 Q-62 -119 -33 -107 Q-17 -101 -3 -92 Q19 -78 36.5 -61 Q54 -44 71 -25 Q101 11 125.5 50.5 Q150 90 172 132 Q174 136 174 138 L156 138 Q136 137 117 139 Q98 141 80 148 Q69 152 60 157.5 Q51 163 42 170 Z M65 177 Q73 169 86.5 163 Q100 157 115 154.5 Q130 152 144.5 152 Q159 152 170 156 Q146 173 120 179 Q94 185 65 177 Z " />
<glyph glyph-name="L" unicode="L" horiz-adv-x="481" d="M186 -6 Q194 -13 200.5 -19 Q207 -25 215 -31 Q235 -48 255 -63.5 Q275 -79 298 -93 Q321 -108 345.5 -119 Q370 -130 398 -135 Q417 -139 435.5 -138.5 Q454 -138 473 -135 Q483 -133 492 -131.5 Q501 -130 511 -128 Q515 -126 518 -125 Q521 -124 524 -121 Q528 -117 530 -121 Q533 -124 530 -127 Q526 -131 521 -132 Q511 -135 501 -137.5 Q491 -140 481 -142 Q466 -145 451 -147 Q436 -149 421 -148 Q391 -146 363 -138.5 Q335 -131 309 -117 Q287 -106 267 -92 Q247 -78 228 -62 Q216 -53 204.5 -43.5 Q193 -34 182 -25 Q180 -23 178 -22 Q176 -21 174 -19 Q170 -23 168 -24 Q127 -68 77 -99 Q59 -110 40 -118 Q21 -126 0 -131 Q-32 -139 -63 -131 Q-93 -123 -109 -96.5 Q-125 -70 -119 -40 Q-114 -19 -103 -2.5 Q-92 14 -76 28 Q-51 50 -22 58 Q7 66 40 64 Q69 62 95.5 51 Q122 40 146 24 Q150 20 156 17 Q158 19 160 21 Q162 23 164 25 Q194 62 220.5 100.5 Q247 139 271 180 Q280 196 289 212 Q298 228 307 245 Q308 247 308 251 L305 248 Q280 222 252 202 Q224 182 190 170 Q155 158 121 167 Q57 181 42 248 Q37 267 38 285.5 Q39 304 43 323 Q49 355 60.5 384 Q72 413 88 441 Q117 495 152 542 Q187 589 232 631 Q247 645 263 657.5 Q279 670 297 681 Q332 700 372 697 Q408 694 425 662 Q432 649 435 635 Q438 621 440 607 Q443 581 441.5 555 Q440 529 436 503 Q426 433 403.5 367.5 Q381 302 350 239 Q327 194 301.5 151.5 Q276 109 246 69 Q233 52 219.5 35 Q206 18 192 1 Q190 -1 189 -2.5 Q188 -4 186 -6 Z M318 273 Q319 272 320 272 Q320 273 322 275 Q331 298 341 320 Q351 342 359 365 Q376 410 387 454.5 Q398 499 403 546 Q405 566 405.5 585 Q406 604 403 624 Q400 648 390 665 Q379 683 359 682 Q350 681 339 677 Q322 671 307.5 662 Q293 653 279 642 Q247 617 220 588.5 Q193 560 168 528 Q140 491 116.5 452 Q93 413 76 369 Q68 347 62.5 324.5 Q57 302 57 279 Q57 265 59 251.5 Q61 238 67 225 Q78 198 105.5 183 Q133 168 164 176 Q182 181 198 188.5 Q214 196 229 204 Q251 217 270 232.5 Q289 248 306 265 Q309 267 312 269 Q315 271 318 273 Z M145 3 Q122 21 97 33 Q84 40 70 45 Q56 50 41 52 Q-39 59 -87 -10 Q-104 -38 -98 -67 Q-93 -98 -71 -110.5 Q-49 -123 -25 -118 Q-3 -114 18 -103 Q46 -89 69.5 -70 Q93 -51 115 -30 L145 3 Z " />
<glyph glyph-name="M" unicode="M" horiz-adv-x="583" d="M617 617 Q609 595 601 573.5 Q593 552 585 529 Q546 430 510.5 331.5 Q475 233 444 131 Q426 71 411.5 14.5 Q397 -42 383 -103 Q381 -112 379 -124.5 Q377 -137 376 -145 Q367 -147 363 -141.5 Q359 -136 360 -127 Q362 -113 365 -98.5 Q368 -84 371 -70 Q387 1 403 64.5 Q419 128 435.5 186.5 Q452 245 470.5 299.5 Q489 354 510 407 Q528 454 546.5 500 Q565 546 584 593 Q588 602 591.5 613 Q595 624 596 630 Q573 604 550.5 573 Q528 542 508 513 Q415 369 336 212 Q315 170 294 127 Q273 84 252 41 Q239 16 226.5 -8.5 Q214 -33 197 -56 Q189 -68 176 -81 Q168 -89 158 -90 Q146 -89 139 -83 Q132 -77 128.5 -68 Q125 -59 124.5 -48.5 Q124 -38 124 -29 Q126 -6 130.5 15.5 Q135 37 140 59 Q143 70 149 87 Q155 104 161 121.5 Q167 139 172.5 155 Q178 171 180 180 Q125 112 71.5 43.5 Q18 -25 -30 -97 L-48 -121 Q-57 -131 -67 -126 Q-75 -123 -75.5 -113.5 Q-76 -104 -74 -92 Q-72 -80 -68.5 -69 Q-65 -58 -63 -53 Q-52 -15 -39 21 Q-26 57 -10 92 Q10 138 28.5 178 Q47 218 60 247 Q43 255 19 270.5 Q-5 286 -23 320 Q-45 359 -43 408 Q-43 446 -33 481 Q-23 516 -6 549 Q30 621 86 677 Q113 702 141 718.5 Q169 735 203 731 Q231 728 243 702 Q250 686 251 668.5 Q252 651 249.5 633 Q247 615 242 598 Q237 581 233 566 Q222 531 208 497.5 Q194 464 179 432 Q169 410 157 385.5 Q145 361 133 336 Q121 311 110 288 Q99 265 91 247 Q99 244 107.5 243.5 Q116 243 124 242 Q164 242 200.5 257.5 Q237 273 268 296 Q272 298 274 300.5 Q276 303 277 301 Q279 299 276.5 295 Q274 291 272 289 Q264 280 254 273.5 Q244 267 233 261 Q210 249 191.5 242.5 Q173 236 156.5 233.5 Q140 231 123.5 232.5 Q107 234 87 238 Q83 230 79 221.5 Q75 213 71 205 Q45 151 23.5 102 Q2 53 -20 -3 Q-27 -21 -34.5 -45 Q-42 -69 -50 -95 Q-23 -56 3.5 -20 Q30 16 53 48 Q65 64 79.5 83.5 Q94 103 108.5 122.5 Q123 142 137.5 159.5 Q152 177 166 191 Q173 197 180 198 Q187 199 195 197 Q199 196 200.5 193 Q202 190 202 187 Q197 154 187 118.5 Q177 83 168 49 Q159 15 154 -17 Q149 -49 154 -75 Q161 -70 173.5 -55 Q186 -40 194 -28 Q208 -5 220.5 18 Q233 41 245 65 Q274 121 302 176.5 Q330 232 359 287 Q388 344 419.5 397.5 Q451 451 485 505 Q505 534 524.5 563 Q544 592 566 620 Q571 626 576.5 632 Q582 638 587 645 Q593 652 600.5 653 Q608 654 616 653 Q625 650 622 637.5 Q619 625 617 617 Z M64 256 Q72 271 79 286 Q86 301 93 316 Q134 402 173 485 Q193 529 209 575 Q225 621 225 668 Q224 677 223 686 Q222 695 218 703 Q210 721 192 719 Q167 717 146 703 Q125 689 108 673 Q59 627 27 573 Q7 540 -7 505 Q-21 470 -26 431 Q-29 407 -27 382.5 Q-25 358 -16 335 Q6 280 64 256 Z " />
<glyph glyph-name="N" unicode="N" horiz-adv-x="594" d="M78 184 Q45 198 26 222.5 Q7 247 -1 281 Q-10 316 -6.5 351 Q-3 386 9 421 Q23 459 43.5 492.5 Q64 526 90 556 Q137 611 199 646 Q209 651 228.5 657.5 Q248 664 267.5 666 Q287 668 301.5 662 Q316 656 316 636 Q318 619 313 602 Q308 580 300.5 559.5 Q293 539 283 519 Q263 481 243.5 443 Q224 405 204 367 Q193 345 180.5 321 Q168 297 156 273.5 Q144 250 133 228 Q122 206 115 188 Q123 186 130 187 Q137 188 144 190 Q183 199 219 220 Q227 225 234.5 229.5 Q242 234 250 239 Q253 241 259 243 Q261 240 257 236 Q255 234 250 229.5 Q245 225 240 222 Q218 206 193.5 195.5 Q169 185 142 180 Q135 179 128.5 178.5 Q122 178 115 178 Q109 178 108 173 Q95 143 81.5 111 Q68 79 58 47.5 Q48 16 43.5 -14.5 Q39 -45 44 -72 Q48 -83 57 -75 Q72 -65 82 -55 Q104 -34 123 -10.5 Q142 13 160 37 Q199 91 238 144.5 Q277 198 316 252 Q370 327 424 401.5 Q478 476 535 549 Q558 578 581.5 607 Q605 636 628 665 Q640 679 648.5 686 Q657 693 674 691 Q679 689 678 685 Q675 674 669.5 659.5 Q664 645 657 628 Q625 562 594 496 Q563 430 534 362 Q507 300 482.5 238 Q458 176 436 112 Q404 17 379 -80 Q376 -94 374 -110 Q372 -126 371 -137 Q355 -142 355 -127 Q360 -79 372.5 -33.5 Q385 12 397 57 Q406 87 414.5 116.5 Q423 146 432 176 Q440 201 448.5 225.5 Q457 250 467 274 Q497 352 532 426.5 Q567 501 604 576 Q607 583 612 593.5 Q617 604 622.5 615 Q628 626 632.5 635.5 Q637 645 639 650 Q625 633 607 609.5 Q589 586 573 566 Q508 484 446.5 400.5 Q385 317 324 232 Q288 182 252.5 132.5 Q217 83 181 33 Q163 8 144 -16.5 Q125 -41 103 -63 Q97 -70 90 -75.5 Q83 -81 75 -87 Q61 -99 41 -92 Q23 -88 18 -69 Q12 -35 16 -1.5 Q20 32 29.5 64 Q39 96 52.5 126 Q66 156 78 184 Z M82 193 Q110 249 138.5 303.5 Q167 358 196 414 Q209 438 225.5 469 Q242 500 257 531.5 Q272 563 282 592 Q292 621 292 639 Q287 653 272 653 Q257 653 239.5 646 Q222 639 206 629.5 Q190 620 184 616 Q104 560 54 473 Q37 444 25.5 412.5 Q14 381 10 346 Q8 323 10 299.5 Q12 276 23 254 Q39 212 82 193 Z " />
<glyph glyph-name="O" unicode="O" horiz-adv-x="670" d="M256 168 Q275 155 297 154 Q337 152 373.5 166.5 Q410 181 441 200 Q443 202 445.5 203 Q448 204 451 202 Q453 197 446 191.5 Q439 186 434 183 Q405 163 373.5 151.5 Q342 140 307 141 Q273 144 251 155 Q243 137 236 110.5 Q229 84 227 64 Q225 50 225 36 Q225 22 229 8 Q233 -5 240.5 -14.5 Q248 -24 262 -29 Q270 -32 278.5 -32 Q287 -32 295 -30 Q315 -25 334 -15.5 Q353 -6 370 6 Q405 29 433.5 58.5 Q462 88 485 122 Q547 208 585 309 Q599 346 606 384 Q613 422 611 462 Q608 518 587 569 Q575 596 556 617 Q537 638 512.5 652.5 Q488 667 460 673.5 Q432 680 403 677 Q361 673 323.5 659 Q286 645 251 624 Q163 568 105 478 Q34 371 12 244 Q4 197 4 150.5 Q4 104 15 57 Q23 22 39 -10 Q55 -42 81 -68 Q131 -115 198.5 -120 Q266 -125 343 -75 Q346 -73 348 -71.5 Q350 -70 353 -72 Q359 -74 355.5 -79 Q352 -84 349 -87 Q345 -90 341.5 -93 Q338 -96 334 -98 Q276 -132 215.5 -137 Q155 -142 98 -106 Q53 -78 26 -38 Q-1 2 -13 53 Q-20 83 -22.5 113.5 Q-25 144 -24 175 Q-22 229 -9.5 280 Q3 331 24 381 Q46 434 76.5 481 Q107 528 148 569 Q178 599 212 622.5 Q246 646 285 663 Q320 678 355.5 685.5 Q391 693 429 691 Q530 685 588 605 Q604 584 613 561 Q622 538 627 512 Q643 420 614 326 Q591 257 556.5 194 Q522 131 474 74 Q451 46 423.5 22 Q396 -2 364 -20 Q349 -28 333 -34.5 Q317 -41 300 -44 Q275 -47 255 -42 Q232 -36 219 -21 Q206 -6 201 16 Q197 34 198 52.5 Q199 71 202 89 Q206 109 211 128 Q216 147 223 167 Q226 175 221 180 Q190 216 188 268 Q186 289 189.5 310 Q193 331 199 351 Q227 450 300 524 Q312 536 325 546 Q338 556 353 564 Q373 575 398 572 Q416 569 417 554 Q419 546 418 537.5 Q417 529 415 521 Q410 502 402 484 Q394 466 385 448 Q367 411 348.5 375 Q330 339 312 302 Q304 287 299 276 Q294 265 289.5 254.5 Q285 244 280.5 232.5 Q276 221 270 205 Q270 204 267.5 198.5 Q265 193 263 186.5 Q261 180 258.5 174.5 Q256 169 256 168 Z M231 191 Q236 202 241.5 216 Q247 230 253 243 Q273 288 294.5 332 Q316 376 339 420 Q350 441 361 462 Q372 483 383 505 Q387 513 389.5 520.5 Q392 528 394 536 Q395 541 395 545.5 Q395 550 395 555 Q395 561 387 561 Q379 559 376 558 Q352 547 333 530 Q316 515 301 497.5 Q286 480 272 460 Q249 427 233 391 Q217 355 209 314 Q205 291 205 268.5 Q205 246 213 224 Q216 215 220 207 Q224 199 231 191 Z " />
<glyph glyph-name="P" unicode="P" horiz-adv-x="783" d="M373 279 Q362 276 354.5 270 Q347 264 340 258 Q330 249 320.5 239.5 Q311 230 303 219 Q297 210 293 201 Q289 192 288 181 Q286 159 299 138.5 Q312 118 333 109 Q350 101 367 100.5 Q384 100 401 104 Q428 110 453 121 Q478 132 502 146 Q537 167 567 193.5 Q597 220 624 251 Q654 286 679 324.5 Q704 363 722 406 Q733 432 740.5 458.5 Q748 485 750 513 Q752 544 747.5 573 Q743 602 728 630 Q697 680 644 691 Q627 695 609 693 Q591 691 574 686 Q548 678 525.5 664 Q503 650 483 633 Q456 611 432.5 585.5 Q409 560 387 533 Q348 483 314 431 Q280 379 249 324 Q219 270 190.5 216 Q162 162 133 108 Q110 66 85.5 14.5 Q61 -37 38 -82 Q34 -89 30 -95 Q26 -101 22 -108 Q18 -113 13.5 -112.5 Q9 -112 5 -111 Q-1 -110 -5 -104 Q-6 -102 -5.5 -98.5 Q-5 -95 -4 -93 Q6 -60 15 -32 Q24 -4 34 21 Q55 78 78.5 140.5 Q102 203 124 260 Q125 262 125.5 263 Q126 264 127 267 Q123 266 117 264 Q78 252 40 262 Q16 268 -0.5 283.5 Q-17 299 -28 320 Q-38 339 -41.5 358.5 Q-45 378 -43 399 Q-37 460 -12 510.5 Q13 561 55 606 Q77 630 106 648 Q120 656 134 661.5 Q148 667 164 668 Q179 669 198 666 Q215 662 224.5 651 Q234 640 239 624 Q244 608 245 592.5 Q246 577 244 560 Q241 522 232 484.5 Q223 447 212 410 Q193 348 171 289 Q149 230 125 170 Q121 160 116 147.5 Q111 135 106 122.5 Q101 110 97 98.5 Q93 87 90 79 Q125 138 156 197 Q187 256 219 315 Q248 369 280.5 419.5 Q313 470 351 519 Q374 551 400 579 Q426 607 455 633 Q476 652 499 667 Q522 682 549 692 Q578 703 607.5 706 Q637 709 667 701 Q723 686 754 635 Q772 606 778.5 575.5 Q785 545 783 513 Q781 484 775 457 Q769 430 759 404 Q727 325 677.5 261.5 Q628 198 558 150 Q529 130 497.5 115 Q466 100 431 92 Q409 87 387.5 85.5 Q366 84 343 89 Q303 96 279 131 Q263 153 264.5 177 Q266 201 284 221 Q314 253 346 276 Q351 279 355.5 281.5 Q360 284 366 282 Q367 282 373 279 Z M217 583 Q216 596 215 608.5 Q214 621 209 632 Q197 658 169 654 Q151 651 136 642.5 Q121 634 107 623 Q65 590 37.5 548.5 Q10 507 -7 457 Q-15 433 -18 409.5 Q-21 386 -17 361 Q-12 323 12 297 Q39 269 75 270 Q89 271 102.5 275 Q116 279 130 284 Q134 286 135 290 Q140 300 143 309 Q160 356 176 402 Q192 448 204 496 Q209 518 212.5 539 Q216 560 217 583 Z " />
<glyph glyph-name="Q" unicode="Q" horiz-adv-x="640" d="M243 296 Q217 310 204.5 336 Q192 362 194 393 Q198 428 212 460 Q226 492 246 519 Q266 546 291.5 568 Q317 590 345 605 Q376 623 410 619 Q441 616 441 585 Q441 574 438.5 564 Q436 554 432 544 Q424 524 414.5 506 Q405 488 394 471 Q371 437 349 404 Q327 371 305 337 Q298 327 292 317.5 Q286 308 279 298 Q284 295 289 294.5 Q294 294 299 293 Q310 293 319.5 295 Q329 297 339 299 Q360 304 379 313 Q398 322 416 333 Q418 334 422 336.5 Q426 339 428 335 Q414 317 395 307.5 Q376 298 356 290 Q314 276 271 286 Q264 274 255 260 Q241 235 227.5 209.5 Q214 184 203 157 Q197 142 192.5 127 Q188 112 187 95 Q187 90 187.5 85.5 Q188 81 189 76 Q193 57 206 47.5 Q219 38 238 40 Q250 42 260.5 45 Q271 48 282 53 Q314 67 341.5 85 Q369 103 395 126 Q500 219 558 346 Q570 373 578.5 401.5 Q587 430 590 460 Q593 494 589 526 Q585 558 571 589 Q554 627 525.5 647.5 Q497 668 458 676 Q430 681 403 678 Q376 675 350 667 Q301 652 259 625 Q217 598 180 563 Q138 522 107 475 Q76 428 53 374 Q17 291 5 201.5 Q-7 112 18 30 Q26 1 40.5 -23 Q55 -47 77 -67 Q123 -109 185 -100 Q212 -95 238 -87.5 Q264 -80 290 -70 Q321 -58 351 -45.5 Q381 -33 412 -21 Q427 -16 445.5 -11 Q464 -6 483.5 -2.5 Q503 1 522.5 3 Q542 5 558 4 Q616 2 656.5 -6.5 Q697 -15 725.5 -26.5 Q754 -38 774.5 -50 Q795 -62 812 -71 Q814 -72 819 -75 Q824 -78 828.5 -82 Q833 -86 836 -89.5 Q839 -93 837 -95 Q835 -98 830.5 -97.5 Q826 -97 821 -95 Q816 -93 811 -90.5 Q806 -88 803 -86 Q746 -55 694.5 -37.5 Q643 -20 593 -16 Q543 -12 494 -20.5 Q445 -29 393 -48 Q362 -60 331.5 -72.5 Q301 -85 269 -96 Q249 -104 227.5 -108.5 Q206 -113 184 -115 Q154 -118 126 -112.5 Q98 -107 72 -90 Q55 -79 42 -64 Q29 -49 18 -32 Q1 -6 -8.5 22.5 Q-18 51 -23 81 Q-28 113 -28 146 Q-28 179 -24 211 Q-14 286 11.5 353 Q37 420 79 483 Q112 532 153.5 572.5 Q195 613 247 643 Q289 666 333.5 679.5 Q378 693 427 692 Q447 691 467 687.5 Q487 684 506 676 Q575 647 601 573 Q612 538 613.5 502.5 Q615 467 608.5 432.5 Q602 398 589.5 365 Q577 332 561 302 Q492 176 382 89 Q360 72 336.5 58.5 Q313 45 287 35 Q270 29 252.5 26.5 Q235 24 217 27 Q193 30 178 46.5 Q163 63 161 87 Q160 108 164.5 127 Q169 146 177 166 Q188 198 204 227 Q220 256 237 285 Q241 293 243 296 Z M252 309 Q255 315 259 319 Q265 328 270.5 337 Q276 346 282 355 Q304 387 326 418.5 Q348 450 370 482 Q381 499 391 516.5 Q401 534 409 553 Q417 575 416 592 Q416 609 398 608 Q369 600 346 586 Q323 572 301 552 Q250 504 225 443 Q220 429 216.5 414 Q213 399 213 384 Q213 336 252 309 Z " />
<glyph glyph-name="R" unicode="R" horiz-adv-x="607" d="M101 284 Q89 271 66 269 Q13 263 -22 307 Q-38 327 -46 349.5 Q-54 372 -56 396 Q-58 426 -53 455 Q-48 484 -38 511 Q-17 573 30 622 Q77 671 139 688 Q183 700 229 690 Q257 684 277 665 Q287 655 291.5 643.5 Q296 632 298 618 Q301 588 295 561 Q291 541 286.5 520.5 Q282 500 277 485 Q306 518 328 541.5 Q350 565 373 585 Q390 599 408 611 Q426 623 447 631 Q485 646 525 639 Q549 635 565.5 621 Q582 607 593 584 Q599 568 601 551.5 Q603 535 602 518 Q600 489 592 463 Q584 437 572 412 Q552 369 523 334 Q494 299 459 269 Q435 249 409.5 231.5 Q384 214 355 201 Q347 197 339.5 194 Q332 191 324 188 Q322 187 319.5 187 Q317 187 315 185 Q319 180 321.5 174.5 Q324 169 328 164 Q345 139 360 114.5 Q375 90 392 65 Q420 23 454 -14 Q482 -42 514.5 -63 Q547 -84 595 -87 Q601 -86 607.5 -84.5 Q614 -83 615 -85 Q615 -91 614 -93 Q613 -95 608 -96 Q584 -98 565 -95 Q546 -92 524 -84 Q494 -72 469.5 -53 Q445 -34 423 -10 Q406 8 392.5 27.5 Q379 47 365 67 Q348 93 330.5 120 Q313 147 296 174 Q294 178 291 180 Q257 175 223.5 178 Q190 181 158 203 Q139 165 116.5 120.5 Q94 76 71 29.5 Q48 -17 26 -62 Q4 -107 -15 -144 Q-26 -145 -28.5 -144 Q-31 -143 -36 -137 Q-34 -133 -32.5 -129.5 Q-31 -126 -29 -122 Q-20 -100 -8.5 -73.5 Q3 -47 15 -19 Q27 9 38.5 35.5 Q50 62 59 84 Q65 99 73 117 Q81 135 89 153 Q97 171 105.5 188.5 Q114 206 121 221 Q123 225 124 228 Q125 231 127 234 Q125 237 123.5 240 Q122 243 120 246 Q112 259 107.5 272 Q103 285 103 300 Q104 327 130 331 Q144 333 155 331 Q166 329 175 326 Q179 331 181.5 336 Q184 341 188 346 Q208 378 221 413.5 Q234 449 247 485 Q255 507 261 529 Q267 551 271 574 Q277 607 269 636 Q261 660 238 672 Q223 679 208.5 681 Q194 683 179 681 Q155 678 133 669 Q111 660 91 646 Q-6 577 -30 458 Q-35 432 -34.5 406.5 Q-34 381 -26 355 Q-21 338 -12.5 323 Q-4 308 11 297 Q22 288 34 282.5 Q46 277 60 279 Q72 279 81.5 281.5 Q91 284 101 284 Z M206 308 Q212 303 217.5 298.5 Q223 294 228 289 Q248 270 265.5 249.5 Q283 229 299 207 Q303 202 304.5 201.5 Q306 201 311 203 Q323 208 335 213 Q347 218 359 225 Q473 290 538 408 Q554 437 564 468 Q574 499 574 534 Q576 569 559 598 Q551 613 537.5 620.5 Q524 628 507 629 Q493 629 480.5 625.5 Q468 622 457 617 Q437 609 419.5 596.5 Q402 584 385 569 Q356 544 331.5 515.5 Q307 487 284 456 Q269 435 255 414 Q241 393 232 367 Q226 352 219.5 337.5 Q213 323 206 308 Z M198 292 Q189 272 180.5 254 Q172 236 163 218 Q184 198 217.5 191.5 Q251 185 282 195 Q263 221 243.5 245.5 Q224 270 198 292 Z M137 251 Q145 268 152.5 282.5 Q160 297 168 312 Q160 316 151 319 Q141 321 133 316.5 Q125 312 123 302 Q121 289 125 277 Q129 265 137 251 Z " />
<glyph glyph-name="S" unicode="S" horiz-adv-x="420" d="M276 495 Q266 476 257 458 Q248 440 240 420 Q237 410 233 397.5 Q229 385 228.5 372.5 Q228 360 231 348.5 Q234 337 245 330 Q255 323 263 327 Q284 334 303 350 Q345 388 370.5 441.5 Q396 495 408 546 Q413 568 414.5 589 Q416 610 411 632 Q402 676 360 691 Q343 696 326 698 Q309 700 291 699 Q253 696 217 683.5 Q181 671 148 651 Q105 625 69.5 590.5 Q34 556 8 512 Q-6 489 -15.5 464 Q-25 439 -28 412 Q-34 356 4 317 Q17 303 32 293 Q47 283 63 274 Q80 265 96 256 Q112 247 129 237 Q150 224 170 210 Q190 196 207 177 Q224 158 232 136.5 Q240 115 237 89 Q234 66 225 45 Q210 7 185 -22.5 Q160 -52 127 -75 Q102 -92 75 -103.5 Q48 -115 18 -120 Q3 -122 -11.5 -122 Q-26 -122 -41 -118 Q-72 -110 -86 -85.5 Q-100 -61 -92 -30 Q-81 5 -52 34 Q-39 47 -19.5 63.5 Q0 80 22 94.5 Q44 109 65.5 118 Q87 127 103 124 Q110 123 109 114 Q108 106 98 107 L98 117 Q81 111 62.5 100.5 Q44 90 26 77.5 Q8 65 -8 51 Q-24 37 -36 24 Q-51 6 -64.5 -16 Q-78 -38 -73 -61 Q-69 -87 -51 -98 Q-33 -109 -13 -108 Q5 -107 21.5 -102 Q38 -97 54 -89 Q91 -72 121 -46 Q151 -20 173 15 Q184 32 191.5 49.5 Q199 67 202 87 Q208 135 179 169 Q167 183 152.5 194.5 Q138 206 122 216 Q103 227 84.5 238 Q66 249 46 260 Q32 268 18 277.5 Q4 287 -9 298 Q-20 308 -29 318.5 Q-38 329 -45 343 Q-53 360 -55 378.5 Q-57 397 -55 416 Q-51 446 -40.5 473.5 Q-30 501 -14 526 Q55 635 173 686 Q248 718 330 710 Q361 707 384 696 Q424 676 434 633 Q439 611 439 590 Q439 569 434 547 Q428 518 418 489 Q408 460 394 433 Q380 406 362.5 382 Q345 358 324 341 Q306 325 287 318 Q269 310 245 313 Q231 316 220.5 328.5 Q210 341 208 357 Q206 372 209 386.5 Q212 401 217 415 Q225 438 237.5 456.5 Q250 475 264 492 Q270 498 276 495 Z " />
<glyph glyph-name="T" unicode="T" horiz-adv-x="222" d="M636 704 Q636 702 625.5 703 Q615 704 608 705 Q568 707 530 707 Q492 707 453 706 Q395 704 337.5 698.5 Q280 693 221 684 Q179 677 138.5 668.5 Q98 660 58 649 Q31 641 -3 630.5 Q-37 620 -69 605 Q-101 590 -127.5 570 Q-154 550 -167 525 Q-179 496 -160 474 Q-148 464 -132.5 460 Q-117 456 -101 455.5 Q-85 455 -69.5 458 Q-54 461 -41 464 Q4 475 44.5 495.5 Q85 516 121 545 Q152 571 179.5 596.5 Q207 622 236 647 Q243 653 247.5 653.5 Q252 654 256 652 Q262 650 262 644.5 Q262 639 260 634 Q254 622 248.5 610 Q243 598 237 587 Q179 469 133.5 363.5 Q88 258 50 152 Q12 42 -16 -70 Q-19 -82 -21.5 -96 Q-24 -110 -22 -117 Q-24 -123 -28 -123 Q-34 -124 -38.5 -120.5 Q-43 -117 -43 -110 Q-43 -104 -43 -99 Q-43 -94 -41 -86 Q-25 -17 -6 48.5 Q13 114 33 179 Q68 289 106 376 Q144 463 189 544 Q193 551 198.5 562.5 Q204 574 210 585.5 Q216 597 221 607.5 Q226 618 230 624 Q222 616 215 609.5 Q208 603 200 595 Q171 569 141 545.5 Q111 522 78 502 Q51 486 23 473.5 Q-5 461 -34 453 Q-58 447 -83 445.5 Q-108 444 -133 449 Q-146 452 -159.5 458.5 Q-173 465 -180 476 Q-196 500 -185 526 Q-170 556 -140.5 579 Q-111 602 -76 618.5 Q-41 635 -4.5 646 Q32 657 60 665 Q106 676 150 684.5 Q194 693 239 699 Q284 705 327 709 Q370 713 415 715 Q453 717 492.5 718.5 Q532 720 571 718 Q576 718 587.5 717.5 Q599 717 610.5 715.5 Q622 714 630 711 Q638 708 636 704 Z " />
<glyph glyph-name="U" unicode="U" horiz-adv-x="483" d="M105 333 Q133 353 155 371.5 Q177 390 203 415 Q207 418 208.5 418.5 Q210 419 216 417 Q219 414 213 405.5 Q207 397 202 391 Q175 359 143 333.5 Q111 308 70 294 Q63 291 62 285 Q51 250 42 215 Q33 180 25 144 Q20 121 17 97.5 Q14 74 13 51 Q11 26 16 2 Q18 -7 21.5 -15 Q25 -23 32 -30 Q43 -40 57 -34 Q79 -23 95 -7 Q112 8 126.5 25 Q141 42 155 59 Q181 91 205.5 125 Q230 159 253 194 Q295 257 332.5 321.5 Q370 386 404 454 Q411 474 426 510 Q441 546 456 582 Q471 618 483.5 646.5 Q496 675 498 681 Q502 689 510 689 Q523 687 523.5 682 Q524 677 521 669 Q515 652 506.5 629.5 Q498 607 491 591 Q458 504 430 425.5 Q402 347 374 259 Q332 131 299 1 Q292 -31 284.5 -65 Q277 -99 272 -131 Q246 -134 249 -110 Q251 -94 253 -78 Q255 -62 259 -46 Q279 37 298 115.5 Q317 194 341 272 Q346 290 352 308.5 Q358 327 363 343 Q326 281 289.5 220 Q253 159 211 100 Q194 76 177 52.5 Q160 29 140 7 Q129 -5 116 -16.5 Q103 -28 89 -38 Q79 -44 68.5 -47.5 Q58 -51 46 -50 Q21 -50 8 -32 Q-7 -14 -12 14 Q-15 31 -15 48.5 Q-15 66 -13 83 Q-10 119 -2.5 154.5 Q5 190 14 226 Q18 240 22.5 256 Q27 272 31 285 Q24 285 17.5 285.5 Q11 286 4 287 Q-32 292 -54 312.5 Q-76 333 -86 366 Q-92 391 -89.5 418 Q-87 445 -79.5 470.5 Q-72 496 -60.5 520 Q-49 544 -36 565 Q-23 587 -4.5 613.5 Q14 640 35.5 662.5 Q57 685 81 699 Q105 713 129 710 Q150 706 155 683 Q158 666 158 647 Q157 627 153.5 607.5 Q150 588 145 568 Q132 517 118 471.5 Q104 426 89 375 Q85 364 83 355.5 Q81 347 77 336 Q72 319 70 312 Q73 313 78 316 Q83 319 88 322 Q93 325 98 328 Q103 331 105 333 Z M36 301 Q37 304 40 314 Q43 324 44 326 Q50 346 53.5 357 Q57 368 63 387 Q73 419 85 454.5 Q97 490 107 525.5 Q117 561 124 595.5 Q131 630 131 660 Q131 667 130.5 674 Q130 681 127 689 Q123 699 113 696 Q96 692 84.5 682.5 Q73 673 62 663 Q21 621 -11 567 Q-26 542 -38.5 516.5 Q-51 491 -59 463 Q-66 442 -68.5 421 Q-71 400 -67 378 Q-61 334 -26 311 Q-12 303 3 299.5 Q18 296 36 301 Z " />
<glyph glyph-name="V" unicode="V" horiz-adv-x="431" d="M74 265 Q68 265 63 265 Q58 265 52 266 Q25 270 6.5 286 Q-12 302 -20 327 Q-34 360 -29.5 401.5 Q-25 443 -10.5 484 Q4 525 24.5 562.5 Q45 600 63 626 Q80 649 97 668 Q114 687 134 701 Q145 709 157.5 710.5 Q170 712 183 710 Q200 705 203 688 Q206 671 205 656 Q204 630 199.5 605.5 Q195 581 188 556 Q175 508 162.5 462 Q150 416 137 368 Q131 345 125 325.5 Q119 306 115 290 Q144 303 168.5 315.5 Q193 328 216 347 Q221 349 223.5 351 Q226 353 231 348 Q232 344 224.5 336.5 Q217 329 210 324 Q168 292 117 275 Q111 273 108 266 Q91 200 75.5 138.5 Q60 77 47 14 Q34 -38 33 -85 Q33 -91 33.5 -97 Q34 -103 35 -108 Q37 -116 38 -121 Q43 -116 46 -113 Q49 -110 53 -107 Q67 -92 79 -75 Q91 -58 102 -41 Q136 8 168 57.5 Q200 107 230 159 Q254 200 276.5 241.5 Q299 283 321 325 Q347 377 372.5 428 Q398 479 424 531 Q449 582 473.5 632 Q498 682 523 733 Q525 735 527 739 Q529 743 534 741 Q542 739 539.5 732.5 Q537 726 535 721 Q527 703 519 685 Q511 667 503 649 Q470 579 437.5 509 Q405 439 371 369 Q344 311 314.5 255 Q285 199 254 143 Q232 103 210 64 Q188 25 163 -13 Q146 -39 128.5 -64.5 Q111 -90 89 -113 Q77 -127 62 -137 Q54 -143 45 -144 Q36 -145 27.5 -141.5 Q19 -138 13 -130.5 Q7 -123 6 -112 Q1 -92 3.5 -61.5 Q6 -31 12 3.5 Q18 38 26 74 Q34 110 42 141 Q50 170 58.5 205 Q67 240 74 265 Z M172 697 Q164 696 157.5 693 Q151 690 145 686 Q120 669 99 642 Q72 609 51.5 572 Q31 535 17 494 Q3 454 -5 410 Q-13 366 1 327 Q10 304 28 291 Q46 278 69 279 Q77 280 78.5 281 Q80 282 82 290 Q98 344 113 398 Q128 452 144 507 Q156 552 168 595 Q180 638 177 680 Q176 685 175 689 Q174 693 172 697 Z " />
<glyph glyph-name="W" unicode="W" horiz-adv-x="781" d="M87 236 Q79 237 72.5 237.5 Q66 238 59 240 Q34 246 18 262 Q2 278 -7 301 Q-15 322 -16 344 Q-17 366 -13 387 Q-9 408 -0.5 428.5 Q8 449 18 467 Q37 502 62.5 536.5 Q88 571 117 598 Q137 617 159 629 Q181 641 207 638 Q222 635 225 621 Q228 609 228 596 Q227 578 223.5 560.5 Q220 543 215 526 Q205 487 192.5 449 Q180 411 167 373 Q157 344 148.5 317 Q140 290 131 260 Q147 266 162 273.5 Q177 281 191 289 Q205 297 218 304.5 Q231 312 247 319 Q253 314 245.5 308 Q238 302 233 298 Q222 291 212 284 Q202 277 191 271 Q177 262 161.5 254 Q146 246 129 241 Q126 240 125.5 240 Q125 240 124 237 Q111 189 97.5 141 Q84 93 79 45 Q77 29 77 14.5 Q77 0 79 -15 Q81 -23 83 -30 Q85 -37 90 -43 Q95 -50 98.5 -51 Q102 -52 109 -47 Q123 -39 134 -28 Q145 -17 156 -6 Q176 17 192.5 41.5 Q209 66 225 92 Q257 145 285.5 199 Q314 253 341 308 Q371 368 401 427 Q431 486 462 546 Q464 551 467 555.5 Q470 560 472 565 Q476 571 482 571 Q496 571 496.5 565 Q497 559 496 557 Q493 549 490 540 Q487 531 483 522 Q464 475 445 428.5 Q426 382 407 334 Q388 285 372 235 Q356 185 345 133 Q338 104 334 74.5 Q330 45 331 15 Q332 1 334.5 -12.5 Q337 -26 342 -39 Q350 -58 366 -68 Q380 -79 397 -73 Q441 -58 475 -23.5 Q509 11 535 44 Q570 87 599.5 133 Q629 179 655 228 Q694 304 722.5 381.5 Q751 459 765 540 Q769 567 766 591 Q763 615 761 639 Q760 641 758.5 648.5 Q757 656 756 659 Q754 653 750 654 Q745 656 747 663 Q749 669 754 669 Q761 670 765 661 Q777 633 779.5 600.5 Q782 568 780 539 Q778 517 773.5 495 Q769 473 764 452 Q743 372 711.5 298 Q680 224 638 154 Q600 89 560 33.5 Q520 -22 469 -61 Q456 -71 442 -78.5 Q428 -86 412 -90 Q393 -94 375.5 -91.5 Q358 -89 342 -77 Q313 -53 306.5 -17 Q300 19 302 51 Q304 86 311.5 120 Q319 154 329 188 Q337 215 342.5 232 Q348 249 356 276 Q356 277 357.5 281 Q359 285 360.5 289.5 Q362 294 363 298.5 Q364 303 364 304 Q362 299 359.5 295 Q357 291 355 287 Q331 241 307.5 196 Q284 151 260 106 Q243 75 224.5 45 Q206 15 184 -13 Q174 -25 163.5 -36 Q153 -47 140 -57 Q123 -72 98 -70 Q79 -67 66 -53 Q51 -37 48 -13 Q45 4 45 21 Q45 38 47 55 Q51 89 58 122 Q65 155 74 187 Q78 200 80.5 211 Q83 222 87 236 Z M91 249 Q108 299 124.5 347.5 Q141 396 158 446 Q167 472 175 497 Q183 522 191 548 Q199 577 200 604 Q200 609 199.5 614 Q199 619 197 624 Q179 620 163.5 610 Q148 600 134.5 586.5 Q121 573 109.5 558.5 Q98 544 88 532 Q71 509 54.5 483.5 Q38 458 26.5 431 Q15 404 9.5 376 Q4 348 9 321 Q13 300 23 283 Q33 266 53 256 Q73 246 91 249 Z " />
<glyph glyph-name="X" unicode="X" horiz-adv-x="466" d="M193 404 Q186 397 179.5 390.5 Q173 384 166 378 Q143 358 119.5 339.5 Q96 321 68 307 Q48 298 27.5 292.5 Q7 287 -16 288 Q-48 290 -70.5 308.5 Q-93 327 -101 359 Q-106 378 -105.5 397 Q-105 416 -102 436 Q-98 462 -89.5 487.5 Q-81 513 -69 537 Q-53 568 -33 594.5 Q-13 621 14 643 Q29 654 45.5 661.5 Q62 669 82 669 Q93 670 103 668.5 Q113 667 123 662 Q133 657 140.5 649.5 Q148 642 155 634 Q169 614 178 591.5 Q187 569 194 546 Q196 538 199.5 526 Q203 514 206 501.5 Q209 489 212 478 Q215 467 217 460 Q234 483 250.5 505.5 Q267 528 281 551 Q288 563 294.5 574.5 Q301 586 308 597 Q311 600 311 600 Q317 603 317 595 Q314 575 305 557 Q294 532 279 510.5 Q264 489 248 468 L224 438 Q222 436 222 431 Q225 416 228 401 Q231 386 233 371 Q238 342 242.5 312.5 Q247 283 252 254 Q254 240 256 227.5 Q258 215 260 202 Q261 204 267 213.5 Q273 223 280 233.5 Q287 244 292.5 252.5 Q298 261 299 263 Q314 286 333 317 Q352 348 372.5 382.5 Q393 417 413.5 452 Q434 487 451.5 517 Q469 547 482.5 570 Q496 593 502 603 Q513 621 523.5 639.5 Q534 658 551 670 Q553 672 556 671.5 Q559 671 561 671 Q564 670 565 670 Q555 657 547 643.5 Q539 630 531 616 Q520 597 509 578 Q498 559 487 539 Q476 520 457.5 487 Q439 454 417 415.5 Q395 377 371 336 Q347 295 326.5 260 Q306 225 290 200 Q274 175 268 167 Q266 163 266 159 Q270 139 273.5 120 Q277 101 282 82 Q290 41 301.5 4.5 Q313 -32 325 -68 Q326 -72 331 -75 Q335 -77 334 -81 Q332 -85 329 -85 Q318 -85 312 -78 Q309 -74 306 -67.5 Q303 -61 301 -55 Q293 -34 286 -12.5 Q279 9 273 31 Q265 57 257.5 83.5 Q250 110 244 131 Q241 127 238.5 123.5 Q236 120 233 116 Q189 53 139 -2 Q102 -39 69.5 -66.5 Q37 -94 2 -105 Q-8 -107 -18 -107.5 Q-28 -108 -38 -104 Q-50 -99 -57 -87 Q-64 -75 -64 -61 Q-63 -42 -56 -23.5 Q-49 -5 -41 6 Q-36 13 -32 16 Q-28 19 -20 17 Q-18 17 -16 15.5 Q-14 14 -14 13 Q-13 10 -14.5 8.5 Q-16 7 -18 9 Q-22 13 -25 10.5 Q-28 8 -30 4 Q-39 -13 -45.5 -30 Q-52 -47 -50 -66 Q-48 -77 -43.5 -85 Q-39 -93 -28 -96 Q-24 -98 -20 -97.5 Q-16 -97 -11 -96 Q12 -89 32.5 -75.5 Q53 -62 71 -45 Q89 -28 105 -10 Q121 8 135 25 Q147 40 156.5 52 Q166 64 174.5 75.5 Q183 87 191.5 99 Q200 111 211 127 Q211 128 215 133.5 Q219 139 223.5 145.5 Q228 152 232 157.5 Q236 163 236 163 Q236 162 235.5 166 Q235 170 234 175 Q228 202 223 229 Q218 256 213 284 Q208 313 203.5 342.5 Q199 372 194 401 Q194 403 193 404 Z M-85 400 Q-84 383 -82 367.5 Q-80 352 -73 338 Q-59 312 -35 304 Q-21 299 -8 299.5 Q5 300 18 303 Q41 310 60.5 320 Q80 330 99 344 Q124 361 145.5 381.5 Q167 402 187 425 Q189 427 189 431 Q183 463 176 493.5 Q169 524 160 555 Q153 575 146 594.5 Q139 614 127 631 Q116 648 101.5 654 Q87 660 67 652 Q50 646 35.5 635.5 Q21 625 8 612 Q-10 593 -24.5 571.5 Q-39 550 -51 527 Q-82 463 -85 400 Z " />
<glyph glyph-name="Y" unicode="Y" horiz-adv-x="420" d="M149 446 Q147 441 142 436 Q137 431 132 426 Q120 415 107 405.5 Q94 396 80 388 Q66 380 51.5 373.5 Q37 367 22 362 Q21 348 21 333 Q21 318 21 304 Q21 293 22.5 281 Q24 269 27.5 257 Q31 245 37 235 Q43 225 52 220 Q60 216 68 219 Q79 224 88 230 Q97 236 105 244 Q124 261 140.5 281 Q157 301 172 321 Q185 339 197.5 357.5 Q210 376 222 395 Q264 461 300 526.5 Q336 592 374 657 Q376 660 377.5 662.5 Q379 665 381 667 Q389 678 404 675 L406 675 Q414 674 416.5 672 Q419 670 419 662 Q419 654 419 645 Q419 636 417 627 Q407 561 391.5 498.5 Q376 436 356 375 Q333 306 314 257 Q295 208 275 163 Q246 99 204 37 Q198 29 192 20 Q186 11 180 3 Q196 -9 211.5 -18.5 Q227 -28 241 -38 Q243 -39 243.5 -39 Q244 -39 246 -40 Q248 -40 247.5 -42.5 Q247 -45 245 -45 Q238 -45 235 -44 Q227 -40 220.5 -36 Q214 -32 206 -27 Q198 -22 189.5 -16.5 Q181 -11 172 -6 Q149 -34 124.5 -58 Q100 -82 71 -101 Q32 -126 -11 -132 Q-37 -134 -61.5 -130 Q-86 -126 -107 -110 Q-121 -99 -130.5 -86.5 Q-140 -74 -145 -57 Q-151 -36 -146.5 -17 Q-142 2 -130 19 Q-116 39 -96 51 Q-76 63 -52 69 Q14 85 80 59 Q100 51 121 39.5 Q142 28 159 16 Q194 67 219.5 116 Q245 165 268 219 Q311 331 344 441 Q359 494 371.5 545 Q384 596 394 648 Q393 648 393 649 Q382 635 374 619.5 Q366 604 357 589 Q331 544 307.5 504 Q284 464 261 423 Q238 385 215 348.5 Q192 312 164 277 Q152 261 139 246.5 Q126 232 109 220 Q101 213 92.5 208.5 Q84 204 74 203 Q35 197 13 230 Q5 242 1 255 Q-3 268 -5 282 Q-8 303 -8 321.5 Q-8 340 -8 359 Q-12 359 -15.5 358.5 Q-19 358 -23 359 Q-41 360 -56.5 365.5 Q-72 371 -86 385 Q-108 412 -111.5 443.5 Q-115 475 -106.5 507 Q-98 539 -82.5 569 Q-67 599 -50 622 Q-41 635 -28 651 Q-15 667 -1 680.5 Q13 694 28.5 704 Q44 714 59 716 Q64 717 67.5 716.5 Q71 716 75 715 Q87 710 87 697 Q87 687 86.5 678 Q86 669 84 660 Q78 632 71.5 604.5 Q65 577 58 550 Q53 527 47.5 505.5 Q42 484 37 461 Q33 441 30 422 Q27 403 24 381 Q56 394 84.5 411.5 Q113 429 139 447 Q143 449 146 449 Q149 449 149 446 Z M152 6 Q141 14 129.5 20 Q118 26 107 32 Q86 43 64 51.5 Q42 60 18 62 Q-10 66 -36.5 61 Q-63 56 -86 39 Q-116 17 -126 -15 Q-133 -39 -124 -62 Q-115 -85 -97 -100 Q-62 -128 -15 -120 Q2 -116 17.5 -109 Q33 -102 48 -93 Q83 -71 113 -38 Q124 -27 133 -16 Q142 -5 152 6 Z M61 702 Q45 696 33.5 686.5 Q22 677 11 666 Q-43 610 -75 536 Q-82 519 -87 500 Q-92 481 -92.5 462.5 Q-93 444 -89 427 Q-85 410 -74 397 Q-62 381 -44.5 375 Q-27 369 -7 371 Q1 431 14.5 488 Q28 545 43 602 Q51 628 56.5 652 Q62 676 61 702 Z " />
<glyph glyph-name="Z" unicode="Z" horiz-adv-x="670" d="M696 584 Q688 583 679.5 582 Q671 581 663 580 Q621 575 580 571 Q539 567 497 567 Q464 568 431.5 570 Q399 572 367 577 Q353 579 338 582 Q323 585 309 587 Q306 588 304 585 Q289 560 271.5 537.5 Q254 515 233 495 Q206 469 174.5 453 Q143 437 106 432 Q85 429 64 430 Q43 431 23 439 Q-6 451 -22 477 Q-38 503 -34 534 Q-32 554 -23 569.5 Q-14 585 0 597 Q12 608 26 614.5 Q40 621 56 625 Q79 631 102 632 Q125 633 148 631 Q178 629 207.5 623.5 Q237 618 266 612 Q271 610 277 609.5 Q283 609 288 607 Q292 606 295 610 Q299 618 302 624 Q305 630 309 638 Q314 648 317 653.5 Q320 659 325 666 Q328 671 331.5 670.5 Q335 670 336 668 Q335 657 328.5 637.5 Q322 618 314 602 Q319 600 327.5 599 Q336 598 350 595 Q379 590 398.5 587 Q418 584 446 581 Q475 579 503.5 578.5 Q532 578 561 581 Q587 584 614 587 Q641 590 667 593 Q678 595 689 595.5 Q700 596 711 594 Q724 592 721 580 Q719 575 717.5 569.5 Q716 564 713 559 Q689 524 660 488 Q609 425 559.5 364 Q510 303 460 246 Q410 189 356 137 Q302 85 242 41 Q263 32 284.5 24.5 Q306 17 328 9 Q381 -9 432 -20 Q483 -31 536 -39 Q544 -40 555.5 -41.5 Q567 -43 578.5 -44 Q590 -45 599.5 -44.5 Q609 -44 614 -41 Q616 -40 620 -39.5 Q624 -39 624 -43 Q622 -53 613 -55 Q608 -56 594 -56.5 Q580 -57 573 -56 Q495 -49 432 -35.5 Q369 -22 305 0 Q286 7 267.5 14 Q249 21 231 28 Q227 29 223 27 Q204 15 185.5 3 Q167 -9 148 -20 Q98 -51 46 -67 Q22 -75 -2 -80 Q-26 -85 -51 -83 Q-68 -81 -84 -77.5 Q-100 -74 -114 -63 Q-128 -53 -136.5 -39.5 Q-145 -26 -146 -8 Q-147 8 -141.5 21.5 Q-136 35 -126 48 Q-108 71 -84 83 Q-60 95 -31 100 Q-2 105 26.5 102.5 Q55 100 84 93 Q105 88 126 81.5 Q147 75 167 68 Q171 66 179 63.5 Q187 61 195 58 Q203 55 209 53.5 Q215 52 215 52 Q233 68 253.5 84.5 Q274 101 292 117 Q394 214 485.5 324 Q577 434 665 540 Q671 548 675.5 553.5 Q680 559 686 567 Q688 569 692 576 Q696 583 696 584 Z M284 592 Q273 594 262 596.5 Q251 599 240 601 Q217 606 194.5 610.5 Q172 615 149 617 Q126 619 103.5 618 Q81 617 59 609 Q13 593 -7 552 Q-14 537 -14 521 Q-14 505 -7.5 490 Q-1 475 11 463.5 Q23 452 41 446 Q58 441 75.5 441 Q93 441 111 445 Q136 451 157 463.5 Q178 476 198 492 Q219 509 236.5 529 Q254 549 270 571 Q274 576 277 581.5 Q280 587 284 592 Z M199 40 Q194 42 190.5 43 Q187 44 183 46 Q154 57 123.5 66.5 Q93 76 62 84 Q39 89 16 90.5 Q-7 92 -31 87 Q-54 82 -73.5 71.5 Q-93 61 -108 42 Q-124 23 -127 -1 Q-129 -22 -118.5 -37.5 Q-108 -53 -89 -62 Q-72 -70 -55 -70.5 Q-38 -71 -20 -68 Q6 -63 30 -54.5 Q54 -46 77 -35 Q127 -11 171 20 Q178 25 184.5 30 Q191 35 199 40 Z " />
<glyph glyph-name="bracketleft" unicode="&#x5b;" horiz-adv-x="194" d="M282 834 Q276 832 274 832 Q268 833 262 833 Q256 833 250 833 Q236 835 230 822 Q222 806 216 791 Q204 754 191.5 718 Q179 682 167 645 Q133 545 104 446.5 Q75 348 49 247 Q40 211 31.5 175 Q23 139 15 103 Q13 95 11.5 86.5 Q10 78 8 69 Q5 53 22 47 Q32 45 41.5 43 Q51 41 62 39 Q66 38 75 40 Q78 40 78 36 Q76 29 70 29 Q62 29 56.5 29.5 Q51 30 40 31 Q23 32 5 37 Q-4 40 -11 49 Q-18 58 -16 71 Q-13 87 -10 102.5 Q-7 118 -4 133 L14 211 Q46 348 86 479.5 Q126 611 171 742 Q179 762 186 781 Q193 800 201 819 Q203 824 206 827.5 Q209 831 212 835 Q217 840 223 841.5 Q229 843 235 844 Q247 845 258 844 Q269 843 280 837 L282 835 L282 834 Z " />
<glyph glyph-name="backslash" unicode="&#x5c;" horiz-adv-x="233" d="M163 5 Q159 4 155 6.5 Q151 9 149 17 Q146 32 143.5 46.5 Q141 61 138 76 Q121 165 108 249 Q95 333 84.5 415 Q74 497 65 579 Q56 661 48 746 Q46 769 43.5 793.5 Q41 818 41 837 Q41 838 41.5 840 Q42 842 43 843.5 Q44 845 46 845 Q48 845 50 841 Q60 812 63.5 783.5 Q67 755 71 727 Q89 593 105 466.5 Q121 340 140 213 Q143 193 145 177 Q147 161 148.5 146 Q150 131 152 115.5 Q154 100 157 81 Q159 70 160.5 58.5 Q162 47 164 35 Q164 34 165 29 Q166 24 166.5 19 Q167 14 166.5 9.5 Q166 5 163 5 Z " />
<glyph glyph-name="bracketright" unicode="&#x5d;" horiz-adv-x="182" d="M-81 23 Q-73 25 -65.5 27.5 Q-58 30 -50 32 Q-44 34 -38 35.5 Q-32 37 -26 39 Q-10 44 -4 61 Q-1 74 5.5 95.5 Q12 117 16 130 Q40 212 62.5 288.5 Q85 365 106 440 Q127 515 148 589.5 Q169 664 190 741 Q193 754 196 767 Q199 780 202 793 Q203 798 202 802 Q201 806 196 808 Q188 811 179 814 Q170 817 159 819 Q151 821 138 822.5 Q125 824 126 828 Q126 830 131 830 Q136 830 139 830 Q156 829 171 825.5 Q186 822 202 817 Q231 808 223 777 Q178 593 126 415.5 Q74 238 23 58 Q19 46 11 37.5 Q3 29 -10 27 Q-23 24 -36 21.5 Q-49 19 -62 16 Q-67 15 -72.5 15.5 Q-78 16 -81 23 Z " />
<glyph glyph-name="asciicircum" unicode="&#x5e;" horiz-adv-x="139" d="M134 772 Q122 759 114.5 749.5 Q107 740 101 731.5 Q95 723 89 714 Q83 705 75 694 Q75 694 72.5 689.5 Q70 685 66.5 679.5 Q63 674 60 670 Q57 666 57 666 Q39 666 47 680 Q54 695 62.5 711 Q71 727 81 742 Q91 757 101 769.5 Q111 782 121 789 Q127 794 133.5 795 Q140 796 146 795 Q155 793 157.5 788 Q160 783 158 773 Q156 757 152.5 740.5 Q149 724 141 702 Q138 695 134 685.5 Q130 676 122 676 Q117 676 116.5 682.5 Q116 689 117.5 697 Q119 705 121.5 712.5 Q124 720 125 723 Q131 746 134 772 Z " />
<glyph glyph-name="underscore" unicode="&#x5f;" horiz-adv-x="238" d="M177 151 Q184 145 180 139.5 Q176 134 175 133 L-11 133 Q-17 133 -17.5 136 Q-18 139 -16 142 Q-14 146 -9 151 Q-7 152 22 152 Q51 152 86 152 Q126 152 177 151 Z " />
<glyph glyph-name="grave" unicode="&#x60;" horiz-adv-x="106" d="M56 828 Q63 830 67 828 Q71 826 75 821 Q83 809 89 793 Q92 786 95 778.5 Q98 771 101 764 Q103 757 101 755 Q92 753 88 757 Q84 761 81 767 L60 809 Q58 813 56 819.5 Q54 826 56 828 Z " />
<glyph glyph-name="a" unicode="a" horiz-adv-x="386" d="M394 289 Q384 269 368.5 242 Q353 215 333.5 185.5 Q314 156 292 125.5 Q270 95 248.5 69.5 Q227 44 206.5 24.5 Q186 5 170 -2 Q141 -17 115 0 Q94 16 91 42.5 Q88 69 90 91 Q91 104 94.5 123 Q98 142 102 159 Q106 176 108.5 188 Q111 200 111 200 L105 191 Q93 171 81 151.5 Q69 132 56 112 Q40 87 19 80.5 Q-2 74 -16 88 Q-28 100 -32.5 115.5 Q-37 131 -37 147.5 Q-37 164 -34.5 180.5 Q-32 197 -29 211 Q-19 256 -1 297.5 Q17 339 42 378 Q55 398 70 416 Q85 434 104 449 Q152 487 210 486 Q221 485 231 483 Q241 481 250 475 Q262 467 268.5 457 Q275 447 279 434 Q284 408 280 382.5 Q276 357 265 334 Q254 311 237.5 291 Q221 271 202 256 Q185 243 163 237 Q159 236 158 232 Q151 212 141.5 183 Q132 154 125.5 123 Q119 92 119 63 Q119 34 131 16 Q135 10 138 8 Q140 7 142.5 7.5 Q145 8 147 8 Q160 14 175 28 Q233 86 285.5 156 Q338 226 386 300 L392 298 Q396 295 394 289 Z M164 248 Q191 259 209 277 Q241 309 257.5 350.5 Q274 392 264 436 Q259 453 246 463.5 Q233 474 215 475 Q196 476 179.5 470.5 Q163 465 147 455 Q127 443 111 426.5 Q95 410 81 390 Q63 364 49 335.5 Q35 307 24 278 Q23 276 25 272 Q34 257 54 249 Q66 244 79 242 Q92 240 105 239 Q111 239 114 244 Q122 256 129 268.5 Q136 281 144 293 Q149 299 155.5 300 Q162 301 168 301 Q171 301 173 298 Q175 295 174 292 Q173 280 169.5 269.5 Q166 259 164 248 Z M18 262 Q7 231 1 198 Q-5 165 -4 133 Q-4 125 -2.5 116.5 Q-1 108 4 101 Q7 96 9.5 97.5 Q12 99 14 101 Q27 112 36 124.5 Q45 137 54 150 Q65 166 74.5 181.5 Q84 197 94 212 Q97 217 100 221 Q103 225 105 230 Q81 232 58.5 237 Q36 242 18 262 Z " />
<glyph glyph-name="b" unicode="b" horiz-adv-x="341" d="M29 299 Q27 288 24 278.5 Q21 269 19 258 Q8 211 0 159 Q-2 140 -3.5 121 Q-5 102 -3 83 Q-2 71 0 59 Q2 47 8 36 Q10 31 13 28 Q16 25 19 21 Q20 19 25 21 Q35 29 41 42 Q50 59 54.5 77.5 Q59 96 61 115 Q62 144 58 172 Q51 201 32 228 Q29 231 25 237 Q20 247 31 250 Q43 251 56 247 Q90 238 130.5 241 Q171 244 204 254 Q227 259 251.5 266.5 Q276 274 296 282 Q319 291 341 300 Q351 299 350.5 295 Q350 291 348 290 Q298 270 245.5 251 Q193 232 142 228 Q99 222 54 233 Q53 234 52.5 233.5 Q52 233 50 234 Q53 230 55.5 227 Q58 224 60 221 Q68 208 73.5 195 Q79 182 82 167 Q87 132 83 96 Q79 60 63 29 Q58 21 52.5 14.5 Q47 8 39 6 Q27 2 14 5.5 Q1 9 -8 21 Q-16 32 -20.5 43 Q-25 54 -27 68 Q-31 91 -30.5 115 Q-30 139 -27 162 Q-24 184 -20.5 205 Q-17 226 -12 248 Q0 310 21 366 Q31 394 41.5 421.5 Q52 449 63 476 Q84 520 108 575 Q132 630 160.5 681 Q189 732 222 771.5 Q255 811 294 823 Q302 825 310 824.5 Q318 824 325 819 Q337 812 342 796 Q348 780 349 763.5 Q350 747 349 730 Q346 665 321.5 605.5 Q297 546 268 492 Q257 471 243.5 451 Q230 431 216 412 Q204 397 190.5 382.5 Q177 368 163 355 Q147 341 130 328.5 Q113 316 93 307 Q82 302 71.5 298.5 Q61 295 49 296 Q39 296 29 299 Z M30 303 Q53 298 75 309.5 Q97 321 114 332 Q143 351 167 374.5 Q191 398 211 425 Q232 454 249.5 484 Q267 514 282 546 Q296 574 306.5 602.5 Q317 631 325 662 Q330 683 332.5 704 Q335 725 335 746 Q334 760 332 774 Q330 788 325 802 Q316 819 299 813 Q295 812 287 808 Q277 803 268.5 795 Q260 787 252 779 Q235 760 221.5 740 Q208 720 195 698 Q162 640 136.5 584 Q111 528 88 472 Q76 441 65 410 Q54 379 43 347 Q39 336 36 325 Q33 314 30 303 Z " />
<glyph glyph-name="c" unicode="c" horiz-adv-x="316" d="M322 291 Q305 267 283 241 Q261 215 237 189.5 Q213 164 189.5 139.5 Q166 115 146 95 Q129 79 111.5 65 Q94 51 73 40 Q59 33 45 30 Q31 27 15 29 Q-11 32 -28 54 Q-39 67 -43 84 Q-47 101 -47 119 Q-47 137 -44.5 154.5 Q-42 172 -39 187 Q-33 212 -25.5 236 Q-18 260 -7 284 Q6 314 22 341.5 Q38 369 60 394 Q82 419 110 436 Q138 453 168 450 Q196 447 202 420 Q207 381 191 340 Q175 299 150 268 Q141 257 129 249 Q117 241 102 238 Q90 236 79 238.5 Q68 241 64 248 Q59 254 59 262 Q59 270 61 277.5 Q63 285 66 290 Q69 295 69 295 Q67 286 66.5 275 Q66 264 74 252 Q80 246 90 245.5 Q100 245 109 250 Q136 264 152 291 Q168 318 178 343 Q184 362 187.5 385 Q191 408 186 425 Q179 445 158 440 Q144 436 133 429 Q122 422 111 413 Q84 387 61.5 354 Q39 321 23 284.5 Q7 248 -3 209.5 Q-13 171 -15 135 Q-17 113 -12.5 91 Q-8 69 7 54 Q19 42 34 46 Q60 53 83 70 Q116 92 147.5 120 Q179 148 208.5 178.5 Q238 209 265 240 Q292 271 316 300 Q324 300 324 296.5 Q324 293 322 291 Z " />
<glyph glyph-name="d" unicode="d" horiz-adv-x="379" d="M213 446 Q218 444 223 443 Q228 442 233 440 Q253 433 258 408 Q260 391 257 374.5 Q254 358 249 341 Q230 291 195 254 Q172 229 142 213 Q138 211 138 208 Q130 179 123.5 149 Q117 119 112 88 Q110 70 108 52 Q106 34 107 16 Q107 -10 114 -31 Q118 -39 121 -43 Q123 -47 124.5 -47.5 Q126 -48 130 -46 Q150 -36 166 -20 Q178 -8 193 10 Q208 28 219 45 Q244 86 266 120.5 Q288 155 307.5 185.5 Q327 216 344.5 244 Q362 272 379 300 Q387 300 388 294.5 Q389 289 388 287 Q357 224 319.5 167 Q282 110 247 50 Q220 10 200 -15 Q180 -40 152 -57 Q134 -68 112 -62 Q104 -60 99 -55 Q94 -50 89 -44 Q81 -34 78.5 -22.5 Q76 -11 74 0 Q71 25 72 50 Q73 75 76 100 Q80 124 83 141 Q86 158 92 182 Q94 188 95 192.5 Q96 197 96 199 Q91 199 89.5 198.5 Q88 198 86 193 Q75 169 63 144.5 Q51 120 37 97 Q30 86 23 76.5 Q16 67 6 59 Q1 55 -3.5 51.5 Q-8 48 -13 47 Q-24 44 -34 46 Q-44 48 -52 57 Q-61 67 -64 78 Q-67 89 -68 100 Q-69 121 -65.5 141 Q-62 161 -56 181 Q-48 212 -34 240.5 Q-20 269 -3 297 Q14 323 34 347.5 Q54 372 79 392 Q96 406 115.5 417.5 Q135 429 156 437 Q158 437 163 440 Q168 443 170 443 Q171 443 174 450 Q177 457 180 463 Q193 492 201.5 512.5 Q210 533 222 562 Q233 590 244.5 617 Q256 644 267 671 Q272 683 281 704 Q290 725 299.5 748 Q309 771 318 792 Q327 813 333 825 Q335 829 339.5 834 Q344 839 352 836 Q360 834 360 828 Q360 822 357 814 Q354 808 346.5 789.5 Q339 771 328.5 746 Q318 721 306 692.5 Q294 664 283.5 637 Q273 610 264 588.5 Q255 567 251 556 Q248 548 242 531.5 Q236 515 230 498 Q224 481 219 466 Q214 451 213 446 Z M162 422 Q158 420 158 420 Q139 411 123 398.5 Q107 386 92 372 Q68 349 48.5 322 Q29 295 12 265 Q6 254 6 250.5 Q6 247 13 237 Q13 236 15 234 Q30 215 54 209 Q62 207 63.5 207.5 Q65 208 68 215 L137 365 Q143 379 149 393 Q155 407 162 422 Z M142 226 Q144 226 145 227 Q152 232 159 236.5 Q166 241 172 246 Q220 288 240 353 Q244 367 245.5 380.5 Q247 394 244 408 Q239 433 214 435 Q209 435 208 432 Q206 423 203 414.5 Q200 406 197 398 L170 317 Q164 300 159 283 Q154 266 149 249 Q147 244 145.5 238 Q144 232 142 226 Z M-1 238 Q-2 236 -2 236 Q-8 220 -14 204.5 Q-20 189 -25 173 Q-37 136 -36 99 Q-35 85 -30 71 Q-27 65 -22 69 Q-14 76 -7 84.5 Q0 93 6 102 Q22 124 34.5 147.5 Q47 171 59 196 L59 197 Q59 198 59.5 198 Q60 198 60 199 Q40 202 25.5 211 Q11 220 -1 238 Z M93 208 Q98 208 98.5 208 Q99 208 100 212 Q101 216 104 225.5 Q107 235 108 240 Q104 232 100.5 224 Q97 216 93 208 Z " />
<glyph glyph-name="e" unicode="e" horiz-adv-x="308" d="M315 288 Q309 278 305.5 271.5 Q302 265 296 255 Q284 237 272.5 218.5 Q261 200 249 182 Q235 160 220 138.5 Q205 117 189 96 Q177 81 163 65 Q149 49 133 36 Q117 23 99 14 Q81 5 63 4 Q41 2 22 9 Q3 16 -12 35 Q-26 51 -32 69.5 Q-38 88 -40 108 Q-43 139 -38.5 168.5 Q-34 198 -26 227 Q-20 250 -11.5 273 Q-3 296 8 318 Q19 340 34.5 363.5 Q50 387 69.5 405.5 Q89 424 111 434.5 Q133 445 158 442 Q177 439 185 420 Q196 378 177.5 336.5 Q159 295 130 269 Q105 249 76 247.5 Q47 246 29 271 Q28 273 27.5 273.5 Q27 274 26 276 Q24 271 23 266.5 Q22 262 20 257 Q13 234 7.5 211 Q2 188 0 164 Q-2 144 -1.5 124.5 Q-1 105 4 86 Q7 73 12 61.5 Q17 50 26 39 Q31 34 37 30 Q43 26 50 25 Q59 24 69 27 Q105 40 136 67 Q167 94 189 124 Q204 144 218 164 Q232 184 246 204 Q253 214 263.5 230 Q274 246 284 262 Q295 280 308 300 Q319 299 317.5 294.5 Q316 290 315 288 Z M172 416 Q166 438 144 432 Q134 430 126.5 425 Q119 420 111 414 Q90 397 72 371 Q60 354 51 335 Q42 316 34 296 Q32 292 34 289 Q37 277 46 268 Q60 256 75.5 257 Q91 258 104 268 Q121 279 133.5 294.5 Q146 310 156 328 Q167 351 172 373 Q177 395 172 416 Z " />
<glyph glyph-name="f" unicode="f" horiz-adv-x="460" d="M20 -35 Q27 -9 33.5 14 Q40 37 46.5 59.5 Q53 82 60 104 Q67 126 75 151 Q75 152 76 154.5 Q77 157 78 161 Q79 165 81 170 Q70 189 58.5 207 Q47 225 36 243 L-6 306 Q-9 310 -10.5 315.5 Q-12 321 -5 323 Q5 326 16.5 321 Q28 316 39 311 Q58 302 79 294.5 Q100 287 120 282 Q128 307 145 356 Q162 405 183.5 464 Q205 523 228 585 Q251 647 270.5 699 Q290 751 304 787 Q318 823 321 829 Q324 834 329 833 Q334 832 340 830 Q331 803 315 755 Q299 707 279 649.5 Q259 592 238 531 Q217 470 198.5 417.5 Q180 365 166.5 326.5 Q153 288 149 276 Q194 269 234.5 269.5 Q275 270 312.5 274.5 Q350 279 386.5 286.5 Q423 294 460 300 Q468 298 469 294.5 Q470 291 465 289 Q426 279 385 270.5 Q344 262 303 257.5 Q262 253 222 254 Q182 255 144 263 Q136 237 127.5 212.5 Q119 188 112 167 Q111 165 113.5 159.5 Q116 154 117 152 Q125 135 132 121 Q139 107 147 90 Q166 46 180.5 5 Q195 -36 205 -78 Q213 -116 217 -152.5 Q221 -189 218 -227 Q214 -289 192 -350 Q170 -411 127 -454 Q119 -462 110 -469.5 Q101 -477 90 -482 Q75 -488 54.5 -484.5 Q34 -481 20 -466 Q-9 -429 -17 -371.5 Q-25 -314 -20.5 -252.5 Q-16 -191 -3.5 -133 Q9 -75 20 -35 Z M101 132 Q92 104 84 78 Q76 52 69 26 Q49 -46 32.5 -117 Q16 -188 10 -260 Q8 -283 7.5 -307.5 Q7 -332 8.5 -356 Q10 -380 15.5 -402.5 Q21 -425 32 -444 Q41 -459 57 -468 Q62 -469 68 -468 Q88 -460 106 -442 Q152 -393 173 -332.5 Q194 -272 194 -209 Q194 -159 185 -108 Q177 -54 160 -5 Q143 44 122 90 L101 132 Z M115 268 Q91 273 68.5 280.5 Q46 288 23 298 Q40 273 56.5 247.5 Q73 222 90 196 Q97 214 103 232 Q109 250 115 268 Z " />
<glyph glyph-name="g" unicode="g" horiz-adv-x="384" d="M104 32 Q255 165 384 300 Q395 300 394 294 Q393 288 391 286 Q316 206 249.5 140 Q183 74 115 13 L94 -5 Q86 -34 78 -63 Q70 -92 62 -121 Q54 -148 45.5 -174.5 Q37 -201 28 -228 Q18 -255 8.5 -282 Q-1 -309 -12 -335 Q-30 -383 -56 -425 Q-69 -447 -84 -466 Q-99 -485 -119 -501 Q-129 -509 -139.5 -514.5 Q-150 -520 -162 -522 Q-202 -527 -225 -499 Q-258 -463 -260 -409 Q-261 -385 -255.5 -362.5 Q-250 -340 -240 -317 Q-226 -285 -206 -256 Q-186 -227 -161 -201 Q-129 -166 -94.5 -134 Q-60 -102 -23 -71 Q-3 -55 18.5 -36 Q40 -17 60 0 Q61 5 62 9 Q63 13 64 15.5 Q65 18 65 20 Q81 76 91.5 116.5 Q102 157 116 201 L107 202 Q93 181 78 156.5 Q63 132 49 111 Q45 105 39 97.5 Q33 90 26 82 Q19 74 12.5 67.5 Q6 61 0 57 Q-13 48 -28 49 Q-43 50 -51 60 Q-59 71 -62 83 Q-65 95 -64 109 Q-59 157 -45.5 196.5 Q-32 236 -13 273 Q7 316 34.5 356 Q62 396 97 425 Q116 441 135.5 451 Q155 461 173 465.5 Q191 470 205 469.5 Q219 469 228 465 Q242 459 249.5 446 Q257 433 260 418 Q263 403 263 388 Q263 373 261 362 Q259 347 255 332 Q251 317 244 303 Q233 280 217.5 259.5 Q202 239 181 223 Q175 218 166 214 Q157 210 151 206 Q145 183 140 166 Q135 149 130 130 Q122 102 116 78 Q110 54 104 32 Z M49 -38 Q44 -42 23.5 -59.5 Q3 -77 -21 -97.5 Q-45 -118 -66.5 -137 Q-88 -156 -97 -164 Q-121 -187 -143.5 -211 Q-166 -235 -186 -262 Q-200 -281 -211.5 -301 Q-223 -321 -231 -343 Q-242 -374 -243 -403.5 Q-244 -433 -230 -462 Q-219 -489 -197 -504 Q-189 -509 -180.5 -510 Q-172 -511 -163 -505 Q-157 -501 -150.5 -497 Q-144 -493 -139 -488 Q-119 -471 -104.5 -450.5 Q-90 -430 -78 -408 Q-61 -376 -47.5 -343.5 Q-34 -311 -23 -278 Q-3 -215 17 -156.5 Q37 -98 49 -38 Z M154 219 Q157 221 161.5 224 Q166 227 170 229 Q186 240 198 255 Q210 270 220 287 Q250 336 250 392 Q250 406 246.5 420 Q243 434 235 445 Q223 460 194 457 Q165 452 146.5 436.5 Q128 421 114 405 Q90 379 70.5 350.5 Q51 322 34 292 Q31 285 33 281 Q40 265 46 253 Q54 240 63 230.5 Q72 221 92 215 Q93 216 94 218 L97 224 Q110 247 122.5 267 Q135 287 146 307 Q155 323 172 315 Q176 313 176.5 310 Q177 307 177 303 Q175 294 172.5 285.5 Q170 277 168 268 Q165 257 161.5 243.5 Q158 230 154 219 Z M22 270 Q21 268 19.5 264 Q18 260 15 254 Q-4 214 -16.5 179 Q-29 144 -31 102 Q-33 84 -26 72 Q-24 68 -23 68 Q-22 68 -18 70 Q0 84 14 104 Q29 124 43.5 144 Q58 164 72 185 Q76 190 79 195 Q82 200 86 206 Q72 212 63.5 217 Q55 222 48.5 229 Q42 236 36 245.5 Q30 255 22 270 Z M125 231 Q123 226 119.5 221 Q116 216 113 211 L119 211 Q121 216 122.5 222 Q124 228 125 231 Z " />
<glyph glyph-name="h" unicode="h" horiz-adv-x="312" d="M11 154 Q25 180 41.5 205 Q58 230 76 255 Q100 286 129 310 Q135 315 143 319 Q151 323 159 323 Q167 322 170 314.5 Q173 307 172.5 298 Q172 289 170 280.5 Q168 272 167 268 Q159 238 150.5 208 Q142 178 134 148 Q130 134 126.5 119 Q123 104 123 89 Q123 84 123.5 78 Q124 72 127 66 Q132 71 136.5 75 Q141 79 146 84 Q161 100 174 117 Q187 134 201 152 Q213 168 227.5 188 Q242 208 257 228 Q272 248 286.5 267 Q301 286 312 300 Q321 300 320 295.5 Q319 291 316 287 Q303 270 282.5 240 Q262 210 240.5 179 Q219 148 200 121 Q181 94 172 83 Q165 75 157.5 67 Q150 59 142 53 Q133 47 121 48.5 Q109 50 104 58 Q90 82 92.5 108 Q95 134 102 156 Q111 185 120 214 Q129 243 137 272 Q138 275 139.5 280.5 Q141 286 143 291 Q145 297 146 304 Q141 300 135.5 296 Q130 292 125 288 Q107 272 92.5 254 Q78 236 65 216 Q42 182 24 147 Q6 112 -12 76 Q-16 68 -22 59 Q-24 56 -30 55 Q-36 54 -40 59 Q-45 64 -45 73 Q-41 109 -36 145 Q-31 181 -23 216 Q-14 250 -5 284 Q4 318 13 352 Q35 426 58 495.5 Q81 565 108 634 Q117 658 133 692.5 Q149 727 169 760 Q189 793 212 818.5 Q235 844 260 852 Q275 856 280 849.5 Q285 843 287 838 Q290 828 290.5 817.5 Q291 807 290 796 Q282 741 263 689 Q244 637 220 589 Q201 551 181 514.5 Q161 478 138 443 Q118 412 95.5 381.5 Q73 351 46 328 Q35 294 26 259.5 Q17 225 8 191 Q6 182 2.5 169.5 Q-1 157 -3 146 Q-7 133 -9 119 Q-8 121 -1 133 Q6 145 11 154 Z M51 348 Q57 355 68 368 Q79 381 87 392 Q101 411 114 430.5 Q127 450 140 470 Q153 492 165.5 513.5 Q178 535 190 557 Q211 595 228 633 Q246 675 261 717 Q265 731 270 747 Q275 763 277.5 779 Q280 795 279.5 810.5 Q279 826 274 839 Q271 846 265 842 Q261 839 257.5 836.5 Q254 834 250 830 Q239 819 230 806.5 Q221 794 213 780 Q170 704 141 626.5 Q112 549 88 471 Q80 439 69.5 409 Q59 379 51 348 Z " />
<glyph glyph-name="i" unicode="i" horiz-adv-x="163" d="M166 286 Q156 271 141 247.5 Q126 224 109.5 198 Q93 172 75.5 147.5 Q58 123 43 105 Q28 86 9 71 Q-3 62 -17.5 64 Q-32 66 -40 79 Q-47 89 -48.5 100 Q-50 111 -50 123 Q-47 165 -32.5 208.5 Q-18 252 -3 293 Q1 302 3 308.5 Q5 315 10 317 Q13 319 21.5 316.5 Q30 314 31 311 Q32 307 28.5 296 Q25 285 22 276 Q16 256 8.5 234 Q1 212 -5.5 190.5 Q-12 169 -16.5 149.5 Q-21 130 -21 116 Q-21 108 -20.5 100.5 Q-20 93 -17 86 Q-15 81 -13.5 80.5 Q-12 80 -7 83 Q6 91 16.5 101.5 Q27 112 37 123 Q41 128 52 143 Q63 158 77 177.5 Q91 197 106 219 Q121 241 133.5 259 Q146 277 154 288.5 Q162 300 163 300 Q172 300 170 294 Q168 288 166 286 Z M51 414 Q38 414 40 427 Q42 441 56 439 Q68 437 65 425 Q62 414 51 414 Z " />
<glyph glyph-name="j" unicode="j" horiz-adv-x="172" d="M41 416 Q36 416 32 419.5 Q28 423 29 429 Q32 443 46 441 Q57 439 55 428 Q52 416 41 416 Z M175 280 Q164 264 145 240.5 Q126 217 104 190.5 Q82 164 58 137 Q34 110 14 87.5 Q-6 65 -21 48 Q-36 31 -41 26 Q-45 22 -48 18.5 Q-51 15 -55 11 Q-59 5 -60 2 Q-69 -27 -77.5 -56 Q-86 -85 -95 -114 Q-106 -149 -117 -183 Q-128 -217 -140 -252 Q-151 -284 -164 -315.5 Q-177 -347 -191 -378 Q-201 -399 -212.5 -419.5 Q-224 -440 -238 -459 Q-254 -481 -273 -498.5 Q-292 -516 -315 -528 Q-361 -551 -402 -532 Q-413 -527 -421 -518.5 Q-429 -510 -436 -500 Q-459 -464 -451 -415 Q-446 -390 -436.5 -368 Q-427 -346 -413 -325 Q-399 -305 -383.5 -286.5 Q-368 -268 -351 -251 Q-332 -233 -313.5 -215 Q-295 -197 -276 -180 Q-252 -158 -228 -136.5 Q-204 -115 -181 -93 Q-141 -56 -102 -17 Q-98 -13 -96 -7 Q-88 16 -81 37.5 Q-74 59 -67 82 Q-48 146 -31.5 199.5 Q-15 253 2 310 Q4 315 7.5 316.5 Q11 318 13 318 Q21 317 21 310.5 Q21 304 20 300 Q1 224 -14.5 161.5 Q-30 99 -50 36 Q-46 40 -42 44.5 Q-38 49 -34 53 Q-27 60 -14.5 74.5 Q-2 89 14 107.5 Q30 126 47.5 148 Q65 170 83 191 Q123 241 171 300 Q183 300 183 294.5 Q183 289 175 280 Z M-107 -42 Q-139 -73 -167 -99 Q-195 -125 -221 -150 Q-250 -176 -278 -202 Q-306 -228 -335 -255 Q-358 -277 -377 -300.5 Q-396 -324 -412 -352 Q-422 -369 -428.5 -387 Q-435 -405 -437 -425 Q-439 -440 -437 -454 Q-435 -468 -428 -482 Q-415 -508 -392 -521 Q-386 -524 -380 -526 Q-374 -528 -366 -527 Q-358 -526 -350.5 -523 Q-343 -520 -335 -515 Q-311 -501 -292.5 -481 Q-274 -461 -259 -438 Q-243 -414 -230.5 -388.5 Q-218 -363 -207 -337 Q-178 -267 -153 -191 Q-141 -153 -128 -116 Q-115 -79 -107 -42 Z " />
<glyph glyph-name="k" unicode="k" horiz-adv-x="307" d="M-3 148 Q-11 127 -17 102.5 Q-23 78 -31 57 Q-33 58 -40.5 59 Q-48 60 -51 63 Q-57 68 -55 76 Q-51 93 -48 109.5 Q-45 126 -40 143 Q-34 172 -25 201 Q-25 207 -28 209 Q-40 218 -48 224.5 Q-56 231 -62 242 Q-64 246 -64 253.5 Q-64 261 -60 265 Q-55 270 -46.5 269 Q-38 268 -30 263 Q-27 260 -22 252 Q-17 244 -15 242 Q-7 271 -1 296.5 Q5 322 13 347 Q21 377 29.5 406.5 Q38 436 47 465 Q60 504 77 553.5 Q94 603 114.5 652 Q135 701 159.5 744 Q184 787 213 813 Q230 825 247 822 Q259 820 262 807 Q268 782 260.5 744.5 Q253 707 239.5 667.5 Q226 628 210 593 Q194 558 184 537 Q170 511 156 485.5 Q142 460 128 435 Q114 412 99.5 390.5 Q85 369 70 348 Q62 337 53.5 327.5 Q45 318 36 309 Q34 307 32 302 Q30 297 28.5 290.5 Q27 284 25.5 278.5 Q24 273 24 271 Q21 260 18 248 Q15 236 13 225 Q10 213 7 200 Q8 203 10 206 Q14 212 15 215 Q38 260 66 298 Q79 315 92.5 330.5 Q106 346 123 360 Q131 367 145 373.5 Q159 380 178 376 Q191 375 196 355 Q200 325 191 296.5 Q182 268 169 244 Q161 229 152.5 215 Q144 201 133 189 Q122 178 109.5 170 Q97 162 80 160 Q66 159 49 161.5 Q32 164 21 172 Q29 147 40 123 Q51 99 66 80 Q77 65 94 56 Q105 50 117 55 Q128 60 137.5 66 Q147 72 155 80 Q171 94 184 110.5 Q197 127 209 144 Q222 163 234 182 Q246 201 258 220 Q266 232 274 246 Q282 260 290 272 Q299 286 307 300 Q329 300 316 277 Q308 263 290 230 Q272 197 247.5 159.5 Q223 122 195.5 89.5 Q168 57 143 45 Q120 33 97 36 Q80 38 66 46.5 Q52 55 41 68 Q25 85 15 106.5 Q5 128 -3 148 Z M39 330 Q41 333 44 337 Q50 345 50 345 Q83 393 113 440 Q143 487 170 537 Q187 572 202.5 606.5 Q218 641 230 679 Q238 705 243.5 731 Q249 757 250 786 Q250 792 249 798 Q248 804 247 810 Q245 816 238.5 812.5 Q232 809 224.5 801 Q217 793 209.5 783 Q202 773 198 766 Q153 688 124.5 611.5 Q96 535 74 459 Q70 446 67 437 Q64 428 61.5 419.5 Q59 411 56.5 401.5 Q54 392 50 378 Q48 368 44 351.5 Q40 335 39 330 Z M21 186 Q26 184 30 182 Q34 180 38 178 Q46 175 55 173 Q64 171 72 173 Q82 176 89.5 181.5 Q97 187 104 194 Q125 216 141 247 Q148 259 155.5 273 Q163 287 169 302 Q175 317 177.5 331.5 Q180 346 176 360 Q174 370 164 366 Q149 359 140 353 Q123 339 108.5 322.5 Q94 306 81 288 Q65 266 52 243.5 Q39 221 26 198 Q24 195 23.5 192 Q23 189 21 186 Z " />
<glyph glyph-name="l" unicode="l" horiz-adv-x="270" d="M275 287 Q253 250 228.5 214 Q204 178 181 142 Q164 116 146.5 92 Q129 68 108 45 Q97 32 84 20.5 Q71 9 56 1 Q40 -8 19.5 -5 Q-1 -2 -12 15 Q-22 27 -25.5 41 Q-29 55 -31 70 Q-33 99 -30.5 128.5 Q-28 158 -23 187 Q-18 216 -12.5 244 Q-7 272 0 300 Q16 370 39 438 Q64 517 93 590 Q106 622 120 654 Q134 686 152 717 Q163 736 175 754 Q187 772 201 788 Q212 800 224.5 809 Q237 818 253 823 Q261 825 267.5 825.5 Q274 826 282 825 Q293 822 298 811 Q305 798 303 779 Q303 760 298 742 Q293 724 287 706 Q262 633 222 562 Q207 534 191 507 Q175 480 156 454 Q136 426 116 399 Q96 372 76 345 Q68 333 58.5 322.5 Q49 312 39 301 Q38 299 37 297.5 Q36 296 36 294 Q22 232 11.5 171.5 Q1 111 6 53 Q8 44 10.5 35 Q13 26 19 18 Q26 9 37 13 Q49 18 59 26 Q69 34 79 42 Q101 62 119 85 Q137 108 154 132 Q165 148 181 171.5 Q197 195 214 219 Q231 243 246 265 Q261 287 270 300 Q279 299 278 294 Q277 289 275 287 Z M41 319 Q53 334 65 348.5 Q77 363 88 378 Q104 400 119 421.5 Q134 443 149 466 Q189 523 218 581 Q237 616 252.5 652 Q268 688 279 727 Q287 753 287 777 Q287 786 286 794 Q285 802 281 809 Q277 817 270 813 Q266 811 262 809.5 Q258 808 254 805 Q238 794 226.5 780.5 Q215 767 205 752 Q192 732 180.5 710.5 Q169 689 159 666 Q139 621 125 584 Q111 547 99.5 513.5 Q88 480 78 446.5 Q68 413 57 376 Q56 373 54 365 Q52 357 49 348 Q46 339 44 330.5 Q42 322 41 319 Z " />
<glyph glyph-name="m" unicode="m" horiz-adv-x="469" d="M25 317 Q27 317 24.5 308 Q22 299 20 294 Q15 278 11 263.5 Q7 249 2 233 Q-6 205 -5 179 Q-5 174 -3 168 Q-1 169 3 172 Q7 175 21 189 Q29 199 33 203.5 Q37 208 43 216 Q60 239 76.5 262.5 Q93 286 110 309 Q136 344 158 374 Q180 404 193 422 Q200 429 209 429 Q219 429 223 423 Q227 417 225 412 Q223 402 221.5 394.5 Q220 387 218 381 Q212 361 208.5 348 Q205 335 199 315 Q193 294 187.5 272.5 Q182 251 177 230 Q173 215 170 200.5 Q167 186 164 171 Q162 162 161.5 153 Q161 144 163 135 Q163 133 163.5 131.5 Q164 130 164 128 Q168 131 173 134.5 Q178 138 181 141 Q191 151 196.5 157.5 Q202 164 210 174 Q227 197 242.5 219 Q258 241 275 264 Q286 280 300.5 297 Q315 314 325 323 Q333 331 340.5 333 Q348 335 358 333 Q367 333 365 322 Q364 317 362 308 Q360 299 357 287.5 Q354 276 351 264 Q348 252 345 242 Q344 238 342 229.5 Q340 221 338 212 Q336 203 334 194.5 Q332 186 332 182 L332 172 Q332 168 333 165 Q339 169 346.5 174.5 Q354 180 357 183 Q369 195 380.5 207 Q392 219 404 231 Q412 239 422.5 250.5 Q433 262 444 273 Q456 286 469 300 Q480 300 479.5 294.5 Q479 289 476 284 Q462 269 452 257.5 Q442 246 433 235 Q424 224 413.5 212.5 Q403 201 390 186 Q372 165 352 154 Q338 147 323.5 152 Q309 157 304 174 Q302 188 305 198 Q310 215 314.5 231.5 Q319 248 324 265 Q326 271 329 279.5 Q332 288 334.5 296 Q337 304 338.5 309.5 Q340 315 340 316 Q338 314 333.5 310 Q329 306 325 302 Q306 280 289 255 Q269 228 254 207 Q239 186 217 157 Q209 146 200.5 135 Q192 124 181 115 Q173 109 160 111 Q147 113 141 121 Q134 130 133 140 Q132 150 132 160 Q137 205 148 245 Q154 268 160 289.5 Q166 311 173 334 Q184 370 195 399 Q194 398 190.5 393 Q187 388 182.5 382.5 Q178 377 173.5 371.5 Q169 366 167 364 Q151 344 136.5 323 Q122 302 101 272 Q85 249 69.5 226.5 Q54 204 37 181 Q31 173 24.5 165.5 Q18 158 8 153 Q2 150 -6.5 151 Q-15 152 -20 157 Q-29 168 -31 183 Q-31 213 -22 240 Q-14 268 -1 298 Q1 303 3 307 Q5 311 8 316 Q10 319 16 321 Q22 323 25 317 Z " />
<glyph glyph-name="n" unicode="n" horiz-adv-x="343" d="M252 434 Q248 429 244.5 425.5 Q241 422 237 417 Q214 389 192.5 360.5 Q171 332 150 303 Q126 271 109 246.5 Q92 222 68 190 Q62 181 47.5 165 Q33 149 22 144 Q8 137 -5.5 141.5 Q-19 146 -25 162 Q-30 178 -29.5 195.5 Q-29 213 -25 230.5 Q-21 248 -15 263.5 Q-9 279 -3 293 Q-1 298 2 305 Q5 312 8 315 Q11 317 16.5 316 Q22 315 23 311 Q22 300 19 285.5 Q16 271 12 255 Q8 239 4 224 Q0 209 -1 198 Q-3 181 0 166 Q1 157 4.5 156 Q8 155 16 160 Q28 168 38 178.5 Q48 189 57 200 Q77 224 95.5 248.5 Q114 273 133 298 Q148 317 162 335.5 Q176 354 190 373 Q203 390 215 406.5 Q227 423 241 438 Q256 455 269 450 Q274 447 272.5 435.5 Q271 424 270 421 Q261 382 248 344 Q235 306 221.5 268.5 Q208 231 196 193 Q184 155 177 116 Q175 109 174.5 99 Q174 89 176 84 Q181 89 185 92.5 Q189 96 193 101 Q208 121 222.5 140 Q237 159 252 179 Q263 193 278.5 213 Q294 233 308 253 Q325 276 343 300 Q352 300 353 297 Q354 294 351 290 Q347 285 344.5 281 Q342 277 339 273 Q336 269 332.5 263.5 Q329 258 323 250 Q304 223 285.5 195 Q267 167 248 140 Q238 126 228.5 111.5 Q219 97 208 83 Q202 75 193 68 Q184 61 173 63 Q170 64 166.5 64 Q163 64 159 66 Q146 73 143 89 Q141 100 142 110 Q143 120 145 130 Q160 199 186.5 263.5 Q213 328 239 394 Q243 404 245.5 412.5 Q248 421 252 434 Z " />
<glyph glyph-name="o" unicode="o" horiz-adv-x="335" d="M339 296 Q342 293 340 289 Q308 264 269.5 252 Q231 240 190 235 Q190 225 189 213.5 Q188 202 187 191 Q186 180 185 171 Q184 162 183 158 Q178 137 170.5 119.5 Q163 102 149 85 Q108 35 43 43 Q11 48 -8 67 Q-27 86 -36 115 Q-41 134 -41 153.5 Q-41 173 -37 193 Q-30 234 -14.5 271 Q1 308 24 343 Q32 357 41.5 369.5 Q51 382 61 393 Q88 426 125 444 Q141 451 156.5 453.5 Q172 456 188 452 Q199 450 206.5 444 Q214 438 220 429 Q231 411 232 391 Q233 371 228 351 Q220 324 205.5 300.5 Q191 277 171 257 Q157 243 141.5 231.5 Q126 220 108 212 Q97 207 85 203.5 Q73 200 60 200 Q29 200 9 229 Q7 231 6.5 233 Q6 235 5 236 Q3 226 0.5 214.5 Q-2 203 -4 193 Q-9 166 -6 142 Q-4 115 7 94 Q15 80 28 71 Q41 62 58 60 Q69 59 78.5 62.5 Q88 66 97 71 Q117 81 130.5 96 Q144 111 154 131 Q162 149 165.5 174 Q169 199 170 219 Q171 224 171 227.5 Q171 231 172 236 Q172 241 177.5 243 Q183 245 188 246 L190 246 Q193 246 199 247 Q205 248 212 249 Q214 249 220 251 Q252 257 281 268.5 Q310 280 335 300 L339 296 Z M16 262 Q15 260 15 254 Q18 240 29 227 Q47 206 71 212 Q93 217 111 228.5 Q129 240 146 255 Q159 266 170 279.5 Q181 293 191 307 Q201 323 207.5 339.5 Q214 356 216 371 Q217 383 216.5 391 Q216 399 214 407 Q207 432 188 440 Q179 445 170 443.5 Q161 442 151 438 Q118 424 91 392 Q65 363 47.5 330.5 Q30 298 16 262 Z " />
<glyph glyph-name="p" unicode="p" horiz-adv-x="390" d="M390 300 Q395 300 400 296.5 Q405 293 393 287 Q383 282 347.5 265 Q312 248 240 227 Q230 210 210.5 185 Q191 160 165 136 Q150 122 133.5 111.5 Q117 101 97 94 Q75 85 51 88 Q22 92 17 120 Q15 115 13 111.5 Q11 108 9 104 Q-2 80 -13 56.5 Q-24 33 -34 9 Q-48 -26 -61.5 -61 Q-75 -96 -88 -131 Q-92 -140 -98 -164.5 Q-104 -189 -112 -222.5 Q-120 -256 -129.5 -295.5 Q-139 -335 -148 -374.5 Q-157 -414 -165.5 -450 Q-174 -486 -180 -513 Q-180 -514 -181.5 -520 Q-183 -526 -184.5 -533 Q-186 -540 -187.5 -546 Q-189 -552 -189 -553 Q-191 -553 -193.5 -552.5 Q-196 -552 -198 -552 Q-203 -551 -208 -547.5 Q-213 -544 -212 -539 Q-180 -380 -146.5 -221.5 Q-113 -63 -64 100 Q-50 146 -36.5 188.5 Q-23 231 -8 274 Q7 317 24.5 362.5 Q42 408 63 460 Q66 465 72.5 463.5 Q79 462 79 458 Q66 416 50.5 365 Q35 314 18.5 260.5 Q2 207 -13.5 155 Q-29 103 -41 61 L-56 6 Q-44 35 -34 57 Q-24 79 -12 105 Q18 169 54 231 Q70 259 87 286 Q104 313 123 339 Q141 363 162.5 390 Q184 417 214 432 Q227 438 242 441 Q257 444 271 440 Q292 436 300 414 Q305 403 304 391 Q303 379 301 368 Q296 348 288.5 328.5 Q281 309 272 290 Q267 279 261 269 Q255 259 250 248 Q276 257 301.5 266 Q327 275 347 283 Q370 292 390 300 Z M54 189 Q50 183 47 176 Q44 169 40 164 Q47 171 58.5 178 Q70 185 84 192 Q112 205 142 214.5 Q172 224 204 233 Q219 257 232.5 283 Q246 309 259 339 Q266 358 271.5 378.5 Q277 399 267 419 Q263 427 255.5 426 Q248 425 240 421 Q221 413 202.5 397 Q184 381 167 361 Q150 341 134.5 318.5 Q119 296 106 275 Q92 254 79.5 232.5 Q67 211 54 189 Z M118 129 Q139 145 156.5 167.5 Q174 190 190 213 Q184 211 183 211 Q172 208 155 202.5 Q138 197 127 193 Q110 187 94 179.5 Q78 172 64 161 Q56 155 49 148 Q42 141 38 131 Q36 125 35.5 118.5 Q35 112 40 107 Q48 96 64 100 Q79 104 92.5 111.5 Q106 119 118 129 Z " />
<glyph glyph-name="q" unicode="q" horiz-adv-x="362" d="M90 133 Q76 116 59.5 97 Q43 78 32 66 Q29 63 25.5 60.5 Q22 58 19 55 Q8 46 -9 47 Q-26 48 -34 56 Q-45 67 -49.5 80.5 Q-54 94 -54.5 109 Q-55 124 -52.5 139 Q-50 154 -47 167 Q-34 224 -11 278 Q12 332 47 377 Q62 397 79 415.5 Q96 434 117 448 Q131 458 147 464.5 Q163 471 181 472 Q196 474 209 468 Q225 461 233 442 Q239 429 240 415.5 Q241 402 241 388 Q240 362 234 337.5 Q228 313 219 290 Q202 247 179 211 Q164 187 143 166 Q138 161 135 153 Q123 123 111.5 93 Q100 63 89 33 Q79 5 71.5 -18 Q64 -41 55 -68 Q60 -65 63.5 -62.5 Q67 -60 70 -58 Q96 -41 118.5 -21.5 Q141 -2 162 21 Q207 67 241 118 Q252 136 268.5 161.5 Q285 187 302 212.5 Q319 238 335 261.5 Q351 285 362 300 Q373 298 370 291 Q367 284 366 282 Q332 228 300.5 179 Q269 130 236 82 Q197 27 146 -21 Q130 -35 113.5 -47.5 Q97 -60 80 -71 Q73 -75 66.5 -79.5 Q60 -84 54 -89 Q44 -96 47 -108 Q49 -117 51.5 -126 Q54 -135 56 -143 Q62 -168 68.5 -192 Q75 -216 79 -241 Q87 -291 82 -342 Q78 -398 59 -457 Q53 -474 46.5 -491 Q40 -508 30 -525 Q24 -535 16.5 -543 Q9 -551 -2 -558 Q-7 -560 -16 -561 Q-25 -562 -34 -558 Q-54 -548 -59 -523 Q-70 -477 -66 -429.5 Q-62 -382 -54 -339 Q-40 -269 -24 -206.5 Q-8 -144 12 -83 Q23 -50 34.5 -17.5 Q46 15 57 47 Q65 67 70 81.5 Q75 96 83 116 Q84 117 86 122.5 Q88 128 90 133 Z M158 210 Q166 223 178.5 244.5 Q191 266 199 285 Q215 320 223 359.5 Q231 399 220 434 Q215 451 203.5 459 Q192 467 172 459 Q130 443 101.5 409.5 Q73 376 53 341 Q44 325 35.5 308.5 Q27 292 19 276 Q16 268 12.5 260.5 Q9 253 9 245 Q8 237 8 230 Q8 223 8 215 Q10 184 24 158 Q29 150 38 144.5 Q47 139 56 136 Q64 146 70 155 Q75 163 80.5 170.5 Q86 178 88 181 Q93 189 104.5 206.5 Q116 224 126 240 Q134 252 141.5 264 Q149 276 157 288 Q159 290 163 295.5 Q167 301 170 301 Q174 301 175.5 300.5 Q177 300 181 300 Q186 301 187 296 Q188 291 187 286 Q179 260 172 243 Q165 226 158 210 Z M36 -127 Q34 -134 32 -142 Q30 -150 28 -157 Q20 -190 11.5 -223 Q3 -256 -5 -289 Q-14 -324 -20 -359.5 Q-26 -395 -30 -430 Q-32 -452 -32.5 -474 Q-33 -496 -29 -518 Q-27 -524 -26 -529.5 Q-25 -535 -20 -540 Q-13 -535 -5 -526 Q3 -517 8 -506 Q25 -477 35.5 -445.5 Q46 -414 54 -382 Q58 -366 59.5 -350 Q61 -334 63 -317 Q65 -288 63 -259 Q61 -230 55 -201 Q51 -187 47.5 -173 Q44 -159 41 -145 Q39 -141 38 -136 Q37 -131 36 -127 Z M49 124 Q29 131 16 143 Q3 155 -4 178 Q-5 183 -6 188.5 Q-7 194 -8 199 Q-10 195 -12 189 Q-17 168 -21.5 146.5 Q-26 125 -25 103 Q-24 94 -22.5 86 Q-21 78 -16 70 Q-11 62 -5 68 Q2 73 8 78.5 Q14 84 20 90 Q28 98 34.5 106.5 Q41 115 49 124 Z " />
<glyph glyph-name="r" unicode="r" horiz-adv-x="326" d="M23 310 Q28 307 32.5 304 Q37 301 42 299 Q59 289 73 272 Q79 264 83 254.5 Q87 245 88 234 Q90 219 87 205 Q85 185 78.5 165 Q72 145 65 125 Q51 85 38 46 Q25 7 15 -34 Q11 -49 8.5 -60 Q6 -71 8 -84 Q9 -88 11 -96 Q13 -104 15 -106 Q18 -106 22.5 -104 Q27 -102 32 -99 Q37 -96 41.5 -92.5 Q46 -89 48 -87 Q55 -79 71 -58 Q87 -37 108 -8 Q129 21 153.5 55 Q178 89 202 123 Q258 203 326 300 Q339 300 330 285 Q325 276 306 247.5 Q287 219 261 180.5 Q235 142 205 98.5 Q175 55 147 15.5 Q119 -24 96 -54.5 Q73 -85 62 -98 Q57 -105 50.5 -110.5 Q44 -116 35 -120 Q22 -125 9.5 -123 Q-3 -121 -11 -110 Q-18 -101 -20 -91 Q-22 -81 -23 -70 Q-23 -56 -20.5 -41.5 Q-18 -27 -15 -13 Q-7 21 3.5 54 Q14 87 25 121 Q30 137 35 152.5 Q40 168 45 184 Q49 200 51 219 Q55 262 18 286 Q13 290 7.5 293 Q2 296 -3 301 Q-25 317 -39 344 Q-53 371 -45 405 Q-39 428 -27.5 447.5 Q-16 467 2 484 Q22 501 45 501 Q70 501 78 478 Q82 468 82.5 458 Q83 448 81 438 Q79 419 73.5 402 Q68 385 60 368 Q50 350 42 335.5 Q34 321 23 310 Z M13 318 Q24 332 32 346.5 Q40 361 48 375 Q56 393 62 411.5 Q68 430 69 450 Q69 458 68 466.5 Q67 475 62 483 Q54 497 40 491 Q18 483 4.5 462 Q-9 441 -16 422 Q-21 408 -22.5 394 Q-24 380 -20 366 Q-15 352 -7 339.5 Q1 327 13 318 Z " />
<glyph glyph-name="s" unicode="s" horiz-adv-x="338" d="M124 185 Q132 188 138.5 191 Q145 194 153 197 Q210 223 252.5 247 Q295 271 338 300 Q346 299 346 294.5 Q346 290 335 284 Q291 255 252 231.5 Q213 208 170 189 Q161 185 150 180 Q139 175 130 171 Q135 157 137.5 132 Q140 107 135 78 Q121 15 84 -42 Q47 -99 -7 -131 Q-22 -139 -37.5 -144.5 Q-53 -150 -70 -152 Q-106 -154 -125 -134.5 Q-144 -115 -148 -89 Q-153 -38 -129.5 5 Q-106 48 -70 79 Q-44 102 -14.5 119 Q15 136 46 151 Q60 158 71 163 Q82 168 93 172 Q79 198 64 219 Q49 240 27 260 Q20 266 10 277 Q0 288 -5 293 Q-24 320 -33.5 349 Q-43 378 -33 410 Q-22 447 2 477.5 Q26 508 56 525 Q64 530 73 533 Q82 536 92 536 Q104 536 110 529 Q116 522 118.5 512.5 Q121 503 120 492 Q119 481 117 473 Q112 453 104 434 Q96 415 86 397 Q59 347 22 306 Q20 302 22 300 Q40 283 55 268.5 Q70 254 84 240 Q96 226 106 213 Q116 200 124 185 Z M97 157 Q83 152 70 145.5 Q57 139 44 132 Q13 118 -15.5 100 Q-44 82 -69 58 Q-86 41 -100 21 Q-114 1 -123 -20.5 Q-132 -42 -133 -64.5 Q-134 -87 -124 -109 Q-114 -134 -86 -139 Q-48 -137 -14 -109 Q20 -81 46 -41.5 Q72 -2 87 41.5 Q102 85 102 118 Q102 128 101 137.5 Q100 147 97 157 Z M13 312 Q41 341 61 378 Q81 415 94 451 Q110 491 100 522 Q98 528 90 526 Q82 524 76 520 Q70 516 63 511 Q38 491 20.5 467.5 Q3 444 -4.5 418.5 Q-12 393 -8 366 Q-4 339 13 312 Z " />
<glyph glyph-name="t" unicode="t" horiz-adv-x="258" d="M156 671 Q133 596 107 521.5 Q81 447 56.5 372.5 Q32 298 10.5 222.5 Q-11 147 -26 70 Q-32 39 -36 9 Q-40 -21 -38 -53 Q-38 -67 -35.5 -80.5 Q-33 -94 -26 -107 Q-24 -111 -18 -117 Q-15 -121 -9 -118 Q2 -112 11.5 -104.5 Q21 -97 30 -88 Q50 -68 66 -46 Q82 -24 96 0 Q110 23 122.5 47.5 Q135 72 148 96 Q162 121 175 146.5 Q188 172 202 198 Q209 210 218.5 227 Q228 244 237 261 Q248 279 258 300 Q270 300 269 292.5 Q268 285 259 266 Q254 255 245 237.5 Q236 220 225.5 200 Q215 180 204.5 159 Q194 138 185 122 Q180 114 173 100 Q166 86 157.5 70.5 Q149 55 141.5 41 Q134 27 130 19 Q122 5 110 -15.5 Q98 -36 83.5 -57 Q69 -78 52 -97 Q35 -116 18 -127 Q0 -137 -19.5 -135 Q-39 -133 -52 -115 Q-60 -104 -64.5 -92.5 Q-69 -81 -71 -68 Q-74 -46 -73.5 -24.5 Q-73 -3 -71 18 Q-67 53 -60 87.5 Q-53 122 -43 157 Q-37 183 -24 225 Q-11 267 5 317 Q21 367 39 420.5 Q57 474 74 523.5 Q91 573 105 614 Q119 655 128 681 Q125 683 122 683.5 Q119 684 116 686 Q87 696 58 703.5 Q29 711 -2 714 Q-22 716 -47.5 714 Q-73 712 -93 706 Q-109 700 -126 692 Q-143 684 -156 672.5 Q-169 661 -176.5 646.5 Q-184 632 -181 613 Q-181 611 -180.5 610 Q-180 609 -180 607 Q-183 604 -185 609 Q-192 618 -192.5 628 Q-193 638 -190 647 Q-187 656 -181 664 Q-175 672 -168 678 Q-116 721 -48 724 Q-13 725 27 719 Q50 715 71.5 709.5 Q93 704 116 697 Q120 695 123.5 694 Q127 693 132 691 Q144 722 153.5 751.5 Q163 781 178 806 Q180 808 184.5 809.5 Q189 811 194 809 Q198 809 198 803 Q190 773 180 742 Q170 711 161 682 Q161 682 173.5 677 Q186 672 203 666 Q220 660 237.5 654.5 Q255 649 265 646 Q310 634 353.5 633 Q397 632 435 652 Q443 657 453 662.5 Q463 668 465 675 Q467 683 473 681 Q480 681 479 672 Q477 664 472 658.5 Q467 653 461 649 Q434 631 399 626 Q356 618 314.5 624.5 Q273 631 234 644 Q214 650 194.5 656.5 Q175 663 156 671 Z " />
<glyph glyph-name="u" unicode="u" horiz-adv-x="404" d="M409 291 Q369 222 329 154 Q289 86 247 18 Q239 4 230 -9 Q221 -22 212 -36 Q198 -54 180 -68 Q168 -76 150.5 -74.5 Q133 -73 122 -60 Q101 -31 101 4 Q101 39 109 69 Q117 104 128 138.5 Q139 173 153 207 Q162 230 170.5 248 Q179 266 187 286 Q171 261 161 245.5 Q151 230 141 216.5 Q131 203 120 189.5 Q109 176 91 156 Q88 153 83 147.5 Q78 142 72.5 136.5 Q67 131 61.5 126 Q56 121 52 119 Q36 108 17 112 Q-2 116 -13 137 Q-24 166 -21 193.5 Q-18 221 -12 251 Q-6 274 0 298 Q6 322 13 345 Q15 350 18.5 360 Q22 370 30 368 Q37 367 37 361.5 Q37 356 37 353 Q35 342 33 332 Q31 322 29 311 Q24 286 19.5 262 Q15 238 10 214 Q9 208 7.5 191.5 Q6 175 7.5 158.5 Q9 142 14.5 131.5 Q20 121 32 127 Q52 137 68 156 Q86 175 98 189.5 Q110 204 120 217.5 Q130 231 139.5 245 Q149 259 163 279 Q177 299 190.5 319 Q204 339 217 359 Q225 371 240 370 Q244 370 244.5 365 Q245 360 243.5 353.5 Q242 347 239.5 340 Q237 333 235 327 Q226 304 217 282.5 Q208 261 199 238 Q190 214 181 190 Q172 166 164 142 Q150 100 141 62.5 Q132 25 132 -11 Q132 -22 134 -32 Q136 -42 142 -51 Q144 -55 147 -58 Q153 -64 161 -60 Q185 -47 200 -24 Q221 4 243 37 Q252 51 267 75.5 Q282 100 299 128 Q316 156 333.5 185 Q351 214 366 238 Q381 262 391.5 279 Q402 296 404 300 Q412 299 411 296 Q410 293 409 291 Z " />
<glyph glyph-name="v" unicode="v" horiz-adv-x="431" d="M434 288 Q425 276 407.5 255.5 Q390 235 375 216 Q362 201 343 183 Q324 165 304 157 Q284 149 263 148.5 Q242 148 222 158 Q215 162 206.5 170 Q198 178 196 182 Q179 154 164 126.5 Q149 99 131 73 Q123 61 113.5 49 Q104 37 93 26 Q86 19 78.5 13 Q71 7 61 4 Q45 -1 27.5 3.5 Q10 8 -2 25 Q-10 36 -14 48 Q-18 60 -21 74 Q-29 129 -23 179 Q-17 229 -6 277 Q-1 297 4.5 316.5 Q10 336 19 355 Q21 360 25 364.5 Q29 369 36 370 Q39 370 46.5 369.5 Q54 369 53 364 Q52 352 47 338 Q39 312 33.5 287 Q28 262 24 236 Q21 215 17 186 Q13 157 11.5 127 Q10 97 14 70 Q18 43 32 27 Q38 18 49 22 Q70 33 88 53 Q104 70 118 89.5 Q132 109 145 129 Q148 135 154.5 145 Q161 155 167.5 166 Q174 177 179.5 186 Q185 195 186 199 Q178 224 176 251.5 Q174 279 177 306 Q180 333 187 359.5 Q194 386 202 410 Q209 428 216 445.5 Q223 463 233 480 Q240 491 247 502.5 Q254 514 265 523 Q275 532 291 530 Q299 530 302 523.5 Q305 517 306 513 Q309 493 304 469 Q292 400 265.5 338 Q239 276 211 215 Q210 213 210 211 Q210 210 209 210 Q213 201 217.5 191.5 Q222 182 232 174 Q256 158 283 167 Q300 173 313.5 182 Q327 191 340 202 Q358 218 373 236 Q388 254 404 272 Q406 275 410.5 279.5 Q415 284 419 289 Q423 294 429 300 Q436 300 436.5 296.5 Q437 293 434 288 Z M288 517 Q284 515 283 513 Q272 504 265.5 493 Q259 482 253 471 Q227 420 213.5 363.5 Q200 307 202 253 Q203 249 203.5 243.5 Q204 238 205 236 Q207 240 208.5 244 Q210 248 212 251 Q229 289 244 324.5 Q259 360 270 398 Q278 420 282.5 441.5 Q287 463 289 486 Q290 494 290 501.5 Q290 509 288 517 Z " />
<glyph glyph-name="w" unicode="w" horiz-adv-x="584" d="M0 18 Q5 23 9.5 26.5 Q14 30 19 35 Q32 49 42.5 65 Q53 81 63 97 Q98 155 127.5 212 Q157 269 186 327 Q191 337 195.5 346.5 Q200 356 205 366 Q209 374 212 376 Q215 378 223 379 L230 379 Q238 377 236 369 Q235 363 234 357 Q233 351 232 346 Q219 299 209.5 255 Q200 211 193 165 Q188 134 195 108 Q197 103 201.5 94.5 Q206 86 214 88 Q219 90 227.5 95.5 Q236 101 242 106 Q263 123 280.5 143 Q298 163 315 185 Q320 191 326 200 Q332 209 338 217 Q345 227 352 237 Q350 241 349 248.5 Q348 256 346.5 264 Q345 272 344.5 279.5 Q344 287 344 290 Q343 313 345.5 335 Q348 357 353 379 Q360 410 372.5 449 Q385 488 402.5 526 Q420 564 442.5 596 Q465 628 492 644 Q508 653 526 650 Q539 648 542 631 Q546 586 530.5 542.5 Q515 499 497 462 Q485 436 472.5 410.5 Q460 385 446 360 Q432 334 422.5 317 Q413 300 398 275 Q398 274 395 269.5 Q392 265 389 259 Q386 253 383 248 Q380 243 380 242 Q383 234 389 226.5 Q395 219 403 213 Q411 207 419 203 Q427 199 433 198 Q445 196 457 198.5 Q469 201 481 206.5 Q493 212 504 219 Q515 226 523 233 Q531 239 541 250.5 Q551 262 561 273 Q572 286 584 300 Q595 300 594.5 294.5 Q594 289 588 281 Q577 265 564.5 250.5 Q552 236 537 222 Q518 205 495 193 Q472 181 446 179 Q421 178 403 188.5 Q385 199 369 218 L365 222 Q363 218 360 214.5 Q357 211 355 207 Q340 184 324 163 Q308 142 290 122 Q279 111 268.5 100.5 Q258 90 246 81 Q223 66 198 72 Q187 76 180 83.5 Q173 91 169.5 100 Q166 109 164 118 Q162 127 162 132 Q162 173 168.5 205 Q175 237 183 269 Q160 219 133.5 173.5 Q107 128 79 81 Q70 64 59.5 49 Q49 34 36 20 Q30 14 23.5 9 Q17 4 9 2 Q0 0 -8.5 2 Q-17 4 -25 12 Q-40 28 -43 51 Q-50 114 -37 174 Q-24 234 -4 290 Q3 309 9.5 327 Q16 345 24 364 Q26 369 28.5 374.5 Q31 380 35 385 Q41 392 47.5 390 Q54 388 54 380 Q54 369 49 352 Q42 331 35.5 310.5 Q29 290 23 269 Q14 241 7 212.5 Q0 184 -5 155 Q-9 132 -12 108.5 Q-15 85 -13 61 Q-12 51 -11 42 Q-10 33 -5 24 Q-2 21 0 18 Z M375 269 Q377 273 378.5 275.5 Q380 278 381 280 Q398 309 415 338.5 Q432 368 449 398 Q460 418 470 439 Q480 460 490 481 Q496 496 504.5 516 Q513 536 519.5 557.5 Q526 579 528.5 599.5 Q531 620 525 635 Q523 642 516 639 Q507 636 499.5 630 Q492 624 486 617 Q472 601 461 583.5 Q450 566 440 548 Q409 484 389 414 Q381 385 376.5 356.5 Q372 328 373 297 Q373 291 374 283.5 Q375 276 375 269 Z " />
<glyph glyph-name="x" unicode="x" horiz-adv-x="292" d="M49 217 Q81 256 116 302.5 Q151 349 184 382 Q188 386 195 384 Q202 382 200 376 Q187 353 170 328.5 Q153 304 134.5 280 Q116 256 97 232.5 Q78 209 62 187 Q59 182 61 179 Q72 148 88 124 Q102 107 118.5 96.5 Q135 86 155 96 Q168 103 178 112.5 Q188 122 197 134 Q208 150 217 166 Q226 182 236 199 Q241 209 250.5 225.5 Q260 242 269 259 Q280 278 292 300 Q303 300 303 294.5 Q303 289 302 287 Q291 267 283.5 252.5 Q276 238 265 218 Q252 192 239 167.5 Q226 143 209 120 Q191 97 169.5 84.5 Q148 72 119 77 Q91 83 72.5 103.5 Q54 124 41 146 Q41 145 37 155 Q35 152 31 146.5 Q27 141 22 135 Q17 129 13 123 Q9 117 7 114 Q-11 90 -22.5 74.5 Q-34 59 -51 34 Q-68 8 -85.5 -17.5 Q-103 -43 -118 -70 Q-120 -73 -123 -78 Q-126 -83 -128 -88.5 Q-130 -94 -130.5 -97.5 Q-131 -101 -127 -101 Q-121 -101 -123 -105 Q-123 -113 -133 -113 Q-147 -112 -149 -103 Q-151 -94 -147 -85 Q-142 -74 -134 -59 Q-126 -44 -117 -28.5 Q-108 -13 -98 3 Q-88 19 -79 32 Q-69 47 -61.5 59 Q-54 71 -46.5 81.5 Q-39 92 -31.5 104 Q-24 116 -13 131 Q0 150 9 162 Q18 174 23 181 Q25 185 24 188 Q15 217 10.5 240.5 Q6 264 1 290 Q-1 301 -2.5 314 Q-4 327 -2 335 Q0 341 5.5 341.5 Q11 342 14 337 Q22 319 27 297 Q30 287 33.5 273.5 Q37 260 40.5 247.5 Q44 235 46.5 226 Q49 217 49 217 Z " />
<glyph glyph-name="y" unicode="y" horiz-adv-x="371" d="M371 300 Q390 298 379 286 Q355 259 325 228 Q295 197 263 166 Q231 135 200 105.5 Q169 76 144 51 Q128 -2 114.5 -55 Q101 -108 81 -164 Q72 -190 61 -215.5 Q50 -241 37 -266 Q27 -286 16.5 -304.5 Q6 -323 -7 -340 Q-24 -363 -44.5 -383 Q-65 -403 -90 -417 Q-162 -459 -226 -420 Q-244 -409 -255 -393 Q-266 -377 -271 -357 Q-278 -329 -275.5 -302 Q-273 -275 -263 -247 Q-254 -223 -239.5 -202.5 Q-225 -182 -207 -164 Q-185 -143 -161.5 -126 Q-138 -109 -113 -93 Q-89 -78 -64.5 -63.5 Q-40 -49 -16 -33 Q8 -18 31.5 -2 Q55 14 79 31 Q84 34 95.5 42 Q107 50 107 52 Q123 111 141.5 168 Q160 225 179 284 Q165 263 151.5 241 Q138 219 123 197.5 Q108 176 90.5 156.5 Q73 137 52 122 Q37 112 18 115.5 Q-1 119 -12 140 Q-25 165 -22 197 Q-19 229 -12 257 Q-6 280 0.5 303 Q7 326 14 349 Q16 354 19.5 363.5 Q23 373 31 372 Q38 370 38 364.5 Q38 359 38 357 Q31 325 25 291 Q19 257 11 217 Q7 200 6 175.5 Q5 151 17 135 Q23 125 33 130 Q60 144 80.5 170.5 Q101 197 119 224 Q135 247 150 269 Q165 291 181 314 Q188 324 191.5 329.5 Q195 335 197.5 340 Q200 345 203.5 350.5 Q207 356 213 366 Q222 380 236 377 Q244 376 242 369 Q241 364 237 352.5 Q233 341 228.5 327 Q224 313 219 298 Q214 283 210 271 Q207 263 202 246.5 Q197 230 191 210 Q185 190 178 168 Q171 146 166 128 Q161 110 157 98.5 Q153 87 153 86 Q156 88 163 94.5 Q170 101 172 103 Q220 151 273 201.5 Q326 252 371 300 Z M68 -92 Q71 -82 76.5 -63.5 Q82 -45 87 -26.5 Q92 -8 96.5 7.5 Q101 23 102 27 Q101 27 92.5 21 Q84 15 72 6.5 Q60 -2 48 -10.5 Q36 -19 28 -24 Q-3 -43 -33 -62 Q-63 -81 -94 -100 Q-117 -115 -140 -131 Q-163 -147 -184 -166 Q-198 -179 -210.5 -193.5 Q-223 -208 -232 -225 Q-252 -260 -257 -296 Q-262 -332 -249 -369 Q-244 -386 -230 -399 Q-218 -411 -199 -419 Q-166 -433 -133 -417 Q-113 -407 -97 -394 Q-81 -381 -66 -366 Q-47 -346 -27 -317.5 Q-7 -289 4 -264 Q14 -243 20.5 -226.5 Q27 -210 34 -190 Q42 -165 51 -141.5 Q60 -118 68 -92 Z " />
<glyph glyph-name="z" unicode="z" horiz-adv-x="315" d="M319 287 Q304 266 281.5 237.5 Q259 209 235 179.5 Q211 150 188 122 Q165 94 149 75 Q147 73 147 70 Q157 44 155 18 Q153 -8 146 -35 Q138 -67 125 -98.5 Q112 -130 96 -160 Q69 -212 36.5 -259 Q4 -306 -35 -348 Q-62 -375 -92.5 -397.5 Q-123 -420 -158 -436 Q-181 -446 -203.5 -451 Q-226 -456 -251 -452 Q-280 -448 -300 -429.5 Q-320 -411 -324 -382 Q-328 -341 -309 -308 Q-290 -275 -266 -247 Q-247 -227 -226 -209.5 Q-205 -192 -183 -175 Q-150 -150 -116.5 -126 Q-83 -102 -51 -77 Q-26 -58 -2.5 -39.5 Q21 -21 45 -1 Q63 15 81 31 Q99 47 117 63 Q120 66 119 72 Q110 92 96.5 102.5 Q83 113 66.5 117.5 Q50 122 32 121.5 Q14 121 -4 120 Q-10 120 -15.5 120 Q-21 120 -26 123 Q-28 125 -30.5 130 Q-33 135 -31 139 Q-30 141 -25.5 146.5 Q-21 152 -16 157 Q6 181 28 204.5 Q50 228 72 252 Q90 273 101 287.5 Q112 302 118 321 Q119 326 118.5 327 Q118 328 113 328 Q107 327 101 327 Q95 327 90 325 Q65 319 44 308 Q23 297 3 281 Q-5 274 -11 268.5 Q-17 263 -25 256 Q-34 247 -34 252 Q-35 256 -33 264 Q-31 270 -26 275.5 Q-21 281 -16 286 Q10 310 40 324 Q70 338 105 341 Q125 343 136 336.5 Q147 330 144 312 Q142 301 136 291.5 Q130 282 123 272 Q109 252 93.5 234.5 Q78 217 61 199 Q47 184 37 174 Q27 164 13 149 Q8 144 4 140.5 Q0 137 -2 135 Q1 135 6 135.5 Q11 136 13 136 Q50 140 86.5 129 Q123 118 140 86 Q143 90 146 93 Q149 96 152 99 Q197 148 238.5 201.5 Q280 255 315 300 Q323 300 323 296.5 Q323 293 319 287 Z M124 51 Q113 43 103.5 33 Q94 23 83 15 Q63 -2 43 -19 Q23 -36 3 -52 Q-22 -72 -47 -90 Q-72 -108 -98 -128 Q-125 -148 -152 -169 Q-179 -190 -205 -211 Q-245 -242 -272 -281 Q-286 -301 -295 -321.5 Q-304 -342 -305 -365 Q-307 -405 -277 -428 Q-249 -448 -210 -437 Q-183 -429 -159 -415 Q-135 -401 -112 -383 Q-83 -361 -59 -335 Q-35 -309 -14 -280 Q4 -256 20 -230.5 Q36 -205 50 -179 Q85 -116 109 -51 Q115 -31 119.5 -12.5 Q124 6 125 26 Q125 32 125 38 Q125 44 124 51 Z " />
<glyph glyph-name="braceleft" unicode="&#x7b;" horiz-adv-x="209" d="M72 375 Q81 375 87.5 374.5 Q94 374 100 374 Q123 371 119 349 Q117 338 114 328 Q111 318 108 308 Q100 280 90.5 252.5 Q81 225 73 198 Q65 173 59 149 Q53 125 47 100 Q45 89 43 74 Q41 59 41 48 Q41 41 42.5 31.5 Q44 22 48.5 14 Q53 6 60 2 Q67 -2 77 3 Q80 5 82.5 7 Q85 9 88 11 Q92 13 97 13 Q105 13 103 7 Q102 1 97 -3 Q92 -7 86 -9 Q44 -21 21 9 Q6 28 6 57 Q6 75 9.5 93 Q13 111 18 128 Q25 153 32 177.5 Q39 202 47 226 Q53 245 59.5 263.5 Q66 282 73 300 Q77 311 81 320.5 Q85 330 89 340 Q91 345 93 353.5 Q95 362 90 362 Q82 364 73.5 364 Q65 364 57 364 Q47 364 44 370 Q43 371 44 373.5 Q45 376 46 377 Q48 379 53.5 385 Q59 391 61 393 Q74 407 82 415.5 Q90 424 101 438 Q127 474 141 518 Q155 562 168.5 601.5 Q182 641 197 679 Q214 718 237 756 Q260 794 295 817 Q312 826 326 823 Q327 823 329.5 822 Q332 821 332 819 Q332 816 330 814 Q328 812 325 815 Q323 817 319 815 Q282 790 260.5 753.5 Q239 717 224 679 Q207 633 194.5 588 Q182 543 165 499 Q146 444 101 401 Q94 395 90.5 392 Q87 389 81 383 Q80 382 76.5 379 Q73 376 72 375 Z " />
<glyph glyph-name="bar" unicode="&#x7c;" horiz-adv-x="213" d="M272 839 Q267 814 260 793 Q243 743 228.5 695 Q214 647 200 599 Q169 504 145 414 Q121 324 95 236 Q78 180 62.5 128.5 Q47 77 33 26 Q31 20 29.5 14.5 Q28 9 26 1 Q19 2 12 4 Q5 6 7 15 Q11 30 15 51 Q19 72 23 88 Q40 159 55 219.5 Q70 280 89 345 Q105 402 121 457 Q137 512 152 567 Q177 654 206 732 Q215 758 224.5 782.5 Q234 807 243 833 Q246 841 252.5 850.5 Q259 860 267 860 Q275 860 274.5 852 Q274 844 272 839 Z " />
<glyph glyph-name="braceright" unicode="&#x7d;" horiz-adv-x="224" d="M-13 24 Q8 41 18.5 65 Q29 89 36 112 Q47 148 56 184 Q65 220 73 257 Q78 280 83.5 302.5 Q89 325 94 348 Q98 365 103.5 375 Q109 385 123 392 Q124 393 129 395 Q111 403 99.5 416 Q88 429 92 449 Q99 483 113 515 Q125 546 137.5 576 Q150 606 162 636 Q171 660 180 683.5 Q189 707 197 730 Q208 758 208 786 Q207 800 202 808.5 Q197 817 183 819 Q176 819 174 819.5 Q172 820 171 821 Q184 829 201 825 Q218 821 225 807 Q234 787 231 761.5 Q228 736 222 716 Q214 687 204 658.5 Q194 630 183 602 Q170 570 158 539.5 Q146 509 134 477 Q128 462 125 445 Q120 425 132.5 418 Q145 411 159 405 Q165 403 164 398 Q162 393 159.5 388.5 Q157 384 144 379 Q130 372 128 355 Q126 341 123 326.5 Q120 312 118 298 Q108 247 98 202.5 Q88 158 75 115 Q70 99 64.5 83.5 Q59 68 51 53 Q41 36 27 25 Q13 14 -4 6 Q-12 3 -20 5 Q-28 7 -33 15 Q-35 18 -32.5 21.5 Q-30 25 -25 27 Q-18 29 -13 24 Z " />
<glyph glyph-name="asciitilde" unicode="&#x7e;" horiz-adv-x="268" d="M93 292 Q77 279 64 264 Q51 249 38 233 Q36 231 34 231.5 Q32 232 31 234 Q26 245 29.5 253.5 Q33 262 38 270 Q52 288 67 301 Q82 314 104 314 Q109 314 115.5 308.5 Q122 303 124 295 Q124 290 126.5 277 Q129 264 132.5 251 Q136 238 140 229.5 Q144 221 148 225 Q152 229 161.5 240 Q171 251 174 256 Q186 273 192.5 281.5 Q199 290 210 307 Q212 310 218 310 Q224 310 226 308 Q227 301 219.5 285 Q212 269 201 252 Q190 235 177 221 Q164 207 154 204 Q117 201 105 235 Q99 249 97 263.5 Q95 278 93 292 Z " />
<glyph glyph-name="quotedblleft" unicode="&#x201c;" horiz-adv-x="127" d="M69 563 Q68 561 67.5 559.5 Q67 558 66 556 Q61 547 54 535 Q47 523 41 513 Q33 513 29.5 514.5 Q26 516 25.5 518.5 Q25 521 27 524.5 Q29 528 31 532 Q33 537 34.5 540.5 Q36 544 38 547 Q30 552 33 563 Q35 568 40 572.5 Q45 577 55 577 Q71 577 69 563 Z M105 562 Q104 560 104 558.5 Q104 557 102 555 Q98 546 90.5 534 Q83 522 78 512 Q61 513 61.5 518.5 Q62 524 67 532 Q69 537 71 540 Q73 543 75 547 Q65 550 70 563 Q72 568 76.5 572.5 Q81 577 92 577 Q108 575 105 562 Z " />
<glyph glyph-name="quotedblright" unicode="&#x201d;" horiz-adv-x="127" d="M69 563 Q68 561 67.5 559.5 Q67 558 66 556 Q61 547 54 535 Q47 523 41 513 Q33 513 29.5 514.5 Q26 516 25.5 518.5 Q25 521 27 524.5 Q29 528 31 532 Q33 537 34.5 540.5 Q36 544 38 547 Q30 552 33 563 Q35 568 40 572.5 Q45 577 55 577 Q71 577 69 563 Z M105 562 Q104 560 104 558.5 Q104 557 102 555 Q98 546 90.5 534 Q83 522 78 512 Q61 513 61.5 518.5 Q62 524 67 532 Q69 537 71 540 Q73 543 75 547 Q65 550 70 563 Q72 568 76.5 572.5 Q81 577 92 577 Q108 575 105 562 Z " />
<glyph glyph-name="quoteleft" unicode="&#x2018;" horiz-adv-x="94" d="M69 556 Q69 553 66 549 Q62 540 54.5 528 Q47 516 42 506 Q25 507 25.5 512.5 Q26 518 31 526 Q33 531 35 534 Q37 537 39 540 Q29 545 34 556 Q36 561 40.5 566 Q45 571 56 571 Q71 571 69 556 Z " />
<glyph glyph-name="quoteright" unicode="&#x2019;" horiz-adv-x="94" d="M69 556 Q69 553 66 549 Q62 540 54.5 528 Q47 516 42 506 Q25 507 25.5 512.5 Q26 518 31 526 Q33 531 35 534 Q37 537 39 540 Q29 545 34 556 Q36 561 40.5 566 Q45 571 56 571 Q71 571 69 556 Z " />
<glyph glyph-name="ll" unicode="&#xf6c0;" horiz-adv-x="457" d="M457 300 Q467 299 466 294.5 Q465 290 463 288 Q457 278 438 245.5 Q419 213 395 174.5 Q371 136 346 99.5 Q321 63 303 44 Q291 31 279 19.5 Q267 8 252 -1 Q237 -9 216.5 -6.5 Q196 -4 184 13 Q174 26 170 40 Q166 54 164 69 Q163 80 162.5 91.5 Q162 103 162 114 Q141 83 115 52 Q104 39 91.5 27.5 Q79 16 64 7 Q49 -1 28.5 1.5 Q8 4 -5 21 Q-14 34 -18 48 Q-22 62 -24 76 Q-27 106 -26 135.5 Q-25 165 -20 194 Q-11 251 1 308 Q8 343 16.5 377.5 Q25 412 36 447 Q48 489 63 536 Q78 583 97 629.5 Q116 676 138.5 719.5 Q161 763 189 799 Q199 811 211.5 820 Q224 829 240 834 Q253 838 269 835 Q275 834 278.5 830.5 Q282 827 285 822 Q289 814 290 805.5 Q291 797 291 789 Q290 770 286 752 Q282 734 277 716 Q265 678 249.5 642.5 Q234 607 216 572 Q201 543 185.5 515.5 Q170 488 152 462 Q133 434 114.5 407 Q96 380 76 353 Q68 341 57 326.5 Q46 312 37 301 L35 295 Q34 293 34 290.5 Q34 288 34 287 Q26 249 21 218 Q16 187 13 148 Q11 126 10.5 104.5 Q10 83 13 60 Q15 50 17.5 41 Q20 32 26 24 Q34 14 44 20 Q56 25 66 33 Q76 41 85 49 Q107 69 124 92 Q141 115 158 139 L164 148 Q165 158 166 167.5 Q167 177 168 186 Q173 215 178 243.5 Q183 272 189 301 Q196 336 205 370 Q214 404 224 439 Q235 477 247.5 515 Q260 553 274 591 Q286 624 299.5 656 Q313 688 330 719 Q339 735 352 756.5 Q365 778 381.5 796 Q398 814 418.5 824 Q439 834 463 828 Q486 816 487 782.5 Q488 749 474.5 701 Q461 653 436.5 596 Q412 539 382 481.5 Q352 424 321 369 Q290 314 264.5 271.5 Q239 229 222.5 202.5 Q206 176 205 174 Q203 163 202 149.5 Q201 136 200 125 Q198 103 198 88.5 Q198 74 201 52 Q203 42 205.5 33.5 Q208 25 215 17 Q222 7 232 12 Q244 17 254 24.5 Q264 32 274 41 Q295 61 312.5 84 Q330 107 346 131 Q357 147 372.5 170.5 Q388 194 404.5 218.5 Q421 243 435 265 Q449 287 457 300 Z M47 353 Q45 347 43 336 Q41 325 39 320 L54 340 Q62 351 69 361.5 Q76 372 87 387 Q102 409 116.5 430.5 Q131 452 145 475 Q164 503 180 532 Q196 561 212 590 Q229 625 243.5 662 Q258 699 268 737 Q271 750 273 762.5 Q275 775 275 788 Q275 796 274 804 Q273 812 268 820 Q264 827 257 824 Q249 821 241 816 Q226 805 215 791.5 Q204 778 194 762 Q168 720 150 676 Q127 623 109.5 568.5 Q92 514 75 457 Q67 431 60.5 405 Q54 379 47 353 Z M225 294 Q221 275 216 250.5 Q211 226 209 206 Q290 339 341 436 Q392 533 420.5 600 Q449 667 459 709 Q469 751 469 774 Q469 797 463 805.5 Q457 814 454 816 Q422 805 398 776.5 Q374 748 356 712.5 Q338 677 324.5 639 Q311 601 301 571 L225 294 Z " />
<glyph glyph-name="exclam" unicode="&#x21;" horiz-adv-x="154" d="M212 730 Q207 709 202 688 Q197 667 192 647 Q157 504 118.5 374.5 Q80 245 39 118 L39 107 Q39 102 34 102 Q29 102 23.5 104.5 Q18 107 16 113 Q15 117 16.5 124 Q18 131 20 136 Q52 269 88.5 398 Q125 527 166 656 Q173 679 180 702 Q187 725 195 748 Q198 759 203 772.5 Q208 786 211 791 Q214 795 219.5 794 Q225 793 225 789 Q223 778 219 760 Q215 742 212 730 Z M16 25 Q14 14 9.5 -1 Q5 -16 3 -27 Q0 -39 -6 -39 Q-9 -38 -8.5 -32.5 Q-8 -27 -7 -21 Q-5 -10 -2.5 3.5 Q0 17 4 26 Q6 31 11.5 32.5 Q17 34 16 25 Z " />
<glyph glyph-name="quotedbl" unicode="&#x22;" horiz-adv-x="146" d="M90 819 Q89 817 88.5 815.5 Q88 814 87 812 Q82 803 75 791 Q68 779 62 769 Q54 769 50.5 770.5 Q47 772 46.5 774.5 Q46 777 48 780.5 Q50 784 52 788 Q54 793 55.5 796.5 Q57 800 59 803 Q51 808 54 819 Q56 824 61 828.5 Q66 833 76 833 Q92 833 90 819 Z M126 818 Q125 816 125 814.5 Q125 813 123 811 Q119 802 111.5 790 Q104 778 99 768 Q82 769 82.5 774.5 Q83 780 88 788 Q90 793 92 796 Q94 799 96 803 Q86 806 91 819 Q93 824 97.5 828.5 Q102 833 113 833 Q129 831 126 818 Z " />
<glyph glyph-name="numbersign" unicode="&#x23;" horiz-adv-x="310" d="M247 330 Q270 334 295 334 Q301 334 300 329 Q299 324 293 324 Q290 324 282 323 Q274 322 266 320.5 Q258 319 250.5 318 Q243 317 241 316 Q237 308 233.5 299.5 Q230 291 226 282 Q233 283 237.5 283.5 Q242 284 247 284 Q252 284 252 282 Q252 277 248 276 Q240 274 231.5 271.5 Q223 269 222 269 Q213 248 207.5 233 Q202 218 197 204.5 Q192 191 185.5 176 Q179 161 169 138 Q163 124 157 114 Q151 104 144 104 Q138 103 134.5 107 Q131 111 133 117 Q143 142 152.5 167 Q162 192 172 217 Q176 227 181.5 241.5 Q187 256 189 264 Q183 263 177 262 Q171 261 165 259 Q155 246 146 235 Q138 226 130.5 217.5 Q123 209 121 206 Q115 198 108 191.5 Q101 185 91 180 Q77 172 66.5 178 Q56 184 58 199 Q60 210 63 220.5 Q66 231 69 241 Q58 239 45.5 237 Q33 235 22 234 Q19 234 15.5 235 Q12 236 14 240 Q28 245 46 249 Q64 253 77 257 Q82 267 86.5 276.5 Q91 286 96 296 Q92 296 89 295.5 Q86 295 82 295 L37 292 Q34 292 31 292.5 Q28 293 28 297 Q29 298 39 300 Q49 302 62 303.5 Q75 305 86.5 306.5 Q98 308 101 308 Q111 322 119.5 335 Q128 348 138 362 Q141 367 145 366 Q149 365 149 360 Q144 346 138 335 Q132 324 127 312 Q143 314 160.5 316.5 Q178 319 193 321 Q194 321 199.5 327.5 Q205 334 207 337 Q219 351 227.5 362 Q236 373 245 386 Q250 391 257 390 Q269 388 267 384 Q264 369 258 356 Q252 343 247 330 Z M184 308 Q166 304 152 302.5 Q138 301 121 299 L113 283 Q110 277 107.5 270.5 Q105 264 103 261 Q116 263 130.5 266 Q145 269 156 271 Q157 271 160.5 275.5 Q164 280 168.5 286.5 Q173 293 177 299 Q181 305 184 308 Z M79 189 Q83 190 90.5 197.5 Q98 205 107 214.5 Q116 224 125.5 235 Q135 246 142 254 Q125 251 110.5 248.5 Q96 246 96 244 Q91 230 86 215 Q81 200 79 189 Z M210 312 L205 312 Q204 312 203 311 Q195 301 188 291 Q181 281 175 273 Q180 275 185 275.5 Q190 276 195 278 Q199 287 202.5 295.5 Q206 304 210 312 Z " />
</font>
</svg>
