<?xml version="1.0" encoding="UTF-8"?>
<svg xmlns="http://www.w3.org/2000/svg" xmlns:xlink="http://www.w3.org/1999/xlink" version="1.2" >
<font id="Amberian">
<font-face  font-family="Amberian" units-per-em="1000" ascent="750" descent="-250" font-style="normal" font-weight="400" font-stretch="normal" cap-height="712" x-height="336" underline-position="-75" underline-thickness="50" />
<missing-glyph  horiz-adv-x="198" d="" />
<glyph glyph-name="NULL" d="" />
<glyph glyph-name="CR" unicode="&#xd;" horiz-adv-x="198" d="" />
<glyph glyph-name="space" unicode="&#x20;" horiz-adv-x="198" d="" />
<glyph glyph-name="exclam" unicode="&#x21;" horiz-adv-x="172" d="M137 645 C131 646 129 643 127 636 C115 593 47 312 44 294 C41 282 38 269 36 256 C35 251 35 244 42 243 C45 243 47 247 48 250 C50 262 51 270 53 281 C68 351 127 589 132 609 C135 620 137 629 139 639 C140 643 139 645 137 645 L137 645 Z M35 182 C31 183 27 182 25 177 C24 174 25 171 27 170 C30 169 34 168 37 172 C40 176 39 180 35 182 L35 182 Z " />
<glyph glyph-name="quotedbl" unicode="&#x22;" horiz-adv-x="69" d="M36 674 C33 675 30 672 28 665 C27 660 21 639 20 633 C19 628 21 625 24 624 C28 624 30 626 31 631 C34 641 36 652 39 663 C40 667 42 672 36 674 L36 674 Z M59 673 C56 673 52 672 51 667 C49 657 46 648 44 639 C42 631 45 628 50 628 C53 628 54 632 55 635 C57 645 60 656 62 665 C63 669 63 672 59 673 L59 673 Z " />
<glyph glyph-name="numbersign" unicode="&#x23;" horiz-adv-x="159" d="M131 314 C125 315 112 315 102 315 C107 321 111 330 114 336 C116 340 115 344 111 344 C104 344 104 339 101 334 C98 329 94 322 90 316 C90 316 80 316 75 316 C80 324 85 331 90 339 C91 340 94 346 90 347 C87 348 82 347 80 342 C76 336 67 323 63 316 C55 315 42 315 32 315 C30 315 26 315 25 312 C23 308 24 305 29 304 C36 303 46 304 54 303 C51 301 50 294 46 294 C40 294 33 294 26 293 C22 293 19 292 18 289 C17 286 18 284 22 283 C28 282 35 283 41 282 C37 275 31 268 28 260 C28 257 30 254 33 254 C36 254 38 256 40 259 C44 267 50 275 54 283 C60 283 66 285 72 284 C67 277 64 270 60 264 C58 259 57 255 62 255 C66 255 69 257 71 261 C75 268 79 276 84 284 C92 284 101 283 104 282 C108 280 119 291 109 295 C104 297 99 297 92 297 C93 299 94 303 95 304 C106 304 118 303 127 303 C130 303 133 304 134 307 C135 310 134 313 131 314 L131 314 Z M62 295 C64 298 65 301 67 303 C72 303 78 305 83 304 C83 304 80 296 78 296 L62 295 Z " />
<glyph glyph-name="dollar" unicode="&#x24;" horiz-adv-x="175" d="M139 357 C138 355 138 352 139 350 C139 348 142 346 144 346 C147 347 148 348 149 351 C150 356 151 362 152 367 C156 384 159 402 156 419 C154 432 146 443 134 449 C136 457 142 477 143 481 C143 484 143 487 140 489 C137 490 133 487 132 483 C129 475 124 461 122 452 C115 452 107 449 101 446 C81 435 68 418 62 397 C57 380 60 364 71 351 C80 340 87 336 91 332 C88 319 85 304 82 291 C75 259 69 227 61 195 C52 193 43 191 34 192 C23 193 16 200 14 211 C12 220 15 229 20 237 C29 252 40 267 56 276 C56 276 60 278 58 283 C55 290 42 282 40 280 C29 270 19 259 11 247 C4 236 0 225 1 213 C3 199 9 189 23 183 C33 179 47 179 58 182 C56 169 54 160 52 147 C52 143 54 140 58 140 C61 140 64 142 64 146 C66 158 70 173 72 185 C106 195 135 231 141 242 C146 251 152 267 152 278 C152 293 146 305 136 315 C129 322 111 338 106 340 C114 372 122 406 131 438 C138 434 141 429 143 423 C149 401 143 381 139 357 L139 357 Z M115 317 C120 313 125 309 129 304 C139 293 142 280 138 266 C132 248 121 234 108 222 C98 212 86 206 74 200 C84 242 93 283 102 326 C107 323 111 320 115 317 L115 317 Z M94 346 C77 358 68 374 74 395 C80 414 92 428 110 437 C112 438 115 439 119 440 C111 408 103 377 94 346 L94 346 Z " />
<glyph glyph-name="percent" unicode="&#x25;" horiz-adv-x="147" d="M132 394 C126 394 120 393 115 392 C102 390 89 391 77 397 C72 399 67 399 63 395 C52 384 46 372 46 357 C47 351 49 346 54 343 C61 340 66 342 72 346 C79 352 83 361 84 370 C85 374 84 377 85 380 C91 380 98 379 105 379 C112 379 118 380 125 381 C123 377 120 373 118 370 C98 341 79 311 61 281 C48 260 35 238 22 217 C15 205 8 193 1 181 C-7 166 5 162 11 167 C25 178 37 188 50 200 C47 194 45 183 47 175 C49 167 56 164 63 166 C66 167 69 168 72 170 C84 177 92 188 95 202 C97 210 97 218 92 225 C89 228 85 229 83 227 C80 225 79 221 82 218 C84 215 84 212 84 209 C82 194 73 183 59 177 C59 184 60 192 63 199 C65 205 68 211 70 217 C72 220 70 224 68 226 C65 229 63 229 57 223 C45 211 34 201 21 191 C33 211 46 231 58 252 C82 294 108 331 134 372 C136 375 139 379 140 383 C142 389 138 395 132 394 L132 394 Z M60 354 C58 367 62 376 70 386 C76 373 71 360 60 354 L60 354 Z " />
<glyph glyph-name="ampersand" unicode="&#x26;" horiz-adv-x="175" d="M125 343 C137 358 148 375 155 393 C165 418 161 452 131 462 C100 473 71 446 59 420 C48 395 45 369 46 343 C48 324 52 306 58 289 C59 287 59 286 58 285 C51 276 43 266 36 257 C22 238 3 211 5 189 C6 178 14 171 25 171 C51 171 82 200 93 208 C98 200 107 188 113 179 C116 176 119 176 122 178 C125 180 125 183 123 186 C118 193 111 206 104 216 C114 223 123 230 133 237 C137 240 139 242 136 247 C134 250 130 250 128 248 C124 246 120 243 116 240 C110 235 104 231 98 226 C88 246 81 264 73 283 C73 284 73 284 74 285 L125 343 Z M87 218 C72 208 56 196 40 187 C35 184 18 177 17 188 C15 208 35 236 46 251 C52 258 58 267 63 272 C71 254 78 236 87 218 L87 218 Z M68 297 C66 304 64 312 62 319 C57 339 57 359 60 379 C64 408 78 440 108 451 C125 456 141 448 146 431 C148 424 148 417 147 411 C142 376 113 348 91 322 L68 297 Z " />
<glyph glyph-name="quotesingle" unicode="&#x27;" horiz-adv-x="38" d="M24 676 C21 677 18 676 17 672 C14 662 11 651 8 641 C6 634 9 630 13 630 C16 630 18 632 19 635 C20 642 26 662 28 669 C29 673 27 675 24 676 L24 676 Z " />
<glyph glyph-name="parenleft" unicode="&#x28;" horiz-adv-x="175" d="M165 591 C162 592 160 591 158 589 C147 576 136 563 125 550 C98 516 75 479 58 440 C34 388 15 327 19 269 C20 250 23 230 30 211 C37 194 45 177 54 159 C57 153 60 148 66 151 C70 152 70 155 68 159 C63 170 57 180 52 191 C37 220 31 251 31 283 C31 358 66 440 101 496 C117 522 136 545 155 568 C159 573 163 578 167 583 C170 586 168 590 165 591 L165 591 Z " />
<glyph glyph-name="parenright" unicode="&#x29;" horiz-adv-x="149" d="M114 583 C113 586 111 590 109 593 C108 595 105 597 103 596 C98 594 98 592 100 588 C107 573 111 557 114 541 C121 500 120 454 113 412 C108 376 98 341 84 307 C72 280 58 254 41 229 C25 208 8 187 -8 165 C-11 161 -13 159 -7 155 C-4 153 1 155 3 159 C24 187 46 213 64 243 C92 288 111 336 122 387 C128 415 133 471 130 506 C128 532 124 558 114 583 L114 583 Z " />
<glyph glyph-name="asterisk" unicode="&#x2a;" horiz-adv-x="129" d="M117 561 C106 563 95 564 84 567 C94 573 103 580 113 587 C116 589 117 593 115 596 C113 598 110 598 106 595 C98 590 90 584 82 579 C84 585 86 591 88 598 C90 604 89 607 86 607 C83 607 79 607 77 602 C73 593 71 585 68 576 C61 583 55 589 47 596 C45 598 37 603 34 598 C31 593 34 591 36 589 C46 582 51 575 57 569 C43 571 34 571 22 573 C19 573 14 572 13 569 C11 565 14 562 17 562 C28 559 39 559 51 558 C39 548 26 541 15 530 C11 526 13 522 15 520 C17 519 19 518 22 520 C36 529 47 539 58 548 C54 534 48 521 44 507 C42 502 44 499 47 499 C50 498 53 500 55 504 C60 513 65 532 72 549 C80 540 85 533 91 525 C93 522 95 521 98 522 C100 523 103 525 102 528 C101 533 89 545 84 553 C94 552 105 550 114 548 C118 547 121 547 123 552 C125 556 121 560 117 561 L117 561 Z " />
<glyph glyph-name="plus" unicode="&#x2b;" horiz-adv-x="135" d="M65 300 C64 292 62 285 60 273 C60 270 61 266 64 267 C67 267 70 269 71 272 C73 281 76 291 78 301 C89 301 101 302 112 302 C117 302 120 304 121 308 C122 311 119 314 115 314 C103 313 93 313 81 313 C83 324 86 334 88 345 C89 349 87 351 83 351 C80 351 77 350 76 345 C74 338 71 325 69 316 C68 312 68 312 65 312 C55 312 47 312 37 312 C34 311 31 310 30 305 C30 302 31 301 34 300 C45 300 55 300 65 300 L65 300 Z " />
<glyph glyph-name="comma" unicode="&#x2c;" horiz-adv-x="71" d="M10 195 C9 191 9 190 12 188 C16 186 20 189 22 194 C24 205 28 213 30 225 C31 228 29 231 26 232 C23 232 21 231 19 226 C15 216 13 205 10 195 L10 195 Z " />
<glyph glyph-name="hyphen" unicode="&#x2d;" horiz-adv-x="107" d="M77 304 C80 304 83 307 82 310 C82 313 80 316 76 316 C63 315 50 315 37 314 C33 314 31 311 31 308 C31 305 33 302 37 302 C38 302 39 302 39 302 L77 304 Z " />
<glyph glyph-name="period" unicode="&#x2e;" horiz-adv-x="99" d="M34 217 C38 217 40 220 40 224 C40 227 38 230 34 230 C31 230 28 227 28 223 C28 220 31 217 34 217 L34 217 Z " />
<glyph glyph-name="slash" unicode="&#x2f;" horiz-adv-x="219" d="M245 558 C242 560 239 560 237 557 C236 556 236 555 235 555 C218 529 160 443 143 416 C119 379 95 342 71 305 C52 277 34 248 15 219 C10 211 4 203 -1 194 C-3 191 -2 186 2 185 C5 184 8 185 10 189 C30 219 50 250 69 280 C89 311 109 341 129 372 C149 404 212 496 233 529 C237 536 242 543 247 550 C248 553 248 556 245 558 L245 558 Z " />
<glyph glyph-name="zero" unicode="0" horiz-adv-x="163" d="M135 332 C133 336 131 338 128 337 C122 335 122 332 124 326 C126 319 127 313 127 307 C127 286 122 267 113 249 C105 234 76 190 49 204 C37 210 32 229 31 242 C29 256 32 270 36 285 C47 315 68 353 101 360 C106 361 111 362 114 356 C114 355 119 354 121 355 C123 356 124 359 123 362 C121 367 117 370 112 371 C101 374 79 366 70 358 C41 334 22 299 18 257 C17 238 20 220 31 206 C51 181 79 190 98 209 C126 236 139 270 139 309 C139 317 138 325 135 332 L135 332 Z " />
<glyph glyph-name="one" unicode="1" horiz-adv-x="97" d="M69 366 C65 373 59 376 52 375 C43 373 37 367 33 359 C31 355 35 352 38 352 C40 352 42 354 43 355 C45 360 56 369 59 360 C62 351 60 337 58 327 C50 289 30 212 26 193 C25 188 25 183 29 182 C34 181 36 185 37 189 C46 224 70 318 72 339 C73 350 72 361 69 366 L69 366 Z " />
<glyph glyph-name="two" unicode="2" horiz-adv-x="144" d="M111 194 C102 197 92 198 82 200 C66 203 49 207 30 205 C57 227 81 252 102 279 C114 295 124 311 130 329 C135 344 136 358 130 371 C124 386 108 393 89 389 C66 384 35 363 29 335 C28 330 28 320 37 323 C40 324 38 335 44 344 C55 360 70 371 87 377 C103 382 116 376 120 362 C123 352 122 342 119 332 C115 319 107 308 100 296 C86 277 71 259 54 242 C43 230 31 219 17 210 C13 208 8 205 3 202 C0 200 -2 198 -1 195 C-1 192 2 190 5 190 C9 190 12 192 16 192 C36 195 55 193 73 190 C85 187 96 185 107 183 C111 182 114 184 115 187 C116 191 115 194 111 194 L111 194 Z " />
<glyph glyph-name="three" unicode="3" horiz-adv-x="151" d="M79 277 C94 279 110 282 123 293 C140 307 149 325 147 345 C145 374 113 393 80 386 C57 382 28 354 26 348 C24 343 24 338 29 336 C33 334 39 338 38 342 C37 345 39 347 40 349 C43 352 53 360 60 365 C73 374 88 379 103 376 C120 372 131 362 135 346 C138 331 129 311 114 300 C103 293 92 290 80 289 C75 289 70 289 65 288 C59 286 57 280 60 275 C66 270 74 265 80 260 C86 255 91 250 93 242 C99 217 80 188 54 182 C43 179 35 183 32 193 C28 207 34 221 37 235 C38 239 37 241 33 242 C29 243 26 237 26 236 C21 224 14 205 21 187 C25 177 34 171 42 170 C65 166 91 186 100 207 C110 229 108 259 84 274 C82 275 81 276 79 277 L79 277 Z " />
<glyph glyph-name="four" unicode="4" horiz-adv-x="142" d="M104 300 C106 303 107 306 109 309 C106 299 103 289 101 280 C93 247 88 216 80 184 C79 180 81 177 84 177 C87 176 90 178 92 181 C93 184 94 187 94 189 C100 216 105 244 112 271 C118 296 126 323 131 349 C132 353 131 360 126 360 C122 361 119 358 117 354 C114 347 110 340 107 333 C102 322 97 311 89 300 C82 290 73 282 61 277 C48 271 39 276 38 289 C38 298 40 309 44 318 C54 341 70 361 87 381 C91 383 96 387 93 391 C91 394 86 394 82 390 C55 363 23 323 26 283 C28 270 39 263 51 263 C73 264 93 281 104 300 L104 300 Z " />
<glyph glyph-name="five" unicode="5" horiz-adv-x="139" d="M133 363 C116 366 79 367 66 367 C60 367 57 362 57 357 C50 332 43 308 36 283 C35 278 37 273 41 273 C43 273 45 274 47 274 C54 276 60 278 67 279 C109 284 88 225 78 211 C71 200 63 190 52 183 C45 179 39 177 32 178 C20 183 24 198 27 207 C28 210 32 215 29 217 C22 223 17 215 16 212 C12 200 10 188 16 178 C27 160 53 168 64 178 C78 189 88 203 96 219 C105 239 112 271 91 287 C83 292 74 293 64 291 C60 290 55 289 51 288 C56 310 63 331 68 353 C69 356 70 356 73 356 C90 355 106 354 123 353 C124 353 125 352 126 351 C130 347 136 348 138 352 C140 357 137 362 133 363 L133 363 Z " />
<glyph glyph-name="six" unicode="6" horiz-adv-x="147" d="M129 364 C129 369 123 371 117 367 C102 357 89 344 77 331 C55 306 36 274 24 242 C22 236 21 229 18 224 C16 221 17 218 19 215 C19 202 25 190 35 185 C59 173 86 187 101 205 C115 223 124 263 89 267 C71 269 55 262 41 252 C47 265 54 278 61 289 C77 315 97 337 120 356 C124 356 129 361 129 364 L129 364 Z M62 250 C74 258 102 260 102 239 C102 210 65 181 39 197 C30 203 30 214 32 223 C32 224 32 224 33 225 C41 235 50 245 62 250 L62 250 Z " />
<glyph glyph-name="seven" unicode="7" horiz-adv-x="119" d="M101 355 C85 363 61 364 40 363 C35 363 25 361 28 354 C30 349 34 352 38 352 C55 352 79 354 93 347 C101 343 100 338 99 331 C94 311 81 292 70 275 C49 240 24 206 6 170 C4 167 5 164 7 163 C10 161 13 162 15 164 C17 168 19 170 21 174 C47 215 72 257 98 298 C104 308 109 319 111 331 C113 343 111 350 101 355 L101 355 Z " />
<glyph glyph-name="eight" unicode="8" horiz-adv-x="131" d="M84 290 C100 305 112 320 118 342 C122 354 119 368 112 374 C101 383 80 379 69 369 C54 356 46 341 50 321 C52 311 55 300 61 287 C51 278 40 267 31 258 C14 243 -2 220 4 196 C9 175 39 155 67 173 C83 184 91 201 94 219 C96 233 93 247 87 260 C84 268 80 275 76 283 C77 284 82 288 84 290 L84 290 Z M82 233 C85 210 70 179 43 179 C27 179 13 194 15 210 C17 229 34 244 47 257 C53 263 59 269 66 276 C72 262 81 249 82 233 L82 233 Z M71 293 C68 302 65 309 63 317 C60 328 60 337 64 345 C69 355 78 363 89 367 C100 371 108 364 108 352 C105 329 87 308 71 293 L71 293 Z " />
<glyph glyph-name="nine" unicode="9" horiz-adv-x="131" d="M93 300 C96 304 101 312 101 312 C99 298 95 283 92 268 C85 242 79 211 58 191 C50 184 40 181 32 184 C16 191 22 214 32 225 C35 228 34 230 32 232 C30 234 26 234 23 232 C16 227 11 213 10 203 C9 190 13 180 24 174 C37 167 54 171 67 183 C77 194 84 206 89 219 C97 237 102 255 106 274 C112 300 117 325 119 351 C119 356 119 362 114 362 C106 362 106 353 103 347 C98 333 92 318 83 305 C77 297 70 289 62 283 C48 273 36 278 32 293 C28 309 36 332 49 350 C53 356 62 362 69 360 C77 358 79 352 80 345 C80 341 83 336 87 338 C90 339 92 342 92 344 C92 355 87 363 78 368 C65 376 48 368 39 357 C27 342 21 324 19 306 C18 293 21 274 37 268 C48 264 58 267 68 273 C78 280 87 290 93 300 L93 300 Z " />
<glyph glyph-name="colon" unicode="&#x3a;" horiz-adv-x="54" d="M27 265 C24 266 20 264 19 261 C18 258 20 255 23 254 C26 253 29 255 30 258 C31 261 30 264 27 265 L27 265 Z M37 304 C33 305 30 303 29 300 C28 296 30 293 33 292 C36 291 39 293 40 296 C41 299 40 302 37 304 L37 304 Z " />
<glyph glyph-name="semicolon" unicode="&#x3b;" horiz-adv-x="43" d="M22 270 C20 271 17 269 16 266 C13 260 11 253 9 248 C7 241 9 238 13 237 C15 237 18 239 19 242 C22 249 24 256 26 263 C27 266 25 269 22 270 L22 270 Z M31 310 C27 311 24 309 24 306 C23 302 24 299 27 299 C30 298 33 299 34 303 C35 306 34 309 31 310 L31 310 Z " />
<glyph glyph-name="less" unicode="&#x3c;" horiz-adv-x="163" d="M133 353 C107 340 81 327 55 314 C46 309 37 304 28 299 C23 296 18 293 14 288 C11 283 14 277 17 273 C22 267 28 261 35 256 C52 241 69 228 86 214 C92 209 101 218 95 223 C79 235 63 247 48 260 C42 265 35 271 30 277 C28 279 26 280 25 282 C29 286 34 288 38 291 C46 296 56 301 65 305 C90 318 114 330 139 343 C146 346 140 357 133 353 L133 353 Z " />
<glyph glyph-name="equal" unicode="&#x3d;" horiz-adv-x="131" d="M93 275 C92 275 91 275 91 275 C71 274 51 274 31 273 C28 273 23 272 23 267 C23 262 26 261 31 261 C45 261 79 263 93 263 C97 264 99 266 99 269 C99 273 96 275 93 275 L93 275 Z M99 307 C98 307 97 307 96 307 C77 307 58 306 38 306 C34 305 32 303 32 300 C32 295 35 293 40 293 C40 293 95 295 99 295 C103 295 105 298 105 301 C105 304 103 307 99 307 L99 307 Z " />
<glyph glyph-name="greater" unicode="&#x3e;" horiz-adv-x="178" d="M127 304 C110 319 91 333 73 347 C72 348 71 349 70 350 C67 352 63 350 61 348 C59 345 61 342 63 340 C80 327 97 313 114 299 C121 293 128 288 134 281 C122 272 107 265 93 257 C68 245 43 233 18 221 C12 217 17 207 24 210 C51 223 77 236 103 249 C112 254 121 258 129 263 C135 266 140 269 144 273 C153 284 134 298 127 304 L127 304 Z " />
<glyph glyph-name="question" unicode="&#x3f;" horiz-adv-x="199" d="M202 513 C196 527 187 537 172 541 C159 544 146 543 134 539 C111 533 82 510 74 487 C72 482 71 477 73 471 C74 468 77 467 80 468 C83 468 84 471 83 474 C83 478 83 482 85 485 C98 508 125 529 153 530 C175 533 193 517 193 495 C193 482 188 470 182 458 C173 441 162 426 152 410 C131 380 111 350 92 319 C82 301 72 282 64 263 C57 247 51 231 45 215 C43 208 44 205 50 204 C52 204 55 206 56 209 C65 232 72 254 83 276 C97 305 115 333 132 360 C148 383 164 406 179 429 C191 448 199 466 203 479 C206 490 206 502 202 513 L202 513 Z M40 172 C37 173 34 171 32 168 C31 164 33 161 36 160 C40 159 43 161 44 164 C45 167 43 171 40 172 L40 172 Z " />
<glyph glyph-name="at" unicode="&#x40;" horiz-adv-x="227" d="M118 282 C115 263 120 245 141 247 C158 251 172 263 182 277 C196 297 206 319 211 343 C214 360 215 377 212 394 C209 407 204 419 193 428 C162 456 114 437 87 413 C43 376 11 322 5 265 C3 231 12 203 36 180 C53 165 74 160 97 163 C130 170 156 197 175 223 C177 226 177 231 174 233 C170 235 166 232 164 229 C147 208 129 186 103 177 C55 163 28 198 19 234 C9 283 35 334 64 372 C87 400 122 434 162 429 C189 425 201 401 202 375 C201 339 189 302 164 274 C154 263 133 249 130 266 C129 273 130 282 132 288 C137 307 152 329 163 351 C166 355 165 359 163 361 C159 363 156 361 153 357 C142 342 135 327 125 312 C120 336 96 331 85 318 C74 307 65 289 66 272 C67 263 72 259 80 258 C94 256 110 271 118 282 L118 282 Z M114 302 C114 298 114 295 112 292 C104 284 96 272 85 269 C81 268 79 269 78 273 C78 279 79 284 81 290 C86 302 93 311 103 316 C107 317 110 316 112 313 C114 310 115 306 114 302 L114 302 Z " />
<glyph glyph-name="A" unicode="A" horiz-adv-x="398" d="M356 285 C355 291 352 293 346 295 C336 298 326 298 316 298 C323 331 328 363 333 397 C337 428 338 460 337 492 C336 521 332 549 324 576 C318 598 309 620 296 639 C282 659 264 674 241 684 C213 695 185 694 157 685 C135 678 114 666 95 652 C44 615 6 566 -19 508 C-26 493 -30 477 -31 460 C-31 456 -28 440 -21 445 C-15 447 -19 452 -19 456 C-20 474 -9 504 4 527 C30 576 66 617 112 648 C131 661 153 672 176 676 C199 681 222 679 243 668 C262 659 276 645 288 628 C302 605 311 580 316 553 C325 515 326 475 323 436 C322 423 311 322 302 298 C285 297 265 296 247 294 C207 291 166 285 125 281 C140 324 156 366 173 408 C187 443 201 477 216 510 C228 539 242 568 254 598 C255 599 255 600 256 601 C260 603 260 607 258 610 C255 613 251 613 248 610 C246 608 245 606 244 604 C233 580 221 555 211 530 C195 494 179 458 164 421 C145 374 127 325 109 278 C94 277 80 276 65 276 C60 276 57 266 63 265 C76 263 95 265 105 266 C102 255 99 248 95 235 C72 165 38 60 19 -13 C17 -23 15 -33 13 -44 C13 -46 13 -49 14 -51 C15 -55 19 -57 23 -56 C26 -54 28 -51 27 -47 C26 -46 26 -45 26 -44 C27 -40 27 -36 28 -32 C34 -11 39 10 45 30 C58 74 80 146 94 190 C102 215 112 243 120 267 C170 272 220 280 271 283 C280 284 289 284 299 285 C283 203 253 95 228 15 C225 1 219 -11 215 -24 C214 -26 213 -28 211 -28 C208 -28 206 -30 206 -33 C206 -37 208 -40 211 -41 C214 -43 218 -42 220 -40 C222 -38 223 -37 224 -35 C226 -29 229 -23 232 -17 C246 25 268 97 279 140 C290 182 296 203 306 248 C308 257 313 279 314 286 C328 286 339 286 345 281 C351 277 356 280 356 285 L356 285 Z " />
<glyph glyph-name="B" unicode="B" horiz-adv-x="446" d="M439 609 C420 641 391 666 357 681 C319 698 275 702 233 698 C198 694 163 684 131 668 C72 639 26 589 -5 532 C-31 484 -48 427 -45 371 C-43 333 -30 289 10 275 C17 272 20 284 13 286 C6 289 -1 294 -7 299 C-13 305 -18 312 -22 321 C-31 339 -33 361 -33 382 C-33 439 -14 495 15 542 C48 598 98 644 159 668 C193 681 229 687 266 687 C308 687 349 677 383 653 C441 611 464 535 451 466 C436 390 377 328 305 302 C296 298 286 296 276 293 C265 291 238 287 230 287 C222 287 223 276 230 275 C268 272 307 257 325 221 C333 203 334 183 330 164 C326 139 315 116 303 94 C282 57 252 24 216 1 C203 -7 188 -14 172 -18 C161 -21 149 -22 138 -19 C129 -17 122 -12 116 -4 C109 4 104 15 101 26 C92 58 91 92 93 125 C95 170 103 214 112 258 C124 308 140 358 158 407 C175 451 195 495 217 536 C221 543 210 550 207 543 C156 449 119 349 97 245 C88 202 82 158 80 114 C79 82 81 48 91 17 C98 -4 112 -24 134 -31 C161 -39 193 -26 216 -13 C252 8 283 39 305 74 C318 95 329 119 337 142 C344 163 346 186 342 207 C334 245 304 268 269 279 C297 285 328 296 354 312 C421 352 467 428 466 507 C466 543 457 578 439 609 L439 609 Z " />
<glyph glyph-name="C" unicode="C" horiz-adv-x="406" d="M417 571 C418 590 416 609 410 626 C392 683 337 712 278 698 C251 692 227 679 205 662 C177 641 154 615 134 587 C108 551 87 511 71 469 C46 410 31 348 23 286 C19 254 17 222 17 191 C18 154 21 118 31 83 C38 56 49 30 66 9 C86 -16 111 -31 143 -35 C168 -37 191 -32 214 -19 C233 -8 249 7 263 24 C288 55 312 88 333 122 C336 125 338 128 339 132 C340 135 341 138 340 141 C340 143 339 145 336 145 C333 145 331 144 330 141 C327 135 324 128 320 122 C304 99 287 76 270 53 C259 37 247 23 234 11 C212 -9 187 -22 158 -23 C136 -23 117 -18 100 -7 C83 6 70 23 60 42 C47 67 39 95 35 124 C28 166 28 208 31 250 C34 285 39 320 47 355 C54 382 61 409 70 435 C87 482 108 528 137 570 C154 595 173 619 196 639 C219 660 244 676 273 685 C291 690 310 691 327 687 C359 680 381 662 394 633 C404 610 406 585 405 559 C403 538 399 518 394 498 C385 465 372 433 359 402 C352 387 346 372 340 358 C339 355 339 352 339 349 C339 347 342 345 344 345 C347 345 349 347 350 349 C352 355 353 361 356 367 C374 405 390 445 402 485 C411 514 417 542 417 571 L417 571 Z " />
<glyph glyph-name="D" unicode="D" horiz-adv-x="564" d="M545 528 C543 550 538 571 530 592 C515 630 489 658 453 676 C423 691 392 699 358 701 C333 703 308 702 283 697 C249 691 217 680 186 665 C131 640 83 604 42 560 C-1 515 -56 432 -59 386 C-59 382 -59 378 -58 375 C-57 372 -54 371 -51 372 C-49 373 -48 375 -48 378 C-48 381 -48 385 -47 388 C-40 416 -28 443 -13 468 C13 512 46 550 84 584 C127 622 174 651 228 670 C269 685 312 692 356 689 C385 687 412 681 438 670 C480 651 508 620 523 577 C532 548 535 518 534 490 C533 462 530 438 526 415 C515 363 498 313 475 265 C449 212 418 163 378 119 C333 69 282 26 225 -10 C200 -25 173 -38 145 -47 C123 -54 101 -59 77 -56 C53 -54 32 -44 18 -25 C-4 4 -10 36 -3 71 C1 90 10 107 19 124 C21 127 25 134 29 134 C32 134 35 135 36 138 C37 140 36 143 33 145 C24 152 16 142 11 134 C4 123 -1 112 -6 100 C-23 60 -22 21 -3 -16 C11 -43 33 -60 63 -66 C84 -71 105 -69 126 -65 C155 -58 183 -47 209 -33 C244 -13 277 10 308 35 C352 71 392 113 425 159 C469 219 501 285 523 355 C534 391 542 427 545 463 C547 485 547 506 545 528 L545 528 Z M93 -14 C96 -12 97 -10 97 -8 C98 -3 99 2 100 7 C108 47 116 86 124 126 C133 166 141 206 150 247 C158 285 167 323 176 360 C190 415 205 468 223 521 C232 551 242 580 251 608 C252 612 250 615 247 615 C243 616 241 614 240 610 C227 575 218 545 208 515 C188 454 171 393 157 331 C148 294 140 256 132 219 C124 183 116 147 109 111 C102 79 96 48 89 16 C88 8 85 0 85 -8 C85 -13 89 -16 93 -14 L93 -14 Z " />
<glyph glyph-name="E" unicode="E" horiz-adv-x="429" d="M438 677 C418 693 392 701 367 706 C326 714 283 711 242 702 C186 690 132 665 86 632 C51 607 19 574 2 534 C-11 502 -11 468 3 437 C19 400 52 378 86 360 C133 334 184 315 235 298 C153 279 70 248 7 190 C-36 151 -71 96 -62 35 C-57 -6 -30 -40 8 -56 C27 -64 49 -67 70 -66 C94 -65 117 -57 139 -47 C178 -29 213 -2 245 28 C276 56 304 88 332 121 C337 127 328 135 323 130 C290 90 255 51 216 18 C195 1 174 -15 151 -28 C130 -39 106 -50 82 -53 C42 -58 -1 -46 -28 -14 C-52 13 -56 54 -47 88 C-31 146 18 190 67 220 C126 256 193 278 260 291 C266 293 265 301 260 303 C205 321 151 340 100 366 C66 384 32 405 14 441 C0 470 2 505 15 534 C33 575 68 606 105 631 C152 662 207 684 262 694 C301 701 341 700 379 691 C456 673 470 618 438 538 C426 508 406 481 382 459 C377 453 385 445 391 450 C425 482 451 525 462 570 C472 607 470 651 438 677 L438 677 Z " />
<glyph glyph-name="F" unicode="F" horiz-adv-x="563" d="M637 684 C636 685 634 686 632 687 C615 695 597 697 578 699 C556 700 534 700 512 699 C487 698 462 695 438 691 C392 684 349 672 306 656 C274 645 242 630 212 614 C164 588 120 556 82 516 C60 494 42 469 28 442 C17 420 10 397 12 371 C13 354 19 338 31 325 C43 311 59 304 76 299 C101 293 125 293 150 295 C174 297 197 302 220 308 C230 311 239 313 249 316 C244 295 238 273 233 251 C210 154 187 59 164 -38 C163 -44 159 -58 169 -59 C172 -59 175 -55 175 -52 C177 -40 184 -14 186 -1 C207 86 237 219 263 321 C270 323 277 325 283 327 C319 340 356 352 392 365 C425 377 459 386 491 400 C498 403 506 403 504 410 C502 416 498 415 493 413 C487 411 482 409 476 407 C456 400 436 393 416 386 C389 377 362 368 335 358 C312 350 290 342 266 335 C281 399 297 462 312 527 C319 556 326 585 329 614 C329 618 328 621 325 621 C322 622 319 620 318 617 C318 616 318 615 318 614 C317 609 316 604 315 599 C312 580 308 560 303 541 C294 501 261 365 252 330 C206 318 160 303 112 306 C97 307 83 309 69 314 C38 325 22 351 24 383 C25 401 30 417 37 433 C49 458 66 481 85 502 C118 538 156 567 198 592 C256 627 319 651 385 668 C412 675 440 680 468 683 C488 685 509 687 530 688 C547 689 565 688 583 686 C595 685 607 684 618 680 C622 679 627 677 631 675 C634 673 637 673 639 676 C641 678 640 683 637 684 L637 684 Z " />
<glyph glyph-name="G" unicode="G" horiz-adv-x="481" d="M467 618 C463 656 441 681 407 695 C386 704 364 703 342 699 C309 693 280 678 253 659 C218 635 189 606 162 573 C117 517 82 455 54 389 C38 349 25 309 15 268 C9 239 5 211 3 182 C2 157 3 132 7 107 C12 75 22 45 40 18 C68 -23 106 -49 156 -56 C182 -60 208 -57 233 -49 C262 -39 288 -24 312 -4 C358 36 392 84 414 141 C425 169 432 198 431 228 C431 245 428 262 421 278 C412 298 397 313 376 321 C357 328 336 329 316 326 C283 322 256 305 231 284 C228 281 226 278 223 274 C221 271 221 267 224 263 C225 261 227 260 230 261 C232 262 233 263 233 265 C234 269 236 272 239 274 C247 282 256 288 265 294 C291 311 319 318 349 315 C362 314 374 310 385 303 C401 292 411 276 416 257 C421 236 420 214 416 193 C412 167 403 143 392 120 C378 91 360 64 338 39 C318 17 296 -3 270 -19 C235 -40 197 -49 157 -44 C136 -41 117 -35 100 -24 C65 -2 42 30 29 68 C19 96 15 124 15 153 C14 175 16 198 19 220 C23 247 28 272 36 298 C48 342 64 384 84 425 C105 471 132 514 163 554 C188 587 217 618 250 643 C276 661 303 677 333 685 C353 690 373 692 393 687 C423 680 452 653 455 615 C457 590 452 566 444 542 C442 538 440 535 439 531 C438 528 440 525 443 524 C445 523 448 525 449 527 C463 556 470 586 467 618 L467 618 Z " />
<glyph glyph-name="H" unicode="H" horiz-adv-x="483" d="M535 685 C534 691 533 697 530 702 C525 712 514 713 506 709 C500 706 494 700 490 695 C476 678 465 660 455 641 C430 591 409 539 390 486 C358 399 335 316 313 226 C283 204 243 181 205 175 C210 196 216 217 221 238 C233 282 245 327 257 371 C270 421 281 471 287 523 C291 550 292 577 290 604 C288 623 285 642 277 659 C263 693 231 709 196 701 C148 688 110 648 84 608 C55 564 37 516 26 466 C20 434 17 403 17 371 C17 341 21 312 29 283 C39 252 53 225 77 202 C107 173 147 160 189 161 C179 124 169 86 158 49 C154 35 150 21 147 8 C146 4 147 2 149 1 C153 0 158 2 158 6 C174 60 189 108 202 163 C241 167 276 186 308 207 C300 164 292 121 287 78 C282 39 277 0 277 -39 C277 -48 277 -48 278 -56 C279 -63 285 -75 295 -70 C297 -69 298 -67 298 -65 C298 -62 296 -60 293 -60 C281 -60 301 86 302 96 C308 140 313 166 323 217 C374 263 417 313 449 373 C474 419 494 467 509 517 C524 570 540 629 535 685 L535 685 Z M192 174 C147 171 106 186 76 221 C58 241 46 266 39 293 C34 313 31 334 30 354 C27 401 32 446 44 490 C55 527 69 562 89 594 C106 620 125 643 148 662 C163 674 179 684 198 689 C214 693 230 692 243 683 C254 676 261 665 266 653 C276 631 278 609 279 585 C279 546 273 507 266 468 C258 424 247 380 235 336 C219 277 205 225 192 174 L192 174 Z M521 625 C515 587 506 550 495 514 C477 456 453 400 421 348 C395 307 364 270 328 238 C338 282 350 327 364 370 C375 403 385 436 396 468 C412 512 429 555 448 597 C459 622 471 646 486 669 C492 678 497 687 504 694 C511 701 518 704 521 696 C528 675 523 647 521 625 L521 625 Z " />
<glyph glyph-name="I" unicode="I" horiz-adv-x="302" d="M308 616 C306 634 302 650 293 666 C280 685 263 698 240 702 C202 710 163 687 133 666 C100 641 72 612 48 578 C16 533 -6 483 -16 428 C-23 388 -15 348 -6 325 C0 309 8 295 19 282 C23 278 38 261 43 269 C44 272 43 274 41 277 C31 287 24 293 17 306 C2 332 -6 360 -6 390 C-7 418 -1 446 8 473 C20 510 38 544 60 575 C88 613 122 646 162 671 C178 680 194 687 212 691 C224 693 236 692 248 688 C272 679 285 660 292 636 C296 619 297 602 296 584 C294 553 288 522 281 492 C268 437 256 382 241 328 C212 216 183 104 156 -8 C153 -21 151 -33 148 -46 C148 -50 150 -53 154 -54 C157 -54 160 -52 160 -48 C162 -39 163 -31 165 -23 C184 52 202 127 221 202 C236 264 253 325 269 388 C281 436 294 485 302 535 C307 562 310 589 308 616 L308 616 Z " />
<glyph glyph-name="J" unicode="J" horiz-adv-x="459" d="M445 482 C445 453 442 428 438 402 C428 356 413 311 393 267 C368 213 338 163 301 116 C273 80 241 47 205 19 C178 -2 149 -20 117 -31 C97 -37 76 -41 55 -38 C30 -35 12 -23 -1 -1 C-11 16 -15 36 -16 56 C-18 81 -15 106 -9 131 C6 195 34 252 78 301 C105 332 137 357 175 372 C194 380 214 385 236 385 C255 384 271 377 285 363 C288 360 291 357 292 353 C293 349 295 348 298 348 C301 349 303 352 302 355 C301 359 299 363 297 366 C287 380 274 389 258 393 C241 398 224 397 207 394 C180 390 156 379 133 365 C100 344 72 317 49 285 C20 247 0 206 -14 160 C-26 122 -32 83 -27 43 C-25 28 -21 13 -15 -1 C-3 -25 15 -41 41 -48 C60 -53 79 -52 98 -48 C121 -44 142 -35 163 -24 C197 -5 228 20 256 47 C286 76 312 108 336 143 C379 206 414 273 436 346 C447 382 454 418 457 455 C458 480 458 504 454 529 C449 557 440 585 424 610 C401 647 369 673 328 689 C297 701 265 704 233 701 C206 699 181 692 156 681 C110 661 70 631 37 593 C14 568 -3 539 -19 510 C-24 501 -28 493 -30 484 C-31 478 -32 472 -27 466 C-25 463 -22 463 -20 464 C-17 465 -17 468 -18 472 C-18 474 -19 478 -18 480 C-17 485 -15 490 -13 495 C-3 516 9 535 22 554 C52 599 93 634 141 660 C183 683 229 693 277 689 C296 687 314 682 331 675 C382 652 416 614 433 562 C442 535 445 507 445 482 L445 482 Z " />
<glyph glyph-name="K" unicode="K" horiz-adv-x="560" d="M612 674 C609 676 607 676 604 674 C603 673 602 672 601 671 C589 658 576 645 564 632 C524 590 485 549 445 507 C414 474 382 440 351 406 C302 353 255 298 210 242 C177 200 145 159 112 117 C83 79 55 40 26 2 C21 -5 16 -11 11 -17 C11 -17 10 -17 10 -17 C11 -16 11 -16 11 -15 C19 1 27 17 35 34 C67 94 98 154 126 216 C151 271 174 327 192 384 C202 418 210 453 214 488 C218 519 219 551 214 582 C210 602 205 620 195 638 C187 653 177 666 163 677 C137 695 108 700 77 694 C56 691 36 683 17 673 C-19 653 -50 626 -75 593 C-89 575 -101 556 -109 534 C-113 524 -115 513 -114 502 C-113 497 -112 493 -109 489 C-107 486 -104 486 -102 487 C-100 489 -99 492 -100 494 C-104 501 -103 507 -102 514 C-100 529 -94 542 -86 554 C-56 606 -15 645 40 670 C61 679 82 685 105 684 C127 683 146 676 163 661 C179 646 188 628 195 608 C203 581 206 554 205 527 C205 501 201 475 196 449 C186 403 172 358 154 314 C134 261 111 210 86 159 C61 111 37 63 12 15 C5 0 -2 -16 -9 -31 C-10 -34 -11 -37 -11 -40 C-11 -45 -6 -49 0 -46 C2 -45 4 -43 6 -41 C19 -26 32 -11 44 5 C69 38 94 72 118 105 C120 107 122 107 124 107 C154 102 184 97 214 92 C254 85 293 77 332 67 C361 59 389 51 417 43 C455 31 493 20 530 5 C544 0 558 -5 570 -15 C573 -17 576 -17 577 -15 C579 -13 580 -10 577 -7 C575 -5 573 -2 570 0 C560 6 549 11 539 15 C510 26 480 36 450 45 C417 55 385 65 352 74 C318 84 284 91 250 98 C215 105 179 111 143 116 C138 116 133 117 128 117 C129 119 129 119 130 120 C144 138 158 157 173 175 C215 229 259 282 304 334 C341 378 380 420 420 462 C482 528 546 595 608 662 C610 663 612 665 613 666 C614 669 614 672 612 674 L612 674 Z " />
<glyph glyph-name="L" unicode="L" horiz-adv-x="382" d="M476 -57 C473 -55 470 -53 467 -52 C455 -49 444 -45 432 -42 C386 -29 340 -17 293 -9 C262 -3 231 2 199 5 C177 7 156 9 135 10 C103 13 73 14 42 13 C26 12 10 11 -5 10 C-13 10 -19 9 -27 8 C-26 9 -25 10 -25 10 C6 35 33 63 59 93 C96 137 128 185 157 235 C186 284 211 335 232 388 C249 431 263 475 272 521 C278 546 281 571 280 597 C279 614 276 631 270 647 C258 674 238 693 210 704 C189 711 167 711 146 709 C119 706 92 699 67 689 C33 676 1 659 -29 638 C-62 615 -91 588 -114 555 C-125 539 -135 522 -139 503 C-141 495 -142 486 -141 478 C-140 474 -137 472 -134 473 C-131 474 -130 476 -130 480 C-130 483 -130 486 -130 489 C-129 499 -126 509 -122 518 C-110 543 -93 565 -73 585 C-45 613 -14 636 21 655 C55 674 92 688 131 695 C151 698 170 699 190 696 C221 690 243 674 256 646 C265 628 268 608 268 587 C268 556 262 526 254 496 C239 437 217 381 192 326 C174 289 154 252 132 217 C104 171 73 126 36 86 C10 57 -18 30 -50 6 C-51 5 -53 4 -55 4 C-71 1 -86 -2 -101 -7 C-111 -11 -121 -14 -129 -21 C-132 -23 -135 -26 -137 -30 C-141 -35 -138 -41 -132 -43 C-129 -44 -126 -44 -123 -44 C-112 -43 -102 -39 -93 -34 C-77 -27 -63 -18 -49 -8 C-48 -8 -46 -7 -45 -7 C-29 -5 -13 -3 3 -1 C21 0 38 0 56 1 C86 1 117 0 147 -2 C171 -4 196 -7 220 -10 C243 -13 265 -16 288 -20 C317 -26 345 -32 374 -39 C401 -46 428 -54 455 -61 C460 -63 466 -64 471 -68 C474 -71 478 -69 479 -65 C480 -62 479 -59 476 -57 L476 -57 Z M-122 -31 C-110 -22 -95 -18 -81 -14 C-94 -22 -107 -29 -122 -31 L-122 -31 Z " />
<glyph glyph-name="M" unicode="M" horiz-adv-x="656" d="M37 41 C37 41 37 41 36 41 C37 43 37 44 37 45 C49 88 60 132 72 175 C90 239 108 302 123 366 C134 415 144 464 149 513 C152 541 153 568 150 596 C148 612 144 627 136 642 C127 659 114 672 95 678 C80 683 65 682 50 679 C27 674 7 664 -12 651 C-44 632 -72 608 -98 582 C-146 535 -184 480 -213 419 C-227 388 -238 355 -241 321 C-242 302 -240 283 -234 264 C-233 260 -231 257 -229 254 C-227 251 -224 251 -221 252 C-219 254 -218 257 -220 261 C-221 264 -223 268 -224 272 C-230 299 -229 325 -222 352 C-214 385 -201 416 -184 446 C-155 499 -118 547 -73 588 C-48 611 -20 633 10 649 C28 659 47 667 68 668 C91 669 109 661 121 641 C126 634 129 627 131 619 C138 600 139 580 139 559 C139 530 136 501 131 472 C124 427 114 383 102 339 C84 270 65 202 47 134 C38 98 29 62 20 26 C18 19 18 12 18 6 C17 3 19 0 22 -1 C25 -2 28 -2 31 1 C33 3 35 6 36 8 C41 19 46 29 51 39 C71 87 91 135 112 182 C151 271 195 358 246 440 C273 483 300 524 331 563 C343 578 356 593 371 605 C376 609 382 612 387 615 C392 617 394 615 395 611 C396 607 396 602 396 598 C395 588 393 577 391 567 C383 539 376 511 368 483 C351 430 334 378 318 326 C302 273 286 220 273 167 C264 132 256 97 254 61 C253 53 253 46 255 38 C258 30 265 28 272 33 C275 35 278 38 281 41 C287 52 294 61 299 72 C313 103 328 133 341 164 C358 204 374 244 391 283 C417 347 446 410 478 471 C508 528 541 583 579 634 C591 650 604 666 619 680 C626 686 633 692 641 695 C649 698 653 696 656 689 C659 682 660 675 660 668 C661 651 660 635 657 618 C653 590 647 562 640 534 C624 471 605 410 585 349 C574 314 563 279 553 244 C529 150 498 59 477 -35 C475 -43 475 -52 474 -60 C474 -64 475 -67 478 -69 C481 -71 483 -72 485 -70 C487 -68 488 -66 487 -63 C486 -46 491 -30 494 -14 C524 91 552 198 585 303 C603 361 620 418 638 476 C652 525 665 574 671 625 C674 642 675 659 673 677 C670 697 657 716 634 707 C623 702 613 694 605 685 C586 667 571 646 556 624 C526 582 499 538 474 493 C445 438 418 382 394 324 C377 284 360 243 343 202 C328 167 312 131 296 95 C289 81 281 67 273 54 C272 51 269 48 267 46 C267 46 267 46 266 46 C266 49 266 52 266 54 C267 63 268 72 269 80 C273 110 280 140 287 170 C308 251 333 330 358 410 C371 449 383 489 395 528 C401 550 407 572 409 595 C409 603 409 610 407 617 C404 626 397 630 388 629 C381 628 375 625 370 621 C358 613 349 603 339 593 C313 563 290 531 267 498 C226 436 189 371 155 304 C116 227 82 148 48 68 C45 59 41 50 37 41 L37 41 Z " />
<glyph glyph-name="N" unicode="N" horiz-adv-x="479" d="M-10 -31 C-10 -31 -10 -31 -11 -30 C-10 -28 -9 -25 -9 -23 C3 18 14 60 27 100 C47 165 67 229 87 293 C105 354 123 416 135 478 C140 502 144 526 146 550 C148 571 148 592 146 612 C145 629 142 646 136 662 C124 690 102 705 72 705 C54 705 37 700 21 692 C-7 680 -32 662 -55 642 C-92 611 -123 574 -149 534 C-169 503 -187 470 -198 434 C-203 416 -207 398 -205 379 C-204 372 -203 365 -199 358 C-198 356 -196 354 -193 353 C-191 352 -188 353 -187 355 C-186 357 -185 360 -187 362 C-190 364 -191 367 -192 370 C-195 384 -193 397 -191 410 C-187 432 -179 452 -170 471 C-139 537 -96 592 -41 638 C-20 656 2 671 27 682 C41 688 56 692 71 693 C88 693 102 689 114 675 C121 667 125 657 128 646 C133 629 135 612 135 594 C136 564 133 534 128 504 C122 469 113 433 104 398 C89 342 72 287 55 232 C38 176 20 120 3 65 C-7 31 -17 -3 -25 -37 C-26 -44 -27 -52 -28 -59 C-28 -62 -26 -64 -23 -66 C-20 -67 -17 -66 -15 -64 C-13 -61 -11 -59 -10 -56 C-1 -38 8 -21 15 -3 C28 26 40 56 52 85 C70 127 88 168 106 209 C138 279 174 346 215 411 C247 461 282 510 322 554 C341 576 362 597 385 615 C399 625 413 635 429 641 C434 642 440 644 446 644 C458 645 468 638 472 626 C476 614 477 602 476 590 C475 572 472 554 469 535 C459 490 445 447 430 403 C420 374 410 344 400 315 C390 286 380 258 370 230 C342 145 317 55 304 -33 C303 -41 303 -50 304 -58 C305 -61 306 -65 309 -67 C312 -70 317 -70 320 -68 C322 -67 323 -65 323 -63 C323 -61 322 -59 320 -59 C317 -58 316 -56 316 -53 C318 -9 330 40 341 89 C352 136 367 182 383 228 C397 271 412 314 427 357 C441 398 455 439 467 480 C477 515 486 550 488 586 C489 601 489 616 483 630 C479 643 471 652 458 655 C449 657 440 656 432 654 C418 651 406 644 395 636 C371 621 350 602 331 581 C293 543 260 500 230 456 C184 389 144 318 109 244 C91 206 74 168 58 129 C38 83 19 36 -1 -10 C-4 -17 -7 -24 -10 -31 L-10 -31 Z " />
<glyph glyph-name="O" unicode="O" horiz-adv-x="486" d="M459 501 C458 465 454 432 448 401 C438 350 423 302 402 255 C386 220 368 185 348 152 C321 109 289 68 252 32 C227 7 199 -16 167 -32 C142 -46 115 -55 86 -56 C68 -57 50 -54 34 -46 C12 -35 -3 -17 -14 3 C-28 28 -33 56 -35 86 C-35 113 -33 140 -28 168 C-21 208 -9 245 6 283 C20 313 35 343 52 372 C88 432 133 486 186 532 C210 553 235 570 263 585 C284 596 306 604 329 612 C338 614 347 615 357 617 C357 618 358 617 358 616 C361 613 365 613 368 616 C371 621 369 627 363 628 C358 630 353 629 348 627 C335 624 321 621 309 617 C284 609 258 597 236 583 C183 550 139 508 99 459 C46 395 6 323 -20 243 C-33 206 -42 167 -45 127 C-47 100 -47 74 -41 48 C-36 23 -28 -1 -12 -21 C1 -40 20 -54 41 -61 C64 -70 87 -70 110 -65 C136 -60 159 -51 180 -38 C213 -19 242 5 268 30 C298 62 325 96 350 133 C386 190 415 248 436 312 C456 369 467 426 469 485 C470 516 469 546 463 576 C457 603 447 628 429 651 C411 676 388 694 358 703 C330 713 301 713 272 707 C240 701 211 690 182 674 C146 654 113 628 82 600 C41 560 6 516 -19 465 C-34 437 -46 410 -52 378 C-53 372 -53 365 -53 358 C-53 354 -51 351 -48 351 C-44 352 -42 354 -42 358 C-42 359 -43 359 -43 360 C-42 365 -42 371 -41 375 C-36 399 -29 420 -19 442 C-2 476 17 507 41 537 C73 577 110 613 153 641 C181 662 214 679 249 690 C276 697 303 701 330 697 C358 694 382 683 402 664 C424 644 437 620 446 592 C456 561 459 529 459 501 L459 501 Z " />
<glyph glyph-name="P" unicode="P" horiz-adv-x="563" d="M550 605 C536 639 514 666 481 684 C451 701 420 707 387 708 C361 709 335 705 310 699 C274 691 241 677 210 660 C171 638 135 612 102 584 C63 549 30 510 2 466 C-23 428 -42 389 -53 345 C-59 324 -62 303 -61 282 C-60 272 -58 263 -54 254 C-52 251 -50 247 -46 246 C-44 245 -41 246 -40 248 C-38 250 -38 253 -41 255 C-43 257 -44 259 -45 262 C-50 277 -50 292 -48 306 C-46 330 -40 352 -32 374 C-17 413 3 448 27 482 C50 516 79 547 110 575 C156 615 206 648 262 671 C294 684 326 693 361 695 C389 697 416 695 442 687 C464 681 483 671 500 656 C521 638 535 615 543 589 C552 561 553 532 550 503 C547 468 538 436 525 405 C511 370 492 338 470 306 C434 257 393 215 342 181 C316 162 287 148 256 139 C237 133 220 130 200 132 C182 134 166 142 154 156 C145 167 139 180 135 194 C128 219 128 244 131 269 C134 293 137 317 140 341 C141 347 141 353 141 358 C141 361 139 363 136 364 C133 365 131 364 129 362 C128 361 127 360 126 358 C124 355 122 352 121 348 C114 329 106 309 100 289 C86 248 73 208 61 166 C47 123 34 80 23 36 C14 0 11 -7 4 -58 C4 -61 5 -66 7 -68 C9 -71 12 -71 15 -69 C17 -67 18 -64 17 -62 C16 -59 16 -57 16 -55 C25 -3 25 3 36 44 C51 96 68 148 84 201 C95 236 107 272 119 308 C121 314 123 321 125 327 C126 327 126 327 126 327 C125 323 125 318 124 314 C121 289 117 265 117 240 C117 216 121 192 131 170 C146 138 172 121 207 119 C223 118 238 121 254 125 C285 134 314 148 340 165 C381 191 416 222 447 258 C488 306 522 359 544 419 C555 452 563 486 564 521 C564 550 561 578 550 605 L550 605 Z " />
<glyph glyph-name="Q" unicode="Q" horiz-adv-x="529" d="M373 116 C373 115 373 115 373 115 C373 114 374 112 374 111 C382 84 386 56 388 28 C389 3 390 -17 391 -41 C391 -49 391 -57 391 -65 C391 -67 392 -69 394 -70 C397 -71 400 -70 401 -68 C402 -66 403 -65 403 -63 C403 -60 403 -57 403 -55 C403 -33 402 -16 401 6 C400 22 399 39 398 55 C395 79 391 102 383 124 C382 126 382 127 384 129 C386 131 389 135 391 138 C435 193 469 254 490 322 C500 355 507 389 508 423 C510 459 507 494 499 528 C489 566 474 602 450 633 C434 654 414 672 391 685 C351 707 308 714 263 708 C228 704 196 692 167 672 C135 651 111 624 97 588 C90 567 87 546 90 524 C92 504 99 485 107 468 C121 441 138 417 157 395 C179 369 203 344 227 319 C256 289 286 258 312 224 C335 196 354 166 367 132 C368 130 368 128 366 127 C347 106 327 86 306 68 C273 41 238 19 198 6 C173 -3 148 -7 122 -3 C105 -1 89 5 76 16 C60 29 50 46 45 66 C37 93 38 122 43 150 C46 170 52 190 59 210 C63 221 67 232 72 242 C73 244 74 245 75 245 C78 248 79 251 77 254 C74 257 69 257 66 253 C64 251 62 247 60 244 C53 230 47 215 43 199 C33 168 27 136 27 103 C28 85 31 67 38 49 C53 10 83 -11 124 -16 C143 -18 162 -16 181 -12 C212 -4 241 9 269 26 C305 49 336 76 365 107 C368 110 370 113 373 116 L373 116 Z M377 140 C373 149 369 158 364 167 C350 195 332 220 312 244 C285 276 257 306 229 335 C205 359 181 384 160 410 C142 433 125 457 113 484 C104 505 100 527 101 550 C103 575 112 597 126 618 C147 646 174 666 206 680 C235 693 266 699 298 698 C343 696 383 682 416 652 C438 633 454 610 466 584 C480 555 489 524 493 492 C498 461 498 430 494 398 C489 360 479 323 465 287 C443 234 414 186 379 141 C378 141 378 140 377 140 L377 140 Z " />
<glyph glyph-name="R" unicode="R" horiz-adv-x="482" d="M502 607 C495 634 482 656 463 674 C443 691 419 703 390 708 C359 714 326 712 290 703 C263 696 236 686 209 671 C173 652 139 627 108 598 C70 562 42 524 22 482 C12 461 6 444 3 427 C2 420 1 412 4 404 C5 401 8 399 11 400 C14 401 15 404 15 408 C14 411 14 414 14 418 C15 431 19 443 23 454 C33 481 48 507 67 533 C88 561 112 587 143 611 C181 643 220 666 261 681 C297 694 331 700 363 699 C387 698 407 693 426 683 C456 669 476 646 486 616 C493 594 495 570 492 544 C489 515 480 487 465 457 C439 404 402 356 354 312 C314 275 268 245 219 221 C191 209 163 199 136 192 C135 192 133 191 132 191 C132 191 132 191 131 191 L135 206 C137 214 139 221 141 228 L146 245 C152 265 157 285 162 304 L163 305 C170 330 177 356 184 382 C190 403 196 426 204 452 L206 460 C211 478 216 496 221 514 C222 517 223 519 223 522 C226 530 228 539 233 547 C234 549 234 552 232 554 C230 555 228 556 226 555 C225 554 223 553 222 551 C220 547 218 544 217 541 C214 530 210 518 206 505 C200 486 194 465 186 438 C180 416 174 394 169 373 L165 359 C157 333 150 306 142 278 C139 268 137 258 134 247 C128 228 123 209 118 189 C118 189 117 188 116 188 C114 188 112 187 109 187 C102 185 94 184 86 183 C76 182 67 181 57 180 C53 180 48 180 44 179 C42 179 41 179 40 178 C37 178 35 176 35 173 C34 169 36 167 38 166 C40 165 42 164 43 164 C52 161 60 158 68 156 C78 152 87 149 97 146 C99 145 101 145 103 144 C104 143 104 143 105 143 C105 143 105 143 105 143 C105 142 105 142 105 141 C103 136 102 130 100 124 C97 112 94 100 91 88 C82 50 72 14 63 -24 C61 -32 60 -40 59 -48 C59 -50 59 -51 58 -53 C58 -57 59 -61 61 -63 C63 -65 64 -66 66 -66 C67 -66 68 -65 69 -65 C71 -63 72 -61 71 -58 C71 -56 71 -55 71 -53 L71 -52 C71 -49 71 -46 72 -43 L75 -32 C79 -12 84 9 89 29 C94 48 99 67 103 86 C105 91 106 97 108 103 C110 111 112 119 114 128 C115 131 116 135 117 138 L118 138 C119 138 119 137 120 137 C176 114 231 84 282 49 C314 26 347 3 379 -20 C393 -29 407 -39 421 -49 C424 -51 427 -51 429 -49 C431 -47 431 -43 429 -41 C428 -39 426 -37 424 -36 L413 -28 C397 -17 381 -5 365 6 C360 10 354 14 348 18 C324 34 300 51 276 67 C227 100 175 128 122 150 C120 150 120 151 121 152 C123 159 125 167 127 175 C127 177 128 177 130 178 C132 178 134 179 136 179 C145 182 153 184 162 186 C202 199 242 217 281 241 C353 285 411 344 456 414 C477 447 491 479 499 512 C508 546 508 577 502 607 L502 607 Z M114 174 L109 155 L70 168 L114 174 L114 174 Z " />
<glyph glyph-name="S" unicode="S" horiz-adv-x="645" d="M664 578 C655 594 643 608 629 621 C604 642 576 658 546 671 C530 677 514 683 497 688 C468 696 439 701 409 704 C373 707 336 707 299 704 C241 699 184 688 129 667 C95 654 63 638 34 615 C10 596 -9 574 -21 546 C-35 517 -36 487 -25 456 C-18 435 -4 416 11 400 C32 378 56 361 81 345 C113 325 147 308 182 292 C203 282 225 272 246 262 C270 251 293 240 316 229 C338 219 359 207 380 194 C400 181 419 166 435 148 C446 136 454 122 458 106 C462 84 457 65 445 46 C434 29 419 17 402 6 C377 -11 349 -22 321 -31 C272 -45 222 -52 171 -53 C127 -54 83 -52 40 -43 C13 -38 -13 -30 -37 -17 C-49 -10 -61 -2 -70 9 C-86 26 -92 45 -89 68 C-86 85 -79 99 -70 113 C-50 140 -26 162 2 181 C4 182 7 184 9 185 C10 181 14 179 17 179 C20 179 21 181 21 184 C21 192 14 198 6 195 C1 193 -4 190 -9 187 C-30 174 -49 157 -66 137 C-78 123 -88 108 -95 91 C-100 78 -103 65 -102 52 C-100 28 -89 9 -73 -6 C-58 -20 -40 -30 -21 -38 C6 -49 34 -55 62 -59 C112 -67 161 -68 211 -63 C256 -59 300 -51 342 -36 C370 -27 396 -14 419 3 C438 17 454 34 464 56 C473 76 474 98 467 119 C461 135 451 149 439 161 C419 183 395 200 369 214 C347 227 325 238 303 249 C281 260 259 270 237 280 C218 289 199 297 180 306 C157 318 134 329 111 342 C84 357 57 374 34 395 C19 408 6 423 -4 440 C-16 459 -22 481 -20 503 C-18 531 -7 555 11 576 C27 596 47 611 69 625 C105 647 144 662 184 673 C251 690 318 697 386 693 C431 691 476 683 518 668 C551 657 582 642 610 620 C627 608 641 593 652 575 C661 560 666 544 666 527 C665 507 659 490 649 473 C638 456 624 440 609 426 C571 392 532 362 491 332 C488 330 486 328 482 332 C480 334 476 333 475 331 C472 327 477 319 485 318 C495 317 505 326 516 334 C547 357 576 381 605 406 C621 420 637 436 650 453 C661 468 670 484 674 502 C681 528 678 554 664 578 L664 578 Z " />
<glyph glyph-name="T" unicode="T" horiz-adv-x="552" d="M961 633 C949 640 936 644 923 648 C878 662 831 670 785 677 C728 686 671 692 614 698 C568 702 523 706 477 708 C377 712 272 702 183 653 C102 608 33 525 23 432 C18 392 28 352 54 321 C82 287 125 276 167 280 C201 283 234 294 265 308 C299 323 332 341 363 361 C370 366 364 376 357 372 C314 344 267 318 218 303 C177 290 130 284 92 305 C57 324 37 363 34 402 C31 444 45 486 66 523 C91 565 126 601 166 628 C209 657 257 674 307 685 C381 700 457 699 532 693 C489 515 448 335 409 156 C393 82 382 46 371 -34 C370 -43 369 -52 369 -61 C368 -68 380 -68 380 -61 C380 -44 383 -30 386 -13 C400 69 424 166 443 254 C476 400 511 546 543 692 C561 691 579 689 597 687 C653 682 708 676 763 668 C812 661 861 653 908 640 C914 638 958 627 958 619 C958 611 966 609 970 611 C979 615 968 628 961 633 L961 633 Z " />
<glyph glyph-name="U" unicode="U" horiz-adv-x="566" d="M602 667 C599 669 596 668 594 665 C542 574 498 491 456 411 L451 401 C434 370 417 337 400 305 C395 295 391 284 386 274 C374 251 361 225 348 200 C325 156 305 122 286 90 C262 51 242 22 220 -3 C203 -20 179 -43 150 -53 C144 -55 139 -56 133 -57 C129 -57 122 -57 119 -57 C110 -55 103 -53 96 -48 C90 -44 85 -38 80 -30 C76 -23 73 -15 70 -5 C63 20 63 45 64 67 C66 130 80 194 95 253 C108 306 125 362 146 429 C149 439 152 449 156 459 C166 490 177 521 184 553 C190 582 196 620 191 656 C189 672 184 685 175 695 C166 707 151 710 140 711 C108 716 78 701 59 689 C34 672 10 650 -10 619 C-30 590 -45 559 -55 526 C-65 493 -66 462 -60 435 C-56 418 -48 402 -36 389 C-33 387 -30 388 -28 389 C-25 391 -25 395 -27 398 C-48 420 -52 450 -51 472 C-50 501 -42 531 -27 564 C-12 596 6 625 29 649 C53 673 79 689 104 696 C117 700 130 701 142 699 C156 696 164 691 170 681 C178 668 179 652 180 641 C181 626 180 609 177 589 C174 560 167 532 158 506 C155 497 152 488 149 479 C146 471 144 463 141 455 C121 391 105 338 91 287 C77 235 60 166 53 96 C50 65 50 39 53 16 C55 0 59 -23 73 -42 C84 -57 100 -67 120 -69 C123 -70 125 -70 128 -70 C148 -70 169 -61 191 -45 C221 -23 244 5 261 30 C282 58 302 91 326 133 C350 175 372 219 392 260 C405 287 419 315 433 341 C481 433 522 509 560 579 C561 581 562 583 563 585 C544 529 526 468 510 398 C486 299 470 209 460 122 C455 68 453 26 455 -12 C455 -14 456 -16 458 -17 C460 -18 463 -18 465 -17 C467 -16 467 -14 467 -12 C466 19 467 55 471 98 C474 137 480 181 488 229 C504 324 525 419 553 512 C570 567 587 616 605 660 C606 663 605 666 602 667 L602 667 Z " />
<glyph glyph-name="V" unicode="V" horiz-adv-x="522" d="M549 684 L549 684 C546 684 543 681 543 677 C543 616 524 554 506 502 C484 437 454 371 415 298 C379 230 339 167 298 111 C278 84 259 60 239 38 C219 16 202 0 184 -14 C167 -27 152 -35 139 -39 C132 -40 126 -41 121 -39 C120 -39 120 -39 119 -39 C118 -39 118 -39 118 -38 C118 -38 117 -38 117 -38 C116 -38 115 -37 113 -36 C113 -36 113 -36 113 -35 C112 -35 112 -35 112 -35 C111 -34 111 -34 110 -33 C110 -33 110 -32 109 -32 C109 -32 109 -32 109 -32 C108 -31 108 -30 107 -29 C102 -22 100 -13 99 -5 C97 5 96 16 96 30 C97 63 101 95 106 123 C118 197 137 269 154 329 C159 347 164 364 169 382 C176 406 184 432 191 457 C204 507 216 560 216 612 C216 631 214 655 204 676 C195 693 178 704 158 705 C147 706 136 704 121 699 C106 694 92 687 77 679 C46 660 16 632 -8 599 C-27 574 -41 546 -49 519 C-58 487 -58 457 -50 430 C-43 408 -29 391 -12 382 C12 370 42 371 81 384 C94 388 107 394 123 401 C127 403 127 406 126 409 C125 412 121 414 117 412 C93 400 73 393 53 389 C37 386 22 385 9 388 C-11 392 -26 405 -35 425 C-41 438 -43 454 -43 472 C-43 515 -23 555 -6 580 C16 614 45 643 78 665 C91 673 106 680 121 686 C134 690 145 693 156 692 C173 692 186 684 194 667 C203 649 204 624 203 605 C202 552 189 499 177 454 C170 430 163 405 156 382 C151 362 145 342 139 322 C122 262 104 190 92 115 C88 88 83 55 84 23 C84 1 86 -21 98 -38 C104 -46 112 -51 121 -52 C123 -52 125 -53 127 -53 C140 -53 160 -47 187 -27 C234 8 271 55 302 96 C343 151 382 211 420 281 C459 352 490 419 514 486 C532 535 552 600 555 666 C555 670 555 674 555 677 C555 681 552 684 549 684 L549 684 Z " />
<glyph glyph-name="W" unicode="W" horiz-adv-x="803" d="M786 560 C781 584 774 605 764 624 C755 642 742 657 731 670 C723 678 712 690 700 699 C695 702 690 706 684 707 C678 709 671 706 668 702 C666 699 667 696 668 694 C670 692 673 692 676 693 C676 693 676 693 677 694 C679 695 681 695 682 694 L683 694 C686 692 690 690 693 688 C706 678 717 666 729 652 C748 630 761 605 769 577 C775 552 779 525 780 493 C780 461 777 427 770 393 C763 355 751 317 735 279 C710 222 679 171 640 126 C614 96 588 73 561 54 C538 39 517 30 496 25 C480 21 465 20 451 22 C428 26 410 39 396 60 C386 76 380 95 376 119 C374 139 373 161 376 184 C378 207 382 230 388 252 C391 264 395 276 398 288 L398 288 C400 294 402 301 404 308 C405 310 405 313 405 315 C405 318 404 320 402 322 C400 323 397 323 395 321 C393 320 391 319 390 317 L386 311 C378 301 370 290 363 279 L357 271 C317 213 276 152 231 95 C211 69 183 34 152 2 C139 -12 122 -28 103 -41 C95 -46 87 -52 77 -54 C65 -57 59 -53 55 -42 C54 -38 53 -33 53 -29 C52 -8 56 12 60 31 C68 68 80 104 90 131 C99 156 108 182 117 207 L117 207 C121 219 126 232 130 245 C134 256 138 266 142 278 L142 278 C152 305 163 334 172 363 C187 403 197 439 204 473 C210 499 216 533 214 568 C213 586 209 602 203 616 C194 636 179 650 159 657 C143 662 126 663 105 660 C87 657 68 651 48 642 C5 622 -35 594 -69 558 C-96 529 -115 499 -126 468 C-132 451 -135 434 -135 417 C-136 398 -133 380 -126 362 C-120 348 -113 337 -104 329 C-98 323 -92 320 -83 319 C-80 319 -77 320 -76 323 C-76 326 -77 329 -80 330 C-81 331 -82 331 -82 331 C-83 331 -84 331 -84 331 C-85 332 -86 332 -87 332 C-89 333 -92 335 -93 336 C-97 339 -99 342 -102 345 C-118 369 -125 396 -122 427 C-120 445 -115 463 -106 482 C-95 506 -79 528 -59 550 C-18 592 27 622 77 639 C97 646 115 649 132 649 C144 648 155 646 164 640 C178 633 188 621 194 603 C199 589 201 574 201 555 C201 534 199 513 194 487 C188 454 178 419 165 380 C153 344 140 308 127 273 C120 253 113 233 106 214 C98 192 89 169 81 146 C68 108 58 77 51 48 C46 30 41 7 40 -17 C40 -26 40 -38 45 -50 C49 -62 58 -68 70 -68 C71 -68 71 -68 72 -68 C81 -67 90 -64 96 -60 C108 -54 119 -46 132 -35 C158 -13 181 13 200 35 C231 72 263 114 299 165 C318 192 337 219 355 245 L356 247 C364 259 372 270 380 281 C381 283 383 285 384 287 L385 288 C374 252 367 222 364 193 C360 163 360 136 364 111 C368 89 374 71 384 55 C402 26 427 10 461 8 C478 7 496 10 516 17 C537 24 558 36 579 51 C610 74 638 102 666 137 C705 186 736 243 759 304 C779 359 790 412 792 466 C793 500 791 531 786 560 L786 560 Z " />
<glyph glyph-name="X" unicode="X" horiz-adv-x="432" d="M493 707 C492 709 490 710 487 710 C485 710 484 709 483 707 C425 590 376 495 329 409 C307 368 287 333 268 301 L266 308 C264 317 262 324 260 333 L257 346 C244 407 229 469 207 528 C199 548 188 573 172 596 C158 614 143 627 126 633 C82 649 37 615 14 594 C-8 573 -27 548 -47 514 C-67 478 -85 437 -100 387 C-111 350 -120 317 -125 284 C-129 252 -132 221 -133 188 C-134 150 -133 117 -128 86 C-122 49 -112 23 -99 1 C-84 -23 -62 -38 -37 -42 C-24 -43 -11 -42 3 -38 C37 -26 66 0 89 23 C129 64 163 112 192 154 C214 188 238 226 263 268 C277 206 290 155 306 104 C324 48 348 -15 390 -64 C391 -65 391 -66 393 -66 C393 -66 393 -66 393 -66 C396 -66 398 -64 399 -62 C399 -59 399 -57 397 -55 C382 -36 367 -11 352 20 C340 47 328 77 316 116 C299 172 285 230 272 282 C286 306 300 331 316 360 C361 441 409 532 466 644 C475 662 483 681 494 701 C495 703 494 705 493 707 L493 707 Z M201 189 C172 145 137 94 95 48 C71 21 44 -5 9 -22 C1 -26 -10 -30 -24 -30 C-25 -30 -25 -30 -25 -30 C-46 -30 -66 -20 -81 -3 C-100 19 -108 49 -113 73 C-118 102 -121 135 -121 174 C-121 205 -118 238 -114 272 C-111 301 -104 331 -94 366 C-79 416 -63 459 -42 498 C-23 532 -4 558 18 581 C30 594 51 610 74 619 C84 623 93 625 102 625 C109 625 116 623 122 621 C136 616 151 604 163 586 C179 563 190 538 197 517 C219 459 233 398 247 338 C248 333 250 327 251 322 C252 316 254 310 254 304 C256 297 257 291 259 285 C239 251 219 220 201 189 L201 189 Z " />
<glyph glyph-name="Y" unicode="Y" horiz-adv-x="471" d="M253 78 C262 88 270 99 277 109 C309 152 335 197 359 243 C393 309 422 377 447 447 C459 480 470 513 481 546 C494 585 505 625 514 666 C516 677 520 696 512 698 C504 700 499 693 495 687 C488 677 482 666 476 656 C432 576 388 496 343 415 C326 384 307 353 286 324 C271 302 254 281 235 263 C227 256 218 250 209 245 C204 243 199 242 194 243 C188 244 184 249 181 255 C177 264 176 273 176 283 C175 303 177 324 181 343 C187 375 195 406 204 437 C213 472 223 506 231 542 C237 565 241 590 241 615 C241 629 240 644 235 658 C228 679 214 694 192 701 C177 706 161 705 145 703 C116 697 91 686 67 670 C37 651 12 627 -8 598 C-33 564 -51 526 -57 484 C-60 462 -59 442 -51 421 C-47 410 -41 401 -32 393 C-28 390 -24 388 -19 387 C-16 387 -13 389 -13 392 C-12 395 -14 396 -17 398 C-20 399 -23 401 -26 403 C-31 407 -34 413 -37 419 C-46 439 -48 460 -45 481 C-42 503 -35 523 -26 543 C-9 582 17 615 50 643 C74 663 101 679 132 687 C148 691 164 694 181 691 C200 688 214 677 222 659 C227 647 228 634 229 622 C229 601 226 580 223 559 C217 529 208 499 200 469 C189 430 177 391 170 350 C165 326 161 301 164 275 C165 265 167 255 172 247 C179 233 192 228 207 232 C216 234 224 240 232 245 C247 257 259 270 271 285 C294 311 313 340 331 371 C350 403 368 435 387 468 C416 520 445 574 474 627 C484 643 494 661 503 678 C499 646 489 615 480 583 C466 538 452 493 435 449 C422 415 409 383 396 350 C371 291 343 235 310 181 C290 147 268 113 241 84 C223 96 203 108 186 121 C157 141 126 153 91 155 C67 157 44 154 21 144 C2 135 -15 123 -26 105 C-47 74 -50 40 -36 6 C-25 -20 -6 -37 21 -44 C40 -50 60 -49 79 -44 C106 -39 131 -27 154 -12 C188 10 218 39 245 68 C256 63 279 49 300 48 C305 48 310 48 315 48 C318 48 321 50 321 53 C322 58 319 62 315 60 C311 59 307 60 303 60 C285 62 269 70 253 78 L253 78 Z M234 74 C228 68 221 61 215 55 C192 31 168 10 139 -7 C119 -19 96 -29 72 -33 C56 -36 41 -37 25 -33 C3 -27 -13 -13 -23 7 C-43 49 -30 105 20 130 C41 140 64 144 87 143 C104 143 120 140 136 134 C148 130 158 124 168 118 C190 103 211 89 234 74 L234 74 Z " />
<glyph glyph-name="Z" unicode="Z" horiz-adv-x="598" d="M642 689 C633 691 624 689 615 689 C580 687 544 684 509 684 C474 684 437 683 402 685 C373 686 344 689 315 691 C288 693 262 696 235 699 C200 701 165 704 130 702 C103 700 77 697 51 689 C24 681 -1 668 -23 650 C-59 619 -78 582 -76 534 C-76 512 -69 492 -57 473 C-43 452 -24 436 -1 426 C20 418 41 414 63 417 C94 420 122 431 149 446 C155 449 161 453 167 457 C169 458 169 462 168 464 C167 466 165 468 162 467 C155 463 148 459 141 455 C124 446 107 439 89 434 C67 428 46 426 24 431 C2 436 -17 446 -33 463 C-53 483 -63 508 -64 537 C-65 557 -61 576 -52 595 C-41 616 -26 633 -7 647 C20 666 49 678 82 684 C117 691 152 691 188 690 C242 687 295 681 349 676 C392 673 435 671 479 671 C509 671 540 672 571 674 C592 675 614 677 635 677 C629 669 622 663 613 655 C568 615 527 571 487 527 C444 480 402 431 362 382 C322 336 283 289 242 244 C208 207 172 171 134 138 C113 120 91 103 67 88 C66 87 64 86 63 86 C55 88 46 89 37 91 C6 95 -39 94 -67 76 C-77 70 -89 56 -77 46 C-67 37 -50 33 -35 34 C-18 35 -2 39 13 45 C31 52 48 61 65 72 C66 73 68 73 70 73 C88 68 105 63 122 56 C155 43 187 29 219 15 C243 4 268 -7 294 -16 C330 -28 367 -36 405 -38 C428 -40 451 -40 474 -40 C493 -40 511 -39 530 -38 C535 -38 541 -37 546 -34 C549 -32 550 -29 549 -27 C547 -24 545 -23 542 -23 C539 -24 536 -25 534 -25 C517 -26 500 -28 483 -28 C465 -29 447 -28 429 -28 C405 -27 381 -24 357 -20 C330 -15 305 -7 280 2 C241 17 204 35 167 51 C143 61 120 71 95 78 C91 79 86 81 81 82 C96 93 113 105 128 118 C166 148 200 182 233 217 C269 255 304 296 339 336 C381 386 424 437 467 487 C504 529 543 569 583 608 C600 626 619 643 636 660 C641 664 645 669 648 674 C652 680 649 687 642 689 L642 689 Z M29 66 C12 57 -6 50 -25 47 C-36 46 -47 45 -57 48 C-62 50 -73 54 -67 60 C-58 74 -34 77 -19 79 C4 83 28 82 49 76 C42 73 36 69 29 66 L29 66 Z " />
<glyph glyph-name="bracketleft" unicode="&#x5b;" horiz-adv-x="146" d="M106 571 C117 571 128 571 139 571 C143 572 145 574 146 578 C146 580 144 583 141 583 C131 583 120 583 110 583 C109 583 103 583 102 584 C99 585 96 583 94 579 C93 577 93 571 91 558 C63 432 34 305 7 179 C5 172 16 171 22 173 C30 173 38 173 46 174 C50 174 53 177 54 180 C54 184 52 186 47 186 C38 185 28 186 20 184 C49 313 78 442 106 571 L106 571 Z " />
<glyph glyph-name="backslash" unicode="&#x5c;" horiz-adv-x="115" d="M81 197 C79 215 77 233 75 251 C69 310 62 370 56 429 C50 477 45 525 40 573 C39 577 39 581 38 585 C38 589 35 591 31 591 C28 590 26 587 26 584 C26 583 26 582 26 582 C34 515 41 449 49 382 C55 326 61 269 67 212 C68 206 69 200 70 193 C70 190 73 188 76 188 C79 188 81 190 82 194 C82 195 82 196 81 197 L81 197 Z " />
<glyph glyph-name="bracketright" unicode="&#x5d;" horiz-adv-x="141" d="M117 578 C119 578 119 578 119 576 C109 521 64 306 42 195 C41 192 40 191 38 191 C27 191 18 190 7 189 C5 189 2 189 1 186 C0 182 2 179 6 179 C17 179 28 179 39 180 C45 180 51 181 53 190 C56 208 122 525 133 583 C134 588 131 590 127 590 C109 589 99 589 86 588 C81 587 78 585 78 582 C77 579 80 576 84 576 C95 576 105 577 117 578 L117 578 Z " />
<glyph glyph-name="asciicircum" unicode="&#x5e;" horiz-adv-x="99" d="M75 594 C74 581 74 567 73 554 C73 551 73 549 74 547 C74 544 77 542 80 542 C83 543 85 545 85 549 C86 562 86 575 87 588 C87 593 90 613 83 616 C76 619 72 612 68 606 C59 590 41 565 41 557 C40 553 42 551 45 550 C49 550 52 552 52 556 L75 594 Z " />
<glyph glyph-name="underscore" unicode="&#x5f;" horiz-adv-x="187" d="M133 205 C139 205 142 208 141 212 C141 216 138 218 133 218 C95 217 57 217 20 216 C19 216 17 216 16 216 C13 215 12 213 12 210 C12 207 14 205 17 204 C18 204 19 204 21 204 L133 205 Z " />
<glyph glyph-name="grave" unicode="&#x60;" horiz-adv-x="91" d="M49 681 C46 681 44 677 46 673 C51 662 55 651 60 641 C61 638 62 636 65 635 C67 632 70 633 72 634 C73 637 74 639 73 642 C71 645 70 646 68 649 C65 658 60 668 56 677 C54 681 52 682 49 681 L49 681 Z " />
<glyph glyph-name="a" unicode="a" horiz-adv-x="219" d="M86 117 C86 117 86 117 86 117 L86 117 C86 117 86 117 86 117 L86 117 Z M226 298 C223 300 219 300 219 300 C219 300 175 245 175 245 C175 245 80 130 80 130 C70 118 64 111 58 105 C54 102 44 93 40 100 C36 105 37 112 38 118 C42 145 48 160 55 184 C67 218 76 249 76 248 C84 274 98 313 103 326 C107 337 111 348 115 359 C117 364 116 367 112 369 C109 370 106 369 103 364 C97 352 92 341 86 329 C82 321 78 314 73 305 C72 307 72 308 71 310 C63 327 47 333 29 325 C20 320 13 314 6 307 C-15 283 -24 265 -32 241 C-37 226 -40 210 -38 194 C-37 187 -35 180 -30 174 C-21 165 -12 166 -1 173 C6 178 13 185 19 193 C34 213 47 235 60 257 C61 259 62 261 64 263 L72 277 C72 277 52 216 52 216 C51 212 50 209 49 205 C45 191 40 177 36 163 C30 142 20 119 27 97 C28 94 30 91 33 89 C50 71 86 117 86 117 L164 213 C164 213 164 213 164 213 C171 222 178 229 183 237 C183 237 183 237 183 237 C199 257 210 271 210 271 L226 290 C226 290 230 295 226 298 L226 298 Z M64 289 C47 259 31 228 9 201 C4 194 -5 184 -12 180 C-16 178 -19 179 -22 184 C-25 190 -26 197 -26 204 C-26 217 -23 229 -19 241 C-11 261 -1 280 13 296 C18 302 24 308 32 312 C47 320 53 315 56 311 C61 305 63 299 65 292 C65 291 65 290 64 289 L64 289 Z " />
<glyph glyph-name="b" unicode="b" horiz-adv-x="202" d="M202 300 C161 254 124 227 83 203 C85 212 88 230 87 242 C85 266 69 292 42 288 C31 286 21 281 13 274 C10 271 7 269 3 265 C5 271 8 279 9 284 C59 363 106 442 134 532 C141 556 176 692 128 696 C122 696 116 692 112 688 C96 671 84 629 76 602 C61 549 48 495 35 441 C23 392 10 342 -2 292 C-3 290 -11 260 -13 250 C-15 245 -15 239 -18 233 C-24 220 -28 202 -29 189 C-29 185 -26 183 -23 183 C-20 183 -16 186 -16 190 C-14 199 -11 208 -9 217 C-7 225 -6 232 -1 239 C2 243 4 247 7 251 C15 261 25 270 37 274 C59 282 75 261 75 241 C75 230 73 212 69 197 C58 193 45 188 34 184 C13 177 -9 171 -30 165 C-56 156 -86 141 -99 116 C-110 94 -100 69 -78 60 C-68 56 -58 56 -48 58 C-19 64 6 77 27 98 C51 123 68 155 79 188 C136 216 184 261 206 288 C214 298 202 300 202 300 L202 300 Z M50 451 C63 504 75 558 91 611 C99 637 112 681 128 685 C146 672 138 601 130 562 C112 490 75 418 38 354 C31 342 24 331 17 320 C28 364 39 407 50 451 L50 451 Z M57 166 C46 142 33 121 14 103 C-4 86 -25 75 -49 70 C-56 69 -62 68 -69 70 C-88 74 -97 93 -88 111 C-83 120 -76 127 -68 133 C-56 141 -44 147 -30 152 C-10 158 11 164 31 171 C42 174 53 178 64 182 C62 176 60 171 57 166 L57 166 Z " />
<glyph glyph-name="c" unicode="c" horiz-adv-x="173" d="M173 300 L163 288 C149 271 134 254 119 237 C101 218 83 198 63 181 C53 171 42 163 29 157 C24 155 19 154 13 154 C3 155 -3 160 -8 168 C-16 182 -17 203 -14 221 C-12 239 -7 256 0 273 C8 292 18 308 33 322 C37 326 42 330 47 333 C54 336 57 334 60 329 C65 319 62 302 60 291 C59 287 61 284 64 284 C67 283 70 285 70 289 C72 294 73 300 74 305 C75 314 75 323 73 331 C69 342 60 347 51 346 C46 346 41 344 37 341 C26 334 18 325 10 315 C-5 296 -14 274 -21 251 C-26 230 -29 210 -27 188 C-25 177 -22 165 -14 156 C-6 145 5 141 19 142 C29 143 38 148 47 153 C61 162 73 173 85 184 C111 209 136 236 159 264 C168 275 170 278 179 289 C183 295 180 300 173 300 L173 300 Z " />
<glyph glyph-name="d" unicode="d" horiz-adv-x="212" d="M212 300 C212 300 188 262 176 243 C157 212 138 182 118 151 C109 137 100 124 88 113 C84 109 80 106 75 103 C69 100 66 104 65 106 C61 118 66 146 67 154 C102 339 158 503 168 545 C176 577 188 605 192 618 C199 638 206 659 213 680 C214 682 214 685 214 688 C214 692 209 695 205 693 C204 692 203 691 202 689 C200 686 198 683 197 680 C190 658 182 637 176 615 C169 593 134 485 127 463 C121 444 115 425 109 406 C97 370 71 296 71 294 C69 300 66 313 59 321 C50 333 36 336 25 330 C19 326 14 321 10 316 C-8 292 -22 254 -23 216 C-23 206 -22 195 -17 185 C-11 171 1 168 14 172 C24 175 39 196 45 205 C57 227 66 249 75 272 C79 281 82 291 86 299 C62 206 59 194 57 181 L57 181 C57 181 38 98 63 90 L63 90 C68 89 74 89 80 92 C87 95 92 100 97 105 C111 119 122 134 132 150 C160 194 192 245 220 289 C222 293 224 298 212 300 L212 300 Z M59 264 C56 258 44 228 34 211 C27 200 19 186 6 182 C-5 179 -10 198 -11 205 C-15 238 -1 278 17 304 C26 317 41 331 52 312 C55 307 57 302 59 297 C59 296 59 294 60 293 C61 289 63 287 68 287 C65 280 62 271 59 264 L59 264 Z " />
<glyph glyph-name="e" unicode="e" horiz-adv-x="178" d="M178 300 C178 300 158 276 154 272 C131 246 108 219 84 193 C73 181 61 171 46 163 C36 157 26 153 14 154 C3 155 -5 159 -10 169 C-14 176 -15 184 -16 192 C-16 219 -11 242 -2 267 C-2 266 7 253 22 253 C30 253 37 257 43 262 C55 271 62 285 66 299 C68 307 69 316 67 324 C64 338 51 345 37 338 C33 336 28 333 25 330 C-14 297 -37 228 -26 179 C-21 152 -1 138 26 143 C41 145 54 152 67 161 C81 172 94 185 106 199 C128 223 176 279 184 289 C193 300 178 300 178 300 L178 300 Z M12 294 C18 304 24 313 32 321 C36 324 40 328 45 329 C56 331 57 321 57 315 C54 297 49 282 35 271 C32 269 29 267 26 266 C16 262 8 268 8 278 C8 284 8 289 12 294 L12 294 Z " />
<glyph glyph-name="f" unicode="f" horiz-adv-x="160" d="M167 296 C166 299 160 300 160 300 L160 300 C151 291 116 258 112 255 C86 231 59 209 30 190 C26 186 20 183 15 180 C5 174 -5 167 -15 159 L-11 184 C-4 226 5 270 17 318 C28 366 39 404 50 439 C61 475 72 509 82 539 C89 559 96 578 102 595 C107 609 113 624 118 638 C120 642 122 646 124 650 C124 652 125 653 125 654 C126 655 126 656 127 657 C128 660 127 663 125 664 C122 666 119 666 117 663 C116 662 115 660 114 658 C114 657 113 655 112 654 C110 649 107 645 106 640 C97 619 90 599 83 582 C67 536 53 494 41 454 C26 406 13 357 2 311 C-9 265 -18 220 -25 177 C-30 144 -36 101 -39 57 C-39 36 -40 12 -36 -12 C-35 -21 -33 -33 -27 -44 C-26 -46 -25 -48 -23 -50 C-19 -56 -14 -60 -8 -61 C-6 -61 -5 -61 -4 -61 C1 -61 6 -60 11 -56 C19 -51 25 -43 29 -33 C38 -13 42 9 40 31 C38 48 34 65 28 81 C22 94 14 107 7 118 C6 120 5 121 4 122 C1 128 -3 134 -6 140 C-10 145 -9 147 -4 151 C-1 155 4 158 9 161 C43 182 82 211 122 246 C122 247 155 275 164 287 C167 290 168 293 167 296 L167 296 Z M-19 130 C-19 131 -19 133 -19 134 C-18 135 -18 135 -18 135 C-14 128 -10 121 -6 115 C1 105 8 94 13 82 C24 59 29 36 27 13 C26 -3 22 -18 16 -31 C12 -38 8 -43 3 -46 C-3 -51 -8 -50 -13 -43 C-18 -36 -20 -28 -22 -20 C-27 2 -27 24 -26 41 C-26 56 -25 70 -24 82 C-23 94 -22 105 -20 116 C-20 121 -20 125 -19 130 L-19 130 Z " />
<glyph glyph-name="g" unicode="g" horiz-adv-x="206" d="M206 300 C195 286 190 280 185 274 C154 237 122 205 85 175 C87 182 103 233 112 261 C121 289 128 316 134 344 C134 349 131 352 127 352 C122 352 118 348 113 340 C103 324 92 308 82 292 C81 291 81 290 80 290 C80 298 79 306 77 314 C74 324 68 332 58 335 C49 338 41 336 33 331 C22 325 12 316 4 306 C-20 276 -40 228 -38 189 C-37 183 -36 178 -33 173 C-29 167 -22 164 -15 165 C-7 166 0 171 6 176 C20 187 31 201 42 215 C64 243 83 272 103 302 C108 309 112 317 117 324 C104 275 88 222 71 172 C69 165 65 159 57 154 C32 139 7 123 -18 107 C-39 94 -59 81 -77 65 C-95 48 -110 29 -118 5 C-123 -9 -125 -25 -120 -40 C-115 -55 -105 -65 -88 -67 C-78 -69 -68 -66 -59 -62 C-40 -54 -25 -41 -12 -26 C4 -8 16 13 27 34 C46 72 62 111 76 151 C77 153 78 154 79 155 C83 158 87 161 91 164 C127 193 160 226 190 261 L212 288 C221 299 206 300 206 300 L206 300 Z M53 249 C39 230 25 212 9 195 C4 190 -1 186 -7 182 C-9 180 -13 178 -16 177 C-20 176 -22 178 -24 181 C-26 187 -26 193 -26 199 C-25 214 -21 229 -16 243 C-8 262 1 281 14 297 C20 305 27 312 35 318 C38 320 41 322 45 323 C52 326 58 323 63 317 C66 311 68 304 68 297 C68 293 68 288 68 283 C68 280 68 277 71 275 C65 266 59 258 53 249 L53 249 Z M49 112 C38 83 32 69 16 39 C5 18 -8 -3 -24 -21 C-36 -34 -49 -45 -64 -51 C-72 -55 -80 -57 -88 -55 C-99 -53 -105 -46 -109 -36 C-112 -23 -111 -11 -107 1 C-100 21 -88 38 -72 53 C-56 68 -38 80 -19 92 C8 109 32 124 60 141 C59 138 52 120 49 112 L49 112 Z " />
<glyph glyph-name="h" unicode="h" horiz-adv-x="220" d="M227 298 C224 300 220 300 220 300 C220 300 176 245 176 245 C147 209 109 164 83 137 C83 137 60 113 54 119 C54 119 54 119 54 119 C54 119 54 120 54 120 C54 120 54 120 54 120 C53 120 53 120 53 121 C53 122 52 123 52 124 C52 126 52 128 51 129 C51 143 53 157 55 171 C57 180 59 190 61 199 C62 202 65 214 68 229 C68 229 68 229 68 229 C69 231 70 233 70 235 C70 235 73 247 78 265 C78 265 82 283 83 300 C84 304 84 312 82 319 C80 326 77 329 73 330 C73 330 73 330 72 330 C72 330 72 330 72 330 C72 330 72 330 71 330 C69 330 66 330 64 329 C60 328 57 325 55 323 C53 322 52 321 50 319 C36 305 24 288 13 271 C9 264 5 258 1 251 C1 251 1 251 1 251 C4 262 6 274 9 285 C21 332 33 379 45 426 C54 464 64 501 73 539 C80 566 81 575 88 602 C95 632 101 661 105 692 C105 695 105 698 105 701 C104 704 101 706 99 706 C96 706 94 703 94 700 C94 699 94 697 94 696 C89 672 86 649 81 625 C72 588 68 570 59 532 C51 502 44 471 36 441 C28 409 19 377 11 345 C1 306 -8 267 -17 229 C-19 222 -20 215 -21 208 C-22 206 -21 204 -19 202 C-17 201 -14 201 -12 202 C-11 203 -10 204 -9 205 C-7 208 -6 210 -5 213 C8 239 23 265 40 288 C48 298 56 308 65 316 C66 316 66 316 66 316 C67 317 69 318 70 317 C76 310 66 267 62 253 C62 251 62 250 61 249 C61 249 61 249 61 249 L61 249 C61 247 61 246 60 245 L60 244 C60 244 60 244 60 244 C60 244 60 244 60 244 L57 233 C56 229 55 224 53 219 L53 219 L53 219 C48 196 43 173 40 150 C40 142 39 134 39 126 C40 121 41 116 44 112 C47 107 55 100 76 115 L76 115 C76 115 76 115 76 115 C77 116 77 116 77 116 C77 116 77 116 77 116 C79 117 81 119 83 121 C83 121 83 121 83 122 C93 130 104 141 118 158 C162 207 211 271 211 271 L211 271 L227 290 C227 290 231 295 227 298 L227 298 Z " />
<glyph glyph-name="i" unicode="i" horiz-adv-x="107" d="M-15 213 C-15 205 -14 197 -11 189 C-7 178 3 173 14 177 C32 183 45 200 57 214 C78 241 90 260 111 288 C112 289 121 298 107 300 C107 300 76 258 58 235 C44 217 27 195 11 188 C6 186 2 188 0 193 C-3 204 -3 215 -2 226 C2 257 8 286 18 315 C19 319 17 323 13 323 C10 323 8 322 7 319 C-8 285 -14 249 -15 213 L-15 213 Z M35 404 C32 404 28 401 28 397 C28 395 30 392 33 392 C37 392 41 395 41 398 C41 401 39 404 35 404 L35 404 Z " />
<glyph glyph-name="j" unicode="j" horiz-adv-x="130" d="M15 381 C18 381 21 383 21 386 C21 389 18 392 15 392 C12 392 9 390 9 387 C9 384 12 381 15 381 L15 381 Z M137 298 C134 300 130 300 130 300 C130 300 130 299 129 299 C124 292 72 230 -14 167 C-11 182 -9 194 -8 196 C-2 226 3 255 9 285 C10 292 12 298 13 305 C13 308 11 311 8 312 C2 312 1 305 0 301 C-3 287 -5 275 -8 261 C-15 228 -21 194 -28 161 C-28 160 -30 158 -31 157 C-52 141 -73 125 -94 109 C-115 94 -136 78 -154 59 C-168 45 -180 30 -188 12 C-194 -1 -197 -15 -194 -30 C-190 -48 -176 -59 -158 -58 C-149 -58 -141 -55 -133 -51 C-114 -42 -99 -28 -86 -12 C-68 9 -56 33 -46 59 C-38 78 -32 98 -26 118 C-23 129 -20 140 -18 151 C-18 151 35 185 95 246 C115 264 136 289 136 289 L137 290 C137 290 140 295 137 298 L137 298 Z M-37 124 C-45 96 -54 68 -67 42 C-77 20 -89 1 -105 -16 C-117 -28 -130 -37 -146 -43 C-150 -45 -155 -46 -159 -46 C-171 -47 -179 -40 -182 -28 C-184 -17 -182 -5 -178 5 C-171 22 -160 36 -148 48 C-133 64 -116 78 -99 91 C-78 107 -56 123 -35 138 C-35 139 -34 139 -34 139 C-34 139 -33 139 -33 139 C-35 134 -36 129 -37 124 L-37 124 Z " />
<glyph glyph-name="k" unicode="k" horiz-adv-x="193" d="M199 298 C197 300 193 300 193 300 C193 300 148 245 148 245 C133 227 116 206 99 186 C92 178 73 157 59 157 C57 157 56 158 55 158 C55 158 55 158 55 158 C55 158 54 158 54 158 C26 166 18 233 18 233 L18 233 C25 237 35 244 45 253 C56 264 65 275 72 289 C74 294 76 299 76 304 C76 311 71 316 64 316 C54 316 47 309 40 302 C26 285 14 267 4 247 C2 243 0 240 -2 236 C-2 236 -2 237 -2 238 C6 275 15 312 23 349 C34 398 45 448 57 497 C65 532 74 567 83 602 C91 632 98 663 106 693 C107 697 107 701 109 704 C110 705 110 706 110 706 C110 709 109 711 107 712 C104 713 101 713 99 710 C98 708 97 706 97 704 C89 675 82 645 74 616 C66 585 58 555 51 524 C44 497 38 469 31 441 C25 413 19 385 12 356 C6 327 -1 298 -8 269 C-17 228 -26 194 -33 160 C-34 157 -31 153 -28 151 C-25 150 -22 151 -21 154 C-20 155 -20 156 -19 158 C-12 177 -5 197 3 216 C4 219 6 223 8 227 C11 211 14 196 20 181 C24 171 29 161 37 153 C38 153 38 152 39 152 C49 144 68 139 95 164 C95 164 95 164 95 164 C98 167 101 170 103 172 L199 290 C199 290 203 295 199 298 L199 298 Z M24 258 C32 271 41 284 51 295 C57 301 59 304 64 304 C63 301 62 297 61 295 C55 283 47 273 37 264 C32 259 27 254 21 249 C20 249 20 248 19 248 C19 248 19 248 18 248 C20 251 22 255 24 258 L24 258 Z " />
<glyph glyph-name="l" unicode="l" horiz-adv-x="152" d="M159 298 C156 300 152 300 152 300 C152 300 108 245 108 245 C97 232 85 217 72 202 C67 196 34 158 19 178 C18 180 17 182 16 184 C15 184 15 184 15 185 C12 194 10 203 10 212 C8 233 8 253 9 273 C12 304 16 334 21 364 C31 419 44 473 58 526 C71 579 91 649 104 701 C105 703 105 704 105 706 C104 708 103 709 101 710 C98 711 96 710 95 709 C94 707 94 706 93 705 C89 687 78 652 74 634 C61 586 47 537 35 488 C20 427 7 365 0 302 C-3 277 -5 251 -4 225 C-3 217 -2 210 -1 202 C0 193 2 184 7 176 C8 173 10 170 12 168 C12 168 12 168 12 168 C13 167 14 166 15 165 C16 164 18 163 19 162 C41 151 72 184 85 198 C116 236 143 271 143 271 L143 271 L159 290 C159 290 163 295 159 298 L159 298 Z " />
<glyph glyph-name="m" unicode="m" horiz-adv-x="304" d="M209 324 C209 322 209 321 209 320 C208 314 207 309 206 303 C202 281 197 259 193 237 C191 228 191 220 192 211 C194 198 204 191 216 195 C246 205 301 282 305 286 C310 293 316 298 304 300 C288 284 242 220 214 206 C208 204 205 207 204 213 C203 223 204 232 206 242 C210 263 215 284 219 304 C220 311 222 318 220 326 C217 345 199 334 191 326 C175 311 161 294 147 277 C130 259 118 236 97 222 C94 219 93 220 92 224 C89 249 96 276 95 301 C95 307 93 312 88 315 C77 320 71 310 64 304 C49 289 37 270 25 252 C14 233 2 214 -10 195 C-11 194 -12 192 -13 191 C-12 198 -11 205 -9 212 C-2 243 6 274 14 306 C15 312 17 318 18 324 C19 331 9 335 6 325 C1 306 -4 283 -10 261 C-18 229 -26 204 -26 174 C-25 168 -19 166 -14 169 C-12 171 -10 172 -9 174 C-4 181 0 188 5 196 C21 222 36 248 54 272 C62 283 71 295 82 304 C84 298 81 277 80 266 C79 255 79 244 79 234 C79 228 80 222 82 217 C84 210 91 206 98 209 C106 211 119 225 128 234 C144 253 159 272 174 290 C185 302 196 315 209 324 L209 324 Z " />
<glyph glyph-name="n" unicode="n" horiz-adv-x="214" d="M83 303 C84 299 84 296 84 292 C82 278 81 264 79 249 C76 229 76 200 85 188 C90 182 96 180 103 181 C110 182 116 185 121 189 C134 198 145 209 156 220 C175 239 200 267 218 287 C221 291 227 297 214 300 C199 284 148 226 124 206 C118 201 112 196 104 194 C98 192 95 193 93 198 C88 211 90 241 93 263 C94 278 98 293 94 307 C91 314 85 316 78 314 C70 312 52 291 40 277 C23 255 8 233 -9 212 C-3 239 4 266 11 293 C13 300 16 308 18 316 C19 319 18 322 15 323 C13 325 7 322 6 319 C-7 279 -17 242 -24 200 C-24 196 -23 192 -19 190 C-15 188 -12 190 -9 193 C-6 196 -3 199 -1 203 C25 235 47 269 76 298 C78 300 80 301 83 303 L83 303 Z " />
<glyph glyph-name="o" unicode="o" horiz-adv-x="158" d="M160 299 C159 300 158 300 158 300 C150 290 142 282 132 276 C112 264 89 259 70 276 C65 280 62 286 58 291 C55 295 49 307 42 303 C39 301 38 298 41 294 C52 284 53 267 51 252 C49 235 41 217 30 204 C22 193 2 178 -12 183 C-34 190 -21 241 -15 253 C-6 277 11 298 34 309 C41 313 35 324 27 321 C0 306 -19 281 -29 252 C-34 239 -36 225 -37 210 C-37 210 -37 210 -37 210 C-37 210 -37 210 -37 210 C-37 197 -33 178 -19 172 C5 161 33 187 45 204 C57 221 66 246 64 268 C111 227 161 287 162 289 C165 293 162 297 160 299 L160 299 Z " />
<glyph glyph-name="p" unicode="p" horiz-adv-x="220" d="M-5 206 C-8 199 -12 192 -15 185 C-5 229 6 271 16 315 C16 322 8 324 5 318 C-3 297 -3 286 -12 255 C-23 215 -31 174 -41 134 C-45 116 -49 99 -54 82 C-63 50 -71 18 -77 -14 C-78 -19 -78 -23 -78 -28 C-78 -31 -76 -34 -73 -35 C-70 -35 -67 -34 -66 -31 C-65 -28 -64 -26 -64 -24 C-59 -3 -55 17 -50 37 C-45 61 -40 84 -33 107 C-18 150 -1 191 23 229 C36 252 50 274 68 293 C77 302 86 310 96 315 C101 318 106 320 112 319 C117 319 121 316 122 311 C123 305 122 300 121 295 C117 283 110 272 102 262 C88 244 71 228 49 217 C41 213 33 210 24 207 C20 205 18 203 19 199 C20 195 23 194 26 193 C90 176 210 268 226 290 C228 292 232 299 220 300 C174 256 113 215 49 203 C81 217 106 243 124 273 C129 282 134 292 135 303 C136 321 124 333 106 331 C99 330 92 328 86 324 C72 315 61 304 51 292 C29 265 11 236 -5 206 L-5 206 Z " />
<glyph glyph-name="q" unicode="q" horiz-adv-x="223" d="M50 116 C120 149 184 224 226 283 C228 286 240 300 223 300 C174 237 125 170 47 130 C60 177 73 225 86 273 C92 295 97 318 103 340 C104 343 104 345 104 348 C104 351 101 354 98 355 C95 355 93 354 92 352 C90 349 88 346 86 342 C80 331 75 320 70 309 C70 308 69 307 69 306 C67 309 66 311 65 314 C58 328 46 333 31 328 C21 324 13 318 7 310 C-15 282 -32 236 -24 207 C-20 196 -12 190 -2 190 C17 190 33 213 42 228 C57 251 68 277 80 301 C67 244 49 189 35 134 C25 94 16 54 13 13 C11 -5 11 -23 14 -41 C16 -48 18 -56 22 -62 C28 -71 38 -74 48 -70 C58 -66 64 -59 69 -51 C92 -13 94 27 75 70 C67 86 59 101 50 116 L50 116 Z M41 107 C46 98 51 90 55 82 C63 69 69 55 73 41 C78 19 77 -1 70 -21 C66 -32 61 -43 53 -52 C50 -55 46 -57 43 -59 C38 -61 34 -60 32 -55 C30 -50 28 -45 26 -40 C23 -20 23 -1 25 18 C28 49 35 78 41 107 L41 107 Z M64 296 C58 285 53 274 48 263 C35 241 20 208 -1 202 C-5 201 -9 203 -11 207 C-14 212 -14 218 -14 224 C-11 255 0 282 20 305 C25 311 32 316 40 318 C46 319 50 317 53 312 C55 309 57 306 58 302 C59 299 61 297 64 296 L64 296 Z " />
<glyph glyph-name="r" unicode="r" horiz-adv-x="169" d="M14 298 C34 325 52 353 61 387 C63 398 65 409 63 420 C59 438 46 445 29 440 C22 437 16 433 10 428 C-13 406 -27 380 -31 348 C-33 331 -28 316 -15 303 C-8 296 1 291 11 286 C17 283 23 280 29 277 C35 273 40 267 40 259 C41 254 41 249 40 245 C36 231 32 218 28 204 C21 182 13 160 8 137 C5 126 3 115 4 104 C6 88 19 80 34 87 C40 90 46 95 51 100 C65 114 76 129 86 145 C114 189 148 245 176 289 C179 293 181 298 169 300 C169 300 142 257 130 238 C110 207 91 177 72 146 C63 132 53 119 41 107 C34 100 17 89 16 107 C16 119 18 131 22 142 C29 169 38 195 46 221 C49 231 53 241 53 252 C53 264 50 275 40 283 C36 287 31 290 25 293 C22 295 18 296 14 298 L14 298 Z M3 304 C-8 311 -16 321 -18 334 C-20 348 -17 361 -12 374 C-5 391 4 406 18 418 C23 423 28 427 35 429 C43 431 48 428 50 420 C52 412 52 403 50 395 C42 361 23 329 3 304 L3 304 Z " />
<glyph glyph-name="s" unicode="s" horiz-adv-x="156" d="M158 300 C158 300 135 274 121 261 C100 241 78 222 56 204 C55 227 47 242 47 242 L47 242 C38 262 26 278 10 294 C91 384 180 591 83 584 C51 582 22 550 5 526 C-23 485 -41 440 -44 390 C-46 368 -42 348 -33 328 C-25 312 -14 299 -1 286 C9 276 19 266 26 254 C31 247 34 240 37 233 C43 219 44 206 43 195 C21 177 0 165 -22 152 C-34 145 -51 137 -63 129 C-109 102 -111 70 -111 70 L-111 70 C-113 63 -113 55 -112 47 C-108 30 -95 19 -77 20 C-68 20 -60 23 -53 27 C-31 37 -14 52 1 69 C21 91 35 116 45 144 C55 178 56 184 56 190 C70 201 95 222 108 234 C127 250 147 271 163 290 C168 296 158 300 158 300 L158 300 Z M-16 323 C-29 343 -34 365 -32 388 C-25 461 9 533 64 565 C82 575 109 577 112 551 C118 467 34 344 1 302 C-6 309 -11 316 -16 323 L-16 323 Z M9 99 C-5 78 -22 60 -44 45 C-53 39 -63 34 -74 32 C-88 30 -98 38 -100 52 C-102 69 -99 80 -87 95 C-66 120 -42 127 -16 143 C4 154 24 167 43 181 C38 153 26 124 9 99 L9 99 Z " />
<glyph glyph-name="t" unicode="t" horiz-adv-x="183" d="M61 543 C61 542 61 541 61 541 C46 496 31 451 21 406 C3 327 -27 195 12 147 C21 135 33 132 48 136 C60 140 70 147 79 155 C104 177 126 202 146 228 C159 245 175 267 188 285 C191 289 197 296 183 300 C183 300 174 287 169 281 C148 251 127 222 102 195 C91 183 80 171 67 161 C60 155 53 150 44 148 C36 145 29 147 24 154 C21 158 18 162 16 166 C9 183 8 201 7 218 C6 240 7 261 10 283 C13 305 17 327 21 348 C34 414 52 477 73 540 C74 543 75 543 77 543 C113 544 149 545 184 545 C198 545 212 545 227 544 C229 544 231 545 232 548 C234 550 233 553 231 554 C229 556 227 557 225 557 C221 557 216 558 211 558 C169 557 126 556 83 556 C82 556 80 556 79 556 C79 557 79 558 80 558 C82 566 85 574 88 581 C95 601 103 622 111 642 C117 659 124 676 131 692 C132 696 135 700 137 703 C139 705 139 708 138 710 C136 712 133 713 131 711 C129 710 127 709 126 707 C123 702 120 697 118 691 C111 676 105 660 98 644 C88 615 77 586 67 557 C66 556 65 555 63 555 C53 555 42 555 31 554 C-1 553 -33 551 -64 550 C-73 549 -81 548 -89 548 C-92 547 -94 545 -94 542 C-94 540 -92 537 -89 537 C-87 537 -85 537 -83 537 C-66 538 -48 539 -31 540 C-3 541 25 542 53 543 C56 543 58 543 61 543 L61 543 Z " />
<glyph glyph-name="u" unicode="u" horiz-adv-x="237" d="M99 273 C106 282 118 299 119 301 C116 293 113 285 109 276 C98 249 89 221 82 192 C77 172 74 151 76 130 C77 122 79 114 84 107 C89 101 96 99 104 101 C111 103 116 108 121 113 C132 123 141 135 149 148 C180 193 211 240 242 286 C247 293 248 298 237 300 C237 300 185 222 162 187 C149 169 136 151 123 133 C118 126 112 120 105 115 C98 110 94 111 91 119 C89 126 88 133 88 140 C88 155 90 170 93 185 C100 219 112 252 126 284 C131 299 137 313 143 327 C143 330 144 332 144 335 C144 339 140 341 136 340 C133 340 131 338 130 336 C125 329 120 323 115 316 C92 285 69 254 46 223 C38 212 30 201 19 193 C15 190 11 188 7 186 C2 184 -1 185 -3 190 C-15 219 0 258 14 308 C16 314 19 321 21 328 C22 331 20 334 18 335 C14 336 9 334 8 330 C4 316 0 302 -4 289 C-16 249 -34 181 1 173 C8 172 13 175 19 178 C29 184 37 193 45 202 C63 226 81 250 99 273 L99 273 Z " />
<glyph glyph-name="v" unicode="v" horiz-adv-x="256" d="M264 295 C263 298 259 301 256 300 C244 288 235 280 220 273 C201 265 179 267 163 280 C156 286 149 294 143 301 C142 303 139 305 137 306 C132 307 128 305 126 302 C110 282 93 263 77 244 C58 221 39 197 19 175 C12 168 5 161 -3 156 C-11 151 -15 153 -15 161 C-16 192 -4 225 2 252 C5 267 23 312 3 318 L3 318 C0 319 -3 319 -5 316 C-6 312 -4 310 -2 307 C0 304 -1 299 -1 296 C-2 289 -4 282 -5 276 C-6 269 -8 263 -10 256 C-13 242 -17 229 -20 216 C-26 192 -27 183 -28 168 C-28 162 -28 156 -26 150 C-24 144 -18 141 -12 141 C-12 141 -12 141 -12 141 C-12 141 -11 141 -11 141 C-2 142 9 151 14 155 C22 163 31 172 39 181 L133 292 C137 288 141 284 149 276 C159 266 175 258 188 256 C214 252 244 271 262 289 C264 291 264 292 264 295 L264 295 Z " />
<glyph glyph-name="w" unicode="w" horiz-adv-x="353" d="M356 297 L356 297 C355 299 353 300 353 300 C348 293 336 285 335 284 C314 269 277 254 243 297 C242 298 241 300 240 301 C240 301 239 302 239 302 C235 308 229 305 227 304 C224 302 220 298 218 296 C217 295 217 294 216 294 C205 282 194 270 183 259 C174 249 164 240 153 233 C148 231 144 229 139 228 C135 227 132 229 131 232 C131 234 130 235 130 236 C129 246 130 255 132 264 C136 279 139 293 143 308 C144 313 145 319 146 324 C146 327 144 330 141 331 C139 333 136 332 133 330 C132 328 130 326 129 325 C123 316 116 307 110 298 C87 263 64 227 39 194 C29 181 19 168 7 157 C4 154 1 152 -3 150 C-7 148 -10 149 -12 153 C-13 154 -13 155 -13 155 C-16 162 -16 170 -16 177 C-16 197 -12 216 -7 235 C1 262 9 289 17 315 C18 318 16 321 13 322 C11 324 8 322 6 319 C6 319 5 318 4 317 C-7 276 -23 235 -28 192 C-29 179 -29 166 -26 154 C-24 149 -22 144 -18 141 C-13 136 -5 136 3 139 C11 143 17 150 23 156 C38 172 51 189 63 206 C84 237 105 269 126 300 C127 301 129 304 129 305 C129 302 127 295 127 294 C124 281 122 275 120 262 C118 253 117 243 118 234 C119 222 127 215 138 216 C141 216 144 216 147 217 C157 221 165 227 173 234 C189 247 203 262 217 277 C220 280 222 282 224 285 L232 293 C235 289 238 286 241 282 C259 264 302 234 357 289 C357 289 357 289 357 289 C358 291 359 291 359 292 C360 294 356 297 356 297 L356 297 Z " />
<glyph glyph-name="x" unicode="x" horiz-adv-x="182" d="M1 214 C1 213 2 212 2 211 C5 204 8 197 12 190 C21 176 36 170 53 175 C63 177 71 182 80 188 C101 203 121 220 139 239 C162 261 166 266 188 288 C190 290 194 297 182 300 C182 300 124 238 96 216 C87 208 77 201 66 194 C62 191 56 188 51 187 C38 183 29 187 21 198 C16 205 14 214 11 222 C11 224 11 225 13 227 C26 241 39 255 52 268 C70 287 88 305 105 323 C107 325 109 327 109 329 C109 331 109 333 108 334 C106 335 104 336 102 335 C99 335 97 330 95 328 C67 300 39 271 11 242 C10 242 10 241 9 241 C9 241 9 241 8 241 C8 245 8 249 8 253 C9 273 10 289 12 308 C12 313 13 320 13 325 C13 329 11 331 8 331 C2 331 2 327 1 322 C-1 303 -2 285 -3 266 C-4 254 -4 243 -2 231 C-2 230 -3 228 -4 227 C-29 198 -55 170 -81 141 C-87 134 -93 125 -99 118 C-100 116 -101 114 -101 111 C-101 108 -99 106 -96 105 C-93 105 -90 106 -89 109 C-88 112 -87 114 -85 116 C-82 121 -78 126 -74 130 C-55 152 -35 174 -16 196 C-10 202 -5 208 1 214 L1 214 Z " />
<glyph glyph-name="y" unicode="y" horiz-adv-x="258" d="M116 311 C115 299 113 288 111 276 C105 244 100 227 91 196 C90 194 89 190 85 178 C54 161 21 142 -10 125 C-33 113 -56 100 -78 85 C-93 74 -106 62 -117 46 C-127 31 -134 15 -133 -4 C-133 -23 -121 -40 -102 -46 C-89 -50 -77 -50 -64 -47 C-39 -42 -18 -28 1 -11 C19 7 32 27 44 48 C66 86 82 128 95 170 C100 173 106 176 107 177 C124 189 133 193 150 205 C184 229 217 254 250 278 C260 285 260 286 265 289 C267 291 270 299 258 300 C258 300 244 289 232 280 C194 252 156 224 117 197 C112 194 107 191 101 187 C101 189 102 190 102 191 C110 219 118 247 123 277 C125 288 126 299 128 311 C128 313 128 316 127 319 C125 325 119 327 113 324 C90 301 48 243 18 235 C11 233 7 235 6 242 C5 248 4 254 5 260 C6 278 11 296 17 314 C18 316 17 318 15 320 C12 323 6 319 4 315 C-1 299 -5 282 -7 265 C-8 255 -8 246 -5 237 C-2 228 4 223 13 222 C18 222 23 223 28 225 C64 244 86 279 116 311 L116 311 Z M80 161 C78 154 76 148 73 142 C63 112 50 82 34 54 C22 33 8 13 -10 -4 C-27 -20 -46 -31 -68 -36 C-79 -38 -90 -38 -100 -34 C-114 -28 -121 -17 -121 -2 C-122 14 -115 28 -106 41 C-96 55 -82 67 -68 77 C-48 91 -27 102 -6 114 C22 129 49 144 77 159 C78 159 78 160 80 161 L80 161 Z " />
<glyph glyph-name="z" unicode="z" horiz-adv-x="226" d="M241 296 C241 298 238 299 233 300 L233 300 L233 300 C232 300 224 293 222 291 C215 284 207 278 199 271 C186 260 173 248 159 237 C130 212 104 192 79 174 C76 172 73 169 70 167 C68 166 67 166 66 165 C65 166 64 167 63 168 C61 172 59 174 57 177 C49 185 38 191 23 195 C20 195 16 196 12 197 C10 197 8 198 7 198 C7 199 7 199 8 199 C9 200 9 201 10 202 C15 206 19 211 24 215 C30 221 36 227 43 233 C55 245 66 257 76 270 C80 276 85 284 86 293 C89 306 82 316 70 319 C65 321 59 321 52 320 C39 318 12 312 0 300 C-2 298 0 293 2 290 C6 288 12 292 14 294 C24 299 36 303 48 306 C56 308 61 308 66 307 C72 306 74 302 74 297 C73 294 72 291 71 287 C67 279 62 271 54 264 C45 255 37 246 28 238 C23 232 17 226 11 221 C10 220 9 219 9 218 C4 214 -1 209 -5 204 C-7 200 -8 197 -7 193 C-6 190 -3 187 2 186 C5 185 8 185 12 184 C13 184 15 183 17 183 C25 181 35 179 43 172 C48 168 52 163 55 157 L54 157 C54 157 53 156 53 156 C28 139 0 123 -32 106 C-37 103 -43 100 -48 97 C-67 88 -87 77 -105 66 C-121 56 -141 42 -158 24 C-169 12 -176 1 -180 -11 C-185 -32 -176 -51 -157 -58 C-148 -62 -140 -64 -130 -64 C-126 -64 -122 -63 -118 -63 C-100 -60 -83 -53 -63 -42 C-38 -28 -14 -9 8 17 C32 43 49 69 61 96 C67 110 74 130 70 151 C70 151 71 153 71 153 C74 155 77 157 80 159 C82 161 85 162 87 164 C121 189 156 217 200 256 C209 263 217 270 226 277 C229 280 232 283 236 286 C238 288 242 292 241 296 L241 296 Z M55 117 C50 100 41 83 28 63 C8 33 -16 7 -42 -13 C-65 -30 -86 -42 -109 -48 C-123 -52 -135 -52 -147 -49 C-153 -47 -157 -45 -160 -42 C-168 -35 -170 -27 -167 -15 C-165 -6 -160 3 -151 13 C-136 30 -117 43 -101 53 C-82 65 -62 76 -42 86 C-40 88 -37 89 -35 90 C0 108 29 126 57 143 C57 143 57 144 58 144 C58 144 58 144 58 144 C59 136 58 127 55 117 L55 117 Z " />
<glyph glyph-name="braceleft" unicode="&#x7b;" horiz-adv-x="155" d="M149 589 C149 587 149 587 149 586 C149 584 150 582 153 582 C155 581 157 582 159 583 C164 588 162 597 155 599 C152 599 148 599 145 599 C137 597 132 592 126 587 C113 573 105 557 98 540 C84 506 75 471 68 434 C65 419 62 403 58 388 C55 376 50 364 39 355 C36 352 34 349 36 345 C37 340 42 340 46 340 C54 340 54 340 52 332 C48 317 44 302 41 287 C35 266 31 244 29 222 C27 210 27 198 30 186 C32 177 36 168 45 162 C51 157 59 155 67 158 C71 160 73 163 73 167 C73 169 72 171 70 172 C67 173 65 173 64 172 C61 168 58 169 55 170 C49 173 45 178 43 185 C40 195 40 205 40 215 C41 226 42 236 44 246 C48 265 53 283 57 301 C59 313 62 324 65 336 C66 345 63 349 54 352 C54 352 54 353 54 353 C60 360 63 367 66 375 C73 392 76 410 80 428 C84 453 90 478 97 503 C103 521 109 540 119 557 C125 567 132 576 140 583 C143 585 146 587 149 589 L149 589 Z " />
<glyph glyph-name="bar" unicode="&#x7c;" horiz-adv-x="147" d="M128 581 C125 581 123 580 121 577 C121 576 120 575 120 574 C94 462 70 352 46 240 C42 221 37 202 33 183 C32 178 34 174 38 174 C42 173 44 175 46 180 C46 180 46 180 46 181 C48 189 50 198 52 206 C58 229 124 531 133 572 C133 573 133 574 133 575 C133 578 131 580 128 581 L128 581 Z " />
<glyph glyph-name="braceright" unicode="&#x7d;" horiz-adv-x="153" d="M134 595 C131 600 126 604 119 604 C115 604 113 602 112 599 C112 596 114 594 117 593 C121 593 123 590 124 587 C128 577 126 556 124 544 C120 523 116 503 111 483 C107 466 102 449 97 432 C93 417 88 403 84 388 C81 378 83 368 92 360 C85 354 83 343 81 335 C72 293 66 249 57 208 C55 198 51 189 48 180 C47 177 44 174 41 172 C37 175 35 176 32 175 C30 174 28 171 29 168 C29 161 36 157 43 159 C45 160 47 161 49 162 C55 166 59 171 62 178 C68 193 72 208 74 224 C78 246 81 267 85 289 C88 305 92 320 95 336 C97 343 99 350 108 353 C115 355 113 363 109 365 C102 369 94 374 97 383 C99 391 101 399 104 407 C109 426 116 445 121 465 C127 489 132 513 137 537 C140 557 143 579 134 595 L134 595 Z " />
<glyph glyph-name="asciitilde" unicode="&#x7e;" horiz-adv-x="160" d="M126 347 C125 350 122 353 119 352 C116 351 113 350 111 349 C103 345 96 341 89 337 C83 333 77 330 70 327 C67 326 66 327 65 330 C64 332 63 335 62 337 C62 339 61 341 60 343 C57 352 49 356 41 350 C34 346 27 341 21 336 C19 334 18 331 20 329 C21 327 24 326 26 327 C28 327 29 328 30 328 C33 330 35 333 38 335 C41 337 45 339 48 341 C49 338 50 335 51 332 C53 328 54 325 56 321 C59 317 63 314 68 315 C73 316 78 317 82 319 C90 323 98 328 106 332 C111 335 116 338 122 340 C125 341 127 344 126 347 L126 347 Z " />
<glyph glyph-name="quoteleft" unicode="&#x2018;" horiz-adv-x="38" d="M24 676 C21 677 18 676 17 672 C14 662 11 651 8 641 C6 634 9 630 13 630 C16 630 18 632 19 635 C20 642 26 662 28 669 C29 673 27 675 24 676 L24 676 Z " />
<glyph glyph-name="quoteright" unicode="&#x2019;" horiz-adv-x="38" d="M24 676 C21 677 18 676 17 672 C14 662 11 651 8 641 C6 634 9 630 13 630 C16 630 18 632 19 635 C20 642 26 662 28 669 C29 673 27 675 24 676 L24 676 Z " />
<glyph glyph-name="quotedblleft" unicode="&#x201c;" horiz-adv-x="69" d="M36 674 C33 675 30 672 28 665 C27 660 21 639 20 633 C19 628 21 625 24 624 C28 624 30 626 31 631 C34 641 36 652 39 663 C40 667 42 672 36 674 L36 674 Z M59 673 C56 673 52 672 51 667 C49 657 46 648 44 639 C42 631 45 628 50 628 C53 628 54 632 55 635 C57 645 60 656 62 665 C63 669 63 672 59 673 L59 673 Z " />
<glyph glyph-name="quotedblright" unicode="&#x201d;" horiz-adv-x="69" d="M36 674 C33 675 30 672 28 665 C27 660 21 639 20 633 C19 628 21 625 24 624 C28 624 30 626 31 631 C34 641 36 652 39 663 C40 667 42 672 36 674 L36 674 Z M59 673 C56 673 52 672 51 667 C49 657 46 648 44 639 C42 631 45 628 50 628 C53 628 54 632 55 635 C57 645 60 656 62 665 C63 669 63 672 59 673 L59 673 Z " />
</font>
</svg>
