<?xml version="1.0" encoding="UTF-8"?>
<svg xmlns="http://www.w3.org/2000/svg" xmlns:xlink="http://www.w3.org/1999/xlink" version="1.2" >
<font id="Lostfield Condensed black">
<font-face  font-family="Lostfield Condensed" units-per-em="1000" ascent="750" descent="-250" font-style="normal" font-weight="400" font-stretch="normal" cap-height="700" x-height="500" underline-position="-75" underline-thickness="50" />
<missing-glyph  horiz-adv-x="152" d="" />
<glyph glyph-name="NULL" d="" />
<glyph glyph-name="CR" unicode="&#xd;" horiz-adv-x="152" d="" />
<glyph glyph-name="space" unicode="&#x20;" horiz-adv-x="152" d="" />
<glyph glyph-name="exclam" unicode="&#x21;" horiz-adv-x="174" d="M39 12 C53 -2 69 -8 87 -8 C106 -8 122 -2 135 12 C149 25 155 41 155 60 C155 78 149 94 135 108 C122 121 106 128 87 128 C69 128 53 121 39 108 C26 94 19 78 19 60 C19 41 26 25 39 12 L39 12 Z M47 184 L127 184 L151 560 L23 560 L47 184 Z " />
<glyph glyph-name="quotedbl" unicode="&#x22;" horiz-adv-x="335" d="M113 327 L157 560 L33 560 L25 327 L113 327 Z M273 327 L317 560 L193 560 L185 327 L273 327 Z " />
<glyph glyph-name="numbersign" unicode="&#x23;" horiz-adv-x="364" d="M178 0 L251 0 L261 119 L311 119 L311 188 L267 188 L275 291 L324 291 L324 359 L281 359 L291 480 L219 480 L209 359 L162 359 L172 480 L100 480 L90 359 L40 359 L40 291 L84 291 L75 188 L28 188 L28 119 L69 119 L59 0 L131 0 L142 119 L189 119 L178 0 Z M156 291 L203 291 L194 188 L147 188 L156 291 Z " />
<glyph glyph-name="dollar" unicode="&#x24;" horiz-adv-x="324" d="M133 174 L23 174 L23 121 C23 85 33 56 52 34 C71 12 96 -2 127 -7 L127 -69 L194 -69 L194 -5 C226 1 251 17 270 40 C290 64 299 93 299 128 C299 193 270 254 211 314 C164 361 141 399 141 429 C141 447 148 456 163 456 C178 456 186 446 186 426 L186 387 L295 387 L295 432 C295 466 286 494 268 516 C249 537 225 551 194 556 L194 618 L127 618 L127 555 C97 548 73 533 55 510 C36 487 27 459 27 425 C27 365 57 305 117 246 C163 200 186 160 186 124 C186 114 183 107 178 101 C174 96 167 93 159 93 C142 93 133 104 133 127 L133 174 L133 174 Z " />
<glyph glyph-name="percent" unicode="&#x25;" horiz-adv-x="446" d="M49 307 C69 288 94 278 124 278 C155 278 180 288 201 308 C222 328 233 353 233 383 C233 414 222 439 202 458 C182 478 157 487 126 487 C96 487 70 478 49 458 C29 438 18 412 18 382 C18 352 28 327 49 307 L49 307 Z M42 0 L114 0 L410 480 L338 480 L42 0 Z M104 405 C110 411 117 414 125 414 C134 414 141 411 146 405 C152 399 155 392 155 383 C155 374 152 366 146 360 C141 355 134 352 125 352 C117 352 110 355 104 360 C99 366 96 374 96 383 C96 392 99 399 104 405 L104 405 Z M250 21 C270 1 296 -8 326 -8 C357 -8 382 2 403 22 C424 41 434 67 434 97 C434 128 424 152 404 172 C383 191 358 201 328 201 C297 201 272 191 251 171 C230 151 220 126 220 96 C220 65 230 40 250 21 L250 21 Z M306 119 C311 125 318 128 327 128 C336 128 343 125 348 119 C354 113 357 105 357 96 C357 87 354 80 348 74 C343 68 336 65 327 65 C318 65 311 68 306 74 C300 80 297 87 297 96 C297 105 300 113 306 119 L306 119 Z " />
<glyph glyph-name="ampersand" unicode="&#x26;" horiz-adv-x="375" d="M335 239 L335 331 L303 331 L303 358 L191 358 L191 331 L165 331 C151 331 145 340 145 357 L145 436 C145 453 151 461 165 461 C178 461 185 453 185 436 L185 384 L294 384 L294 436 C294 474 281 506 255 530 C230 555 199 568 163 568 C126 568 95 556 69 532 C44 508 31 477 31 440 L31 377 C31 342 43 312 66 288 C38 262 25 230 25 189 L25 129 C25 89 38 56 66 30 C93 5 127 -8 166 -8 C192 -8 214 -3 234 8 C253 -3 276 -8 303 -8 C323 -8 333 -8 333 -8 L333 96 C322 96 314 98 310 103 C305 108 303 116 303 128 L303 239 L335 239 L335 239 Z M191 188 L191 188 L191 130 C191 109 182 98 165 98 C147 98 138 109 138 130 L138 208 C138 229 147 239 165 239 L191 239 L191 188 L191 188 Z " />
<glyph glyph-name="quotesingle" unicode="&#x27;" horiz-adv-x="172" d="M110 327 L154 560 L30 560 L22 327 L110 327 L110 327 Z " />
<glyph glyph-name="parenleft" unicode="&#x28;" horiz-adv-x="276" d="M161 453 C168 487 175 514 184 536 C192 557 202 578 213 598 C224 618 232 631 236 637 C240 644 244 648 246 651 L166 712 L152 697 C143 687 133 671 121 650 C108 629 96 605 84 578 C71 551 60 517 52 475 C43 434 38 392 38 349 C38 306 43 264 52 223 C61 182 71 148 82 123 C94 97 107 73 121 50 C136 28 147 13 152 6 C158 0 163 -5 166 -8 L246 52 L237 65 C230 74 222 87 212 105 C203 123 194 144 184 167 C175 190 167 218 160 251 C154 284 150 317 150 351 C150 386 154 419 161 453 L161 453 Z " />
<glyph glyph-name="parenright" unicode="&#x29;" horiz-adv-x="263" d="M103 250 C96 216 88 189 80 167 C71 146 61 125 50 105 C40 85 32 72 28 66 C23 60 20 55 17 52 L98 -8 L112 6 C120 16 131 32 143 53 C155 74 168 98 180 125 C193 152 203 187 212 227 C221 269 225 311 225 354 C225 397 221 439 212 480 C203 521 193 555 181 580 C170 606 157 630 142 653 C128 676 118 690 112 697 C106 703 102 708 98 712 L17 651 L27 638 C34 629 42 616 51 598 C61 580 70 559 79 536 C89 513 97 485 103 452 C110 419 113 386 113 352 C113 317 110 284 103 250 L103 250 Z " />
<glyph glyph-name="asterisk" unicode="&#x2a;" horiz-adv-x="284" d="M183 560 L100 560 L109 473 L30 508 L4 430 L88 411 L31 347 L99 298 L142 373 L185 298 L252 347 L195 411 L279 430 L254 508 L175 473 L183 560 L183 560 Z " />
<glyph glyph-name="plus" unicode="&#x2b;" horiz-adv-x="360" d="M136 127 L224 127 L224 239 L320 239 L320 326 L224 326 L224 438 L136 438 L136 326 L40 326 L40 239 L136 239 L136 127 L136 127 Z " />
<glyph glyph-name="comma" unicode="&#x2c;" horiz-adv-x="168" d="M105 -181 L149 52 L25 52 L17 -181 L105 -181 L105 -181 Z " />
<glyph glyph-name="hyphen" unicode="&#x2d;" horiz-adv-x="272" d="M232 195 L232 299 L40 299 L40 195 L232 195 L232 195 Z " />
<glyph glyph-name="period" unicode="&#x2e;" horiz-adv-x="165" d="M16 -20 C16 -55 45 -88 84 -88 C119 -88 152 -59 152 -20 C152 16 122 48 84 48 C48 48 16 18 16 -20 L16 -20 Z " />
<glyph glyph-name="slash" unicode="&#x2f;" horiz-adv-x="349" d="M17 -8 L113 -8 L337 680 L241 679 L17 -8 L17 -8 Z " />
<glyph glyph-name="zero" unicode="0" horiz-adv-x="360" d="M40 126 C40 86 54 53 81 29 C108 4 140 -8 179 -8 C217 -8 250 4 278 30 C306 56 320 89 320 129 L320 433 C320 473 307 506 280 530 C253 555 220 567 182 567 C144 567 110 555 82 529 C54 503 40 470 40 430 L40 126 Z M154 425 C154 446 163 457 180 457 C198 457 207 446 207 425 L207 134 C207 113 198 102 180 102 C163 102 154 113 154 134 L154 425 Z " />
<glyph glyph-name="one" unicode="1" horiz-adv-x="259" d="M6 468 L62 392 L106 424 L106 0 L219 0 L219 560 L122 560 L6 468 L6 468 Z " />
<glyph glyph-name="two" unicode="2" horiz-adv-x="316" d="M296 0 L296 106 L150 106 L256 300 C283 348 296 392 296 432 C296 472 283 505 257 530 C232 555 200 567 162 567 C124 567 92 554 65 528 C38 502 24 469 24 430 L24 368 L134 368 L134 421 C134 445 142 457 158 457 C174 457 183 445 183 421 C183 394 177 370 164 347 L24 82 L24 0 L296 0 L296 0 Z " />
<glyph glyph-name="three" unicode="3" horiz-adv-x="325" d="M162 567 C126 567 95 555 70 530 C43 506 31 474 31 436 L31 383 L140 383 L140 436 C140 453 147 461 160 461 C174 461 180 453 180 436 L180 357 C180 340 174 332 160 332 L160 240 C178 240 187 229 187 208 L187 130 C187 109 178 98 160 98 C143 98 134 109 134 130 L134 188 L24 188 L24 126 C24 86 37 53 63 29 C89 4 121 -8 159 -8 C198 -8 232 4 259 30 C287 56 300 89 300 129 L300 189 C300 230 286 263 259 288 C282 312 294 342 294 377 L294 439 C294 477 281 508 255 532 C230 556 199 567 162 567 L162 567 Z " />
<glyph glyph-name="four" unicode="4" horiz-adv-x="337" d="M175 0 L277 0 L277 119 L321 119 L321 211 L277 211 L277 560 L169 560 L25 216 L25 119 L175 119 L175 0 Z M114 211 L175 376 L175 211 L114 211 Z " />
<glyph glyph-name="five" unicode="5" horiz-adv-x="341" d="M40 256 L142 256 C143 256 144 272 149 277 C153 282 159 285 166 285 C173 285 178 282 183 277 C188 272 190 265 190 256 L190 131 C190 122 188 115 183 110 C178 105 173 102 166 102 C159 102 153 105 149 110 C144 115 142 122 142 131 L142 184 L32 184 L32 119 C32 82 45 51 71 28 C98 4 129 -8 164 -8 C201 -8 234 4 262 30 C290 56 303 88 303 127 L303 276 C303 308 293 334 274 354 C253 373 229 383 199 383 C177 383 158 376 142 361 L142 453 L291 453 L291 560 L40 560 L40 256 Z " />
<glyph glyph-name="six" unicode="6" horiz-adv-x="345" d="M30 128 C30 87 44 55 71 29 C99 4 132 -8 171 -8 C210 -8 243 5 272 31 C301 58 315 91 315 131 L315 240 C315 279 305 310 285 333 C264 356 235 368 198 368 C187 368 177 365 168 359 L248 560 L135 560 L61 367 C40 319 30 263 30 200 L30 128 Z M144 237 C144 247 146 254 152 260 C157 266 164 269 172 269 C181 269 188 266 193 260 C199 254 201 247 201 237 L201 134 C201 124 199 117 193 111 C188 105 181 102 172 102 C164 102 157 105 152 111 C146 117 144 124 144 134 L144 237 Z " />
<glyph glyph-name="seven" unicode="7" horiz-adv-x="295" d="M31 0 L146 0 L271 473 L271 560 L14 560 L14 449 L152 449 L31 0 L31 0 Z " />
<glyph glyph-name="eight" unicode="8" horiz-adv-x="323" d="M25 391 C25 352 38 320 64 296 C34 269 18 234 18 191 L18 130 C18 89 32 56 59 30 C86 4 120 -8 161 -8 C201 -8 236 5 264 31 C292 58 306 92 306 133 L306 194 C306 237 291 271 260 298 C287 325 300 357 300 394 L300 436 C300 475 287 507 260 531 C234 555 202 567 164 567 C126 567 94 555 66 530 C39 504 25 472 25 432 L25 391 Z M132 216 C132 240 142 252 162 252 C183 252 193 240 193 216 L193 130 C193 106 183 94 162 94 C142 94 132 106 132 130 L132 216 Z M139 436 C139 455 146 465 162 465 C178 465 186 455 186 436 L186 368 C186 349 178 339 162 339 C146 339 139 349 139 368 L139 436 Z " />
<glyph glyph-name="nine" unicode="9" horiz-adv-x="361" d="M324 432 C324 472 310 504 283 530 C255 555 222 567 183 567 C144 567 110 554 82 528 C53 502 39 468 39 428 L39 320 C39 280 49 249 69 226 C90 203 118 191 156 191 C167 191 177 194 186 199 L105 0 L219 0 L293 191 C314 240 324 296 324 359 L324 432 Z M210 322 C210 312 208 305 202 299 C197 293 190 290 181 290 C173 290 166 293 161 299 C155 305 153 312 153 322 L153 425 C153 435 155 442 161 448 C166 454 173 457 181 457 C190 457 197 454 202 448 C208 442 210 435 210 425 L210 322 Z " />
<glyph glyph-name="colon" unicode="&#x3a;" horiz-adv-x="165" d="M36 392 C50 378 66 372 84 372 C103 372 119 378 132 392 C146 405 152 421 152 440 C152 458 146 474 132 488 C119 501 103 508 84 508 C66 508 50 501 36 488 C23 474 16 458 16 440 C16 421 23 405 36 392 L36 392 Z M36 96 C50 82 66 76 84 76 C103 76 119 82 132 96 C146 109 152 125 152 144 C152 162 146 178 132 192 C119 205 103 212 84 212 C66 212 50 205 36 192 C23 178 16 162 16 144 C16 125 23 109 36 96 L36 96 Z " />
<glyph glyph-name="semicolon" unicode="&#x3b;" horiz-adv-x="170" d="M39 384 C53 370 69 364 87 364 C106 364 122 370 135 384 C149 397 155 413 155 432 C155 450 149 466 135 480 C122 493 106 500 87 500 C69 500 53 493 39 480 C26 466 19 450 19 432 C19 413 26 397 39 384 L39 384 Z M107 -29 L151 204 L27 204 L19 -29 L107 -29 Z " />
<glyph glyph-name="less" unicode="&#x3c;" horiz-adv-x="348" d="M38 360 L38 256 L316 108 L316 218 L127 300 L316 397 L316 508 L38 360 L38 360 Z " />
<glyph glyph-name="equal" unicode="&#x3d;" horiz-adv-x="327" d="M299 340 L299 416 L23 416 L23 340 L299 340 Z M299 188 L299 264 L23 264 L23 188 L299 188 Z " />
<glyph glyph-name="greater" unicode="&#x3e;" horiz-adv-x="352" d="M32 213 L32 103 L312 251 L312 355 L32 503 L32 388 L218 300 L32 213 L32 213 Z " />
<glyph glyph-name="question" unicode="&#x3f;" horiz-adv-x="304" d="M59 529 C32 502 18 467 18 423 L18 377 L128 377 L128 422 C128 446 136 458 152 458 C168 458 177 446 177 422 C177 400 170 377 158 353 C146 330 134 306 121 282 C109 257 103 233 103 209 L103 185 L205 185 L205 201 C205 218 210 236 219 255 C227 273 237 290 248 304 C258 319 268 338 277 361 C286 384 290 408 290 433 C290 473 277 506 251 531 C225 556 194 568 156 568 C118 568 86 555 59 529 L59 529 Z M106 13 C120 -1 135 -7 154 -7 C173 -7 189 -1 202 13 C215 26 222 42 222 61 C222 79 215 95 202 109 C189 122 173 129 154 129 C135 129 120 122 106 109 C93 95 86 79 86 61 C86 42 93 26 106 13 L106 13 Z " />
<glyph glyph-name="at" unicode="&#x40;" horiz-adv-x="763" d="M422 73 L382 69 C307 69 245 94 196 145 C147 195 123 257 123 331 C123 406 147 468 197 520 C246 571 308 596 382 596 C460 596 522 572 570 523 C617 473 641 407 641 324 C641 277 630 238 607 207 C584 177 557 161 527 161 C508 161 494 168 485 181 C476 194 474 213 477 237 L512 487 L507 497 L430 497 L423 469 C411 492 391 503 362 503 C337 503 317 495 300 480 C284 465 273 443 270 416 L247 260 C244 232 249 210 262 193 C277 177 296 169 322 169 C350 169 381 190 392 226 C381 174 402 135 425 114 C447 93 479 82 520 82 C579 82 628 106 667 153 C705 200 724 259 724 332 C724 431 692 513 628 578 C564 644 482 676 383 676 C285 676 203 643 138 576 C72 509 39 427 39 329 C39 233 71 153 135 89 C199 25 281 -7 380 -7 C408 -7 427 -4 435 0 L422 73 Z M386 269 C383 256 375 249 363 249 C350 249 344 256 345 271 L364 402 C367 416 374 423 386 423 C400 423 406 416 404 400 L386 269 Z " />
<glyph glyph-name="A" unicode="A" horiz-adv-x="356" d="M236 560 L120 560 L12 0 L128 0 L140 92 L208 92 L220 0 L344 0 L236 560 Z M195 188 L153 188 L174 349 L195 188 Z " />
<glyph glyph-name="B" unicode="B" horiz-adv-x="354" d="M40 0 L194 0 C236 0 271 12 297 36 C323 60 336 94 336 137 L336 177 C336 232 316 271 275 293 C310 317 328 355 328 405 L328 425 C328 469 315 502 290 525 C265 548 232 560 190 560 L40 560 L40 0 Z M160 460 L172 460 C196 460 208 446 208 420 L208 372 C208 345 196 332 172 332 L160 332 L160 460 Z M160 240 L180 240 C204 240 216 226 216 200 L216 140 C216 113 204 100 180 100 L160 100 L160 240 Z " />
<glyph glyph-name="C" unicode="C" horiz-adv-x="352" d="M324 348 L324 433 C324 475 311 507 284 531 C258 556 225 568 186 568 C145 568 111 555 82 529 C54 502 40 468 40 426 L40 130 C40 88 54 55 81 29 C108 4 142 -8 182 -8 C222 -8 255 4 283 30 C310 55 324 88 324 129 L324 220 L208 220 L208 132 C208 113 200 104 184 104 C168 104 160 113 160 132 L160 428 C160 446 168 456 184 456 C200 456 208 446 208 428 L208 348 L324 348 L324 348 Z " />
<glyph glyph-name="D" unicode="D" horiz-adv-x="372" d="M40 0 L182 0 C228 0 265 12 292 37 C319 63 332 99 332 145 L332 417 C332 464 319 500 293 524 C267 548 231 560 186 560 L40 560 L40 0 Z M160 448 L176 448 C200 448 212 434 212 408 L212 152 C212 125 200 112 176 112 L160 112 L160 448 Z " />
<glyph glyph-name="E" unicode="E" horiz-adv-x="303" d="M276 0 L276 120 L160 120 L160 229 L248 229 L248 341 L160 341 L160 440 L272 440 L272 560 L40 560 L40 0 L276 0 L276 0 Z " />
<glyph glyph-name="F" unicode="F" horiz-adv-x="294" d="M244 229 L244 341 L160 341 L160 440 L268 440 L268 560 L40 560 L40 0 L160 0 L160 229 L244 229 L244 229 Z " />
<glyph glyph-name="G" unicode="G" horiz-adv-x="376" d="M336 356 L336 425 C336 469 322 503 294 529 C267 555 232 568 190 568 C147 568 112 554 83 527 C54 500 40 465 40 422 L40 134 C40 91 54 56 82 31 C109 5 144 -8 186 -8 C205 -8 223 -5 239 0 L336 0 L336 137 L336 341 L188 341 L188 229 L220 229 L220 133 C220 123 217 115 212 109 C206 103 199 100 190 100 C170 100 160 111 160 133 L160 424 C160 445 169 456 188 456 C207 456 216 445 216 424 L216 356 L336 356 L336 356 Z " />
<glyph glyph-name="H" unicode="H" horiz-adv-x="372" d="M212 0 L332 0 L332 560 L212 560 L212 348 L160 348 L160 560 L40 560 L40 0 L160 0 L160 228 L212 228 L212 0 L212 0 Z " />
<glyph glyph-name="I" unicode="I" horiz-adv-x="202" d="M40 0 L162 0 L162 560 L40 560 L40 0 L40 0 Z " />
<glyph glyph-name="J" unicode="J" horiz-adv-x="232" d="M20 -8 L63 -8 C101 -8 131 3 156 25 C180 47 192 79 192 121 L192 560 L70 560 L70 148 C70 134 67 124 61 117 C56 111 47 108 34 108 C28 108 20 108 20 108 L20 -8 L20 -8 Z " />
<glyph glyph-name="K" unicode="K" horiz-adv-x="379" d="M232 0 L364 0 L268 296 L356 560 L224 560 L160 318 L160 560 L40 560 L40 0 L160 0 L160 259 L232 0 L232 0 Z " />
<glyph glyph-name="L" unicode="L" horiz-adv-x="280" d="M260 0 L260 120 L160 120 L160 560 L40 560 L40 0 L260 0 L260 0 Z " />
<glyph glyph-name="M" unicode="M" horiz-adv-x="464" d="M206 80 L259 80 L315 293 L315 0 L424 0 L424 560 L312 560 L236 273 L160 560 L40 560 L40 0 L150 0 L150 293 L206 80 L206 80 Z " />
<glyph glyph-name="N" unicode="N" horiz-adv-x="380" d="M236 0 L340 0 L340 560 L236 560 L236 286 L152 560 L40 560 L40 0 L144 0 L144 299 L236 0 L236 0 Z " />
<glyph glyph-name="O" unicode="O" horiz-adv-x="376" d="M40 134 C40 91 54 56 82 31 C109 5 145 -8 187 -8 C229 -8 264 5 293 32 C322 59 336 94 336 137 L336 425 C336 469 322 503 295 529 C267 555 232 568 190 568 C148 568 112 554 83 527 C55 500 40 465 40 422 L40 134 Z M160 424 C160 445 170 456 188 456 C207 456 216 445 216 424 L216 136 C216 114 207 104 188 104 C170 104 160 114 160 136 L160 424 Z " />
<glyph glyph-name="P" unicode="P" horiz-adv-x="368" d="M40 0 L160 0 L160 188 L175 188 C224 188 262 201 290 227 C318 252 332 291 332 341 L332 409 C332 460 319 498 292 523 C265 547 227 560 178 560 L40 560 L40 0 Z M160 448 L176 448 C200 448 212 434 212 408 L212 336 C212 309 200 296 176 296 L160 296 L160 448 Z " />
<glyph glyph-name="Q" unicode="Q" horiz-adv-x="376" d="M336 137 L336 425 C336 469 322 503 295 529 C267 555 232 568 190 568 C148 568 112 554 83 527 C55 500 40 465 40 422 L40 134 C40 91 54 56 82 31 C109 5 144 -8 187 -8 L193 -8 L216 -96 L326 -96 L288 28 C320 56 336 92 336 137 L336 137 Z M206 159 L171 149 L177 105 C166 109 160 119 160 136 L160 424 C160 445 170 456 188 456 C207 456 216 445 216 424 L216 142 L206 159 L206 159 Z " />
<glyph glyph-name="R" unicode="R" horiz-adv-x="367" d="M332 409 C332 460 319 498 292 523 C265 547 227 560 178 560 L40 560 L40 0 L160 0 L160 204 L180 204 C195 204 208 195 208 176 L208 0 L324 0 L324 182 C324 211 317 237 303 257 C323 278 332 308 332 345 L332 409 L332 409 Z M212 344 C212 331 210 322 204 315 C198 308 189 304 176 304 L160 304 L160 448 L176 448 C200 448 212 434 212 408 L212 344 L212 344 Z " />
<glyph glyph-name="S" unicode="S" horiz-adv-x="328" d="M134 180 L18 180 L18 130 C18 88 32 55 59 29 C86 4 120 -8 161 -8 C203 -8 238 5 267 32 C296 59 310 94 310 137 C310 170 303 201 288 230 C274 259 250 289 218 320 C187 350 167 372 157 388 C147 403 142 418 142 431 C142 450 150 460 166 460 C182 460 190 449 190 428 L190 392 L306 392 L306 433 C306 475 293 507 267 531 C240 556 207 568 168 568 C127 568 93 555 65 529 C36 502 22 468 22 426 C22 369 53 310 114 250 C146 220 166 197 176 181 C185 165 190 149 190 133 C190 123 188 115 183 109 C177 103 171 100 162 100 C143 100 134 112 134 136 L134 180 L134 180 Z " />
<glyph glyph-name="T" unicode="T" horiz-adv-x="340" d="M310 440 L310 560 L30 560 L30 440 L110 440 L110 0 L230 0 L230 440 L310 440 L310 440 Z " />
<glyph glyph-name="U" unicode="U" horiz-adv-x="368" d="M40 560 L40 130 C40 88 54 55 81 29 C108 4 142 -8 183 -8 C223 -8 258 5 286 31 C314 57 328 91 328 133 L328 560 L209 560 L209 132 C209 113 201 104 185 104 C169 104 161 113 161 132 L161 560 L40 560 L40 560 Z " />
<glyph glyph-name="V" unicode="V" horiz-adv-x="338" d="M111 0 L227 0 L331 560 L211 560 L173 254 L135 560 L7 560 L111 0 L111 0 Z " />
<glyph glyph-name="W" unicode="W" horiz-adv-x="488" d="M278 0 L384 0 L476 560 L356 560 L330 260 L295 560 L202 560 L167 260 L140 560 L12 560 L104 0 L211 0 L244 258 L278 0 L278 0 Z " />
<glyph glyph-name="X" unicode="X" horiz-adv-x="367" d="M350 560 L222 560 L185 424 L150 560 L18 560 L119 288 L10 0 L138 0 L182 157 L226 0 L358 0 L249 293 L350 560 L350 560 Z " />
<glyph glyph-name="Y" unicode="Y" horiz-adv-x="354" d="M117 0 L237 0 L237 200 L335 560 L215 560 L181 360 L147 560 L19 560 L117 200 L117 0 L117 0 Z " />
<glyph glyph-name="Z" unicode="Z" horiz-adv-x="300" d="M283 0 L283 112 L147 112 L283 464 L283 560 L31 560 L31 448 L155 448 L19 96 L19 0 L283 0 L283 0 Z " />
<glyph glyph-name="bracketleft" unicode="&#x5b;" horiz-adv-x="272" d="M244 -8 L244 92 L152 92 L152 580 L244 580 L244 680 L40 680 L40 -8 L244 -8 L244 -8 Z " />
<glyph glyph-name="backslash" unicode="&#x5c;" horiz-adv-x="361" d="M117 680 L21 680 L245 -8 L341 -8 L117 680 L117 680 Z " />
<glyph glyph-name="bracketright" unicode="&#x5d;" horiz-adv-x="267" d="M227 -8 L227 680 L23 680 L23 580 L115 580 L115 92 L23 92 L23 -8 L227 -8 L227 -8 Z " />
<glyph glyph-name="asciicircum" unicode="&#x5e;" horiz-adv-x="382" d="M241 560 L141 560 L37 288 L153 288 L192 436 L231 288 L345 288 L241 560 L241 560 Z " />
<glyph glyph-name="underscore" unicode="&#x5f;" horiz-adv-x="407" d="M369 0 L369 80 L49 80 L49 0 L369 0 L369 0 Z " />
<glyph glyph-name="grave" unicode="&#x60;" horiz-adv-x="161" d="M121 560 L5 560 L69 424 L153 424 L121 560 L121 560 Z " />
<glyph glyph-name="a" unicode="a" horiz-adv-x="344" d="M304 0 L304 298 C304 335 291 366 265 389 C239 412 208 424 171 424 C136 424 105 412 79 387 C53 363 40 332 40 295 L148 304 C148 320 156 328 170 328 C184 328 191 320 191 304 L191 223 C176 240 155 248 129 248 C98 248 73 237 53 215 C33 194 23 164 23 127 L23 111 C23 73 33 44 52 23 C70 3 95 -8 126 -8 C161 -8 203 17 203 81 L203 0 L304 0 Z M191 112 C191 91 182 80 164 80 C145 80 135 91 135 112 L135 136 C135 158 145 168 164 168 C182 168 191 158 191 136 L191 112 Z " />
<glyph glyph-name="b" unicode="b" horiz-adv-x="356" d="M40 0 L140 0 L140 81 C140 16 178 -8 212 -8 C242 -8 267 3 287 24 C306 45 316 74 316 110 L316 310 C316 346 307 374 288 394 C270 414 245 424 216 424 C189 424 169 416 152 398 L152 560 L40 560 L40 0 Z M152 292 C152 301 155 308 160 313 C164 318 171 320 178 320 C186 320 192 318 196 313 C201 308 204 301 204 292 L204 124 C204 116 201 109 196 104 C192 99 186 96 178 96 C171 96 164 99 160 104 C155 109 152 116 152 124 L152 292 Z " />
<glyph glyph-name="c" unicode="c" horiz-adv-x="344" d="M197 180 L197 121 C197 104 189 96 174 96 C159 96 152 104 152 121 L152 295 C152 312 159 320 174 320 C189 320 197 312 197 295 L197 240 L304 240 L304 297 C304 335 292 366 267 389 C243 412 212 424 176 424 C138 424 106 412 80 387 C53 363 40 332 40 294 L40 119 C40 81 52 51 78 28 C104 4 135 -8 173 -8 C209 -8 240 5 266 29 C292 54 304 85 304 123 L304 180 L197 180 L197 180 Z " />
<glyph glyph-name="d" unicode="d" horiz-adv-x="356" d="M217 0 L316 0 L316 560 L204 560 L204 398 C188 416 167 424 140 424 C111 424 86 414 68 394 C50 374 40 346 40 310 L40 110 C40 74 50 45 70 24 C89 3 114 -8 144 -8 C178 -8 217 16 217 81 L217 0 Z M196 313 C201 308 204 301 204 292 L204 124 C204 116 201 109 196 104 C192 99 186 96 178 96 C171 96 164 99 160 104 C155 109 152 116 152 124 L152 292 C152 301 155 308 160 313 C164 318 171 320 178 320 C186 320 192 318 196 313 L196 313 Z " />
<glyph glyph-name="e" unicode="e" horiz-adv-x="347" d="M307 188 L307 298 C307 335 294 366 268 389 C243 412 212 424 175 424 C138 424 106 412 80 387 C53 363 40 332 40 295 L40 119 C40 81 52 51 78 28 C104 4 135 -8 172 -8 C209 -8 240 5 267 29 C293 54 307 85 307 122 L307 156 L203 156 L203 124 C203 116 200 109 196 104 C191 99 185 96 177 96 C170 96 164 99 159 104 C154 109 152 116 152 124 L152 188 L307 188 Z M152 304 C152 313 154 320 159 325 C164 330 170 332 177 332 C185 332 191 330 196 325 C200 320 203 313 203 304 L203 260 L152 260 L152 304 Z " />
<glyph glyph-name="f" unicode="f" horiz-adv-x="242" d="M15 324 L55 324 L55 0 L167 0 L167 324 L223 324 L223 416 L167 416 L167 436 C167 448 169 456 174 461 C178 466 186 468 196 468 C204 468 223 468 223 468 L223 568 C223 568 176 568 167 568 C132 568 105 559 85 542 C65 524 55 497 55 462 L55 416 L15 416 L15 324 L15 324 Z " />
<glyph glyph-name="g" unicode="g" horiz-adv-x="355" d="M143 424 C113 424 89 414 69 393 C50 372 40 343 40 307 L40 155 C40 118 49 90 67 70 C86 50 110 40 140 40 C167 40 188 49 203 66 L203 -12 C203 -20 201 -27 196 -32 C191 -37 185 -40 177 -40 C170 -40 164 -37 159 -32 C154 -27 152 -20 152 -12 L152 12 L44 12 L44 -5 C44 -44 57 -76 82 -100 C108 -124 139 -136 176 -136 C214 -136 247 -123 274 -98 C302 -73 315 -41 315 -2 L315 416 L215 416 L215 328 C215 390 185 424 143 424 L143 424 Z M203 164 C203 156 201 149 196 144 C191 139 185 136 177 136 C170 136 164 139 159 144 C154 149 152 156 152 164 L152 292 C152 301 154 308 159 313 C164 318 170 320 177 320 C185 320 191 318 196 313 C201 308 203 301 203 292 L203 164 Z " />
<glyph glyph-name="h" unicode="h" horiz-adv-x="352" d="M152 294 C152 312 160 320 177 320 C192 320 200 312 200 294 L200 0 L312 0 L312 310 C312 348 304 377 288 396 C271 415 249 424 222 424 C183 424 152 396 152 328 L152 560 L40 560 L40 0 L152 0 L152 294 L152 294 Z " />
<glyph glyph-name="i" unicode="i" horiz-adv-x="194" d="M49 468 C62 455 78 448 97 448 C115 448 132 455 145 468 C158 481 165 498 165 516 C165 535 158 551 145 564 C132 578 115 584 97 584 C78 584 62 578 49 564 C35 551 29 535 29 516 C29 498 35 481 49 468 L49 468 Z M40 0 L154 0 L154 416 L40 416 L40 0 Z " />
<glyph glyph-name="j" unicode="j" horiz-adv-x="203" d="M14 -136 C14 -136 49 -136 58 -136 C89 -136 114 -126 134 -107 C153 -87 163 -60 163 -25 L163 416 L50 416 L50 -12 C50 -28 43 -36 28 -36 C23 -36 18 -36 14 -36 L14 -136 Z M58 468 C72 455 88 448 106 448 C125 448 141 455 154 468 C168 481 174 497 174 516 C174 535 168 551 154 564 C141 577 125 584 106 584 C88 584 72 577 58 564 C45 551 38 535 38 516 C38 497 45 481 58 468 L58 468 Z " />
<glyph glyph-name="k" unicode="k" horiz-adv-x="356" d="M40 0 L152 0 L152 195 L216 0 L344 0 L252 228 L336 416 L212 416 L152 244 L152 560 L40 560 L40 0 L40 0 Z " />
<glyph glyph-name="l" unicode="l" horiz-adv-x="194" d="M40 0 L154 0 L154 560 L40 560 L40 0 L40 0 Z " />
<glyph glyph-name="m" unicode="m" horiz-adv-x="502" d="M152 294 C152 312 159 320 174 320 C188 320 195 312 195 294 L195 0 L307 0 L307 294 C307 312 314 320 329 320 C343 320 350 312 350 294 L350 0 L462 0 L462 310 C462 348 454 377 439 396 C423 415 401 424 374 424 C337 424 311 407 296 374 C282 407 256 424 219 424 C182 424 141 391 141 328 L141 416 L40 416 L40 0 L152 0 L152 294 L152 294 Z " />
<glyph glyph-name="n" unicode="n" horiz-adv-x="352" d="M152 294 C152 312 160 320 177 320 C192 320 200 312 200 294 L200 0 L312 0 L312 310 C312 348 304 377 288 396 C272 415 249 424 222 424 C184 424 141 391 141 328 L141 416 L40 416 L40 0 L152 0 L152 294 L152 294 Z " />
<glyph glyph-name="o" unicode="o" horiz-adv-x="355" d="M40 123 C40 84 53 52 79 28 C105 4 138 -8 176 -8 C215 -8 247 5 275 30 C302 55 315 87 315 126 L315 294 C315 333 302 364 276 388 C250 412 218 424 179 424 C141 424 108 412 81 387 C54 362 40 330 40 291 L40 123 Z M152 292 C152 301 155 308 159 313 C164 318 170 320 178 320 C185 320 191 318 196 313 C201 308 203 301 203 292 L203 124 C203 116 201 109 196 104 C191 99 185 96 178 96 C170 96 164 99 159 104 C155 109 152 116 152 124 L152 292 Z " />
<glyph glyph-name="p" unicode="p" horiz-adv-x="356" d="M40 -128 L152 -128 L152 15 C167 0 187 -8 212 -8 C242 -8 267 3 286 24 C306 45 316 74 316 110 L316 310 C316 346 306 374 288 394 C270 414 246 424 216 424 C181 424 140 394 140 328 L140 416 L40 416 L40 -128 Z M152 292 C152 301 155 308 160 313 C164 318 170 320 178 320 C186 320 192 318 197 313 C201 308 204 301 204 292 L204 124 C204 116 201 109 197 104 C192 99 186 96 178 96 C170 96 164 99 160 104 C155 109 152 116 152 124 L152 292 Z " />
<glyph glyph-name="q" unicode="q" horiz-adv-x="355" d="M204 -128 L316 -128 L316 416 L216 416 L216 328 C216 394 175 424 140 424 C111 424 86 414 68 394 C50 374 40 346 40 310 L40 110 C40 74 50 45 70 24 C89 3 114 -8 144 -8 C169 -8 189 0 204 15 L204 -128 Z M196 313 C201 308 204 301 204 292 L204 124 C204 116 201 109 196 104 C192 99 186 96 178 96 C170 96 164 99 160 104 C155 109 152 116 152 124 L152 292 C152 301 155 308 160 313 C164 318 170 320 178 320 C186 320 192 318 196 313 L196 313 Z " />
<glyph glyph-name="r" unicode="r" horiz-adv-x="263" d="M40 0 L152 0 L152 239 C152 258 157 272 166 280 C175 288 189 292 209 292 L233 292 L233 424 C189 424 149 385 142 328 L142 416 L40 416 L40 0 L40 0 Z " />
<glyph glyph-name="s" unicode="s" horiz-adv-x="324" d="M186 284 L294 284 L294 298 C294 335 281 366 255 389 C230 412 198 424 162 424 C125 424 94 413 69 390 C43 367 30 340 30 307 C30 276 38 250 53 229 C68 209 91 191 121 175 C148 161 166 150 174 142 C182 134 186 126 186 116 C186 108 183 101 178 96 C174 91 168 88 160 88 C152 88 146 91 142 97 C137 102 134 110 134 120 L134 140 L26 140 L26 123 C26 84 39 52 66 28 C92 4 124 -8 162 -8 C200 -8 232 5 258 29 C284 54 298 85 298 122 C298 178 266 222 204 254 C179 267 162 277 154 284 C146 292 142 300 142 308 C142 321 150 328 164 328 C178 328 186 319 186 300 L186 284 L186 284 Z " />
<glyph glyph-name="t" unicode="t" horiz-adv-x="242" d="M15 324 L55 324 L55 99 C55 63 65 37 85 19 C105 1 132 -8 167 -8 C187 -8 223 -8 223 -8 L223 96 L196 96 C186 96 178 99 173 104 C169 108 167 117 167 128 L167 324 L227 324 L227 416 L167 416 L167 512 L55 512 L55 416 L15 416 L15 324 L15 324 Z " />
<glyph glyph-name="u" unicode="u" horiz-adv-x="352" d="M200 123 C200 105 191 96 175 96 C159 96 152 105 152 123 L152 416 L40 416 L40 107 C40 68 48 40 64 21 C80 2 102 -8 130 -8 C168 -8 211 25 211 88 L211 0 L312 0 L312 416 L200 416 L200 123 L200 123 Z " />
<glyph glyph-name="v" unicode="v" horiz-adv-x="317" d="M303 416 L195 416 L163 179 L131 416 L15 416 L106 0 L211 0 L303 416 L303 416 Z " />
<glyph glyph-name="w" unicode="w" horiz-adv-x="445" d="M249 0 L345 0 L428 416 L321 416 L298 203 L267 416 L186 416 L155 203 L133 416 L17 416 L101 0 L196 0 L222 205 L249 0 L249 0 Z " />
<glyph glyph-name="x" unicode="x" horiz-adv-x="346" d="M328 416 L214 416 L175 315 L136 416 L20 416 L116 215 L11 0 L125 0 L172 117 L219 0 L336 0 L231 218 L328 416 L328 416 Z " />
<glyph glyph-name="y" unicode="y" horiz-adv-x="316" d="M106 0 C101 -29 85 -44 58 -44 C46 -44 30 -44 30 -44 L30 -136 C30 -136 70 -136 82 -136 C147 -136 188 -94 207 -9 L302 416 L194 416 L162 160 L130 416 L14 416 L106 0 L106 0 Z " />
<glyph glyph-name="z" unicode="z" horiz-adv-x="279" d="M18 80 L18 0 L258 0 L258 96 L137 96 L258 337 L258 416 L30 416 L30 320 L138 320 L18 80 L18 80 Z " />
<glyph glyph-name="braceleft" unicode="&#x7b;" horiz-adv-x="310" d="M208 240 C208 303 183 335 132 336 C183 338 208 370 208 432 L208 544 C208 558 212 568 218 575 C224 581 234 584 248 584 L284 584 L284 680 L240 680 C190 680 154 669 131 646 C108 623 96 586 96 536 L96 418 C96 397 86 386 64 386 L32 386 L32 287 L64 287 C86 287 96 276 96 255 L96 136 C96 86 108 49 131 27 C154 4 190 -8 240 -8 L284 -8 L284 88 L248 88 C234 88 224 91 218 98 C212 104 208 114 208 128 L208 240 L208 240 Z " />
<glyph glyph-name="bar" unicode="&#x7c;" horiz-adv-x="172" d="M40 -8 L132 -8 L132 712 L40 712 L40 -8 L40 -8 Z " />
<glyph glyph-name="braceright" unicode="&#x7d;" horiz-adv-x="310" d="M101 432 C101 370 127 338 177 336 C127 335 101 303 101 240 L101 128 C101 114 98 104 92 98 C85 91 75 88 61 88 L25 88 L25 -8 L69 -8 C119 -8 156 4 179 27 C202 49 213 86 213 136 L213 255 C213 276 224 287 245 287 L277 287 L277 386 L245 386 C224 386 213 397 213 418 L213 536 C213 586 202 623 179 646 C156 669 119 680 69 680 L25 680 L25 584 L61 584 C75 584 85 581 92 575 C98 568 101 558 101 544 L101 432 L101 432 Z " />
<glyph glyph-name="asciitilde" unicode="&#x7e;" horiz-adv-x="342" d="M100 228 L101 237 C102 243 104 249 107 255 C111 261 116 264 122 264 C131 264 145 257 165 243 C184 228 204 221 225 221 C243 221 258 226 271 235 C284 244 293 255 299 266 C305 278 310 291 314 306 C317 321 319 331 320 337 C320 342 320 347 320 351 L245 351 L244 342 C243 336 241 329 238 323 C234 317 229 314 223 314 C213 314 199 321 179 336 C160 350 140 357 120 357 C102 357 87 353 74 343 C60 334 51 323 45 312 C39 301 35 287 31 272 C28 257 26 247 25 242 C25 236 24 231 24 228 L100 228 L100 228 Z " />
<glyph glyph-name="exclamdown" unicode="&#xa1;" horiz-adv-x="154" d="M126 548 C113 562 97 568 78 568 C60 568 44 562 30 548 C17 535 10 519 10 500 C10 482 17 466 30 452 C44 439 60 432 78 432 C97 432 113 439 126 452 C140 466 146 482 146 500 C146 519 140 535 126 548 L126 548 Z M118 376 L38 376 L14 0 L142 0 L118 376 Z " />
<glyph glyph-name="cent" unicode="&#xa2;" horiz-adv-x="344" d="M143 -71 L210 -71 L210 -6 C237 2 260 17 278 39 C295 61 304 86 304 116 L304 173 L196 173 L196 114 C196 98 189 89 174 89 C159 89 151 98 151 114 L151 288 C151 305 159 313 174 313 C189 313 196 305 196 288 L196 233 L304 233 L304 290 C304 320 295 345 278 367 C260 388 237 402 210 409 L210 473 L143 473 L143 409 C113 403 88 388 69 366 C49 344 40 317 40 287 L40 112 C40 81 49 54 68 33 C87 11 112 -2 143 -8 L143 -71 L143 -71 Z " />
<glyph glyph-name="sterling" unicode="&#xa3;" horiz-adv-x="381" d="M348 376 L348 440 C348 478 336 509 310 533 C284 556 253 568 216 568 C179 568 146 556 118 530 C91 505 77 473 77 433 L77 301 L29 301 L29 236 L77 236 L77 107 L29 107 L29 0 L77 0 L191 0 L341 0 L341 107 L191 107 L191 236 L281 236 L281 301 L191 301 L191 432 C191 452 199 462 215 462 C231 462 239 452 239 432 L239 376 L348 376 L348 376 Z " />
<glyph glyph-name="currency" unicode="&#xa4;" horiz-adv-x="402" d="M41 254 C41 222 50 193 68 168 L13 114 L60 66 L116 122 C142 107 170 99 201 99 C232 99 261 107 287 124 L344 66 L391 114 L337 168 C355 194 364 224 364 256 C364 287 355 316 337 342 L391 397 L344 444 L287 387 C262 403 234 411 203 411 C173 411 144 403 117 387 L60 444 L13 397 L68 342 C50 316 41 287 41 254 L41 254 Z M159 298 C171 310 185 315 202 315 C219 315 233 310 245 298 C256 287 262 272 262 255 C262 238 256 224 245 212 C233 201 219 195 202 195 C185 195 171 201 159 212 C148 224 142 238 142 255 C142 272 148 287 159 298 L159 298 Z " />
<glyph glyph-name="yen" unicode="&#xa5;" horiz-adv-x="348" d="M112 0 L232 0 L232 167 L315 167 L315 225 L232 225 L232 240 L238 259 L315 259 L315 317 L255 317 L330 560 L212 560 L175 370 L141 560 L14 560 L88 317 L31 317 L31 259 L106 259 L112 240 L112 225 L31 225 L31 167 L112 167 L112 0 L112 0 Z " />
<glyph glyph-name="brokenbar" unicode="&#xa6;" horiz-adv-x="143" d="M117 712 L25 712 L25 440 L117 440 L117 712 Z M25 -8 L117 -8 L117 264 L25 264 L25 -8 Z " />
<glyph glyph-name="section" unicode="&#xa7;" horiz-adv-x="410" d="M387 261 C387 291 378 318 359 342 C339 366 306 395 258 428 C214 459 191 486 191 510 C191 527 199 535 215 535 C223 535 228 532 233 527 C237 522 239 515 239 507 L239 479 L351 479 L351 509 C351 546 339 575 313 596 C288 617 256 627 217 627 C177 627 143 616 116 593 C89 571 75 540 75 502 C75 464 87 431 110 402 C60 384 35 346 35 290 C35 259 45 232 64 208 C83 184 117 155 164 122 C209 91 231 64 231 40 C231 24 223 15 207 15 C200 15 194 18 190 23 C185 29 183 35 183 43 L183 71 L71 71 L71 42 C71 4 84 -25 109 -46 C134 -66 167 -77 206 -77 C246 -77 279 -65 306 -43 C334 -20 347 11 347 49 C347 86 335 118 311 147 C362 167 387 205 387 261 L387 261 Z M271 247 C271 227 259 215 236 211 C201 236 179 254 168 267 C157 280 151 292 151 304 C151 324 163 336 186 339 C221 313 244 295 255 282 C266 270 271 258 271 247 L271 247 Z " />
<glyph glyph-name="dieresis" unicode="&#xa8;" horiz-adv-x="275" d="M25 444 C36 433 50 427 67 427 C84 427 98 433 109 444 C120 455 125 469 125 486 C125 503 120 517 109 528 C98 539 84 544 67 544 C50 544 36 539 25 528 C14 517 8 503 8 486 C8 469 14 455 25 444 L25 444 Z M166 444 C177 433 190 427 208 427 C225 427 239 433 250 444 C261 455 266 469 266 486 C266 503 261 517 250 528 C239 539 225 544 208 544 C190 544 177 539 166 528 C155 517 149 503 149 486 C149 469 155 455 166 444 L166 444 Z " />
<glyph glyph-name="copyright" unicode="&#xa9;" horiz-adv-x="659" d="M122 75 C177 20 245 -8 328 -8 C410 -8 479 20 535 76 C592 132 620 201 620 282 C620 363 592 431 537 486 C482 541 413 568 331 568 C249 568 179 540 123 484 C67 428 39 360 39 279 C39 197 66 130 122 75 L122 75 Z M171 440 C214 483 266 504 329 504 C392 504 445 483 487 440 C530 398 551 344 551 280 C551 216 530 163 487 120 C445 78 392 56 329 56 C266 56 214 78 171 120 C129 163 108 216 108 280 C108 344 129 398 171 440 L171 440 Z M403 236 L397 227 C393 222 385 217 375 211 C364 205 352 203 339 203 C318 203 300 210 286 225 C272 240 264 258 264 280 C264 302 272 320 286 335 C300 350 318 358 339 358 C352 358 363 355 373 350 C383 345 390 341 392 338 C395 335 397 332 398 330 L459 385 L448 399 C440 407 426 416 406 425 C385 434 362 439 336 439 C291 439 252 423 222 392 C192 361 176 324 176 279 C176 234 191 197 221 167 C250 137 288 122 334 122 C350 122 366 124 381 128 C396 132 408 137 417 142 C426 147 435 153 442 160 C450 167 455 172 457 175 C459 177 461 179 462 181 L403 236 Z " />
<glyph glyph-name="ordfeminine" unicode="&#xaa;" horiz-adv-x="221" d="M197 317 L197 492 C197 516 189 535 174 550 C158 564 138 571 115 571 C93 571 73 564 57 549 C41 533 33 514 33 491 L33 483 L103 483 L103 501 C103 510 107 514 114 514 C121 514 125 510 125 501 L125 451 C117 461 105 466 89 466 C70 466 54 459 41 445 C29 432 23 413 23 390 L23 387 C23 363 29 344 41 331 C52 319 68 312 88 312 C108 312 131 329 133 361 L133 317 L197 317 Z M31 229 L197 229 L197 280 L31 280 L31 229 Z M125 383 C125 371 120 365 110 365 C100 365 95 371 95 383 L95 400 C95 412 100 418 110 418 C120 418 125 412 125 400 L125 383 Z " />
<glyph glyph-name="guillemotleft" unicode="&#xab;" horiz-adv-x="482" d="M252 400 L192 460 L40 316 L40 284 L192 140 L252 204 L164 302 L252 400 Z M456 400 L396 460 L244 316 L244 284 L396 140 L456 204 L368 302 L456 400 Z " />
<glyph glyph-name="logicalnot" unicode="&#xac;" horiz-adv-x="360" d="M224 113 L320 113 L320 301 L40 301 L40 213 L224 213 L224 113 L224 113 Z " />
<glyph glyph-name="registered" unicode="&#xae;" horiz-adv-x="326" d="M67 331 C94 305 127 291 166 291 C205 291 238 305 265 332 C292 359 306 392 306 431 C306 469 292 502 266 529 C239 555 206 568 167 568 C128 568 95 555 68 528 C41 501 27 468 27 429 C27 390 41 357 67 331 L67 331 Z M94 504 C114 524 138 534 167 534 C195 534 219 524 239 504 C259 484 269 459 269 430 C269 400 259 376 239 356 C219 336 195 326 167 326 C138 326 114 336 94 356 C74 376 64 400 64 430 C64 459 74 484 94 504 L94 504 Z M114 363 L151 363 L151 406 L163 406 L191 363 L232 363 L200 411 C218 418 227 432 227 451 C227 465 222 476 213 485 C204 493 192 497 176 497 L114 497 L114 363 Z M171 467 C184 467 191 461 191 450 C191 439 184 434 171 434 L151 434 L151 467 L171 467 Z " />
<glyph glyph-name="degree" unicode="&#xb0;" horiz-adv-x="288" d="M54 367 C79 343 109 330 146 330 C182 330 213 343 238 368 C264 393 277 423 277 459 C277 495 264 525 239 549 C214 574 183 586 147 586 C111 586 80 574 54 549 C29 523 16 493 16 457 C16 422 29 392 54 367 L54 367 Z M112 494 C122 504 133 509 146 509 C160 509 171 504 180 494 C190 484 194 472 194 458 C194 444 190 433 180 423 C171 413 160 408 146 408 C133 408 122 413 112 423 C103 433 98 444 98 458 C98 472 103 484 112 494 L112 494 Z " />
<glyph glyph-name="plusminus" unicode="&#xb1;" horiz-adv-x="345" d="M128 128 L216 128 L216 228 L312 228 L312 316 L216 316 L216 416 L128 416 L128 316 L32 316 L32 228 L128 228 L128 128 Z M312 0 L312 88 L32 88 L32 0 L312 0 Z " />
<glyph glyph-name="twosuperior" unicode="&#xb2;" horiz-adv-x="188" d="M179 230 L179 296 L90 296 L155 410 C171 440 179 465 179 487 C179 512 171 532 155 548 C139 563 119 571 95 571 C71 571 51 563 35 547 C18 531 9 511 9 485 L9 451 L80 451 L80 483 C80 496 84 503 93 503 C102 503 106 496 106 483 C106 467 102 452 95 439 L9 281 L9 230 L179 230 L179 230 Z " />
<glyph glyph-name="threesuperior" unicode="&#xb3;" horiz-adv-x="213" d="M104 569 C82 569 63 561 47 546 C31 531 23 511 23 488 L23 459 L93 459 L93 490 C93 499 97 503 104 503 C111 503 114 499 114 490 L114 443 C114 432 111 427 104 427 L104 372 C113 372 118 366 118 353 L118 307 C118 295 113 289 104 289 C94 289 89 295 89 307 L89 341 L19 341 L19 307 C19 282 27 262 43 247 C59 231 79 223 103 223 C127 223 148 231 165 247 C182 263 191 284 191 309 L191 339 C191 364 182 384 165 401 C179 416 187 435 187 458 L187 489 C187 513 179 532 163 547 C148 562 128 569 104 569 L104 569 Z " />
<glyph glyph-name="acute" unicode="&#xb4;" horiz-adv-x="154" d="M3 432 L87 432 L151 568 L35 568 L3 432 L3 432 Z " />
<glyph glyph-name="mu" unicode="&#xb5;" horiz-adv-x="352" d="M200 122 C200 105 191 96 175 96 C159 96 152 105 152 122 L152 416 L40 416 L40 -128 L152 -128 L152 -8 C152 -8 153 -8 154 -8 C156 -8 157 -8 158 -8 C180 -8 198 7 212 36 L216 0 L312 0 L312 416 L200 416 L200 122 L200 122 Z " />
<glyph glyph-name="paragraph" unicode="&#xb6;" horiz-adv-x="480" d="M168 0 L280 0 L280 460 L328 460 L328 0 L440 0 L440 560 L165 560 C120 560 84 546 57 517 C30 488 16 452 16 409 C16 368 30 333 56 304 C83 275 119 260 164 260 L168 260 L168 0 L168 0 Z " />
<glyph glyph-name="cedilla" unicode="&#xb8;" horiz-adv-x="285" d="M111 0 L115 -3 C118 -6 121 -10 124 -17 C127 -23 128 -30 128 -37 C128 -51 124 -62 115 -70 C106 -78 94 -82 80 -82 C69 -82 61 -81 57 -80 L57 -151 L62 -152 C65 -153 70 -154 76 -155 C83 -155 90 -156 97 -156 C131 -156 159 -146 180 -127 C202 -108 213 -83 213 -52 C213 -39 211 -28 207 -17 C203 -6 198 3 193 9 C188 15 182 21 176 27 C170 32 165 35 163 37 C161 39 159 40 157 40 L111 0 L111 0 Z " />
<glyph glyph-name="onesuperior" unicode="&#xb9;" horiz-adv-x="152" d="M-4 507 L32 459 L54 475 L54 225 L126 225 L126 561 L65 561 L-4 507 L-4 507 Z " />
<glyph glyph-name="ordmasculine" unicode="&#xba;" horiz-adv-x="200" d="M16 394 C16 369 24 350 41 335 C57 320 77 312 101 312 C125 312 146 320 162 335 C179 351 188 371 188 395 L188 490 C188 514 179 534 163 549 C147 564 127 571 103 571 C79 571 58 564 42 548 C25 533 16 513 16 488 L16 394 Z M24 229 L180 229 L180 280 L24 280 L24 229 Z M88 494 C88 504 93 509 102 509 C111 509 115 504 115 494 L115 390 C115 380 111 375 102 375 C93 375 88 380 88 390 L88 494 Z " />
<glyph glyph-name="guillemotright" unicode="&#xbb;" horiz-adv-x="483" d="M27 202 L87 142 L239 286 L239 318 L87 462 L27 398 L114 300 L27 202 Z M231 202 L291 142 L443 286 L443 318 L291 462 L231 398 L318 300 L231 202 Z " />
<glyph glyph-name="onequarter" unicode="&#xbc;" horiz-adv-x="460" d="M1 506 L37 458 L58 473 L58 224 L131 224 L131 560 L70 560 L1 506 Z M37 0 L110 0 L430 560 L358 560 L37 0 Z M350 0 L414 0 L414 70 L441 70 L441 127 L414 127 L414 336 L346 336 L257 129 L257 70 L350 70 L350 0 Z M314 127 L350 210 L350 127 L314 127 Z " />
<glyph glyph-name="onehalf" unicode="&#xbd;" horiz-adv-x="524" d="M14 501 L50 453 L80 473 L80 224 L152 224 L152 560 L91 560 L14 501 Z M59 0 L131 0 L451 560 L379 560 L59 0 Z M496 0 L496 65 L407 65 L471 180 C488 209 496 235 496 256 C496 281 488 302 472 317 C456 333 436 341 412 341 C388 341 368 333 351 316 C334 301 326 280 326 255 L326 220 L396 220 L396 253 C396 266 401 272 409 272 C418 272 423 266 423 253 C423 236 419 221 412 208 L326 51 L326 0 L496 0 Z " />
<glyph glyph-name="threequarters" unicode="&#xbe;" horiz-adv-x="485" d="M101 565 C79 565 60 557 43 542 C28 527 20 507 20 483 L20 454 L90 454 L90 485 C90 494 93 499 100 499 C107 499 111 494 111 485 L111 438 C111 428 107 423 100 423 L100 368 C110 368 115 361 115 348 L115 302 C115 290 110 285 100 285 C91 285 86 290 86 302 L86 337 L16 337 L16 303 C16 278 24 258 39 242 C56 227 76 219 100 219 C124 219 145 227 162 243 C179 259 188 279 188 304 L188 334 C188 359 179 380 161 396 C176 411 183 430 183 453 L183 485 C183 508 176 528 160 542 C144 557 125 565 101 565 L101 565 Z M64 0 L135 0 L455 560 L384 560 L64 0 Z M376 0 L440 0 L440 70 L467 70 L467 127 L440 127 L440 345 L372 345 L283 129 L283 70 L376 70 L376 0 Z M339 127 L376 220 L376 127 L339 127 Z " />
<glyph glyph-name="questiondown" unicode="&#xbf;" horiz-adv-x="297" d="M246 32 C273 59 286 94 286 138 L286 184 L177 184 L177 139 C177 115 169 103 153 103 C136 103 128 115 128 139 C128 161 134 184 146 207 C159 231 171 255 183 279 C196 303 202 328 202 352 L202 376 L99 376 L99 360 C99 343 95 324 86 306 C77 287 67 271 57 256 C46 242 36 223 28 200 C19 177 14 153 14 127 C14 87 27 55 53 30 C79 5 111 -8 149 -8 C187 -8 219 5 246 32 L246 32 Z M198 548 C185 562 169 568 150 568 C132 568 116 562 102 548 C89 535 82 519 82 500 C82 482 89 466 102 452 C116 439 132 432 150 432 C169 432 185 439 198 452 C212 466 218 482 218 500 C218 519 212 535 198 548 L198 548 Z " />
<glyph glyph-name="Agrave" unicode="&#xc0;" horiz-adv-x="356" d="M236 560 L120 560 L12 0 L128 0 L140 92 L208 92 L220 0 L344 0 L236 560 Z M195 188 L153 188 L174 349 L195 188 Z M227 760 L111 760 L175 624 L259 624 L227 760 Z " />
<glyph glyph-name="Aacute" unicode="&#xc1;" horiz-adv-x="356" d="M236 560 L120 560 L12 0 L128 0 L140 92 L208 92 L220 0 L344 0 L236 560 Z M195 188 L153 188 L174 349 L195 188 Z M106 632 L190 632 L254 768 L138 768 L106 632 Z " />
<glyph glyph-name="Acircumflex" unicode="&#xc2;" horiz-adv-x="356" d="M236 560 L120 560 L12 0 L128 0 L140 92 L208 92 L220 0 L344 0 L236 560 Z M195 188 L153 188 L174 349 L195 188 Z M58 624 L138 624 L176 682 L213 624 L298 624 L218 760 L138 760 L58 624 Z " />
<glyph glyph-name="Atilde" unicode="&#xc3;" horiz-adv-x="356" d="M236 560 L120 560 L12 0 L128 0 L140 92 L208 92 L220 0 L344 0 L236 560 Z M195 188 L153 188 L174 349 L195 188 Z M102 597 L103 605 C103 612 105 618 109 624 C112 630 117 633 124 633 C133 633 147 626 166 612 C186 597 206 590 227 590 C244 590 260 595 272 604 C285 614 294 624 301 635 C307 647 312 660 315 675 C319 690 321 700 321 706 C322 711 322 716 322 720 L246 720 L245 711 C245 705 243 698 239 692 C236 686 231 683 224 683 C215 683 200 690 181 705 C161 719 141 726 121 726 C103 726 88 722 75 712 C62 703 53 693 47 681 C41 670 36 656 33 641 C29 626 27 616 27 611 C26 605 26 600 26 597 L102 597 Z " />
<glyph glyph-name="Adieresis" unicode="&#xc4;" horiz-adv-x="356" d="M236 560 L120 560 L12 0 L128 0 L140 92 L208 92 L220 0 L344 0 L236 560 Z M195 188 L153 188 L174 349 L195 188 Z M64 644 C75 633 89 627 106 627 C123 627 137 633 148 644 C159 655 164 669 164 686 C164 703 159 717 148 728 C137 739 123 744 106 744 C89 744 75 739 64 728 C53 717 47 703 47 686 C47 669 53 655 64 644 L64 644 Z M205 644 C216 633 229 627 247 627 C264 627 278 633 289 644 C300 655 305 669 305 686 C305 703 300 717 289 728 C278 739 264 744 247 744 C229 744 216 739 205 728 C194 717 188 703 188 686 C188 669 194 655 205 644 L205 644 Z " />
<glyph glyph-name="Aring" unicode="&#xc5;" horiz-adv-x="356" d="M236 560 L120 560 L12 0 L128 0 L140 92 L208 92 L220 0 L344 0 L236 560 Z M195 188 L153 188 L174 349 L195 188 Z M123 622 C138 609 156 602 178 602 C200 602 218 609 232 622 C246 636 254 653 254 674 C254 695 246 712 232 726 C218 739 200 746 178 746 C156 746 138 739 123 726 C109 712 102 695 102 674 C102 653 109 636 123 622 L123 622 Z M158 693 C163 698 170 700 178 700 C186 700 192 698 197 693 C202 688 205 681 205 674 C205 667 202 660 197 655 C192 650 186 648 178 648 C170 648 163 650 158 655 C153 660 151 667 151 674 C151 681 153 688 158 693 L158 693 Z " />
<glyph glyph-name="AE" unicode="&#xc6;" horiz-adv-x="464" d="M452 0 L452 120 L336 120 L336 230 L424 230 L424 342 L336 342 L336 440 L448 440 L448 560 L133 560 L8 0 L125 0 L143 92 L216 92 L216 0 L452 0 Z M162 188 L216 460 L216 188 L162 188 Z " />
<glyph glyph-name="Ccedilla" unicode="&#xc7;" horiz-adv-x="342" d="M324 348 L324 433 C324 475 311 507 284 531 C258 556 225 568 186 568 C145 568 111 555 82 529 C54 502 40 468 40 426 L40 130 C40 88 54 55 81 29 C108 4 142 -8 182 -8 C222 -8 255 4 283 30 C310 55 324 88 324 129 L324 220 L208 220 L208 132 C208 113 200 104 184 104 C168 104 160 113 160 132 L160 428 C160 446 168 456 184 456 C200 456 208 446 208 428 L208 348 L324 348 Z M150 0 L154 -3 C157 -6 160 -10 163 -17 C166 -23 167 -30 167 -37 C167 -51 163 -62 154 -70 C145 -78 133 -82 119 -82 C108 -82 100 -81 96 -80 L96 -151 L101 -152 C104 -153 109 -154 115 -155 C122 -155 129 -156 136 -156 C170 -156 198 -146 219 -127 C241 -108 252 -83 252 -52 C252 -39 250 -28 246 -17 C242 -6 237 3 232 9 C227 15 221 21 215 27 C209 32 204 35 202 37 C200 39 198 40 196 40 L150 0 Z " />
<glyph glyph-name="Egrave" unicode="&#xc8;" horiz-adv-x="298" d="M276 0 L276 120 L160 120 L160 229 L248 229 L248 341 L160 341 L160 440 L272 440 L272 560 L40 560 L40 0 L276 0 Z M211 760 L95 760 L159 624 L243 624 L211 760 Z " />
<glyph glyph-name="Eacute" unicode="&#xc9;" horiz-adv-x="298" d="M276 0 L276 120 L160 120 L160 229 L248 229 L248 341 L160 341 L160 440 L272 440 L272 560 L40 560 L40 0 L276 0 Z M103 632 L187 632 L251 768 L135 768 L103 632 Z " />
<glyph glyph-name="Ecircumflex" unicode="&#xca;" horiz-adv-x="298" d="M276 0 L276 120 L160 120 L160 229 L248 229 L248 341 L160 341 L160 440 L272 440 L272 560 L40 560 L40 0 L276 0 Z M42 624 L122 624 L160 682 L197 624 L282 624 L202 760 L122 760 L42 624 Z " />
<glyph glyph-name="Edieresis" unicode="&#xcb;" horiz-adv-x="298" d="M276 0 L276 120 L160 120 L160 229 L248 229 L248 341 L160 341 L160 440 L272 440 L272 560 L40 560 L40 0 L276 0 Z M48 644 C59 633 73 627 90 627 C107 627 121 633 132 644 C143 655 148 669 148 686 C148 703 143 717 132 728 C121 739 107 744 90 744 C73 744 59 739 48 728 C37 717 31 703 31 686 C31 669 37 655 48 644 L48 644 Z M189 644 C200 633 213 627 231 627 C248 627 262 633 273 644 C284 655 289 669 289 686 C289 703 284 717 273 728 C262 739 248 744 231 744 C213 744 200 739 189 728 C178 717 172 703 172 686 C172 669 178 655 189 644 L189 644 Z " />
<glyph glyph-name="Igrave" unicode="&#xcc;" horiz-adv-x="202" d="M40 0 L162 0 L162 560 L40 560 L40 0 Z M149 760 L33 760 L97 624 L181 624 L149 760 Z " />
<glyph glyph-name="Iacute" unicode="&#xcd;" horiz-adv-x="202" d="M40 0 L162 0 L162 560 L40 560 L40 0 Z M41 632 L125 632 L189 768 L73 768 L41 632 Z " />
<glyph glyph-name="Icircumflex" unicode="&#xce;" horiz-adv-x="202" d="M40 0 L162 0 L162 560 L40 560 L40 0 Z M-20 624 L60 624 L98 682 L135 624 L220 624 L140 760 L60 760 L-20 624 Z " />
<glyph glyph-name="Idieresis" unicode="&#xcf;" horiz-adv-x="202" d="M40 0 L162 0 L162 560 L40 560 L40 0 Z M-14 644 C-3 633 11 627 28 627 C45 627 59 633 70 644 C81 655 86 669 86 686 C86 703 81 717 70 728 C59 739 45 744 28 744 C11 744 -3 739 -14 728 C-25 717 -31 703 -31 686 C-31 669 -25 655 -14 644 L-14 644 Z M127 644 C138 633 151 627 169 627 C186 627 200 633 211 644 C222 655 227 669 227 686 C227 703 222 717 211 728 C200 739 186 744 169 744 C151 744 138 739 127 728 C116 717 110 703 110 686 C110 669 116 655 127 644 L127 644 Z " />
<glyph glyph-name="Eth" unicode="&#xd0;" horiz-adv-x="400" d="M84 0 L217 0 C260 0 295 12 321 37 C347 62 360 97 360 142 L360 420 C360 465 347 500 322 524 C297 548 263 560 220 560 L84 560 L84 312 L30 312 L30 251 L84 251 L84 0 Z M182 468 L212 468 C245 468 262 450 262 412 L262 147 C262 109 245 91 212 91 L182 91 L182 251 L234 251 L234 312 L182 312 L182 468 Z " />
<glyph glyph-name="Ntilde" unicode="&#xd1;" horiz-adv-x="380" d="M236 0 L340 0 L340 560 L236 560 L236 286 L152 560 L40 560 L40 0 L144 0 L144 299 L236 0 Z M114 603 L115 611 C115 618 117 624 121 630 C124 636 129 639 136 639 C145 639 159 632 178 618 C198 603 218 596 239 596 C256 596 272 601 284 610 C297 620 306 630 313 641 C319 653 324 666 327 681 C331 696 333 706 333 712 C334 717 334 722 334 726 L258 726 L257 717 C257 711 255 704 251 698 C248 692 243 689 236 689 C227 689 212 696 193 711 C173 725 153 732 133 732 C115 732 100 728 87 718 C74 709 65 699 59 687 C53 676 48 662 45 647 C41 632 39 622 39 617 C38 611 38 606 38 603 L114 603 Z " />
<glyph glyph-name="Ograve" unicode="&#xd2;" horiz-adv-x="376" d="M40 134 C40 91 54 56 82 31 C109 5 145 -8 187 -8 C229 -8 264 5 293 32 C322 59 336 94 336 137 L336 425 C336 469 322 503 295 529 C267 555 232 568 190 568 C148 568 112 554 83 527 C55 500 40 465 40 422 L40 134 Z M160 424 C160 445 170 456 188 456 C207 456 216 445 216 424 L216 136 C216 114 207 104 188 104 C170 104 160 114 160 136 L160 424 Z M236 741 L120 741 L184 605 L268 605 L236 741 Z " />
<glyph glyph-name="Oacute" unicode="&#xd3;" horiz-adv-x="376" d="M40 134 C40 91 54 56 82 31 C109 5 145 -8 187 -8 C229 -8 264 5 293 32 C322 59 336 94 336 137 L336 425 C336 469 322 503 295 529 C267 555 232 568 190 568 C148 568 112 554 83 527 C55 500 40 465 40 422 L40 134 Z M160 424 C160 445 170 456 188 456 C207 456 216 445 216 424 L216 136 C216 114 207 104 188 104 C170 104 160 114 160 136 L160 424 Z M123 605 L207 605 L271 741 L155 741 L123 605 Z " />
<glyph glyph-name="Ocircumflex" unicode="&#xd4;" horiz-adv-x="376" d="M40 134 C40 91 54 56 82 31 C109 5 145 -8 187 -8 C229 -8 264 5 293 32 C322 59 336 94 336 137 L336 425 C336 469 322 503 295 529 C267 555 232 568 190 568 C148 568 112 554 83 527 C55 500 40 465 40 422 L40 134 Z M160 424 C160 445 170 456 188 456 C207 456 216 445 216 424 L216 136 C216 114 207 104 188 104 C170 104 160 114 160 136 L160 424 Z M70 599 L150 599 L188 657 L225 599 L310 599 L230 735 L150 735 L70 599 Z " />
<glyph glyph-name="Otilde" unicode="&#xd5;" horiz-adv-x="376" d="M40 134 C40 91 54 56 82 31 C109 5 145 -8 187 -8 C229 -8 264 5 293 32 C322 59 336 94 336 137 L336 425 C336 469 322 503 295 529 C267 555 232 568 190 568 C148 568 112 554 83 527 C55 500 40 465 40 422 L40 134 Z M160 424 C160 445 170 456 188 456 C207 456 216 445 216 424 L216 136 C216 114 207 104 188 104 C170 104 160 114 160 136 L160 424 Z M111 605 L112 613 C112 620 114 626 118 632 C121 638 126 641 133 641 C142 641 156 634 175 620 C195 605 215 598 236 598 C253 598 269 603 281 612 C294 622 303 632 310 643 C316 655 321 668 324 683 C328 698 330 708 330 714 C331 719 331 724 331 728 L255 728 L254 719 C254 713 252 706 248 700 C245 694 240 691 233 691 C224 691 209 698 190 713 C170 727 150 734 130 734 C112 734 97 730 84 720 C71 711 62 701 56 689 C50 678 45 664 42 649 C38 634 36 624 36 619 C35 613 35 608 35 605 L111 605 Z " />
<glyph glyph-name="Odieresis" unicode="&#xd6;" horiz-adv-x="376" d="M40 134 C40 91 54 56 82 31 C109 5 145 -8 187 -8 C229 -8 264 5 293 32 C322 59 336 94 336 137 L336 425 C336 469 322 503 295 529 C267 555 232 568 190 568 C148 568 112 554 83 527 C55 500 40 465 40 422 L40 134 Z M160 424 C160 445 170 456 188 456 C207 456 216 445 216 424 L216 136 C216 114 207 104 188 104 C170 104 160 114 160 136 L160 424 Z M78 615 C89 604 103 598 120 598 C137 598 151 604 162 615 C173 626 178 640 178 657 C178 674 173 688 162 699 C151 710 137 715 120 715 C103 715 89 710 78 699 C67 688 61 674 61 657 C61 640 67 626 78 615 L78 615 Z M219 615 C230 604 243 598 261 598 C278 598 292 604 303 615 C314 626 319 640 319 657 C319 674 314 688 303 699 C292 710 278 715 261 715 C243 715 230 710 219 699 C208 688 202 674 202 657 C202 640 208 626 219 615 L219 615 Z " />
<glyph glyph-name="multiply" unicode="&#xd7;" horiz-adv-x="306" d="M231 142 L294 205 L212 286 L294 366 L231 429 L150 348 L68 429 L6 366 L87 286 L6 205 L68 142 L150 224 L231 142 L231 142 Z " />
<glyph glyph-name="Oslash" unicode="&#xd8;" horiz-adv-x="376" d="M344 585 L292 584 L275 544 C251 560 223 568 190 568 C148 568 112 555 83 528 C55 501 40 466 40 423 L40 134 C40 102 48 75 64 51 L32 -24 L84 -23 L100 15 C125 0 154 -8 187 -8 C229 -8 264 6 293 33 C322 60 336 95 336 138 L336 426 C336 458 328 486 312 510 L344 585 Z M160 424 C160 446 170 456 188 456 C207 456 216 446 216 424 L216 406 L160 276 L160 424 Z M188 104 C170 104 160 115 160 137 L160 155 L216 286 L216 136 C216 115 207 104 188 104 L188 104 Z " />
<glyph glyph-name="Ugrave" unicode="&#xd9;" horiz-adv-x="368" d="M40 560 L40 130 C40 88 54 55 81 29 C108 4 142 -8 183 -8 C223 -8 258 5 286 31 C314 57 328 91 328 133 L328 560 L209 560 L209 132 C209 113 201 104 185 104 C169 104 161 113 161 132 L161 560 L40 560 Z M228 745 L112 745 L176 609 L260 609 L228 745 Z " />
<glyph glyph-name="Uacute" unicode="&#xda;" horiz-adv-x="368" d="M40 560 L40 130 C40 88 54 55 81 29 C108 4 142 -8 183 -8 C223 -8 258 5 286 31 C314 57 328 91 328 133 L328 560 L209 560 L209 132 C209 113 201 104 185 104 C169 104 161 113 161 132 L161 560 L40 560 Z M121 602 L205 602 L269 738 L153 738 L121 602 Z " />
<glyph glyph-name="Ucircumflex" unicode="&#xdb;" horiz-adv-x="368" d="M40 560 L40 130 C40 88 54 55 81 29 C108 4 142 -8 183 -8 C223 -8 258 5 286 31 C314 57 328 91 328 133 L328 560 L209 560 L209 132 C209 113 201 104 185 104 C169 104 161 113 161 132 L161 560 L40 560 Z M65 606 L145 606 L183 664 L220 606 L305 606 L225 742 L145 742 L65 606 Z " />
<glyph glyph-name="Udieresis" unicode="&#xdc;" horiz-adv-x="368" d="M40 560 L40 130 C40 88 54 55 81 29 C108 4 142 -8 183 -8 C223 -8 258 5 286 31 C314 57 328 91 328 133 L328 560 L209 560 L209 132 C209 113 201 104 185 104 C169 104 161 113 161 132 L161 560 L40 560 Z M77 614 C88 603 102 597 119 597 C136 597 150 603 161 614 C172 625 177 639 177 656 C177 673 172 687 161 698 C150 709 136 714 119 714 C102 714 88 709 77 698 C66 687 60 673 60 656 C60 639 66 625 77 614 L77 614 Z M218 614 C229 603 242 597 260 597 C277 597 291 603 302 614 C313 625 318 639 318 656 C318 673 313 687 302 698 C291 709 277 714 260 714 C242 714 229 709 218 698 C207 687 201 673 201 656 C201 639 207 625 218 614 L218 614 Z " />
<glyph glyph-name="Yacute" unicode="&#xdd;" horiz-adv-x="334" d="M107 0 L227 0 L227 200 L325 560 L205 560 L171 360 L137 560 L9 560 L107 200 L107 0 Z M100 599 L184 599 L248 735 L132 735 L100 599 Z " />
<glyph glyph-name="Thorn" unicode="&#xde;" horiz-adv-x="356" d="M40 0 L138 0 L138 118 L167 118 C213 118 249 131 276 156 C303 182 316 219 316 267 L316 322 C316 370 303 406 278 431 C252 455 216 467 170 467 L138 467 L138 560 L40 560 L40 0 Z M138 380 L168 380 C201 380 218 361 218 324 L218 262 C218 225 201 206 168 206 L138 206 L138 380 Z " />
<glyph glyph-name="germandbls" unicode="&#xdf;" horiz-adv-x="352" d="M168 -8 L198 -8 C234 -8 265 4 290 28 C315 52 328 84 328 124 L328 232 C328 261 321 286 308 307 C295 328 278 344 255 354 L312 484 L308 492 C306 498 301 505 295 514 C288 522 280 530 270 538 C261 546 248 553 232 559 C215 565 197 568 178 568 C139 568 106 555 79 530 C53 505 40 472 40 432 L40 0 L137 0 L137 429 C137 444 141 455 149 464 C156 472 166 476 178 476 C197 476 209 470 216 456 L172 350 L172 285 L188 285 C201 285 211 280 218 272 C226 263 230 251 230 236 L230 132 C230 117 226 105 218 96 C211 88 201 84 188 84 C179 84 168 84 168 84 L168 -8 L168 -8 Z " />
<glyph glyph-name="agrave" unicode="&#xe0;" horiz-adv-x="344" d="M304 0 L304 298 C304 335 291 366 265 389 C239 412 208 424 171 424 C136 424 105 412 79 387 C53 363 40 332 40 295 L148 304 C148 320 156 328 170 328 C184 328 191 320 191 304 L191 223 C176 240 155 248 129 248 C98 248 73 237 53 215 C33 194 23 164 23 127 L23 111 C23 73 33 44 52 23 C70 3 95 -8 126 -8 C161 -8 203 17 203 81 L203 0 L304 0 Z M191 112 C191 91 182 80 164 80 C145 80 135 91 135 112 L135 136 C135 158 145 168 164 168 C182 168 191 158 191 136 L191 112 Z M209 581 L93 581 L157 445 L241 445 L209 581 Z " />
<glyph glyph-name="aacute" unicode="&#xe1;" horiz-adv-x="344" d="M304 0 L304 298 C304 335 291 366 265 389 C239 412 208 424 171 424 C136 424 105 412 79 387 C53 363 40 332 40 295 L148 304 C148 320 156 328 170 328 C184 328 191 320 191 304 L191 223 C176 240 155 248 129 248 C98 248 73 237 53 215 C33 194 23 164 23 127 L23 111 C23 73 33 44 52 23 C70 3 95 -8 126 -8 C161 -8 203 17 203 81 L203 0 L304 0 Z M191 112 C191 91 182 80 164 80 C145 80 135 91 135 112 L135 136 C135 158 145 168 164 168 C182 168 191 158 191 136 L191 112 Z M101 457 L185 457 L249 593 L133 593 L101 457 Z " />
<glyph glyph-name="acircumflex" unicode="&#xe2;" horiz-adv-x="345" d="M304 0 L304 298 C304 335 291 366 265 389 C239 412 208 424 171 424 C136 424 105 412 79 387 C53 363 40 332 40 295 L148 304 C148 320 156 328 170 328 C184 328 191 320 191 304 L191 223 C176 240 155 248 129 248 C98 248 73 237 53 215 C33 194 23 164 23 127 L23 111 C23 73 33 44 52 23 C70 3 95 -8 126 -8 C161 -8 203 17 203 81 L203 0 L304 0 Z M191 112 C191 91 182 80 164 80 C145 80 135 91 135 112 L135 136 C135 158 145 168 164 168 C182 168 191 158 191 136 L191 112 Z M49 444 L129 444 L167 502 L204 444 L289 444 L209 580 L129 580 L49 444 Z " />
<glyph glyph-name="atilde" unicode="&#xe3;" horiz-adv-x="344" d="M304 0 L304 298 C304 335 291 366 265 389 C239 412 208 424 171 424 C136 424 105 412 79 387 C53 363 40 332 40 295 L148 304 C148 320 156 328 170 328 C184 328 191 320 191 304 L191 223 C176 240 155 248 129 248 C98 248 73 237 53 215 C33 194 23 164 23 127 L23 111 C23 73 33 44 52 23 C70 3 95 -8 126 -8 C161 -8 203 17 203 81 L203 0 L304 0 Z M191 112 C191 91 182 80 164 80 C145 80 135 91 135 112 L135 136 C135 158 145 168 164 168 C182 168 191 158 191 136 L191 112 Z M87 452 L88 460 C88 467 90 473 94 479 C97 485 102 488 109 488 C118 488 132 481 151 467 C171 452 191 445 212 445 C229 445 245 450 257 459 C270 469 279 479 286 490 C292 502 297 515 300 530 C304 545 306 555 306 561 C307 566 307 571 307 575 L231 575 L230 566 C230 560 228 553 224 547 C221 541 216 538 209 538 C200 538 185 545 166 560 C146 574 126 581 106 581 C88 581 73 577 60 567 C47 558 38 548 32 536 C26 525 21 511 18 496 C14 481 12 471 12 466 C11 460 11 455 11 452 L87 452 Z " />
<glyph glyph-name="adieresis" unicode="&#xe4;" horiz-adv-x="344" d="M304 0 L304 298 C304 335 291 366 265 389 C239 412 208 424 171 424 C136 424 105 412 79 387 C53 363 40 332 40 295 L148 304 C148 320 156 328 170 328 C184 328 191 320 191 304 L191 223 C176 240 155 248 129 248 C98 248 73 237 53 215 C33 194 23 164 23 127 L23 111 C23 73 33 44 52 23 C70 3 95 -8 126 -8 C161 -8 203 17 203 81 L203 0 L304 0 Z M191 112 C191 91 182 80 164 80 C145 80 135 91 135 112 L135 136 C135 158 145 168 164 168 C182 168 191 158 191 136 L191 112 Z M53 461 C64 450 78 444 95 444 C112 444 126 450 137 461 C148 472 153 486 153 503 C153 520 148 534 137 545 C126 556 112 561 95 561 C78 561 64 556 53 545 C42 534 36 520 36 503 C36 486 42 472 53 461 L53 461 Z M194 461 C205 450 218 444 236 444 C253 444 267 450 278 461 C289 472 294 486 294 503 C294 520 289 534 278 545 C267 556 253 561 236 561 C218 561 205 556 194 545 C183 534 177 520 177 503 C177 486 183 472 194 461 L194 461 Z " />
<glyph glyph-name="aring" unicode="&#xe5;" horiz-adv-x="345" d="M304 0 L304 298 C304 335 291 366 265 389 C239 412 208 424 171 424 C136 424 105 412 79 387 C53 363 40 332 40 295 L148 304 C148 320 156 328 170 328 C184 328 191 320 191 304 L191 223 C176 240 155 248 129 248 C98 248 73 237 53 215 C33 194 23 164 23 127 L23 111 C23 73 33 44 52 23 C70 3 95 -8 126 -8 C161 -8 203 17 203 81 L203 0 L304 0 Z M191 112 C191 91 182 80 164 80 C145 80 135 91 135 112 L135 136 C135 158 145 168 164 168 C182 168 191 158 191 136 L191 112 Z M106 422 C121 409 139 402 161 402 C183 402 201 409 215 422 C229 436 237 453 237 474 C237 495 229 512 215 526 C201 539 183 546 161 546 C139 546 121 539 106 526 C92 512 85 495 85 474 C85 453 92 436 106 422 L106 422 Z M141 493 C146 498 153 500 161 500 C169 500 175 498 180 493 C185 488 188 481 188 474 C188 467 185 460 180 455 C175 450 169 448 161 448 C153 448 146 450 141 455 C136 460 134 467 134 474 C134 481 136 488 141 493 L141 493 Z " />
<glyph glyph-name="ae" unicode="&#xe6;" horiz-adv-x="498" d="M458 187 L458 297 C458 334 446 365 420 388 C394 412 363 423 326 423 C296 423 270 414 249 396 C228 414 202 423 171 423 C135 423 105 411 79 387 C53 362 40 331 40 294 L40 275 L148 275 L148 303 C148 319 155 327 170 327 C184 327 191 319 191 303 L191 222 C176 239 155 247 129 247 C98 247 72 236 53 214 C33 193 23 163 23 126 L23 110 C23 72 33 43 53 22 C72 1 99 -9 133 -9 C181 -9 215 4 235 29 C256 4 285 -9 323 -9 C360 -9 392 3 418 28 C445 53 458 84 458 121 L458 155 L354 155 L354 123 C354 115 352 108 347 103 C342 98 336 95 329 95 C321 95 315 98 310 103 C306 108 303 115 303 123 L303 187 L458 187 Z M191 111 C191 90 182 79 163 79 C145 79 135 90 135 111 L135 135 C135 157 145 167 163 167 C182 167 191 157 191 135 L191 111 Z M303 307 C303 316 306 323 310 328 C315 333 321 335 329 335 C336 335 342 333 347 328 C352 323 354 316 354 307 L354 259 L303 259 L303 307 Z " />
<glyph glyph-name="ccedilla" unicode="&#xe7;" horiz-adv-x="344" d="M197 180 L197 121 C197 104 189 96 174 96 C159 96 152 104 152 121 L152 295 C152 312 159 320 174 320 C189 320 197 312 197 295 L197 240 L304 240 L304 297 C304 335 292 366 267 389 C243 412 212 424 176 424 C138 424 106 412 80 387 C53 363 40 332 40 294 L40 119 C40 81 52 51 78 28 C104 4 135 -8 173 -8 C209 -8 240 5 266 29 C292 54 304 85 304 123 L304 180 L197 180 Z M145 0 L149 -3 C152 -6 155 -10 158 -17 C161 -23 162 -30 162 -37 C162 -51 158 -62 149 -70 C140 -78 128 -82 114 -82 C103 -82 95 -81 91 -80 L91 -151 L96 -152 C99 -153 104 -154 110 -155 C117 -155 124 -156 131 -156 C165 -156 193 -146 214 -127 C236 -108 247 -83 247 -52 C247 -39 245 -28 241 -17 C237 -6 232 3 227 9 C222 15 216 21 210 27 C204 32 199 35 197 37 C195 39 193 40 191 40 L145 0 Z " />
<glyph glyph-name="egrave" unicode="&#xe8;" horiz-adv-x="347" d="M307 188 L307 298 C307 335 294 366 268 389 C243 412 212 424 175 424 C138 424 106 412 80 387 C53 363 40 332 40 295 L40 119 C40 81 52 51 78 28 C104 4 135 -8 172 -8 C209 -8 240 5 267 29 C293 54 307 85 307 122 L307 156 L203 156 L203 124 C203 116 200 109 196 104 C191 99 185 96 177 96 C170 96 164 99 159 104 C154 109 152 116 152 124 L152 188 L307 188 Z M152 304 C152 313 154 320 159 325 C164 330 170 332 177 332 C185 332 191 330 196 325 C200 320 203 313 203 304 L203 260 L152 260 L152 304 Z M216 588 L100 588 L164 452 L248 452 L216 588 Z " />
<glyph glyph-name="eacute" unicode="&#xe9;" horiz-adv-x="347" d="M307 188 L307 298 C307 335 294 366 268 389 C243 412 212 424 175 424 C138 424 106 412 80 387 C53 363 40 332 40 295 L40 119 C40 81 52 51 78 28 C104 4 135 -8 172 -8 C209 -8 240 5 267 29 C293 54 307 85 307 122 L307 156 L203 156 L203 124 C203 116 200 109 196 104 C191 99 185 96 177 96 C170 96 164 99 159 104 C154 109 152 116 152 124 L152 188 L307 188 Z M152 304 C152 313 154 320 159 325 C164 330 170 332 177 332 C185 332 191 330 196 325 C200 320 203 313 203 304 L203 260 L152 260 L152 304 Z M103 449 L187 449 L251 585 L135 585 L103 449 Z " />
<glyph glyph-name="ecircumflex" unicode="&#xea;" horiz-adv-x="347" d="M307 188 L307 298 C307 335 294 366 268 389 C243 412 212 424 175 424 C138 424 106 412 80 387 C53 363 40 332 40 295 L40 119 C40 81 52 51 78 28 C104 4 135 -8 172 -8 C209 -8 240 5 267 29 C293 54 307 85 307 122 L307 156 L203 156 L203 124 C203 116 200 109 196 104 C191 99 185 96 177 96 C170 96 164 99 159 104 C154 109 152 116 152 124 L152 188 L307 188 Z M152 304 C152 313 154 320 159 325 C164 330 170 332 177 332 C185 332 191 330 196 325 C200 320 203 313 203 304 L203 260 L152 260 L152 304 Z M57 447 L137 447 L175 505 L212 447 L297 447 L217 583 L137 583 L57 447 Z " />
<glyph glyph-name="edieresis" unicode="&#xeb;" horiz-adv-x="347" d="M307 188 L307 298 C307 335 294 366 268 389 C243 412 212 424 175 424 C138 424 106 412 80 387 C53 363 40 332 40 295 L40 119 C40 81 52 51 78 28 C104 4 135 -8 172 -8 C209 -8 240 5 267 29 C293 54 307 85 307 122 L307 156 L203 156 L203 124 C203 116 200 109 196 104 C191 99 185 96 177 96 C170 96 164 99 159 104 C154 109 152 116 152 124 L152 188 L307 188 Z M152 304 C152 313 154 320 159 325 C164 330 170 332 177 332 C185 332 191 330 196 325 C200 320 203 313 203 304 L203 260 L152 260 L152 304 Z M59 461 C70 450 84 444 101 444 C118 444 132 450 143 461 C154 472 159 486 159 503 C159 520 154 534 143 545 C132 556 118 561 101 561 C84 561 70 556 59 545 C48 534 42 520 42 503 C42 486 48 472 59 461 L59 461 Z M200 461 C211 450 224 444 242 444 C259 444 273 450 284 461 C295 472 300 486 300 503 C300 520 295 534 284 545 C273 556 259 561 242 561 C224 561 211 556 200 545 C189 534 183 520 183 503 C183 486 189 472 200 461 L200 461 Z " />
<glyph glyph-name="igrave" unicode="&#xec;" horiz-adv-x="194" d="M154 0 L154 416 L40 416 L40 0 L154 0 Z M137 582 L21 582 L85 446 L169 446 L137 582 Z " />
<glyph glyph-name="iacute" unicode="&#xed;" horiz-adv-x="194" d="M154 0 L154 416 L40 416 L40 0 L154 0 Z M22 444 L106 444 L170 580 L54 580 L22 444 Z " />
<glyph glyph-name="icircumflex" unicode="&#xee;" horiz-adv-x="194" d="M154 0 L154 416 L40 416 L40 0 L154 0 Z M-22 458 L58 458 L96 516 L133 458 L218 458 L138 594 L58 594 L-22 458 Z " />
<glyph glyph-name="idieresis" unicode="&#xef;" horiz-adv-x="194" d="M154 0 L154 416 L40 416 L40 0 L154 0 Z M-13 484 C-2 473 12 467 29 467 C46 467 60 473 71 484 C82 495 87 509 87 526 C87 543 82 557 71 568 C60 579 46 584 29 584 C12 584 -2 579 -13 568 C-24 557 -30 543 -30 526 C-30 509 -24 495 -13 484 L-13 484 Z M128 484 C139 473 152 467 170 467 C187 467 201 473 212 484 C223 495 228 509 228 526 C228 543 223 557 212 568 C201 579 187 584 170 584 C152 584 139 579 128 568 C117 557 111 543 111 526 C111 509 117 495 128 484 L128 484 Z " />
<glyph glyph-name="eth" unicode="&#xf0;" horiz-adv-x="345" d="M284 368 L244 471 L281 494 L253 537 L226 519 L210 560 L96 560 L136 461 L102 440 L130 397 L155 413 L192 322 C180 350 168 368 147 368 C109 369 81 357 60 334 C40 311 30 280 30 240 L30 131 C30 91 44 58 73 32 C101 5 135 -8 174 -8 C213 -8 246 5 273 30 C301 56 315 88 315 128 L315 201 C315 264 304 320 284 368 L284 368 Z M201 135 C201 125 198 117 193 111 C188 106 181 103 172 103 C164 103 157 106 152 111 C146 117 144 125 144 135 L144 238 C144 248 146 255 152 261 C157 267 164 270 172 270 C181 270 188 267 193 261 C198 255 201 248 201 238 L201 135 L201 135 Z " />
<glyph glyph-name="ntilde" unicode="&#xf1;" horiz-adv-x="352" d="M152 294 C152 312 160 320 177 320 C192 320 200 312 200 294 L200 0 L312 0 L312 310 C312 348 304 377 288 396 C272 415 249 424 222 424 C184 424 141 391 141 328 L141 416 L40 416 L40 0 L152 0 L152 294 Z M105 452 L106 460 C106 467 108 473 112 479 C115 485 120 488 127 488 C136 488 150 481 169 467 C189 452 209 445 230 445 C247 445 263 450 275 459 C288 469 297 479 304 490 C310 502 315 515 318 530 C322 545 324 555 324 561 C325 566 325 571 325 575 L249 575 L248 566 C248 560 246 553 242 547 C239 541 234 538 227 538 C218 538 203 545 184 560 C164 574 144 581 124 581 C106 581 91 577 78 567 C65 558 56 548 50 536 C44 525 39 511 36 496 C32 481 30 471 30 466 C29 460 29 455 29 452 L105 452 Z " />
<glyph glyph-name="ograve" unicode="&#xf2;" horiz-adv-x="356" d="M40 123 C40 84 53 52 79 28 C105 4 138 -8 176 -8 C215 -8 247 5 275 30 C302 55 315 87 315 126 L315 294 C315 333 302 364 276 388 C250 412 218 424 179 424 C141 424 108 412 81 387 C54 362 40 330 40 291 L40 123 Z M152 292 C152 301 155 308 159 313 C164 318 170 320 178 320 C185 320 191 318 196 313 C201 308 203 301 203 292 L203 124 C203 116 201 109 196 104 C191 99 185 96 178 96 C170 96 164 99 159 104 C155 109 152 116 152 124 L152 292 Z M221 581 L105 581 L169 445 L253 445 L221 581 Z " />
<glyph glyph-name="oacute" unicode="&#xf3;" horiz-adv-x="355" d="M40 123 C40 84 53 52 79 28 C105 4 138 -8 176 -8 C215 -8 247 5 275 30 C302 55 315 87 315 126 L315 294 C315 333 302 364 276 388 C250 412 218 424 179 424 C141 424 108 412 81 387 C54 362 40 330 40 291 L40 123 Z M152 292 C152 301 155 308 159 313 C164 318 170 320 178 320 C185 320 191 318 196 313 C201 308 203 301 203 292 L203 124 C203 116 201 109 196 104 C191 99 185 96 178 96 C170 96 164 99 159 104 C155 109 152 116 152 124 L152 292 Z M104 446 L188 446 L252 582 L136 582 L104 446 Z " />
<glyph glyph-name="ocircumflex" unicode="&#xf4;" horiz-adv-x="355" d="M40 123 C40 84 53 52 79 28 C105 4 138 -8 176 -8 C215 -8 247 5 275 30 C302 55 315 87 315 126 L315 294 C315 333 302 364 276 388 C250 412 218 424 179 424 C141 424 108 412 81 387 C54 362 40 330 40 291 L40 123 Z M152 292 C152 301 155 308 159 313 C164 318 170 320 178 320 C185 320 191 318 196 313 C201 308 203 301 203 292 L203 124 C203 116 201 109 196 104 C191 99 185 96 178 96 C170 96 164 99 159 104 C155 109 152 116 152 124 L152 292 Z M57 446 L137 446 L175 504 L212 446 L297 446 L217 582 L137 582 L57 446 Z " />
<glyph glyph-name="otilde" unicode="&#xf5;" horiz-adv-x="355" d="M40 123 C40 84 53 52 79 28 C105 4 138 -8 176 -8 C215 -8 247 5 275 30 C302 55 315 87 315 126 L315 294 C315 333 302 364 276 388 C250 412 218 424 179 424 C141 424 108 412 81 387 C54 362 40 330 40 291 L40 123 Z M152 292 C152 301 155 308 159 313 C164 318 170 320 178 320 C185 320 191 318 196 313 C201 308 203 301 203 292 L203 124 C203 116 201 109 196 104 C191 99 185 96 178 96 C170 96 164 99 159 104 C155 109 152 116 152 124 L152 292 Z M103 461 L104 469 C104 476 106 482 110 488 C113 494 118 497 125 497 C134 497 148 490 167 476 C187 461 207 454 228 454 C245 454 261 459 273 468 C286 478 295 488 302 499 C308 511 313 524 316 539 C320 554 322 564 322 570 C323 575 323 580 323 584 L247 584 L246 575 C246 569 244 562 240 556 C237 550 232 547 225 547 C216 547 201 554 182 569 C162 583 142 590 122 590 C104 590 89 586 76 576 C63 567 54 557 48 545 C42 534 37 520 34 505 C30 490 28 480 28 475 C27 469 27 464 27 461 L103 461 Z " />
<glyph glyph-name="odieresis" unicode="&#xf6;" horiz-adv-x="355" d="M40 123 C40 84 53 52 79 28 C105 4 138 -8 176 -8 C215 -8 247 5 275 30 C302 55 315 87 315 126 L315 294 C315 333 302 364 276 388 C250 412 218 424 179 424 C141 424 108 412 81 387 C54 362 40 330 40 291 L40 123 Z M152 292 C152 301 155 308 159 313 C164 318 170 320 178 320 C185 320 191 318 196 313 C201 308 203 301 203 292 L203 124 C203 116 201 109 196 104 C191 99 185 96 178 96 C170 96 164 99 159 104 C155 109 152 116 152 124 L152 292 Z M65 481 C76 470 90 464 107 464 C124 464 138 470 149 481 C160 492 165 506 165 523 C165 540 160 554 149 565 C138 576 124 581 107 581 C90 581 76 576 65 565 C54 554 48 540 48 523 C48 506 54 492 65 481 L65 481 Z M206 481 C217 470 230 464 248 464 C265 464 279 470 290 481 C301 492 306 506 306 523 C306 540 301 554 290 565 C279 576 265 581 248 581 C230 581 217 576 206 565 C195 554 189 540 189 523 C189 506 195 492 206 481 L206 481 Z " />
<glyph glyph-name="divide" unicode="&#xf7;" horiz-adv-x="356" d="M318 232 L318 328 L38 328 L38 232 L318 232 Z M136 379 C148 367 162 361 178 361 C195 361 209 367 221 379 C232 390 238 404 238 421 C238 438 232 452 221 464 C209 475 195 481 178 481 C162 481 148 475 136 464 C124 452 118 438 118 421 C118 404 124 390 136 379 L136 379 Z M136 97 C148 85 162 79 178 79 C195 79 209 85 221 97 C232 109 238 123 238 140 C238 156 232 170 221 182 C209 193 195 199 178 199 C162 199 148 193 136 182 C124 170 118 156 118 140 C118 123 124 109 136 97 L136 97 Z " />
<glyph glyph-name="oslash" unicode="&#xf8;" horiz-adv-x="354" d="M40 122 C40 92 49 64 68 41 L36 -24 L91 -23 L107 9 C130 -2 153 -8 176 -8 C214 -8 247 5 275 30 C302 55 315 87 315 126 L315 294 C315 325 306 352 287 375 L319 441 L263 440 L247 407 C226 419 203 424 179 424 C141 424 108 412 81 387 C54 362 40 330 40 291 L40 122 Z M148 292 C148 302 151 310 156 316 C161 321 169 324 178 324 C188 324 196 320 201 313 L148 205 L148 292 Z M177 92 C167 92 159 96 153 103 L207 213 L207 125 C207 115 205 107 199 101 C194 95 186 92 177 92 L177 92 Z " />
<glyph glyph-name="ugrave" unicode="&#xf9;" horiz-adv-x="352" d="M200 123 C200 105 191 96 175 96 C159 96 152 105 152 123 L152 416 L40 416 L40 107 C40 68 48 40 64 21 C80 2 102 -8 130 -8 C168 -8 211 25 211 88 L211 0 L312 0 L312 416 L200 416 L200 123 Z M221 589 L105 589 L169 453 L253 453 L221 589 Z " />
<glyph glyph-name="uacute" unicode="&#xfa;" horiz-adv-x="352" d="M200 123 C200 105 191 96 175 96 C159 96 152 105 152 123 L152 416 L40 416 L40 107 C40 68 48 40 64 21 C80 2 102 -8 130 -8 C168 -8 211 25 211 88 L211 0 L312 0 L312 416 L200 416 L200 123 Z M104 458 L188 458 L252 594 L136 594 L104 458 Z " />
<glyph glyph-name="ucircumflex" unicode="&#xfb;" horiz-adv-x="352" d="M200 123 C200 105 191 96 175 96 C159 96 152 105 152 123 L152 416 L40 416 L40 107 C40 68 48 40 64 21 C80 2 102 -8 130 -8 C168 -8 211 25 211 88 L211 0 L312 0 L312 416 L200 416 L200 123 Z M58 448 L138 448 L176 506 L213 448 L298 448 L218 584 L138 584 L58 448 Z " />
<glyph glyph-name="udieresis" unicode="&#xfc;" horiz-adv-x="352" d="M200 123 C200 105 191 96 175 96 C159 96 152 105 152 123 L152 416 L40 416 L40 107 C40 68 48 40 64 21 C80 2 102 -8 130 -8 C168 -8 211 25 211 88 L211 0 L312 0 L312 416 L200 416 L200 123 Z M63 471 C74 460 88 454 105 454 C122 454 136 460 147 471 C158 482 163 496 163 513 C163 530 158 544 147 555 C136 566 122 571 105 571 C88 571 74 566 63 555 C52 544 46 530 46 513 C46 496 52 482 63 471 L63 471 Z M204 471 C215 460 228 454 246 454 C263 454 277 460 288 471 C299 482 304 496 304 513 C304 530 299 544 288 555 C277 566 263 571 246 571 C228 571 215 566 204 555 C193 544 187 530 187 513 C187 496 193 482 204 471 L204 471 Z " />
<glyph glyph-name="yacute" unicode="&#xfd;" horiz-adv-x="316" d="M107 0 C102 -29 86 -44 59 -44 C47 -44 31 -44 31 -44 L31 -136 C31 -136 71 -136 83 -136 C148 -136 189 -94 208 -9 L303 416 L195 416 L163 160 L131 416 L15 416 L107 0 Z M89 451 L173 451 L237 587 L121 587 L89 451 Z " />
<glyph glyph-name="thorn" unicode="&#xfe;" horiz-adv-x="339" d="M40 -67 L132 -67 L132 129 C132 76 170 53 197 53 C226 53 251 64 270 84 C290 105 299 133 299 169 L299 370 C299 405 290 433 272 453 C253 472 229 482 199 482 C172 482 132 458 132 400 L132 621 L40 621 L40 -67 Z M207 181 C207 168 204 158 197 150 C190 142 181 139 170 139 C159 139 149 142 143 150 C136 158 132 168 132 181 L132 355 C132 368 136 378 143 386 C149 393 159 397 170 397 C181 397 190 393 197 386 C204 378 207 368 207 355 L207 181 Z " />
<glyph glyph-name="ydieresis" unicode="&#xff;" horiz-adv-x="317" d="M107 0 C102 -29 86 -44 59 -44 C47 -44 31 -44 31 -44 L31 -136 C31 -136 71 -136 83 -136 C148 -136 189 -94 208 -9 L303 416 L195 416 L163 160 L131 416 L15 416 L107 0 Z M50 485 C61 474 75 468 92 468 C109 468 123 474 134 485 C145 496 150 510 150 527 C150 544 145 558 134 569 C123 580 109 585 92 585 C75 585 61 580 50 569 C39 558 33 544 33 527 C33 510 39 496 50 485 L50 485 Z M191 485 C202 474 215 468 233 468 C250 468 264 474 275 485 C286 496 291 510 291 527 C291 544 286 558 275 569 C264 580 250 585 233 585 C215 585 202 580 191 569 C180 558 174 544 174 527 C174 510 180 496 191 485 L191 485 Z " />
<glyph glyph-name="Abreve" unicode="&#x102;" horiz-adv-x="345" d="M229 560 L113 560 L5 0 L121 0 L133 92 L201 92 L213 0 L337 0 L229 560 Z M188 188 L146 188 L167 349 L188 188 Z M73 738 L73 701 C73 671 82 647 100 629 C119 611 143 602 174 602 C204 602 228 611 247 630 C265 648 274 672 274 703 L274 738 L202 738 L202 698 C202 677 192 666 174 666 C155 666 146 677 146 698 L146 738 L73 738 Z " />
<glyph glyph-name="abreve" unicode="&#x103;" horiz-adv-x="344" d="M304 0 L304 298 C304 335 291 366 265 389 C239 412 208 424 171 424 C136 424 105 412 79 387 C53 363 40 332 40 295 L148 304 C148 320 156 328 170 328 C184 328 191 320 191 304 L191 223 C176 240 155 248 129 248 C98 248 73 237 53 215 C33 194 23 164 23 127 L23 111 C23 73 33 44 52 23 C70 3 95 -8 126 -8 C161 -8 203 17 203 81 L203 0 L304 0 Z M191 112 C191 91 182 80 164 80 C145 80 135 91 135 112 L135 136 C135 158 145 168 164 168 C182 168 191 158 191 136 L191 112 Z M67 578 L67 541 C67 511 76 487 94 469 C113 451 137 442 168 442 C198 442 222 451 241 470 C259 488 268 512 268 543 L268 578 L196 578 L196 538 C196 517 186 506 168 506 C149 506 140 517 140 538 L140 578 L67 578 Z " />
<glyph glyph-name="Aogonek" unicode="&#x104;" horiz-adv-x="356" d="M236 560 L120 560 L12 0 L128 0 L140 92 L208 92 L220 0 L344 0 L236 560 Z M195 188 L153 188 L174 349 L195 188 Z M309 44 L293 36 C283 30 272 20 261 4 C251 -11 245 -28 245 -48 C245 -76 256 -99 276 -117 C297 -135 323 -144 353 -144 C370 -144 382 -142 389 -139 L389 -68 L366 -70 C353 -70 342 -67 334 -59 C326 -52 322 -42 322 -30 C322 -14 328 -2 339 4 L309 44 Z " />
<glyph glyph-name="aogonek" unicode="&#x105;" horiz-adv-x="344" d="M304 0 L304 298 C304 335 291 366 265 389 C239 412 208 424 171 424 C136 424 105 412 79 387 C53 363 40 332 40 295 L148 304 C148 320 156 328 170 328 C184 328 191 320 191 304 L191 223 C176 240 155 248 129 248 C98 248 73 237 53 215 C33 194 23 164 23 127 L23 111 C23 73 33 44 52 23 C70 3 95 -8 126 -8 C161 -8 203 17 203 81 L203 0 L304 0 Z M191 112 C191 91 182 80 164 80 C145 80 135 91 135 112 L135 136 C135 158 145 168 164 168 C182 168 191 158 191 136 L191 112 Z M260 43 L244 35 C234 29 223 19 212 3 C202 -12 196 -29 196 -49 C196 -77 207 -100 227 -118 C248 -136 274 -145 304 -145 C321 -145 333 -143 340 -140 L340 -69 L317 -71 C304 -71 293 -68 285 -60 C277 -53 273 -43 273 -31 C273 -15 279 -3 290 3 L260 43 Z " />
<glyph glyph-name="Cacute" unicode="&#x106;" horiz-adv-x="348" d="M315 348 L315 433 C315 475 302 507 275 531 C249 556 216 568 177 568 C136 568 102 555 73 529 C45 502 31 468 31 426 L31 130 C31 88 45 55 72 29 C99 4 133 -8 173 -8 C213 -8 246 4 274 30 C301 55 315 88 315 129 L315 220 L199 220 L199 132 C199 113 191 104 175 104 C159 104 151 113 151 132 L151 428 C151 446 159 456 175 456 C191 456 199 446 199 428 L199 348 L315 348 Z M108 632 L192 632 L256 768 L140 768 L108 632 Z " />
<glyph glyph-name="cacute" unicode="&#x107;" horiz-adv-x="330" d="M189 180 L189 121 C189 104 181 96 166 96 C151 96 144 104 144 121 L144 295 C144 312 151 320 166 320 C181 320 189 312 189 295 L189 240 L296 240 L296 297 C296 335 284 366 259 389 C235 412 204 424 168 424 C130 424 98 412 72 387 C45 363 32 332 32 294 L32 119 C32 81 44 51 70 28 C96 4 127 -8 165 -8 C201 -8 232 5 258 29 C284 54 296 85 296 123 L296 180 L189 180 Z M104 432 L188 432 L252 568 L136 568 L104 432 Z " />
<glyph glyph-name="Ccaron" unicode="&#x10c;" horiz-adv-x="341" d="M315 348 L315 433 C315 475 302 507 275 531 C249 556 216 568 177 568 C136 568 102 555 73 529 C45 502 31 468 31 426 L31 130 C31 88 45 55 72 29 C99 4 133 -8 173 -8 C213 -8 246 4 274 30 C301 55 315 88 315 129 L315 220 L199 220 L199 132 C199 113 191 104 175 104 C159 104 151 113 151 132 L151 428 C151 446 159 456 175 456 C191 456 199 446 199 428 L199 348 L315 348 Z M286 756 L205 756 L168 697 L130 756 L45 756 L125 620 L205 620 L286 756 Z " />
<glyph glyph-name="ccaron" unicode="&#x10d;" horiz-adv-x="330" d="M189 180 L189 121 C189 104 181 96 166 96 C151 96 144 104 144 121 L144 295 C144 312 151 320 166 320 C181 320 189 312 189 295 L189 240 L296 240 L296 297 C296 335 284 366 259 389 C235 412 204 424 168 424 C130 424 98 412 72 387 C45 363 32 332 32 294 L32 119 C32 81 44 51 70 28 C96 4 127 -8 165 -8 C201 -8 232 5 258 29 C284 54 296 85 296 123 L296 180 L189 180 Z M282 607 L201 607 L164 548 L126 607 L41 607 L121 471 L201 471 L282 607 Z " />
<glyph glyph-name="Dcaron" unicode="&#x10e;" horiz-adv-x="372" d="M40 0 L182 0 C228 0 265 12 292 37 C319 63 332 99 332 145 L332 417 C332 464 319 500 293 524 C267 548 231 560 186 560 L40 560 L40 0 Z M160 448 L176 448 C200 448 212 434 212 408 L212 152 C212 125 200 112 176 112 L160 112 L160 448 Z M265 744 L184 744 L147 685 L109 744 L24 744 L104 608 L184 608 L265 744 Z " />
<glyph glyph-name="dcroat" unicode="&#x111;" horiz-adv-x="355" d="M300 560 L208 560 L208 518 L139 518 L139 457 L208 457 L208 394 C192 412 171 421 143 421 C113 421 89 411 70 390 C50 369 40 341 40 306 L40 104 C40 70 49 42 68 22 C86 2 110 -8 140 -8 C175 -8 211 20 217 78 L217 0 L300 0 L300 457 L345 457 L345 518 L300 518 L300 560 Z M132 294 C132 307 136 317 143 325 C150 332 159 336 170 336 C181 336 190 332 197 325 C204 317 208 307 208 294 L208 120 C208 107 204 97 197 89 C190 81 181 78 170 78 C159 78 150 81 143 89 C136 97 132 107 132 120 L132 294 Z " />
<glyph glyph-name="Edotaccent" unicode="&#x116;" horiz-adv-x="298" d="M276 0 L276 120 L160 120 L160 229 L248 229 L248 341 L160 341 L160 440 L272 440 L272 560 L40 560 L40 0 L276 0 Z M120 674 C131 663 145 657 162 657 C179 657 193 663 204 674 C215 684 221 699 221 716 C221 733 215 747 204 758 C193 769 179 774 162 774 C145 774 131 769 120 758 C109 747 104 733 104 716 C104 699 109 684 120 674 L120 674 Z " />
<glyph glyph-name="edotaccent" unicode="&#x117;" horiz-adv-x="346" d="M307 188 L307 298 C307 335 294 366 268 389 C243 412 212 424 175 424 C138 424 106 412 80 387 C53 363 40 332 40 295 L40 119 C40 81 52 51 78 28 C104 4 135 -8 172 -8 C209 -8 240 5 267 29 C293 54 307 85 307 122 L307 156 L203 156 L203 124 C203 116 200 109 196 104 C191 99 185 96 177 96 C170 96 164 99 159 104 C154 109 152 116 152 124 L152 188 L307 188 Z M152 304 C152 313 154 320 159 325 C164 330 170 332 177 332 C185 332 191 330 196 325 C200 320 203 313 203 304 L203 260 L152 260 L152 304 Z M128 474 C139 463 153 457 170 457 C187 457 201 463 212 474 C223 484 229 499 229 516 C229 533 223 547 212 558 C201 569 187 574 170 574 C153 574 139 569 128 558 C117 547 112 533 112 516 C112 499 117 484 128 474 L128 474 Z " />
<glyph glyph-name="Eogonek" unicode="&#x118;" horiz-adv-x="291" d="M276 0 L276 120 L160 120 L160 229 L248 229 L248 341 L160 341 L160 440 L272 440 L272 560 L40 560 L40 0 L276 0 Z M187 41 L171 33 C161 27 150 17 139 1 C129 -14 123 -31 123 -51 C123 -79 134 -102 154 -120 C175 -138 201 -147 231 -147 C248 -147 260 -145 267 -142 L267 -71 L244 -73 C231 -73 220 -70 212 -62 C204 -55 200 -45 200 -33 C200 -17 206 -5 217 1 L187 41 Z " />
<glyph glyph-name="eogonek" unicode="&#x119;" horiz-adv-x="333" d="M300 188 L300 298 C300 335 287 366 261 389 C236 412 205 424 168 424 C131 424 99 412 73 387 C46 363 33 332 33 295 L33 119 C33 81 45 51 71 28 C97 4 128 -8 165 -8 C202 -8 233 5 260 29 C286 54 300 85 300 122 L300 156 L196 156 L196 124 C196 116 193 109 189 104 C184 99 178 96 170 96 C163 96 157 99 152 104 C147 109 145 116 145 124 L145 188 L300 188 Z M145 304 C145 313 147 320 152 325 C157 330 163 332 170 332 C178 332 184 330 189 325 C193 320 196 313 196 304 L196 260 L145 260 L145 304 Z M192 41 L176 33 C166 27 155 17 144 1 C134 -14 128 -31 128 -51 C128 -79 139 -102 159 -120 C180 -138 206 -147 236 -147 C253 -147 265 -145 272 -142 L272 -71 L249 -73 C236 -73 225 -70 217 -62 C209 -55 205 -45 205 -33 C205 -17 211 -5 222 1 L192 41 Z " />
<glyph glyph-name="Ecaron" unicode="&#x11a;" horiz-adv-x="291" d="M276 0 L276 120 L160 120 L160 229 L248 229 L248 341 L160 341 L160 440 L272 440 L272 560 L40 560 L40 0 L276 0 Z M281 741 L200 741 L163 682 L125 741 L40 741 L120 605 L200 605 L281 741 Z " />
<glyph glyph-name="ecaron" unicode="&#x11b;" horiz-adv-x="333" d="M300 188 L300 298 C300 335 287 366 261 389 C236 412 205 424 168 424 C131 424 99 412 73 387 C46 363 33 332 33 295 L33 119 C33 81 45 51 71 28 C97 4 128 -8 165 -8 C202 -8 233 5 260 29 C286 54 300 85 300 122 L300 156 L196 156 L196 124 C196 116 193 109 189 104 C184 99 178 96 170 96 C163 96 157 99 152 104 C147 109 145 116 145 124 L145 188 L300 188 Z M145 304 C145 313 147 320 152 325 C157 330 163 332 170 332 C178 332 184 330 189 325 C193 320 196 313 196 304 L196 260 L145 260 L145 304 Z M280 593 L199 593 L162 534 L124 593 L39 593 L119 457 L199 457 L280 593 Z " />
<glyph glyph-name="Itilde" unicode="&#x128;" horiz-adv-x="202" d="M40 0 L162 0 L162 560 L40 560 L40 0 Z M26 599 L27 607 C27 614 29 620 33 626 C36 632 41 635 48 635 C57 635 71 628 90 614 C110 599 130 592 151 592 C168 592 184 597 196 606 C209 616 218 626 225 637 C231 649 236 662 239 677 C243 692 245 702 245 708 C246 713 246 718 246 722 L170 722 L169 713 C169 707 167 700 163 694 C160 688 155 685 148 685 C139 685 124 692 105 707 C85 721 65 728 45 728 C27 728 12 724 -1 714 C-14 705 -23 695 -29 683 C-35 672 -40 658 -43 643 C-47 628 -49 618 -49 613 C-50 607 -50 602 -50 599 L26 599 Z " />
<glyph glyph-name="Iogonek" unicode="&#x12e;" horiz-adv-x="202" d="M40 0 L162 0 L162 560 L40 560 L40 0 Z M113 41 L97 33 C87 27 76 17 65 1 C55 -14 49 -31 49 -51 C49 -79 60 -102 80 -120 C101 -138 127 -147 157 -147 C174 -147 186 -145 193 -142 L193 -71 L170 -73 C157 -73 146 -70 138 -62 C130 -55 126 -45 126 -33 C126 -17 132 -5 143 1 L113 41 Z " />
<glyph glyph-name="iogonek" unicode="&#x12f;" horiz-adv-x="194" d="M49 468 C62 455 78 448 97 448 C115 448 132 455 145 468 C158 481 165 498 165 516 C165 535 158 551 145 564 C132 578 115 584 97 584 C78 584 62 578 49 564 C35 551 29 535 29 516 C29 498 35 481 49 468 L49 468 Z M40 0 L154 0 L154 416 L40 416 L40 0 Z M108 41 L92 33 C82 27 71 17 60 1 C50 -14 44 -31 44 -51 C44 -79 55 -102 75 -120 C96 -138 122 -147 152 -147 C169 -147 181 -145 188 -142 L188 -71 L165 -73 C152 -73 141 -70 133 -62 C125 -55 121 -45 121 -33 C121 -17 127 -5 138 1 L108 41 Z " />
<glyph glyph-name="Lacute" unicode="&#x139;" horiz-adv-x="276" d="M260 0 L260 120 L160 120 L160 560 L40 560 L40 0 L260 0 Z M87 632 L171 632 L235 768 L119 768 L87 632 Z " />
<glyph glyph-name="lacute" unicode="&#x13a;" horiz-adv-x="194" d="M40 0 L154 0 L154 560 L40 560 L40 0 Z M25 594 L109 594 L173 730 L57 730 L25 594 Z " />
<glyph glyph-name="Lcaron" unicode="&#x13d;" horiz-adv-x="272" d="M260 0 L260 120 L160 120 L160 560 L40 560 L40 0 L260 0 L260 0 Z " />
<glyph glyph-name="Lslash" unicode="&#x141;" horiz-adv-x="329" d="M307 0 L307 120 L207 120 L207 273 L283 288 L283 360 L207 345 L207 560 L88 560 L88 321 L40 312 L40 240 L88 250 L88 0 L307 0 L307 0 Z " />
<glyph glyph-name="lslash" unicode="&#x142;" horiz-adv-x="281" d="M80 0 L194 0 L194 276 L241 288 L241 360 L194 348 L194 560 L80 560 L80 322 L40 312 L40 240 L80 250 L80 0 L80 0 Z " />
<glyph glyph-name="Nacute" unicode="&#x143;" horiz-adv-x="380" d="M236 0 L340 0 L340 560 L236 560 L236 286 L152 560 L40 560 L40 0 L144 0 L144 299 L236 0 Z M98 613 L182 613 L246 749 L130 749 L98 613 Z " />
<glyph glyph-name="nacute" unicode="&#x144;" horiz-adv-x="352" d="M152 294 C152 312 160 320 177 320 C192 320 200 312 200 294 L200 0 L312 0 L312 310 C312 348 304 377 288 396 C272 415 249 424 222 424 C184 424 141 391 141 328 L141 416 L40 416 L40 0 L152 0 L152 294 Z M98 454 L182 454 L246 590 L130 590 L98 454 Z " />
<glyph glyph-name="Ncaron" unicode="&#x147;" horiz-adv-x="380" d="M236 0 L340 0 L340 560 L236 560 L236 286 L152 560 L40 560 L40 0 L144 0 L144 299 L236 0 Z M276 735 L195 735 L158 676 L120 735 L35 735 L115 599 L195 599 L276 735 Z " />
<glyph glyph-name="ncaron" unicode="&#x148;" horiz-adv-x="352" d="M152 294 C152 312 160 320 177 320 C192 320 200 312 200 294 L200 0 L312 0 L312 310 C312 348 304 377 288 396 C272 415 249 424 222 424 C184 424 141 391 141 328 L141 416 L40 416 L40 0 L152 0 L152 294 Z M260 597 L179 597 L142 538 L104 597 L19 597 L99 461 L179 461 L260 597 Z " />
<glyph glyph-name="Ohungarumlaut" unicode="&#x150;" horiz-adv-x="376" d="M40 134 C40 91 54 56 82 31 C109 5 145 -8 187 -8 C229 -8 264 5 293 32 C322 59 336 94 336 137 L336 425 C336 469 322 503 295 529 C267 555 232 568 190 568 C148 568 112 554 83 527 C55 500 40 465 40 422 L40 134 Z M160 424 C160 445 170 456 188 456 C207 456 216 445 216 424 L216 136 C216 114 207 104 188 104 C170 104 160 114 160 136 L160 424 Z M50 606 L130 606 L186 742 L74 742 L50 606 Z M194 606 L274 606 L330 742 L218 742 L194 606 Z " />
<glyph glyph-name="ohungarumlaut" unicode="&#x151;" horiz-adv-x="355" d="M40 123 C40 84 53 52 79 28 C105 4 138 -8 176 -8 C215 -8 247 5 275 30 C302 55 315 87 315 126 L315 294 C315 333 302 364 276 388 C250 412 218 424 179 424 C141 424 108 412 81 387 C54 362 40 330 40 291 L40 123 Z M152 292 C152 301 155 308 159 313 C164 318 170 320 178 320 C185 320 191 318 196 313 C201 308 203 301 203 292 L203 124 C203 116 201 109 196 104 C191 99 185 96 178 96 C170 96 164 99 159 104 C155 109 152 116 152 124 L152 292 Z M40 433 L120 433 L176 569 L64 569 L40 433 Z M184 433 L264 433 L320 569 L208 569 L184 433 Z " />
<glyph glyph-name="OE" unicode="&#x152;" horiz-adv-x="460" d="M448 0 L448 120 L332 120 L332 230 L420 230 L420 342 L332 342 L332 440 L444 440 L444 560 L190 560 C144 560 107 548 80 523 C54 497 40 462 40 415 L40 143 C40 96 53 60 79 36 C105 12 141 0 187 0 L448 0 Z M212 112 L196 112 C172 112 160 125 160 152 L160 408 C160 435 172 448 196 448 L212 448 L212 112 Z " />
<glyph glyph-name="oe" unicode="&#x153;" horiz-adv-x="510" d="M40 122 C40 83 53 51 79 27 C105 3 137 -9 176 -9 C208 -9 234 1 256 19 C276 1 303 -9 335 -9 C372 -9 404 3 430 28 C457 53 470 84 470 121 L470 155 L366 155 L366 123 C366 115 364 108 359 103 C354 98 348 95 341 95 C333 95 327 98 322 103 C317 108 315 115 315 123 L315 187 L470 187 L470 297 C470 334 457 365 432 388 C406 412 375 423 338 423 C307 423 281 414 260 395 C238 414 211 423 179 423 C141 423 108 411 81 386 C53 361 40 329 40 290 L40 122 Z M152 291 C152 300 154 306 159 312 C164 317 170 319 177 319 C185 319 191 317 196 312 C201 306 203 300 203 291 L203 123 C203 115 201 108 196 103 C191 98 185 95 177 95 C170 95 164 98 159 103 C154 108 152 115 152 123 L152 291 Z M315 307 C315 316 317 323 322 328 C327 333 333 335 341 335 C348 335 354 333 359 328 C364 323 366 316 366 307 L366 259 L315 259 L315 307 Z " />
<glyph glyph-name="Racute" unicode="&#x154;" horiz-adv-x="367" d="M332 409 C332 460 319 498 292 523 C265 547 227 560 178 560 L40 560 L40 0 L160 0 L160 204 L180 204 C195 204 208 195 208 176 L208 0 L324 0 L324 182 C324 211 317 237 303 257 C323 278 332 308 332 345 L332 409 L332 409 Z M212 344 C212 331 210 322 204 315 C198 308 189 304 176 304 L160 304 L160 448 L176 448 C200 448 212 434 212 408 L212 344 L212 344 Z M134 632 L218 632 L282 768 L166 768 L134 632 Z " />
<glyph glyph-name="racute" unicode="&#x155;" horiz-adv-x="258" d="M40 0 L152 0 L152 239 C152 258 157 272 166 280 C175 288 189 292 209 292 L233 292 L233 424 C189 424 149 385 142 328 L142 416 L40 416 L40 0 Z M77 450 L161 450 L225 586 L109 586 L77 450 Z " />
<glyph glyph-name="Rcaron" unicode="&#x158;" horiz-adv-x="341" d="M332 409 C332 460 319 498 292 523 C265 547 227 560 178 560 L40 560 L40 0 L160 0 L160 204 L180 204 C195 204 208 195 208 176 L208 0 L324 0 L324 182 C324 211 317 237 303 257 C323 278 332 308 332 345 L332 409 L332 409 Z M212 344 C212 331 210 322 204 315 C198 308 189 304 176 304 L160 304 L160 448 L176 448 C200 448 212 434 212 408 L212 344 L212 344 Z M302 755 L221 755 L184 696 L146 755 L61 755 L141 619 L221 619 L302 755 Z " />
<glyph glyph-name="rcaron" unicode="&#x159;" horiz-adv-x="273" d="M40 0 L152 0 L152 239 C152 258 157 272 166 280 C175 288 189 292 209 292 L233 292 L233 424 C189 424 149 385 142 328 L142 416 L40 416 L40 0 Z M274 606 L193 606 L156 547 L118 606 L33 606 L113 470 L193 470 L274 606 Z " />
<glyph glyph-name="Sacute" unicode="&#x15a;" horiz-adv-x="310" d="M124 180 L8 180 L8 130 C8 88 22 55 49 29 C76 4 110 -8 151 -8 C193 -8 228 5 257 32 C286 59 300 94 300 137 C300 170 293 201 278 230 C264 259 240 289 208 320 C177 350 157 372 147 388 C137 403 132 418 132 431 C132 450 140 460 156 460 C172 460 180 449 180 428 L180 392 L296 392 L296 433 C296 475 283 507 257 531 C230 556 197 568 158 568 C117 568 83 555 55 529 C26 502 12 468 12 426 C12 369 43 310 104 250 C136 220 156 197 166 181 C175 165 180 149 180 133 C180 123 178 115 173 109 C167 103 161 100 152 100 C133 100 124 112 124 136 L124 180 Z M93 632 L177 632 L241 768 L125 768 L93 632 Z " />
<glyph glyph-name="sacute" unicode="&#x15b;" horiz-adv-x="307" d="M178 284 L286 284 L286 298 C286 335 273 366 247 389 C222 412 190 424 154 424 C117 424 86 413 61 390 C35 367 22 340 22 307 C22 276 30 250 45 229 C60 209 83 191 113 175 C140 161 158 150 166 142 C174 134 178 126 178 116 C178 108 175 101 170 96 C166 91 160 88 152 88 C144 88 138 91 134 97 C129 102 126 110 126 120 L126 140 L18 140 L18 123 C18 84 31 52 58 28 C84 4 116 -8 154 -8 C192 -8 224 5 250 29 C276 54 290 85 290 122 C290 178 258 222 196 254 C171 267 154 277 146 284 C138 292 134 300 134 308 C134 321 142 328 156 328 C170 328 178 319 178 300 L178 284 Z M87 449 L171 449 L235 585 L119 585 L87 449 Z " />
<glyph glyph-name="Scedilla" unicode="&#x15e;" horiz-adv-x="309" d="M129 180 L13 180 L13 130 C13 88 27 55 54 29 C81 4 115 -8 156 -8 C198 -8 233 5 262 32 C291 59 305 94 305 137 C305 170 298 201 283 230 C269 259 245 289 213 320 C182 350 162 372 152 388 C142 403 137 418 137 431 C137 450 145 460 161 460 C177 460 185 449 185 428 L185 392 L301 392 L301 433 C301 475 288 507 262 531 C235 556 202 568 163 568 C122 568 88 555 60 529 C31 502 17 468 17 426 C17 369 48 310 109 250 C141 220 161 197 171 181 C180 165 185 149 185 133 C185 123 183 115 178 109 C172 103 166 100 157 100 C138 100 129 112 129 136 L129 180 Z M131 0 L135 -3 C138 -6 141 -10 144 -17 C147 -23 148 -30 148 -37 C148 -51 144 -62 135 -70 C126 -78 114 -82 100 -82 C89 -82 81 -81 77 -80 L77 -151 L82 -152 C85 -153 90 -154 96 -155 C103 -155 110 -156 117 -156 C151 -156 179 -146 200 -127 C222 -108 233 -83 233 -52 C233 -39 231 -28 227 -17 C223 -6 218 3 213 9 C208 15 202 21 196 27 C190 32 185 35 183 37 C181 39 179 40 177 40 L131 0 Z " />
<glyph glyph-name="Scaron" unicode="&#x160;" horiz-adv-x="328" d="M134 180 L18 180 L18 130 C18 88 32 55 59 29 C86 4 120 -8 161 -8 C203 -8 238 5 267 32 C296 59 310 94 310 137 C310 170 303 201 288 230 C274 259 250 289 218 320 C187 350 167 372 157 388 C147 403 142 418 142 431 C142 450 150 460 166 460 C182 460 190 449 190 428 L190 392 L306 392 L306 433 C306 475 293 507 267 531 C240 556 207 568 168 568 C127 568 93 555 65 529 C36 502 22 468 22 426 C22 369 53 310 114 250 C146 220 166 197 176 181 C185 165 190 149 190 133 C190 123 188 115 183 109 C177 103 171 100 162 100 C143 100 134 112 134 136 L134 180 Z M281 734 L200 734 L163 675 L125 734 L40 734 L120 598 L200 598 L281 734 Z " />
<glyph glyph-name="scaron" unicode="&#x161;" horiz-adv-x="262" d="M142 284 L250 284 L250 298 C250 335 237 366 211 389 C186 412 154 424 118 424 C81 424 50 413 25 390 C-1 367 -14 340 -14 307 C-14 276 -6 250 9 229 C24 209 47 191 77 175 C104 161 122 150 130 142 C138 134 142 126 142 116 C142 108 139 101 134 96 C130 91 124 88 116 88 C108 88 102 91 98 97 C93 102 90 110 90 120 L90 140 L-18 140 L-18 123 C-18 84 -5 52 22 28 C48 4 80 -8 118 -8 C156 -8 188 5 214 29 C240 54 254 85 254 122 C254 178 222 222 160 254 C135 267 118 277 110 284 C102 292 98 300 98 308 C98 321 106 328 120 328 C134 328 142 319 142 300 L142 284 Z M251 582 L170 582 L133 523 L95 582 L10 582 L90 446 L170 446 L251 582 Z " />
<glyph glyph-name="Tcaron" unicode="&#x164;" horiz-adv-x="297" d="M288 440 L288 560 L8 560 L8 440 L88 440 L88 0 L208 0 L208 440 L288 440 Z M263 737 L182 737 L145 678 L107 737 L22 737 L102 601 L182 601 L263 737 Z " />
<glyph glyph-name="utilde" unicode="&#x169;" horiz-adv-x="352" d="M200 123 C200 105 191 96 175 96 C159 96 152 105 152 123 L152 416 L40 416 L40 107 C40 68 48 40 64 21 C80 2 102 -8 130 -8 C168 -8 211 25 211 88 L211 0 L312 0 L312 416 L200 416 L200 123 Z M103 452 L104 460 C104 467 106 473 110 479 C113 485 118 488 125 488 C134 488 148 481 167 467 C187 452 207 445 228 445 C245 445 261 450 273 459 C286 469 295 479 302 490 C308 502 313 515 316 530 C320 545 322 555 322 561 C323 566 323 571 323 575 L247 575 L246 566 C246 560 244 553 240 547 C237 541 232 538 225 538 C216 538 201 545 182 560 C162 574 142 581 122 581 C104 581 89 577 76 567 C63 558 54 548 48 536 C42 525 37 511 34 496 C30 481 28 471 28 466 C27 460 27 455 27 452 L103 452 Z " />
<glyph glyph-name="Uring" unicode="&#x16e;" horiz-adv-x="352" d="M30 560 L30 130 C30 88 44 55 71 29 C98 4 132 -8 173 -8 C213 -8 248 5 276 31 C304 57 318 91 318 133 L318 560 L199 560 L199 132 C199 113 191 104 175 104 C159 104 151 113 151 132 L151 560 L30 560 Z M118 622 C133 609 151 602 173 602 C195 602 213 609 227 622 C241 636 249 653 249 674 C249 695 241 712 227 726 C213 739 195 746 173 746 C151 746 133 739 118 726 C104 712 97 695 97 674 C97 653 104 636 118 622 L118 622 Z M153 693 C158 698 165 700 173 700 C181 700 187 698 192 693 C197 688 200 681 200 674 C200 667 197 660 192 655 C187 650 181 648 173 648 C165 648 158 650 153 655 C148 660 146 667 146 674 C146 681 148 688 153 693 L153 693 Z " />
<glyph glyph-name="uring" unicode="&#x16f;" horiz-adv-x="352" d="M200 123 C200 105 191 96 175 96 C159 96 152 105 152 123 L152 416 L40 416 L40 107 C40 68 48 40 64 21 C80 2 102 -8 130 -8 C168 -8 211 25 211 88 L211 0 L312 0 L312 416 L200 416 L200 123 Z M123 463 C138 450 156 443 178 443 C200 443 218 450 232 463 C246 477 254 494 254 515 C254 536 246 553 232 567 C218 580 200 587 178 587 C156 587 138 580 123 567 C109 553 102 536 102 515 C102 494 109 477 123 463 L123 463 Z M158 534 C163 539 170 541 178 541 C186 541 192 539 197 534 C202 529 205 522 205 515 C205 508 202 501 197 496 C192 491 186 489 178 489 C170 489 163 491 158 496 C153 501 151 508 151 515 C151 522 153 529 158 534 L158 534 Z " />
<glyph glyph-name="Uhungarumlaut" unicode="&#x170;" horiz-adv-x="352" d="M30 560 L30 130 C30 88 44 55 71 29 C98 4 132 -8 173 -8 C213 -8 248 5 276 31 C304 57 318 91 318 133 L318 560 L199 560 L199 132 C199 113 191 104 175 104 C159 104 151 113 151 132 L151 560 L30 560 L30 560 Z " />
<glyph glyph-name="uhungarumlaut" unicode="&#x171;" horiz-adv-x="352" d="M200 123 C200 105 191 96 175 96 C159 96 152 105 152 123 L152 416 L40 416 L40 107 C40 68 48 40 64 21 C80 2 102 -8 130 -8 C168 -8 211 25 211 88 L211 0 L312 0 L312 416 L200 416 L200 123 Z M38 446 L118 446 L174 582 L62 582 L38 446 Z M182 446 L262 446 L318 582 L206 582 L182 446 Z " />
<glyph glyph-name="Uogonek" unicode="&#x172;" horiz-adv-x="368" d="M40 560 L40 130 C40 88 54 55 81 29 C108 4 142 -8 183 -8 C223 -8 258 5 286 31 C314 57 328 91 328 133 L328 560 L209 560 L209 132 C209 113 201 104 185 104 C169 104 161 113 161 132 L161 560 L40 560 Z M219 41 L203 33 C193 27 182 17 171 1 C161 -14 155 -31 155 -51 C155 -79 166 -102 186 -120 C207 -138 233 -147 263 -147 C280 -147 292 -145 299 -142 L299 -71 L276 -73 C263 -73 252 -70 244 -62 C236 -55 232 -45 232 -33 C232 -17 238 -5 249 1 L219 41 Z " />
<glyph glyph-name="uogonek" unicode="&#x173;" horiz-adv-x="352" d="M200 123 C200 105 191 96 175 96 C159 96 152 105 152 123 L152 416 L40 416 L40 107 C40 68 48 40 64 21 C80 2 102 -8 130 -8 C168 -8 211 25 211 88 L211 0 L312 0 L312 416 L200 416 L200 123 Z M283 43 L267 35 C257 29 246 19 235 3 C225 -12 219 -29 219 -49 C219 -77 230 -100 250 -118 C271 -136 297 -145 327 -145 C344 -145 356 -143 363 -140 L363 -69 L340 -71 C327 -71 316 -68 308 -60 C300 -53 296 -43 296 -31 C296 -15 302 -3 313 3 L283 43 Z " />
<glyph glyph-name="Ydieresis" unicode="&#x178;" horiz-adv-x="267" d="M73 0 L193 0 L193 200 L291 560 L171 560 L137 360 L103 560 L-25 560 L73 200 L73 0 Z M25 609 C36 598 50 592 67 592 C84 592 98 598 109 609 C120 620 125 634 125 651 C125 668 120 682 109 693 C98 704 84 709 67 709 C50 709 36 704 25 693 C14 682 8 668 8 651 C8 634 14 620 25 609 L25 609 Z M166 609 C177 598 190 592 208 592 C225 592 239 598 250 609 C261 620 266 634 266 651 C266 668 261 682 250 693 C239 704 225 709 208 709 C190 709 177 704 166 693 C155 682 149 668 149 651 C149 634 155 620 166 609 L166 609 Z " />
<glyph glyph-name="Zacute" unicode="&#x179;" horiz-adv-x="303" d="M280 0 L280 112 L144 112 L280 464 L280 560 L28 560 L28 448 L152 448 L16 96 L16 0 L280 0 Z M92 632 L176 632 L240 768 L124 768 L92 632 Z " />
<glyph glyph-name="zacute" unicode="&#x17a;" horiz-adv-x="271" d="M12 80 L12 0 L252 0 L252 96 L131 96 L252 337 L252 416 L24 416 L24 320 L132 320 L12 80 Z M67 432 L151 432 L215 568 L99 568 L67 432 Z " />
<glyph glyph-name="Zdotaccent" unicode="&#x17b;" horiz-adv-x="296" d="M281 0 L281 112 L145 112 L281 464 L281 560 L29 560 L29 448 L153 448 L17 96 L17 0 L281 0 Z M110 674 C121 663 135 657 152 657 C169 657 183 663 194 674 C205 684 211 699 211 716 C211 733 205 747 194 758 C183 769 169 774 152 774 C135 774 121 769 110 758 C99 747 94 733 94 716 C94 699 99 684 110 674 L110 674 Z " />
<glyph glyph-name="zdotaccent" unicode="&#x17c;" horiz-adv-x="280" d="M13 80 L13 0 L253 0 L253 96 L132 96 L253 337 L253 416 L25 416 L25 320 L133 320 L13 80 Z M94 474 C105 463 119 457 136 457 C153 457 167 463 178 474 C189 484 195 499 195 516 C195 533 189 547 178 558 C167 569 153 574 136 574 C119 574 105 569 94 558 C83 547 78 533 78 516 C78 499 83 484 94 474 L94 474 Z " />
<glyph glyph-name="Zcaron" unicode="&#x17d;" horiz-adv-x="293" d="M276 0 L276 112 L140 112 L276 464 L276 560 L24 560 L24 448 L148 448 L12 96 L12 0 L276 0 Z M267 735 L186 735 L149 676 L111 735 L26 735 L106 599 L186 599 L267 735 Z " />
<glyph glyph-name="zcaron" unicode="&#x17e;" horiz-adv-x="279" d="M18 80 L18 0 L258 0 L258 96 L137 96 L258 337 L258 416 L30 416 L30 320 L138 320 L18 80 Z M251 580 L170 580 L133 521 L95 580 L10 580 L90 444 L170 444 L251 580 Z " />
<glyph glyph-name="florin" unicode="&#x192;" horiz-adv-x="330" d="M186 -88 L212 239 L290 239 L290 309 L218 309 L226 408 C228 439 242 454 268 454 C281 454 300 454 300 454 L300 560 C300 560 252 560 241 560 C204 560 174 550 152 529 C130 508 117 477 114 437 L104 309 L40 309 L40 239 L98 239 L72 -88 L186 -88 L186 -88 Z " />
<glyph glyph-name="circumflex" unicode="&#x2c6;" horiz-adv-x="250" d="M6 424 L86 424 L124 482 L161 424 L246 424 L166 560 L86 560 L6 424 L6 424 Z " />
<glyph glyph-name="caron" unicode="&#x2c7;" horiz-adv-x="296" d="M268 704 L187 704 L150 645 L112 704 L27 704 L107 568 L187 568 L268 704 L268 704 Z " />
<glyph glyph-name="breve" unicode="&#x2d8;" horiz-adv-x="274" d="M36 575 L36 538 C36 508 45 484 63 466 C82 448 106 439 137 439 C167 439 191 448 210 467 C228 485 237 509 237 540 L237 575 L165 575 L165 535 C165 514 155 503 137 503 C118 503 109 514 109 535 L109 575 L36 575 L36 575 Z " />
<glyph glyph-name="dotaccent" unicode="&#x2d9;" horiz-adv-x="131" d="M23 474 C34 463 48 457 65 457 C82 457 96 463 107 474 C118 484 124 499 124 516 C124 533 118 547 107 558 C96 569 82 574 65 574 C48 574 34 569 23 558 C12 547 7 533 7 516 C7 499 12 484 23 474 L23 474 Z " />
<glyph glyph-name="ring" unicode="&#x2da;" horiz-adv-x="189" d="M39 422 C54 409 72 402 94 402 C116 402 134 409 148 422 C162 436 170 453 170 474 C170 495 162 512 148 526 C134 539 116 546 94 546 C72 546 54 539 39 526 C25 512 18 495 18 474 C18 453 25 436 39 422 L39 422 Z M74 493 C79 498 86 500 94 500 C102 500 108 498 113 493 C118 488 121 481 121 474 C121 467 118 460 113 455 C108 450 102 448 94 448 C86 448 79 450 74 455 C69 460 67 467 67 474 C67 481 69 488 74 493 L74 493 Z " />
<glyph glyph-name="ogonek" unicode="&#x2db;" horiz-adv-x="168" d="M69 41 L53 33 C43 27 32 17 21 1 C11 -14 5 -31 5 -51 C5 -79 16 -102 36 -120 C57 -138 83 -147 113 -147 C130 -147 142 -145 149 -142 L149 -71 L126 -73 C113 -73 102 -70 94 -62 C86 -55 82 -45 82 -33 C82 -17 88 -5 99 1 L69 41 L69 41 Z " />
<glyph glyph-name="tilde" unicode="&#x2dc;" horiz-adv-x="323" d="M91 452 L92 460 C92 467 94 473 98 479 C101 485 106 488 113 488 C122 488 136 481 155 467 C175 452 195 445 216 445 C233 445 249 450 261 459 C274 469 283 479 290 490 C296 502 301 515 304 530 C308 545 310 555 310 561 C311 566 311 571 311 575 L235 575 L234 566 C234 560 232 553 228 547 C225 541 220 538 213 538 C204 538 189 545 170 560 C150 574 130 581 110 581 C92 581 77 577 64 567 C51 558 42 548 36 536 C30 525 25 511 22 496 C18 481 16 471 16 466 C15 460 15 455 15 452 L91 452 L91 452 Z " />
<glyph glyph-name="hungarumlaut" unicode="&#x2dd;" horiz-adv-x="333" d="M28 432 L108 432 L164 568 L52 568 L28 432 Z M172 432 L252 432 L308 568 L196 568 L172 432 Z " />
<glyph glyph-name="endash" unicode="&#x2013;" horiz-adv-x="392" d="M352 195 L352 299 L40 299 L40 195 L352 195 L352 195 Z " />
<glyph glyph-name="emdash" unicode="&#x2014;" horiz-adv-x="448" d="M408 196 L408 300 L40 300 L40 196 L408 196 L408 196 Z " />
<glyph glyph-name="quoteleft" unicode="&#x2018;" horiz-adv-x="157" d="M60 560 L16 328 L140 328 L148 560 L60 560 L60 560 Z " />
<glyph glyph-name="quoteright" unicode="&#x2019;" horiz-adv-x="153" d="M100 328 L144 560 L20 560 L12 328 L100 328 L100 328 Z " />
<glyph glyph-name="quotedblleft" unicode="&#x201c;" horiz-adv-x="335" d="M66 560 L22 328 L146 328 L154 560 L66 560 Z M226 560 L182 328 L306 328 L314 560 L226 560 Z " />
<glyph glyph-name="quotedblright" unicode="&#x201d;" horiz-adv-x="333" d="M112 328 L156 560 L32 560 L24 328 L112 328 Z M272 328 L316 560 L192 560 L184 328 L272 328 Z " />
<glyph glyph-name="daggerdbl" unicode="&#x2021;" horiz-adv-x="281" d="M24 276 L24 196 L96 196 L96 124 L184 124 L184 196 L256 196 L256 276 L184 276 L184 348 L256 348 L256 428 L184 428 L184 500 L96 500 L96 428 L24 428 L24 348 L96 348 L96 276 L24 276 L24 276 Z " />
<glyph glyph-name="bullet" unicode="&#x2022;" horiz-adv-x="258" d="M49 239 C70 217 97 206 128 206 C158 206 185 217 207 239 C229 262 240 288 240 319 C240 350 229 376 208 398 C186 420 160 430 129 430 C98 430 72 419 49 397 C27 375 16 348 16 317 C16 287 27 260 49 239 L49 239 Z " />
<glyph glyph-name="ellipsis" unicode="&#x2026;" horiz-adv-x="656" d="M59 12 C73 -1 89 -8 107 -8 C126 -8 142 -1 155 12 C169 26 175 42 175 60 C175 79 169 95 155 108 C142 122 126 128 107 128 C89 128 73 122 59 108 C46 95 39 79 39 60 C39 42 46 26 59 12 L59 12 Z M279 12 C293 -1 309 -8 327 -8 C346 -8 362 -1 375 12 C389 26 395 42 395 60 C395 79 389 95 375 108 C362 122 346 128 327 128 C309 128 293 122 279 108 C266 95 259 79 259 60 C259 42 266 26 279 12 L279 12 Z M499 12 C513 -1 529 -8 547 -8 C566 -8 582 -1 595 12 C609 26 615 42 615 60 C615 79 609 95 595 108 C582 122 566 128 547 128 C529 128 513 122 499 108 C486 95 479 79 479 60 C479 42 486 26 499 12 L499 12 Z " />
<glyph glyph-name="perthousand" unicode="&#x2030;" horiz-adv-x="685" d="M50 307 C71 288 96 278 126 278 C157 278 182 288 203 308 C224 328 234 353 234 384 C234 414 224 439 204 458 C184 478 159 488 128 488 C98 488 72 478 51 458 C31 438 20 412 20 382 C20 352 30 327 50 307 L50 307 Z M44 0 L116 0 L412 480 L340 480 L44 0 Z M106 405 C112 411 119 414 127 414 C136 414 143 411 149 405 C154 399 157 392 157 383 C157 374 154 366 149 360 C143 355 136 352 127 352 C119 352 112 355 106 360 C101 366 98 374 98 383 C98 392 101 399 106 405 L106 405 Z M252 21 C272 1 298 -8 328 -8 C358 -8 384 2 405 22 C426 42 436 67 436 97 C436 128 426 153 406 172 C385 191 360 201 330 201 C299 201 274 191 253 171 C232 151 222 126 222 96 C222 65 232 40 252 21 L252 21 Z M308 119 C313 125 320 128 329 128 C337 128 345 125 350 119 C356 113 358 106 358 97 C358 87 356 80 350 74 C345 68 337 65 329 65 C320 65 313 68 308 74 C302 80 299 87 299 97 C299 106 302 113 308 119 L308 119 Z M488 21 C508 1 534 -8 564 -8 C594 -8 620 2 641 22 C662 42 672 67 672 97 C672 128 662 153 642 172 C621 191 596 201 566 201 C535 201 510 191 489 171 C468 151 458 126 458 96 C458 65 468 40 488 21 L488 21 Z M544 119 C549 125 556 128 565 128 C573 128 581 125 586 119 C592 113 594 106 594 97 C594 87 592 80 586 74 C581 68 573 65 565 65 C556 65 549 68 544 74 C538 80 535 87 535 97 C535 106 538 113 544 119 L544 119 Z " />
<glyph glyph-name="guilsinglleft" unicode="&#x2039;" horiz-adv-x="253" d="M181 138 L241 198 L154 296 L241 394 L181 458 L29 314 L29 282 L181 138 L181 138 Z " />
<glyph glyph-name="guilsinglright" unicode="&#x203a;" horiz-adv-x="267" d="M16 203 L76 143 L228 287 L228 319 L76 463 L16 399 L103 301 L16 203 L16 203 Z " />
<glyph glyph-name="Euro" unicode="&#x20ac;" horiz-adv-x="388" d="M250 128 C250 108 242 99 226 99 C210 99 202 108 202 128 L202 207 L307 207 L307 265 L202 265 L202 295 L323 295 L323 353 L202 353 L202 432 C202 452 210 462 226 462 C242 462 250 452 250 432 L250 384 L359 384 L359 440 C359 478 347 509 321 533 C295 556 264 568 227 568 C189 568 157 556 129 530 C102 505 88 472 88 433 L88 353 L40 353 L40 295 L88 295 L88 265 L40 265 L40 207 L88 207 L88 124 C88 85 101 53 128 29 C154 4 186 -8 224 -8 C261 -8 293 4 319 29 C346 54 359 85 359 123 L359 176 L250 176 L250 128 L250 128 Z " />
<glyph glyph-name="trademark" unicode="&#x2122;" horiz-adv-x="436" d="M173 498 L173 560 L22 560 L22 498 L62 498 L62 308 L132 308 L132 498 L173 498 Z M294 349 L318 349 L346 431 L346 308 L410 308 L410 560 L346 560 L307 447 L269 560 L202 560 L202 308 L265 308 L265 434 L294 349 Z " />
<glyph glyph-name="f_f" unicode="&#xfb00;" horiz-adv-x="430" d="M359 461 C363 466 371 468 381 468 C389 468 408 468 408 468 L408 568 C408 568 365 568 356 568 C320 568 292 559 271 540 C250 522 240 494 240 458 L240 416 L152 416 L152 436 C152 448 154 456 159 461 C163 466 171 468 182 468 C189 468 208 468 208 468 L208 568 C208 568 161 568 152 568 C117 568 90 559 70 541 C50 524 40 497 40 462 L40 0 L152 0 L152 324 L240 324 L240 0 L352 0 L352 324 L408 324 L408 416 L352 416 L352 436 C352 448 354 456 359 461 L359 461 Z " />
<glyph glyph-name="fi" unicode="&#xfb01;" horiz-adv-x="405" d="M308 448 C346 449 376 479 376 516 C376 555 343 584 308 584 C270 584 240 552 240 516 C240 478 272 448 308 448 L308 448 Z M251 416 L151 416 L151 436 C151 448 154 456 158 461 C163 466 170 468 181 468 C189 468 207 468 207 468 L207 568 C207 568 161 568 151 568 C117 568 90 559 69 541 C49 523 40 497 40 462 L40 0 L151 0 L151 324 L251 324 L251 0 L365 0 L365 416 L251 416 L251 416 Z " />
<glyph glyph-name="fl" unicode="&#xfb02;" horiz-adv-x="406" d="M152 568 C117 568 90 559 70 541 C50 523 40 497 40 462 L40 0 L152 0 L152 324 L208 324 L208 416 L152 416 L152 436 C152 448 154 456 159 461 C163 466 171 468 182 468 C185 468 216 468 252 468 L252 0 L366 0 L366 468 L366 560 L366 568 C366 568 161 568 152 568 L152 568 Z " />
</font>
</svg>
