<?xml version="1.0" encoding="UTF-8"?>
<svg xmlns="http://www.w3.org/2000/svg" xmlns:xlink="http://www.w3.org/1999/xlink" version="1.2" >
<font id="Lostfield Condensed black italic">
<font-face  font-family="Lostfield Condensed" units-per-em="1000" ascent="750" descent="-250" font-style="normal" font-weight="400" font-stretch="normal" cap-height="700" x-height="500" underline-position="-75" underline-thickness="50" />
<missing-glyph  horiz-adv-x="152" d="" />
<glyph glyph-name="NULL" d="" />
<glyph glyph-name="CR" unicode="&#xd;" horiz-adv-x="152" d="" />
<glyph glyph-name="space" unicode="&#x20;" horiz-adv-x="152" d="" />
<glyph glyph-name="exclam" unicode="&#x21;" horiz-adv-x="174" d="M-10 12 C1 -2 16 -8 34 -8 C53 -8 70 -2 85 12 C102 25 111 41 114 60 C118 78 115 94 103 108 C93 121 78 128 59 128 C41 128 24 121 7 108 C-7 94 -17 78 -21 60 C-24 41 -20 25 -10 12 L-10 12 Z M29 184 L109 184 L203 560 L75 560 L29 184 Z " />
<glyph glyph-name="quotedbl" unicode="&#x22;" horiz-adv-x="335" d="M91 327 L178 560 L54 560 L3 327 L91 327 Z M251 327 L338 560 L214 560 L163 327 L251 327 Z " />
<glyph glyph-name="numbersign" unicode="&#x23;" horiz-adv-x="364" d="M130 0 L203 0 L237 119 L287 119 L300 188 L256 188 L285 291 L334 291 L347 359 L304 359 L338 480 L266 480 L232 359 L185 359 L219 480 L147 480 L113 359 L63 359 L50 291 L94 291 L64 188 L17 188 L4 119 L45 119 L11 0 L83 0 L118 119 L165 119 L130 0 Z M166 291 L213 291 L183 188 L136 188 L166 291 Z " />
<glyph glyph-name="dollar" unicode="&#x24;" horiz-adv-x="324" d="M114 174 L4 174 L-4 121 C-11 85 -6 56 8 34 C23 12 45 -2 75 -7 L64 -69 L131 -69 L142 -5 C176 1 203 17 227 40 C251 64 265 93 272 128 C284 193 266 254 218 314 C179 361 163 399 169 429 C172 447 181 456 196 456 C211 456 217 446 213 426 L206 387 L315 387 L323 432 C330 466 326 494 312 516 C297 537 275 551 245 556 L256 618 L189 618 L178 555 C147 548 120 533 98 510 C74 487 60 459 54 425 C43 365 62 305 111 246 C149 200 165 160 158 124 C156 114 152 107 146 101 C141 96 133 93 125 93 C108 93 101 104 106 127 L114 174 L114 174 Z " />
<glyph glyph-name="percent" unicode="&#x25;" horiz-adv-x="446" d="M61 307 C77 288 100 278 130 278 C161 278 188 288 213 308 C237 328 253 353 258 383 C263 414 257 439 240 458 C224 478 200 487 169 487 C139 487 112 478 87 458 C64 438 48 412 43 382 C38 352 43 327 61 307 L61 307 Z M0 0 L71 0 L452 480 L380 480 L0 0 Z M133 405 C140 411 147 414 155 414 C164 414 171 411 175 405 C180 399 182 392 180 383 C178 374 174 366 167 360 C161 355 154 352 145 352 C137 352 130 355 125 360 C121 366 119 374 121 383 C123 392 127 399 133 405 L133 405 Z M211 21 C227 1 252 -8 282 -8 C313 -8 340 2 364 22 C388 41 403 67 408 97 C414 128 408 152 392 172 C374 191 351 201 321 201 C290 201 263 191 238 171 C214 151 199 126 194 96 C189 65 194 40 211 21 L211 21 Z M284 119 C290 125 298 128 307 128 C316 128 322 125 326 119 C331 113 333 105 331 96 C330 87 325 80 318 74 C312 68 305 65 296 65 C287 65 280 68 276 74 C271 80 270 87 271 96 C273 105 277 113 284 119 L284 119 Z " />
<glyph glyph-name="ampersand" unicode="&#x26;" horiz-adv-x="375" d="M327 239 L344 331 L312 331 L317 358 L205 358 L200 331 L174 331 C160 331 155 340 159 357 L173 436 C176 453 184 461 198 461 C211 461 216 453 213 436 L204 384 L313 384 L322 436 C329 474 322 506 300 530 C280 555 251 568 215 568 C178 568 145 556 115 532 C85 508 67 477 60 440 L48 377 C42 342 48 312 67 288 C34 262 15 230 8 189 L-2 129 C-9 89 -2 56 20 30 C42 5 74 -8 113 -8 C139 -8 162 -3 184 8 C201 -3 223 -8 250 -8 C270 -8 280 -8 280 -8 L299 96 C288 96 280 98 277 103 C273 108 272 116 275 128 L295 239 L327 239 L327 239 Z M174 188 L174 188 L163 130 C159 109 148 98 131 98 C113 98 106 109 110 130 L124 208 C128 229 139 239 157 239 L183 239 L174 188 L174 188 Z " />
<glyph glyph-name="quotesingle" unicode="&#x27;" horiz-adv-x="172" d="M87 327 L174 560 L50 560 L-1 327 L87 327 L87 327 Z " />
<glyph glyph-name="parenleft" unicode="&#x28;" horiz-adv-x="276" d="M179 453 C192 487 204 514 217 536 C228 557 242 578 257 598 C271 618 282 631 287 637 C292 644 297 648 299 651 L230 712 L214 697 C203 687 190 671 174 650 C157 629 141 605 124 578 C106 551 89 517 74 475 C57 434 45 392 37 349 C29 306 27 264 28 223 C30 182 34 148 40 123 C48 97 56 73 66 50 C77 28 85 13 89 6 C94 0 98 -5 101 -8 L192 52 L185 65 C179 74 174 87 167 105 C161 123 156 144 150 167 C145 190 142 218 141 251 C141 284 143 317 149 351 C156 386 166 419 179 453 L179 453 Z " />
<glyph glyph-name="parenright" unicode="&#x29;" horiz-adv-x="263" d="M84 250 C71 216 58 189 46 167 C33 146 19 125 4 105 C-8 85 -19 72 -24 66 C-30 60 -34 55 -37 52 L32 -8 L48 6 C58 16 72 32 88 53 C104 74 121 98 138 125 C156 152 172 187 189 227 C205 269 217 311 225 354 C233 397 236 439 235 480 C233 521 230 555 222 580 C216 606 207 630 197 653 C187 676 179 690 175 697 C170 703 167 708 163 712 L71 651 L79 638 C84 629 90 616 96 598 C102 580 107 559 112 536 C118 513 121 485 121 452 C122 419 119 386 113 352 C106 317 97 284 84 250 L84 250 Z " />
<glyph glyph-name="asterisk" unicode="&#x2a;" horiz-adv-x="284" d="M207 560 L124 560 L117 473 L44 508 L4 430 L84 411 L15 347 L74 298 L131 373 L160 298 L236 347 L191 411 L279 430 L268 508 L183 473 L207 560 L207 560 Z " />
<glyph glyph-name="plus" unicode="&#x2b;" horiz-adv-x="360" d="M104 127 L192 127 L215 239 L311 239 L328 326 L232 326 L255 438 L167 438 L144 326 L48 326 L31 239 L127 239 L104 127 L104 127 Z " />
<glyph glyph-name="comma" unicode="&#x2c;" horiz-adv-x="168" d="M83 -181 L170 52 L46 52 L-4 -181 L83 -181 L83 -181 Z " />
<glyph glyph-name="hyphen" unicode="&#x2d;" horiz-adv-x="272" d="M222 195 L241 299 L49 299 L30 195 L222 195 L222 195 Z " />
<glyph glyph-name="period" unicode="&#x2e;" horiz-adv-x="247" d="M45 -20 C38 -55 61 -88 100 -88 C135 -88 173 -59 181 -20 C187 16 163 48 125 48 C89 48 51 18 45 -20 L45 -20 Z " />
<glyph glyph-name="slash" unicode="&#x2f;" horiz-adv-x="349" d="M-43 -8 L52 -8 L397 680 L301 679 L-43 -8 L-43 -8 Z " />
<glyph glyph-name="zero" unicode="0" horiz-adv-x="360" d="M11 126 C4 86 11 53 34 29 C56 4 86 -8 125 -8 C163 -8 198 4 231 30 C264 56 284 89 292 129 L348 433 C356 473 349 506 326 530 C304 555 273 567 235 567 C197 567 161 555 128 529 C95 503 75 470 68 430 L11 126 Z M181 425 C185 446 196 457 213 457 C231 457 238 446 234 425 L180 134 C176 113 165 102 147 102 C130 102 123 113 127 134 L181 425 Z " />
<glyph glyph-name="one" unicode="1" horiz-adv-x="259" d="M40 468 L82 392 L132 424 L54 0 L167 0 L270 560 L173 560 L40 468 L40 468 Z " />
<glyph glyph-name="two" unicode="2" horiz-adv-x="316" d="M245 0 L264 106 L118 106 L259 300 C294 348 315 392 322 432 C330 472 322 505 301 530 C280 555 251 567 213 567 C175 567 140 554 109 528 C77 502 57 469 50 430 L39 368 L149 368 L158 421 C163 445 173 457 189 457 C205 457 212 445 207 421 C202 394 192 370 175 347 L-12 82 L-26 0 L245 0 L245 0 Z " />
<glyph glyph-name="three" unicode="3" horiz-adv-x="325" d="M213 567 C177 567 144 555 115 530 C83 506 66 474 59 436 L49 383 L158 383 L168 436 C171 453 179 461 192 461 C206 461 211 453 208 436 L194 357 C190 340 183 332 169 332 L152 240 C170 240 178 229 174 208 L160 130 C156 109 145 98 127 98 C110 98 103 109 107 130 L117 188 L7 188 L-3 126 C-10 86 -3 53 17 29 C39 4 69 -8 107 -8 C146 -8 182 4 214 30 C246 56 265 89 273 129 L283 189 C291 230 283 263 260 288 C287 312 305 342 311 377 L322 439 C329 477 322 508 300 532 C279 556 250 567 213 567 L213 567 Z " />
<glyph glyph-name="four" unicode="4" horiz-adv-x="337" d="M123 0 L225 0 L247 119 L291 119 L308 211 L264 211 L328 560 L220 560 L13 216 L-4 119 L145 119 L123 0 Z M101 211 L192 376 L162 211 L101 211 Z " />
<glyph glyph-name="five" unicode="5" horiz-adv-x="341" d="M36 256 L138 256 C139 256 143 272 149 277 C154 282 160 285 167 285 C174 285 179 282 183 277 C187 272 187 265 186 256 L163 131 C161 122 158 115 152 110 C146 105 141 102 134 102 C127 102 121 105 118 110 C114 115 113 122 115 131 L125 184 L15 184 L3 119 C-3 82 3 51 25 28 C48 4 77 -8 112 -8 C149 -8 184 4 216 30 C249 56 268 88 275 127 L303 276 C308 308 303 334 288 354 C270 373 248 383 218 383 C196 383 176 376 157 361 L174 453 L323 453 L342 560 L91 560 L36 256 Z " />
<glyph glyph-name="six" unicode="6" horiz-adv-x="345" d="M2 128 C-5 87 2 55 25 29 C48 4 79 -8 118 -8 C157 -8 192 5 226 31 C260 58 280 91 288 131 L308 240 C315 279 311 310 295 333 C278 356 252 368 215 368 C204 368 193 365 183 359 L300 560 L187 560 L77 367 C47 319 27 263 15 200 L2 128 Z M136 237 C138 247 141 254 149 260 C155 266 162 269 170 269 C179 269 186 266 190 260 C194 254 195 247 193 237 L174 134 C172 124 169 117 162 111 C156 105 148 102 139 102 C131 102 125 105 121 111 C116 117 115 124 117 134 L136 237 Z " />
<glyph glyph-name="seven" unicode="7" horiz-adv-x="295" d="M-19 0 L95 0 L305 473 L321 560 L64 560 L44 449 L182 449 L-19 0 L-19 0 Z " />
<glyph glyph-name="eight" unicode="8" horiz-adv-x="323" d="M45 391 C38 352 45 320 67 296 C32 269 9 234 1 191 L-9 130 C-17 89 -9 56 12 30 C34 4 66 -8 107 -8 C147 -8 185 5 217 31 C250 58 271 92 278 133 L290 194 C298 237 289 271 263 298 C295 325 314 357 321 394 L329 436 C336 475 329 507 306 531 C285 555 255 567 217 567 C179 567 145 555 112 530 C80 504 60 472 53 432 L45 391 Z M120 216 C124 240 136 252 156 252 C177 252 185 240 181 216 L165 130 C160 106 148 94 127 94 C107 94 99 106 104 130 L120 216 Z M168 436 C171 455 180 465 196 465 C212 465 218 455 215 436 L202 368 C199 349 189 339 173 339 C157 339 152 349 155 368 L168 436 Z " />
<glyph glyph-name="nine" unicode="9" horiz-adv-x="361" d="M351 432 C358 472 350 504 328 530 C304 555 273 567 234 567 C195 567 159 554 126 528 C93 502 72 468 65 428 L45 320 C38 280 42 249 58 226 C75 203 101 191 139 191 C150 191 160 194 170 199 L53 0 L167 0 L276 191 C306 240 326 296 337 359 L351 432 Z M217 322 C215 312 212 305 204 299 C198 293 191 290 182 290 C174 290 167 293 163 299 C159 305 158 312 160 322 L178 425 C180 435 184 442 191 448 C197 454 204 457 212 457 C221 457 228 454 232 448 C237 442 237 435 235 425 L217 322 Z " />
<glyph glyph-name="colon" unicode="&#x3a;" horiz-adv-x="165" d="M54 392 C65 378 80 372 98 372 C117 372 134 378 150 392 C166 405 175 421 179 440 C182 458 179 474 167 488 C157 501 142 508 123 508 C105 508 88 501 71 488 C56 474 46 458 43 440 C39 421 43 405 54 392 L54 392 Z M0 96 C11 82 26 76 44 76 C63 76 80 82 96 96 C112 109 121 125 124 144 C128 162 125 178 113 192 C103 205 88 212 69 212 C51 212 34 205 17 192 C2 178 -7 162 -11 144 C-14 125 -10 109 0 96 L0 96 Z " />
<glyph glyph-name="semicolon" unicode="&#x3b;" horiz-adv-x="170" d="M67 384 C78 370 93 364 111 364 C130 364 147 370 163 384 C180 397 189 413 192 432 C196 450 193 466 182 480 C171 493 156 500 137 500 C119 500 102 493 86 480 C70 466 60 450 56 432 C53 413 57 397 67 384 L67 384 Z M56 -29 L145 204 L21 204 L-31 -29 L56 -29 Z " />
<glyph glyph-name="less" unicode="&#x3c;" horiz-adv-x="348" d="M47 360 L28 256 L277 108 L298 218 L125 300 L333 397 L354 508 L47 360 L47 360 Z " />
<glyph glyph-name="equal" unicode="&#x3d;" horiz-adv-x="327" d="M306 340 L320 416 L44 416 L30 340 L306 340 Z M277 188 L291 264 L15 264 L1 188 L277 188 Z " />
<glyph glyph-name="greater" unicode="&#x3e;" horiz-adv-x="352" d="M15 213 L-4 103 L302 251 L321 355 L68 503 L47 388 L217 300 L15 213 L15 213 Z " />
<glyph glyph-name="question" unicode="&#x3f;" horiz-adv-x="304" d="M105 529 C73 502 52 467 44 423 L36 377 L146 377 L154 422 C158 446 169 458 185 458 C201 458 207 446 203 422 C199 400 188 377 171 353 C155 330 138 306 121 282 C104 257 94 233 89 209 L85 185 L187 185 L190 201 C193 218 201 236 214 255 C225 273 238 290 252 304 C265 319 278 338 292 361 C305 384 313 408 318 433 C325 473 319 506 297 531 C276 556 247 568 209 568 C171 568 137 555 105 529 L105 529 Z M56 13 C67 -1 81 -7 100 -7 C119 -7 136 -1 152 13 C167 26 177 42 181 61 C184 79 180 95 170 109 C159 122 144 129 125 129 C106 129 90 122 74 109 C58 95 48 79 45 61 C41 42 45 26 56 13 L56 13 Z " />
<glyph glyph-name="at" unicode="&#x40;" horiz-adv-x="763" d="M375 73 L334 69 C259 69 201 94 161 145 C121 195 109 257 122 331 C135 406 171 468 230 520 C288 571 355 596 429 596 C507 596 564 572 604 523 C642 473 654 407 639 324 C630 277 612 238 584 207 C555 177 525 161 495 161 C476 161 464 168 457 181 C450 194 452 213 459 237 L539 487 L536 497 L459 497 L447 469 C439 492 421 503 392 503 C367 503 345 495 326 480 C307 465 292 443 284 416 L233 260 C225 232 226 210 236 193 C248 177 266 169 292 169 C320 169 355 190 372 226 C352 174 366 135 385 114 C403 93 433 82 474 82 C533 82 586 106 634 153 C680 200 710 259 723 332 C741 431 724 513 671 578 C619 644 543 676 444 676 C346 676 258 643 181 576 C103 509 55 427 38 329 C20 233 38 153 90 89 C143 25 219 -7 318 -7 C346 -7 366 -4 374 0 L375 73 Z M374 269 C368 256 359 249 347 249 C334 249 329 256 333 271 L376 402 C381 416 390 423 402 423 C416 423 420 416 415 400 L374 269 Z " />
<glyph glyph-name="A" unicode="A" horiz-adv-x="356" d="M287 560 L171 560 L-39 0 L76 0 L105 92 L173 92 L168 0 L292 0 L287 560 Z M178 188 L136 188 L186 349 L178 188 Z " />
<glyph glyph-name="B" unicode="B" horiz-adv-x="354" d="M-10 0 L143 0 C185 0 222 12 253 36 C283 60 302 94 310 137 L317 177 C327 232 314 271 277 293 C316 317 341 355 350 405 L354 425 C362 469 354 502 334 525 C313 548 282 560 240 560 L90 560 L-10 0 Z M192 460 L204 460 C228 460 237 446 233 420 L224 372 C219 345 205 332 181 332 L169 332 L192 460 Z M152 240 L172 240 C196 240 206 226 201 200 L190 140 C185 113 171 100 147 100 L127 100 L152 240 Z " />
<glyph glyph-name="C" unicode="C" horiz-adv-x="352" d="M336 348 L351 433 C359 475 351 507 329 531 C307 556 276 568 237 568 C196 568 160 555 126 529 C93 502 73 468 66 426 L12 130 C5 88 13 55 35 29 C58 4 90 -8 130 -8 C170 -8 205 4 238 30 C269 55 289 88 296 129 L313 220 L197 220 L181 132 C177 113 168 104 152 104 C136 104 129 113 133 132 L186 428 C189 446 199 456 215 456 C231 456 237 446 234 428 L220 348 L336 348 L336 348 Z " />
<glyph glyph-name="D" unicode="D" horiz-adv-x="372" d="M-12 0 L129 0 C175 0 215 12 246 37 C278 63 298 99 306 145 L357 417 C366 464 359 500 338 524 C316 548 283 560 238 560 L92 560 L-12 0 Z M191 448 L207 448 C231 448 240 434 235 408 L188 152 C183 125 168 112 144 112 L128 112 L191 448 Z " />
<glyph glyph-name="E" unicode="E" horiz-adv-x="303" d="M224 0 L246 120 L130 120 L150 229 L238 229 L259 341 L171 341 L189 440 L301 440 L323 560 L91 560 L-11 0 L224 0 L224 0 Z " />
<glyph glyph-name="F" unicode="F" horiz-adv-x="294" d="M234 229 L255 341 L171 341 L190 440 L298 440 L320 560 L92 560 L-12 0 L107 0 L150 229 L234 229 L234 229 Z " />
<glyph glyph-name="G" unicode="G" horiz-adv-x="376" d="M350 356 L363 425 C371 469 364 503 341 529 C318 555 286 568 244 568 C201 568 163 554 129 527 C95 500 74 465 66 422 L12 134 C4 91 11 56 34 31 C57 5 89 -8 131 -8 C150 -8 169 -5 186 0 L283 0 L308 137 L347 341 L199 341 L178 229 L210 229 L192 133 C190 123 185 115 179 109 C172 103 164 100 155 100 C135 100 128 111 132 133 L187 424 C191 445 202 456 221 456 C240 456 247 445 243 424 L230 356 L350 356 L350 356 Z " />
<glyph glyph-name="H" unicode="H" horiz-adv-x="372" d="M158 0 L278 0 L385 560 L265 560 L225 348 L173 348 L213 560 L93 560 L-13 0 L106 0 L150 228 L202 228 L158 0 L158 0 Z " />
<glyph glyph-name="I" unicode="I" horiz-adv-x="202" d="M-12 0 L109 0 L214 560 L92 560 L-12 0 L-12 0 Z " />
<glyph glyph-name="J" unicode="J" horiz-adv-x="232" d="M-31 -8 L11 -8 C49 -8 81 3 110 25 C138 47 155 79 163 121 L243 560 L121 560 L46 148 C44 134 39 124 31 117 C25 111 16 108 3 108 C-2 108 -10 108 -10 108 L-31 -8 L-31 -8 Z " />
<glyph glyph-name="K" unicode="K" horiz-adv-x="379" d="M179 0 L311 0 L271 296 L408 560 L276 560 L167 318 L212 560 L92 560 L-12 0 L107 0 L156 259 L179 0 L179 0 Z " />
<glyph glyph-name="L" unicode="L" horiz-adv-x="280" d="M204 0 L228 120 L128 120 L215 560 L95 560 L-15 0 L204 0 L204 0 Z " />
<glyph glyph-name="M" unicode="M" horiz-adv-x="464" d="M169 80 L222 80 L317 293 L263 0 L372 0 L475 560 L363 560 L234 273 L211 560 L91 560 L-11 0 L98 0 L152 293 L169 80 L169 80 Z " />
<glyph glyph-name="N" unicode="N" horiz-adv-x="380" d="M184 0 L288 0 L391 560 L287 560 L237 286 L203 560 L91 560 L-11 0 L92 0 L147 299 L184 0 L184 0 Z " />
<glyph glyph-name="O" unicode="O" horiz-adv-x="376" d="M14 134 C6 91 14 56 37 31 C60 5 94 -8 136 -8 C178 -8 215 5 249 32 C282 59 303 94 310 137 L361 425 C369 469 361 503 339 529 C315 555 282 568 240 568 C198 568 160 554 126 527 C93 500 72 465 65 422 L14 134 Z M185 424 C189 445 201 456 219 456 C238 456 245 445 241 424 L190 136 C186 114 175 104 156 104 C138 104 130 114 134 136 L185 424 Z " />
<glyph glyph-name="P" unicode="P" horiz-adv-x="368" d="M-14 0 L104 0 L141 188 L156 188 C205 188 246 201 279 227 C312 252 333 291 343 341 L356 409 C366 460 360 498 339 523 C316 547 281 560 232 560 L94 560 L-14 0 Z M192 448 L208 448 C232 448 241 434 236 408 L222 336 C217 309 202 296 178 296 L162 296 L192 448 Z " />
<glyph glyph-name="Q" unicode="Q" horiz-adv-x="376" d="M317 137 L371 425 C379 469 371 503 349 529 C326 555 293 568 251 568 C209 568 171 554 137 527 C104 500 82 465 74 422 L21 134 C13 91 20 56 43 31 C66 5 98 -8 141 -8 L147 -8 L154 -96 L264 -96 L249 28 C286 56 309 92 317 137 L317 137 Z M191 159 L154 149 L152 105 C142 109 138 119 141 136 L194 424 C198 445 210 456 228 456 C247 456 254 445 250 424 L198 142 L191 159 L191 159 Z " />
<glyph glyph-name="R" unicode="R" horiz-adv-x="367" d="M356 409 C366 460 360 498 338 523 C316 547 280 560 231 560 L93 560 L-13 0 L106 0 L145 204 L165 204 C180 204 191 195 188 176 L154 0 L270 0 L305 182 C310 211 308 237 298 257 C322 278 337 308 344 345 L356 409 L356 409 Z M224 344 C221 331 218 322 210 315 C203 308 193 304 180 304 L164 304 L192 448 L208 448 C232 448 241 434 236 408 L224 344 L224 344 Z " />
<glyph glyph-name="S" unicode="S" horiz-adv-x="328" d="M115 180 L0 180 L-9 130 C-17 88 -9 55 13 29 C35 4 67 -8 108 -8 C150 -8 187 5 221 32 C255 59 275 94 283 137 C289 170 288 201 278 230 C270 259 251 289 225 320 C199 350 183 372 176 388 C169 403 167 418 169 431 C173 450 182 460 198 460 C214 460 220 449 217 428 L210 392 L326 392 L333 433 C341 475 334 507 312 531 C290 556 259 568 220 568 C179 568 143 555 110 529 C76 502 56 468 48 426 C38 369 58 310 108 250 C135 220 150 197 157 181 C163 165 166 149 163 133 C161 123 157 115 151 109 C144 103 138 100 129 100 C110 100 103 112 107 136 L115 180 L115 180 Z " />
<glyph glyph-name="T" unicode="T" horiz-adv-x="340" d="M339 440 L361 560 L81 560 L59 440 L139 440 L58 0 L178 0 L259 440 L339 440 L339 440 Z " />
<glyph glyph-name="U" unicode="U" horiz-adv-x="368" d="M89 560 L14 130 C7 88 15 55 38 29 C60 4 92 -8 133 -8 C173 -8 210 5 243 31 C275 57 295 91 303 133 L377 560 L258 560 L183 132 C180 113 171 104 155 104 C139 104 132 113 135 132 L210 560 L89 560 L89 560 Z " />
<glyph glyph-name="V" unicode="V" horiz-adv-x="338" d="M59 0 L175 0 L382 560 L262 560 L168 254 L186 560 L58 560 L59 0 L59 0 Z " />
<glyph glyph-name="W" unicode="W" horiz-adv-x="488" d="M227 0 L333 0 L526 560 L406 560 L326 260 L345 560 L252 560 L163 260 L190 560 L62 560 L53 0 L160 0 L240 258 L227 0 L227 0 Z " />
<glyph glyph-name="X" unicode="X" horiz-adv-x="367" d="M401 560 L273 560 L211 424 L201 560 L69 560 L120 288 L-41 0 L86 0 L159 157 L174 0 L306 0 L251 293 L401 560 L401 560 Z " />
<glyph glyph-name="Y" unicode="Y" horiz-adv-x="354" d="M63 0 L183 0 L221 200 L388 560 L268 560 L196 360 L200 560 L72 560 L101 200 L63 0 L63 0 Z " />
<glyph glyph-name="Z" unicode="Z" horiz-adv-x="300" d="M230 0 L251 112 L115 112 L317 464 L335 560 L83 560 L62 448 L186 448 L-15 96 L-33 0 L230 0 L230 0 Z " />
<glyph glyph-name="bracketleft" unicode="&#x5b;" horiz-adv-x="272" d="M180 -8 L198 92 L106 92 L197 580 L289 580 L307 680 L103 680 L-23 -8 L180 -8 L180 -8 Z " />
<glyph glyph-name="backslash" unicode="&#x5c;" horiz-adv-x="361" d="M179 680 L83 680 L182 -8 L278 -8 L179 680 L179 680 Z " />
<glyph glyph-name="bracketright" unicode="&#x5d;" horiz-adv-x="267" d="M167 -8 L286 680 L82 680 L65 580 L157 580 L72 92 L-19 92 L-36 -8 L167 -8 L167 -8 Z " />
<glyph glyph-name="asciicircum" unicode="&#x5e;" horiz-adv-x="382" d="M265 562 L165 562 L12 290 L128 290 L194 438 L206 290 L320 290 L265 562 L265 562 Z " />
<glyph glyph-name="underscore" unicode="&#x5f;" horiz-adv-x="407" d="M361 0 L376 80 L56 80 L41 0 L361 0 L361 0 Z " />
<glyph glyph-name="grave" unicode="&#x60;" horiz-adv-x="161" d="M133 560 L17 560 L56 424 L140 424 L133 560 L133 560 Z " />
<glyph glyph-name="a" unicode="a" horiz-adv-x="344" d="M265 0 L320 298 C327 335 320 366 298 389 C276 412 248 424 211 424 C176 424 142 412 112 387 C81 363 63 332 56 295 L165 304 C168 320 178 328 192 328 C206 328 211 320 208 304 L193 223 C181 240 162 248 136 248 C105 248 78 237 54 215 C30 194 14 164 7 127 L4 111 C-2 73 2 44 17 23 C31 3 54 -8 85 -8 C120 -8 167 17 179 81 L164 0 L265 0 Z M173 112 C169 91 158 80 140 80 C121 80 113 91 117 112 L121 136 C125 158 137 168 156 168 C174 168 181 158 177 136 L173 112 Z " />
<glyph glyph-name="b" unicode="b" horiz-adv-x="356" d="M-12 0 L87 0 L102 81 C90 16 123 -8 157 -8 C187 -8 214 3 238 24 C261 45 277 74 284 110 L322 310 C329 346 325 374 310 394 C296 414 273 424 244 424 C217 424 195 416 175 398 L206 560 L94 560 L-12 0 Z M155 292 C156 301 161 308 167 313 C172 318 179 320 186 320 C194 320 200 318 203 313 C207 308 208 301 207 292 L174 124 C173 116 168 109 162 104 C158 99 151 96 143 96 C136 96 130 99 126 104 C122 109 121 116 122 124 L155 292 Z " />
<glyph glyph-name="c" unicode="c" horiz-adv-x="344" d="M191 180 L180 121 C177 104 168 96 153 96 C138 96 132 104 135 121 L168 295 C171 312 179 320 194 320 C209 320 216 312 213 295 L202 240 L309 240 L320 297 C327 335 321 366 300 389 C280 412 252 424 216 424 C178 424 143 412 113 387 C81 363 63 332 55 294 L23 119 C16 81 22 51 44 28 C66 4 94 -8 132 -8 C168 -8 202 5 232 29 C263 54 281 85 288 123 L298 180 L191 180 L191 180 Z " />
<glyph glyph-name="d" unicode="d" horiz-adv-x="356" d="M160 0 L259 0 L365 560 L253 560 L223 398 C210 416 190 424 163 424 C134 424 108 414 86 394 C64 374 49 346 42 310 L4 110 C-3 74 2 45 18 24 C33 3 56 -8 86 -8 C120 -8 163 16 176 81 L160 0 Z M198 313 C203 308 204 301 203 292 L171 124 C169 116 165 109 159 104 C154 99 147 96 139 96 C132 96 126 99 123 104 C119 109 117 116 119 124 L151 292 C152 301 157 308 162 313 C167 318 175 320 182 320 C190 320 195 318 198 313 L198 313 Z " />
<glyph glyph-name="e" unicode="e" horiz-adv-x="347" d="M303 188 L323 298 C329 335 322 366 300 389 C279 412 250 424 213 424 C176 424 142 412 112 387 C80 363 62 332 55 295 L23 119 C17 81 23 51 45 28 C67 4 96 -8 133 -8 C170 -8 203 5 234 29 C265 54 284 85 291 122 L297 156 L193 156 L187 124 C186 116 182 109 177 104 C171 99 164 96 156 96 C149 96 144 99 140 104 C136 109 135 116 136 124 L148 188 L303 188 Z M169 304 C170 313 174 320 180 325 C185 330 192 332 199 332 C207 332 212 330 217 325 C220 320 221 313 220 304 L212 260 L161 260 L169 304 Z " />
<glyph glyph-name="f" unicode="f" horiz-adv-x="242" d="M22 324 L62 324 L3 0 L115 0 L174 324 L230 324 L246 416 L190 416 L194 436 C196 448 199 456 205 461 C210 466 219 468 229 468 C237 468 256 468 256 468 L274 568 C274 568 227 568 218 568 C183 568 154 559 131 542 C108 524 93 497 87 462 L78 416 L38 416 L22 324 L22 324 Z " />
<glyph glyph-name="g" unicode="g" horiz-adv-x="355" d="M195 424 C165 424 139 414 115 393 C92 372 77 343 70 307 L42 155 C35 118 38 90 53 70 C68 50 90 40 120 40 C147 40 170 49 188 66 L173 -12 C172 -20 169 -27 163 -32 C157 -37 150 -40 142 -40 C135 -40 130 -37 126 -32 C122 -27 121 -20 122 -12 L127 12 L19 12 L16 -5 C9 -44 16 -76 36 -100 C58 -124 86 -136 123 -136 C161 -136 197 -123 228 -98 C261 -73 280 -41 287 -2 L365 416 L265 416 L249 328 C260 390 237 424 195 424 L195 424 Z M206 164 C205 156 201 149 196 144 C190 139 183 136 175 136 C168 136 163 139 159 144 C154 149 154 156 155 164 L179 292 C181 301 184 308 190 313 C196 318 202 320 209 320 C217 320 223 318 227 313 C231 308 232 301 230 292 L206 164 Z " />
<glyph glyph-name="h" unicode="h" horiz-adv-x="352" d="M154 294 C158 312 167 320 184 320 C199 320 206 312 202 294 L147 0 L259 0 L317 310 C324 348 322 377 309 396 C296 415 276 424 249 424 C210 424 173 396 161 328 L204 560 L92 560 L-12 0 L99 0 L154 294 L154 294 Z " />
<glyph glyph-name="i" unicode="i" horiz-adv-x="194" d="M80 468 C91 455 106 448 125 448 C143 448 161 455 176 468 C192 481 202 498 205 516 C208 535 204 551 193 564 C183 578 167 584 149 584 C130 584 113 578 97 564 C81 551 72 535 69 516 C66 498 69 481 80 468 L80 468 Z M-12 0 L101 0 L176 416 L62 416 L-12 0 Z " />
<glyph glyph-name="j" unicode="j" horiz-adv-x="203" d="M-49 -136 C-49 -136 -14 -136 -5 -136 C25 -136 52 -126 75 -107 C97 -87 112 -60 118 -25 L196 416 L83 416 L8 -12 C5 -28 -3 -36 -18 -36 C-23 -36 -28 -36 -32 -36 L-49 -136 Z M101 468 C112 455 127 448 145 448 C164 448 181 455 197 468 C213 481 222 497 225 516 C229 535 225 551 214 564 C203 577 188 584 169 584 C151 584 134 577 118 564 C102 551 93 535 89 516 C86 497 90 481 101 468 L101 468 Z " />
<glyph glyph-name="k" unicode="k" horiz-adv-x="356" d="M-12 0 L99 0 L136 195 L163 0 L291 0 L242 228 L361 416 L237 416 L145 244 L204 560 L92 560 L-12 0 L-12 0 Z " />
<glyph glyph-name="l" unicode="l" horiz-adv-x="194" d="M-12 0 L101 0 L206 560 L92 560 L-12 0 L-12 0 Z " />
<glyph glyph-name="m" unicode="m" horiz-adv-x="502" d="M166 294 C170 312 178 320 193 320 C207 320 213 312 209 294 L156 0 L268 0 L321 294 C325 312 333 320 348 320 C362 320 368 312 364 294 L311 0 L423 0 L479 310 C486 348 483 377 472 396 C459 415 439 424 412 424 C375 424 346 407 325 374 C317 407 294 424 257 424 C220 424 173 391 161 328 L177 416 L76 416 L1 0 L113 0 L166 294 L166 294 Z " />
<glyph glyph-name="n" unicode="n" horiz-adv-x="352" d="M167 294 C170 312 179 320 196 320 C211 320 218 312 215 294 L161 0 L273 0 L329 310 C336 348 334 377 321 396 C309 415 287 424 260 424 C222 424 173 391 162 328 L178 416 L77 416 L1 0 L113 0 L167 294 L167 294 Z " />
<glyph glyph-name="o" unicode="o" horiz-adv-x="355" d="M24 123 C16 84 23 52 45 28 C67 4 97 -8 135 -8 C174 -8 209 5 241 30 C273 55 292 87 299 126 L330 294 C338 333 331 364 309 388 C287 412 258 424 219 424 C181 424 145 412 114 387 C82 362 62 330 55 291 L24 123 Z M167 292 C169 301 173 308 178 313 C184 318 190 320 198 320 C205 320 211 318 215 313 C219 308 220 301 218 292 L187 124 C185 116 182 109 176 104 C170 99 164 96 157 96 C149 96 143 99 139 104 C136 109 134 116 136 124 L167 292 Z " />
<glyph glyph-name="p" unicode="p" horiz-adv-x="356" d="M-12 -128 L99 -128 L126 15 C138 0 157 -8 182 -8 C212 -8 239 3 262 24 C286 45 301 74 308 110 L347 310 C354 346 349 374 335 394 C321 414 298 424 268 424 C233 424 187 394 174 328 L191 416 L91 416 L-12 -128 Z M179 292 C181 301 185 308 191 313 C196 318 203 320 211 320 C219 320 224 318 228 313 C231 308 233 301 231 292 L199 124 C197 116 193 109 188 104 C182 99 176 96 168 96 C160 96 154 99 151 104 C147 109 145 116 147 124 L179 292 Z " />
<glyph glyph-name="q" unicode="q" horiz-adv-x="355" d="M154 -128 L266 -128 L364 416 L264 416 L248 328 C260 394 224 424 189 424 C160 424 133 414 112 394 C90 374 75 346 69 310 L33 110 C26 74 31 45 47 24 C62 3 85 -8 115 -8 C140 -8 162 0 180 15 L154 -128 Z M225 313 C229 308 231 301 229 292 L199 124 C198 116 193 109 188 104 C183 99 176 96 168 96 C160 96 155 99 152 104 C147 109 146 116 147 124 L177 292 C179 301 183 308 189 313 C194 318 200 320 208 320 C216 320 222 318 225 313 L225 313 Z " />
<glyph glyph-name="r" unicode="r" horiz-adv-x="263" d="M0 0 L111 0 L157 239 C160 258 168 272 178 280 C189 288 204 292 224 292 L248 292 L273 424 C229 424 181 385 163 328 L180 416 L78 416 L0 0 L0 0 Z " />
<glyph glyph-name="s" unicode="s" horiz-adv-x="324" d="M200 284 L308 284 L310 298 C317 335 310 366 288 389 C267 412 238 424 202 424 C165 424 132 413 102 390 C72 367 54 340 48 307 C42 276 45 250 56 229 C68 209 87 191 114 175 C139 161 155 150 161 142 C168 134 170 126 168 116 C167 108 163 101 157 96 C152 91 145 88 137 88 C129 88 124 91 121 97 C117 102 115 110 117 120 L121 140 L13 140 L10 123 C2 84 9 52 32 28 C54 4 83 -8 121 -8 C159 -8 194 5 224 29 C255 54 275 85 282 122 C292 178 268 222 212 254 C189 267 174 277 168 284 C161 292 159 300 160 308 C163 321 172 328 186 328 C200 328 206 319 203 300 L200 284 L200 284 Z " />
<glyph glyph-name="t" unicode="t" horiz-adv-x="242" d="M28 324 L68 324 L27 99 C20 63 25 37 42 19 C59 1 84 -8 119 -8 C139 -8 175 -8 175 -8 L194 96 L167 96 C157 96 150 99 145 104 C142 108 142 117 144 128 L180 324 L240 324 L257 416 L197 416 L214 512 L102 512 L85 416 L45 416 L28 324 L28 324 Z " />
<glyph glyph-name="u" unicode="u" horiz-adv-x="352" d="M184 123 C181 105 170 96 154 96 C138 96 133 105 136 123 L192 416 L80 416 L21 107 C14 68 17 40 29 21 C41 2 61 -8 89 -8 C127 -8 177 25 189 88 L172 0 L273 0 L352 416 L240 416 L184 123 L184 123 Z " />
<glyph glyph-name="v" unicode="v" horiz-adv-x="317" d="M341 416 L233 416 L157 179 L169 416 L53 416 L67 0 L172 0 L341 416 L341 416 Z " />
<glyph glyph-name="w" unicode="w" horiz-adv-x="445" d="M210 0 L306 0 L466 416 L359 416 L297 203 L305 416 L224 416 L154 203 L171 416 L55 416 L62 0 L157 0 L221 205 L210 0 L210 0 Z " />
<glyph glyph-name="x" unicode="x" horiz-adv-x="346" d="M366 416 L252 416 L194 315 L174 416 L58 416 L117 215 L-27 0 L86 0 L155 117 L180 0 L297 0 L232 218 L366 416 L366 416 Z " />
<glyph glyph-name="y" unicode="y" horiz-adv-x="316" d="M80 0 C70 -29 51 -44 24 -44 C12 -44 -3 -44 -3 -44 L-20 -136 C-20 -136 19 -136 31 -136 C96 -136 145 -94 179 -9 L352 416 L244 416 L165 160 L180 416 L64 416 L80 0 L80 0 Z " />
<glyph glyph-name="z" unicode="z" horiz-adv-x="279" d="M-5 80 L-19 0 L220 0 L237 96 L116 96 L281 337 L295 416 L67 416 L50 320 L158 320 L-5 80 L-5 80 Z " />
<glyph glyph-name="braceleft" unicode="&#x7b;" horiz-adv-x="310" d="M190 240 C201 303 182 335 132 336 C183 338 214 370 225 432 L246 544 C249 558 255 568 262 575 C269 581 280 584 294 584 L330 584 L347 680 L303 680 C253 680 215 669 188 646 C161 623 142 586 133 536 L111 418 C107 397 95 386 73 386 L41 386 L22 287 L54 287 C76 287 84 276 80 255 L58 136 C49 86 54 49 73 27 C92 4 126 -8 176 -8 L220 -8 L237 88 L201 88 C187 88 178 91 173 98 C168 104 166 114 169 128 L190 240 L190 240 Z " />
<glyph glyph-name="bar" unicode="&#x7c;" horiz-adv-x="172" d="M-26 -8 L65 -8 L198 712 L106 712 L-26 -8 L-26 -8 Z " />
<glyph glyph-name="braceright" unicode="&#x7d;" horiz-adv-x="310" d="M118 432 C107 370 127 338 177 336 C126 335 95 303 83 240 L63 128 C61 114 56 104 49 98 C40 91 30 88 16 88 L-19 88 L-36 -8 L7 -8 C57 -8 96 4 123 27 C150 49 168 86 177 136 L198 255 C202 276 215 287 236 287 L268 287 L286 386 L254 386 C233 386 223 397 227 418 L249 536 C258 586 253 623 234 646 C215 669 180 680 130 680 L86 680 L69 584 L105 584 C119 584 129 581 135 575 C139 568 140 558 138 544 L118 432 L118 432 Z " />
<glyph glyph-name="asciitilde" unicode="&#x7e;" horiz-adv-x="342" d="M88 228 L91 237 C93 243 96 249 100 255 C105 261 111 264 117 264 C126 264 138 257 156 243 C172 228 191 221 212 221 C230 221 246 226 260 235 C275 244 286 255 294 266 C302 278 310 291 317 306 C323 321 326 331 329 337 C330 342 330 347 331 351 L256 351 L254 342 C251 336 248 329 244 323 C239 317 233 314 227 314 C217 314 205 321 187 336 C171 350 152 357 132 357 C114 357 99 353 84 343 C68 334 57 323 49 312 C41 301 34 287 27 272 C21 257 18 247 16 242 C14 236 13 231 12 228 L88 228 L88 228 Z " />
<glyph glyph-name="exclamdown" unicode="&#xa1;" horiz-adv-x="154" d="M175 548 C164 562 149 568 130 568 C112 568 95 562 79 548 C63 535 53 519 50 500 C46 482 50 466 61 452 C72 439 87 432 105 432 C124 432 141 439 157 452 C173 466 182 482 186 500 C189 519 186 535 175 548 L175 548 Z M135 376 L55 376 L-38 0 L89 0 L135 376 Z " />
<glyph glyph-name="cent" unicode="&#xa2;" horiz-adv-x="344" d="M93 -71 L160 -71 L172 -6 C200 2 226 17 248 39 C269 61 282 86 288 116 L298 173 L190 173 L180 114 C177 98 168 89 153 89 C138 89 132 98 135 114 L166 288 C170 305 179 313 194 313 C209 313 215 305 211 288 L201 233 L309 233 L320 290 C325 320 321 345 308 367 C294 388 273 402 248 409 L259 473 L192 473 L181 409 C149 403 122 388 99 366 C75 344 61 317 55 287 L23 112 C18 81 22 54 37 33 C52 11 74 -2 104 -8 L93 -71 L93 -71 Z " />
<glyph glyph-name="sterling" unicode="&#xa3;" horiz-adv-x="381" d="M365 376 L377 440 C384 478 377 509 356 533 C334 556 305 568 268 568 C231 568 196 556 163 530 C132 505 112 473 104 433 L80 301 L32 301 L20 236 L68 236 L44 107 L-3 107 L-23 0 L24 0 L138 0 L288 0 L308 107 L158 107 L182 236 L272 236 L284 301 L194 301 L218 432 C222 452 232 462 248 462 C264 462 270 452 266 432 L256 376 L365 376 L365 376 Z " />
<glyph glyph-name="currency" unicode="&#xa4;" horiz-adv-x="402" d="M40 254 C34 222 38 193 52 168 L-12 114 L25 66 L91 122 C114 107 141 99 172 99 C203 99 233 107 263 124 L309 66 L365 114 L321 168 C343 194 358 224 364 256 C369 287 366 316 352 342 L416 397 L378 444 L311 387 C289 403 262 411 231 411 C201 411 171 403 141 387 L94 444 L38 397 L83 342 C61 316 46 287 40 254 L40 254 Z M166 298 C181 310 195 315 212 315 C229 315 243 310 252 298 C261 287 265 272 262 255 C258 238 250 224 237 212 C223 201 208 195 191 195 C174 195 161 201 151 212 C142 224 138 238 142 255 C145 272 153 287 166 298 L166 298 Z " />
<glyph glyph-name="yen" unicode="&#xa5;" horiz-adv-x="348" d="M62 0 L182 0 L211 167 L294 167 L305 225 L222 225 L224 240 L234 259 L311 259 L321 317 L261 317 L379 560 L261 560 L190 370 L190 560 L63 560 L94 317 L37 317 L27 259 L102 259 L104 240 L102 225 L21 225 L10 167 L91 167 L62 0 L62 0 Z " />
<glyph glyph-name="brokenbar" unicode="&#xa6;" horiz-adv-x="143" d="M183 712 L91 712 L41 440 L133 440 L183 712 Z M-41 -8 L50 -8 L100 264 L8 264 L-41 -8 Z " />
<glyph glyph-name="section" unicode="&#xa7;" horiz-adv-x="410" d="M384 261 C389 291 385 318 371 342 C355 366 327 395 285 428 C247 459 228 486 233 510 C236 527 245 535 261 535 C269 535 274 532 278 527 C281 522 282 515 280 507 L275 479 L387 479 L393 509 C399 546 393 575 370 596 C349 617 319 627 280 627 C240 627 204 616 173 593 C142 571 122 540 115 502 C109 464 115 431 132 402 C79 384 47 346 37 290 C32 259 37 232 51 208 C66 184 95 155 136 122 C175 91 193 64 188 40 C185 24 176 15 160 15 C153 15 147 18 144 23 C140 29 139 35 141 43 L146 71 L34 71 L29 42 C22 4 29 -25 51 -46 C72 -66 103 -77 142 -77 C182 -77 217 -65 248 -43 C280 -20 299 11 306 49 C312 86 306 118 287 147 C342 167 374 205 384 261 L384 261 Z M265 247 C262 227 248 215 224 211 C193 236 175 254 166 267 C157 280 154 292 156 304 C159 324 173 336 197 339 C227 313 247 295 256 282 C265 270 267 258 265 247 L265 247 Z " />
<glyph glyph-name="dieresis" unicode="&#xa8;" horiz-adv-x="275" d="M76 444 C85 433 98 427 115 427 C132 427 147 433 160 444 C173 455 180 469 184 486 C187 503 185 517 176 528 C167 539 154 544 137 544 C120 544 105 539 92 528 C79 517 70 503 67 486 C63 469 67 455 76 444 L76 444 Z M217 444 C226 433 238 427 256 427 C273 427 288 433 301 444 C314 455 321 469 325 486 C328 503 326 517 317 528 C308 539 295 544 278 544 C260 544 246 539 233 528 C220 517 211 503 208 486 C204 469 208 455 217 444 L217 444 Z " />
<glyph glyph-name="copyright" unicode="&#xa9;" horiz-adv-x="659" d="M84 75 C129 20 192 -8 275 -8 C357 -8 431 20 497 76 C564 132 605 201 620 282 C635 363 619 431 574 486 C529 541 465 568 383 568 C301 568 226 540 160 484 C94 428 53 360 38 279 C23 197 38 130 84 75 L84 75 Z M200 440 C251 483 306 504 369 504 C432 504 482 483 516 440 C551 398 562 344 551 280 C539 216 508 163 457 120 C408 78 351 56 288 56 C225 56 177 78 141 120 C107 163 96 216 108 280 C119 344 150 398 200 440 L200 440 Z M394 236 L387 227 C382 222 373 217 362 211 C350 205 337 203 324 203 C303 203 287 210 275 225 C264 240 259 258 264 280 C268 302 279 320 296 335 C312 350 332 358 353 358 C366 358 376 355 385 350 C394 345 401 341 402 338 C405 335 406 332 407 330 L478 385 L469 399 C463 407 450 416 432 425 C413 434 391 439 365 439 C320 439 278 423 242 392 C206 361 184 324 175 279 C167 234 175 197 200 167 C223 137 259 122 305 122 C321 122 337 124 353 128 C368 132 381 137 391 142 C401 147 411 153 420 160 C429 167 435 172 437 175 C440 177 442 179 443 181 L394 236 Z " />
<glyph glyph-name="ordfeminine" unicode="&#xaa;" horiz-adv-x="221" d="M182 317 L213 492 C217 516 213 535 201 550 C187 564 168 571 145 571 C123 571 102 564 83 549 C64 533 53 514 49 491 L47 483 L117 483 L121 501 C122 510 127 514 134 514 C141 514 144 510 143 501 L134 451 C127 461 116 466 100 466 C81 466 64 459 49 445 C34 432 25 413 21 390 L20 387 C16 363 18 344 28 331 C37 319 52 312 72 312 C92 312 118 329 125 361 L118 317 L182 317 Z M0 229 L166 229 L175 280 L9 280 L0 229 Z M121 383 C119 371 113 365 103 365 C93 365 89 371 91 383 L95 400 C97 412 103 418 113 418 C123 418 127 412 125 400 L121 383 Z " />
<glyph glyph-name="guillemotleft" unicode="&#xab;" horiz-adv-x="482" d="M270 400 L221 460 L42 316 L37 284 L162 140 L234 204 L164 302 L270 400 Z M474 400 L425 460 L246 316 L241 284 L366 140 L438 204 L368 302 L474 400 Z " />
<glyph glyph-name="logicalnot" unicode="&#xac;" horiz-adv-x="360" d="M205 113 L301 113 L338 301 L58 301 L41 213 L225 213 L205 113 L205 113 Z " />
<glyph glyph-name="registered" unicode="&#xae;" horiz-adv-x="326" d="M48 331 C70 305 101 291 140 291 C179 291 214 305 246 332 C278 359 299 392 306 431 C313 469 305 502 284 529 C262 555 231 568 192 568 C153 568 118 555 86 528 C54 501 34 468 27 429 C19 390 27 357 48 331 L48 331 Z M107 504 C131 524 157 534 186 534 C214 534 236 524 252 504 C269 484 274 459 269 430 C263 400 249 376 225 356 C201 336 175 326 147 326 C118 326 96 336 80 356 C64 376 58 400 64 430 C69 459 84 484 107 504 L107 504 Z M101 363 L138 363 L146 406 L158 406 L178 363 L219 363 L196 411 C215 418 227 432 231 451 C233 465 230 476 223 485 C215 493 204 497 188 497 L126 497 L101 363 Z M178 467 C191 467 196 461 194 450 C192 439 184 434 171 434 L151 434 L158 467 L178 467 Z " />
<glyph glyph-name="degree" unicode="&#xb0;" horiz-adv-x="288" d="M37 367 C57 343 85 330 122 330 C158 330 191 343 221 368 C252 393 270 423 277 459 C283 495 276 525 255 549 C235 574 206 586 170 586 C134 586 101 574 70 549 C40 523 22 493 15 457 C9 422 16 392 37 367 L37 367 Z M118 494 C130 504 142 509 155 509 C169 509 179 504 186 494 C194 484 196 472 194 458 C191 444 185 433 173 423 C162 413 150 408 136 408 C123 408 113 413 105 423 C98 433 95 444 98 458 C100 472 107 484 118 494 L118 494 Z " />
<glyph glyph-name="plusminus" unicode="&#xb1;" horiz-adv-x="345" d="M113 128 L201 128 L219 228 L315 228 L332 316 L236 316 L254 416 L166 416 L148 316 L52 316 L35 228 L131 228 L113 128 Z M273 0 L289 88 L9 88 L-6 0 L273 0 Z " />
<glyph glyph-name="twosuperior" unicode="&#xb2;" horiz-adv-x="188" d="M147 230 L159 296 L70 296 L156 410 C178 440 190 465 194 487 C199 512 195 532 182 548 C168 563 150 571 126 571 C102 571 80 563 61 547 C41 531 29 511 24 485 L18 451 L89 451 L95 483 C97 496 102 503 111 503 C120 503 123 496 121 483 C118 467 111 452 102 439 L-12 281 L-22 230 L147 230 L147 230 Z " />
<glyph glyph-name="threesuperior" unicode="&#xb3;" horiz-adv-x="213" d="M136 569 C114 569 93 561 74 546 C56 531 44 511 40 488 L34 459 L104 459 L110 490 C112 499 116 503 123 503 C130 503 133 499 131 490 L122 443 C120 432 116 427 109 427 L99 372 C108 372 112 366 110 353 L101 307 C99 295 93 289 84 289 C74 289 70 295 72 307 L78 341 L8 341 L2 307 C-2 282 2 262 15 247 C28 231 46 223 70 223 C94 223 117 231 137 247 C157 263 170 284 174 309 L180 339 C185 364 179 384 165 401 C182 416 194 435 198 458 L204 489 C208 513 204 532 191 547 C178 562 160 569 136 569 L136 569 Z " />
<glyph glyph-name="acute" unicode="&#xb4;" horiz-adv-x="154" d="M78 423 L161 423 L250 559 L134 559 L78 423 L78 423 Z " />
<glyph glyph-name="mu" unicode="&#xb5;" horiz-adv-x="352" d="M195 122 C192 105 181 96 165 96 C149 96 144 105 147 122 L204 416 L92 416 L-12 -128 L99 -128 L122 -8 C122 -8 123 -8 124 -8 C126 -8 127 -8 128 -8 C150 -8 171 7 191 36 L188 0 L284 0 L364 416 L252 416 L195 122 L195 122 Z " />
<glyph glyph-name="paragraph" unicode="&#xb6;" horiz-adv-x="480" d="M115 0 L227 0 L313 460 L361 460 L275 0 L387 0 L492 560 L217 560 C172 560 133 546 101 517 C68 488 47 452 39 409 C32 368 39 333 60 304 C82 275 115 260 160 260 L164 260 L115 0 L115 0 Z " />
<glyph glyph-name="cedilla" unicode="&#xb8;" horiz-adv-x="285" d="M121 0 L125 -3 C127 -6 129 -10 131 -17 C133 -23 133 -30 131 -37 C129 -51 123 -62 112 -70 C102 -78 89 -82 75 -82 C64 -82 56 -81 52 -80 L39 -151 L44 -152 C47 -153 52 -154 58 -155 C65 -155 72 -156 79 -156 C113 -156 142 -146 167 -127 C192 -108 208 -83 214 -52 C216 -39 216 -28 214 -17 C212 -6 209 3 205 9 C201 15 196 21 191 27 C186 32 182 35 180 37 C178 39 176 40 174 40 L121 0 L121 0 Z " />
<glyph glyph-name="onesuperior" unicode="&#xb9;" horiz-adv-x="152" d="M17 507 L44 459 L69 475 L22 225 L94 225 L157 561 L96 561 L17 507 L17 507 Z " />
<glyph glyph-name="ordmasculine" unicode="&#xba;" horiz-adv-x="200" d="M14 394 C10 369 14 350 29 335 C42 320 60 312 84 312 C108 312 131 320 150 335 C170 351 182 371 187 395 L204 490 C208 514 203 534 190 549 C177 564 158 571 134 571 C110 571 88 564 69 548 C49 533 36 513 32 488 L14 394 Z M-7 229 L148 229 L158 280 L2 280 L-7 229 Z M105 494 C107 504 112 509 121 509 C130 509 134 504 132 494 L113 390 C111 380 106 375 97 375 C88 375 84 380 86 390 L105 494 Z " />
<glyph glyph-name="guillemotright" unicode="&#xbb;" horiz-adv-x="483" d="M8 202 L58 142 L236 286 L241 318 L115 462 L44 398 L113 300 L8 202 Z M213 202 L262 142 L440 286 L445 318 L319 462 L248 398 L317 300 L213 202 Z " />
<glyph glyph-name="onequarter" unicode="&#xbc;" horiz-adv-x="460" d="M43 506 L70 458 L93 473 L47 224 L120 224 L183 560 L122 560 L43 506 Z M-15 0 L57 0 L482 560 L410 560 L-15 0 Z M297 0 L361 0 L374 70 L401 70 L412 127 L385 127 L424 336 L356 336 L228 129 L217 70 L310 70 L297 0 Z M285 127 L336 210 L321 127 L285 127 Z " />
<glyph glyph-name="onehalf" unicode="&#xbd;" horiz-adv-x="524" d="M54 501 L81 453 L115 473 L69 224 L141 224 L203 560 L142 560 L54 501 Z M7 0 L79 0 L502 560 L430 560 L7 0 Z M444 0 L456 65 L367 65 L452 180 C475 209 487 235 491 256 C496 281 492 302 478 317 C465 333 447 341 423 341 C399 341 377 333 357 316 C337 301 326 280 321 255 L315 220 L385 220 L391 253 C393 266 399 272 407 272 C416 272 420 266 418 253 C414 236 408 221 398 208 L284 51 L274 0 L444 0 Z " />
<glyph glyph-name="threequarters" unicode="&#xbe;" horiz-adv-x="485" d="M152 565 C130 565 110 557 90 542 C72 527 61 507 56 483 L51 454 L121 454 L127 485 C128 494 132 499 139 499 C146 499 149 494 148 485 L139 438 C137 428 132 423 125 423 L115 368 C125 368 129 361 127 348 L118 302 C116 290 110 285 100 285 C91 285 87 290 89 302 L96 337 L26 337 L19 303 C15 278 19 258 31 242 C45 227 64 219 88 219 C112 219 134 227 154 243 C174 259 187 279 192 304 L197 334 C202 359 196 380 181 396 C199 411 210 430 214 453 L220 485 C224 508 221 528 207 542 C194 557 176 565 152 565 L152 565 Z M12 0 L83 0 L505 560 L434 560 L12 0 Z M324 0 L388 0 L401 70 L428 70 L438 127 L411 127 L451 345 L383 345 L255 129 L244 70 L337 70 L324 0 Z M310 127 L364 220 L347 127 L310 127 Z " />
<glyph glyph-name="questiondown" unicode="&#xbf;" horiz-adv-x="297" d="M198 32 C230 59 250 94 258 138 L267 184 L158 184 L149 139 C145 115 135 103 119 103 C102 103 96 115 100 139 C105 161 115 184 131 207 C149 231 166 255 182 279 C200 303 211 328 215 352 L220 376 L117 376 L114 360 C111 343 103 324 90 306 C78 287 65 271 52 256 C38 242 25 223 12 200 C0 177 -10 153 -15 127 C-23 87 -16 55 5 30 C26 5 55 -8 93 -8 C131 -8 166 5 198 32 L198 32 Z M249 548 C239 562 224 568 205 568 C187 568 170 562 153 548 C137 535 127 519 124 500 C120 482 124 466 135 452 C146 439 161 432 179 432 C198 432 215 439 231 452 C247 466 256 482 260 500 C263 519 260 535 249 548 L249 548 Z " />
<glyph glyph-name="Agrave" unicode="&#xc0;" horiz-adv-x="356" d="M287 560 L171 560 L-39 0 L76 0 L105 92 L173 92 L168 0 L292 0 L287 560 Z M178 188 L136 188 L186 349 L178 188 Z M239 760 L123 760 L162 624 L246 624 L239 760 Z " />
<glyph glyph-name="Aacute" unicode="&#xc1;" horiz-adv-x="356" d="M287 560 L171 560 L-39 0 L76 0 L105 92 L173 92 L168 0 L292 0 L287 560 Z M178 188 L136 188 L186 349 L178 188 Z M181 623 L264 623 L353 759 L237 759 L181 623 Z " />
<glyph glyph-name="Acircumflex" unicode="&#xc2;" horiz-adv-x="356" d="M287 560 L171 560 L-39 0 L76 0 L105 92 L173 92 L168 0 L292 0 L287 560 Z M178 188 L136 188 L186 349 L178 188 Z M102 624 L181 624 L230 682 L256 624 L341 624 L288 760 L208 760 L102 624 Z " />
<glyph glyph-name="Atilde" unicode="&#xc3;" horiz-adv-x="356" d="M287 560 L171 560 L-39 0 L76 0 L105 92 L173 92 L168 0 L292 0 L287 560 Z M178 188 L136 188 L186 349 L178 188 Z M142 597 L145 605 C146 612 149 618 155 624 C159 630 164 633 171 633 C180 633 193 626 209 612 C226 597 245 590 266 590 C283 590 300 595 313 604 C329 614 340 624 349 635 C357 647 365 660 371 675 C378 690 382 700 383 706 C385 711 386 716 387 720 L311 720 L308 711 C307 705 304 698 298 692 C294 686 289 683 282 683 C273 683 259 690 243 705 C226 719 207 726 187 726 C169 726 154 722 139 712 C124 703 113 693 104 681 C96 670 88 656 82 641 C75 626 71 616 70 611 C68 605 67 600 66 597 L142 597 Z " />
<glyph glyph-name="Adieresis" unicode="&#xc4;" horiz-adv-x="356" d="M287 560 L171 560 L-39 0 L76 0 L105 92 L173 92 L168 0 L292 0 L287 560 Z M178 188 L136 188 L186 349 L178 188 Z M115 644 C124 633 137 627 154 627 C171 627 186 633 199 644 C212 655 219 669 223 686 C226 703 224 717 215 728 C206 739 193 744 176 744 C159 744 144 739 131 728 C118 717 109 703 106 686 C102 669 106 655 115 644 L115 644 Z M256 644 C265 633 277 627 295 627 C312 627 327 633 340 644 C353 655 360 669 364 686 C367 703 365 717 356 728 C347 739 334 744 317 744 C299 744 285 739 272 728 C259 717 250 703 247 686 C243 669 247 655 256 644 L256 644 Z " />
<glyph glyph-name="Aring" unicode="&#xc5;" horiz-adv-x="356" d="M287 560 L171 560 L-39 0 L76 0 L105 92 L173 92 L168 0 L292 0 L287 560 Z M178 188 L136 188 L186 349 L178 188 Z M174 622 C186 609 203 602 225 602 C247 602 266 609 283 622 C299 636 311 653 315 674 C318 695 314 712 302 726 C291 739 274 746 252 746 C230 746 211 739 193 726 C177 712 166 695 163 674 C159 653 162 636 174 622 L174 622 Z M222 693 C228 698 235 700 243 700 C251 700 257 698 261 693 C265 688 267 681 266 674 C264 667 260 660 254 655 C248 650 242 648 234 648 C226 648 219 650 215 655 C211 660 210 667 212 674 C213 681 216 688 222 693 L222 693 Z " />
<glyph glyph-name="AE" unicode="&#xc6;" horiz-adv-x="464" d="M403 0 L424 120 L308 120 L327 230 L415 230 L434 342 L346 342 L363 440 L475 440 L496 560 L181 560 L-40 0 L76 0 L110 92 L183 92 L167 0 L403 0 Z M145 188 L247 460 L199 188 L145 188 Z " />
<glyph glyph-name="Ccedilla" unicode="&#xc7;" horiz-adv-x="342" d="M336 348 L351 433 C359 475 351 507 329 531 C307 556 276 568 237 568 C196 568 160 555 126 529 C93 502 73 468 66 426 L12 130 C5 88 13 55 35 29 C58 4 90 -8 130 -8 C170 -8 205 4 238 30 C269 55 289 88 296 129 L313 220 L197 220 L181 132 C177 113 168 104 152 104 C136 104 129 113 133 132 L186 428 C189 446 199 456 215 456 C231 456 237 446 234 428 L220 348 L336 348 Z M160 0 L164 -3 C166 -6 168 -10 170 -17 C172 -23 172 -30 170 -37 C168 -51 162 -62 151 -70 C141 -78 128 -82 114 -82 C103 -82 95 -81 91 -80 L78 -151 L83 -152 C86 -153 91 -154 97 -155 C104 -155 111 -156 118 -156 C152 -156 181 -146 206 -127 C231 -108 247 -83 253 -52 C255 -39 255 -28 253 -17 C251 -6 248 3 244 9 C240 15 235 21 230 27 C225 32 221 35 219 37 C217 39 215 40 213 40 L160 0 Z " />
<glyph glyph-name="Egrave" unicode="&#xc8;" horiz-adv-x="298" d="M224 0 L246 120 L130 120 L150 229 L238 229 L259 341 L171 341 L189 440 L301 440 L323 560 L91 560 L-11 0 L224 0 Z M223 760 L107 760 L146 624 L230 624 L223 760 Z " />
<glyph glyph-name="Eacute" unicode="&#xc9;" horiz-adv-x="298" d="M224 0 L246 120 L130 120 L150 229 L238 229 L259 341 L171 341 L189 440 L301 440 L323 560 L91 560 L-11 0 L224 0 Z M178 623 L261 623 L350 759 L234 759 L178 623 Z " />
<glyph glyph-name="Ecircumflex" unicode="&#xca;" horiz-adv-x="298" d="M224 0 L246 120 L130 120 L150 229 L238 229 L259 341 L171 341 L189 440 L301 440 L323 560 L91 560 L-11 0 L224 0 Z M86 624 L165 624 L214 682 L240 624 L325 624 L272 760 L192 760 L86 624 Z " />
<glyph glyph-name="Edieresis" unicode="&#xcb;" horiz-adv-x="298" d="M224 0 L246 120 L130 120 L150 229 L238 229 L259 341 L171 341 L189 440 L301 440 L323 560 L91 560 L-11 0 L224 0 Z M99 644 C108 633 121 627 138 627 C155 627 170 633 183 644 C196 655 203 669 207 686 C210 703 208 717 199 728 C190 739 177 744 160 744 C143 744 128 739 115 728 C102 717 93 703 90 686 C86 669 90 655 99 644 L99 644 Z M240 644 C249 633 261 627 279 627 C296 627 311 633 324 644 C337 655 344 669 348 686 C351 703 349 717 340 728 C331 739 318 744 301 744 C283 744 269 739 256 728 C243 717 234 703 231 686 C227 669 231 655 240 644 L240 644 Z " />
<glyph glyph-name="Igrave" unicode="&#xcc;" horiz-adv-x="202" d="M-12 0 L109 0 L214 560 L92 560 L-12 0 Z M161 760 L45 760 L84 624 L168 624 L161 760 Z " />
<glyph glyph-name="Iacute" unicode="&#xcd;" horiz-adv-x="202" d="M-12 0 L109 0 L214 560 L92 560 L-12 0 Z M116 623 L199 623 L288 759 L172 759 L116 623 Z " />
<glyph glyph-name="Icircumflex" unicode="&#xce;" horiz-adv-x="202" d="M-12 0 L109 0 L214 560 L92 560 L-12 0 Z M24 624 L103 624 L152 682 L178 624 L263 624 L210 760 L130 760 L24 624 Z " />
<glyph glyph-name="Idieresis" unicode="&#xcf;" horiz-adv-x="202" d="M-12 0 L109 0 L214 560 L92 560 L-12 0 Z M37 644 C46 633 59 627 76 627 C93 627 108 633 121 644 C134 655 141 669 145 686 C148 703 146 717 137 728 C128 739 115 744 98 744 C81 744 66 739 53 728 C40 717 31 703 28 686 C24 669 28 655 37 644 L37 644 Z M178 644 C187 633 199 627 217 627 C234 627 249 633 262 644 C275 655 282 669 286 686 C289 703 287 717 278 728 C269 739 256 744 239 744 C221 744 207 739 194 728 C181 717 172 703 169 686 C165 669 169 655 178 644 L178 644 Z " />
<glyph glyph-name="Eth" unicode="&#xd0;" horiz-adv-x="400" d="M30 0 L163 0 C206 0 243 12 274 37 C305 62 324 97 333 142 L386 420 C395 465 389 500 368 524 C348 548 316 560 273 560 L137 560 L90 312 L36 312 L24 251 L78 251 L30 0 Z M218 468 L248 468 C281 468 294 450 287 412 L236 147 C229 109 208 91 175 91 L145 91 L176 251 L228 251 L240 312 L188 312 L218 468 Z " />
<glyph glyph-name="Ntilde" unicode="&#xd1;" horiz-adv-x="380" d="M184 0 L288 0 L391 560 L287 560 L237 286 L203 560 L91 560 L-11 0 L92 0 L147 299 L184 0 Z M154 603 L157 611 C158 618 161 624 167 630 C171 636 176 639 183 639 C192 639 205 632 221 618 C238 603 257 596 278 596 C295 596 312 601 325 610 C341 620 352 630 361 641 C369 653 377 666 383 681 C390 696 394 706 395 712 C397 717 398 722 399 726 L323 726 L320 717 C319 711 316 704 310 698 C306 692 301 689 294 689 C285 689 271 696 255 711 C238 725 219 732 199 732 C181 732 166 728 151 718 C136 709 125 699 116 687 C108 676 100 662 94 647 C87 632 83 622 82 617 C80 611 79 606 78 603 L154 603 Z " />
<glyph glyph-name="Ograve" unicode="&#xd2;" horiz-adv-x="376" d="M14 134 C6 91 14 56 37 31 C60 5 94 -8 136 -8 C178 -8 215 5 249 32 C282 59 303 94 310 137 L361 425 C369 469 361 503 339 529 C315 555 282 568 240 568 C198 568 160 554 126 527 C93 500 72 465 65 422 L14 134 Z M185 424 C189 445 201 456 219 456 C238 456 245 445 241 424 L190 136 C186 114 175 104 156 104 C138 104 130 114 134 136 L185 424 Z M248 741 L132 741 L171 605 L255 605 L248 741 Z " />
<glyph glyph-name="Oacute" unicode="&#xd3;" horiz-adv-x="376" d="M14 134 C6 91 14 56 37 31 C60 5 94 -8 136 -8 C178 -8 215 5 249 32 C282 59 303 94 310 137 L361 425 C369 469 361 503 339 529 C315 555 282 568 240 568 C198 568 160 554 126 527 C93 500 72 465 65 422 L14 134 Z M185 424 C189 445 201 456 219 456 C238 456 245 445 241 424 L190 136 C186 114 175 104 156 104 C138 104 130 114 134 136 L185 424 Z M198 596 L281 596 L370 732 L254 732 L198 596 Z " />
<glyph glyph-name="Ocircumflex" unicode="&#xd4;" horiz-adv-x="376" d="M14 134 C6 91 14 56 37 31 C60 5 94 -8 136 -8 C178 -8 215 5 249 32 C282 59 303 94 310 137 L361 425 C369 469 361 503 339 529 C315 555 282 568 240 568 C198 568 160 554 126 527 C93 500 72 465 65 422 L14 134 Z M185 424 C189 445 201 456 219 456 C238 456 245 445 241 424 L190 136 C186 114 175 104 156 104 C138 104 130 114 134 136 L185 424 Z M114 599 L193 599 L242 657 L268 599 L353 599 L300 735 L220 735 L114 599 Z " />
<glyph glyph-name="Otilde" unicode="&#xd5;" horiz-adv-x="376" d="M14 134 C6 91 14 56 37 31 C60 5 94 -8 136 -8 C178 -8 215 5 249 32 C282 59 303 94 310 137 L361 425 C369 469 361 503 339 529 C315 555 282 568 240 568 C198 568 160 554 126 527 C93 500 72 465 65 422 L14 134 Z M185 424 C189 445 201 456 219 456 C238 456 245 445 241 424 L190 136 C186 114 175 104 156 104 C138 104 130 114 134 136 L185 424 Z M151 605 L154 613 C155 620 158 626 164 632 C168 638 173 641 180 641 C189 641 202 634 218 620 C235 605 254 598 275 598 C292 598 309 603 322 612 C338 622 349 632 358 643 C366 655 374 668 380 683 C387 698 391 708 392 714 C394 719 395 724 396 728 L320 728 L317 719 C316 713 313 706 307 700 C303 694 298 691 291 691 C282 691 268 698 252 713 C235 727 216 734 196 734 C178 734 163 730 148 720 C133 711 122 701 113 689 C105 678 97 664 91 649 C84 634 80 624 79 619 C77 613 76 608 75 605 L151 605 Z " />
<glyph glyph-name="Odieresis" unicode="&#xd6;" horiz-adv-x="376" d="M14 134 C6 91 14 56 37 31 C60 5 94 -8 136 -8 C178 -8 215 5 249 32 C282 59 303 94 310 137 L361 425 C369 469 361 503 339 529 C315 555 282 568 240 568 C198 568 160 554 126 527 C93 500 72 465 65 422 L14 134 Z M185 424 C189 445 201 456 219 456 C238 456 245 445 241 424 L190 136 C186 114 175 104 156 104 C138 104 130 114 134 136 L185 424 Z M129 615 C138 604 151 598 168 598 C185 598 200 604 213 615 C226 626 233 640 237 657 C240 674 238 688 229 699 C220 710 207 715 190 715 C173 715 158 710 145 699 C132 688 123 674 120 657 C116 640 120 626 129 615 L129 615 Z M270 615 C279 604 291 598 309 598 C326 598 341 604 354 615 C367 626 374 640 378 657 C381 674 379 688 370 699 C361 710 348 715 331 715 C313 715 299 710 286 699 C273 688 264 674 261 657 C257 640 261 626 270 615 L270 615 Z " />
<glyph glyph-name="multiply" unicode="&#xd7;" horiz-adv-x="306" d="M203 142 L278 205 L212 286 L309 366 L258 429 L161 348 L95 429 L21 366 L87 286 L-9 205 L40 142 L138 224 L203 142 L203 142 Z " />
<glyph glyph-name="Oslash" unicode="&#xd8;" horiz-adv-x="376" d="M400 585 L348 584 L324 544 C303 560 276 568 243 568 C201 568 163 555 129 528 C96 501 74 466 66 423 L12 134 C6 102 9 75 21 51 L-24 -24 L27 -23 L50 15 C72 0 100 -8 133 -8 C175 -8 213 6 247 33 C281 60 301 95 309 138 L363 426 C369 458 366 486 354 510 L400 585 Z M186 424 C190 446 202 456 220 456 C239 456 246 446 242 424 L239 406 L159 276 L186 424 Z M155 104 C137 104 129 115 133 137 L136 155 L217 286 L189 136 C185 115 174 104 155 104 L155 104 Z " />
<glyph glyph-name="Ugrave" unicode="&#xd9;" horiz-adv-x="368" d="M89 560 L14 130 C7 88 15 55 38 29 C60 4 92 -8 133 -8 C173 -8 210 5 243 31 C275 57 295 91 303 133 L377 560 L258 560 L183 132 C180 113 171 104 155 104 C139 104 132 113 135 132 L210 560 L89 560 Z M240 745 L124 745 L163 609 L247 609 L240 745 Z " />
<glyph glyph-name="Uacute" unicode="&#xda;" horiz-adv-x="368" d="M89 560 L14 130 C7 88 15 55 38 29 C60 4 92 -8 133 -8 C173 -8 210 5 243 31 C275 57 295 91 303 133 L377 560 L258 560 L183 132 C180 113 171 104 155 104 C139 104 132 113 135 132 L210 560 L89 560 Z M196 593 L279 593 L368 729 L252 729 L196 593 Z " />
<glyph glyph-name="Ucircumflex" unicode="&#xdb;" horiz-adv-x="368" d="M89 560 L14 130 C7 88 15 55 38 29 C60 4 92 -8 133 -8 C173 -8 210 5 243 31 C275 57 295 91 303 133 L377 560 L258 560 L183 132 C180 113 171 104 155 104 C139 104 132 113 135 132 L210 560 L89 560 Z M109 606 L188 606 L237 664 L263 606 L348 606 L295 742 L215 742 L109 606 Z " />
<glyph glyph-name="Udieresis" unicode="&#xdc;" horiz-adv-x="368" d="M89 560 L14 130 C7 88 15 55 38 29 C60 4 92 -8 133 -8 C173 -8 210 5 243 31 C275 57 295 91 303 133 L377 560 L258 560 L183 132 C180 113 171 104 155 104 C139 104 132 113 135 132 L210 560 L89 560 Z M128 614 C137 603 150 597 167 597 C184 597 199 603 212 614 C225 625 232 639 236 656 C239 673 237 687 228 698 C219 709 206 714 189 714 C172 714 157 709 144 698 C131 687 122 673 119 656 C115 639 119 625 128 614 L128 614 Z M269 614 C278 603 290 597 308 597 C325 597 340 603 353 614 C366 625 373 639 377 656 C380 673 378 687 369 698 C360 709 347 714 330 714 C312 714 298 709 285 698 C272 687 263 673 260 656 C256 639 260 625 269 614 L269 614 Z " />
<glyph glyph-name="Yacute" unicode="&#xdd;" horiz-adv-x="334" d="M53 0 L173 0 L211 200 L378 560 L258 560 L186 360 L190 560 L62 560 L91 200 L53 0 Z M175 590 L258 590 L347 726 L231 726 L175 590 Z " />
<glyph glyph-name="Thorn" unicode="&#xde;" horiz-adv-x="356" d="M-12 0 L85 0 L107 118 L136 118 C182 118 220 131 252 156 C284 182 304 219 313 267 L323 322 C333 370 326 406 306 431 C285 455 251 467 205 467 L173 467 L190 560 L92 560 L-12 0 Z M156 380 L186 380 C219 380 233 361 226 324 L214 262 C207 225 187 206 154 206 L124 206 L156 380 Z " />
<glyph glyph-name="germandbls" unicode="&#xdf;" horiz-adv-x="352" d="M114 -8 L144 -8 C180 -8 213 4 243 28 C272 52 291 84 298 124 L319 232 C324 261 322 286 313 307 C303 328 289 344 268 354 L349 484 L347 492 C346 498 342 505 338 514 C333 522 326 530 317 538 C310 546 298 553 283 559 C268 565 250 568 231 568 C192 568 157 555 125 530 C94 505 75 472 68 432 L-12 0 L84 0 L164 429 C167 444 173 455 183 464 C191 472 202 476 214 476 C233 476 244 470 248 456 L185 350 L172 285 L188 285 C201 285 211 280 216 272 C222 263 224 251 221 236 L202 132 C199 117 193 105 183 96 C175 88 164 84 151 84 C142 84 131 84 131 84 L114 -8 L114 -8 Z " />
<glyph glyph-name="agrave" unicode="&#xe0;" horiz-adv-x="344" d="M265 0 L320 298 C327 335 320 366 298 389 C276 412 248 424 211 424 C176 424 142 412 112 387 C81 363 63 332 56 295 L165 304 C168 320 178 328 192 328 C206 328 211 320 208 304 L193 223 C181 240 162 248 136 248 C105 248 78 237 54 215 C30 194 14 164 7 127 L4 111 C-2 73 2 44 17 23 C31 3 54 -8 85 -8 C120 -8 167 17 179 81 L164 0 L265 0 Z M173 112 C169 91 158 80 140 80 C121 80 113 91 117 112 L121 136 C125 158 137 168 156 168 C174 168 181 158 177 136 L173 112 Z M221 581 L105 581 L144 445 L228 445 L221 581 Z " />
<glyph glyph-name="aacute" unicode="&#xe1;" horiz-adv-x="344" d="M265 0 L320 298 C327 335 320 366 298 389 C276 412 248 424 211 424 C176 424 142 412 112 387 C81 363 63 332 56 295 L165 304 C168 320 178 328 192 328 C206 328 211 320 208 304 L193 223 C181 240 162 248 136 248 C105 248 78 237 54 215 C30 194 14 164 7 127 L4 111 C-2 73 2 44 17 23 C31 3 54 -8 85 -8 C120 -8 167 17 179 81 L164 0 L265 0 Z M173 112 C169 91 158 80 140 80 C121 80 113 91 117 112 L121 136 C125 158 137 168 156 168 C174 168 181 158 177 136 L173 112 Z M176 448 L259 448 L348 584 L232 584 L176 448 Z " />
<glyph glyph-name="acircumflex" unicode="&#xe2;" horiz-adv-x="345" d="M265 0 L320 298 C327 335 320 366 298 389 C276 412 248 424 211 424 C176 424 142 412 112 387 C81 363 63 332 56 295 L165 304 C168 320 178 328 192 328 C206 328 211 320 208 304 L193 223 C181 240 162 248 136 248 C105 248 78 237 54 215 C30 194 14 164 7 127 L4 111 C-2 73 2 44 17 23 C31 3 54 -8 85 -8 C120 -8 167 17 179 81 L164 0 L265 0 Z M173 112 C169 91 158 80 140 80 C121 80 113 91 117 112 L121 136 C125 158 137 168 156 168 C174 168 181 158 177 136 L173 112 Z M93 444 L172 444 L221 502 L247 444 L332 444 L279 580 L199 580 L93 444 Z " />
<glyph glyph-name="atilde" unicode="&#xe3;" horiz-adv-x="344" d="M265 0 L320 298 C327 335 320 366 298 389 C276 412 248 424 211 424 C176 424 142 412 112 387 C81 363 63 332 56 295 L165 304 C168 320 178 328 192 328 C206 328 211 320 208 304 L193 223 C181 240 162 248 136 248 C105 248 78 237 54 215 C30 194 14 164 7 127 L4 111 C-2 73 2 44 17 23 C31 3 54 -8 85 -8 C120 -8 167 17 179 81 L164 0 L265 0 Z M173 112 C169 91 158 80 140 80 C121 80 113 91 117 112 L121 136 C125 158 137 168 156 168 C174 168 181 158 177 136 L173 112 Z M127 452 L130 460 C131 467 134 473 140 479 C144 485 149 488 156 488 C165 488 178 481 194 467 C211 452 230 445 251 445 C268 445 285 450 298 459 C314 469 325 479 334 490 C342 502 350 515 356 530 C363 545 367 555 368 561 C370 566 371 571 372 575 L296 575 L293 566 C292 560 289 553 283 547 C279 541 274 538 267 538 C258 538 244 545 228 560 C211 574 192 581 172 581 C154 581 139 577 124 567 C109 558 98 548 89 536 C81 525 73 511 67 496 C60 481 56 471 55 466 C53 460 52 455 51 452 L127 452 Z " />
<glyph glyph-name="adieresis" unicode="&#xe4;" horiz-adv-x="344" d="M265 0 L320 298 C327 335 320 366 298 389 C276 412 248 424 211 424 C176 424 142 412 112 387 C81 363 63 332 56 295 L165 304 C168 320 178 328 192 328 C206 328 211 320 208 304 L193 223 C181 240 162 248 136 248 C105 248 78 237 54 215 C30 194 14 164 7 127 L4 111 C-2 73 2 44 17 23 C31 3 54 -8 85 -8 C120 -8 167 17 179 81 L164 0 L265 0 Z M173 112 C169 91 158 80 140 80 C121 80 113 91 117 112 L121 136 C125 158 137 168 156 168 C174 168 181 158 177 136 L173 112 Z M104 461 C113 450 126 444 143 444 C160 444 175 450 188 461 C201 472 208 486 212 503 C215 520 213 534 204 545 C195 556 182 561 165 561 C148 561 133 556 120 545 C107 534 98 520 95 503 C91 486 95 472 104 461 L104 461 Z M245 461 C254 450 266 444 284 444 C301 444 316 450 329 461 C342 472 349 486 353 503 C356 520 354 534 345 545 C336 556 323 561 306 561 C288 561 274 556 261 545 C248 534 239 520 236 503 C232 486 236 472 245 461 L245 461 Z " />
<glyph glyph-name="aring" unicode="&#xe5;" horiz-adv-x="345" d="M265 0 L320 298 C327 335 320 366 298 389 C276 412 248 424 211 424 C176 424 142 412 112 387 C81 363 63 332 56 295 L165 304 C168 320 178 328 192 328 C206 328 211 320 208 304 L193 223 C181 240 162 248 136 248 C105 248 78 237 54 215 C30 194 14 164 7 127 L4 111 C-2 73 2 44 17 23 C31 3 54 -8 85 -8 C120 -8 167 17 179 81 L164 0 L265 0 Z M173 112 C169 91 158 80 140 80 C121 80 113 91 117 112 L121 136 C125 158 137 168 156 168 C174 168 181 158 177 136 L173 112 Z M157 422 C169 409 186 402 208 402 C230 402 249 409 266 422 C282 436 294 453 298 474 C301 495 297 512 285 526 C274 539 257 546 235 546 C213 546 194 539 176 526 C160 512 149 495 146 474 C142 453 145 436 157 422 L157 422 Z M205 493 C211 498 218 500 226 500 C234 500 240 498 244 493 C248 488 250 481 249 474 C247 467 243 460 237 455 C231 450 225 448 217 448 C209 448 202 450 198 455 C194 460 193 467 195 474 C196 481 199 488 205 493 L205 493 Z " />
<glyph glyph-name="ae" unicode="&#xe6;" horiz-adv-x="498" d="M454 187 L473 297 C480 334 473 365 451 388 C429 412 400 423 363 423 C333 423 306 414 281 396 C264 414 239 423 208 423 C172 423 140 411 110 387 C79 362 61 331 55 294 L51 275 L159 275 L164 303 C167 319 175 327 190 327 C204 327 210 319 207 303 L193 222 C181 239 161 247 135 247 C104 247 77 236 54 214 C30 193 15 163 8 126 L6 110 C0 72 4 43 20 22 C36 1 61 -9 95 -9 C143 -9 179 4 204 29 C220 4 247 -9 285 -9 C322 -9 356 3 386 28 C418 53 436 84 443 121 L448 155 L344 155 L339 123 C337 115 334 108 328 103 C323 98 316 95 309 95 C301 95 296 98 291 103 C288 108 286 115 288 123 L299 187 L454 187 Z M174 111 C170 90 159 79 140 79 C122 79 114 90 118 111 L122 135 C126 157 138 167 156 167 C175 167 182 157 178 135 L174 111 Z M320 307 C321 316 326 323 331 328 C336 333 343 335 351 335 C358 335 363 333 368 328 C372 323 372 316 371 307 L363 259 L312 259 L320 307 Z " />
<glyph glyph-name="ccedilla" unicode="&#xe7;" horiz-adv-x="344" d="M191 180 L180 121 C177 104 168 96 153 96 C138 96 132 104 135 121 L168 295 C171 312 179 320 194 320 C209 320 216 312 213 295 L202 240 L309 240 L320 297 C327 335 321 366 300 389 C280 412 252 424 216 424 C178 424 143 412 113 387 C81 363 63 332 55 294 L23 119 C16 81 22 51 44 28 C66 4 94 -8 132 -8 C168 -8 202 5 232 29 C263 54 281 85 288 123 L298 180 L191 180 Z M155 0 L159 -3 C161 -6 163 -10 165 -17 C167 -23 167 -30 165 -37 C163 -51 157 -62 146 -70 C136 -78 123 -82 109 -82 C98 -82 90 -81 86 -80 L73 -151 L78 -152 C81 -153 86 -154 92 -155 C99 -155 106 -156 113 -156 C147 -156 176 -146 201 -127 C226 -108 242 -83 248 -52 C250 -39 250 -28 248 -17 C246 -6 243 3 239 9 C235 15 230 21 225 27 C220 32 216 35 214 37 C212 39 210 40 208 40 L155 0 Z " />
<glyph glyph-name="egrave" unicode="&#xe8;" horiz-adv-x="347" d="M303 188 L323 298 C329 335 322 366 300 389 C279 412 250 424 213 424 C176 424 142 412 112 387 C80 363 62 332 55 295 L23 119 C17 81 23 51 45 28 C67 4 96 -8 133 -8 C170 -8 203 5 234 29 C265 54 284 85 291 122 L297 156 L193 156 L187 124 C186 116 182 109 177 104 C171 99 164 96 156 96 C149 96 144 99 140 104 C136 109 135 116 136 124 L148 188 L303 188 Z M169 304 C170 313 174 320 180 325 C185 330 192 332 199 332 C207 332 212 330 217 325 C220 320 221 313 220 304 L212 260 L161 260 L169 304 Z M228 588 L112 588 L151 452 L235 452 L228 588 Z " />
<glyph glyph-name="eacute" unicode="&#xe9;" horiz-adv-x="347" d="M303 188 L323 298 C329 335 322 366 300 389 C279 412 250 424 213 424 C176 424 142 412 112 387 C80 363 62 332 55 295 L23 119 C17 81 23 51 45 28 C67 4 96 -8 133 -8 C170 -8 203 5 234 29 C265 54 284 85 291 122 L297 156 L193 156 L187 124 C186 116 182 109 177 104 C171 99 164 96 156 96 C149 96 144 99 140 104 C136 109 135 116 136 124 L148 188 L303 188 Z M169 304 C170 313 174 320 180 325 C185 330 192 332 199 332 C207 332 212 330 217 325 C220 320 221 313 220 304 L212 260 L161 260 L169 304 Z M178 440 L261 440 L350 576 L234 576 L178 440 Z " />
<glyph glyph-name="ecircumflex" unicode="&#xea;" horiz-adv-x="347" d="M303 188 L323 298 C329 335 322 366 300 389 C279 412 250 424 213 424 C176 424 142 412 112 387 C80 363 62 332 55 295 L23 119 C17 81 23 51 45 28 C67 4 96 -8 133 -8 C170 -8 203 5 234 29 C265 54 284 85 291 122 L297 156 L193 156 L187 124 C186 116 182 109 177 104 C171 99 164 96 156 96 C149 96 144 99 140 104 C136 109 135 116 136 124 L148 188 L303 188 Z M169 304 C170 313 174 320 180 325 C185 330 192 332 199 332 C207 332 212 330 217 325 C220 320 221 313 220 304 L212 260 L161 260 L169 304 Z M101 447 L180 447 L229 505 L255 447 L340 447 L287 583 L207 583 L101 447 Z " />
<glyph glyph-name="edieresis" unicode="&#xeb;" horiz-adv-x="347" d="M303 188 L323 298 C329 335 322 366 300 389 C279 412 250 424 213 424 C176 424 142 412 112 387 C80 363 62 332 55 295 L23 119 C17 81 23 51 45 28 C67 4 96 -8 133 -8 C170 -8 203 5 234 29 C265 54 284 85 291 122 L297 156 L193 156 L187 124 C186 116 182 109 177 104 C171 99 164 96 156 96 C149 96 144 99 140 104 C136 109 135 116 136 124 L148 188 L303 188 Z M169 304 C170 313 174 320 180 325 C185 330 192 332 199 332 C207 332 212 330 217 325 C220 320 221 313 220 304 L212 260 L161 260 L169 304 Z M110 461 C119 450 132 444 149 444 C166 444 181 450 194 461 C207 472 214 486 218 503 C221 520 219 534 210 545 C201 556 188 561 171 561 C154 561 139 556 126 545 C113 534 104 520 101 503 C97 486 101 472 110 461 L110 461 Z M251 461 C260 450 272 444 290 444 C307 444 322 450 335 461 C348 472 355 486 359 503 C362 520 360 534 351 545 C342 556 329 561 312 561 C294 561 280 556 267 545 C254 534 245 520 242 503 C238 486 242 472 251 461 L251 461 Z " />
<glyph glyph-name="igrave" unicode="&#xec;" horiz-adv-x="194" d="M115 0 L192 416 L78 416 L1 0 L115 0 Z M149 582 L33 582 L72 446 L156 446 L149 582 Z " />
<glyph glyph-name="iacute" unicode="&#xed;" horiz-adv-x="194" d="M117 0 L190 416 L76 416 L3 0 L117 0 Z M97 435 L180 435 L269 571 L153 571 L97 435 Z " />
<glyph glyph-name="icircumflex" unicode="&#xee;" horiz-adv-x="194" d="M116 0 L191 416 L77 416 L2 0 L116 0 Z M22 458 L101 458 L150 516 L176 458 L261 458 L208 594 L128 594 L22 458 Z " />
<glyph glyph-name="idieresis" unicode="&#xef;" horiz-adv-x="194" d="M116 0 L191 416 L77 416 L2 0 L116 0 Z M38 484 C47 473 60 467 77 467 C94 467 109 473 122 484 C135 495 142 509 146 526 C149 543 147 557 138 568 C129 579 116 584 99 584 C82 584 67 579 54 568 C41 557 32 543 29 526 C25 509 29 495 38 484 L38 484 Z M179 484 C188 473 200 467 218 467 C235 467 250 473 263 484 C276 495 283 509 287 526 C290 543 288 557 279 568 C270 579 257 584 240 584 C222 584 208 579 195 568 C182 557 173 543 170 526 C166 509 170 495 179 484 L179 484 Z " />
<glyph glyph-name="eth" unicode="&#xf0;" horiz-adv-x="345" d="M301 368 L280 471 L321 494 L301 537 L271 519 L262 560 L148 560 L170 461 L132 440 L152 397 L180 413 L200 322 C193 350 185 368 164 368 C126 369 96 357 70 334 C46 311 30 280 23 240 L3 131 C-4 91 3 58 27 32 C50 5 82 -8 121 -8 C160 -8 195 5 227 30 C260 56 280 88 287 128 L301 201 C312 264 312 320 301 368 L301 368 Z M174 135 C172 125 168 117 162 111 C156 106 148 103 139 103 C131 103 125 106 121 111 C116 117 115 125 117 135 L136 238 C138 248 142 255 149 261 C155 267 162 270 170 270 C179 270 186 267 190 261 C194 255 195 248 193 238 L174 135 L174 135 Z " />
<glyph glyph-name="ntilde" unicode="&#xf1;" horiz-adv-x="352" d="M167 294 C170 312 179 320 196 320 C211 320 218 312 215 294 L161 0 L273 0 L329 310 C336 348 334 377 321 396 C309 415 287 424 260 424 C222 424 173 391 162 328 L178 416 L77 416 L1 0 L113 0 L167 294 Z M145 452 L148 460 C149 467 152 473 158 479 C162 485 167 488 174 488 C183 488 196 481 212 467 C229 452 248 445 269 445 C286 445 303 450 316 459 C332 469 343 479 352 490 C360 502 368 515 374 530 C381 545 385 555 386 561 C388 566 389 571 390 575 L314 575 L311 566 C310 560 307 553 301 547 C297 541 292 538 285 538 C276 538 262 545 246 560 C229 574 210 581 190 581 C172 581 157 577 142 567 C127 558 116 548 107 536 C99 525 91 511 85 496 C78 481 74 471 73 466 C71 460 70 455 69 452 L145 452 Z " />
<glyph glyph-name="ograve" unicode="&#xf2;" horiz-adv-x="356" d="M24 123 C16 84 23 52 45 28 C67 4 97 -8 135 -8 C174 -8 209 5 241 30 C273 55 292 87 299 126 L330 294 C338 333 331 364 309 388 C287 412 258 424 219 424 C181 424 145 412 114 387 C82 362 62 330 55 291 L24 123 Z M167 292 C169 301 173 308 178 313 C184 318 190 320 198 320 C205 320 211 318 215 313 C219 308 220 301 218 292 L187 124 C185 116 182 109 176 104 C170 99 164 96 157 96 C149 96 143 99 139 104 C136 109 134 116 136 124 L167 292 Z M233 581 L117 581 L156 445 L240 445 L233 581 Z " />
<glyph glyph-name="oacute" unicode="&#xf3;" horiz-adv-x="355" d="M24 123 C16 84 23 52 45 28 C67 4 97 -8 135 -8 C174 -8 209 5 241 30 C273 55 292 87 299 126 L330 294 C338 333 331 364 309 388 C287 412 258 424 219 424 C181 424 145 412 114 387 C82 362 62 330 55 291 L24 123 Z M167 292 C169 301 173 308 178 313 C184 318 190 320 198 320 C205 320 211 318 215 313 C219 308 220 301 218 292 L187 124 C185 116 182 109 176 104 C170 99 164 96 157 96 C149 96 143 99 139 104 C136 109 134 116 136 124 L167 292 Z M179 437 L262 437 L351 573 L235 573 L179 437 Z " />
<glyph glyph-name="ocircumflex" unicode="&#xf4;" horiz-adv-x="355" d="M24 123 C16 84 23 52 45 28 C67 4 97 -8 135 -8 C174 -8 209 5 241 30 C273 55 292 87 299 126 L330 294 C338 333 331 364 309 388 C287 412 258 424 219 424 C181 424 145 412 114 387 C82 362 62 330 55 291 L24 123 Z M167 292 C169 301 173 308 178 313 C184 318 190 320 198 320 C205 320 211 318 215 313 C219 308 220 301 218 292 L187 124 C185 116 182 109 176 104 C170 99 164 96 157 96 C149 96 143 99 139 104 C136 109 134 116 136 124 L167 292 Z M101 446 L180 446 L229 504 L255 446 L340 446 L287 582 L207 582 L101 446 Z " />
<glyph glyph-name="otilde" unicode="&#xf5;" horiz-adv-x="355" d="M24 123 C16 84 23 52 45 28 C67 4 97 -8 135 -8 C174 -8 209 5 241 30 C273 55 292 87 299 126 L330 294 C338 333 331 364 309 388 C287 412 258 424 219 424 C181 424 145 412 114 387 C82 362 62 330 55 291 L24 123 Z M167 292 C169 301 173 308 178 313 C184 318 190 320 198 320 C205 320 211 318 215 313 C219 308 220 301 218 292 L187 124 C185 116 182 109 176 104 C170 99 164 96 157 96 C149 96 143 99 139 104 C136 109 134 116 136 124 L167 292 Z M143 461 L146 469 C147 476 150 482 156 488 C160 494 165 497 172 497 C181 497 194 490 210 476 C227 461 246 454 267 454 C284 454 301 459 314 468 C330 478 341 488 350 499 C358 511 366 524 372 539 C379 554 383 564 384 570 C386 575 387 580 388 584 L312 584 L309 575 C308 569 305 562 299 556 C295 550 290 547 283 547 C274 547 260 554 244 569 C227 583 208 590 188 590 C170 590 155 586 140 576 C125 567 114 557 105 545 C97 534 89 520 83 505 C76 490 72 480 71 475 C69 469 68 464 67 461 L143 461 Z " />
<glyph glyph-name="odieresis" unicode="&#xf6;" horiz-adv-x="355" d="M24 123 C16 84 23 52 45 28 C67 4 97 -8 135 -8 C174 -8 209 5 241 30 C273 55 292 87 299 126 L330 294 C338 333 331 364 309 388 C287 412 258 424 219 424 C181 424 145 412 114 387 C82 362 62 330 55 291 L24 123 Z M167 292 C169 301 173 308 178 313 C184 318 190 320 198 320 C205 320 211 318 215 313 C219 308 220 301 218 292 L187 124 C185 116 182 109 176 104 C170 99 164 96 157 96 C149 96 143 99 139 104 C136 109 134 116 136 124 L167 292 Z M116 481 C125 470 138 464 155 464 C172 464 187 470 200 481 C213 492 220 506 224 523 C227 540 225 554 216 565 C207 576 194 581 177 581 C160 581 145 576 132 565 C119 554 110 540 107 523 C103 506 107 492 116 481 L116 481 Z M257 481 C266 470 278 464 296 464 C313 464 328 470 341 481 C354 492 361 506 365 523 C368 540 366 554 357 565 C348 576 335 581 318 581 C300 581 286 576 273 565 C260 554 251 540 248 523 C244 506 248 492 257 481 L257 481 Z " />
<glyph glyph-name="divide" unicode="&#xf7;" horiz-adv-x="356" d="M308 232 L327 328 L47 328 L28 232 L308 232 Z M154 379 C164 367 177 361 193 361 C210 361 225 367 239 379 C252 390 261 404 264 421 C267 438 264 452 255 464 C245 475 232 481 215 481 C199 481 184 475 170 464 C156 452 147 438 144 421 C141 404 144 390 154 379 L154 379 Z M101 97 C111 85 124 79 140 79 C157 79 172 85 186 97 C199 109 208 123 211 140 C214 156 211 170 202 182 C192 193 179 199 162 199 C146 199 131 193 117 182 C103 170 94 156 91 140 C88 123 91 109 101 97 L101 97 Z " />
<glyph glyph-name="oslash" unicode="&#xf8;" horiz-adv-x="354" d="M23 122 C17 92 21 64 35 41 L-8 -24 L46 -23 L68 9 C89 -2 111 -8 134 -8 C172 -8 208 5 240 30 C272 55 291 87 299 126 L331 294 C337 325 333 352 319 375 L363 441 L307 440 L285 407 C266 419 244 424 220 424 C182 424 147 412 115 387 C83 362 63 330 55 291 L23 122 Z M164 292 C166 302 170 310 176 316 C182 321 191 324 200 324 C210 324 217 320 221 313 L147 205 L164 292 Z M154 92 C144 92 137 96 132 103 L207 213 L191 125 C189 115 185 107 178 101 C172 95 163 92 154 92 L154 92 Z " />
<glyph glyph-name="ugrave" unicode="&#xf9;" horiz-adv-x="352" d="M184 123 C181 105 170 96 154 96 C138 96 133 105 136 123 L192 416 L80 416 L21 107 C14 68 17 40 29 21 C41 2 61 -8 89 -8 C127 -8 177 25 189 88 L172 0 L273 0 L352 416 L240 416 L184 123 Z M233 589 L117 589 L156 453 L240 453 L233 589 Z " />
<glyph glyph-name="uacute" unicode="&#xfa;" horiz-adv-x="352" d="M184 123 C181 105 170 96 154 96 C138 96 133 105 136 123 L192 416 L80 416 L21 107 C14 68 17 40 29 21 C41 2 61 -8 89 -8 C127 -8 177 25 189 88 L172 0 L273 0 L352 416 L240 416 L184 123 Z M179 449 L262 449 L351 585 L235 585 L179 449 Z " />
<glyph glyph-name="ucircumflex" unicode="&#xfb;" horiz-adv-x="352" d="M184 123 C181 105 170 96 154 96 C138 96 133 105 136 123 L192 416 L80 416 L21 107 C14 68 17 40 29 21 C41 2 61 -8 89 -8 C127 -8 177 25 189 88 L172 0 L273 0 L352 416 L240 416 L184 123 Z M102 448 L181 448 L230 506 L256 448 L341 448 L288 584 L208 584 L102 448 Z " />
<glyph glyph-name="udieresis" unicode="&#xfc;" horiz-adv-x="352" d="M184 123 C181 105 170 96 154 96 C138 96 133 105 136 123 L192 416 L80 416 L21 107 C14 68 17 40 29 21 C41 2 61 -8 89 -8 C127 -8 177 25 189 88 L172 0 L273 0 L352 416 L240 416 L184 123 Z M114 471 C123 460 136 454 153 454 C170 454 185 460 198 471 C211 482 218 496 222 513 C225 530 223 544 214 555 C205 566 192 571 175 571 C158 571 143 566 130 555 C117 544 108 530 105 513 C101 496 105 482 114 471 L114 471 Z M255 471 C264 460 276 454 294 454 C311 454 326 460 339 471 C352 482 359 496 363 513 C366 530 364 544 355 555 C346 566 333 571 316 571 C298 571 284 566 271 555 C258 544 249 530 246 513 C242 496 246 482 255 471 L255 471 Z " />
<glyph glyph-name="yacute" unicode="&#xfd;" horiz-adv-x="316" d="M81 0 C71 -29 52 -44 25 -44 C13 -44 -2 -44 -2 -44 L-19 -136 C-19 -136 20 -136 32 -136 C97 -136 146 -94 180 -9 L353 416 L245 416 L166 160 L181 416 L65 416 L81 0 Z M164 442 L247 442 L336 578 L220 578 L164 442 Z " />
<glyph glyph-name="thorn" unicode="&#xfe;" horiz-adv-x="339" d="M-25 -66 L66 -66 L104 130 C94 77 127 54 154 54 C183 54 210 65 233 85 C257 106 271 134 278 170 L316 371 C323 406 319 434 305 454 C289 473 267 483 237 483 C210 483 166 459 155 401 L197 622 L105 622 L-25 -66 Z M188 182 C186 169 181 159 172 151 C164 143 154 140 143 140 C132 140 123 143 118 151 C113 159 111 169 113 182 L146 356 C149 369 155 379 163 387 C170 394 181 398 192 398 C203 398 211 394 217 387 C223 379 224 369 221 356 L188 182 Z " />
<glyph glyph-name="ydieresis" unicode="&#xff;" horiz-adv-x="317" d="M81 0 C71 -29 52 -44 25 -44 C13 -44 -2 -44 -2 -44 L-19 -136 C-19 -136 20 -136 32 -136 C97 -136 146 -94 180 -9 L353 416 L245 416 L166 160 L181 416 L65 416 L81 0 Z M101 485 C110 474 123 468 140 468 C157 468 172 474 185 485 C198 496 205 510 209 527 C212 544 210 558 201 569 C192 580 179 585 162 585 C145 585 130 580 117 569 C104 558 95 544 92 527 C88 510 92 496 101 485 L101 485 Z M242 485 C251 474 263 468 281 468 C298 468 313 474 326 485 C339 496 346 510 350 527 C353 544 351 558 342 569 C333 580 320 585 303 585 C285 585 271 580 258 569 C245 558 236 544 233 527 C229 510 233 496 242 485 L242 485 Z " />
<glyph glyph-name="Abreve" unicode="&#x102;" horiz-adv-x="345" d="M280 560 L164 560 L-46 0 L69 0 L98 92 L166 92 L161 0 L285 0 L280 560 Z M171 188 L129 188 L179 349 L171 188 Z M125 738 L118 701 C113 671 117 647 132 629 C148 611 170 602 201 602 C231 602 257 611 279 630 C300 648 314 672 320 703 L326 738 L254 738 L247 698 C243 677 231 666 213 666 C194 666 187 677 191 698 L198 738 L125 738 Z " />
<glyph glyph-name="abreve" unicode="&#x103;" horiz-adv-x="344" d="M265 0 L320 298 C327 335 320 366 298 389 C276 412 248 424 211 424 C176 424 142 412 112 387 C81 363 63 332 56 295 L165 304 C168 320 178 328 192 328 C206 328 211 320 208 304 L193 223 C181 240 162 248 136 248 C105 248 78 237 54 215 C30 194 14 164 7 127 L4 111 C-2 73 2 44 17 23 C31 3 54 -8 85 -8 C120 -8 167 17 179 81 L164 0 L265 0 Z M173 112 C169 91 158 80 140 80 C121 80 113 91 117 112 L121 136 C125 158 137 168 156 168 C174 168 181 158 177 136 L173 112 Z M119 578 L112 541 C107 511 111 487 126 469 C142 451 164 442 195 442 C225 442 251 451 273 470 C294 488 308 512 314 543 L320 578 L248 578 L241 538 C237 517 225 506 207 506 C188 506 181 517 185 538 L192 578 L119 578 Z " />
<glyph glyph-name="Aogonek" unicode="&#x104;" horiz-adv-x="356" d="M287 560 L171 560 L-39 0 L76 0 L105 92 L173 92 L168 0 L292 0 L287 560 Z M178 188 L136 188 L186 349 L178 188 Z M271 44 L254 36 C243 30 230 20 215 4 C202 -11 193 -28 189 -48 C184 -76 190 -99 206 -117 C223 -135 248 -144 278 -144 C295 -144 307 -142 315 -139 L329 -68 L305 -70 C292 -70 282 -67 276 -59 C269 -52 267 -42 270 -30 C273 -14 281 -2 293 4 L271 44 Z " />
<glyph glyph-name="aogonek" unicode="&#x105;" horiz-adv-x="344" d="M265 0 L320 298 C327 335 320 366 298 389 C276 412 248 424 211 424 C176 424 142 412 112 387 C81 363 63 332 56 295 L165 304 C168 320 178 328 192 328 C206 328 211 320 208 304 L193 223 C181 240 162 248 136 248 C105 248 78 237 54 215 C30 194 14 164 7 127 L4 111 C-2 73 2 44 17 23 C31 3 54 -8 85 -8 C120 -8 167 17 179 81 L164 0 L265 0 Z M173 112 C169 91 158 80 140 80 C121 80 113 91 117 112 L121 136 C125 158 137 168 156 168 C174 168 181 158 177 136 L173 112 Z M222 43 L205 35 C194 29 181 19 166 3 C153 -12 144 -29 140 -49 C135 -77 141 -100 157 -118 C174 -136 199 -145 229 -145 C246 -145 258 -143 266 -140 L280 -69 L256 -71 C243 -71 233 -68 227 -60 C220 -53 218 -43 221 -31 C224 -15 232 -3 244 3 L222 43 Z " />
<glyph glyph-name="Cacute" unicode="&#x106;" horiz-adv-x="348" d="M327 348 L342 433 C350 475 342 507 320 531 C298 556 267 568 228 568 C187 568 151 555 117 529 C84 502 64 468 57 426 L3 130 C-4 88 4 55 26 29 C49 4 81 -8 121 -8 C161 -8 196 4 229 30 C260 55 280 88 287 129 L304 220 L188 220 L172 132 C168 113 159 104 143 104 C127 104 120 113 124 132 L177 428 C180 446 190 456 206 456 C222 456 228 446 225 428 L211 348 L327 348 Z M183 623 L266 623 L355 759 L239 759 L183 623 Z " />
<glyph glyph-name="cacute" unicode="&#x107;" horiz-adv-x="330" d="M183 180 L172 121 C169 104 160 96 145 96 C130 96 124 104 127 121 L160 295 C163 312 171 320 186 320 C201 320 208 312 205 295 L194 240 L301 240 L312 297 C319 335 313 366 292 389 C272 412 244 424 208 424 C170 424 135 412 105 387 C73 363 55 332 47 294 L15 119 C8 81 14 51 36 28 C58 4 86 -8 124 -8 C160 -8 194 5 224 29 C255 54 273 85 280 123 L290 180 L183 180 Z M179 423 L262 423 L351 559 L235 559 L179 423 Z " />
<glyph glyph-name="Ccaron" unicode="&#x10c;" horiz-adv-x="341" d="M327 348 L342 433 C350 475 342 507 320 531 C298 556 267 568 228 568 C187 568 151 555 117 529 C84 502 64 468 57 426 L3 130 C-4 88 4 55 26 29 C49 4 81 -8 121 -8 C161 -8 196 4 229 30 C260 55 280 88 287 129 L304 220 L188 220 L172 132 C168 113 159 104 143 104 C127 104 120 113 124 132 L177 428 C180 446 190 456 206 456 C222 456 228 446 225 428 L211 348 L327 348 Z M381 756 L300 756 L252 697 L225 756 L140 756 L195 620 L275 620 L381 756 Z " />
<glyph glyph-name="ccaron" unicode="&#x10d;" horiz-adv-x="330" d="M183 180 L172 121 C169 104 160 96 145 96 C130 96 124 104 127 121 L160 295 C163 312 171 320 186 320 C201 320 208 312 205 295 L194 240 L301 240 L312 297 C319 335 313 366 292 389 C272 412 244 424 208 424 C170 424 135 412 105 387 C73 363 55 332 47 294 L15 119 C8 81 14 51 36 28 C58 4 86 -8 124 -8 C160 -8 194 5 224 29 C255 54 273 85 280 123 L290 180 L183 180 Z M377 607 L296 607 L248 548 L221 607 L136 607 L191 471 L271 471 L377 607 Z " />
<glyph glyph-name="Dcaron" unicode="&#x10e;" horiz-adv-x="372" d="M-12 0 L129 0 C175 0 215 12 246 37 C278 63 298 99 306 145 L357 417 C366 464 359 500 338 524 C316 548 283 560 238 560 L92 560 L-12 0 Z M191 448 L207 448 C231 448 240 434 235 408 L188 152 C183 125 168 112 144 112 L128 112 L191 448 Z M360 744 L279 744 L231 685 L204 744 L119 744 L174 608 L254 608 L360 744 Z " />
<glyph glyph-name="dcroat" unicode="&#x111;" horiz-adv-x="355" d="M352 560 L260 560 L253 518 L184 518 L172 457 L241 457 L229 394 C217 412 197 421 169 421 C139 421 114 411 91 390 C67 369 52 341 45 306 L8 104 C1 70 5 42 20 22 C35 2 57 -8 87 -8 C122 -8 163 20 180 78 L165 0 L248 0 L333 457 L378 457 L390 518 L345 518 L352 560 Z M135 294 C137 307 143 317 152 325 C160 332 170 336 181 336 C192 336 200 332 206 325 C211 317 213 307 211 294 L178 120 C176 107 170 97 162 89 C153 81 144 78 133 78 C122 78 113 81 108 89 C102 97 100 107 102 120 L135 294 Z " />
<glyph glyph-name="Edotaccent" unicode="&#x116;" horiz-adv-x="298" d="M224 0 L246 120 L130 120 L150 229 L238 229 L259 341 L171 341 L189 440 L301 440 L323 560 L91 560 L-11 0 L224 0 Z M155 674 C164 663 177 657 194 657 C211 657 226 663 239 674 C252 684 260 699 264 716 C267 733 264 747 255 758 C246 769 233 774 216 774 C199 774 184 769 171 758 C158 747 150 733 147 716 C143 699 146 684 155 674 L155 674 Z " />
<glyph glyph-name="edotaccent" unicode="&#x117;" horiz-adv-x="346" d="M303 188 L323 298 C329 335 322 366 300 389 C279 412 250 424 213 424 C176 424 142 412 112 387 C80 363 62 332 55 295 L23 119 C17 81 23 51 45 28 C67 4 96 -8 133 -8 C170 -8 203 5 234 29 C265 54 284 85 291 122 L297 156 L193 156 L187 124 C186 116 182 109 177 104 C171 99 164 96 156 96 C149 96 144 99 140 104 C136 109 135 116 136 124 L148 188 L303 188 Z M169 304 C170 313 174 320 180 325 C185 330 192 332 199 332 C207 332 212 330 217 325 C220 320 221 313 220 304 L212 260 L161 260 L169 304 Z M163 474 C172 463 185 457 202 457 C219 457 234 463 247 474 C260 484 268 499 272 516 C275 533 272 547 263 558 C254 569 241 574 224 574 C207 574 192 569 179 558 C166 547 158 533 155 516 C151 499 154 484 163 474 L163 474 Z " />
<glyph glyph-name="Eogonek" unicode="&#x118;" horiz-adv-x="291" d="M224 0 L246 120 L130 120 L150 229 L238 229 L259 341 L171 341 L189 440 L301 440 L323 560 L91 560 L-11 0 L224 0 Z M149 41 L132 33 C121 27 108 17 93 1 C80 -14 71 -31 67 -51 C62 -79 68 -102 84 -120 C101 -138 126 -147 156 -147 C173 -147 185 -145 193 -142 L207 -71 L183 -73 C170 -73 160 -70 154 -62 C147 -55 145 -45 148 -33 C151 -17 159 -5 171 1 L149 41 Z " />
<glyph glyph-name="eogonek" unicode="&#x119;" horiz-adv-x="333" d="M296 188 L316 298 C322 335 315 366 293 389 C272 412 243 424 206 424 C169 424 135 412 105 387 C73 363 55 332 48 295 L16 119 C10 81 16 51 38 28 C60 4 89 -8 126 -8 C163 -8 196 5 227 29 C258 54 277 85 284 122 L290 156 L186 156 L180 124 C179 116 175 109 170 104 C164 99 157 96 149 96 C142 96 137 99 133 104 C129 109 128 116 129 124 L141 188 L296 188 Z M162 304 C163 313 167 320 173 325 C178 330 185 332 192 332 C200 332 205 330 210 325 C213 320 214 313 213 304 L205 260 L154 260 L162 304 Z M154 41 L137 33 C126 27 113 17 98 1 C85 -14 76 -31 72 -51 C67 -79 73 -102 89 -120 C106 -138 131 -147 161 -147 C178 -147 190 -145 198 -142 L212 -71 L188 -73 C175 -73 165 -70 159 -62 C152 -55 150 -45 153 -33 C156 -17 164 -5 176 1 L154 41 Z " />
<glyph glyph-name="Ecaron" unicode="&#x11a;" horiz-adv-x="291" d="M224 0 L246 120 L130 120 L150 229 L238 229 L259 341 L171 341 L189 440 L301 440 L323 560 L91 560 L-11 0 L224 0 Z M376 741 L295 741 L247 682 L220 741 L135 741 L190 605 L270 605 L376 741 Z " />
<glyph glyph-name="ecaron" unicode="&#x11b;" horiz-adv-x="333" d="M296 188 L316 298 C322 335 315 366 293 389 C272 412 243 424 206 424 C169 424 135 412 105 387 C73 363 55 332 48 295 L16 119 C10 81 16 51 38 28 C60 4 89 -8 126 -8 C163 -8 196 5 227 29 C258 54 277 85 284 122 L290 156 L186 156 L180 124 C179 116 175 109 170 104 C164 99 157 96 149 96 C142 96 137 99 133 104 C129 109 128 116 129 124 L141 188 L296 188 Z M162 304 C163 313 167 320 173 325 C178 330 185 332 192 332 C200 332 205 330 210 325 C213 320 214 313 213 304 L205 260 L154 260 L162 304 Z M375 593 L294 593 L246 534 L219 593 L134 593 L189 457 L269 457 L375 593 Z " />
<glyph glyph-name="Itilde" unicode="&#x128;" horiz-adv-x="202" d="M-12 0 L109 0 L214 560 L92 560 L-12 0 Z M66 599 L69 607 C70 614 73 620 79 626 C83 632 88 635 95 635 C104 635 117 628 133 614 C150 599 169 592 190 592 C207 592 224 597 237 606 C253 616 264 626 273 637 C281 649 289 662 295 677 C302 692 306 702 307 708 C309 713 310 718 311 722 L235 722 L232 713 C231 707 228 700 222 694 C218 688 213 685 206 685 C197 685 183 692 167 707 C150 721 131 728 111 728 C93 728 78 724 63 714 C48 705 37 695 28 683 C20 672 12 658 6 643 C-1 628 -5 618 -6 613 C-8 607 -9 602 -10 599 L66 599 Z " />
<glyph glyph-name="Iogonek" unicode="&#x12e;" horiz-adv-x="202" d="M-12 0 L109 0 L214 560 L92 560 L-12 0 Z M75 41 L58 33 C47 27 34 17 19 1 C6 -14 -3 -31 -7 -51 C-12 -79 -6 -102 10 -120 C27 -138 52 -147 82 -147 C99 -147 111 -145 119 -142 L133 -71 L109 -73 C96 -73 86 -70 80 -62 C73 -55 71 -45 74 -33 C77 -17 85 -5 97 1 L75 41 Z " />
<glyph glyph-name="iogonek" unicode="&#x12f;" horiz-adv-x="194" d="M80 468 C91 455 106 448 125 448 C143 448 161 455 176 468 C192 481 202 498 205 516 C208 535 204 551 193 564 C183 578 167 584 149 584 C130 584 113 578 97 564 C81 551 72 535 69 516 C66 498 69 481 80 468 L80 468 Z M-12 0 L101 0 L176 416 L62 416 L-12 0 Z M70 41 L53 33 C42 27 29 17 14 1 C1 -14 -8 -31 -12 -51 C-17 -79 -11 -102 5 -120 C22 -138 47 -147 77 -147 C94 -147 106 -145 114 -142 L128 -71 L104 -73 C91 -73 81 -70 75 -62 C68 -55 66 -45 69 -33 C72 -17 80 -5 92 1 L70 41 Z " />
<glyph glyph-name="Lacute" unicode="&#x139;" horiz-adv-x="276" d="M204 0 L228 120 L128 120 L215 560 L95 560 L-15 0 L204 0 Z M162 623 L245 623 L334 759 L218 759 L162 623 Z " />
<glyph glyph-name="lacute" unicode="&#x13a;" horiz-adv-x="194" d="M-12 0 L101 0 L206 560 L92 560 L-12 0 Z M100 585 L183 585 L272 721 L156 721 L100 585 Z " />
<glyph glyph-name="Lcaron" unicode="&#x13d;" horiz-adv-x="272" d="M204 0 L228 120 L128 120 L215 560 L95 560 L-15 0 L204 0 L204 0 Z " />
<glyph glyph-name="Lslash" unicode="&#x141;" horiz-adv-x="329" d="M255 0 L277 120 L177 120 L205 273 L284 288 L297 360 L218 345 L258 560 L139 560 L95 321 L45 312 L32 240 L82 250 L36 0 L255 0 L255 0 Z " />
<glyph glyph-name="lslash" unicode="&#x142;" horiz-adv-x="281" d="M28 0 L142 0 L193 276 L242 288 L255 360 L206 348 L245 560 L131 560 L87 322 L45 312 L32 240 L74 250 L28 0 L28 0 Z " />
<glyph glyph-name="Nacute" unicode="&#x143;" horiz-adv-x="380" d="M184 0 L288 0 L391 560 L287 560 L237 286 L203 560 L91 560 L-11 0 L92 0 L147 299 L184 0 Z M173 604 L256 604 L345 740 L229 740 L173 604 Z " />
<glyph glyph-name="nacute" unicode="&#x144;" horiz-adv-x="352" d="M167 294 C170 312 179 320 196 320 C211 320 218 312 215 294 L161 0 L273 0 L329 310 C336 348 334 377 321 396 C309 415 287 424 260 424 C222 424 173 391 162 328 L178 416 L77 416 L1 0 L113 0 L167 294 Z M173 445 L256 445 L345 581 L229 581 L173 445 Z " />
<glyph glyph-name="Ncaron" unicode="&#x147;" horiz-adv-x="380" d="M184 0 L288 0 L391 560 L287 560 L237 286 L203 560 L91 560 L-11 0 L92 0 L147 299 L184 0 Z M371 735 L290 735 L242 676 L215 735 L130 735 L185 599 L265 599 L371 735 Z " />
<glyph glyph-name="ncaron" unicode="&#x148;" horiz-adv-x="352" d="M167 294 C170 312 179 320 196 320 C211 320 218 312 215 294 L161 0 L273 0 L329 310 C336 348 334 377 321 396 C309 415 287 424 260 424 C222 424 173 391 162 328 L178 416 L77 416 L1 0 L113 0 L167 294 Z M355 597 L274 597 L226 538 L199 597 L114 597 L169 461 L249 461 L355 597 Z " />
<glyph glyph-name="Ohungarumlaut" unicode="&#x150;" horiz-adv-x="376" d="M14 134 C6 91 14 56 37 31 C60 5 94 -8 136 -8 C178 -8 215 5 249 32 C282 59 303 94 310 137 L361 425 C369 469 361 503 339 529 C315 555 282 568 240 568 C198 568 160 554 126 527 C93 500 72 465 65 422 L14 134 Z M185 424 C189 445 201 456 219 456 C238 456 245 445 241 424 L190 136 C186 114 175 104 156 104 C138 104 130 114 134 136 L185 424 Z M107 606 L187 606 L268 742 L156 742 L107 606 Z M251 606 L331 606 L412 742 L300 742 L251 606 Z " />
<glyph glyph-name="ohungarumlaut" unicode="&#x151;" horiz-adv-x="355" d="M24 123 C16 84 23 52 45 28 C67 4 97 -8 135 -8 C174 -8 209 5 241 30 C273 55 292 87 299 126 L330 294 C338 333 331 364 309 388 C287 412 258 424 219 424 C181 424 145 412 114 387 C82 362 62 330 55 291 L24 123 Z M167 292 C169 301 173 308 178 313 C184 318 190 320 198 320 C205 320 211 318 215 313 C219 308 220 301 218 292 L187 124 C185 116 182 109 176 104 C170 99 164 96 157 96 C149 96 143 99 139 104 C136 109 134 116 136 124 L167 292 Z M97 433 L177 433 L258 569 L146 569 L97 433 Z M241 433 L321 433 L402 569 L290 569 L241 433 Z " />
<glyph glyph-name="OE" unicode="&#x152;" horiz-adv-x="460" d="M396 0 L418 120 L302 120 L322 230 L410 230 L431 342 L343 342 L361 440 L473 440 L495 560 L241 560 C195 560 156 548 124 523 C93 497 73 462 64 415 L14 143 C6 96 12 60 34 36 C55 12 89 0 135 0 L396 0 Z M181 112 L165 112 C141 112 131 125 136 152 L183 408 C188 435 202 448 226 448 L242 448 L181 112 Z " />
<glyph glyph-name="oe" unicode="&#x153;" horiz-adv-x="510" d="M23 122 C16 83 23 51 44 27 C66 3 96 -9 135 -9 C167 -9 195 1 220 19 C237 1 262 -9 294 -9 C331 -9 365 3 396 28 C427 53 446 84 453 121 L460 155 L356 155 L350 123 C348 115 345 108 339 103 C333 98 326 95 319 95 C311 95 306 98 302 103 C298 108 297 115 299 123 L311 187 L466 187 L487 297 C494 334 486 365 466 388 C444 412 415 423 378 423 C347 423 320 414 295 395 C277 414 251 423 219 423 C181 423 146 411 114 386 C82 361 63 329 55 290 L23 122 Z M167 291 C169 300 172 306 178 312 C184 317 191 319 198 319 C206 319 211 317 215 312 C219 306 220 300 218 291 L187 123 C185 115 182 108 176 103 C170 98 163 95 155 95 C148 95 143 98 139 103 C135 108 134 115 136 123 L167 291 Z M333 307 C335 316 338 323 344 328 C350 333 357 335 365 335 C372 335 377 333 381 328 C385 323 386 316 384 307 L375 259 L324 259 L333 307 Z " />
<glyph glyph-name="Racute" unicode="&#x154;" horiz-adv-x="367" d="M356 409 C366 460 360 498 338 523 C316 547 280 560 231 560 L93 560 L-13 0 L106 0 L145 204 L165 204 C180 204 191 195 188 176 L154 0 L270 0 L305 182 C310 211 308 237 298 257 C322 278 337 308 344 345 L356 409 L356 409 Z M224 344 C221 331 218 322 210 315 C203 308 193 304 180 304 L164 304 L192 448 L208 448 C232 448 241 434 236 408 L224 344 L224 344 Z M209 623 L292 623 L381 759 L265 759 L209 623 Z " />
<glyph glyph-name="racute" unicode="&#x155;" horiz-adv-x="258" d="M0 0 L111 0 L157 239 C160 258 168 272 178 280 C189 288 204 292 224 292 L248 292 L273 424 C229 424 181 385 163 328 L180 416 L78 416 L0 0 Z M152 441 L235 441 L324 577 L208 577 L152 441 Z " />
<glyph glyph-name="Rcaron" unicode="&#x158;" horiz-adv-x="341" d="M356 409 C366 460 360 498 338 523 C316 547 280 560 231 560 L93 560 L-13 0 L106 0 L145 204 L165 204 C180 204 191 195 188 176 L154 0 L270 0 L305 182 C310 211 308 237 298 257 C322 278 337 308 344 345 L356 409 L356 409 Z M224 344 C221 331 218 322 210 315 C203 308 193 304 180 304 L164 304 L192 448 L208 448 C232 448 241 434 236 408 L224 344 L224 344 Z M397 755 L316 755 L268 696 L241 755 L156 755 L211 619 L291 619 L397 755 Z " />
<glyph glyph-name="rcaron" unicode="&#x159;" horiz-adv-x="273" d="M0 0 L111 0 L157 239 C160 258 168 272 178 280 C189 288 204 292 224 292 L248 292 L273 424 C229 424 181 385 163 328 L180 416 L78 416 L0 0 Z M369 606 L288 606 L240 547 L213 606 L128 606 L183 470 L263 470 L369 606 Z " />
<glyph glyph-name="Sacute" unicode="&#x15a;" horiz-adv-x="310" d="M105 180 L-10 180 L-19 130 C-27 88 -19 55 3 29 C25 4 57 -8 98 -8 C140 -8 177 5 211 32 C245 59 265 94 273 137 C279 170 278 201 268 230 C260 259 241 289 215 320 C189 350 173 372 166 388 C159 403 157 418 159 431 C163 450 172 460 188 460 C204 460 210 449 207 428 L200 392 L316 392 L323 433 C331 475 324 507 302 531 C280 556 249 568 210 568 C169 568 133 555 100 529 C66 502 46 468 38 426 C28 369 48 310 98 250 C125 220 140 197 147 181 C153 165 156 149 153 133 C151 123 147 115 141 109 C134 103 128 100 119 100 C100 100 93 112 97 136 L105 180 Z M168 623 L251 623 L340 759 L224 759 L168 623 Z " />
<glyph glyph-name="sacute" unicode="&#x15b;" horiz-adv-x="307" d="M192 284 L300 284 L302 298 C309 335 302 366 280 389 C259 412 230 424 194 424 C157 424 124 413 94 390 C64 367 46 340 40 307 C34 276 37 250 48 229 C60 209 79 191 106 175 C131 161 147 150 153 142 C160 134 162 126 160 116 C159 108 155 101 149 96 C144 91 137 88 129 88 C121 88 116 91 113 97 C109 102 107 110 109 120 L113 140 L5 140 L2 123 C-6 84 1 52 24 28 C46 4 75 -8 113 -8 C151 -8 186 5 216 29 C247 54 267 85 274 122 C284 178 260 222 204 254 C181 267 166 277 160 284 C153 292 151 300 152 308 C155 321 164 328 178 328 C192 328 198 319 195 300 L192 284 Z M162 440 L245 440 L334 576 L218 576 L162 440 Z " />
<glyph glyph-name="Scedilla" unicode="&#x15e;" horiz-adv-x="309" d="M110 180 L-5 180 L-14 130 C-22 88 -14 55 8 29 C30 4 62 -8 103 -8 C145 -8 182 5 216 32 C250 59 270 94 278 137 C284 170 283 201 273 230 C265 259 246 289 220 320 C194 350 178 372 171 388 C164 403 162 418 164 431 C168 450 177 460 193 460 C209 460 215 449 212 428 L205 392 L321 392 L328 433 C336 475 329 507 307 531 C285 556 254 568 215 568 C174 568 138 555 105 529 C71 502 51 468 43 426 C33 369 53 310 103 250 C130 220 145 197 152 181 C158 165 161 149 158 133 C156 123 152 115 146 109 C139 103 133 100 124 100 C105 100 98 112 102 136 L110 180 Z M141 0 L145 -3 C147 -6 149 -10 151 -17 C153 -23 153 -30 151 -37 C149 -51 143 -62 132 -70 C122 -78 109 -82 95 -82 C84 -82 76 -81 72 -80 L59 -151 L64 -152 C67 -153 72 -154 78 -155 C85 -155 92 -156 99 -156 C133 -156 162 -146 187 -127 C212 -108 228 -83 234 -52 C236 -39 236 -28 234 -17 C232 -6 229 3 225 9 C221 15 216 21 211 27 C206 32 202 35 200 37 C198 39 196 40 194 40 L141 0 Z " />
<glyph glyph-name="Scaron" unicode="&#x160;" horiz-adv-x="328" d="M115 180 L0 180 L-9 130 C-17 88 -9 55 13 29 C35 4 67 -8 108 -8 C150 -8 187 5 221 32 C255 59 275 94 283 137 C289 170 288 201 278 230 C270 259 251 289 225 320 C199 350 183 372 176 388 C169 403 167 418 169 431 C173 450 182 460 198 460 C214 460 220 449 217 428 L210 392 L326 392 L333 433 C341 475 334 507 312 531 C290 556 259 568 220 568 C179 568 143 555 110 529 C76 502 56 468 48 426 C38 369 58 310 108 250 C135 220 150 197 157 181 C163 165 166 149 163 133 C161 123 157 115 151 109 C144 103 138 100 129 100 C110 100 103 112 107 136 L115 180 Z M376 734 L295 734 L247 675 L220 734 L135 734 L190 598 L270 598 L376 734 Z " />
<glyph glyph-name="scaron" unicode="&#x161;" horiz-adv-x="262" d="M156 284 L264 284 L266 298 C273 335 266 366 244 389 C223 412 194 424 158 424 C121 424 88 413 58 390 C28 367 10 340 4 307 C-2 276 1 250 12 229 C24 209 43 191 70 175 C95 161 111 150 117 142 C124 134 126 126 124 116 C123 108 119 101 113 96 C108 91 101 88 93 88 C85 88 80 91 77 97 C73 102 71 110 73 120 L77 140 L-31 140 L-34 123 C-42 84 -35 52 -12 28 C10 4 39 -8 77 -8 C115 -8 150 5 180 29 C211 54 231 85 238 122 C248 178 224 222 168 254 C145 267 130 277 124 284 C117 292 115 300 116 308 C119 321 128 328 142 328 C156 328 162 319 159 300 L156 284 Z M346 582 L265 582 L217 523 L190 582 L105 582 L160 446 L240 446 L346 582 Z " />
<glyph glyph-name="Tcaron" unicode="&#x164;" horiz-adv-x="297" d="M317 440 L339 560 L59 560 L37 440 L117 440 L36 0 L156 0 L237 440 L317 440 Z M358 737 L277 737 L229 678 L202 737 L117 737 L172 601 L252 601 L358 737 Z " />
<glyph glyph-name="utilde" unicode="&#x169;" horiz-adv-x="352" d="M184 123 C181 105 170 96 154 96 C138 96 133 105 136 123 L192 416 L80 416 L21 107 C14 68 17 40 29 21 C41 2 61 -8 89 -8 C127 -8 177 25 189 88 L172 0 L273 0 L352 416 L240 416 L184 123 Z M143 452 L146 460 C147 467 150 473 156 479 C160 485 165 488 172 488 C181 488 194 481 210 467 C227 452 246 445 267 445 C284 445 301 450 314 459 C330 469 341 479 350 490 C358 502 366 515 372 530 C379 545 383 555 384 561 C386 566 387 571 388 575 L312 575 L309 566 C308 560 305 553 299 547 C295 541 290 538 283 538 C274 538 260 545 244 560 C227 574 208 581 188 581 C170 581 155 577 140 567 C125 558 114 548 105 536 C97 525 89 511 83 496 C76 481 72 471 71 466 C69 460 68 455 67 452 L143 452 Z " />
<glyph glyph-name="Uring" unicode="&#x16e;" horiz-adv-x="352" d="M79 560 L4 130 C-3 88 5 55 28 29 C50 4 82 -8 123 -8 C163 -8 200 5 233 31 C265 57 285 91 293 133 L367 560 L248 560 L173 132 C170 113 161 104 145 104 C129 104 122 113 125 132 L200 560 L79 560 Z M169 622 C181 609 198 602 220 602 C242 602 261 609 278 622 C294 636 306 653 310 674 C313 695 309 712 297 726 C286 739 269 746 247 746 C225 746 206 739 188 726 C172 712 161 695 158 674 C154 653 157 636 169 622 L169 622 Z M217 693 C223 698 230 700 238 700 C246 700 252 698 256 693 C260 688 262 681 261 674 C259 667 255 660 249 655 C243 650 237 648 229 648 C221 648 214 650 210 655 C206 660 205 667 207 674 C208 681 211 688 217 693 L217 693 Z " />
<glyph glyph-name="uring" unicode="&#x16f;" horiz-adv-x="352" d="M184 123 C181 105 170 96 154 96 C138 96 133 105 136 123 L192 416 L80 416 L21 107 C14 68 17 40 29 21 C41 2 61 -8 89 -8 C127 -8 177 25 189 88 L172 0 L273 0 L352 416 L240 416 L184 123 Z M174 463 C186 450 203 443 225 443 C247 443 266 450 283 463 C299 477 311 494 315 515 C318 536 314 553 302 567 C291 580 274 587 252 587 C230 587 211 580 193 567 C177 553 166 536 163 515 C159 494 162 477 174 463 L174 463 Z M222 534 C228 539 235 541 243 541 C251 541 257 539 261 534 C265 529 267 522 266 515 C264 508 260 501 254 496 C248 491 242 489 234 489 C226 489 219 491 215 496 C211 501 210 508 212 515 C213 522 216 529 222 534 L222 534 Z " />
<glyph glyph-name="Uhungarumlaut" unicode="&#x170;" horiz-adv-x="352" d="M79 560 L4 130 C-3 88 5 55 28 29 C50 4 82 -8 123 -8 C163 -8 200 5 233 31 C265 57 285 91 293 133 L367 560 L248 560 L173 132 C170 113 161 104 145 104 C129 104 122 113 125 132 L200 560 L79 560 L79 560 Z " />
<glyph glyph-name="uhungarumlaut" unicode="&#x171;" horiz-adv-x="352" d="M184 123 C181 105 170 96 154 96 C138 96 133 105 136 123 L192 416 L80 416 L21 107 C14 68 17 40 29 21 C41 2 61 -8 89 -8 C127 -8 177 25 189 88 L172 0 L273 0 L352 416 L240 416 L184 123 Z M95 446 L175 446 L256 582 L144 582 L95 446 Z M239 446 L319 446 L400 582 L288 582 L239 446 Z " />
<glyph glyph-name="Uogonek" unicode="&#x172;" horiz-adv-x="368" d="M89 560 L14 130 C7 88 15 55 38 29 C60 4 92 -8 133 -8 C173 -8 210 5 243 31 C275 57 295 91 303 133 L377 560 L258 560 L183 132 C180 113 171 104 155 104 C139 104 132 113 135 132 L210 560 L89 560 Z M181 41 L164 33 C153 27 140 17 125 1 C112 -14 103 -31 99 -51 C94 -79 100 -102 116 -120 C133 -138 158 -147 188 -147 C205 -147 217 -145 225 -142 L239 -71 L215 -73 C202 -73 192 -70 186 -62 C179 -55 177 -45 180 -33 C183 -17 191 -5 203 1 L181 41 Z " />
<glyph glyph-name="uogonek" unicode="&#x173;" horiz-adv-x="352" d="M184 123 C181 105 170 96 154 96 C138 96 133 105 136 123 L192 416 L80 416 L21 107 C14 68 17 40 29 21 C41 2 61 -8 89 -8 C127 -8 177 25 189 88 L172 0 L273 0 L352 416 L240 416 L184 123 Z M245 43 L228 35 C217 29 204 19 189 3 C176 -12 167 -29 163 -49 C158 -77 164 -100 180 -118 C197 -136 222 -145 252 -145 C269 -145 281 -143 289 -140 L303 -69 L279 -71 C266 -71 256 -68 250 -60 C243 -53 241 -43 244 -31 C247 -15 255 -3 267 3 L245 43 Z " />
<glyph glyph-name="Ydieresis" unicode="&#x178;" horiz-adv-x="267" d="M19 0 L139 0 L177 200 L344 560 L224 560 L152 360 L156 560 L28 560 L57 200 L19 0 Z M76 609 C85 598 98 592 115 592 C132 592 147 598 160 609 C173 620 180 634 184 651 C187 668 185 682 176 693 C167 704 154 709 137 709 C120 709 105 704 92 693 C79 682 70 668 67 651 C63 634 67 620 76 609 L76 609 Z M217 609 C226 598 238 592 256 592 C273 592 288 598 301 609 C314 620 321 634 325 651 C328 668 326 682 317 693 C308 704 295 709 278 709 C260 709 246 704 233 693 C220 682 211 668 208 651 C204 634 208 620 217 609 L217 609 Z " />
<glyph glyph-name="Zacute" unicode="&#x179;" horiz-adv-x="303" d="M227 0 L248 112 L112 112 L314 464 L332 560 L80 560 L59 448 L183 448 L-18 96 L-36 0 L227 0 Z M167 623 L250 623 L339 759 L223 759 L167 623 Z " />
<glyph glyph-name="zacute" unicode="&#x17a;" horiz-adv-x="271" d="M-11 80 L-25 0 L214 0 L231 96 L110 96 L275 337 L289 416 L61 416 L44 320 L152 320 L-11 80 Z M142 423 L225 423 L314 559 L198 559 L142 423 Z " />
<glyph glyph-name="Zdotaccent" unicode="&#x17b;" horiz-adv-x="296" d="M228 0 L249 112 L113 112 L315 464 L333 560 L81 560 L60 448 L184 448 L-17 96 L-35 0 L228 0 Z M145 674 C154 663 167 657 184 657 C201 657 216 663 229 674 C242 684 250 699 254 716 C257 733 254 747 245 758 C236 769 223 774 206 774 C189 774 174 769 161 758 C148 747 140 733 137 716 C133 699 136 684 145 674 L145 674 Z " />
<glyph glyph-name="zdotaccent" unicode="&#x17c;" horiz-adv-x="280" d="M-10 80 L-24 0 L215 0 L232 96 L111 96 L276 337 L290 416 L62 416 L45 320 L153 320 L-10 80 Z M129 474 C138 463 151 457 168 457 C185 457 200 463 213 474 C226 484 234 499 238 516 C241 533 238 547 229 558 C220 569 207 574 190 574 C173 574 158 569 145 558 C132 547 124 533 121 516 C117 499 120 484 129 474 L129 474 Z " />
<glyph glyph-name="Zcaron" unicode="&#x17d;" horiz-adv-x="293" d="M223 0 L244 112 L108 112 L310 464 L328 560 L76 560 L55 448 L179 448 L-22 96 L-40 0 L223 0 Z M362 735 L281 735 L233 676 L206 735 L121 735 L176 599 L256 599 L362 735 Z " />
<glyph glyph-name="zcaron" unicode="&#x17e;" horiz-adv-x="279" d="M-5 80 L-19 0 L220 0 L237 96 L116 96 L281 337 L295 416 L67 416 L50 320 L158 320 L-5 80 Z M346 580 L265 580 L217 521 L190 580 L105 580 L160 444 L240 444 L346 580 Z " />
<glyph glyph-name="florin" unicode="&#x192;" horiz-adv-x="330" d="M126 -88 L212 239 L290 239 L303 309 L231 309 L257 408 C265 439 281 454 307 454 C320 454 339 454 339 454 L359 560 C359 560 311 560 300 560 C263 560 231 550 205 529 C179 508 161 477 150 437 L117 309 L53 309 L40 239 L98 239 L12 -88 L126 -88 L126 -88 Z " />
<glyph glyph-name="circumflex" unicode="&#x2c6;" horiz-adv-x="250" d="M50 424 L129 424 L178 482 L204 424 L289 424 L236 560 L156 560 L50 424 L50 424 Z " />
<glyph glyph-name="caron" unicode="&#x2c7;" horiz-adv-x="296" d="M363 704 L282 704 L234 645 L207 704 L122 704 L177 568 L257 568 L363 704 L363 704 Z " />
<glyph glyph-name="breve" unicode="&#x2d8;" horiz-adv-x="274" d="M88 575 L81 538 C76 508 80 484 95 466 C111 448 133 439 164 439 C194 439 220 448 242 467 C263 485 277 509 283 540 L289 575 L217 575 L210 535 C206 514 194 503 176 503 C157 503 150 514 154 535 L161 575 L88 575 L88 575 Z " />
<glyph glyph-name="dotaccent" unicode="&#x2d9;" horiz-adv-x="131" d="M58 474 C67 463 80 457 97 457 C114 457 129 463 142 474 C155 484 163 499 167 516 C170 533 167 547 158 558 C149 569 136 574 119 574 C102 574 87 569 74 558 C61 547 53 533 50 516 C46 499 49 484 58 474 L58 474 Z " />
<glyph glyph-name="ring" unicode="&#x2da;" horiz-adv-x="189" d="M90 422 C102 409 119 402 141 402 C163 402 182 409 199 422 C215 436 227 453 231 474 C234 495 230 512 218 526 C207 539 190 546 168 546 C146 546 127 539 109 526 C93 512 82 495 79 474 C75 453 78 436 90 422 L90 422 Z M138 493 C144 498 151 500 159 500 C167 500 173 498 177 493 C181 488 183 481 182 474 C180 467 176 460 170 455 C164 450 158 448 150 448 C142 448 135 450 131 455 C127 460 126 467 128 474 C129 481 132 488 138 493 L138 493 Z " />
<glyph glyph-name="ogonek" unicode="&#x2db;" horiz-adv-x="168" d="M31 41 L14 33 C3 27 -10 17 -25 1 C-38 -14 -47 -31 -51 -51 C-56 -79 -50 -102 -34 -120 C-17 -138 8 -147 38 -147 C55 -147 67 -145 75 -142 L89 -71 L65 -73 C52 -73 42 -70 36 -62 C29 -55 27 -45 30 -33 C33 -17 41 -5 53 1 L31 41 L31 41 Z " />
<glyph glyph-name="tilde" unicode="&#x2dc;" horiz-adv-x="413" d="M131 452 L134 460 C135 467 138 473 144 479 C148 485 153 488 160 488 C169 488 182 481 198 467 C215 452 234 445 255 445 C272 445 289 450 302 459 C318 469 329 479 338 490 C346 502 354 515 360 530 C367 545 371 555 372 561 C374 566 375 571 376 575 L300 575 L297 566 C296 560 293 553 287 547 C283 541 278 538 271 538 C262 538 248 545 232 560 C215 574 196 581 176 581 C158 581 143 577 128 567 C113 558 102 548 93 536 C85 525 77 511 71 496 C64 481 60 471 59 466 C57 460 56 455 55 452 L131 452 L131 452 Z " />
<glyph glyph-name="hungarumlaut" unicode="&#x2dd;" horiz-adv-x="333" d="M85 432 L165 432 L246 568 L134 568 L85 432 Z M229 432 L309 432 L390 568 L278 568 L229 432 Z " />
<glyph glyph-name="endash" unicode="&#x2013;" horiz-adv-x="392" d="M342 195 L361 299 L49 299 L30 195 L342 195 L342 195 Z " />
<glyph glyph-name="emdash" unicode="&#x2014;" horiz-adv-x="448" d="M398 196 L417 300 L49 300 L30 196 L398 196 L398 196 Z " />
<glyph glyph-name="quoteleft" unicode="&#x2018;" horiz-adv-x="157" d="M81 560 L-5 328 L118 328 L169 560 L81 560 L81 560 Z " />
<glyph glyph-name="quoteright" unicode="&#x2019;" horiz-adv-x="153" d="M78 328 L165 560 L41 560 L-9 328 L78 328 L78 328 Z " />
<glyph glyph-name="quotedblleft" unicode="&#x201c;" horiz-adv-x="335" d="M87 560 L0 328 L124 328 L175 560 L87 560 Z M247 560 L160 328 L284 328 L335 560 L247 560 Z " />
<glyph glyph-name="quotedblright" unicode="&#x201d;" horiz-adv-x="333" d="M90 328 L177 560 L53 560 L2 328 L90 328 Z M250 328 L337 560 L213 560 L162 328 L250 328 Z " />
<glyph glyph-name="daggerdbl" unicode="&#x2021;" horiz-adv-x="281" d="M17 276 L2 196 L74 196 L61 124 L149 124 L162 196 L234 196 L249 276 L177 276 L190 348 L262 348 L277 428 L205 428 L218 500 L130 500 L117 428 L45 428 L30 348 L102 348 L89 276 L17 276 L17 276 Z " />
<glyph glyph-name="bullet" unicode="&#x2022;" horiz-adv-x="258" d="M34 239 C51 217 76 206 107 206 C137 206 166 217 192 239 C218 262 234 288 240 319 C245 350 239 376 222 398 C204 420 180 430 149 430 C118 430 90 419 63 397 C37 375 21 348 15 317 C10 287 16 260 34 239 L34 239 Z " />
<glyph glyph-name="ellipsis" unicode="&#x2026;" horiz-adv-x="656" d="M50 12 C61 -1 76 -8 94 -8 C113 -8 130 -1 146 12 C162 26 171 42 175 60 C178 79 175 95 163 108 C153 122 138 128 119 128 C101 128 84 122 67 108 C52 95 42 79 39 60 C35 42 39 26 50 12 L50 12 Z M270 12 C281 -1 296 -8 314 -8 C333 -8 350 -1 366 12 C382 26 391 42 395 60 C398 79 395 95 383 108 C373 122 358 128 339 128 C321 128 304 122 287 108 C272 95 262 79 259 60 C255 42 259 26 270 12 L270 12 Z M490 12 C501 -1 516 -8 534 -8 C553 -8 570 -1 586 12 C602 26 611 42 615 60 C618 79 615 95 603 108 C593 122 578 128 559 128 C541 128 524 122 507 108 C492 95 482 79 479 60 C475 42 479 26 490 12 L490 12 Z " />
<glyph glyph-name="perthousand" unicode="&#x2030;" horiz-adv-x="685" d="M61 307 C79 288 102 278 132 278 C163 278 190 288 215 308 C239 328 254 353 259 384 C264 414 259 439 242 458 C226 478 202 488 171 488 C141 488 114 478 89 458 C66 438 50 412 45 382 C39 352 45 327 61 307 L61 307 Z M1 0 L73 0 L454 480 L382 480 L1 0 Z M135 405 C142 411 149 414 157 414 C166 414 173 411 178 405 C182 399 183 392 182 383 C180 374 176 366 170 360 C163 355 155 352 146 352 C138 352 132 355 127 360 C123 366 121 374 123 383 C124 392 129 399 135 405 L135 405 Z M213 21 C229 1 254 -8 284 -8 C314 -8 341 2 366 22 C390 42 405 67 410 97 C416 128 410 153 393 172 C376 191 353 201 323 201 C292 201 265 191 240 171 C216 151 201 126 196 96 C191 65 196 40 213 21 L213 21 Z M286 119 C292 125 300 128 309 128 C317 128 324 125 328 119 C333 113 334 106 332 97 C330 87 327 80 320 74 C314 68 306 65 298 65 C289 65 282 68 278 74 C273 80 271 87 273 97 C275 106 279 113 286 119 L286 119 Z M449 21 C465 1 490 -8 520 -8 C550 -8 577 2 602 22 C626 42 641 67 646 97 C652 128 646 153 629 172 C612 191 589 201 559 201 C528 201 501 191 476 171 C452 151 437 126 432 96 C427 65 432 40 449 21 L449 21 Z M522 119 C528 125 536 128 545 128 C553 128 560 125 564 119 C569 113 570 106 568 97 C566 87 563 80 556 74 C550 68 542 65 534 65 C525 65 518 68 514 74 C509 80 507 87 509 97 C511 106 515 113 522 119 L522 119 Z " />
<glyph glyph-name="guilsinglleft" unicode="&#x2039;" horiz-adv-x="253" d="M152 138 L223 198 L153 296 L258 394 L209 458 L31 314 L26 282 L152 138 L152 138 Z " />
<glyph glyph-name="guilsinglright" unicode="&#x203a;" horiz-adv-x="267" d="M-1 203 L48 143 L225 287 L230 319 L103 463 L32 399 L102 301 L-1 203 L-1 203 Z " />
<glyph glyph-name="Euro" unicode="&#x20ac;" horiz-adv-x="388" d="M221 128 C218 108 208 99 192 99 C176 99 170 108 173 128 L188 207 L293 207 L304 265 L199 265 L204 295 L325 295 L336 353 L215 353 L230 432 C233 452 243 462 259 462 C275 462 281 452 278 432 L269 384 L378 384 L388 440 C395 478 389 509 368 533 C346 556 317 568 280 568 C242 568 208 556 175 530 C143 505 123 472 116 433 L101 353 L53 353 L42 295 L90 295 L85 265 L37 265 L26 207 L74 207 L58 124 C51 85 58 53 81 29 C102 4 132 -8 170 -8 C207 -8 241 4 272 29 C303 54 322 85 329 123 L339 176 L230 176 L221 128 L221 128 Z " />
<glyph glyph-name="trademark" unicode="&#x2122;" horiz-adv-x="436" d="M185 498 L196 560 L45 560 L34 498 L74 498 L38 308 L108 308 L144 498 L185 498 Z M277 349 L301 349 L345 431 L322 308 L386 308 L433 560 L369 560 L309 447 L292 560 L225 560 L178 308 L241 308 L265 434 L277 349 Z " />
<glyph glyph-name="f_f" unicode="&#xfb00;" horiz-adv-x="430" d="M392 461 C397 466 405 468 415 468 C423 468 442 468 442 468 L461 568 C461 568 418 568 409 568 C373 568 343 559 319 540 C294 522 279 494 272 458 L264 416 L176 416 L180 436 C182 448 186 456 192 461 C197 466 205 468 216 468 C223 468 242 468 242 468 L261 568 C261 568 214 568 205 568 C170 568 141 559 118 541 C95 524 80 497 73 462 L-13 0 L98 0 L159 324 L247 324 L186 0 L298 0 L359 324 L415 324 L432 416 L376 416 L380 436 C382 448 386 456 392 461 L392 461 Z " />
<glyph glyph-name="fi" unicode="&#xfb01;" horiz-adv-x="405" d="M336 448 C374 449 409 479 416 516 C423 555 395 584 360 584 C322 584 286 552 280 516 C273 478 300 448 336 448 L336 448 Z M273 416 L173 416 L176 436 C179 448 183 456 188 461 C194 466 201 468 212 468 C220 468 238 468 238 468 L256 568 C256 568 210 568 200 568 C166 568 138 559 113 541 C90 523 76 497 70 462 L-12 0 L98 0 L156 324 L256 324 L198 0 L312 0 L387 416 L273 416 L273 416 Z " />
<glyph glyph-name="fl" unicode="&#xfb02;" horiz-adv-x="406" d="M205 568 C170 568 141 559 118 541 C95 523 80 497 73 462 L-13 0 L98 0 L159 324 L215 324 L232 416 L176 416 L180 436 C182 448 186 456 192 461 C197 466 205 468 216 468 C219 468 250 468 286 468 L198 0 L312 0 L400 468 L418 560 L419 568 C419 568 214 568 205 568 L205 568 Z " />
</font>
</svg>
