<?xml version="1.0" encoding="UTF-8"?>
<svg xmlns="http://www.w3.org/2000/svg" xmlns:xlink="http://www.w3.org/1999/xlink" version="1.2" >
<font id="Lostfield Condensed bold italic">
<font-face  font-family="Lostfield Condensed" units-per-em="1000" ascent="750" descent="-250" font-style="normal" font-weight="400" font-stretch="normal" cap-height="700" x-height="500" underline-position="-75" underline-thickness="50" />
<missing-glyph  horiz-adv-x="152" d="" />
<glyph glyph-name="NULL" d="" />
<glyph glyph-name="CR" unicode="&#xd;" horiz-adv-x="152" d="" />
<glyph glyph-name="space" unicode="&#x20;" horiz-adv-x="152" d="" />
<glyph glyph-name="exclam" unicode="&#x21;" horiz-adv-x="158" d="M47 108 C17 108 -15 82 -21 49 C-26 19 -6 -8 26 -8 C56 -8 88 15 94 49 C100 79 80 108 47 108 L47 108 Z M28 177 L93 177 L184 560 L78 560 L28 177 Z " />
<glyph glyph-name="quotedbl" unicode="&#x22;" horiz-adv-x="280" d="M66 344 L146 560 L45 560 L-5 344 L66 344 Z M207 344 L287 560 L185 560 L134 344 L207 344 Z " />
<glyph glyph-name="numbersign" unicode="&#x23;" horiz-adv-x="360" d="M136 0 L198 0 L231 125 L285 125 L296 182 L247 182 L278 297 L330 297 L341 354 L293 354 L327 480 L266 480 L232 354 L175 354 L209 480 L148 480 L114 354 L61 354 L50 297 L98 297 L67 182 L17 182 L6 125 L52 125 L18 0 L79 0 L113 125 L170 125 L136 0 Z M159 297 L217 297 L186 182 L129 182 L159 297 Z " />
<glyph glyph-name="dollar" unicode="&#x24;" horiz-adv-x="287" d="M83 169 L-6 169 L-15 118 C-21 84 -18 55 -4 33 C10 12 32 -2 62 -6 L51 -67 L109 -67 L120 -5 C151 2 179 16 202 39 C224 61 240 90 246 124 C258 188 240 251 193 311 C152 361 135 403 141 436 C143 449 148 459 156 466 C164 474 173 477 184 477 C194 477 202 474 207 466 C212 458 213 447 211 433 L204 397 L293 397 L301 439 C307 473 303 500 290 521 C276 542 254 555 225 560 L236 621 L178 621 L167 558 C138 552 111 538 89 516 C67 493 54 466 48 433 C37 375 56 315 104 255 C144 206 160 162 152 121 C150 108 144 97 135 88 C127 80 117 76 105 76 C93 76 84 80 80 89 C74 97 72 109 75 124 L83 169 L83 169 Z " />
<glyph glyph-name="percent" unicode="&#x25;" horiz-adv-x="422" d="M156 488 C126 488 99 478 76 459 C52 439 38 415 32 385 C26 355 32 331 47 312 C64 293 86 284 116 284 C145 284 172 293 195 313 C219 332 234 357 239 387 C245 416 239 440 224 459 C207 478 185 488 156 488 L156 488 Z M-15 0 L46 0 L433 480 L371 480 L-15 0 Z M129 346 C118 346 109 350 103 357 C97 365 95 374 97 386 C99 397 105 407 113 414 C123 421 132 425 143 425 C153 425 162 421 168 414 C174 407 175 397 173 386 C171 374 166 365 158 357 C148 350 139 346 129 346 L129 346 Z M301 195 C271 195 244 185 221 166 C197 146 182 122 177 93 C171 63 177 39 192 20 C208 1 232 -8 261 -8 C291 -8 317 1 341 21 C365 40 379 65 385 94 C390 123 385 147 370 166 C353 185 331 195 301 195 L301 195 Z M273 54 C262 54 254 58 248 65 C243 72 241 82 243 93 C245 105 251 115 259 122 C268 130 277 133 288 133 C299 133 308 130 313 122 C320 115 321 105 319 93 C317 82 312 72 302 65 C294 58 284 54 273 54 L273 54 Z " />
<glyph glyph-name="ampersand" unicode="&#x26;" horiz-adv-x="355" d="M308 249 L323 325 L286 325 L292 356 L200 356 L194 325 L155 325 C145 325 138 329 133 336 C130 343 129 353 131 365 L146 441 C148 453 153 463 160 470 C167 477 176 480 186 480 C196 480 203 477 208 470 C212 463 213 453 211 441 L201 392 L290 392 L300 441 C307 478 301 508 282 532 C262 556 236 568 202 568 C167 568 134 556 106 534 C78 511 60 481 53 445 L40 381 C33 344 41 313 62 289 C27 265 5 232 -2 189 L-15 124 C-23 85 -16 54 5 29 C26 4 54 -8 92 -8 C119 -8 145 -1 168 12 C184 -1 205 -8 234 -8 C253 -8 258 -8 258 -8 L275 77 C250 77 241 91 246 118 L271 249 L308 249 L308 249 Z M155 123 C149 94 133 79 107 79 C95 79 86 83 82 91 C76 99 75 110 78 125 L94 204 C96 218 102 229 110 237 C118 245 128 249 140 249 L179 249 L155 123 L155 123 Z " />
<glyph glyph-name="quotesingle" unicode="&#x27;" horiz-adv-x="138" d="M70 344 L146 560 L44 560 L-1 344 L70 344 L70 344 Z " />
<glyph glyph-name="parenleft" unicode="&#x28;" horiz-adv-x="257" d="M175 42 L167 55 C161 63 154 77 148 95 C141 114 135 135 129 158 C125 182 121 211 121 245 C120 280 123 315 130 352 C136 388 147 424 160 459 C175 494 188 523 201 545 C214 567 229 588 244 608 C260 629 270 642 277 648 C282 653 286 658 290 661 L234 712 L219 697 C208 688 194 672 177 652 C160 631 144 607 126 580 C109 553 92 519 75 478 C58 436 45 394 37 349 C29 305 26 262 27 221 C29 180 33 146 40 121 C47 95 55 71 66 49 C76 26 84 12 89 6 C94 0 98 -5 101 -8 L175 42 L175 42 Z " />
<glyph glyph-name="parenright" unicode="&#x29;" horiz-adv-x="257" d="M81 661 L90 648 C95 640 101 626 108 608 C114 590 121 569 126 545 C132 522 135 493 136 458 C137 423 133 388 127 352 C120 315 110 280 96 245 C82 209 68 181 54 158 C41 136 27 115 12 95 C-3 75 -13 62 -20 56 C-25 50 -30 45 -33 42 L22 -8 L38 6 C49 16 63 31 79 52 C96 73 113 96 130 123 C148 150 165 184 182 226 C199 267 211 310 219 354 C227 398 231 441 229 482 C227 524 224 557 216 583 C210 608 202 632 191 654 C180 677 172 691 167 697 C162 704 158 708 155 712 L81 661 L81 661 Z " />
<glyph glyph-name="asterisk" unicode="&#x2a;" horiz-adv-x="284" d="M276 437 L265 503 L174 467 L198 560 L128 560 L119 467 L41 503 L8 437 L94 416 L23 345 L72 304 L134 384 L168 304 L231 345 L183 416 L276 437 L276 437 Z " />
<glyph glyph-name="plus" unicode="&#x2b;" horiz-adv-x="356" d="M243 437 L170 437 L148 319 L46 319 L33 246 L135 246 L113 127 L186 127 L208 246 L309 246 L322 319 L221 319 L243 437 L243 437 Z " />
<glyph glyph-name="comma" unicode="&#x2c;" horiz-adv-x="124" d="M63 -163 L140 53 L38 53 L-9 -163 L63 -163 L63 -163 Z " />
<glyph glyph-name="hyphen" unicode="&#x2d;" horiz-adv-x="272" d="M223 214 L240 300 L48 300 L31 214 L223 214 L223 214 Z " />
<glyph glyph-name="period" unicode="&#x2e;" horiz-adv-x="105" d="M66 48 C36 48 4 21 -2 -11 C-5 -27 -2 -40 6 -52 C15 -63 27 -68 43 -68 C59 -68 74 -63 88 -52 C102 -40 110 -27 113 -11 C116 5 113 19 104 30 C95 42 82 48 66 48 L66 48 Z " />
<glyph glyph-name="slash" unicode="&#x2f;" horiz-adv-x="328" d="M-46 -8 L33 -8 L380 680 L300 680 L-46 -8 L-46 -8 Z " />
<glyph glyph-name="zero" unicode="0" horiz-adv-x="343" d="M10 121 C3 83 9 52 30 28 C50 4 79 -8 116 -8 C153 -8 186 4 217 29 C247 54 266 85 273 124 L332 438 C339 476 333 508 312 532 C292 556 263 568 226 568 C189 568 156 555 125 530 C94 505 75 473 68 435 L10 121 Z M160 432 C162 446 168 457 177 465 C185 473 195 477 207 477 C219 477 227 473 234 465 C238 457 240 446 238 432 L181 128 C178 113 172 102 165 94 C155 86 146 82 134 82 C122 82 113 86 108 94 C102 102 100 113 103 128 L160 432 Z " />
<glyph glyph-name="one" unicode="1" horiz-adv-x="216" d="M17 469 L51 408 L110 446 L27 0 L120 0 L225 560 L145 560 L17 469 L17 469 Z " />
<glyph glyph-name="two" unicode="2" horiz-adv-x="312" d="M226 0 L241 86 L89 86 L242 303 C277 353 298 398 305 437 C312 475 305 507 286 531 C265 556 237 568 201 568 C166 568 133 555 104 530 C73 506 55 474 48 436 L37 376 L126 376 L136 428 C142 461 157 477 182 477 C193 477 201 473 206 464 C211 456 213 444 210 428 C205 400 193 372 172 343 L-18 66 L-30 0 L226 0 L226 0 Z " />
<glyph glyph-name="three" unicode="3" horiz-adv-x="291" d="M300 444 C307 481 300 511 281 534 C261 556 233 568 198 568 C165 568 133 556 104 532 C76 508 58 478 51 441 L42 392 L132 392 L141 440 C144 453 147 462 155 470 C162 477 171 481 181 481 C191 481 198 477 203 470 C206 462 208 453 205 440 L191 365 C189 353 184 343 178 336 C171 329 162 325 152 325 L118 325 L104 249 L138 249 C151 249 159 245 165 237 C169 229 171 218 168 204 L153 124 C151 110 145 99 137 91 C129 83 119 79 106 79 C80 79 70 94 75 124 L86 180 L-3 180 L-14 121 C-21 82 -14 51 4 27 C24 4 52 -8 89 -8 C126 -8 160 4 191 29 C220 54 239 85 246 124 L259 189 C267 232 258 265 231 289 C262 313 281 344 288 381 L300 444 L300 444 Z " />
<glyph glyph-name="four" unicode="4" horiz-adv-x="329" d="M17 208 L2 129 L155 129 L131 0 L216 0 L240 129 L284 129 L299 205 L255 205 L321 560 L232 560 L17 208 Z M91 205 L205 393 L170 205 L91 205 Z " />
<glyph glyph-name="five" unicode="5" horiz-adv-x="325" d="M34 248 L118 248 L120 258 C122 270 127 279 135 287 C142 294 152 298 163 298 C174 298 182 294 187 287 C192 279 193 268 191 255 L167 125 C164 112 159 101 151 94 C143 86 133 82 123 82 C112 82 104 86 99 94 C94 102 92 112 95 125 L104 176 L13 176 L2 116 C-4 79 3 50 23 27 C44 3 71 -8 105 -8 C140 -8 173 4 203 28 C234 53 252 84 259 121 L287 271 C292 303 287 329 272 349 C256 370 233 380 204 380 C179 380 156 371 138 354 L160 473 L312 473 L327 560 L91 560 L34 248 L34 248 Z " />
<glyph glyph-name="six" unicode="6" horiz-adv-x="327" d="M2 123 C-5 84 2 52 23 28 C44 4 74 -8 111 -8 C149 -8 183 4 213 30 C245 55 264 87 271 126 L292 238 C299 277 294 307 278 330 C262 352 237 364 201 364 C188 364 174 360 161 352 L285 560 L192 560 L72 355 C46 311 27 261 17 206 L2 123 Z M115 236 C118 250 124 261 133 270 C143 278 154 282 166 282 C178 282 187 278 193 270 C199 261 201 250 198 236 L179 129 C176 114 170 103 161 95 C152 86 141 82 129 82 C117 82 108 86 101 95 C95 103 93 114 96 129 L115 236 Z " />
<glyph glyph-name="seven" unicode="7" horiz-adv-x="293" d="M-3 0 L91 0 L311 490 L324 560 L76 560 L60 470 L211 470 L-3 0 L-3 0 Z " />
<glyph glyph-name="eight" unicode="8" horiz-adv-x="303" d="M42 393 C34 351 43 319 68 296 C29 271 6 235 -2 190 L-14 125 C-21 85 -14 53 5 28 C26 4 56 -8 94 -8 C133 -8 168 5 199 30 C231 56 250 88 258 128 L270 193 C279 239 268 273 239 298 C274 323 295 356 302 396 L311 440 C318 478 311 509 290 532 C270 556 242 568 206 568 C170 568 137 556 107 531 C76 507 58 476 50 437 L42 393 Z M94 210 C97 226 104 238 112 247 C122 256 133 260 147 260 C160 260 170 256 175 247 C182 238 182 226 179 210 L163 126 C160 110 155 98 145 89 C137 80 125 76 112 76 C98 76 89 80 82 89 C77 98 75 110 78 126 L94 210 Z M144 440 C146 453 151 464 160 472 C168 480 178 484 189 484 C200 484 208 480 213 472 C218 464 219 454 217 440 L205 376 C202 362 197 351 188 343 C181 336 171 332 160 332 C149 332 141 336 136 344 C130 352 129 362 132 376 L144 440 Z " />
<glyph glyph-name="nine" unicode="9" horiz-adv-x="345" d="M336 437 C343 475 336 507 315 531 C294 556 265 568 227 568 C190 568 156 555 124 530 C92 504 73 472 66 433 L45 321 C38 283 43 252 59 230 C75 207 101 196 137 196 C150 196 163 199 176 207 L52 0 L145 0 L265 205 C292 249 310 298 320 353 L336 437 Z M222 324 C219 309 213 298 205 290 C195 281 184 277 172 277 C159 277 150 281 145 290 C139 298 137 309 140 324 L160 431 C162 445 169 457 177 465 C186 473 196 477 209 477 C221 477 231 473 237 465 C243 457 244 445 242 431 L222 324 Z " />
<glyph glyph-name="colon" unicode="&#x3a;" horiz-adv-x="143" d="M109 506 C79 506 48 482 42 448 C37 418 55 390 89 390 C119 390 152 414 158 448 C164 479 143 506 109 506 L109 506 Z M54 194 C24 194 -6 168 -12 135 C-18 105 0 78 34 78 C64 78 97 101 103 135 C108 167 87 191 54 194 L54 194 Z " />
<glyph glyph-name="semicolon" unicode="&#x3b;" horiz-adv-x="150" d="M83 483 C70 472 62 458 59 442 C56 426 59 412 68 401 C78 390 90 384 106 384 C122 384 137 390 151 401 C164 412 172 426 175 442 C178 458 175 472 166 483 C156 495 143 500 127 500 C111 500 97 495 83 483 L83 483 Z M45 -24 L121 192 L20 192 L-26 -24 L45 -24 Z " />
<glyph glyph-name="less" unicode="&#x3c;" horiz-adv-x="348" d="M335 408 L353 500 L47 345 L31 261 L278 108 L282 202 L115 298 L335 408 L335 408 Z " />
<glyph glyph-name="equal" unicode="&#x3d;" horiz-adv-x="327" d="M305 340 L319 416 L43 416 L29 340 L305 340 Z M278 188 L292 264 L16 264 L2 188 L278 188 Z " />
<glyph glyph-name="greater" unicode="&#x3e;" horiz-adv-x="348" d="M12 196 L-5 105 L300 260 L315 343 L68 497 L50 402 L229 300 L12 196 L12 196 Z " />
<glyph glyph-name="question" unicode="&#x3f;" horiz-adv-x="284" d="M171 196 C174 214 183 233 195 253 C208 273 222 291 234 306 C248 321 262 340 275 364 C288 387 298 411 303 437 C310 475 303 507 283 531 C263 556 235 568 199 568 C163 568 130 555 100 530 C70 504 52 471 44 429 L36 384 L125 384 L133 429 C139 461 155 477 179 477 C190 477 198 473 204 464 C209 456 210 444 207 429 C203 409 196 389 184 369 C172 348 160 331 147 316 C134 301 122 283 110 262 C98 241 91 221 87 201 L82 177 L167 177 L171 196 Z M68 90 C54 79 46 65 43 49 C40 33 43 20 53 8 C62 -3 75 -8 91 -8 C107 -8 122 -3 135 8 C148 20 156 33 159 49 C162 65 159 79 150 90 C141 102 129 108 113 108 C97 108 81 102 68 90 L68 90 Z " />
<glyph glyph-name="at" unicode="&#x40;" horiz-adv-x="759" d="M237 259 C227 231 229 209 241 193 C251 176 270 168 295 168 C324 168 357 185 380 228 C360 178 369 137 388 117 C407 96 435 85 474 85 C532 85 583 108 630 155 C676 201 706 260 719 331 C737 429 720 511 667 577 C615 643 540 677 443 677 C346 677 259 643 181 576 C103 509 55 426 37 329 C20 234 37 154 90 90 C142 26 217 -7 315 -7 C343 -7 363 -4 377 1 L378 62 C368 60 352 58 328 58 C251 58 192 84 150 137 C108 190 95 254 109 330 C123 407 161 473 222 527 C284 582 353 609 429 609 C509 609 569 582 609 530 C649 477 663 409 648 325 C639 275 619 234 588 202 C558 169 526 153 492 153 C472 153 458 159 450 173 C441 187 442 206 450 231 L534 489 L530 497 L466 497 L453 468 C446 491 427 503 397 503 C372 503 350 496 330 481 C311 466 296 444 289 417 L237 259 Z M366 405 C372 425 385 435 403 435 C413 435 419 432 422 426 C426 420 427 412 424 402 L380 265 C373 246 360 236 341 236 C332 236 327 239 323 245 C319 251 319 259 321 269 L366 405 Z " />
<glyph glyph-name="A" unicode="A" horiz-adv-x="334" d="M269 560 L162 560 L-40 0 L54 0 L90 108 L179 108 L179 0 L275 0 L269 560 Z M183 386 L179 187 L116 187 L183 386 Z " />
<glyph glyph-name="B" unicode="B" horiz-adv-x="339" d="M-13 0 L127 0 C168 0 203 12 234 36 C264 60 283 93 291 136 L299 176 C310 233 295 273 257 294 C299 317 325 355 336 408 L339 426 C347 469 341 502 321 525 C302 548 271 560 230 560 L93 560 L-13 0 Z M174 477 L201 477 C234 477 247 459 240 421 L232 381 C225 344 205 325 172 325 L145 325 L174 477 Z M130 250 L165 250 C198 250 211 231 204 194 L192 137 C186 100 166 81 133 81 L98 81 L130 250 Z " />
<glyph glyph-name="C" unicode="C" horiz-adv-x="347" d="M184 127 C181 113 176 102 168 94 C161 87 151 83 139 83 C127 83 119 87 113 94 C107 102 105 113 108 127 L165 433 C167 446 173 457 182 464 C190 472 200 476 212 476 C224 476 232 472 237 464 C242 457 243 446 241 433 L227 356 L323 356 L338 437 C345 477 338 508 317 532 C298 556 268 568 230 568 C191 568 157 555 125 530 C94 504 75 471 68 431 L11 125 C3 85 10 52 31 28 C52 4 82 -8 120 -8 C158 -8 192 4 223 28 C253 53 272 85 280 125 L296 212 L200 212 L184 127 L184 127 Z " />
<glyph glyph-name="D" unicode="D" horiz-adv-x="356" d="M-11 0 L120 0 C164 0 200 12 231 37 C263 62 282 97 290 142 L341 420 C349 465 343 500 322 524 C301 548 269 560 226 560 L91 560 L-11 0 Z M171 469 L202 469 C235 469 248 450 241 413 L192 147 C185 109 166 91 133 91 L102 91 L171 469 Z " />
<glyph glyph-name="E" unicode="E" horiz-adv-x="291" d="M211 0 L229 96 L102 96 L129 242 L228 242 L245 333 L146 333 L171 463 L294 463 L312 560 L92 560 L-12 0 L211 0 L211 0 Z " />
<glyph glyph-name="F" unicode="F" horiz-adv-x="277" d="M224 242 L241 333 L146 333 L171 463 L290 463 L308 560 L92 560 L-12 0 L84 0 L129 242 L224 242 L224 242 Z " />
<glyph glyph-name="G" unicode="G" horiz-adv-x="360" d="M336 364 L348 430 C356 472 350 505 328 530 C306 555 276 568 236 568 C196 568 160 555 127 529 C95 503 76 469 68 427 L11 129 C3 88 9 54 30 29 C52 4 82 -8 122 -8 C140 -8 158 -6 175 0 L266 0 L291 132 L330 333 L191 333 L173 242 L216 242 L195 129 C192 114 185 102 176 93 C167 84 155 80 141 80 C129 80 119 84 113 93 C106 102 105 114 108 129 L165 428 C168 444 174 455 184 464 C192 472 204 476 217 476 C230 476 238 472 245 464 C251 455 252 444 249 428 L237 364 L336 364 L336 364 Z " />
<glyph glyph-name="H" unicode="H" horiz-adv-x="356" d="M164 0 L263 0 L368 560 L269 560 L228 339 L148 339 L189 560 L92 560 L-12 0 L84 0 L129 241 L209 241 L164 0 L164 0 Z " />
<glyph glyph-name="I" unicode="I" horiz-adv-x="180" d="M-12 0 L87 0 L192 560 L92 560 L-12 0 L-12 0 Z " />
<glyph glyph-name="J" unicode="J" horiz-adv-x="220" d="M-30 -8 L7 -8 C42 -8 72 2 98 23 C125 44 142 75 149 114 L232 560 L132 560 L53 135 C47 102 29 86 0 86 C-4 86 -13 86 -13 86 L-30 -8 L-30 -8 Z " />
<glyph glyph-name="K" unicode="K" horiz-adv-x="354" d="M-12 0 L85 0 L135 265 L178 0 L287 0 L228 294 L384 560 L275 560 L144 312 L190 560 L92 560 L-12 0 L-12 0 Z " />
<glyph glyph-name="L" unicode="L" horiz-adv-x="258" d="M195 0 L213 96 L103 96 L190 560 L92 560 L-12 0 L195 0 L195 0 Z " />
<glyph glyph-name="M" unicode="M" horiz-adv-x="448" d="M165 84 L207 84 L329 342 L265 0 L355 0 L460 560 L368 560 L220 246 L191 560 L92 560 L-12 0 L77 0 L140 336 L165 84 L165 84 Z " />
<glyph glyph-name="N" unicode="N" horiz-adv-x="364" d="M185 0 L271 0 L376 560 L290 560 L229 234 L184 560 L92 560 L-12 0 L73 0 L138 345 L185 0 L185 0 Z " />
<glyph glyph-name="O" unicode="O" horiz-adv-x="360" d="M12 129 C4 88 11 54 33 29 C54 4 85 -8 125 -8 C165 -8 201 5 233 30 C265 56 285 90 292 132 L347 430 C355 472 348 505 326 530 C305 555 274 568 233 568 C194 568 158 555 126 529 C94 503 74 469 66 427 L12 129 Z M165 428 C168 444 173 455 182 464 C192 472 202 476 215 476 C228 476 238 472 243 464 C250 455 252 444 249 428 L194 131 C191 116 185 104 176 96 C167 87 156 83 143 83 C130 83 121 87 115 96 C108 104 107 116 110 131 L165 428 Z " />
<glyph glyph-name="P" unicode="P" horiz-adv-x="346" d="M-12 0 L84 0 L121 200 L150 200 C197 200 236 212 268 238 C299 263 319 300 328 348 L341 414 C350 462 344 498 323 523 C302 547 268 560 222 560 L92 560 L-12 0 Z M172 469 L203 469 C236 469 249 450 242 413 L229 344 C221 306 202 288 169 288 L138 288 L172 469 Z " />
<glyph glyph-name="Q" unicode="Q" horiz-adv-x="360" d="M300 132 L356 430 C363 472 357 505 335 530 C314 555 282 568 243 568 C202 568 167 555 135 529 C103 503 83 469 75 427 L20 129 C12 88 19 54 40 29 C61 4 92 -8 132 -8 C139 -8 143 -8 144 -8 L155 -96 L247 -96 L229 22 C268 48 291 85 300 132 L300 132 Z M197 141 L131 120 L135 86 C130 88 126 91 122 96 C116 104 115 116 118 131 L173 428 C176 444 181 455 191 464 C200 472 211 476 224 476 C237 476 246 472 252 464 C258 455 259 444 256 428 L201 131 C201 130 201 129 200 127 L197 141 L197 141 Z " />
<glyph glyph-name="R" unicode="R" horiz-adv-x="341" d="M329 353 L341 414 C350 462 344 498 322 523 C301 547 267 560 221 560 L92 560 L-12 0 L85 0 L125 214 L161 214 C174 214 183 210 189 202 C193 194 195 184 193 170 L161 0 L256 0 L289 175 C295 209 291 237 277 259 C304 281 322 312 329 353 L329 353 Z M231 352 C227 329 217 313 203 304 C194 298 184 296 171 296 L141 296 L173 469 L203 469 C236 469 250 450 243 413 L231 352 L231 352 Z " />
<glyph glyph-name="S" unicode="S" horiz-adv-x="316" d="M94 172 L0 172 L-7 126 C-15 85 -8 52 12 28 C33 4 63 -8 102 -8 C142 -8 178 4 210 30 C242 56 262 89 270 131 C276 164 274 196 263 225 C253 255 234 285 208 316 C183 346 167 369 159 386 C151 402 148 419 152 436 C154 449 160 460 168 467 C177 475 187 479 199 479 C210 479 218 475 223 467 C229 458 230 447 227 433 L221 400 L316 400 L323 437 C330 477 323 508 302 532 C283 556 254 568 216 568 C177 568 143 555 111 530 C81 506 61 473 54 433 C43 375 62 317 114 259 C140 228 156 203 165 185 C172 166 174 147 170 128 C167 113 161 102 153 93 C143 84 132 80 120 80 C107 80 98 84 92 93 C85 102 84 115 87 131 L94 172 L94 172 Z " />
<glyph glyph-name="T" unicode="T" horiz-adv-x="330" d="M334 463 L352 560 L82 560 L64 463 L149 463 L62 0 L162 0 L249 463 L334 463 L334 463 Z " />
<glyph glyph-name="U" unicode="U" horiz-adv-x="352" d="M267 560 L185 127 C183 113 178 102 169 94 C162 87 152 83 140 83 C128 83 120 87 114 94 C109 102 108 113 110 127 L192 560 L93 560 L11 125 C3 85 10 52 31 28 C52 4 82 -8 121 -8 C159 -8 194 4 225 29 C257 54 276 87 284 128 L365 560 L267 560 L267 560 Z " />
<glyph glyph-name="V" unicode="V" horiz-adv-x="330" d="M63 0 L159 0 L372 560 L274 560 L154 208 L169 560 L64 560 L63 0 L63 0 Z " />
<glyph glyph-name="W" unicode="W" horiz-adv-x="485" d="M58 0 L145 0 L245 302 L233 0 L323 0 L519 560 L420 560 L318 215 L335 560 L257 560 L148 215 L173 560 L68 560 L58 0 L58 0 Z " />
<glyph glyph-name="X" unicode="X" horiz-adv-x="343" d="M382 560 L278 560 L196 398 L177 560 L69 560 L121 288 L-43 0 L60 0 L152 182 L177 0 L285 0 L228 292 L382 560 L382 560 Z " />
<glyph glyph-name="Y" unicode="Y" horiz-adv-x="340" d="M67 0 L164 0 L204 208 L373 560 L274 560 L183 336 L178 560 L73 560 L107 208 L67 0 L67 0 Z " />
<glyph glyph-name="Z" unicode="Z" horiz-adv-x="293" d="M212 0 L229 91 L85 91 L303 482 L317 560 L81 560 L64 469 L195 469 L-21 76 L-35 0 L212 0 L212 0 Z " />
<glyph glyph-name="bracketleft" unicode="&#x5b;" horiz-adv-x="258" d="M168 -8 L183 73 L83 73 L180 597 L280 597 L295 680 L103 680 L-23 -8 L168 -8 L168 -8 Z " />
<glyph glyph-name="backslash" unicode="&#x5c;" horiz-adv-x="339" d="M159 680 L79 680 L176 -8 L255 -8 L159 680 L159 680 Z " />
<glyph glyph-name="bracketright" unicode="&#x5d;" horiz-adv-x="258" d="M155 -8 L280 680 L88 680 L73 597 L173 597 L77 73 L-22 73 L-36 -8 L155 -8 L155 -8 Z " />
<glyph glyph-name="asciicircum" unicode="&#x5e;" horiz-adv-x="382" d="M219 288 L313 288 L252 560 L172 560 L22 288 L117 288 L196 455 L219 288 L219 288 Z " />
<glyph glyph-name="underscore" unicode="&#x5f;" horiz-adv-x="407" d="M362 0 L375 68 L55 68 L42 0 L362 0 L362 0 Z " />
<glyph glyph-name="grave" unicode="&#x60;" horiz-adv-x="154" d="M152 560 L56 560 L95 426 L165 426 L152 560 L152 560 Z " />
<glyph glyph-name="a" unicode="a" horiz-adv-x="328" d="M5 109 C-1 72 2 44 17 23 C32 2 54 -8 85 -8 C121 -8 164 18 180 78 L166 0 L249 0 L305 299 C312 335 305 364 286 387 C266 409 239 420 204 420 C170 420 138 409 109 385 C81 362 63 332 57 296 L147 303 C149 315 154 324 161 331 C169 338 178 341 187 341 C197 341 204 338 209 331 C215 324 216 315 214 303 L198 217 C184 237 163 247 136 247 C105 247 78 236 54 214 C31 192 15 162 8 126 L5 109 Z M102 133 C104 147 109 158 119 167 C128 175 138 179 150 179 C162 179 172 175 177 167 C182 158 184 147 182 133 L178 111 C175 97 169 86 160 78 C152 69 141 65 129 65 C117 65 108 69 102 78 C96 86 95 97 98 111 L102 133 Z " />
<glyph glyph-name="b" unicode="b" horiz-adv-x="340" d="M-12 0 L68 0 L83 78 C74 31 97 -8 143 -8 C172 -8 198 2 222 23 C245 44 260 72 267 107 L305 308 C311 344 307 371 292 391 C278 411 256 420 226 420 C198 420 174 410 153 390 L185 560 L93 560 L-12 0 Z M177 120 C174 106 169 96 161 89 C153 81 143 77 131 77 C120 77 112 81 106 89 C100 96 99 106 102 120 L135 293 C137 306 142 316 151 324 C159 332 169 336 180 336 C192 336 200 332 206 324 C211 316 212 306 210 293 L177 120 Z " />
<glyph glyph-name="c" unicode="c" horiz-adv-x="322" d="M186 172 L175 116 C173 104 169 95 161 88 C153 81 144 77 133 77 C123 77 115 81 110 88 C106 95 104 104 106 116 L141 296 C143 308 148 318 155 325 C162 332 172 336 182 336 C193 336 200 332 206 325 C211 318 212 308 210 296 L200 244 L289 244 L299 298 C306 334 299 364 281 386 C262 409 235 420 200 420 C164 420 132 409 102 385 C73 361 55 331 48 295 L14 114 C7 78 14 48 33 26 C53 3 81 -8 116 -8 C150 -8 182 3 211 27 C239 51 258 81 265 117 L275 172 L186 172 L186 172 Z " />
<glyph glyph-name="d" unicode="d" horiz-adv-x="339" d="M165 0 L247 0 L351 560 L259 560 L228 390 C214 410 193 420 166 420 C136 420 111 411 88 391 C66 371 52 344 45 308 L8 107 C2 72 5 44 21 23 C37 2 60 -8 89 -8 C134 -8 171 31 180 78 L165 0 Z M107 89 C101 96 100 106 102 120 L135 293 C137 306 142 316 150 324 C159 332 169 336 180 336 C191 336 199 332 204 324 C210 316 212 306 210 293 L177 120 C175 106 169 96 161 89 C152 81 142 77 131 77 C120 77 112 81 107 89 L107 89 Z " />
<glyph glyph-name="e" unicode="e" horiz-adv-x="325" d="M183 120 C180 106 175 96 167 89 C158 81 149 77 137 77 C126 77 117 81 112 89 C106 96 105 106 108 120 L121 194 L282 194 L302 298 C308 334 302 364 282 386 C262 409 234 420 199 420 C164 420 132 409 102 385 C73 362 55 332 48 295 L15 115 C8 78 14 48 34 26 C54 3 81 -8 117 -8 C152 -8 184 3 213 27 C243 51 261 81 268 117 L274 148 L188 148 L183 120 Z M141 302 C144 315 149 325 157 333 C166 341 175 344 186 344 C198 344 207 341 212 333 C218 325 219 315 216 302 L207 254 L132 254 L141 302 Z " />
<glyph glyph-name="f" unicode="f" horiz-adv-x="237" d="M31 336 L75 336 L9 0 L101 0 L167 336 L231 336 L245 412 L181 412 L188 444 C193 471 208 485 232 485 C240 485 260 485 260 485 L276 568 C276 568 233 568 224 568 C192 568 164 559 143 541 C120 524 106 498 99 463 L89 412 L45 412 L31 336 L31 336 Z " />
<glyph glyph-name="g" unicode="g" horiz-adv-x="339" d="M349 412 L266 412 L250 326 C256 370 242 420 193 420 C164 420 137 410 114 389 C91 368 76 340 70 305 L41 148 C34 113 38 86 52 66 C68 46 90 36 119 36 C148 36 172 46 192 65 L177 -15 C175 -27 169 -38 161 -46 C153 -53 142 -57 131 -57 C120 -57 112 -53 107 -46 C101 -38 100 -27 102 -15 L106 5 L17 5 L14 -11 C7 -48 14 -78 33 -102 C53 -125 80 -136 116 -136 C152 -136 185 -124 214 -100 C245 -76 264 -45 271 -8 L349 412 Z M160 293 C162 306 167 316 175 324 C184 332 194 336 205 336 C216 336 225 332 229 324 C235 316 237 306 235 293 L209 154 C206 142 201 132 192 125 C184 118 174 115 163 115 C152 115 144 119 139 126 C133 134 132 145 134 157 L160 293 Z " />
<glyph glyph-name="h" unicode="h" horiz-adv-x="336" d="M243 0 L301 308 C308 345 304 373 292 392 C278 411 258 420 231 420 C199 420 153 393 140 326 L184 560 L92 560 L-12 0 L79 0 L135 299 C137 311 142 320 150 326 C158 332 168 336 179 336 C202 336 211 322 206 295 L151 0 L243 0 L243 0 Z " />
<glyph glyph-name="i" unicode="i" horiz-adv-x="167" d="M96 558 C82 547 75 533 72 517 C69 501 71 488 80 477 C90 465 102 460 118 460 C134 460 149 465 162 477 C176 488 185 501 188 517 C191 533 187 547 178 558 C169 570 156 576 140 576 C124 576 110 570 96 558 L96 558 Z M-14 0 L78 0 L156 412 L63 412 L-14 0 Z " />
<glyph glyph-name="j" unicode="j" horiz-adv-x="186" d="M-57 -136 L-17 -136 C10 -136 36 -127 57 -109 C80 -90 93 -65 99 -32 L181 412 L87 412 L7 -22 C3 -43 -7 -54 -26 -54 C-31 -54 -37 -55 -42 -54 L-57 -136 Z M119 558 C106 547 98 533 95 517 C92 501 96 488 105 477 C113 465 126 460 142 460 C158 460 172 465 187 477 C200 488 208 501 211 517 C214 533 210 547 201 558 C192 570 180 576 164 576 C148 576 133 570 119 558 L119 558 Z " />
<glyph glyph-name="k" unicode="k" horiz-adv-x="334" d="M-12 0 L79 0 L117 201 L161 0 L267 0 L204 226 L336 412 L233 412 L124 238 L184 560 L92 560 L-12 0 L-12 0 Z " />
<glyph glyph-name="l" unicode="l" horiz-adv-x="174" d="M-11 0 L82 0 L185 560 L91 560 L-11 0 L-11 0 Z " />
<glyph glyph-name="m" unicode="m" horiz-adv-x="490" d="M148 295 C153 322 166 336 190 336 C211 336 220 322 215 295 L159 0 L251 0 L307 296 C309 308 314 318 321 325 C330 332 338 336 349 336 C370 336 379 322 374 295 L318 0 L410 0 L468 308 C475 345 472 373 460 392 C447 411 427 420 400 420 C362 420 332 403 309 368 C302 403 279 420 241 420 C204 420 161 398 144 326 L161 412 L78 412 L0 0 L92 0 L148 295 L148 295 Z " />
<glyph glyph-name="n" unicode="n" horiz-adv-x="336" d="M147 295 C149 308 154 318 163 325 C171 332 181 336 193 336 C215 336 224 322 219 295 L165 0 L257 0 L313 308 C320 345 317 373 304 392 C290 411 270 420 243 420 C204 420 155 390 144 326 L159 412 L76 412 L1 0 L93 0 L147 295 L147 295 Z " />
<glyph glyph-name="o" unicode="o" horiz-adv-x="339" d="M23 117 C16 80 22 50 43 26 C63 3 92 -8 128 -8 C164 -8 197 4 227 28 C257 52 276 83 283 121 L315 295 C322 332 316 363 295 386 C275 409 246 420 210 420 C174 420 141 409 111 385 C81 361 63 330 55 292 L23 117 Z M148 293 C150 306 155 316 163 324 C172 332 182 336 194 336 C205 336 213 332 218 324 C224 316 225 306 223 293 L191 120 C188 106 183 96 175 89 C166 81 157 77 146 77 C134 77 125 81 120 89 C114 96 113 106 116 120 L148 293 Z " />
<glyph glyph-name="p" unicode="p" horiz-adv-x="339" d="M-10 -128 L81 -128 L108 18 C120 0 141 -8 168 -8 C197 -8 224 2 247 23 C271 44 285 72 291 107 L329 308 C335 344 331 371 317 391 C302 411 279 420 249 420 C215 420 168 388 156 326 L172 412 L89 412 L-10 -128 Z M202 120 C199 106 194 96 186 89 C177 81 168 77 157 77 C146 77 136 81 132 89 C126 96 124 106 127 120 L159 293 C161 306 167 316 176 324 C183 332 194 336 205 336 C216 336 224 332 230 324 C235 316 236 306 234 293 L202 120 Z " />
<glyph glyph-name="q" unicode="q" horiz-adv-x="339" d="M156 -128 L248 -128 L348 412 L266 412 L250 326 C262 388 225 420 190 420 C160 420 135 411 113 391 C90 371 76 344 70 308 L32 107 C26 72 31 44 46 23 C62 2 84 -8 114 -8 C141 -8 163 0 183 18 L156 -128 Z M132 89 C126 96 124 106 127 120 L159 293 C161 306 167 316 176 324 C184 332 193 336 205 336 C216 336 224 332 230 324 C235 316 236 306 234 293 L202 120 C199 106 194 96 186 89 C177 81 168 77 157 77 C145 77 137 81 132 89 L132 89 Z " />
<glyph glyph-name="r" unicode="r" horiz-adv-x="244" d="M257 420 C211 420 160 380 146 326 L162 412 L77 412 L0 0 L93 0 L140 248 C148 292 173 314 217 314 L237 314 L257 420 L257 420 Z " />
<glyph glyph-name="s" unicode="s" horiz-adv-x="307" d="M204 288 L292 288 L294 302 C301 337 294 365 275 387 C255 409 228 420 193 420 C158 420 127 410 99 388 C71 366 54 340 48 308 C38 253 60 210 114 181 C139 166 156 154 163 145 C170 135 173 124 171 112 C169 99 164 89 155 82 C147 75 137 71 126 71 C114 71 106 75 100 82 C95 90 94 101 96 114 L100 132 L11 132 L8 116 C1 79 7 49 28 26 C49 3 77 -8 113 -8 C149 -8 181 3 210 27 C239 50 257 80 264 116 C274 171 250 214 193 246 C170 258 155 269 148 278 C141 287 139 298 141 309 C143 319 147 327 154 333 C161 339 170 341 181 341 C190 341 197 338 203 331 C207 324 209 315 207 303 L204 288 L204 288 Z " />
<glyph glyph-name="t" unicode="t" horiz-adv-x="227" d="M26 336 L70 336 L24 96 C17 62 22 36 37 18 C53 0 76 -8 109 -8 C128 -8 160 -8 160 -8 L176 77 L149 77 C124 77 116 91 121 118 L162 336 L230 336 L244 412 L176 412 L196 512 L104 512 L84 412 L40 412 L26 336 L26 336 Z " />
<glyph glyph-name="u" unicode="u" horiz-adv-x="336" d="M188 117 C186 104 180 94 172 87 C165 80 154 77 143 77 C120 77 112 90 116 117 L169 412 L77 412 L22 104 C16 67 19 40 32 21 C46 1 66 -8 93 -8 C131 -8 181 22 192 86 L177 0 L260 0 L333 412 L241 412 L188 117 L188 117 Z " />
<glyph glyph-name="v" unicode="v" horiz-adv-x="300" d="M69 0 L153 0 L324 412 L235 412 L142 148 L148 412 L52 412 L69 0 L69 0 Z " />
<glyph glyph-name="w" unicode="w" horiz-adv-x="430" d="M62 0 L140 0 L219 232 L211 0 L289 0 L451 412 L362 412 L284 169 L290 412 L223 412 L139 169 L150 412 L55 412 L62 0 L62 0 Z " />
<glyph glyph-name="x" unicode="x" horiz-adv-x="328" d="M345 412 L252 412 L182 296 L155 412 L59 412 L118 213 L-23 0 L70 0 L150 133 L182 0 L278 0 L213 216 L345 412 L345 412 Z " />
<glyph glyph-name="y" unicode="y" horiz-adv-x="302" d="M81 0 C73 -22 64 -38 54 -47 C44 -56 31 -60 17 -60 C7 -60 -6 -60 -6 -60 L-20 -136 C-20 -136 13 -136 22 -136 C81 -136 128 -94 162 -11 L338 412 L248 412 L153 133 L162 412 L66 412 L81 0 L81 0 Z " />
<glyph glyph-name="z" unicode="z" horiz-adv-x="262" d="M-10 65 L-22 0 L201 0 L216 79 L89 79 L266 350 L278 412 L66 412 L51 334 L164 334 L-10 65 L-10 65 Z " />
<glyph glyph-name="braceleft" unicode="&#x7b;" horiz-adv-x="310" d="M183 246 C193 302 177 332 133 336 C154 337 171 345 186 360 C201 375 211 397 216 425 L240 552 C243 569 248 581 258 589 C267 597 280 601 297 601 L333 601 L347 680 L303 680 C257 680 222 669 198 648 C171 626 155 593 147 547 L122 414 C117 389 102 376 76 376 L47 376 L32 295 L61 295 C87 295 97 282 93 257 L68 125 C60 79 63 45 81 24 C98 2 130 -8 176 -8 L220 -8 L234 71 L198 71 C181 71 169 75 163 82 C157 90 156 102 159 119 L183 246 L183 246 Z " />
<glyph glyph-name="bar" unicode="&#x7c;" horiz-adv-x="156" d="M-28 -8 L47 -8 L184 712 L108 712 L-28 -8 L-28 -8 Z " />
<glyph glyph-name="braceright" unicode="&#x7d;" horiz-adv-x="310" d="M126 425 C115 368 132 338 176 336 C131 332 103 302 93 246 L70 119 C67 102 60 90 51 82 C43 75 30 71 13 71 L-22 71 L-36 -8 L6 -8 C51 -8 86 2 111 24 C137 45 154 79 163 125 L187 257 C192 282 206 295 232 295 L262 295 L277 376 L247 376 C221 376 211 389 216 414 L240 547 C249 593 244 626 226 648 C208 669 176 680 131 680 L88 680 L74 601 L110 601 C127 601 138 597 144 589 C151 582 152 570 149 552 L126 425 L126 425 Z " />
<glyph glyph-name="asciitilde" unicode="&#x7e;" horiz-adv-x="342" d="M76 231 L79 241 C80 248 84 255 89 262 C95 269 101 272 109 272 C119 272 129 268 138 260 C147 252 157 244 169 236 C180 228 195 223 212 223 C228 223 243 228 257 236 C270 245 281 254 289 265 C297 275 303 287 309 301 C315 315 318 324 319 330 C321 335 322 340 322 343 L257 343 L255 332 C253 325 249 318 244 311 C238 305 231 301 224 301 C213 301 199 309 180 325 C162 342 143 350 122 350 C105 350 90 346 76 337 C62 329 51 319 45 309 C37 298 31 286 24 272 C19 258 15 249 14 243 C12 238 11 234 11 231 L76 231 L76 231 Z " />
<glyph glyph-name="exclamdown" unicode="&#xa1;" horiz-adv-x="154" d="M152 469 C166 480 174 494 177 510 C180 526 177 540 167 551 C158 562 146 568 130 568 C114 568 99 562 85 551 C72 540 64 526 61 510 C58 494 61 480 70 469 C80 457 93 452 109 452 C125 452 139 457 152 469 L152 469 Z M128 382 L63 382 L-28 0 L77 0 L128 382 Z " />
<glyph glyph-name="cent" unicode="&#xa2;" horiz-adv-x="329" d="M86 -71 L144 -71 L156 -8 C185 -1 209 12 230 34 C252 55 265 81 271 110 L282 165 L194 165 L183 110 C181 98 175 88 167 81 C160 74 151 70 140 70 C129 70 122 74 117 81 C113 88 112 98 114 110 L149 290 C151 301 156 311 164 318 C171 325 180 329 191 329 C202 329 209 325 214 318 C218 311 220 301 218 290 L208 239 L296 239 L306 291 C312 321 309 346 296 367 C283 388 263 402 237 408 L249 470 L191 470 L179 408 C149 402 123 389 100 367 C77 345 63 319 57 289 L22 108 C16 77 20 51 35 30 C48 8 70 -5 98 -10 L86 -71 L86 -71 Z " />
<glyph glyph-name="sterling" unicode="&#xa3;" horiz-adv-x="373" d="M355 384 L366 444 C373 481 367 510 347 533 C327 556 300 568 264 568 C228 568 195 555 165 531 C135 507 116 476 109 437 L83 297 L31 297 L21 241 L73 241 L44 86 L-7 86 L-23 0 L28 0 L121 0 L276 0 L292 86 L137 86 L166 241 L261 241 L271 297 L176 297 L202 436 C207 466 222 481 247 481 C271 481 280 466 275 436 L265 384 L355 384 L355 384 Z " />
<glyph glyph-name="currency" unicode="&#xa4;" horiz-adv-x="402" d="M87 347 C62 321 47 290 41 256 C34 222 39 191 54 164 L-8 112 L24 71 L90 125 C111 109 140 101 173 101 C206 101 237 110 265 127 L311 71 L360 112 L315 166 C340 193 356 224 362 257 C368 292 362 322 347 350 L412 401 L378 442 L311 388 C290 404 263 413 231 413 C198 413 167 404 137 386 L91 442 L43 401 L87 347 Z M138 202 C125 217 122 235 126 257 C129 278 140 297 157 311 C175 326 194 333 215 333 C236 333 253 326 265 311 C278 296 281 278 278 257 C274 235 263 217 246 202 C228 187 209 180 188 180 C167 180 150 187 138 202 L138 202 Z " />
<glyph glyph-name="yen" unicode="&#xa5;" horiz-adv-x="348" d="M70 0 L168 0 L200 167 L286 167 L295 217 L209 217 L215 245 L223 261 L304 261 L314 312 L249 312 L377 560 L280 560 L189 351 L180 560 L77 560 L109 312 L46 312 L36 261 L115 261 L117 246 L111 217 L27 217 L18 167 L102 167 L70 0 L70 0 Z " />
<glyph glyph-name="brokenbar" unicode="&#xa6;" horiz-adv-x="143" d="M174 712 L97 712 L48 441 L125 441 L174 712 Z M-33 -8 L43 -8 L92 261 L15 261 L-33 -8 Z " />
<glyph glyph-name="section" unicode="&#xa7;" horiz-adv-x="410" d="M195 38 C193 27 188 17 180 11 C173 4 163 1 152 1 C140 1 132 5 127 12 C122 20 121 30 123 42 L127 66 L35 66 L30 40 C24 4 31 -24 51 -45 C71 -65 99 -75 136 -75 C174 -75 208 -64 237 -42 C267 -21 285 8 292 45 C299 82 291 115 271 145 C328 165 362 203 372 259 C378 290 373 317 357 340 C343 364 315 391 274 422 C252 440 236 456 227 470 C218 484 216 499 219 514 C221 526 225 535 234 542 C242 548 251 552 263 552 C274 552 282 548 287 541 C292 533 293 523 291 511 L286 486 L378 486 L383 513 C390 548 383 577 363 598 C343 618 315 629 278 629 C240 629 207 617 177 596 C147 573 129 544 122 508 C116 471 122 437 143 407 C86 388 53 351 43 294 C37 263 41 236 56 212 C71 189 99 161 139 130 C182 98 201 68 195 38 L195 38 Z M274 249 C272 235 266 224 255 215 C244 206 232 201 217 199 C183 226 161 247 150 260 C140 274 137 289 140 305 C142 318 148 329 159 338 C170 347 181 352 197 353 C231 327 253 306 263 293 C274 279 277 264 274 249 L274 249 Z " />
<glyph glyph-name="dieresis" unicode="&#xa8;" horiz-adv-x="275" d="M143 571 C116 571 89 550 84 520 C79 493 94 469 124 469 C151 469 180 489 186 520 C191 548 173 570 143 571 L143 571 Z M277 571 C250 571 223 550 218 520 C213 493 227 469 258 469 C286 469 313 489 319 520 C323 547 307 571 277 571 L277 571 Z " />
<glyph glyph-name="copyright" unicode="&#xa9;" horiz-adv-x="658" d="M160 484 C94 428 53 359 38 278 C23 197 37 129 82 74 C128 19 191 -8 273 -8 C355 -8 430 20 497 76 C563 132 604 200 619 281 C634 362 619 430 574 485 C529 540 466 568 383 568 C301 568 227 540 160 484 L160 484 Z M134 114 C97 158 85 213 98 280 C110 346 142 401 195 446 C248 490 307 513 372 513 C437 513 488 490 523 446 C559 401 571 346 559 280 C546 213 514 158 462 114 C409 69 350 47 285 47 C220 47 169 69 134 114 L134 114 Z M400 226 L392 217 C386 211 377 205 363 198 C350 192 336 189 322 189 C297 189 276 198 262 215 C249 232 245 254 250 280 C254 305 266 327 286 344 C307 361 330 370 355 370 C369 370 382 367 393 361 C402 355 410 351 412 347 C414 343 417 340 417 338 L478 384 L469 398 C463 407 451 415 431 424 C413 434 391 438 366 438 C320 438 278 423 242 392 C206 361 183 323 175 278 C167 233 175 196 199 166 C223 136 258 121 305 121 C331 121 356 127 380 138 C403 149 419 157 426 164 C433 171 438 176 443 181 L400 226 Z " />
<glyph glyph-name="ordfeminine" unicode="&#xaa;" horiz-adv-x="214" d="M20 385 C16 362 17 344 27 331 C36 318 51 311 71 312 C97 312 121 335 129 363 L120 316 L174 316 L207 495 C211 518 206 536 195 550 C183 564 165 571 143 571 C121 571 101 564 83 549 C64 535 53 516 49 493 L47 485 L107 485 L110 500 C112 514 121 521 133 521 C145 521 148 514 146 500 L137 450 C130 461 118 466 101 466 C81 466 63 459 49 446 C34 432 25 414 21 391 L20 385 Z M0 229 L158 229 L167 275 L8 275 L0 229 Z M83 398 C86 415 96 424 111 424 C125 424 130 415 127 398 L124 383 C121 366 113 357 99 357 C84 357 77 366 80 383 L83 398 Z " />
<glyph glyph-name="guillemotleft" unicode="&#xab;" horiz-adv-x="482" d="M264 408 L225 459 L42 312 L37 284 L164 139 L223 192 L144 300 L264 408 Z M468 408 L429 459 L246 312 L241 284 L368 139 L427 192 L348 300 L468 408 Z " />
<glyph glyph-name="logicalnot" unicode="&#xac;" horiz-adv-x="356" d="M220 119 L299 119 L332 300 L56 300 L43 227 L240 227 L220 119 L220 119 Z " />
<glyph glyph-name="registered" unicode="&#xae;" horiz-adv-x="321" d="M188 570 C149 570 112 556 81 529 C49 502 29 469 22 430 C15 392 22 359 45 333 C67 306 97 293 136 293 C175 293 211 306 243 333 C275 360 294 393 301 432 C308 471 301 504 280 530 C257 556 227 570 188 570 L188 570 Z M74 356 C57 376 52 401 58 431 C63 461 78 486 101 506 C125 527 152 537 181 537 C211 537 233 527 249 506 C266 486 271 461 266 431 C260 401 245 376 222 356 C198 336 172 326 142 326 C113 326 90 336 74 356 L74 356 Z M97 364 L131 364 L139 409 L154 409 L176 364 L214 364 L190 413 C209 420 221 433 225 454 C227 467 225 478 218 486 C210 494 199 498 184 498 L122 498 L97 364 Z M174 471 C188 471 194 464 191 452 C189 440 181 435 167 435 L144 435 L151 471 L174 471 Z " />
<glyph glyph-name="degree" unicode="&#xb0;" horiz-adv-x="288" d="M74 547 C46 523 28 493 22 459 C15 424 22 396 41 372 C61 348 87 336 122 336 C156 336 189 348 217 373 C247 397 264 426 271 460 C277 494 271 523 251 547 C232 571 205 583 170 583 C136 583 104 571 74 547 L74 547 Z M99 419 C90 430 87 443 91 460 C94 475 101 489 114 500 C127 511 141 517 156 517 C172 517 184 511 193 500 C201 489 205 475 202 460 C198 443 190 430 178 419 C165 407 151 402 135 402 C120 402 108 407 99 419 L99 419 Z " />
<glyph glyph-name="plusminus" unicode="&#xb1;" horiz-adv-x="345" d="M247 405 L173 405 L153 299 L52 299 L39 226 L140 226 L120 121 L194 121 L214 226 L315 226 L328 299 L227 299 L247 405 Z M273 1 L287 75 L11 75 L-2 1 L273 1 Z " />
<glyph glyph-name="twosuperior" unicode="&#xb2;" horiz-adv-x="188" d="M144 228 L154 284 L62 284 L152 407 C173 436 186 463 191 487 C195 511 191 531 179 546 C166 561 148 568 125 568 C103 568 83 561 64 545 C46 530 35 510 30 486 L24 453 L84 453 L90 484 C93 502 101 511 114 511 C127 511 131 502 128 484 C125 465 118 448 106 432 L-7 272 L-15 228 L144 228 L144 228 Z " />
<glyph glyph-name="threesuperior" unicode="&#xb3;" horiz-adv-x="213" d="M201 491 C205 514 201 533 189 547 C176 561 160 568 137 568 C116 568 96 561 78 546 C61 531 49 512 45 489 L40 463 L101 463 L106 492 C109 506 115 513 125 513 C137 513 141 506 138 492 L129 446 C127 432 120 425 108 425 L99 377 C113 377 118 368 115 350 L106 304 C103 287 94 279 80 279 C67 279 62 287 65 304 L71 336 L11 336 L5 304 C0 279 4 259 17 245 C29 230 46 223 69 223 C93 223 115 230 134 246 C153 261 165 281 169 305 L176 339 C181 365 175 385 160 401 C179 416 190 435 195 459 L201 491 L201 491 Z " />
<glyph glyph-name="acute" unicode="&#xb4;" horiz-adv-x="154" d="M75 434 L144 434 L230 568 L134 568 L75 434 L75 434 Z " />
<glyph glyph-name="mu" unicode="&#xb5;" horiz-adv-x="336" d="M90 413 L-10 -128 L81 -128 L104 -5 C109 -7 115 -8 124 -8 C150 -8 172 7 194 38 L190 0 L269 0 L346 413 L254 413 L198 114 C195 102 190 93 181 87 C173 80 164 77 153 77 C130 77 122 91 127 118 L182 413 L90 413 L90 413 Z " />
<glyph glyph-name="paragraph" unicode="&#xb6;" horiz-adv-x="451" d="M116 0 L208 0 L298 477 L356 477 L266 0 L358 0 L463 560 L217 560 C172 560 135 546 103 518 C72 490 53 455 45 413 C37 373 44 339 64 311 C84 283 116 269 160 269 L166 269 L116 0 L116 0 Z " />
<glyph glyph-name="cedilla" unicode="&#xb8;" horiz-adv-x="285" d="M127 -2 L131 -7 C134 -10 137 -15 140 -23 C142 -31 143 -39 141 -48 C139 -62 131 -74 121 -83 C110 -92 97 -96 82 -96 C69 -96 61 -95 56 -93 L45 -154 L50 -154 C52 -155 57 -156 63 -157 C70 -158 76 -158 83 -158 C115 -158 144 -149 167 -132 C190 -114 204 -90 210 -59 C212 -47 213 -35 211 -25 C209 -14 206 -6 202 0 C198 6 193 12 188 18 C182 23 179 26 176 28 C175 29 173 30 171 31 L127 -2 L127 -2 Z " />
<glyph glyph-name="onesuperior" unicode="&#xb9;" horiz-adv-x="152" d="M27 510 L50 469 L77 485 L28 225 L90 225 L153 561 L101 561 L27 510 L27 510 Z " />
<glyph glyph-name="ordmasculine" unicode="&#xba;" horiz-adv-x="200" d="M18 392 C14 368 18 348 31 334 C44 319 62 312 86 312 C108 312 129 319 148 335 C167 350 178 369 182 393 L200 492 C204 516 199 535 187 549 C174 564 156 571 133 571 C110 571 88 563 70 548 C51 534 40 514 35 490 L18 392 Z M-2 229 L145 229 L153 275 L5 275 L-2 229 Z M97 494 C100 510 108 517 122 517 C136 517 141 510 138 494 L119 388 C117 374 109 366 95 366 C81 366 76 374 78 388 L97 494 Z " />
<glyph glyph-name="guillemotright" unicode="&#xbb;" horiz-adv-x="441" d="M-6 192 L32 142 L214 288 L219 316 L89 462 L31 408 L112 300 L-6 192 Z M197 192 L236 142 L418 288 L423 316 L293 462 L235 408 L316 300 L197 192 Z " />
<glyph glyph-name="onequarter" unicode="&#xbc;" horiz-adv-x="460" d="M49 507 L72 466 L103 486 L54 225 L115 225 L178 561 L126 561 L49 507 Z M-9 1 L52 1 L479 561 L417 561 L-9 1 Z M233 126 L223 76 L317 76 L303 1 L359 1 L373 76 L399 76 L409 126 L383 126 L422 337 L363 337 L233 126 Z M282 126 L346 230 L327 126 L282 126 Z " />
<glyph glyph-name="onehalf" unicode="&#xbd;" horiz-adv-x="518" d="M61 505 L85 464 L118 485 L69 224 L130 224 L193 560 L141 560 L61 505 Z M5 0 L67 0 L494 560 L432 560 L5 0 Z M434 0 L445 56 L352 56 L443 180 C465 209 478 236 483 259 C487 284 483 304 471 319 C458 333 441 341 418 341 C395 341 375 333 357 318 C338 302 326 283 322 259 L315 226 L375 226 L381 256 C384 274 393 283 405 283 C418 283 423 274 420 256 C417 238 408 220 397 204 L282 44 L273 0 L434 0 Z " />
<glyph glyph-name="threequarters" unicode="&#xbe;" horiz-adv-x="494" d="M227 487 C231 511 228 530 215 544 C203 558 185 565 163 565 C141 565 122 558 104 543 C87 528 76 509 71 486 L67 460 L127 460 L132 488 C134 502 141 509 152 509 C163 509 167 502 165 488 L156 443 C154 428 146 421 135 421 L126 373 C140 373 146 364 143 347 L134 300 C131 284 122 275 108 275 C95 275 90 284 93 300 L99 332 L39 332 L33 300 C28 276 32 256 44 241 C56 227 75 220 98 220 C121 220 142 227 161 242 C180 257 192 277 196 302 L203 336 C207 361 202 382 186 398 C205 413 216 432 221 455 L227 487 Z M25 0 L87 0 L513 560 L451 560 L25 0 Z M268 127 L258 75 L352 75 L338 0 L394 0 L408 75 L434 75 L443 125 L417 125 L458 342 L399 342 L268 127 Z M315 125 L382 235 L361 125 L315 125 Z " />
<glyph glyph-name="questiondown" unicode="&#xbf;" horiz-adv-x="297" d="M123 363 C120 345 111 325 98 306 C86 286 72 268 59 253 C46 238 32 218 19 195 C6 171 -3 147 -7 122 C-14 83 -7 51 11 27 C32 3 60 -9 96 -9 C132 -9 165 3 195 29 C224 54 242 87 250 129 L258 175 L169 175 L161 130 C155 97 139 81 115 81 C104 81 96 85 91 94 C85 102 84 114 87 130 C91 149 98 169 110 189 C122 210 134 228 147 243 C160 258 172 275 184 296 C195 317 203 337 207 357 L211 381 L126 381 L123 363 Z M225 468 C239 479 248 493 251 509 C254 525 250 539 240 550 C231 561 218 567 202 567 C186 567 172 561 158 550 C145 539 138 525 135 509 C132 493 134 479 143 468 C153 456 165 451 181 451 C197 451 212 456 225 468 L225 468 Z " />
<glyph glyph-name="Agrave" unicode="&#xc0;" horiz-adv-x="334" d="M264 560 L157 560 L-45 0 L49 0 L85 108 L174 108 L174 0 L270 0 L264 560 Z M178 386 L174 187 L111 187 L178 386 Z M240 760 L144 760 L183 626 L253 626 L240 760 Z " />
<glyph glyph-name="Aacute" unicode="&#xc1;" horiz-adv-x="334" d="M264 560 L157 560 L-45 0 L49 0 L85 108 L174 108 L174 0 L270 0 L264 560 Z M178 386 L174 187 L111 187 L178 386 Z M160 634 L229 634 L315 768 L219 768 L160 634 Z " />
<glyph glyph-name="Acircumflex" unicode="&#xc2;" horiz-adv-x="334" d="M264 560 L157 560 L-45 0 L49 0 L85 108 L174 108 L174 0 L270 0 L264 560 Z M178 386 L174 187 L111 187 L178 386 Z M107 627 L174 627 L229 694 L259 627 L331 627 L276 761 L208 761 L107 627 Z " />
<glyph glyph-name="Atilde" unicode="&#xc3;" horiz-adv-x="334" d="M264 560 L157 560 L-45 0 L49 0 L85 108 L174 108 L174 0 L270 0 L264 560 Z M178 386 L174 187 L111 187 L178 386 Z M162 602 L165 612 C166 619 170 626 176 633 C181 640 188 643 196 643 C206 643 216 639 224 631 C234 623 243 615 255 607 C266 599 280 594 297 594 C313 594 329 599 343 607 C357 616 367 625 375 636 C383 646 391 658 396 672 C402 686 406 696 407 701 C409 706 410 710 411 714 L346 714 L343 703 C341 696 338 689 331 682 C325 675 319 672 311 672 C300 672 286 680 268 696 C250 713 231 721 210 721 C193 721 178 717 164 708 C150 699 139 690 132 680 C124 669 118 657 112 643 C105 629 102 620 100 614 C99 609 97 605 97 602 L162 602 Z " />
<glyph glyph-name="Adieresis" unicode="&#xc4;" horiz-adv-x="334" d="M264 560 L157 560 L-45 0 L49 0 L85 108 L174 108 L174 0 L270 0 L264 560 Z M178 386 L174 187 L111 187 L178 386 Z M164 771 C137 771 110 750 105 720 C100 693 115 669 145 669 C172 669 201 689 207 720 C212 748 194 770 164 771 L164 771 Z M298 771 C271 771 244 750 239 720 C234 693 248 669 279 669 C307 669 334 689 340 720 C344 747 328 771 298 771 L298 771 Z " />
<glyph glyph-name="Aring" unicode="&#xc5;" horiz-adv-x="334" d="M264 560 L157 560 L-45 0 L49 0 L85 108 L174 108 L174 0 L270 0 L264 560 Z M178 386 L174 187 L111 187 L178 386 Z M187 725 C171 712 161 695 158 674 C154 654 158 637 170 624 C182 610 199 603 221 603 C242 603 261 610 277 624 C293 637 303 654 307 674 C310 695 306 712 294 725 C282 739 266 746 245 746 C223 746 203 739 187 725 L187 725 Z M227 644 C217 644 211 647 206 653 C201 659 200 666 202 674 C203 684 206 691 213 697 C220 702 228 705 238 705 C246 705 252 702 257 697 C262 691 264 684 263 674 C261 666 257 659 250 653 C243 647 235 644 227 644 L227 644 Z " />
<glyph glyph-name="AE" unicode="&#xc6;" horiz-adv-x="451" d="M466 463 L483 560 L201 560 L-41 0 L53 0 L99 108 L185 108 L166 0 L390 0 L406 96 L280 96 L306 242 L404 242 L420 332 L322 332 L344 463 L466 463 Z M128 187 L249 478 L198 187 L128 187 Z " />
<glyph glyph-name="Ccedilla" unicode="&#xc7;" horiz-adv-x="337" d="M184 127 C181 113 176 102 168 94 C161 87 151 83 139 83 C127 83 119 87 113 94 C107 102 105 113 108 127 L165 433 C167 446 173 457 182 464 C190 472 200 476 212 476 C224 476 232 472 237 464 C242 457 243 446 241 433 L227 356 L323 356 L338 437 C345 477 338 508 317 532 C298 556 268 568 230 568 C191 568 157 555 125 530 C94 504 75 471 68 431 L11 125 C3 85 10 52 31 28 C52 4 82 -8 120 -8 C158 -8 192 4 223 28 C253 53 272 85 280 125 L296 212 L200 212 L184 127 Z M157 -2 L161 -7 C164 -10 167 -15 170 -23 C172 -31 173 -39 171 -48 C169 -62 161 -74 151 -83 C140 -92 127 -96 112 -96 C99 -96 91 -95 86 -93 L75 -154 L80 -154 C82 -155 87 -156 93 -157 C100 -158 106 -158 113 -158 C145 -158 174 -149 197 -132 C220 -114 234 -90 240 -59 C242 -47 243 -35 241 -25 C239 -14 236 -6 232 0 C228 6 223 12 218 18 C212 23 209 26 206 28 C205 29 203 30 201 31 L157 -2 Z " />
<glyph glyph-name="Egrave" unicode="&#xc8;" horiz-adv-x="291" d="M211 0 L229 96 L102 96 L129 242 L228 242 L245 333 L146 333 L171 463 L294 463 L312 560 L92 560 L-12 0 L211 0 Z M242 760 L146 760 L185 626 L255 626 L242 760 Z " />
<glyph glyph-name="Eacute" unicode="&#xc9;" horiz-adv-x="291" d="M211 0 L229 96 L102 96 L129 242 L228 242 L245 333 L146 333 L171 463 L294 463 L312 560 L92 560 L-12 0 L211 0 Z M175 634 L244 634 L330 768 L234 768 L175 634 Z " />
<glyph glyph-name="Ecircumflex" unicode="&#xca;" horiz-adv-x="291" d="M211 0 L229 96 L102 96 L129 242 L228 242 L245 333 L146 333 L171 463 L294 463 L312 560 L92 560 L-12 0 L211 0 Z M109 627 L176 627 L231 694 L261 627 L333 627 L278 761 L210 761 L109 627 Z " />
<glyph glyph-name="Edieresis" unicode="&#xcb;" horiz-adv-x="291" d="M211 0 L229 96 L102 96 L129 242 L228 242 L245 333 L146 333 L171 463 L294 463 L312 560 L92 560 L-12 0 L211 0 Z M166 771 C139 771 112 750 107 720 C102 693 117 669 147 669 C174 669 203 689 209 720 C214 748 196 770 166 771 L166 771 Z M300 771 C273 771 246 750 241 720 C236 693 250 669 281 669 C309 669 336 689 342 720 C346 747 330 771 300 771 L300 771 Z " />
<glyph glyph-name="Igrave" unicode="&#xcc;" horiz-adv-x="180" d="M-12 0 L87 0 L192 560 L92 560 L-12 0 Z M168 760 L72 760 L111 626 L181 626 L168 760 Z " />
<glyph glyph-name="Iacute" unicode="&#xcd;" horiz-adv-x="180" d="M-12 0 L87 0 L192 560 L92 560 L-12 0 Z M101 634 L170 634 L256 768 L160 768 L101 634 Z " />
<glyph glyph-name="Icircumflex" unicode="&#xce;" horiz-adv-x="180" d="M-12 0 L87 0 L192 560 L92 560 L-12 0 Z M35 627 L102 627 L157 694 L187 627 L259 627 L204 761 L136 761 L35 627 Z " />
<glyph glyph-name="Idieresis" unicode="&#xcf;" horiz-adv-x="180" d="M-12 0 L87 0 L192 560 L92 560 L-12 0 Z M92 771 C65 771 38 750 33 720 C28 693 43 669 73 669 C100 669 129 689 135 720 C140 748 122 770 92 771 L92 771 Z M226 771 C199 771 172 750 167 720 C162 693 176 669 207 669 C235 669 262 689 268 720 C272 747 256 771 226 771 L226 771 Z " />
<glyph glyph-name="Eth" unicode="&#xd0;" horiz-adv-x="400" d="M32 0 L165 0 C208 0 245 12 276 37 C307 62 326 97 334 142 L385 420 C393 465 387 500 366 524 C346 548 314 560 271 560 L135 560 L89 312 L35 312 L24 251 L78 251 L32 0 Z M216 468 L246 468 C279 468 293 450 286 412 L237 147 C230 109 210 91 177 91 L147 91 L176 251 L228 251 L239 312 L187 312 L216 468 Z " />
<glyph glyph-name="Ntilde" unicode="&#xd1;" horiz-adv-x="364" d="M185 0 L271 0 L376 560 L290 560 L229 234 L184 560 L92 560 L-12 0 L73 0 L138 345 L185 0 Z M192 608 L195 618 C196 625 200 632 206 639 C211 646 218 649 226 649 C236 649 246 645 254 637 C264 629 273 621 285 613 C296 605 310 600 327 600 C343 600 359 605 373 613 C387 622 397 631 405 642 C413 652 421 664 426 678 C432 692 436 702 437 707 C439 712 440 716 441 720 L376 720 L373 709 C371 702 368 695 361 688 C355 681 349 678 341 678 C330 678 316 686 298 702 C280 719 261 727 240 727 C223 727 208 723 194 714 C180 705 169 696 162 686 C154 675 148 663 142 649 C135 635 132 626 130 620 C129 615 127 611 127 608 L192 608 Z " />
<glyph glyph-name="Ograve" unicode="&#xd2;" horiz-adv-x="360" d="M12 129 C4 88 11 54 33 29 C54 4 85 -8 125 -8 C165 -8 201 5 233 30 C265 56 285 90 292 132 L347 430 C355 472 348 505 326 530 C305 555 274 568 233 568 C194 568 158 555 126 529 C94 503 74 469 66 427 L12 129 Z M165 428 C168 444 173 455 182 464 C192 472 202 476 215 476 C228 476 238 472 243 464 C250 455 252 444 249 428 L194 131 C191 116 185 104 176 96 C167 87 156 83 143 83 C130 83 121 87 115 96 C108 104 107 116 110 131 L165 428 Z M257 741 L161 741 L200 607 L270 607 L257 741 Z " />
<glyph glyph-name="Oacute" unicode="&#xd3;" horiz-adv-x="360" d="M12 129 C4 88 11 54 33 29 C54 4 85 -8 125 -8 C165 -8 201 5 233 30 C265 56 285 90 292 132 L347 430 C355 472 348 505 326 530 C305 555 274 568 233 568 C194 568 158 555 126 529 C94 503 74 469 66 427 L12 129 Z M165 428 C168 444 173 455 182 464 C192 472 202 476 215 476 C228 476 238 472 243 464 C250 455 252 444 249 428 L194 131 C191 116 185 104 176 96 C167 87 156 83 143 83 C130 83 121 87 115 96 C108 104 107 116 110 131 L165 428 Z M185 607 L254 607 L340 741 L244 741 L185 607 Z " />
<glyph glyph-name="Ocircumflex" unicode="&#xd4;" horiz-adv-x="360" d="M12 129 C4 88 11 54 33 29 C54 4 85 -8 125 -8 C165 -8 201 5 233 30 C265 56 285 90 292 132 L347 430 C355 472 348 505 326 530 C305 555 274 568 233 568 C194 568 158 555 126 529 C94 503 74 469 66 427 L12 129 Z M165 428 C168 444 173 455 182 464 C192 472 202 476 215 476 C228 476 238 472 243 464 C250 455 252 444 249 428 L194 131 C191 116 185 104 176 96 C167 87 156 83 143 83 C130 83 121 87 115 96 C108 104 107 116 110 131 L165 428 Z M127 602 L194 602 L249 669 L279 602 L351 602 L296 736 L228 736 L127 602 Z " />
<glyph glyph-name="Otilde" unicode="&#xd5;" horiz-adv-x="360" d="M12 129 C4 88 11 54 33 29 C54 4 85 -8 125 -8 C165 -8 201 5 233 30 C265 56 285 90 292 132 L347 430 C355 472 348 505 326 530 C305 555 274 568 233 568 C194 568 158 555 126 529 C94 503 74 469 66 427 L12 129 Z M165 428 C168 444 173 455 182 464 C192 472 202 476 215 476 C228 476 238 472 243 464 C250 455 252 444 249 428 L194 131 C191 116 185 104 176 96 C167 87 156 83 143 83 C130 83 121 87 115 96 C108 104 107 116 110 131 L165 428 Z M179 610 L182 620 C183 627 187 634 193 641 C198 648 205 651 213 651 C223 651 233 647 241 639 C251 631 260 623 272 615 C283 607 297 602 314 602 C330 602 346 607 360 615 C374 624 384 633 392 644 C400 654 408 666 413 680 C419 694 423 704 424 709 C426 714 427 718 428 722 L363 722 L360 711 C358 704 355 697 348 690 C342 683 336 680 328 680 C317 680 303 688 285 704 C267 721 248 729 227 729 C210 729 195 725 181 716 C167 707 156 698 149 688 C141 677 135 665 129 651 C122 637 119 628 117 622 C116 617 114 613 114 610 L179 610 Z " />
<glyph glyph-name="Odieresis" unicode="&#xd6;" horiz-adv-x="360" d="M12 129 C4 88 11 54 33 29 C54 4 85 -8 125 -8 C165 -8 201 5 233 30 C265 56 285 90 292 132 L347 430 C355 472 348 505 326 530 C305 555 274 568 233 568 C194 568 158 555 126 529 C94 503 74 469 66 427 L12 129 Z M165 428 C168 444 173 455 182 464 C192 472 202 476 215 476 C228 476 238 472 243 464 C250 455 252 444 249 428 L194 131 C191 116 185 104 176 96 C167 87 156 83 143 83 C130 83 121 87 115 96 C108 104 107 116 110 131 L165 428 Z M186 742 C159 742 132 721 127 691 C122 664 137 640 167 640 C194 640 223 660 229 691 C234 719 216 741 186 742 L186 742 Z M320 742 C293 742 266 721 261 691 C256 664 270 640 301 640 C329 640 356 660 362 691 C366 718 350 742 320 742 L320 742 Z " />
<glyph glyph-name="multiply" unicode="&#xd7;" horiz-adv-x="306" d="M212 145 L273 197 L202 283 L303 370 L261 421 L159 335 L88 421 L27 370 L99 283 L-2 197 L39 145 L140 231 L212 145 L212 145 Z " />
<glyph glyph-name="Oslash" unicode="&#xd8;" horiz-adv-x="360" d="M384 584 L339 584 L314 543 C292 559 266 568 234 568 C194 568 159 555 126 529 C94 503 75 469 67 427 L12 130 C6 99 8 72 19 50 L-24 -24 L20 -24 L43 16 C65 0 92 -8 124 -8 C164 -8 200 5 232 30 C264 56 284 90 292 131 L347 430 C353 461 350 487 339 510 L384 584 Z M164 428 C167 443 173 455 183 464 C192 472 203 476 216 476 C240 476 251 462 248 433 L127 231 L164 428 Z M143 83 C131 83 121 86 116 93 C109 100 107 110 107 122 L229 326 L193 131 C190 116 184 104 175 96 C167 87 155 83 143 83 L143 83 Z " />
<glyph glyph-name="Ugrave" unicode="&#xd9;" horiz-adv-x="352" d="M267 560 L185 127 C183 113 178 102 169 94 C162 87 152 83 140 83 C128 83 120 87 114 94 C109 102 108 113 110 127 L192 560 L93 560 L11 125 C3 85 10 52 31 28 C52 4 82 -8 121 -8 C159 -8 194 4 225 29 C257 54 276 87 284 128 L365 560 L267 560 Z M249 745 L153 745 L192 611 L262 611 L249 745 Z " />
<glyph glyph-name="Uacute" unicode="&#xda;" horiz-adv-x="352" d="M267 560 L185 127 C183 113 178 102 169 94 C162 87 152 83 140 83 C128 83 120 87 114 94 C109 102 108 113 110 127 L192 560 L93 560 L11 125 C3 85 10 52 31 28 C52 4 82 -8 121 -8 C159 -8 194 4 225 29 C257 54 276 87 284 128 L365 560 L267 560 Z M183 604 L252 604 L338 738 L242 738 L183 604 Z " />
<glyph glyph-name="Ucircumflex" unicode="&#xdb;" horiz-adv-x="352" d="M267 560 L185 127 C183 113 178 102 169 94 C162 87 152 83 140 83 C128 83 120 87 114 94 C109 102 108 113 110 127 L192 560 L93 560 L11 125 C3 85 10 52 31 28 C52 4 82 -8 121 -8 C159 -8 194 4 225 29 C257 54 276 87 284 128 L365 560 L267 560 Z M122 609 L189 609 L244 676 L274 609 L346 609 L291 743 L223 743 L122 609 Z " />
<glyph glyph-name="Udieresis" unicode="&#xdc;" horiz-adv-x="352" d="M267 560 L185 127 C183 113 178 102 169 94 C162 87 152 83 140 83 C128 83 120 87 114 94 C109 102 108 113 110 127 L192 560 L93 560 L11 125 C3 85 10 52 31 28 C52 4 82 -8 121 -8 C159 -8 194 4 225 29 C257 54 276 87 284 128 L365 560 L267 560 Z M185 741 C158 741 131 720 126 690 C121 663 136 639 166 639 C193 639 222 659 228 690 C233 718 215 740 185 741 L185 741 Z M319 741 C292 741 265 720 260 690 C255 663 269 639 300 639 C328 639 355 659 361 690 C365 717 349 741 319 741 L319 741 Z " />
<glyph glyph-name="Yacute" unicode="&#xdd;" horiz-adv-x="310" d="M52 0 L149 0 L189 208 L358 560 L259 560 L168 336 L163 560 L58 560 L92 208 L52 0 Z M158 601 L227 601 L313 735 L217 735 L158 601 Z " />
<glyph glyph-name="Thorn" unicode="&#xde;" horiz-adv-x="356" d="M-11 0 L86 0 L108 118 L137 118 C183 118 221 131 253 156 C285 182 304 219 313 267 L323 322 C332 370 326 406 305 431 C284 455 250 467 204 467 L172 467 L189 560 L91 560 L-11 0 Z M156 380 L186 380 C219 380 232 361 226 324 L214 262 C207 225 187 206 154 206 L124 206 L156 380 Z " />
<glyph glyph-name="germandbls" unicode="&#xdf;" horiz-adv-x="352" d="M115 -8 L145 -8 C181 -8 214 4 243 28 C273 52 292 84 299 124 L319 232 C324 261 322 286 312 307 C303 328 289 344 268 354 L349 484 L346 492 C345 498 342 505 337 514 C332 522 325 530 317 538 C309 546 297 553 283 559 C267 565 249 568 230 568 C191 568 156 555 124 530 C94 505 75 472 67 432 L-11 0 L85 0 L164 429 C167 444 173 455 182 464 C191 472 201 476 213 476 C232 476 243 470 248 456 L184 350 L172 285 L188 285 C201 285 211 280 216 272 C222 263 224 251 221 236 L202 132 C200 117 193 105 184 96 C175 88 165 84 152 84 C143 84 132 84 132 84 L115 -8 L115 -8 Z " />
<glyph glyph-name="agrave" unicode="&#xe0;" horiz-adv-x="328" d="M5 109 C-1 72 2 44 17 23 C32 2 54 -8 85 -8 C121 -8 164 18 180 78 L166 0 L249 0 L305 299 C312 335 305 364 286 387 C266 409 239 420 204 420 C170 420 138 409 109 385 C81 362 63 332 57 296 L147 303 C149 315 154 324 161 331 C169 338 178 341 187 341 C197 341 204 338 209 331 C215 324 216 315 214 303 L198 217 C184 237 163 247 136 247 C105 247 78 236 54 214 C31 192 15 162 8 126 L5 109 Z M102 133 C104 147 109 158 119 167 C128 175 138 179 150 179 C162 179 172 175 177 167 C182 158 184 147 182 133 L178 111 C175 97 169 86 160 78 C152 69 141 65 129 65 C117 65 108 69 102 78 C96 86 95 97 98 111 L102 133 Z M241 560 L145 560 L184 426 L254 426 L241 560 Z " />
<glyph glyph-name="aacute" unicode="&#xe1;" horiz-adv-x="328" d="M5 109 C-1 72 2 44 17 23 C32 2 54 -8 85 -8 C121 -8 164 18 180 78 L166 0 L249 0 L305 299 C312 335 305 364 286 387 C266 409 239 420 204 420 C170 420 138 409 109 385 C81 362 63 332 57 296 L147 303 C149 315 154 324 161 331 C169 338 178 341 187 341 C197 341 204 338 209 331 C215 324 216 315 214 303 L198 217 C184 237 163 247 136 247 C105 247 78 236 54 214 C31 192 15 162 8 126 L5 109 Z M102 133 C104 147 109 158 119 167 C128 175 138 179 150 179 C162 179 172 175 177 167 C182 158 184 147 182 133 L178 111 C175 97 169 86 160 78 C152 69 141 65 129 65 C117 65 108 69 102 78 C96 86 95 97 98 111 L102 133 Z M174 434 L243 434 L329 568 L233 568 L174 434 Z " />
<glyph glyph-name="acircumflex" unicode="&#xe2;" horiz-adv-x="328" d="M5 109 C-1 72 2 44 17 23 C32 2 54 -8 85 -8 C121 -8 164 18 180 78 L166 0 L249 0 L305 299 C312 335 305 364 286 387 C266 409 239 420 204 420 C170 420 138 409 109 385 C81 362 63 332 57 296 L147 303 C149 315 154 324 161 331 C169 338 178 341 187 341 C197 341 204 338 209 331 C215 324 216 315 214 303 L198 217 C184 237 163 247 136 247 C105 247 78 236 54 214 C31 192 15 162 8 126 L5 109 Z M102 133 C104 147 109 158 119 167 C128 175 138 179 150 179 C162 179 172 175 177 167 C182 158 184 147 182 133 L178 111 C175 97 169 86 160 78 C152 69 141 65 129 65 C117 65 108 69 102 78 C96 86 95 97 98 111 L102 133 Z M108 427 L175 427 L230 494 L260 427 L332 427 L277 561 L209 561 L108 427 Z " />
<glyph glyph-name="atilde" unicode="&#xe3;" horiz-adv-x="328" d="M5 109 C-1 72 2 44 17 23 C32 2 54 -8 85 -8 C121 -8 164 18 180 78 L166 0 L249 0 L305 299 C312 335 305 364 286 387 C266 409 239 420 204 420 C170 420 138 409 109 385 C81 362 63 332 57 296 L147 303 C149 315 154 324 161 331 C169 338 178 341 187 341 C197 341 204 338 209 331 C215 324 216 315 214 303 L198 217 C184 237 163 247 136 247 C105 247 78 236 54 214 C31 192 15 162 8 126 L5 109 Z M102 133 C104 147 109 158 119 167 C128 175 138 179 150 179 C162 179 172 175 177 167 C182 158 184 147 182 133 L178 111 C175 97 169 86 160 78 C152 69 141 65 129 65 C117 65 108 69 102 78 C96 86 95 97 98 111 L102 133 Z M165 457 L168 467 C169 474 173 481 179 488 C184 495 191 498 199 498 C209 498 219 494 227 486 C237 478 246 470 258 462 C269 454 283 449 300 449 C316 449 332 454 346 462 C360 471 370 480 378 491 C386 501 394 513 399 527 C405 541 409 551 410 556 C412 561 413 565 414 569 L349 569 L346 558 C344 551 341 544 334 537 C328 530 322 527 314 527 C303 527 289 535 271 551 C253 568 234 576 213 576 C196 576 181 572 167 563 C153 554 142 545 135 535 C127 524 121 512 115 498 C108 484 105 475 103 469 C102 464 100 460 100 457 L165 457 Z " />
<glyph glyph-name="adieresis" unicode="&#xe4;" horiz-adv-x="328" d="M5 109 C-1 72 2 44 17 23 C32 2 54 -8 85 -8 C121 -8 164 18 180 78 L166 0 L249 0 L305 299 C312 335 305 364 286 387 C266 409 239 420 204 420 C170 420 138 409 109 385 C81 362 63 332 57 296 L147 303 C149 315 154 324 161 331 C169 338 178 341 187 341 C197 341 204 338 209 331 C215 324 216 315 214 303 L198 217 C184 237 163 247 136 247 C105 247 78 236 54 214 C31 192 15 162 8 126 L5 109 Z M102 133 C104 147 109 158 119 167 C128 175 138 179 150 179 C162 179 172 175 177 167 C182 158 184 147 182 133 L178 111 C175 97 169 86 160 78 C152 69 141 65 129 65 C117 65 108 69 102 78 C96 86 95 97 98 111 L102 133 Z M165 571 C138 571 111 550 106 520 C101 493 116 469 146 469 C173 469 202 489 208 520 C213 548 195 570 165 571 L165 571 Z M299 571 C272 571 245 550 240 520 C235 493 249 469 280 469 C308 469 335 489 341 520 C345 547 329 571 299 571 L299 571 Z " />
<glyph glyph-name="aring" unicode="&#xe5;" horiz-adv-x="328" d="M5 109 C-1 72 2 44 17 23 C32 2 54 -8 85 -8 C121 -8 164 18 180 78 L166 0 L249 0 L305 299 C312 335 305 364 286 387 C266 409 239 420 204 420 C170 420 138 409 109 385 C81 362 63 332 57 296 L147 303 C149 315 154 324 161 331 C169 338 178 341 187 341 C197 341 204 338 209 331 C215 324 216 315 214 303 L198 217 C184 237 163 247 136 247 C105 247 78 236 54 214 C31 192 15 162 8 126 L5 109 Z M102 133 C104 147 109 158 119 167 C128 175 138 179 150 179 C162 179 172 175 177 167 C182 158 184 147 182 133 L178 111 C175 97 169 86 160 78 C152 69 141 65 129 65 C117 65 108 69 102 78 C96 86 95 97 98 111 L102 133 Z M188 525 C172 512 162 495 159 474 C155 454 159 437 171 424 C183 410 200 403 222 403 C243 403 262 410 278 424 C294 437 304 454 308 474 C311 495 307 512 295 525 C283 539 267 546 246 546 C224 546 204 539 188 525 L188 525 Z M228 444 C218 444 212 447 207 453 C202 459 201 466 203 474 C204 484 207 491 214 497 C221 502 229 505 239 505 C247 505 253 502 258 497 C263 491 265 484 264 474 C262 466 258 459 251 453 C244 447 236 444 228 444 L228 444 Z " />
<glyph glyph-name="ae" unicode="&#xe6;" horiz-adv-x="488" d="M5 109 C0 72 2 44 18 23 C34 2 59 -8 92 -8 C139 -8 174 7 199 36 C213 7 240 -8 280 -8 C315 -8 348 4 377 27 C407 51 424 81 431 117 L437 148 L352 148 L347 120 C344 106 338 96 330 89 C321 81 312 77 301 77 C290 77 281 81 276 89 C270 96 268 106 271 120 L284 194 L445 194 L465 298 C471 334 465 364 445 387 C425 409 398 421 362 421 C330 421 300 409 276 387 C261 409 236 421 202 421 C168 421 137 409 109 385 C81 362 63 332 56 296 L53 279 L141 279 L146 303 C148 315 153 324 161 331 C168 338 177 341 187 341 C197 341 204 338 209 331 C213 324 215 315 213 303 L197 217 C184 237 163 247 135 247 C105 247 78 236 54 214 C30 192 15 162 9 126 L5 109 Z M101 133 C104 147 110 158 118 166 C128 175 137 179 150 179 C162 179 172 175 177 166 C183 158 184 147 181 133 L177 111 C174 97 169 86 161 78 C152 69 141 65 129 65 C116 65 108 69 102 78 C96 86 94 97 97 111 L101 133 Z M304 302 C307 315 313 325 321 333 C330 341 339 344 350 344 C361 344 370 341 375 333 C381 325 383 315 380 302 L371 254 L295 254 L304 302 Z " />
<glyph glyph-name="ccedilla" unicode="&#xe7;" horiz-adv-x="330" d="M194 172 L183 116 C181 104 177 95 169 88 C161 81 152 77 141 77 C131 77 123 81 118 88 C114 95 112 104 114 116 L149 296 C151 308 156 318 163 325 C170 332 180 336 190 336 C201 336 208 332 214 325 C219 318 220 308 218 296 L208 244 L297 244 L307 298 C314 334 307 364 289 386 C270 409 243 420 208 420 C172 420 140 409 110 385 C81 361 63 331 56 295 L22 114 C15 78 22 48 41 26 C61 3 89 -8 124 -8 C158 -8 190 3 219 27 C247 51 266 81 273 117 L283 172 L194 172 Z M153 -2 L157 -7 C160 -10 163 -15 166 -23 C168 -31 169 -39 167 -48 C165 -62 157 -74 147 -83 C136 -92 123 -96 108 -96 C95 -96 87 -95 82 -93 L71 -154 L76 -154 C78 -155 83 -156 89 -157 C96 -158 102 -158 109 -158 C141 -158 170 -149 193 -132 C216 -114 230 -90 236 -59 C238 -47 239 -35 237 -25 C235 -14 232 -6 228 0 C224 6 219 12 214 18 C208 23 205 26 202 28 C201 29 199 30 197 31 L153 -2 Z " />
<glyph glyph-name="egrave" unicode="&#xe8;" horiz-adv-x="333" d="M191 120 C188 106 183 96 175 89 C166 81 157 77 145 77 C134 77 125 81 120 89 C114 96 113 106 116 120 L129 194 L290 194 L310 298 C316 334 310 364 290 386 C270 409 242 420 207 420 C172 420 140 409 110 385 C81 362 63 332 56 295 L23 115 C16 78 22 48 42 26 C62 3 89 -8 125 -8 C160 -8 192 3 221 27 C251 51 269 81 276 117 L282 148 L196 148 L191 120 Z M149 302 C152 315 157 325 165 333 C174 341 183 344 194 344 C206 344 215 341 220 333 C226 325 227 315 224 302 L215 254 L140 254 L149 302 Z M243 560 L147 560 L186 426 L256 426 L243 560 Z " />
<glyph glyph-name="eacute" unicode="&#xe9;" horiz-adv-x="333" d="M191 120 C188 106 183 96 175 89 C166 81 157 77 145 77 C134 77 125 81 120 89 C114 96 113 106 116 120 L129 194 L290 194 L310 298 C316 334 310 364 290 386 C270 409 242 420 207 420 C172 420 140 409 110 385 C81 362 63 332 56 295 L23 115 C16 78 22 48 42 26 C62 3 89 -8 125 -8 C160 -8 192 3 221 27 C251 51 269 81 276 117 L282 148 L196 148 L191 120 Z M149 302 C152 315 157 325 165 333 C174 341 183 344 194 344 C206 344 215 341 220 333 C226 325 227 315 224 302 L215 254 L140 254 L149 302 Z M176 434 L245 434 L331 568 L235 568 L176 434 Z " />
<glyph glyph-name="ecircumflex" unicode="&#xea;" horiz-adv-x="333" d="M191 120 C188 106 183 96 175 89 C166 81 157 77 145 77 C134 77 125 81 120 89 C114 96 113 106 116 120 L129 194 L290 194 L310 298 C316 334 310 364 290 386 C270 409 242 420 207 420 C172 420 140 409 110 385 C81 362 63 332 56 295 L23 115 C16 78 22 48 42 26 C62 3 89 -8 125 -8 C160 -8 192 3 221 27 C251 51 269 81 276 117 L282 148 L196 148 L191 120 Z M149 302 C152 315 157 325 165 333 C174 341 183 344 194 344 C206 344 215 341 220 333 C226 325 227 315 224 302 L215 254 L140 254 L149 302 Z M110 427 L177 427 L232 494 L262 427 L334 427 L279 561 L211 561 L110 427 Z " />
<glyph glyph-name="edieresis" unicode="&#xeb;" horiz-adv-x="333" d="M191 120 C188 106 183 96 175 89 C166 81 157 77 145 77 C134 77 125 81 120 89 C114 96 113 106 116 120 L129 194 L290 194 L310 298 C316 334 310 364 290 386 C270 409 242 420 207 420 C172 420 140 409 110 385 C81 362 63 332 56 295 L23 115 C16 78 22 48 42 26 C62 3 89 -8 125 -8 C160 -8 192 3 221 27 C251 51 269 81 276 117 L282 148 L196 148 L191 120 Z M149 302 C152 315 157 325 165 333 C174 341 183 344 194 344 C206 344 215 341 220 333 C226 325 227 315 224 302 L215 254 L140 254 L149 302 Z M170 571 C143 571 116 550 111 520 C106 493 121 469 151 469 C178 469 207 489 213 520 C218 548 200 570 170 571 L170 571 Z M304 571 C277 571 250 550 245 520 C240 493 254 469 285 469 C313 469 340 489 346 520 C350 547 334 571 304 571 L304 571 Z " />
<glyph glyph-name="igrave" unicode="&#xec;" horiz-adv-x="173" d="M95 0 L170 412 L77 412 L2 0 L95 0 Z M160 567 L64 567 L103 433 L173 433 L160 567 Z " />
<glyph glyph-name="iacute" unicode="&#xed;" horiz-adv-x="173" d="M93 0 L172 412 L79 412 L0 0 L93 0 Z M87 435 L156 435 L242 569 L146 569 L87 435 Z " />
<glyph glyph-name="icircumflex" unicode="&#xee;" horiz-adv-x="173" d="M94 0 L171 412 L78 412 L1 0 L94 0 Z M34 429 L101 429 L156 496 L186 429 L258 429 L203 563 L135 563 L34 429 Z " />
<glyph glyph-name="idieresis" unicode="&#xef;" horiz-adv-x="173" d="M93 0 L172 412 L79 412 L0 0 L93 0 Z M94 543 C67 543 40 522 35 492 C30 465 45 441 75 441 C102 441 131 461 137 492 C142 520 124 542 94 543 L94 543 Z M228 543 C201 543 174 522 169 492 C164 465 178 441 209 441 C237 441 264 461 270 492 C274 519 258 543 228 543 L228 543 Z " />
<glyph glyph-name="eth" unicode="&#xf0;" horiz-adv-x="328" d="M284 355 L264 446 L325 482 L290 553 L246 527 L239 560 L146 560 L165 478 L111 445 L146 374 L183 397 L201 322 C195 352 173 364 159 364 C124 364 93 352 69 330 C44 307 29 276 21 238 L1 126 C-6 87 0 55 23 30 C45 4 74 -8 112 -8 C149 -8 183 4 212 28 C243 52 261 84 268 123 L283 206 C294 261 295 311 284 355 L284 355 Z M177 128 C174 114 168 103 159 94 C150 86 139 82 126 82 C114 82 105 86 100 94 C93 103 91 114 94 128 L114 236 C117 250 123 261 132 270 C141 278 152 282 164 282 C177 282 186 278 191 270 C198 261 200 250 197 236 L177 128 L177 128 Z " />
<glyph glyph-name="ntilde" unicode="&#xf1;" horiz-adv-x="336" d="M147 295 C149 308 154 318 163 325 C171 332 181 336 193 336 C215 336 224 322 219 295 L165 0 L257 0 L313 308 C320 345 317 373 304 392 C290 411 270 420 243 420 C204 420 155 390 144 326 L159 412 L76 412 L1 0 L93 0 L147 295 Z M147 457 L150 467 C151 474 155 481 161 488 C166 495 173 498 181 498 C191 498 201 494 209 486 C219 478 228 470 240 462 C251 454 265 449 282 449 C298 449 314 454 328 462 C342 471 352 480 360 491 C368 501 376 513 381 527 C387 541 391 551 392 556 C394 561 395 565 396 569 L331 569 L328 558 C326 551 323 544 316 537 C310 530 304 527 296 527 C285 527 271 535 253 551 C235 568 216 576 195 576 C178 576 163 572 149 563 C135 554 124 545 117 535 C109 524 103 512 97 498 C90 484 87 475 85 469 C84 464 82 460 82 457 L147 457 Z " />
<glyph glyph-name="ograve" unicode="&#xf2;" horiz-adv-x="339" d="M23 117 C16 80 22 50 43 26 C63 3 92 -8 128 -8 C164 -8 197 4 227 28 C257 52 276 83 283 121 L315 295 C322 332 316 363 295 386 C275 409 246 420 210 420 C174 420 141 409 111 385 C81 361 63 330 55 292 L23 117 Z M148 293 C150 306 155 316 163 324 C172 332 182 336 194 336 C205 336 213 332 218 324 C224 316 225 306 223 293 L191 120 C188 106 183 96 175 89 C166 81 157 77 146 77 C134 77 125 81 120 89 C114 96 113 106 116 120 L148 293 Z M248 560 L152 560 L191 426 L261 426 L248 560 Z " />
<glyph glyph-name="oacute" unicode="&#xf3;" horiz-adv-x="339" d="M23 117 C16 80 22 50 43 26 C63 3 92 -8 128 -8 C164 -8 197 4 227 28 C257 52 276 83 283 121 L315 295 C322 332 316 363 295 386 C275 409 246 420 210 420 C174 420 141 409 111 385 C81 361 63 330 55 292 L23 117 Z M148 293 C150 306 155 316 163 324 C172 332 182 336 194 336 C205 336 213 332 218 324 C224 316 225 306 223 293 L191 120 C188 106 183 96 175 89 C166 81 157 77 146 77 C134 77 125 81 120 89 C114 96 113 106 116 120 L148 293 Z M181 434 L250 434 L336 568 L240 568 L181 434 Z " />
<glyph glyph-name="ocircumflex" unicode="&#xf4;" horiz-adv-x="339" d="M23 117 C16 80 22 50 43 26 C63 3 92 -8 128 -8 C164 -8 197 4 227 28 C257 52 276 83 283 121 L315 295 C322 332 316 363 295 386 C275 409 246 420 210 420 C174 420 141 409 111 385 C81 361 63 330 55 292 L23 117 Z M148 293 C150 306 155 316 163 324 C172 332 182 336 194 336 C205 336 213 332 218 324 C224 316 225 306 223 293 L191 120 C188 106 183 96 175 89 C166 81 157 77 146 77 C134 77 125 81 120 89 C114 96 113 106 116 120 L148 293 Z M115 427 L182 427 L237 494 L267 427 L339 427 L284 561 L216 561 L115 427 Z " />
<glyph glyph-name="otilde" unicode="&#xf5;" horiz-adv-x="339" d="M23 117 C16 80 22 50 43 26 C63 3 92 -8 128 -8 C164 -8 197 4 227 28 C257 52 276 83 283 121 L315 295 C322 332 316 363 295 386 C275 409 246 420 210 420 C174 420 141 409 111 385 C81 361 63 330 55 292 L23 117 Z M148 293 C150 306 155 316 163 324 C172 332 182 336 194 336 C205 336 213 332 218 324 C224 316 225 306 223 293 L191 120 C188 106 183 96 175 89 C166 81 157 77 146 77 C134 77 125 81 120 89 C114 96 113 106 116 120 L148 293 Z M140 457 L143 467 C144 474 148 481 154 488 C159 495 166 498 174 498 C184 498 194 494 202 486 C212 478 221 470 233 462 C244 454 258 449 275 449 C291 449 307 454 321 462 C335 471 345 480 353 491 C361 501 369 513 374 527 C380 541 384 551 385 556 C387 561 388 565 389 569 L324 569 L321 558 C319 551 316 544 309 537 C303 530 297 527 289 527 C278 527 264 535 246 551 C228 568 209 576 188 576 C171 576 156 572 142 563 C128 554 117 545 110 535 C102 524 96 512 90 498 C83 484 80 475 78 469 C77 464 75 460 75 457 L140 457 Z " />
<glyph glyph-name="odieresis" unicode="&#xf6;" horiz-adv-x="339" d="M23 117 C16 80 22 50 43 26 C63 3 92 -8 128 -8 C164 -8 197 4 227 28 C257 52 276 83 283 121 L315 295 C322 332 316 363 295 386 C275 409 246 420 210 420 C174 420 141 409 111 385 C81 361 63 330 55 292 L23 117 Z M148 293 C150 306 155 316 163 324 C172 332 182 336 194 336 C205 336 213 332 218 324 C224 316 225 306 223 293 L191 120 C188 106 183 96 175 89 C166 81 157 77 146 77 C134 77 125 81 120 89 C114 96 113 106 116 120 L148 293 Z M175 571 C148 571 121 550 116 520 C111 493 126 469 156 469 C183 469 212 489 218 520 C223 548 205 570 175 571 L175 571 Z M309 571 C282 571 255 550 250 520 C245 493 259 469 290 469 C318 469 345 489 351 520 C355 547 339 571 309 571 L309 571 Z " />
<glyph glyph-name="divide" unicode="&#xf7;" horiz-adv-x="356" d="M308 241 L323 321 L47 321 L32 241 L308 241 Z M214 475 C187 475 157 453 151 423 C146 397 166 371 195 371 C221 371 250 394 255 423 C261 451 244 474 214 475 L214 475 Z M160 191 C134 191 103 169 98 139 C93 112 111 87 141 87 C168 87 196 110 202 139 C207 166 190 190 160 191 L160 191 Z " />
<glyph glyph-name="oslash" unicode="&#xf8;" horiz-adv-x="340" d="M350 437 L301 437 L276 402 C258 415 236 421 211 421 C174 421 141 409 111 385 C81 361 62 330 55 293 L23 118 C18 88 22 62 34 42 L-10 -24 L39 -24 L63 10 C80 -2 103 -8 129 -8 C165 -8 199 4 229 28 C258 52 277 83 284 120 L316 294 C321 324 318 349 305 371 L350 437 Z M145 293 C148 307 154 318 162 326 C172 335 182 339 194 339 C207 339 217 333 223 322 L124 175 L145 293 Z M145 74 C131 74 122 79 116 90 L217 239 L195 120 C192 105 186 94 178 86 C168 78 157 74 145 74 L145 74 Z " />
<glyph glyph-name="ugrave" unicode="&#xf9;" horiz-adv-x="336" d="M188 117 C186 104 180 94 172 87 C165 80 154 77 143 77 C120 77 112 90 116 117 L169 412 L77 412 L22 104 C16 67 19 40 32 21 C46 1 66 -8 93 -8 C131 -8 181 22 192 86 L177 0 L260 0 L333 412 L241 412 L188 117 Z M230 560 L134 560 L173 426 L243 426 L230 560 Z " />
<glyph glyph-name="uacute" unicode="&#xfa;" horiz-adv-x="336" d="M188 117 C186 104 180 94 172 87 C165 80 154 77 143 77 C120 77 112 90 116 117 L169 412 L77 412 L22 104 C16 67 19 40 32 21 C46 1 66 -8 93 -8 C131 -8 181 22 192 86 L177 0 L260 0 L333 412 L241 412 L188 117 Z M163 434 L232 434 L318 568 L222 568 L163 434 Z " />
<glyph glyph-name="ucircumflex" unicode="&#xfb;" horiz-adv-x="336" d="M188 117 C186 104 180 94 172 87 C165 80 154 77 143 77 C120 77 112 90 116 117 L169 412 L77 412 L22 104 C16 67 19 40 32 21 C46 1 66 -8 93 -8 C131 -8 181 22 192 86 L177 0 L260 0 L333 412 L241 412 L188 117 Z M97 427 L164 427 L219 494 L249 427 L321 427 L266 561 L198 561 L97 427 Z " />
<glyph glyph-name="udieresis" unicode="&#xfc;" horiz-adv-x="336" d="M188 117 C186 104 180 94 172 87 C165 80 154 77 143 77 C120 77 112 90 116 117 L169 412 L77 412 L22 104 C16 67 19 40 32 21 C46 1 66 -8 93 -8 C131 -8 181 22 192 86 L177 0 L260 0 L333 412 L241 412 L188 117 Z M157 571 C130 571 103 550 98 520 C93 493 108 469 138 469 C165 469 194 489 200 520 C205 548 187 570 157 571 L157 571 Z M291 571 C264 571 237 550 232 520 C227 493 241 469 272 469 C300 469 327 489 333 520 C337 547 321 571 291 571 L291 571 Z " />
<glyph glyph-name="yacute" unicode="&#xfd;" horiz-adv-x="302" d="M81 0 C73 -22 64 -38 54 -47 C44 -56 31 -60 17 -60 C7 -60 -6 -60 -6 -60 L-20 -136 C-20 -136 13 -136 22 -136 C81 -136 128 -94 162 -11 L338 412 L248 412 L153 133 L162 412 L66 412 L81 0 Z M139 434 L208 434 L294 568 L198 568 L139 434 Z " />
<glyph glyph-name="thorn" unicode="&#xfe;" horiz-adv-x="339" d="M-23 -67 L68 -67 L104 129 C94 76 128 53 155 53 C184 53 211 64 234 84 C258 105 272 133 278 169 L316 370 C322 405 319 433 304 453 C289 472 267 482 237 482 C210 482 165 458 154 400 L195 621 L103 621 L-23 -67 Z M189 181 C186 168 181 158 173 150 C164 142 155 139 144 139 C133 139 123 142 119 150 C113 158 111 168 114 181 L146 355 C148 368 154 378 163 386 C170 393 181 397 192 397 C203 397 211 393 217 386 C222 378 223 368 221 355 L189 181 Z " />
<glyph glyph-name="ydieresis" unicode="&#xff;" horiz-adv-x="302" d="M81 0 C73 -22 64 -38 54 -47 C44 -56 31 -60 17 -60 C7 -60 -6 -60 -6 -60 L-20 -136 C-20 -136 13 -136 22 -136 C81 -136 128 -94 162 -11 L338 412 L248 412 L153 133 L162 412 L66 412 L81 0 Z M164 565 C137 565 110 544 105 514 C100 487 115 463 145 463 C172 463 201 483 207 514 C212 542 194 564 164 565 L164 565 Z M298 565 C271 565 244 544 239 514 C234 487 248 463 279 463 C307 463 334 483 340 514 C344 541 328 565 298 565 L298 565 Z " />
<glyph glyph-name="Abreve" unicode="&#x102;" horiz-adv-x="345" d="M275 560 L168 560 L-34 0 L60 0 L96 108 L185 108 L185 0 L281 0 L275 560 Z M189 386 L185 187 L122 187 L189 386 Z M154 737 L147 699 C142 670 146 646 161 629 C175 611 197 602 226 602 C255 602 280 611 301 630 C323 648 336 671 341 701 L348 737 L285 737 L278 697 C275 685 271 676 263 668 C256 661 247 657 236 657 C212 657 203 670 208 697 L215 737 L154 737 Z " />
<glyph glyph-name="abreve" unicode="&#x103;" horiz-adv-x="328" d="M5 109 C-1 72 2 44 17 23 C32 2 54 -8 85 -8 C121 -8 164 18 180 78 L166 0 L249 0 L305 299 C312 335 305 364 286 387 C266 409 239 420 204 420 C170 420 138 409 109 385 C81 362 63 332 57 296 L147 303 C149 315 154 324 161 331 C169 338 178 341 187 341 C197 341 204 338 209 331 C215 324 216 315 214 303 L198 217 C184 237 163 247 136 247 C105 247 78 236 54 214 C31 192 15 162 8 126 L5 109 Z M102 133 C104 147 109 158 119 167 C128 175 138 179 150 179 C162 179 172 175 177 167 C182 158 184 147 182 133 L178 111 C175 97 169 86 160 78 C152 69 141 65 129 65 C117 65 108 69 102 78 C96 86 95 97 98 111 L102 133 Z M141 574 L134 536 C129 507 133 483 148 466 C162 448 184 439 213 439 C242 439 267 448 288 467 C310 485 323 508 328 538 L335 574 L272 574 L265 534 C262 522 258 513 250 505 C243 498 234 494 223 494 C199 494 190 507 195 534 L202 574 L141 574 Z " />
<glyph glyph-name="Aogonek" unicode="&#x104;" horiz-adv-x="334" d="M264 560 L157 560 L-45 0 L49 0 L85 108 L174 108 L174 0 L270 0 L264 560 Z M178 386 L174 187 L111 187 L178 386 Z M242 36 L226 28 C216 23 205 13 192 -2 C180 -16 172 -33 169 -52 C164 -79 172 -101 189 -119 C206 -137 229 -145 260 -145 C275 -145 288 -144 295 -140 L305 -81 L280 -83 C265 -83 253 -79 246 -70 C238 -62 235 -51 237 -37 C240 -18 249 -5 263 3 L242 36 Z " />
<glyph glyph-name="aogonek" unicode="&#x105;" horiz-adv-x="329" d="M6 109 C0 72 3 44 18 23 C33 2 55 -8 86 -8 C122 -8 165 18 181 78 L167 0 L250 0 L306 299 C313 335 306 364 287 387 C267 409 240 420 205 420 C171 420 139 409 110 385 C82 362 64 332 58 296 L148 303 C150 315 155 324 162 331 C170 338 179 341 188 341 C198 341 205 338 210 331 C216 324 217 315 215 303 L199 217 C185 237 164 247 137 247 C106 247 79 236 55 214 C32 192 16 162 9 126 L6 109 Z M103 133 C105 147 110 158 120 167 C129 175 139 179 151 179 C163 179 173 175 178 167 C183 158 185 147 183 133 L179 111 C176 97 170 86 161 78 C153 69 142 65 130 65 C118 65 109 69 103 78 C97 86 96 97 99 111 L103 133 Z M220 36 L204 28 C194 23 183 13 170 -2 C158 -16 150 -33 147 -52 C142 -79 150 -101 167 -119 C184 -137 207 -145 238 -145 C253 -145 266 -144 273 -140 L283 -81 L258 -83 C243 -83 231 -79 224 -70 C216 -62 213 -51 215 -37 C218 -18 227 -5 241 3 L220 36 Z " />
<glyph glyph-name="Cacute" unicode="&#x106;" horiz-adv-x="348" d="M184 127 C181 113 176 102 168 94 C161 87 151 83 139 83 C127 83 119 87 113 94 C107 102 105 113 108 127 L165 433 C167 446 173 457 182 464 C190 472 200 476 212 476 C224 476 232 472 237 464 C242 457 243 446 241 433 L227 356 L323 356 L338 437 C345 477 338 508 317 532 C298 556 268 568 230 568 C191 568 157 555 125 530 C94 504 75 471 68 431 L11 125 C3 85 10 52 31 28 C52 4 82 -8 120 -8 C158 -8 192 4 223 28 C253 53 272 85 280 125 L296 212 L200 212 L184 127 Z M180 634 L249 634 L335 768 L239 768 L180 634 Z " />
<glyph glyph-name="cacute" unicode="&#x107;" horiz-adv-x="330" d="M194 172 L183 116 C181 104 177 95 169 88 C161 81 152 77 141 77 C131 77 123 81 118 88 C114 95 112 104 114 116 L149 296 C151 308 156 318 163 325 C170 332 180 336 190 336 C201 336 208 332 214 325 C219 318 220 308 218 296 L208 244 L297 244 L307 298 C314 334 307 364 289 386 C270 409 243 420 208 420 C172 420 140 409 110 385 C81 361 63 331 56 295 L22 114 C15 78 22 48 41 26 C61 3 89 -8 124 -8 C158 -8 190 3 219 27 C247 51 266 81 273 117 L283 172 L194 172 Z M176 434 L245 434 L331 568 L235 568 L176 434 Z " />
<glyph glyph-name="Ccaron" unicode="&#x10c;" horiz-adv-x="341" d="M184 127 C181 113 176 102 168 94 C161 87 151 83 139 83 C127 83 119 87 113 94 C107 102 105 113 108 127 L165 433 C167 446 173 457 182 464 C190 472 200 476 212 476 C224 476 232 472 237 464 C242 457 243 446 241 433 L227 356 L323 356 L338 437 C345 477 338 508 317 532 C298 556 268 568 230 568 C191 568 157 555 125 530 C94 504 75 471 68 431 L11 125 C3 85 10 52 31 28 C52 4 82 -8 120 -8 C158 -8 192 4 223 28 C253 53 272 85 280 125 L296 212 L200 212 L184 127 Z M367 754 L300 754 L245 686 L215 754 L144 754 L197 620 L265 620 L367 754 Z " />
<glyph glyph-name="ccaron" unicode="&#x10d;" horiz-adv-x="330" d="M194 172 L183 116 C181 104 177 95 169 88 C161 81 152 77 141 77 C131 77 123 81 118 88 C114 95 112 104 114 116 L149 296 C151 308 156 318 163 325 C170 332 180 336 190 336 C201 336 208 332 214 325 C219 318 220 308 218 296 L208 244 L297 244 L307 298 C314 334 307 364 289 386 C270 409 243 420 208 420 C172 420 140 409 110 385 C81 361 63 331 56 295 L22 114 C15 78 22 48 41 26 C61 3 89 -8 124 -8 C158 -8 190 3 219 27 C247 51 266 81 273 117 L283 172 L194 172 Z M363 605 L296 605 L241 537 L211 605 L140 605 L193 471 L261 471 L363 605 Z " />
<glyph glyph-name="Dcaron" unicode="&#x10e;" horiz-adv-x="356" d="M-11 0 L120 0 C164 0 200 12 231 37 C263 62 282 97 290 142 L341 420 C349 465 343 500 322 524 C301 548 269 560 226 560 L91 560 L-11 0 Z M171 469 L202 469 C235 469 248 450 241 413 L192 147 C185 109 166 91 133 91 L102 91 L171 469 Z M346 742 L279 742 L224 674 L194 742 L123 742 L176 608 L244 608 L346 742 Z " />
<glyph glyph-name="dcroat" unicode="&#x111;" horiz-adv-x="355" d="M352 560 L260 560 L253 518 L184 518 L172 457 L241 457 L229 394 C217 412 197 421 169 421 C139 421 114 411 91 390 C67 369 52 341 45 306 L8 104 C1 70 5 42 20 22 C35 2 57 -8 87 -8 C122 -8 163 20 180 78 L165 0 L248 0 L333 457 L378 457 L390 518 L345 518 L352 560 Z M135 294 C137 307 143 317 152 325 C160 332 170 336 181 336 C192 336 200 332 206 325 C211 317 213 307 211 294 L178 120 C176 107 170 97 162 89 C153 81 144 78 133 78 C122 78 113 81 108 89 C102 97 100 107 102 120 L135 294 Z " />
<glyph glyph-name="Edotaccent" unicode="&#x116;" horiz-adv-x="291" d="M211 0 L229 96 L102 96 L129 242 L228 242 L245 333 L146 333 L171 463 L294 463 L312 560 L92 560 L-12 0 L211 0 Z M189 729 C178 719 171 707 168 692 C164 677 167 665 174 655 C182 646 193 641 208 641 C223 641 236 646 247 655 C259 665 266 677 270 692 C273 707 270 719 262 729 C255 738 244 743 229 743 C214 743 201 738 189 729 L189 729 Z " />
<glyph glyph-name="edotaccent" unicode="&#x117;" horiz-adv-x="333" d="M191 120 C188 106 183 96 175 89 C166 81 157 77 145 77 C134 77 125 81 120 89 C114 96 113 106 116 120 L129 194 L290 194 L310 298 C316 334 310 364 290 386 C270 409 242 420 207 420 C172 420 140 409 110 385 C81 362 63 332 56 295 L23 115 C16 78 22 48 42 26 C62 3 89 -8 125 -8 C160 -8 192 3 221 27 C251 51 269 81 276 117 L282 148 L196 148 L191 120 Z M149 302 C152 315 157 325 165 333 C174 341 183 344 194 344 C206 344 215 341 220 333 C226 325 227 315 224 302 L215 254 L140 254 L149 302 Z M211 557 C200 547 193 535 190 520 C186 505 189 493 196 483 C204 474 215 469 230 469 C245 469 258 474 269 483 C281 493 288 505 292 520 C295 535 292 547 284 557 C277 566 266 571 251 571 C236 571 223 566 211 557 L211 557 Z " />
<glyph glyph-name="Eogonek" unicode="&#x118;" horiz-adv-x="291" d="M211 0 L229 96 L102 96 L129 242 L228 242 L245 333 L146 333 L171 463 L294 463 L312 560 L92 560 L-12 0 L211 0 Z M148 34 L132 26 C122 21 111 11 98 -4 C86 -18 78 -35 75 -54 C70 -81 78 -103 95 -121 C112 -139 135 -147 166 -147 C181 -147 194 -146 201 -142 L211 -83 L186 -85 C171 -85 159 -81 152 -72 C144 -64 141 -53 143 -39 C146 -20 155 -7 169 1 L148 34 Z " />
<glyph glyph-name="eogonek" unicode="&#x119;" horiz-adv-x="333" d="M191 120 C188 106 183 96 175 89 C166 81 157 77 145 77 C134 77 125 81 120 89 C114 96 113 106 116 120 L129 194 L290 194 L310 298 C316 334 310 364 290 386 C270 409 242 420 207 420 C172 420 140 409 110 385 C81 362 63 332 56 295 L23 115 C16 78 22 48 42 26 C62 3 89 -8 125 -8 C160 -8 192 3 221 27 C251 51 269 81 276 117 L282 148 L196 148 L191 120 Z M149 302 C152 315 157 325 165 333 C174 341 183 344 194 344 C206 344 215 341 220 333 C226 325 227 315 224 302 L215 254 L140 254 L149 302 Z M151 34 L135 26 C125 21 114 11 101 -4 C89 -18 81 -35 78 -54 C73 -81 81 -103 98 -121 C115 -139 138 -147 169 -147 C184 -147 197 -146 204 -142 L214 -83 L189 -85 C174 -85 162 -81 155 -72 C147 -64 144 -53 146 -39 C149 -20 158 -7 172 1 L151 34 Z " />
<glyph glyph-name="Ecaron" unicode="&#x11a;" horiz-adv-x="291" d="M211 0 L229 96 L102 96 L129 242 L228 242 L245 333 L146 333 L171 463 L294 463 L312 560 L92 560 L-12 0 L211 0 Z M362 739 L295 739 L240 671 L210 739 L139 739 L192 605 L260 605 L362 739 Z " />
<glyph glyph-name="ecaron" unicode="&#x11b;" horiz-adv-x="333" d="M191 120 C188 106 183 96 175 89 C166 81 157 77 145 77 C134 77 125 81 120 89 C114 96 113 106 116 120 L129 194 L290 194 L310 298 C316 334 310 364 290 386 C270 409 242 420 207 420 C172 420 140 409 110 385 C81 362 63 332 56 295 L23 115 C16 78 22 48 42 26 C62 3 89 -8 125 -8 C160 -8 192 3 221 27 C251 51 269 81 276 117 L282 148 L196 148 L191 120 Z M149 302 C152 315 157 325 165 333 C174 341 183 344 194 344 C206 344 215 341 220 333 C226 325 227 315 224 302 L215 254 L140 254 L149 302 Z M361 591 L294 591 L239 523 L209 591 L138 591 L191 457 L259 457 L361 591 Z " />
<glyph glyph-name="Itilde" unicode="&#x128;" horiz-adv-x="179" d="M-12 0 L87 0 L192 560 L92 560 L-12 0 Z M92 604 L95 614 C96 621 100 628 106 635 C111 642 118 645 126 645 C136 645 146 641 154 633 C164 625 173 617 185 609 C196 601 210 596 227 596 C243 596 259 601 273 609 C287 618 297 627 305 638 C313 648 321 660 326 674 C332 688 336 698 337 703 C339 708 340 712 341 716 L276 716 L273 705 C271 698 268 691 261 684 C255 677 249 674 241 674 C230 674 216 682 198 698 C180 715 161 723 140 723 C123 723 108 719 94 710 C80 701 69 692 62 682 C54 671 48 659 42 645 C35 631 32 622 30 616 C29 611 27 607 27 604 L92 604 Z " />
<glyph glyph-name="Iogonek" unicode="&#x12e;" horiz-adv-x="180" d="M-12 0 L87 0 L192 560 L92 560 L-12 0 Z M60 34 L44 26 C34 21 23 11 10 -4 C-2 -18 -10 -35 -13 -54 C-18 -81 -10 -103 7 -121 C24 -139 47 -147 78 -147 C93 -147 106 -146 113 -142 L123 -83 L98 -85 C83 -85 71 -81 64 -72 C56 -64 53 -53 55 -39 C58 -20 67 -7 81 1 L60 34 Z " />
<glyph glyph-name="iogonek" unicode="&#x12f;" horiz-adv-x="173" d="M96 558 C82 547 75 533 72 517 C69 501 71 488 80 477 C90 465 102 460 118 460 C134 460 149 465 162 477 C176 488 185 501 188 517 C191 533 187 547 178 558 C169 570 156 576 140 576 C124 576 110 570 96 558 L96 558 Z M-14 0 L78 0 L156 412 L63 412 L-14 0 Z M56 34 L40 26 C30 21 19 11 6 -4 C-6 -18 -14 -35 -17 -54 C-22 -81 -14 -103 3 -121 C20 -139 43 -147 74 -147 C89 -147 102 -146 109 -142 L119 -83 L94 -85 C79 -85 67 -81 60 -72 C52 -64 49 -53 51 -39 C54 -20 63 -7 77 1 L56 34 Z " />
<glyph glyph-name="Lacute" unicode="&#x139;" horiz-adv-x="258" d="M195 0 L213 96 L103 96 L190 560 L92 560 L-12 0 L195 0 Z M159 634 L228 634 L314 768 L218 768 L159 634 Z " />
<glyph glyph-name="lacute" unicode="&#x13a;" horiz-adv-x="174" d="M-11 0 L82 0 L185 560 L91 560 L-11 0 Z M97 562 L166 562 L252 696 L156 696 L97 562 Z " />
<glyph glyph-name="Lcaron" unicode="&#x13d;" horiz-adv-x="258" d="M195 0 L213 96 L103 96 L190 560 L92 560 L-12 0 L195 0 L195 0 Z " />
<glyph glyph-name="Lslash" unicode="&#x141;" horiz-adv-x="324" d="M239 0 L257 97 L148 97 L180 272 L270 289 L281 350 L191 333 L233 560 L134 560 L89 314 L34 304 L23 243 L78 254 L31 0 L239 0 L239 0 Z " />
<glyph glyph-name="lslash" unicode="&#x142;" horiz-adv-x="274" d="M33 0 L126 0 L177 273 L234 285 L246 347 L189 335 L231 560 L138 560 L92 313 L44 304 L33 243 L80 252 L33 0 L33 0 Z " />
<glyph glyph-name="Nacute" unicode="&#x143;" horiz-adv-x="364" d="M185 0 L271 0 L376 560 L290 560 L229 234 L184 560 L92 560 L-12 0 L73 0 L138 345 L185 0 Z M170 615 L239 615 L325 749 L229 749 L170 615 Z " />
<glyph glyph-name="nacute" unicode="&#x144;" horiz-adv-x="336" d="M147 295 C149 308 154 318 163 325 C171 332 181 336 193 336 C215 336 224 322 219 295 L165 0 L257 0 L313 308 C320 345 317 373 304 392 C290 411 270 420 243 420 C204 420 155 390 144 326 L159 412 L76 412 L1 0 L93 0 L147 295 Z M156 434 L225 434 L311 568 L215 568 L156 434 Z " />
<glyph glyph-name="Ncaron" unicode="&#x147;" horiz-adv-x="364" d="M185 0 L271 0 L376 560 L290 560 L229 234 L184 560 L92 560 L-12 0 L73 0 L138 345 L185 0 Z M357 733 L290 733 L235 665 L205 733 L134 733 L187 599 L255 599 L357 733 Z " />
<glyph glyph-name="ncaron" unicode="&#x148;" horiz-adv-x="336" d="M147 295 C149 308 154 318 163 325 C171 332 181 336 193 336 C215 336 224 322 219 295 L165 0 L257 0 L313 308 C320 345 317 373 304 392 C290 411 270 420 243 420 C204 420 155 390 144 326 L159 412 L76 412 L1 0 L93 0 L147 295 Z M364 595 L297 595 L242 527 L212 595 L141 595 L194 461 L262 461 L364 595 Z " />
<glyph glyph-name="Ohungarumlaut" unicode="&#x150;" horiz-adv-x="360" d="M12 129 C4 88 11 54 33 29 C54 4 85 -8 125 -8 C165 -8 201 5 233 30 C265 56 285 90 292 132 L347 430 C355 472 348 505 326 530 C305 555 274 568 233 568 C194 568 158 555 126 529 C94 503 74 469 66 427 L12 129 Z M165 428 C168 444 173 455 182 464 C192 472 202 476 215 476 C228 476 238 472 243 464 C250 455 252 444 249 428 L194 131 C191 116 185 104 176 96 C167 87 156 83 143 83 C130 83 121 87 115 96 C108 104 107 116 110 131 L165 428 Z M73 611 L140 611 L217 746 L124 746 L73 611 Z M206 611 L273 611 L350 746 L257 746 L206 611 Z " />
<glyph glyph-name="ohungarumlaut" unicode="&#x151;" horiz-adv-x="339" d="M23 117 C16 80 22 50 43 26 C63 3 92 -8 128 -8 C164 -8 197 4 227 28 C257 52 276 83 283 121 L315 295 C322 332 316 363 295 386 C275 409 246 420 210 420 C174 420 141 409 111 385 C81 361 63 330 55 292 L23 117 Z M148 293 C150 306 155 316 163 324 C172 332 182 336 194 336 C205 336 213 332 218 324 C224 316 225 306 223 293 L191 120 C188 106 183 96 175 89 C166 81 157 77 146 77 C134 77 125 81 120 89 C114 96 113 106 116 120 L148 293 Z M53 452 L120 452 L197 587 L104 587 L53 452 Z M186 452 L253 452 L330 587 L237 587 L186 452 Z " />
<glyph glyph-name="OE" unicode="&#x152;" horiz-adv-x="453" d="M389 0 L407 96 L281 96 L308 242 L405 242 L422 332 L325 332 L350 463 L471 463 L489 560 L235 560 C192 560 154 547 124 523 C93 498 74 463 65 417 L13 139 C5 94 11 59 32 35 C53 12 84 0 128 0 L389 0 Z M182 91 L152 91 C118 91 106 109 113 147 L162 412 C169 450 188 468 222 468 L252 468 L182 91 Z " />
<glyph glyph-name="oe" unicode="&#x153;" horiz-adv-x="500" d="M357 120 C355 106 350 96 341 89 C333 81 323 77 312 77 C301 77 293 81 287 89 C282 96 280 106 282 120 L296 194 L457 194 L477 298 C484 334 477 364 458 387 C438 409 410 421 375 421 C342 421 313 410 288 388 C270 410 245 421 211 421 C175 421 142 409 111 384 C82 360 63 330 56 292 L23 117 C16 80 22 50 42 26 C62 3 91 -8 127 -8 C160 -8 189 2 215 24 C232 2 257 -8 291 -8 C326 -8 358 4 388 27 C417 51 436 81 443 117 L449 148 L363 148 L357 120 Z M148 293 C150 306 155 316 164 324 C172 332 182 336 194 336 C205 336 213 332 219 324 C224 316 225 306 223 293 L190 120 C188 106 183 96 174 89 C166 81 156 77 145 77 C133 77 125 81 119 89 C114 96 113 106 115 120 L148 293 Z M317 302 C319 315 325 325 334 333 C342 341 352 344 363 344 C374 344 382 341 388 333 C393 325 394 315 392 302 L383 254 L308 254 L317 302 Z " />
<glyph glyph-name="Racute" unicode="&#x154;" horiz-adv-x="341" d="M329 353 L341 414 C350 462 344 498 322 523 C301 547 267 560 221 560 L92 560 L-12 0 L85 0 L125 214 L161 214 C174 214 183 210 189 202 C193 194 195 184 193 170 L161 0 L256 0 L289 175 C295 209 291 237 277 259 C304 281 322 312 329 353 L329 353 Z M231 352 C227 329 217 313 203 304 C194 298 184 296 171 296 L141 296 L173 469 L203 469 C236 469 250 450 243 413 L231 352 L231 352 Z M206 634 L275 634 L361 768 L265 768 L206 634 Z " />
<glyph glyph-name="racute" unicode="&#x155;" horiz-adv-x="244" d="M257 420 C211 420 160 380 146 326 L162 412 L77 412 L0 0 L93 0 L140 248 C148 292 173 314 217 314 L237 314 L257 420 Z M164 434 L233 434 L319 568 L223 568 L164 434 Z " />
<glyph glyph-name="Rcaron" unicode="&#x158;" horiz-adv-x="341" d="M329 353 L341 414 C350 462 344 498 322 523 C301 547 267 560 221 560 L92 560 L-12 0 L85 0 L125 214 L161 214 C174 214 183 210 189 202 C193 194 195 184 193 170 L161 0 L256 0 L289 175 C295 209 291 237 277 259 C304 281 322 312 329 353 L329 353 Z M231 352 C227 329 217 313 203 304 C194 298 184 296 171 296 L141 296 L173 469 L203 469 C236 469 250 450 243 413 L231 352 L231 352 Z M383 753 L316 753 L261 685 L231 753 L160 753 L213 619 L281 619 L383 753 Z " />
<glyph glyph-name="rcaron" unicode="&#x159;" horiz-adv-x="244" d="M257 420 C211 420 160 380 146 326 L162 412 L77 412 L0 0 L93 0 L140 248 C148 292 173 314 217 314 L237 314 L257 420 Z M355 604 L288 604 L233 536 L203 604 L132 604 L185 470 L253 470 L355 604 Z " />
<glyph glyph-name="Sacute" unicode="&#x15a;" horiz-adv-x="318" d="M95 172 L1 172 L-6 126 C-14 85 -7 52 13 28 C34 4 64 -8 103 -8 C143 -8 179 4 211 30 C243 56 263 89 271 131 C277 164 275 196 264 225 C254 255 235 285 209 316 C184 346 168 369 160 386 C152 402 149 419 153 436 C155 449 161 460 169 467 C178 475 188 479 200 479 C211 479 219 475 224 467 C230 458 231 447 228 433 L222 400 L317 400 L324 437 C331 477 324 508 303 532 C284 556 255 568 217 568 C178 568 144 555 112 530 C82 506 62 473 55 433 C44 375 63 317 115 259 C141 228 157 203 166 185 C173 166 175 147 171 128 C168 113 162 102 154 93 C144 84 133 80 121 80 C108 80 99 84 93 93 C86 102 85 115 88 131 L95 172 Z M173 634 L242 634 L328 768 L232 768 L173 634 Z " />
<glyph glyph-name="sacute" unicode="&#x15b;" horiz-adv-x="307" d="M204 288 L292 288 L294 302 C301 337 294 365 275 387 C255 409 228 420 193 420 C158 420 127 410 99 388 C71 366 54 340 48 308 C38 253 60 210 114 181 C139 166 156 154 163 145 C170 135 173 124 171 112 C169 99 164 89 155 82 C147 75 137 71 126 71 C114 71 106 75 100 82 C95 90 94 101 96 114 L100 132 L11 132 L8 116 C1 79 7 49 28 26 C49 3 77 -8 113 -8 C149 -8 181 3 210 27 C239 50 257 80 264 116 C274 171 250 214 193 246 C170 258 155 269 148 278 C141 287 139 298 141 309 C143 319 147 327 154 333 C161 339 170 341 181 341 C190 341 197 338 203 331 C207 324 209 315 207 303 L204 288 Z M179 434 L248 434 L334 568 L238 568 L179 434 Z " />
<glyph glyph-name="Scedilla" unicode="&#x15e;" horiz-adv-x="312" d="M95 172 L1 172 L-6 126 C-14 85 -7 52 13 28 C34 4 64 -8 103 -8 C143 -8 179 4 211 30 C243 56 263 89 271 131 C277 164 275 196 264 225 C254 255 235 285 209 316 C184 346 168 369 160 386 C152 402 149 419 153 436 C155 449 161 460 169 467 C178 475 188 479 200 479 C211 479 219 475 224 467 C230 458 231 447 228 433 L222 400 L317 400 L324 437 C331 477 324 508 303 532 C284 556 255 568 217 568 C178 568 144 555 112 530 C82 506 62 473 55 433 C44 375 63 317 115 259 C141 228 157 203 166 185 C173 166 175 147 171 128 C168 113 162 102 154 93 C144 84 133 80 121 80 C108 80 99 84 93 93 C86 102 85 115 88 131 L95 172 Z M150 -2 L154 -7 C157 -10 160 -15 163 -23 C165 -31 166 -39 164 -48 C162 -62 154 -74 144 -83 C133 -92 120 -96 105 -96 C92 -96 84 -95 79 -93 L68 -154 L73 -154 C75 -155 80 -156 86 -157 C93 -158 99 -158 106 -158 C138 -158 167 -149 190 -132 C213 -114 227 -90 233 -59 C235 -47 236 -35 234 -25 C232 -14 229 -6 225 0 C221 6 216 12 211 18 C205 23 202 26 199 28 C198 29 196 30 194 31 L150 -2 Z " />
<glyph glyph-name="Scaron" unicode="&#x160;" horiz-adv-x="315" d="M92 172 L-2 172 L-9 126 C-17 85 -10 52 10 28 C31 4 61 -8 100 -8 C140 -8 176 4 208 30 C240 56 260 89 268 131 C274 164 272 196 261 225 C251 255 232 285 206 316 C181 346 165 369 157 386 C149 402 146 419 150 436 C152 449 158 460 166 467 C175 475 185 479 197 479 C208 479 216 475 221 467 C227 458 228 447 225 433 L219 400 L314 400 L321 437 C328 477 321 508 300 532 C281 556 252 568 214 568 C175 568 141 555 109 530 C79 506 59 473 52 433 C41 375 60 317 112 259 C138 228 154 203 163 185 C170 166 172 147 168 128 C165 113 159 102 151 93 C141 84 130 80 118 80 C105 80 96 84 90 93 C83 102 82 115 85 131 L92 172 Z M357 732 L290 732 L235 664 L205 732 L134 732 L187 598 L255 598 L357 732 Z " />
<glyph glyph-name="scaron" unicode="&#x161;" horiz-adv-x="262" d="M168 288 L256 288 L258 302 C265 337 258 365 239 387 C219 409 192 420 157 420 C122 420 91 410 63 388 C35 366 18 340 12 308 C2 253 24 210 78 181 C103 166 120 154 127 145 C134 135 137 124 135 112 C133 99 128 89 119 82 C111 75 101 71 90 71 C78 71 70 75 64 82 C59 90 58 101 60 114 L64 132 L-25 132 L-28 116 C-35 79 -29 49 -8 26 C13 3 41 -8 77 -8 C113 -8 145 3 174 27 C203 50 221 80 228 116 C238 171 214 214 157 246 C134 258 119 269 112 278 C105 287 103 298 105 309 C107 319 111 327 118 333 C125 339 134 341 145 341 C154 341 161 338 167 331 C171 324 173 315 171 303 L168 288 Z M332 580 L265 580 L210 512 L180 580 L109 580 L162 446 L230 446 L332 580 Z " />
<glyph glyph-name="Tcaron" unicode="&#x164;" horiz-adv-x="297" d="M318 463 L336 560 L66 560 L48 463 L133 463 L46 0 L146 0 L233 463 L318 463 Z M344 735 L277 735 L222 667 L192 735 L121 735 L174 601 L242 601 L344 735 Z " />
<glyph glyph-name="utilde" unicode="&#x169;" horiz-adv-x="336" d="M188 117 C186 104 180 94 172 87 C165 80 154 77 143 77 C120 77 112 90 116 117 L169 412 L77 412 L22 104 C16 67 19 40 32 21 C46 1 66 -8 93 -8 C131 -8 181 22 192 86 L177 0 L260 0 L333 412 L241 412 L188 117 Z M173 463 L176 473 C177 480 181 487 187 494 C192 501 199 504 207 504 C217 504 227 500 235 492 C245 484 254 476 266 468 C277 460 291 455 308 455 C324 455 340 460 354 468 C368 477 378 486 386 497 C394 507 402 519 407 533 C413 547 417 557 418 562 C420 567 421 571 422 575 L357 575 L354 564 C352 557 349 550 342 543 C336 536 330 533 322 533 C311 533 297 541 279 557 C261 574 242 582 221 582 C204 582 189 578 175 569 C161 560 150 551 143 541 C135 530 129 518 123 504 C116 490 113 481 111 475 C110 470 108 466 108 463 L173 463 Z " />
<glyph glyph-name="Uring" unicode="&#x16e;" horiz-adv-x="352" d="M267 560 L185 127 C183 113 178 102 169 94 C162 87 152 83 140 83 C128 83 120 87 114 94 C109 102 108 113 110 127 L192 560 L93 560 L11 125 C3 85 10 52 31 28 C52 4 82 -8 121 -8 C159 -8 194 4 225 29 C257 54 276 87 284 128 L365 560 L267 560 Z M200 725 C184 712 174 695 171 674 C167 654 171 637 183 624 C195 610 212 603 234 603 C255 603 274 610 290 624 C306 637 316 654 320 674 C323 695 319 712 307 725 C295 739 279 746 258 746 C236 746 216 739 200 725 L200 725 Z M240 644 C230 644 224 647 219 653 C214 659 213 666 215 674 C216 684 219 691 226 697 C233 702 241 705 251 705 C259 705 265 702 270 697 C275 691 277 684 276 674 C274 666 270 659 263 653 C256 647 248 644 240 644 L240 644 Z " />
<glyph glyph-name="uring" unicode="&#x16f;" horiz-adv-x="329" d="M181 117 C179 104 173 94 165 87 C158 80 147 77 136 77 C113 77 105 90 109 117 L162 412 L70 412 L15 104 C9 67 12 40 25 21 C39 1 59 -8 86 -8 C124 -8 174 22 185 86 L170 0 L253 0 L326 412 L234 412 L181 117 Z M189 555 C173 542 163 525 160 504 C156 484 160 467 172 454 C184 440 201 433 223 433 C244 433 263 440 279 454 C295 467 305 484 309 504 C312 525 308 542 296 555 C284 569 268 576 247 576 C225 576 205 569 189 555 L189 555 Z M229 474 C219 474 213 477 208 483 C203 489 202 496 204 504 C205 514 208 521 215 527 C222 532 230 535 240 535 C248 535 254 532 259 527 C264 521 266 514 265 504 C263 496 259 489 252 483 C245 477 237 474 229 474 L229 474 Z " />
<glyph glyph-name="Uhungarumlaut" unicode="&#x170;" horiz-adv-x="352" d="M267 560 L185 127 C183 113 178 102 169 94 C162 87 152 83 140 83 C128 83 120 87 114 94 C109 102 108 113 110 127 L192 560 L93 560 L11 125 C3 85 10 52 31 28 C52 4 82 -8 121 -8 C159 -8 194 4 225 29 C257 54 276 87 284 128 L365 560 L267 560 L267 560 Z " />
<glyph glyph-name="uhungarumlaut" unicode="&#x171;" horiz-adv-x="336" d="M188 117 C186 104 180 94 172 87 C165 80 154 77 143 77 C120 77 112 90 116 117 L169 412 L77 412 L22 104 C16 67 19 40 32 21 C46 1 66 -8 93 -8 C131 -8 181 22 192 86 L177 0 L260 0 L333 412 L241 412 L188 117 Z M54 451 L121 451 L198 586 L105 586 L54 451 Z M187 451 L254 451 L331 586 L238 586 L187 451 Z " />
<glyph glyph-name="Uogonek" unicode="&#x172;" horiz-adv-x="352" d="M267 560 L185 127 C183 113 178 102 169 94 C162 87 152 83 140 83 C128 83 120 87 114 94 C109 102 108 113 110 127 L192 560 L93 560 L11 125 C3 85 10 52 31 28 C52 4 82 -8 121 -8 C159 -8 194 4 225 29 C257 54 276 87 284 128 L365 560 L267 560 Z M168 34 L152 26 C142 21 131 11 118 -4 C106 -18 98 -35 95 -54 C90 -81 98 -103 115 -121 C132 -139 155 -147 186 -147 C201 -147 214 -146 221 -142 L231 -83 L206 -85 C191 -85 179 -81 172 -72 C164 -64 161 -53 163 -39 C166 -20 175 -7 189 1 L168 34 Z " />
<glyph glyph-name="uogonek" unicode="&#x173;" horiz-adv-x="336" d="M188 117 C186 104 180 94 172 87 C165 80 154 77 143 77 C120 77 112 90 116 117 L169 412 L77 412 L22 104 C16 67 19 40 32 21 C46 1 66 -8 93 -8 C131 -8 181 22 192 86 L177 0 L260 0 L333 412 L241 412 L188 117 Z M230 35 L214 27 C204 22 193 12 180 -3 C168 -17 160 -34 157 -53 C152 -80 160 -102 177 -120 C194 -138 217 -146 248 -146 C263 -146 276 -145 283 -141 L293 -82 L268 -84 C253 -84 241 -80 234 -71 C226 -63 223 -52 225 -38 C228 -19 237 -6 251 2 L230 35 Z " />
<glyph glyph-name="Ydieresis" unicode="&#x178;" horiz-adv-x="267" d="M32 0 L129 0 L169 208 L338 560 L239 560 L148 336 L143 560 L38 560 L72 208 L32 0 Z M139 654 C112 654 85 633 80 603 C75 576 90 552 120 552 C147 552 176 572 182 603 C187 631 169 653 139 654 L139 654 Z M273 654 C246 654 219 633 214 603 C209 576 223 552 254 552 C282 552 309 572 315 603 C319 630 303 654 273 654 L273 654 Z " />
<glyph glyph-name="Zacute" unicode="&#x179;" horiz-adv-x="278" d="M211 0 L228 91 L84 91 L302 482 L316 560 L80 560 L63 469 L194 469 L-22 76 L-36 0 L211 0 Z M164 634 L233 634 L319 768 L223 768 L164 634 Z " />
<glyph glyph-name="zacute" unicode="&#x17a;" horiz-adv-x="258" d="M-14 65 L-26 0 L197 0 L212 79 L85 79 L262 350 L274 412 L62 412 L47 334 L160 334 L-14 65 Z M139 434 L208 434 L294 568 L198 568 L139 434 Z " />
<glyph glyph-name="Zdotaccent" unicode="&#x17b;" horiz-adv-x="277" d="M212 0 L229 91 L85 91 L303 482 L317 560 L81 560 L64 469 L195 469 L-21 76 L-35 0 L212 0 Z M200 757 C189 747 182 735 179 720 C175 705 178 693 185 683 C193 674 204 669 219 669 C234 669 247 674 258 683 C270 693 277 705 281 720 C284 735 281 747 273 757 C266 766 255 771 240 771 C225 771 212 766 200 757 L200 757 Z " />
<glyph glyph-name="zdotaccent" unicode="&#x17c;" horiz-adv-x="251" d="M-13 65 L-25 0 L198 0 L213 79 L86 79 L263 350 L275 412 L63 412 L48 334 L161 334 L-13 65 Z M175 557 C164 547 157 535 154 520 C150 505 153 493 160 483 C168 474 179 469 194 469 C209 469 222 474 233 483 C245 493 252 505 256 520 C259 535 256 547 248 557 C241 566 230 571 215 571 C200 571 187 566 175 557 L175 557 Z " />
<glyph glyph-name="Zcaron" unicode="&#x17d;" horiz-adv-x="271" d="M204 0 L221 91 L77 91 L295 482 L309 560 L73 560 L56 469 L187 469 L-29 76 L-43 0 L204 0 Z M345 733 L278 733 L223 665 L193 733 L122 733 L175 599 L243 599 L345 733 Z " />
<glyph glyph-name="zcaron" unicode="&#x17e;" horiz-adv-x="245" d="M-16 65 L-28 0 L195 0 L210 79 L83 79 L260 350 L272 412 L60 412 L45 334 L158 334 L-16 65 Z M324 578 L257 578 L202 510 L172 578 L101 578 L154 444 L222 444 L324 578 Z " />
<glyph glyph-name="florin" unicode="&#x192;" horiz-adv-x="318" d="M108 -88 L197 245 L278 245 L289 304 L213 304 L244 421 C253 455 272 473 300 473 C314 473 331 473 331 473 L347 560 C347 560 306 560 297 560 C262 560 232 550 208 530 C183 510 166 481 156 443 L119 304 L52 304 L41 245 L103 245 L15 -88 L108 -88 L108 -88 Z " />
<glyph glyph-name="circumflex" unicode="&#x2c6;" horiz-adv-x="250" d="M73 427 L140 427 L195 494 L225 427 L297 427 L242 561 L174 561 L73 427 L73 427 Z " />
<glyph glyph-name="caron" unicode="&#x2c7;" horiz-adv-x="296" d="M349 702 L282 702 L227 634 L197 702 L126 702 L179 568 L247 568 L349 702 L349 702 Z " />
<glyph glyph-name="breve" unicode="&#x2d8;" horiz-adv-x="274" d="M117 574 L110 536 C105 507 109 483 124 466 C138 448 160 439 189 439 C218 439 243 448 264 467 C286 485 299 508 304 538 L311 574 L248 574 L241 534 C238 522 234 513 226 505 C219 498 210 494 199 494 C175 494 166 507 171 534 L178 574 L117 574 L117 574 Z " />
<glyph glyph-name="dotaccent" unicode="&#x2d9;" horiz-adv-x="114" d="M104 557 C93 547 86 535 83 520 C79 505 82 493 89 483 C97 474 108 469 123 469 C138 469 151 474 162 483 C174 493 181 505 185 520 C188 535 185 547 177 557 C170 566 159 571 144 571 C129 571 116 566 104 557 L104 557 Z " />
<glyph glyph-name="ring" unicode="&#x2da;" horiz-adv-x="189" d="M121 525 C105 512 95 495 92 474 C88 454 92 437 104 424 C116 410 133 403 155 403 C176 403 195 410 211 424 C227 437 237 454 241 474 C244 495 240 512 228 525 C216 539 200 546 179 546 C157 546 137 539 121 525 L121 525 Z M161 444 C151 444 145 447 140 453 C135 459 134 466 136 474 C137 484 140 491 147 497 C154 502 162 505 172 505 C180 505 186 502 191 497 C196 491 198 484 197 474 C195 466 191 459 184 453 C177 447 169 444 161 444 L161 444 Z " />
<glyph glyph-name="ogonek" unicode="&#x2db;" horiz-adv-x="168" d="M28 34 L12 26 C2 21 -9 11 -22 -4 C-34 -18 -42 -35 -45 -54 C-50 -81 -42 -103 -25 -121 C-8 -139 15 -147 46 -147 C61 -147 74 -146 81 -142 L91 -83 L66 -85 C51 -85 39 -81 32 -72 C24 -64 21 -53 23 -39 C26 -20 35 -7 49 1 L28 34 L28 34 Z " />
<glyph glyph-name="tilde" unicode="&#x2dc;" horiz-adv-x="323" d="M169 457 L172 467 C173 474 177 481 183 488 C188 495 195 498 203 498 C213 498 223 494 231 486 C241 478 250 470 262 462 C273 454 287 449 304 449 C320 449 336 454 350 462 C364 471 374 480 382 491 C390 501 398 513 403 527 C409 541 413 551 414 556 C416 561 417 565 418 569 L353 569 L350 558 C348 551 345 544 338 537 C332 530 326 527 318 527 C307 527 293 535 275 551 C257 568 238 576 217 576 C200 576 185 572 171 563 C157 554 146 545 139 535 C131 524 125 512 119 498 C112 484 109 475 107 469 C106 464 104 460 104 457 L169 457 L169 457 Z " />
<glyph glyph-name="hungarumlaut" unicode="&#x2dd;" horiz-adv-x="281" d="M26 433 L93 433 L170 568 L77 568 L26 433 Z M159 433 L226 433 L303 568 L210 568 L159 433 Z " />
<glyph glyph-name="endash" unicode="&#x2013;" horiz-adv-x="392" d="M344 214 L359 300 L47 300 L32 214 L344 214 L344 214 Z " />
<glyph glyph-name="emdash" unicode="&#x2014;" horiz-adv-x="448" d="M399 214 L416 300 L48 300 L31 214 L399 214 L399 214 Z " />
<glyph glyph-name="quoteleft" unicode="&#x2018;" horiz-adv-x="143" d="M75 560 L0 344 L102 344 L148 560 L75 560 L75 560 Z " />
<glyph glyph-name="quoteright" unicode="&#x2019;" horiz-adv-x="133" d="M68 344 L141 560 L39 560 L-4 344 L68 344 L68 344 Z " />
<glyph glyph-name="quotedblleft" unicode="&#x201c;" horiz-adv-x="273" d="M70 560 L-10 344 L91 344 L143 560 L70 560 Z M211 560 L130 344 L232 344 L284 560 L211 560 Z " />
<glyph glyph-name="quotedblright" unicode="&#x201d;" horiz-adv-x="275" d="M70 344 L145 560 L43 560 L-2 344 L70 344 Z M210 344 L285 560 L184 560 L138 344 L210 344 Z " />
<glyph glyph-name="daggerdbl" unicode="&#x2021;" horiz-adv-x="281" d="M18 273 L6 206 L83 206 L69 128 L143 128 L157 206 L234 206 L246 273 L169 273 L184 358 L261 358 L273 425 L196 425 L210 504 L136 504 L122 425 L45 425 L33 358 L110 358 L95 273 L18 273 L18 273 Z " />
<glyph glyph-name="bullet" unicode="&#x2022;" horiz-adv-x="258" d="M72 391 C48 371 34 347 29 319 C23 291 28 267 44 248 C60 229 81 219 110 219 C138 219 164 229 187 248 C211 268 224 292 230 321 C235 349 230 372 215 392 C200 411 177 420 148 420 C120 420 94 410 72 391 L72 391 Z " />
<glyph glyph-name="ellipsis" unicode="&#x2026;" horiz-adv-x="421" d="M87 48 C57 48 25 21 19 -11 C16 -27 19 -40 29 -52 C37 -63 50 -68 66 -68 C82 -68 96 -63 111 -52 C124 -40 132 -27 135 -11 C138 5 135 19 126 30 C116 42 103 48 87 48 L87 48 Z M219 48 C189 48 157 21 151 -11 C148 -27 151 -40 161 -52 C169 -63 182 -68 198 -68 C214 -68 228 -63 243 -52 C256 -40 264 -27 267 -11 C270 5 267 19 258 30 C248 42 235 48 219 48 L219 48 Z M352 48 C322 48 290 21 284 -11 C281 -27 284 -40 294 -52 C302 -63 315 -68 331 -68 C347 -68 361 -63 376 -52 C389 -40 397 -27 400 -11 C403 5 400 19 391 30 C381 42 368 48 352 48 L352 48 Z " />
<glyph glyph-name="perthousand" unicode="&#x2030;" horiz-adv-x="685" d="M175 488 C145 488 118 478 95 459 C71 440 57 415 51 386 C46 356 51 332 67 313 C83 294 107 284 136 284 C166 284 191 294 215 314 C239 333 253 358 258 387 C264 417 259 441 243 460 C227 479 204 488 175 488 L175 488 Z M6 0 L68 0 L451 480 L389 480 L6 0 Z M148 347 C137 347 129 350 123 358 C116 365 115 375 117 387 C119 398 124 407 134 415 C142 422 152 426 163 426 C174 426 182 422 188 415 C193 407 195 398 193 387 C191 375 185 365 177 358 C169 350 159 347 148 347 L148 347 Z M321 195 C292 195 266 186 241 166 C217 147 203 122 198 93 C192 64 198 40 214 21 C230 2 253 -8 282 -8 C312 -8 339 2 362 21 C386 41 400 65 406 95 C411 124 406 148 390 167 C375 186 351 195 321 195 L321 195 Z M295 55 C284 55 276 58 269 65 C264 73 263 82 265 94 C267 106 272 115 280 123 C289 130 298 134 309 134 C320 134 329 130 335 123 C341 115 342 106 340 94 C338 82 333 73 324 65 C316 58 306 55 295 55 L295 55 Z M557 195 C528 195 502 186 478 166 C453 147 439 122 434 93 C428 64 434 40 450 21 C467 2 489 -8 518 -8 C548 -8 575 2 598 21 C622 41 636 65 642 95 C647 124 642 148 626 167 C610 186 587 195 557 195 L557 195 Z M531 55 C521 55 512 58 505 65 C500 73 498 82 500 94 C502 106 508 115 516 123 C525 130 535 134 545 134 C556 134 564 130 571 123 C577 115 579 106 577 94 C575 82 569 73 560 65 C551 58 542 55 531 55 L531 55 Z " />
<glyph glyph-name="guilsinglleft" unicode="&#x2039;" horiz-adv-x="253" d="M252 408 L212 459 L31 312 L26 284 L155 139 L213 192 L133 300 L252 408 L252 408 Z " />
<glyph glyph-name="guilsinglright" unicode="&#x203a;" horiz-adv-x="267" d="M4 193 L43 143 L225 289 L230 317 L100 463 L43 409 L123 301 L4 193 L4 193 Z " />
<glyph glyph-name="Euro" unicode="&#x20ac;" horiz-adv-x="381" d="M227 122 C222 93 207 79 183 79 C159 79 149 93 154 122 L170 209 L281 209 L291 259 L180 259 L187 300 L314 300 L324 350 L197 350 L213 436 C218 466 234 481 258 481 C282 481 291 466 286 436 L277 392 L368 392 L378 444 C385 481 378 510 359 533 C339 556 311 568 276 568 C240 568 207 555 176 531 C146 507 127 476 120 437 L104 350 L53 350 L43 300 L94 300 L87 259 L36 259 L26 209 L77 209 L61 119 C53 81 61 50 80 26 C101 3 129 -8 166 -8 C201 -8 233 4 262 27 C292 51 311 82 318 119 L327 168 L236 168 L227 122 L227 122 Z " />
<glyph glyph-name="trademark" unicode="&#x2122;" horiz-adv-x="426" d="M184 506 L194 560 L46 560 L36 506 L80 506 L43 308 L103 308 L140 506 L184 506 Z M273 349 L295 349 L344 443 L319 308 L374 308 L421 560 L366 560 L301 436 L283 560 L225 560 L178 308 L232 308 L258 445 L273 349 Z " />
<glyph glyph-name="f_f" unicode="&#xfb00;" horiz-adv-x="405" d="M400 485 C408 485 427 485 427 485 L443 568 C443 568 404 568 396 568 C362 568 333 559 311 540 C287 522 273 495 267 459 L258 412 L156 412 L162 444 C167 471 181 485 206 485 C214 485 233 485 233 485 L249 568 C249 568 206 568 198 568 C165 568 138 559 116 541 C94 524 80 497 73 463 L-13 0 L78 0 L141 336 L243 336 L180 0 L272 0 L335 336 L399 336 L414 412 L350 412 L356 443 C361 471 375 485 400 485 L400 485 Z " />
<glyph glyph-name="fi" unicode="&#xfb01;" horiz-adv-x="382" d="M271 413 L155 413 L161 444 C166 471 180 485 205 485 C213 485 232 485 232 485 L248 568 C248 568 205 568 197 568 C164 568 137 559 115 541 C92 524 79 498 72 463 L-13 0 L78 0 L141 337 L257 337 L194 0 L288 0 L365 413 L363 413 L271 413 L271 413 Z M325 460 C341 460 356 465 370 476 C384 488 392 501 395 517 C398 533 395 547 386 558 C376 570 363 576 347 576 C331 576 317 570 303 558 C290 547 282 533 279 517 C276 501 279 488 287 476 C297 465 309 460 325 460 L325 460 Z " />
<glyph glyph-name="fl" unicode="&#xfb02;" horiz-adv-x="381" d="M197 568 C165 568 137 559 116 541 C94 524 80 498 73 463 L-13 0 L77 0 L141 337 L206 337 L220 413 L155 413 L161 444 C166 471 181 485 205 485 C209 485 246 485 284 485 L193 0 L287 0 L378 485 L393 560 L394 568 C394 568 206 568 197 568 L197 568 Z " />
</font>
</svg>
