<?xml version="1.0" encoding="UTF-8"?>
<svg xmlns="http://www.w3.org/2000/svg" xmlns:xlink="http://www.w3.org/1999/xlink" version="1.2" >
<font id="Lostfield Condensed light">
<font-face  font-family="Lostfield Condensed" units-per-em="1000" ascent="750" descent="-250" font-style="normal" font-weight="400" font-stretch="normal" cap-height="700" x-height="500" underline-position="-75" underline-thickness="50" />
<missing-glyph  horiz-adv-x="152" d="" />
<glyph glyph-name="NULL" d="" />
<glyph glyph-name="CR" unicode="&#xd;" horiz-adv-x="152" d="" />
<glyph glyph-name="space" unicode="&#x20;" horiz-adv-x="152" d="" />
<glyph glyph-name="exclam" unicode="&#x21;" horiz-adv-x="107" d="M26 20 C27 4 38 -8 54 -8 C67 -8 81 2 82 20 C83 34 72 49 54 49 C35 49 27 36 26 20 L26 20 Z M43 160 L64 160 L74 561 L34 561 L43 160 Z " />
<glyph glyph-name="quotedbl" unicode="&#x22;" horiz-adv-x="186" d="M61 392 L73 560 L37 560 L33 392 L61 392 Z M149 392 L161 560 L125 560 L121 392 L149 392 Z " />
<glyph glyph-name="numbersign" unicode="&#x23;" horiz-adv-x="308" d="M175 0 L203 0 L215 141 L279 141 L279 166 L217 166 L229 313 L291 313 L291 338 L231 338 L243 480 L216 480 L204 338 L115 338 L127 480 L100 480 L88 338 L24 338 L24 313 L86 313 L73 166 L12 166 L12 141 L71 141 L59 0 L87 0 L99 141 L187 141 L175 0 Z M113 313 L202 313 L189 166 L101 166 L113 313 Z " />
<glyph glyph-name="dollar" unicode="&#x24;" horiz-adv-x="249" d="M236 423 L236 455 C236 487 228 513 210 532 C193 552 171 563 144 566 L144 623 L115 623 L115 565 C90 561 69 549 52 529 C36 509 28 484 28 454 C28 431 33 409 43 387 C53 364 64 346 75 332 C87 318 102 300 121 279 C149 249 169 221 183 194 C197 168 204 140 204 108 C204 81 197 59 183 44 C172 32 159 24 144 22 L144 42 L115 42 L115 21 C99 23 85 31 73 44 C59 59 52 81 52 108 L52 146 L20 146 L20 106 C20 73 29 47 46 26 C64 6 87 -6 115 -9 L115 -65 L144 -65 L144 -8 C171 -4 193 8 210 29 C228 50 236 76 236 107 C236 144 229 177 214 206 C199 235 177 266 148 298 C128 320 113 337 103 348 C93 359 84 375 74 395 C65 414 60 434 60 453 C60 479 67 500 80 515 C90 526 101 532 115 535 L115 515 L144 515 L144 536 C160 534 173 527 184 515 C197 500 204 479 204 453 L204 423 L236 423 L236 423 Z " />
<glyph glyph-name="percent" unicode="&#x25;" horiz-adv-x="422" d="M45 329 C62 312 85 303 111 303 C138 303 160 312 178 330 C196 348 206 370 206 397 C206 423 197 445 179 462 C162 480 139 488 113 488 C86 488 64 479 46 461 C27 443 18 421 18 395 C18 369 27 347 45 329 L45 329 Z M46 1 L78 1 L374 481 L342 481 L46 1 Z M67 442 C79 454 94 461 112 461 C130 461 144 454 157 442 C169 429 175 414 175 396 C175 378 169 362 157 350 C144 337 130 331 112 331 C94 331 79 337 67 350 C55 362 49 378 49 396 C49 414 55 429 67 442 L67 442 Z M242 19 C259 1 281 -8 308 -8 C335 -8 357 2 375 20 C393 38 402 60 402 86 C402 112 394 134 376 152 C358 169 336 178 310 178 C283 178 260 169 242 151 C224 133 215 111 215 85 C215 58 224 36 242 19 L242 19 Z M264 131 C276 144 291 150 309 150 C326 150 341 144 354 131 C366 119 372 103 372 85 C372 67 366 52 354 39 C341 27 326 20 309 20 C291 20 276 27 264 39 C252 52 246 67 246 85 C246 103 252 119 264 131 L264 131 Z " />
<glyph glyph-name="ampersand" unicode="&#x26;" horiz-adv-x="317" d="M296 22 C257 22 238 45 238 91 L238 280 L277 280 L277 308 L238 308 L238 354 L206 354 L206 308 L131 308 C111 308 94 316 81 330 C68 345 62 365 62 390 L62 457 C62 482 68 502 81 517 C94 531 111 539 131 539 C152 539 168 531 181 517 C194 502 201 482 201 457 L201 416 L231 416 L231 458 C231 490 222 517 203 537 C183 558 159 568 130 568 C102 568 78 558 59 538 C39 518 30 492 30 459 L30 393 C30 348 47 315 83 295 C43 276 23 241 23 191 L23 109 C23 74 34 46 54 24 C75 3 101 -8 132 -8 C164 -8 189 3 209 23 C212 27 215 30 217 34 C220 28 224 22 228 17 C243 1 263 -8 289 -8 C298 -8 296 -8 296 -8 L296 22 L296 22 L296 22 Z M131 22 C109 22 91 30 77 45 C62 61 55 83 55 110 L55 192 C55 219 62 241 77 257 C91 272 109 280 131 280 L206 280 L206 92 C204 73 197 58 186 45 C172 30 154 22 131 22 L131 22 Z " />
<glyph glyph-name="quotesingle" unicode="&#x27;" horiz-adv-x="85" d="M52 392 L64 560 L28 560 L24 392 L52 392 L52 392 Z " />
<glyph glyph-name="parenleft" unicode="&#x28;" horiz-adv-x="222" d="M83 477 C93 517 103 549 114 572 C125 596 138 618 152 639 C166 659 176 672 183 678 C189 683 193 687 196 690 L177 711 L163 699 C153 690 141 676 128 657 C114 637 101 614 87 587 C73 561 62 526 52 484 C43 442 38 397 38 350 C38 302 43 257 53 215 C63 173 74 140 86 114 C98 89 112 66 128 45 C144 24 156 11 162 5 C168 -1 173 -5 177 -8 L196 14 L183 26 C174 34 164 47 152 66 C139 84 127 106 115 131 C102 156 92 188 83 227 C74 267 70 308 70 352 C70 396 74 437 83 477 L83 477 Z " />
<glyph glyph-name="parenright" unicode="&#x29;" horiz-adv-x="222" d="M138 227 C129 187 119 155 108 132 C97 108 84 86 70 65 C55 45 45 32 39 26 C33 21 28 17 25 14 L44 -8 L59 5 C69 14 80 28 94 47 C107 67 121 90 135 117 C148 144 160 178 169 220 C179 262 184 307 184 354 C184 402 179 447 169 489 C158 531 147 565 135 590 C123 615 109 638 93 659 C77 680 66 693 60 699 C53 705 48 709 44 712 L25 690 L38 678 C47 670 58 657 70 638 C82 620 95 598 107 573 C119 548 130 516 138 477 C147 437 152 396 152 352 C152 308 147 266 138 227 L138 227 Z " />
<glyph glyph-name="asterisk" unicode="&#x2a;" horiz-adv-x="280" d="M265 459 L256 487 L152 449 L157 560 L127 560 L131 449 L28 487 L19 459 L124 429 L57 342 L81 325 L142 416 L203 325 L227 342 L159 429 L265 459 L265 459 Z " />
<glyph glyph-name="plus" unicode="&#x2b;" horiz-adv-x="344" d="M185 436 L158 436 L158 300 L40 300 L40 273 L158 273 L158 136 L185 136 L185 273 L304 273 L304 300 L185 300 L185 436 L185 436 Z " />
<glyph glyph-name="comma" unicode="&#x2c;" horiz-adv-x="99" d="M58 -115 L70 53 L34 53 L30 -115 L58 -115 L58 -115 Z " />
<glyph glyph-name="hyphen" unicode="&#x2d;" horiz-adv-x="272" d="M232 273 L232 300 L40 300 L40 273 L232 273 L232 273 Z " />
<glyph glyph-name="period" unicode="&#x2e;" horiz-adv-x="105" d="M27 20 C27 6 38 -8 55 -8 C69 -8 83 4 83 20 C83 33 70 48 55 48 C41 48 27 36 27 20 L27 20 Z " />
<glyph glyph-name="slash" unicode="&#x2f;" horiz-adv-x="283" d="M15 -7 L47 -8 L271 678 L239 680 L15 -7 L15 -7 Z " />
<glyph glyph-name="zero" unicode="0" horiz-adv-x="296" d="M40 108 C40 72 50 45 70 24 C90 3 115 -8 147 -8 C178 -8 204 3 225 24 C245 46 256 74 256 109 L256 453 C256 488 246 517 226 537 C206 558 180 568 148 568 C117 568 91 558 70 536 C50 515 40 487 40 452 L40 108 Z M72 451 C72 478 79 500 93 515 C107 531 125 539 148 539 C170 539 188 531 202 515 C217 500 224 478 224 451 L224 110 C224 83 217 61 202 46 C188 30 170 22 148 22 C125 22 107 30 93 46 C79 61 72 83 72 110 L72 451 Z " />
<glyph glyph-name="one" unicode="1" horiz-adv-x="152" d="M8 492 L28 471 L80 514 L80 0 L112 0 L112 560 L88 560 L8 492 L8 492 Z " />
<glyph glyph-name="two" unicode="2" horiz-adv-x="242" d="M225 0 L225 28 L55 28 L188 312 C213 363 225 408 225 448 C225 485 215 513 195 535 C176 557 150 567 119 567 C89 567 63 557 44 536 C24 515 15 487 15 452 L15 400 L45 400 L45 451 C45 479 52 500 65 515 C79 530 97 538 119 538 C140 538 158 530 172 515 C186 500 193 479 193 451 C193 411 183 370 163 328 L17 19 L17 0 L225 0 L225 0 Z " />
<glyph glyph-name="three" unicode="3" horiz-adv-x="251" d="M125 308 L125 281 C148 281 166 273 180 257 C194 241 201 220 201 192 L201 110 C201 83 194 61 180 46 C166 30 148 22 125 22 C103 22 85 30 71 46 C56 61 49 83 49 110 L49 156 L19 156 L19 108 C19 72 29 45 48 24 C68 3 93 -8 125 -8 C156 -8 182 3 203 24 C223 46 233 74 233 109 L233 191 C233 242 214 276 174 296 C209 315 227 348 227 393 L227 460 C227 492 217 519 198 539 C179 559 155 568 126 568 C97 568 73 558 54 538 C35 517 25 491 25 458 L25 417 L56 417 L56 457 C56 482 62 502 75 517 C89 532 105 539 125 539 C146 539 162 532 175 517 C189 502 195 482 195 457 L195 390 C195 365 189 345 175 330 C162 316 146 308 125 308 L125 308 Z " />
<glyph glyph-name="four" unicode="4" horiz-adv-x="261" d="M10 186 L10 159 L174 159 L174 0 L206 0 L206 159 L250 159 L250 187 L206 187 L206 560 L174 560 L10 186 Z M39 187 L174 496 L174 187 L39 187 Z " />
<glyph glyph-name="five" unicode="5" horiz-adv-x="278" d="M40 268 L68 268 C68 288 75 306 88 319 C102 332 118 339 138 339 C159 339 177 331 191 317 C205 302 212 281 212 255 L212 108 C212 82 205 61 191 45 C177 30 159 22 138 22 C117 22 99 30 85 45 C71 61 64 82 64 108 L64 152 L32 152 L32 105 C32 72 42 45 62 24 C82 3 107 -8 137 -8 C168 -8 193 3 213 24 C233 46 244 73 244 107 L244 257 C244 291 234 318 215 338 C196 358 172 368 143 368 C111 368 86 357 70 333 L70 531 L232 531 L232 561 L40 561 L40 268 L40 268 Z " />
<glyph glyph-name="six" unicode="6" horiz-adv-x="275" d="M28 110 C28 74 38 45 59 24 C79 3 105 -8 138 -8 C170 -8 197 3 218 25 C239 46 249 75 249 112 L249 235 C249 271 239 300 220 321 C200 342 175 352 143 352 C121 352 102 346 86 332 L187 561 L155 561 L47 317 C35 287 28 257 28 225 L28 110 Z M60 233 C60 261 67 284 82 299 C96 315 115 323 139 323 C162 323 181 315 195 299 C210 284 217 261 217 233 L217 113 C217 84 210 61 195 46 C181 30 162 22 139 22 C115 22 96 30 82 46 C67 61 60 84 60 113 L60 233 Z " />
<glyph glyph-name="seven" unicode="7" horiz-adv-x="247" d="M48 0 L80 0 L236 539 L236 560 L12 560 L12 532 L203 532 L48 0 L48 0 Z " />
<glyph glyph-name="eight" unicode="8" horiz-adv-x="275" d="M34 400 C34 351 52 317 89 298 C71 288 56 274 44 256 C33 237 28 215 28 189 L28 112 C28 75 38 46 59 25 C80 3 106 -8 139 -8 C171 -8 198 4 220 26 C241 48 252 77 252 113 L252 191 C252 244 231 281 190 300 C207 309 221 322 230 340 C240 358 245 378 245 401 L245 456 C245 489 235 517 216 537 C196 558 171 568 140 568 C110 568 85 558 64 536 C44 515 34 488 34 454 L34 400 Z M60 192 C60 221 67 244 82 260 C96 276 116 285 140 285 C164 285 183 276 198 260 C212 244 220 221 220 192 L220 114 C220 85 212 63 198 46 C183 30 164 22 140 22 C116 22 96 30 82 46 C67 63 60 85 60 114 L60 192 Z M66 453 C66 479 73 500 87 516 C101 531 118 539 140 539 C161 539 178 531 192 516 C206 500 213 479 213 453 L213 398 C213 372 206 351 192 336 C178 320 161 313 140 313 C118 313 101 320 87 336 C73 351 66 372 66 398 L66 453 Z " />
<glyph glyph-name="nine" unicode="9" horiz-adv-x="297" d="M259 450 C259 486 249 515 229 536 C208 557 182 567 149 567 C117 567 90 557 69 535 C49 513 38 485 38 448 L38 325 C38 289 48 260 67 239 C87 218 112 207 144 207 C167 207 186 214 201 227 L100 0 L133 0 L240 244 C253 273 259 303 259 335 L259 450 Z M227 328 C227 299 220 276 205 261 C191 245 172 237 149 237 C125 237 106 245 92 261 C77 276 70 299 70 328 L70 448 C70 476 77 499 92 514 C106 530 125 538 149 538 C172 538 191 530 205 514 C220 499 227 476 227 448 L227 328 Z " />
<glyph glyph-name="colon" unicode="&#x3a;" horiz-adv-x="122" d="M34 472 C34 458 46 444 62 444 C75 444 90 457 90 472 C90 486 78 500 62 500 C48 500 34 489 34 472 L34 472 Z M34 108 C34 94 45 80 62 80 C76 80 90 92 90 108 C90 121 77 136 62 136 C48 136 34 124 34 108 L34 108 Z " />
<glyph glyph-name="semicolon" unicode="&#x3b;" horiz-adv-x="119" d="M32 472 C32 458 44 444 60 444 C73 444 88 457 88 472 C88 486 76 500 60 500 C46 500 32 489 32 472 L32 472 Z M68 -17 L80 151 L44 151 L40 -17 L68 -17 Z " />
<glyph glyph-name="less" unicode="&#x3c;" horiz-adv-x="330" d="M300 452 L304 484 L40 312 L40 288 L304 117 L301 151 L68 301 L300 452 L300 452 Z " />
<glyph glyph-name="equal" unicode="&#x3d;" horiz-adv-x="327" d="M294 357 L294 385 L30 385 L30 357 L294 357 Z M294 217 L294 245 L30 245 L30 217 L294 217 Z " />
<glyph glyph-name="greater" unicode="&#x3e;" horiz-adv-x="331" d="M28 149 L27 117 L291 289 L291 312 L27 484 L28 450 L260 300 L28 149 L28 149 Z " />
<glyph glyph-name="question" unicode="&#x3f;" horiz-adv-x="253" d="M141 187 C141 209 146 232 158 253 C169 274 180 294 189 311 C198 329 208 350 218 375 C227 401 232 425 232 448 C232 485 222 514 202 535 C183 557 157 567 126 567 C95 567 70 557 51 536 C31 515 21 487 21 452 L21 407 L52 407 L52 452 C52 479 59 500 72 515 C86 530 104 538 126 538 C147 538 165 530 179 515 C193 500 200 479 200 452 C200 415 192 382 176 352 C161 322 146 292 131 264 C116 235 109 209 109 184 L109 160 L141 160 L141 187 Z M97 20 C97 6 108 -8 125 -8 C140 -8 153 5 153 20 C153 34 139 48 125 48 C111 48 97 35 97 20 L97 20 Z " />
<glyph glyph-name="at" unicode="&#x40;" horiz-adv-x="746" d="M263 256 C260 230 265 209 280 192 C295 175 315 167 340 167 C370 167 393 178 410 199 C410 169 420 144 439 125 C459 106 485 96 519 96 C574 96 619 118 654 160 C690 203 707 258 707 326 C707 423 675 506 609 574 C544 642 465 676 372 676 C279 676 201 642 136 574 C71 506 39 423 39 326 C39 234 71 155 136 90 C201 25 279 -8 372 -8 C395 -8 421 -4 451 2 L446 32 C423 27 398 25 372 25 C288 25 217 54 159 113 C100 172 71 243 71 326 C71 414 100 489 158 551 C217 613 288 645 372 645 C456 645 528 613 587 551 C646 489 675 414 675 326 C675 269 661 221 632 183 C604 145 567 126 521 126 C494 126 473 134 458 149 C442 165 436 186 440 213 L481 495 L479 496 L454 496 L448 462 C435 489 413 503 381 503 C356 503 335 496 318 481 C301 466 290 446 287 420 L263 256 Z M318 415 C321 433 327 447 338 457 C349 467 363 472 381 472 C400 472 415 466 424 453 C434 441 439 425 438 406 L413 255 C410 237 404 223 393 213 C382 203 368 198 350 198 C330 198 316 204 306 216 C297 228 293 244 296 263 L318 415 Z " />
<glyph glyph-name="A" unicode="A" horiz-adv-x="300" d="M168 560 L133 560 L18 0 L50 0 L83 159 L220 159 L252 0 L281 0 L168 560 Z M152 496 L214 186 L88 186 L152 496 Z " />
<glyph glyph-name="B" unicode="B" horiz-adv-x="295" d="M40 0 L147 0 C185 0 215 12 238 36 C261 59 272 92 272 133 L272 173 C272 204 265 230 252 251 C239 273 220 287 197 296 C242 317 264 357 264 417 L264 429 C264 470 253 502 230 525 C208 548 178 560 141 560 L40 560 L40 0 Z M72 532 L140 532 C168 532 191 523 207 505 C224 487 232 462 232 428 L232 411 C232 378 224 352 207 334 C191 316 168 307 140 307 L72 307 L72 532 Z M72 281 L148 281 C176 281 199 272 215 254 C232 236 240 210 240 177 L240 132 C240 98 232 73 215 55 C199 37 176 28 148 28 L72 28 L72 281 Z " />
<glyph glyph-name="C" unicode="C" horiz-adv-x="302" d="M240 388 L272 388 L272 443 C272 481 261 511 239 534 C217 556 189 568 156 568 C123 568 95 556 73 534 C51 511 40 481 40 443 L40 117 C40 79 51 49 73 26 C95 4 123 -8 156 -8 C189 -8 217 4 239 26 C261 49 272 79 272 117 L272 172 L240 172 L240 118 C240 88 232 64 217 47 C199 27 179 22 156 22 C133 21 110 31 95 47 C79 64 72 88 72 118 L72 442 C72 472 80 496 95 513 C96 514 120 538 156 538 C195 538 216 514 217 513 C232 496 240 472 240 442 L240 388 L240 388 Z " />
<glyph glyph-name="D" unicode="D" horiz-adv-x="308" d="M40 0 L144 0 C181 0 211 12 234 36 C257 59 268 92 268 133 L268 429 C268 470 257 502 235 525 C212 548 183 560 145 560 L40 560 L40 0 Z M73 532 L144 532 C173 532 195 523 212 505 C228 487 236 462 236 428 L236 132 C236 98 228 73 212 55 C195 37 173 28 144 28 L73 28 L73 532 Z " />
<glyph glyph-name="E" unicode="E" horiz-adv-x="256" d="M229 0 L229 28 L72 28 L72 281 L201 281 L201 307 L72 307 L72 532 L225 532 L225 560 L40 560 L40 0 L229 0 L229 0 Z " />
<glyph glyph-name="F" unicode="F" horiz-adv-x="241" d="M196 281 L196 307 L72 307 L72 532 L220 532 L220 560 L40 560 L40 0 L72 0 L72 281 L196 281 L196 281 Z " />
<glyph glyph-name="G" unicode="G" horiz-adv-x="312" d="M272 388 L272 445 C272 482 262 512 240 534 C218 557 191 568 157 568 C124 568 96 557 74 534 C51 511 40 481 40 443 L40 115 C40 78 51 48 73 26 C94 3 122 -8 156 -8 C189 -8 217 3 239 26 C240 27 240 27 240 28 L240 0 L272 0 L272 117 L272 307 L164 307 L164 281 L240 281 L240 118 C240 88 233 64 217 47 C202 30 182 22 156 22 C131 22 111 30 96 47 C80 64 72 88 72 118 L72 442 C72 472 80 496 96 513 C111 530 131 538 156 538 C182 538 202 530 217 513 C233 496 240 472 240 442 L240 388 L272 388 L272 388 Z " />
<glyph glyph-name="H" unicode="H" horiz-adv-x="308" d="M236 0 L268 0 L268 560 L236 560 L236 312 L72 312 L72 560 L40 560 L40 0 L72 0 L72 284 L236 284 L236 0 L236 0 Z " />
<glyph glyph-name="I" unicode="I" horiz-adv-x="114" d="M40 0 L74 0 L74 560 L40 560 L40 0 L40 0 Z " />
<glyph glyph-name="J" unicode="J" horiz-adv-x="174" d="M17 -8 L39 -8 C67 -8 89 1 107 20 C125 38 134 63 134 94 L134 560 L100 560 L100 98 C100 73 94 54 82 41 C70 28 53 22 31 22 L17 22 L17 -8 L17 -8 Z " />
<glyph glyph-name="K" unicode="K" horiz-adv-x="282" d="M40 0 L72 0 L72 280 L230 0 L268 0 L101 290 L260 560 L222 560 L72 295 L72 560 L40 560 L40 0 L40 0 Z " />
<glyph glyph-name="L" unicode="L" horiz-adv-x="222" d="M212 0 L212 28 L72 28 L72 560 L40 560 L40 0 L212 0 L212 0 Z " />
<glyph glyph-name="M" unicode="M" horiz-adv-x="400" d="M191 96 L208 96 L328 471 L328 0 L360 0 L360 560 L328 560 L201 162 L73 560 L40 560 L40 0 L72 0 L72 470 L191 96 L191 96 Z " />
<glyph glyph-name="N" unicode="N" horiz-adv-x="316" d="M245 0 L276 0 L276 560 L245 560 L245 80 L72 560 L40 560 L40 0 L70 0 L70 485 L245 0 L245 0 Z " />
<glyph glyph-name="O" unicode="O" horiz-adv-x="312" d="M40 115 C40 78 51 48 72 26 C94 3 121 -8 155 -8 C189 -8 216 3 239 26 C261 49 272 79 272 117 L272 445 C272 482 261 512 239 534 C218 557 190 568 157 568 C123 568 95 557 73 534 C51 511 40 481 40 443 L40 115 Z M72 442 C72 472 80 496 95 513 C110 530 131 538 156 538 C181 538 201 530 217 513 C232 496 240 472 240 442 L240 118 C240 88 232 64 217 47 C201 30 181 22 156 22 C131 22 110 30 95 47 C80 64 72 88 72 118 L72 442 Z " />
<glyph glyph-name="P" unicode="P" horiz-adv-x="293" d="M40 0 L72 0 L72 236 L143 236 C180 236 210 248 233 272 C256 295 268 328 268 369 L268 429 C268 470 257 502 234 525 C212 548 182 560 145 560 L40 560 L40 0 Z M72 532 L144 532 C172 532 194 523 211 505 C228 487 236 462 236 428 L236 368 C236 334 228 309 211 291 C194 273 172 264 144 264 L72 264 L72 532 Z " />
<glyph glyph-name="Q" unicode="Q" horiz-adv-x="312" d="M256 50 C267 69 272 91 272 117 L272 445 C272 482 261 512 239 534 C218 557 190 568 157 568 C123 568 95 557 73 534 C51 511 40 481 40 443 L40 115 C40 78 51 48 72 26 C94 3 121 -8 155 -8 C162 -8 172 -7 184 -5 L221 -96 L257 -95 L213 7 C231 17 245 31 256 50 L256 50 Z M201 34 L195 50 L166 39 L172 23 C167 22 161 22 156 22 C131 22 110 30 95 47 C80 64 72 88 72 118 L72 442 C72 472 80 496 95 513 C110 530 131 538 156 538 C181 538 201 530 217 513 C232 496 240 472 240 442 L240 118 C240 88 232 64 217 47 C212 42 207 38 201 34 L201 34 Z " />
<glyph glyph-name="R" unicode="R" horiz-adv-x="294" d="M248 299 C261 320 268 347 268 378 L268 429 C268 470 257 502 234 525 C212 548 182 560 145 560 L40 560 L40 0 L72 0 L72 245 L143 245 C147 245 164 244 164 244 C183 241 198 232 210 220 C224 204 232 182 232 153 C232 153 232 153 232 152 L232 0 L262 0 L262 155 C262 191 252 220 232 242 C225 249 216 256 208 261 C224 270 237 283 248 299 L248 299 Z M166 273 C159 272 152 271 144 271 L72 271 L72 532 L144 532 C172 532 194 523 211 505 C228 487 236 462 236 428 L236 375 C236 342 228 316 211 298 C199 285 184 277 166 273 L166 273 Z " />
<glyph glyph-name="S" unicode="S" horiz-adv-x="278" d="M60 450 C60 478 68 499 82 515 C97 530 116 538 140 538 C164 538 183 530 198 514 C213 498 220 475 220 446 L220 424 L251 424 L251 449 C251 485 240 514 220 536 C200 557 173 568 141 568 C108 568 82 557 60 536 C39 515 28 486 28 451 C28 397 59 342 121 285 C155 254 180 225 196 199 C212 173 220 145 220 114 C220 85 212 62 197 46 C181 30 161 22 136 22 C111 22 91 30 75 47 C60 64 52 88 52 118 L52 148 L22 148 L22 115 C22 78 32 48 53 26 C74 3 102 -8 135 -8 C169 -8 197 3 219 25 C241 47 252 76 252 113 C252 149 243 182 225 213 C207 243 180 275 144 308 C116 334 95 357 81 379 C67 401 60 425 60 450 L60 450 Z " />
<glyph glyph-name="T" unicode="T" horiz-adv-x="272" d="M256 532 L256 560 L16 560 L16 532 L120 532 L120 0 L152 0 L152 532 L256 532 L256 532 Z " />
<glyph glyph-name="U" unicode="U" horiz-adv-x="304" d="M233 560 L233 114 C233 85 226 62 211 46 C196 30 177 22 153 22 C129 22 110 30 95 46 C80 62 73 85 73 114 L73 560 L40 560 L40 111 C40 75 51 46 71 24 C92 3 119 -8 151 -8 C184 -8 211 3 232 25 C253 47 264 76 264 113 L264 560 L233 560 L233 560 Z " />
<glyph glyph-name="V" unicode="V" horiz-adv-x="274" d="M119 0 L152 0 L268 560 L240 560 L139 69 L42 560 L8 560 L119 0 L119 0 Z " />
<glyph glyph-name="W" unicode="W" horiz-adv-x="412" d="M99 0 L131 0 L207 458 L283 0 L314 0 L403 560 L375 560 L300 80 L222 560 L196 560 L119 82 L41 560 L8 560 L99 0 L99 0 Z " />
<glyph glyph-name="X" unicode="X" horiz-adv-x="283" d="M49 560 L14 560 L125 289 L6 0 L40 0 L142 248 L243 0 L278 0 L159 291 L270 560 L236 560 L143 332 L49 560 L49 560 Z " />
<glyph glyph-name="Y" unicode="Y" horiz-adv-x="267" d="M117 0 L149 0 L149 232 L259 560 L226 560 L133 269 L41 560 L7 560 L117 234 L117 0 L117 0 Z " />
<glyph glyph-name="Z" unicode="Z" horiz-adv-x="221" d="M204 0 L204 28 L38 28 L204 540 L204 560 L16 560 L16 532 L170 532 L4 20 L4 0 L204 0 L204 0 Z " />
<glyph glyph-name="bracketleft" unicode="&#x5b;" horiz-adv-x="222" d="M196 -8 L196 20 L72 20 L72 651 L196 651 L196 679 L40 679 L40 -8 L196 -8 L196 -8 Z " />
<glyph glyph-name="backslash" unicode="&#x5c;" horiz-adv-x="308" d="M49 678 L17 677 L241 -10 L273 -8 L49 678 L49 678 Z " />
<glyph glyph-name="bracketright" unicode="&#x5d;" horiz-adv-x="222" d="M182 -8 L182 679 L26 679 L26 651 L150 651 L150 20 L26 20 L26 -8 L182 -8 L182 -8 Z " />
<glyph glyph-name="asciicircum" unicode="&#x5e;" horiz-adv-x="310" d="M239 291 L275 288 L167 560 L143 560 L35 288 L70 290 L155 513 L239 291 L239 291 Z " />
<glyph glyph-name="underscore" unicode="&#x5f;" horiz-adv-x="407" d="M369 0 L369 28 L49 28 L49 0 L369 0 L369 0 Z " />
<glyph glyph-name="grave" unicode="&#x60;" horiz-adv-x="154" d="M117 431 L65 560 L29 560 L89 431 L117 431 L117 431 Z " />
<glyph glyph-name="a" unicode="a" horiz-adv-x="282" d="M26 107 C26 73 36 46 55 24 C74 3 98 -8 128 -8 C165 -8 201 12 213 73 L213 0 L242 0 L242 304 C242 337 232 363 213 383 C194 403 170 413 141 413 C112 413 88 403 69 382 C50 362 40 335 40 303 L71 302 C71 327 77 347 90 361 C104 376 120 383 140 383 C161 383 177 376 190 361 C203 347 210 327 210 302 L210 201 C190 230 163 244 129 244 C100 244 75 233 56 211 C36 189 26 161 26 127 L26 107 Z M58 126 C58 152 65 174 79 190 C93 206 112 214 134 214 C156 214 175 206 189 190 C203 174 210 152 210 126 L210 110 C210 83 203 62 189 46 C175 30 156 22 134 22 C112 22 93 30 79 46 C65 62 58 83 58 110 L58 126 Z " />
<glyph glyph-name="b" unicode="b" horiz-adv-x="291" d="M40 0 L70 0 L70 73 C75 22 114 -8 151 -8 C180 -8 204 2 223 23 C242 43 251 69 251 100 L251 307 C251 338 242 364 224 383 C205 403 182 413 153 413 C118 413 91 399 72 371 L72 560 L40 560 L40 0 Z M219 107 C219 81 212 60 198 45 C185 29 167 22 146 22 C124 22 107 29 93 45 C79 60 72 81 72 107 L72 298 C72 324 79 345 93 360 C107 376 124 383 146 383 C167 383 185 376 198 360 C212 345 219 324 219 298 L219 107 Z " />
<glyph glyph-name="c" unicode="c" horiz-adv-x="283" d="M213 104 C213 79 206 59 193 44 C180 29 163 22 143 22 C122 22 106 29 92 44 C79 59 72 79 72 104 L72 301 C72 326 79 346 92 361 C106 376 122 383 143 383 C163 383 180 376 193 361 C206 346 213 326 213 301 L213 261 L243 261 L243 303 C243 336 234 362 215 383 C196 403 172 413 143 413 C115 413 90 403 70 382 C50 361 40 334 40 302 L40 102 C40 69 50 43 69 23 C89 2 113 -8 142 -8 C171 -8 195 3 214 23 C234 44 243 71 243 103 L243 148 L213 148 L213 104 L213 104 Z " />
<glyph glyph-name="d" unicode="d" horiz-adv-x="292" d="M252 560 L220 560 L220 373 C201 400 175 413 140 413 C112 413 88 403 69 383 C50 362 40 336 40 305 L40 99 C40 67 50 42 68 22 C86 2 110 -8 139 -8 C176 -8 214 17 222 73 L222 0 L252 0 L252 560 Z M72 298 C72 324 79 345 93 360 C107 376 125 383 146 383 C167 383 185 376 199 360 C213 345 220 324 220 298 L220 107 C220 81 213 60 199 45 C185 29 167 22 146 22 C125 22 107 29 93 45 C79 60 72 81 72 107 L72 298 Z " />
<glyph glyph-name="e" unicode="e" horiz-adv-x="289" d="M249 213 L249 300 C249 334 239 362 220 382 C201 403 176 413 146 413 C116 413 90 402 70 381 C50 360 40 332 40 299 L40 105 C40 71 49 44 69 23 C89 3 114 -8 144 -8 C174 -8 199 3 219 24 C239 45 249 72 249 107 L249 124 L219 124 L219 107 C219 81 212 60 198 45 C184 29 167 22 145 22 C124 22 106 29 92 45 C78 60 72 81 72 107 L72 213 L249 213 Z M72 298 C72 324 78 345 92 360 C106 376 124 383 145 383 C167 383 184 376 198 360 C212 345 219 324 219 298 L219 239 L72 239 L72 298 Z " />
<glyph glyph-name="f" unicode="f" horiz-adv-x="192" d="M9 377 L65 377 L65 0 L97 0 L97 377 L185 377 L185 405 L97 405 L97 469 C97 515 116 539 155 539 C164 539 185 539 185 539 L185 568 C185 568 155 568 148 568 C122 568 102 560 87 543 C73 526 65 502 65 469 L65 405 L9 405 L9 377 L9 377 Z " />
<glyph glyph-name="g" unicode="g" horiz-adv-x="291" d="M251 405 L222 405 L222 336 C213 391 175 413 140 413 C111 413 88 403 69 383 C50 362 40 336 40 305 L40 131 C40 99 49 73 68 54 C86 34 110 24 139 24 C173 24 200 38 219 66 L219 -21 C219 -47 212 -68 199 -83 C185 -98 167 -106 146 -106 C124 -106 107 -98 93 -83 C79 -68 72 -47 72 -21 L72 -12 L42 -12 L42 -23 C42 -57 51 -84 71 -105 C90 -126 115 -136 145 -136 C175 -136 201 -125 221 -104 C241 -82 251 -55 251 -21 L251 405 Z M72 298 C72 324 79 345 93 360 C107 376 124 383 146 383 C167 383 185 376 199 360 C212 345 219 324 219 298 L219 139 C219 113 212 92 199 77 C185 62 167 54 146 54 C124 54 107 62 93 77 C79 92 72 113 72 139 L72 298 Z " />
<glyph glyph-name="h" unicode="h" horiz-adv-x="288" d="M248 0 L248 307 C248 339 240 364 222 384 C204 403 182 413 155 413 C120 413 81 386 72 336 L72 560 L40 560 L40 0 L72 0 L72 303 C73 329 80 348 94 362 C109 376 126 383 148 383 C169 383 186 376 198 361 C210 347 216 326 216 299 L216 0 L248 0 L248 0 Z " />
<glyph glyph-name="i" unicode="i" horiz-adv-x="114" d="M29 524 C29 509 40 496 57 496 C72 496 85 508 85 524 C85 538 76 552 57 552 C40 552 29 539 29 524 L29 524 Z M40 0 L74 0 L74 405 L40 405 L40 0 Z " />
<glyph glyph-name="j" unicode="j" horiz-adv-x="114" d="M-28 -136 L-3 -136 C19 -136 38 -128 52 -113 C66 -98 74 -77 74 -51 L74 405 L40 405 L40 -50 C40 -68 36 -82 27 -92 C18 -101 6 -106 -8 -106 C-15 -106 -28 -106 -28 -106 L-28 -136 Z M29 524 C29 510 39 496 57 496 C71 496 85 507 85 524 C85 540 72 552 57 552 C43 552 29 540 29 524 L29 524 Z " />
<glyph glyph-name="k" unicode="k" horiz-adv-x="257" d="M40 0 L72 0 L72 214 L208 0 L248 0 L104 222 L240 405 L200 405 L72 225 L72 560 L40 560 L40 0 L40 0 Z " />
<glyph glyph-name="l" unicode="l" horiz-adv-x="113" d="M40 0 L73 0 L73 560 L40 560 L40 0 L40 0 Z " />
<glyph glyph-name="m" unicode="m" horiz-adv-x="455" d="M243 0 L243 303 C244 329 251 348 265 362 C278 376 295 383 316 383 C337 383 353 376 365 361 C377 347 383 326 383 299 L383 0 L415 0 L415 307 C415 339 406 364 389 384 C373 403 351 413 323 413 C304 413 286 408 270 397 C254 387 243 373 235 355 C219 394 192 413 152 413 C116 413 78 380 70 336 L70 405 L40 405 L40 0 L72 0 L72 299 C72 325 79 346 93 361 C106 376 124 383 145 383 C166 383 182 376 194 361 C206 347 211 326 211 299 L211 0 L243 0 L243 0 Z " />
<glyph glyph-name="n" unicode="n" horiz-adv-x="288" d="M248 0 L248 307 C248 339 239 364 221 384 C204 403 181 413 154 413 C116 413 78 380 69 336 L69 405 L40 405 L40 0 L72 0 L72 299 C72 325 79 346 93 361 C108 376 126 383 147 383 C168 383 185 376 197 361 C210 347 216 326 216 299 L216 0 L248 0 L248 0 Z " />
<glyph glyph-name="o" unicode="o" horiz-adv-x="291" d="M40 105 C40 71 49 44 69 23 C89 3 114 -8 144 -8 C175 -8 200 3 220 24 C241 46 251 73 251 107 L251 300 C251 334 241 361 221 382 C201 403 176 413 146 413 C116 413 90 402 70 381 C50 360 40 332 40 299 L40 105 Z M72 298 C72 324 78 345 92 360 C106 376 124 383 145 383 C167 383 184 376 198 360 C212 345 219 324 219 298 L219 107 C219 81 212 60 198 45 C184 29 167 22 145 22 C124 22 106 29 92 45 C78 60 72 81 72 107 L72 298 Z " />
<glyph glyph-name="p" unicode="p" horiz-adv-x="291" d="M40 -128 L72 -128 L72 32 C90 5 116 -8 151 -8 C180 -8 204 2 223 23 C242 43 251 69 251 100 L251 307 C251 338 242 364 223 383 C205 403 181 413 152 413 C116 413 79 381 69 336 L69 405 L40 405 L40 -128 Z M219 107 C219 81 212 60 198 45 C184 29 167 22 145 22 C124 22 106 29 93 45 C79 60 72 81 72 107 L72 298 C72 324 79 345 93 360 C106 376 124 383 145 383 C167 383 184 376 198 360 C212 345 219 324 219 298 L219 107 Z " />
<glyph glyph-name="q" unicode="q" horiz-adv-x="291" d="M251 405 L222 405 L222 336 C217 388 175 413 140 413 C111 413 87 403 68 383 C49 362 40 336 40 305 L40 99 C40 67 49 42 68 22 C86 2 110 -8 138 -8 C173 -8 200 6 219 34 L219 -128 L251 -128 L251 405 Z M72 298 C72 324 79 345 93 360 C107 376 124 383 146 383 C167 383 184 376 198 360 C212 345 219 324 219 298 L219 107 C219 81 212 60 198 45 C184 29 167 22 146 22 C124 22 107 29 93 45 C79 60 72 81 72 107 L72 298 Z " />
<glyph glyph-name="r" unicode="r" horiz-adv-x="183" d="M170 413 C124 413 80 382 70 336 L70 405 L40 405 L40 0 L72 0 L72 275 C72 311 80 337 97 356 C113 374 136 383 163 383 L170 383 L170 413 L170 413 Z " />
<glyph glyph-name="s" unicode="s" horiz-adv-x="252" d="M200 99 C200 75 193 56 180 43 C166 29 148 22 127 22 C105 22 88 29 74 43 C60 56 53 75 53 99 L53 108 L23 108 L23 97 C23 66 32 40 52 21 C71 2 96 -8 126 -8 C156 -8 182 2 202 22 C222 42 232 67 232 99 C232 127 224 151 208 171 C192 191 168 209 135 225 C109 237 90 250 78 264 C67 278 61 295 61 314 C61 334 68 351 81 364 C94 377 111 383 131 383 C150 383 167 377 180 364 C194 351 200 334 200 314 L200 305 L231 305 L231 316 C231 344 221 368 203 386 C184 404 160 413 131 413 C103 413 78 404 59 385 C39 366 29 343 29 315 C29 266 58 227 116 199 C146 185 168 170 181 154 C194 139 200 120 200 99 L200 99 Z " />
<glyph glyph-name="t" unicode="t" horiz-adv-x="192" d="M4 377 L60 377 L60 91 C60 59 68 34 82 17 C97 1 117 -8 144 -8 C157 -8 180 -8 180 -8 L180 22 L150 22 C112 22 92 45 92 91 L92 377 L184 377 L184 405 L92 405 L92 512 L60 512 L60 405 L4 405 L4 377 L4 377 Z " />
<glyph glyph-name="u" unicode="u" horiz-adv-x="288" d="M40 405 L40 99 C40 67 49 41 67 21 C84 2 107 -8 134 -8 C172 -8 210 25 219 69 L219 0 L248 0 L248 405 L216 405 L216 106 C216 80 209 59 195 44 C180 29 162 22 141 22 C120 22 103 29 91 44 C78 58 72 79 72 106 L72 405 L40 405 L40 405 Z " />
<glyph glyph-name="v" unicode="v" horiz-adv-x="255" d="M110 0 L142 0 L240 405 L212 405 L129 61 L50 405 L16 405 L110 0 L110 0 Z " />
<glyph glyph-name="w" unicode="w" horiz-adv-x="381" d="M101 0 L133 0 L193 312 L254 0 L282 0 L362 405 L335 405 L268 68 L204 405 L183 405 L119 71 L53 405 L19 405 L101 0 L101 0 Z " />
<glyph glyph-name="x" unicode="x" horiz-adv-x="249" d="M235 405 L202 405 L126 246 L50 405 L15 405 L108 210 L7 0 L40 0 L125 176 L209 0 L243 0 L142 212 L235 405 L235 405 Z " />
<glyph glyph-name="y" unicode="y" horiz-adv-x="254" d="M116 -12 C106 -49 96 -75 85 -87 C75 -100 61 -106 44 -106 C38 -106 31 -106 31 -106 L31 -136 L47 -136 C68 -136 85 -127 100 -108 C114 -90 127 -58 139 -13 L239 405 L211 405 L129 44 L49 405 L15 405 L116 -12 L116 -12 Z " />
<glyph glyph-name="z" unicode="z" horiz-adv-x="194" d="M8 20 L8 0 L184 0 L184 28 L41 28 L184 388 L184 405 L20 405 L20 377 L151 377 L8 20 L8 20 Z " />
<glyph glyph-name="braceleft" unicode="&#x7b;" horiz-adv-x="259" d="M134 405 L134 580 C134 605 139 623 151 634 C163 646 181 651 206 651 L242 651 L242 679 L202 679 C169 679 144 671 127 654 C110 637 102 613 102 580 L102 405 C102 384 97 370 89 362 C80 353 66 349 46 349 L22 349 L22 322 L46 322 C66 322 80 318 89 310 C97 302 102 287 102 266 L102 91 C102 58 110 34 127 17 C144 0 169 -8 202 -8 L242 -8 L242 20 L206 20 C181 20 163 25 151 37 C139 48 134 66 134 91 L134 266 C134 287 129 304 120 316 C112 328 100 334 86 335 C100 337 112 343 120 355 C129 368 134 384 134 405 L134 405 Z " />
<glyph glyph-name="bar" unicode="&#x7c;" horiz-adv-x="112" d="M40 -8 L72 -8 L72 713 L40 713 L40 -8 L40 -8 Z " />
<glyph glyph-name="braceright" unicode="&#x7d;" horiz-adv-x="258" d="M125 266 L125 91 C125 66 119 48 107 37 C95 25 77 20 53 20 L17 20 L17 -8 L57 -8 C89 -8 114 0 131 17 C148 34 157 58 157 91 L157 266 C157 287 161 301 169 310 C178 318 192 322 213 322 L237 322 L237 349 L213 349 C192 349 178 353 169 361 C161 369 157 384 157 405 L157 580 C157 613 148 637 131 654 C114 671 89 679 57 679 L17 679 L17 651 L53 651 C77 651 95 646 107 634 C119 623 125 605 125 580 L125 405 C125 384 129 367 138 355 C147 343 158 337 172 335 C158 334 147 328 138 316 C129 303 125 287 125 266 L125 266 Z " />
<glyph glyph-name="asciitilde" unicode="&#x7e;" horiz-adv-x="342" d="M56 246 L58 261 C58 270 62 280 68 290 C75 299 85 304 97 304 C109 304 120 301 131 294 C142 287 151 279 159 271 C166 263 177 256 190 249 C203 242 217 239 231 239 C245 239 257 242 267 248 C277 254 285 261 290 269 C294 277 298 286 301 296 C304 306 305 313 305 317 C305 321 306 324 306 326 L275 326 L274 312 C273 302 269 293 263 283 C256 274 247 269 234 269 C223 269 211 272 200 279 C189 286 180 294 172 302 C165 310 154 317 141 324 C128 331 114 334 100 334 C86 334 74 331 64 325 C54 319 46 311 42 304 C37 296 33 287 30 277 C28 267 26 260 26 256 C26 252 26 249 26 246 L56 246 L56 246 Z " />
<glyph glyph-name="exclamdown" unicode="&#xa1;" horiz-adv-x="105" d="M72 560 C66 566 60 569 53 569 C45 569 39 566 33 560 C27 555 25 548 25 541 C25 533 27 526 33 521 C39 515 45 512 53 512 C60 512 66 515 72 521 C78 526 80 533 80 541 C80 548 78 555 72 560 L72 560 Z M63 401 L42 401 L33 0 L72 0 L63 401 Z " />
<glyph glyph-name="cent" unicode="&#xa2;" horiz-adv-x="283" d="M243 260 L243 302 C243 332 235 357 219 377 C202 396 182 408 157 411 L157 468 L128 468 L128 410 C102 407 81 395 64 375 C48 355 40 330 40 301 L40 101 C40 70 48 45 64 26 C81 6 102 -5 128 -8 L128 -14 L128 -65 L157 -65 L157 -15 L157 -8 C182 -4 202 7 219 28 C235 48 243 72 243 102 L243 147 L213 147 L213 103 C213 78 206 58 192 43 C183 32 171 25 157 22 L157 46 L128 46 L128 22 C114 25 102 32 92 43 C78 58 72 78 72 103 L72 300 C72 325 78 345 92 360 C102 371 114 378 128 381 L128 350 L157 350 L157 381 C171 378 183 371 192 360 C206 345 213 325 213 300 L213 260 L243 260 L243 260 Z " />
<glyph glyph-name="sterling" unicode="&#xa3;" horiz-adv-x="312" d="M291 408 L291 455 C291 489 281 517 262 537 C243 557 217 568 186 568 C155 568 130 557 110 536 C90 515 80 488 80 453 L80 284 L16 284 L16 258 L80 258 L80 26 L16 26 L16 0 L80 0 L83 0 L280 0 L280 28 L112 28 L112 258 L220 258 L220 284 L112 284 L112 452 C112 479 119 501 132 515 C146 530 164 538 186 538 C207 538 225 530 239 515 C252 501 259 479 259 452 L259 408 L291 408 L291 408 Z " />
<glyph glyph-name="currency" unicode="&#xa4;" horiz-adv-x="402" d="M45 257 C45 216 57 181 81 154 L29 103 L50 81 L103 134 C131 112 164 102 200 102 C237 102 269 112 296 133 L349 81 L371 103 L318 154 C344 183 357 218 357 258 C357 299 344 333 318 362 L371 412 L349 434 L297 382 C269 403 237 413 202 413 C165 413 133 403 105 382 L50 434 L29 412 L82 360 C57 332 45 297 45 257 L45 257 Z M112 347 C136 372 166 384 201 384 C236 384 265 372 289 347 C313 323 325 293 325 258 C325 222 313 192 289 168 C265 143 236 131 201 131 C166 131 136 143 112 168 C89 192 77 222 77 258 C77 293 89 323 112 347 L112 347 Z " />
<glyph glyph-name="yen" unicode="&#xa5;" horiz-adv-x="289" d="M128 0 L160 0 L160 167 L255 167 L255 194 L160 194 L160 265 L163 271 L255 271 L255 298 L173 298 L271 560 L238 560 L145 298 L53 560 L19 560 L116 298 L35 298 L35 271 L127 271 L128 266 L128 194 L35 194 L35 167 L128 167 L128 0 L128 0 Z " />
<glyph glyph-name="brokenbar" unicode="&#xa6;" horiz-adv-x="126" d="M78 712 L46 712 L46 448 L78 448 L78 712 Z M46 -8 L78 -8 L78 256 L46 256 L46 -8 Z " />
<glyph glyph-name="section" unicode="&#xa7;" horiz-adv-x="358" d="M256 31 C256 8 249 -10 234 -24 C220 -38 202 -45 180 -45 C157 -45 139 -38 125 -23 C111 -8 104 11 104 35 L104 49 L73 49 L73 33 C73 1 83 -25 103 -45 C122 -65 148 -75 179 -75 C210 -75 236 -65 256 -45 C277 -25 288 0 288 30 C288 70 271 105 237 136 C263 143 285 157 302 177 C319 198 328 223 328 250 C328 281 317 308 297 332 C277 355 246 379 205 403 C173 422 149 441 134 459 C119 477 112 498 112 524 C112 547 119 565 133 579 C147 593 165 600 187 600 C210 600 228 593 242 578 C257 563 264 544 264 520 L264 505 L294 505 L294 522 C294 554 284 580 264 600 C245 620 219 629 188 629 C157 629 132 620 111 600 C90 580 80 555 80 525 C80 486 96 450 129 418 C103 411 82 398 65 377 C48 356 40 332 40 305 C40 274 50 247 70 223 C90 200 121 176 162 152 C195 133 218 114 233 96 C248 78 256 57 256 31 L256 31 Z M187 377 C227 354 255 333 271 315 C287 298 296 276 296 251 C296 226 287 205 270 188 C254 170 233 161 209 159 C206 161 204 163 200 166 C197 168 194 170 190 172 C186 175 183 177 180 178 C140 201 112 222 96 239 C80 257 72 279 72 304 C72 329 80 350 96 367 C113 384 133 394 157 395 C170 387 180 380 187 377 L187 377 Z " />
<glyph glyph-name="dieresis" unicode="&#xa8;" horiz-adv-x="255" d="M43 531 C43 517 55 504 71 504 C85 504 99 516 99 531 C99 545 86 560 71 560 C56 560 44 547 43 531 L43 531 Z M154 531 C154 517 167 504 183 504 C197 504 211 516 211 531 C211 545 198 560 183 560 C169 560 154 547 154 531 L154 531 Z " />
<glyph glyph-name="copyright" unicode="&#xa9;" horiz-adv-x="659" d="M122 75 C177 20 245 -8 328 -8 C410 -8 479 21 535 76 C591 133 620 201 620 282 C620 363 592 431 537 486 C482 541 413 568 331 568 C249 568 180 541 123 484 C67 429 39 360 39 279 C39 198 67 130 122 75 L122 75 Z M146 464 C196 514 257 539 329 539 C402 539 463 514 513 464 C563 414 588 353 588 280 C588 208 563 147 513 97 C463 47 402 22 329 22 C257 22 196 47 146 97 C96 147 71 208 71 280 C71 353 96 414 146 464 L146 464 Z M440 200 L429 188 C411 164 371 152 339 152 C303 152 272 164 246 188 C221 213 209 244 209 280 C209 317 221 348 246 373 C272 397 303 409 339 409 C373 409 404 399 432 371 C433 369 435 368 436 367 L459 385 L455 390 C431 422 380 439 339 439 C292 439 253 423 223 392 C192 362 177 324 177 279 C177 234 191 197 221 167 C251 137 289 122 337 122 C383 122 420 139 457 176 C459 178 460 181 461 182 L440 200 Z " />
<glyph glyph-name="ordfeminine" unicode="&#xaa;" horiz-adv-x="208" d="M29 380 C29 358 35 341 47 328 C60 315 76 308 95 308 C119 308 144 325 148 356 L148 313 L176 313 L176 500 C176 521 170 537 157 549 C144 561 128 568 108 568 C87 568 70 561 57 549 C44 536 38 520 38 499 L38 491 L68 491 L68 499 C68 511 71 521 78 528 C86 535 95 539 107 539 C118 539 128 535 135 528 C142 521 146 511 146 499 L146 445 C134 458 117 465 96 465 C77 465 61 458 48 444 C35 430 29 412 29 392 L29 380 Z M37 229 L176 229 L176 256 L37 256 L37 229 Z M60 391 C60 406 63 418 71 426 C79 435 89 440 103 440 C116 440 127 435 134 426 C142 418 146 406 146 391 L146 381 C146 367 142 355 134 347 C127 338 116 333 103 333 C89 333 79 338 71 347 C63 355 60 367 60 381 L60 391 Z " />
<glyph glyph-name="guillemotleft" unicode="&#xab;" horiz-adv-x="441" d="M224 439 L204 460 L40 308 L40 291 L204 140 L224 161 L81 300 L224 439 Z M424 439 L404 460 L240 308 L240 291 L404 140 L424 161 L281 300 L424 439 Z " />
<glyph glyph-name="logicalnot" unicode="&#xac;" horiz-adv-x="344" d="M304 140 L304 300 L40 300 L40 273 L276 273 L276 140 L304 140 L304 140 Z " />
<glyph glyph-name="registered" unicode="&#xae;" horiz-adv-x="318" d="M60 331 C87 305 120 292 159 292 C198 292 232 305 259 332 C285 359 299 392 299 431 C299 470 286 502 259 529 C232 555 199 568 161 568 C121 568 88 555 61 528 C34 501 20 468 20 429 C20 390 34 358 60 331 L60 331 Z M81 509 C101 530 128 541 160 541 C192 541 218 530 239 509 C260 488 270 462 270 430 C270 398 260 372 239 351 C218 330 192 320 160 320 C128 320 101 330 81 351 C60 372 49 398 49 430 C49 462 60 488 81 509 L81 509 Z M110 363 L136 363 L136 412 L156 412 L193 363 L222 363 L184 413 C206 420 216 433 216 454 C216 467 212 477 203 485 C194 493 183 497 168 497 L110 497 L110 363 Z M165 476 C183 476 192 469 192 454 C192 439 183 432 165 432 L136 432 L136 476 L165 476 Z " />
<glyph glyph-name="degree" unicode="&#xb0;" horiz-adv-x="288" d="M69 382 C89 362 115 351 146 351 C178 351 204 362 224 382 C244 402 254 428 254 459 C254 491 244 517 224 537 C204 557 178 568 146 568 C115 568 89 557 69 537 C48 517 38 491 38 459 C38 428 48 402 69 382 L69 382 Z M92 515 C106 530 124 538 146 538 C168 538 186 530 201 515 C215 501 222 482 222 459 C222 437 215 418 201 404 C186 389 168 381 146 381 C124 381 106 389 92 404 C78 418 70 437 70 459 C70 482 78 501 92 515 L92 515 Z " />
<glyph glyph-name="plusminus" unicode="&#xb1;" horiz-adv-x="345" d="M40 54 L305 54 L305 82 L40 82 L40 54 L40 54 Z M186 422 L159 422 L159 299 L40 299 L40 272 L159 272 L159 149 L186 149 L186 272 L305 272 L305 299 L186 299 L186 422 L186 422 Z " />
<glyph glyph-name="twosuperior" unicode="&#xb2;" horiz-adv-x="170" d="M150 228 L150 254 L50 254 L125 406 C141 439 150 468 150 493 C150 516 143 534 131 548 C118 562 102 568 82 568 C63 568 47 562 35 548 C22 535 16 517 16 495 L16 468 L44 468 L44 495 C44 526 57 541 82 541 C107 541 120 526 120 495 C120 469 114 444 101 418 L17 249 L17 228 L150 228 L150 228 Z " />
<glyph glyph-name="threesuperior" unicode="&#xb3;" horiz-adv-x="191" d="M79 416 L79 391 L96 391 C122 391 135 376 135 344 L135 297 C135 266 122 250 96 250 C70 250 57 266 57 297 L57 321 L29 321 L29 296 C29 274 35 256 47 243 C60 229 76 223 96 223 C116 223 132 229 145 243 C158 257 165 275 165 297 L165 342 C165 371 154 391 133 404 C152 418 161 437 161 463 L161 499 C161 520 155 536 143 549 C131 562 115 568 97 568 C78 568 62 562 50 549 C38 536 32 519 32 498 L32 477 L61 477 L61 498 C61 512 64 522 70 530 C77 537 85 541 96 541 C107 541 116 537 122 530 C129 522 132 512 132 498 L132 460 C132 446 129 435 122 428 C116 420 107 416 96 416 L79 416 L79 416 Z " />
<glyph glyph-name="acute" unicode="&#xb4;" horiz-adv-x="154" d="M47 440 L107 568 L80 568 L19 440 L47 440 L47 440 Z " />
<glyph glyph-name="mu" unicode="&#xb5;" horiz-adv-x="289" d="M217 102 C216 78 208 58 194 44 C180 29 162 22 141 22 C120 22 103 29 91 44 C79 59 73 79 73 106 L73 405 L40 405 L40 -128 L73 -128 L73 18 C88 1 109 -8 134 -8 C172 -8 200 8 219 38 L221 1 L249 1 L249 405 L217 405 L217 102 L217 102 Z " />
<glyph glyph-name="paragraph" unicode="&#xb6;" horiz-adv-x="342" d="M150 0 L182 0 L182 532 L270 532 L270 0 L302 0 L302 560 L143 560 C100 560 67 548 45 524 C22 499 10 468 10 430 C10 392 21 361 44 337 C66 313 99 301 141 301 L150 301 L150 0 L150 0 Z " />
<glyph glyph-name="cedilla" unicode="&#xb8;" horiz-adv-x="285" d="M127 0 L137 -6 C144 -10 151 -18 158 -30 C165 -42 168 -55 168 -69 C168 -87 163 -102 152 -112 C141 -122 127 -128 110 -128 C94 -128 83 -126 76 -122 L76 -150 L81 -151 C84 -153 88 -154 94 -154 C100 -155 106 -155 112 -155 C136 -155 156 -148 174 -134 C191 -120 200 -99 200 -71 C200 -60 198 -49 194 -39 C190 -29 186 -21 181 -15 C176 -10 170 -4 163 0 C157 5 153 8 150 10 C148 11 146 12 144 13 L127 0 L127 0 Z " />
<glyph glyph-name="onesuperior" unicode="&#xb9;" horiz-adv-x="126" d="M4 510 L23 491 L56 521 L56 225 L86 225 L86 560 L61 560 L4 510 L4 510 Z " />
<glyph glyph-name="ordmasculine" unicode="&#xba;" horiz-adv-x="200" d="M30 382 C30 360 37 342 50 329 C64 316 81 309 102 309 C122 309 140 316 153 330 C167 343 174 361 174 383 L174 495 C174 518 167 536 154 549 C140 562 123 568 103 568 C82 568 65 562 51 548 C37 534 30 516 30 494 L30 382 Z M38 228 L166 228 L166 255 L38 255 L38 228 Z M61 494 C61 508 65 519 72 527 C80 535 90 539 102 539 C115 539 125 535 132 527 C140 519 144 508 144 494 L144 383 C144 369 140 358 132 350 C125 343 115 339 102 339 C90 339 80 343 72 350 C65 358 61 369 61 383 L61 494 Z " />
<glyph glyph-name="guillemotright" unicode="&#xbb;" horiz-adv-x="441" d="M17 160 L37 141 L201 292 L201 309 L37 461 L17 439 L160 300 L17 160 Z M217 160 L237 141 L401 292 L401 309 L237 461 L217 439 L360 300 L217 160 Z " />
<glyph glyph-name="onequarter" unicode="&#xbc;" horiz-adv-x="443" d="M383 335 L354 335 L258 117 L258 91 L354 91 L354 0 L383 0 L383 91 L410 91 L410 117 L383 117 L383 335 L383 335 Z M354 117 L284 117 L354 276 L354 117 L354 117 Z M374 559 L47 0 L79 0 L406 559 L374 559 L374 559 Z M70 223 L99 223 L99 559 L75 559 L17 508 L35 489 L70 520 L70 223 L70 223 Z " />
<glyph glyph-name="onehalf" unicode="&#xbd;" horiz-adv-x="511" d="M79 223 L108 223 L108 559 L84 559 L30 511 L48 492 L79 520 L79 223 L79 223 Z M384 559 L56 0 L88 0 L416 559 L384 559 L384 559 Z M457 265 C457 288 450 306 438 320 C425 333 409 340 389 340 C370 340 354 334 342 320 C329 307 323 289 323 267 L323 239 L351 239 L351 267 C351 298 364 313 389 313 C414 313 427 298 427 267 C427 241 420 215 408 190 L324 21 L324 0 L457 0 L457 26 L356 26 L432 178 C448 211 457 240 457 265 L457 265 Z " />
<glyph glyph-name="threequarters" unicode="&#xbe;" horiz-adv-x="485" d="M425 335 L396 335 L300 117 L300 91 L396 91 L396 0 L425 0 L425 91 L452 91 L452 117 L425 117 L425 335 L425 335 Z M396 117 L326 117 L396 276 L396 117 L396 117 Z M416 559 L89 0 L121 0 L449 559 L416 559 L416 559 Z M157 239 C170 253 177 271 177 293 L177 338 C177 367 166 387 145 400 C164 414 173 433 173 460 L173 495 C173 516 167 532 155 545 C143 558 127 564 109 564 C90 564 74 558 62 545 C50 532 44 515 44 494 L44 473 L72 473 L72 494 C72 508 76 518 82 526 C89 533 97 537 108 537 C119 537 128 533 134 526 C141 518 144 508 144 494 L144 456 C144 442 141 431 134 423 C128 416 119 412 108 412 L108 387 C134 387 147 372 147 340 L147 293 C147 262 134 246 108 246 C82 246 68 262 68 293 L68 317 L40 317 L40 292 C40 270 47 252 59 239 C72 225 88 219 108 219 C127 219 144 226 157 239 L157 239 Z " />
<glyph glyph-name="questiondown" unicode="&#xbf;" horiz-adv-x="253" d="M112 377 C112 356 107 335 96 312 C86 289 76 268 67 249 C58 230 48 208 38 183 C27 159 21 135 21 112 C21 75 31 46 51 25 C70 3 96 -8 127 -8 C158 -8 183 3 202 24 C222 45 232 73 232 108 L232 152 L201 152 L201 108 C201 81 194 60 181 45 C167 30 149 22 127 22 C106 22 88 30 74 45 C60 60 53 81 53 108 C53 138 61 170 76 202 C92 235 107 267 122 299 C137 330 144 357 144 379 L144 401 L112 401 L112 377 Z M148 560 C142 566 136 569 128 569 C121 569 114 566 109 560 C103 555 100 548 100 541 C100 533 103 526 109 521 C114 515 121 512 128 512 C136 512 142 515 148 521 C154 526 156 533 156 541 C156 548 154 555 148 560 L148 560 Z " />
<glyph glyph-name="Agrave" unicode="&#xc0;" horiz-adv-x="300" d="M168 560 L133 560 L18 0 L50 0 L83 159 L220 159 L252 0 L281 0 L168 560 Z M152 496 L214 186 L88 186 L152 496 Z M194 631 L142 760 L106 760 L166 631 L194 631 Z " />
<glyph glyph-name="Aacute" unicode="&#xc1;" horiz-adv-x="300" d="M168 560 L133 560 L18 0 L50 0 L83 159 L220 159 L252 0 L281 0 L168 560 Z M152 496 L214 186 L88 186 L152 496 Z M121 640 L181 768 L154 768 L93 640 L121 640 Z " />
<glyph glyph-name="Acircumflex" unicode="&#xc2;" horiz-adv-x="300" d="M168 560 L133 560 L18 0 L50 0 L83 159 L220 159 L252 0 L281 0 L168 560 Z M152 496 L214 186 L88 186 L152 496 Z M92 632 L148 730 L207 632 L238 632 L166 760 L134 760 L62 632 L92 632 Z " />
<glyph glyph-name="Atilde" unicode="&#xc3;" horiz-adv-x="300" d="M168 560 L133 560 L18 0 L50 0 L83 159 L220 159 L252 0 L281 0 L168 560 Z M152 496 L214 186 L88 186 L152 496 Z M39 625 L40 639 C41 648 44 658 51 668 C58 677 67 682 79 682 C91 682 102 679 113 672 C124 665 134 657 141 649 C149 641 160 634 173 627 C186 620 199 616 214 616 C228 616 240 620 250 626 C260 632 267 640 272 647 C277 655 281 664 283 674 C286 684 288 691 288 695 C288 699 288 702 288 704 L258 704 L256 690 C256 681 252 671 245 661 C239 652 229 647 217 647 C205 647 194 650 183 657 C172 664 163 672 155 680 C147 688 137 695 124 702 C111 709 97 713 83 713 C69 713 57 709 47 703 C36 697 29 689 24 682 C19 674 16 665 13 655 C10 645 9 638 9 634 C8 630 8 627 8 625 L39 625 Z " />
<glyph glyph-name="Adieresis" unicode="&#xc4;" horiz-adv-x="300" d="M168 560 L133 560 L18 0 L50 0 L83 159 L220 159 L252 0 L281 0 L168 560 Z M152 496 L214 186 L88 186 L152 496 Z M63 731 C63 717 75 704 91 704 C105 704 119 716 119 731 C119 745 106 760 91 760 C76 760 64 747 63 731 L63 731 Z M174 731 C174 717 187 704 203 704 C217 704 231 716 231 731 C231 745 218 760 203 760 C189 760 174 747 174 731 L174 731 Z " />
<glyph glyph-name="Aring" unicode="&#xc5;" horiz-adv-x="300" d="M168 560 L133 560 L18 0 L50 0 L83 159 L220 159 L252 0 L281 0 L168 560 Z M152 496 L214 186 L88 186 L152 496 Z M98 625 C111 612 128 605 148 605 C169 605 186 612 199 625 C212 637 219 654 219 674 C219 693 212 710 199 722 C186 735 169 742 148 742 C128 742 111 735 98 722 C85 710 78 693 78 674 C78 654 85 637 98 625 L98 625 Z M119 703 C127 711 137 715 148 715 C160 715 170 711 178 703 C185 696 189 686 189 674 C189 661 185 651 178 644 C170 636 160 632 148 632 C137 632 127 636 119 644 C111 651 108 661 108 674 C108 686 111 696 119 703 L119 703 Z " />
<glyph glyph-name="AE" unicode="&#xc6;" horiz-adv-x="417" d="M401 533 L401 560 L197 560 L9 0 L42 0 L94 160 L217 160 L217 0 L405 0 L405 29 L249 29 L249 281 L377 281 L377 308 L249 308 L249 533 L401 533 Z M103 186 L217 535 L217 186 L103 186 Z " />
<glyph glyph-name="Ccedilla" unicode="&#xc7;" horiz-adv-x="302" d="M240 388 L272 388 L272 443 C272 481 261 511 239 534 C217 556 189 568 156 568 C123 568 95 556 73 534 C51 511 40 481 40 443 L40 117 C40 79 51 49 73 26 C95 4 123 -8 156 -8 C189 -8 217 4 239 26 C261 49 272 79 272 117 L272 172 L240 172 L240 118 C240 88 232 64 217 47 C199 27 179 22 156 22 C133 21 110 31 95 47 C79 64 72 88 72 118 L72 442 C72 472 80 496 95 513 C96 514 120 538 156 538 C195 538 216 514 217 513 C232 496 240 472 240 442 L240 388 Z M140 0 L150 -6 C157 -10 164 -18 171 -30 C178 -42 181 -55 181 -69 C181 -87 176 -102 165 -112 C154 -122 140 -128 123 -128 C107 -128 96 -126 89 -122 L89 -150 L94 -151 C97 -153 101 -154 107 -154 C113 -155 119 -155 125 -155 C149 -155 169 -148 187 -134 C204 -120 213 -99 213 -71 C213 -60 211 -49 207 -39 C203 -29 199 -21 194 -15 C189 -10 183 -4 176 0 C170 5 166 8 163 10 C161 11 159 12 157 13 L140 0 Z " />
<glyph glyph-name="Egrave" unicode="&#xc8;" horiz-adv-x="256" d="M229 0 L229 28 L72 28 L72 281 L201 281 L201 307 L72 307 L72 532 L225 532 L225 560 L40 560 L40 0 L229 0 Z M172 631 L120 760 L84 760 L144 631 L172 631 Z " />
<glyph glyph-name="Eacute" unicode="&#xc9;" horiz-adv-x="256" d="M229 0 L229 28 L72 28 L72 281 L201 281 L201 307 L72 307 L72 532 L225 532 L225 560 L40 560 L40 0 L229 0 Z M112 640 L172 768 L145 768 L84 640 L112 640 Z " />
<glyph glyph-name="Ecircumflex" unicode="&#xca;" horiz-adv-x="256" d="M229 0 L229 28 L72 28 L72 281 L201 281 L201 307 L72 307 L72 532 L225 532 L225 560 L40 560 L40 0 L229 0 Z M70 632 L126 730 L185 632 L216 632 L144 760 L112 760 L40 632 L70 632 Z " />
<glyph glyph-name="Edieresis" unicode="&#xcb;" horiz-adv-x="256" d="M229 0 L229 28 L72 28 L72 281 L201 281 L201 307 L72 307 L72 532 L225 532 L225 560 L40 560 L40 0 L229 0 Z M41 731 C41 717 53 704 69 704 C83 704 97 716 97 731 C97 745 84 760 69 760 C54 760 42 747 41 731 L41 731 Z M152 731 C152 717 165 704 181 704 C195 704 209 716 209 731 C209 745 196 760 181 760 C167 760 152 747 152 731 L152 731 Z " />
<glyph glyph-name="Igrave" unicode="&#xcc;" horiz-adv-x="114" d="M40 0 L74 0 L74 560 L40 560 L40 0 Z M101 631 L49 760 L13 760 L73 631 L101 631 Z " />
<glyph glyph-name="Iacute" unicode="&#xcd;" horiz-adv-x="114" d="M40 0 L74 0 L74 560 L40 560 L40 0 Z M41 640 L101 768 L74 768 L13 640 L41 640 Z " />
<glyph glyph-name="Icircumflex" unicode="&#xce;" horiz-adv-x="114" d="M40 0 L74 0 L74 560 L40 560 L40 0 Z M-1 632 L55 730 L114 632 L145 632 L73 760 L41 760 L-31 632 L-1 632 Z " />
<glyph glyph-name="Idieresis" unicode="&#xcf;" horiz-adv-x="114" d="M40 0 L74 0 L74 560 L40 560 L40 0 Z M-30 731 C-30 717 -18 704 -2 704 C12 704 26 716 26 731 C26 745 13 760 -2 760 C-17 760 -29 747 -30 731 L-30 731 Z M81 731 C81 717 94 704 110 704 C124 704 138 716 138 731 C138 745 125 760 110 760 C96 760 81 747 81 731 L81 731 Z " />
<glyph glyph-name="Eth" unicode="&#xd0;" horiz-adv-x="345" d="M77 0 L180 0 C217 0 248 12 270 36 C293 60 305 92 305 133 L305 428 C305 469 294 502 271 525 C249 548 219 560 182 560 L77 560 L77 299 L5 299 L5 273 L77 273 L77 0 Z M109 531 L181 531 C209 531 232 523 248 505 C265 487 273 461 273 428 L273 132 C273 99 265 73 248 55 C232 37 209 29 181 29 L109 29 L109 273 L209 273 L209 299 L109 299 L109 531 Z " />
<glyph glyph-name="Ntilde" unicode="&#xd1;" horiz-adv-x="316" d="M245 0 L276 0 L276 560 L245 560 L245 80 L72 560 L40 560 L40 0 L70 0 L70 485 L245 0 Z M47 629 L48 643 C49 652 52 662 59 672 C66 681 75 686 87 686 C99 686 110 683 121 676 C132 669 142 661 149 653 C157 645 168 638 181 631 C194 624 207 620 222 620 C236 620 248 624 258 630 C268 636 275 644 280 651 C285 659 289 668 291 678 C294 688 296 695 296 699 C296 703 296 706 296 708 L266 708 L264 694 C264 685 260 675 253 665 C247 656 237 651 225 651 C213 651 202 654 191 661 C180 668 171 676 163 684 C155 692 145 699 132 706 C119 713 105 717 91 717 C77 717 65 713 55 707 C44 701 37 693 32 686 C27 678 24 669 21 659 C18 649 17 642 17 638 C16 634 16 631 16 629 L47 629 Z " />
<glyph glyph-name="Ograve" unicode="&#xd2;" horiz-adv-x="312" d="M40 115 C40 78 51 48 72 26 C94 3 121 -8 155 -8 C189 -8 216 3 239 26 C261 49 272 79 272 117 L272 445 C272 482 261 512 239 534 C218 557 190 568 157 568 C123 568 95 557 73 534 C51 511 40 481 40 443 L40 115 Z M72 442 C72 472 80 496 95 513 C110 530 131 538 156 538 C181 538 201 530 217 513 C232 496 240 472 240 442 L240 118 C240 88 232 64 217 47 C201 30 181 22 156 22 C131 22 110 30 95 47 C80 64 72 88 72 118 L72 442 Z M200 631 L148 760 L112 760 L172 631 L200 631 Z " />
<glyph glyph-name="Oacute" unicode="&#xd3;" horiz-adv-x="312" d="M40 115 C40 78 51 48 72 26 C94 3 121 -8 155 -8 C189 -8 216 3 239 26 C261 49 272 79 272 117 L272 445 C272 482 261 512 239 534 C218 557 190 568 157 568 C123 568 95 557 73 534 C51 511 40 481 40 443 L40 115 Z M72 442 C72 472 80 496 95 513 C110 530 131 538 156 538 C181 538 201 530 217 513 C232 496 240 472 240 442 L240 118 C240 88 232 64 217 47 C201 30 181 22 156 22 C131 22 110 30 95 47 C80 64 72 88 72 118 L72 442 Z M140 640 L200 768 L173 768 L112 640 L140 640 Z " />
<glyph glyph-name="Ocircumflex" unicode="&#xd4;" horiz-adv-x="312" d="M40 115 C40 78 51 48 72 26 C94 3 121 -8 155 -8 C189 -8 216 3 239 26 C261 49 272 79 272 117 L272 445 C272 482 261 512 239 534 C218 557 190 568 157 568 C123 568 95 557 73 534 C51 511 40 481 40 443 L40 115 Z M72 442 C72 472 80 496 95 513 C110 530 131 538 156 538 C181 538 201 530 217 513 C232 496 240 472 240 442 L240 118 C240 88 232 64 217 47 C201 30 181 22 156 22 C131 22 110 30 95 47 C80 64 72 88 72 118 L72 442 Z M98 632 L154 730 L213 632 L244 632 L172 760 L140 760 L68 632 L98 632 Z " />
<glyph glyph-name="Otilde" unicode="&#xd5;" horiz-adv-x="312" d="M40 115 C40 78 51 48 72 26 C94 3 121 -8 155 -8 C189 -8 216 3 239 26 C261 49 272 79 272 117 L272 445 C272 482 261 512 239 534 C218 557 190 568 157 568 C123 568 95 557 73 534 C51 511 40 481 40 443 L40 115 Z M72 442 C72 472 80 496 95 513 C110 530 131 538 156 538 C181 538 201 530 217 513 C232 496 240 472 240 442 L240 118 C240 88 232 64 217 47 C201 30 181 22 156 22 C131 22 110 30 95 47 C80 64 72 88 72 118 L72 442 Z M45 633 L46 647 C47 656 50 666 57 676 C64 685 73 690 85 690 C97 690 108 687 119 680 C130 673 140 665 147 657 C155 649 166 642 179 635 C192 628 205 624 220 624 C234 624 246 628 256 634 C266 640 273 648 278 655 C283 663 287 672 289 682 C292 692 294 699 294 703 C294 707 294 710 294 712 L264 712 L262 698 C262 689 258 679 251 669 C245 660 235 655 223 655 C211 655 200 658 189 665 C178 672 169 680 161 688 C153 696 143 703 130 710 C117 717 103 721 89 721 C75 721 63 717 53 711 C42 705 35 697 30 690 C25 682 22 673 19 663 C16 653 15 646 15 642 C14 638 14 635 14 633 L45 633 Z " />
<glyph glyph-name="Odieresis" unicode="&#xd6;" horiz-adv-x="312" d="M40 115 C40 78 51 48 72 26 C94 3 121 -8 155 -8 C189 -8 216 3 239 26 C261 49 272 79 272 117 L272 445 C272 482 261 512 239 534 C218 557 190 568 157 568 C123 568 95 557 73 534 C51 511 40 481 40 443 L40 115 Z M72 442 C72 472 80 496 95 513 C110 530 131 538 156 538 C181 538 201 530 217 513 C232 496 240 472 240 442 L240 118 C240 88 232 64 217 47 C201 30 181 22 156 22 C131 22 110 30 95 47 C80 64 72 88 72 118 L72 442 Z M69 731 C69 717 81 704 97 704 C111 704 125 716 125 731 C125 745 112 760 97 760 C82 760 70 747 69 731 L69 731 Z M180 731 C180 717 193 704 209 704 C223 704 237 716 237 731 C237 745 224 760 209 760 C195 760 180 747 180 731 L180 731 Z " />
<glyph glyph-name="multiply" unicode="&#xd7;" horiz-adv-x="274" d="M239 405 L137 302 L34 405 L14 385 L117 282 L14 180 L34 160 L137 263 L239 160 L259 180 L157 282 L259 385 L239 405 L239 405 Z " />
<glyph glyph-name="Oslash" unicode="&#xd8;" horiz-adv-x="312" d="M280 584 L252 582 L235 537 C214 558 188 568 156 568 C123 568 95 557 73 534 C51 511 40 481 40 444 L40 116 C40 88 45 65 57 46 L32 -24 L60 -21 L76 24 C97 3 123 -8 155 -8 C188 -8 216 4 238 27 C260 50 272 80 272 117 L272 445 C272 471 266 494 254 515 L280 584 Z M72 443 C72 473 79 496 95 513 C110 530 130 539 155 539 C185 539 207 527 223 503 L74 93 C72 100 72 108 72 118 L72 443 Z M240 443 L240 118 C240 88 232 65 216 48 C201 31 181 22 156 22 C126 22 103 34 88 58 L237 468 C239 460 240 452 240 443 L240 443 Z " />
<glyph glyph-name="Ugrave" unicode="&#xd9;" horiz-adv-x="304" d="M233 560 L233 114 C233 85 226 62 211 46 C196 30 177 22 153 22 C129 22 110 30 95 46 C80 62 73 85 73 114 L73 560 L40 560 L40 111 C40 75 51 46 71 24 C92 3 119 -8 151 -8 C184 -8 211 3 232 25 C253 47 264 76 264 113 L264 560 L233 560 Z M196 631 L144 760 L108 760 L168 631 L196 631 Z " />
<glyph glyph-name="Uacute" unicode="&#xda;" horiz-adv-x="304" d="M233 560 L233 114 C233 85 226 62 211 46 C196 30 177 22 153 22 C129 22 110 30 95 46 C80 62 73 85 73 114 L73 560 L40 560 L40 111 C40 75 51 46 71 24 C92 3 119 -8 151 -8 C184 -8 211 3 232 25 C253 47 264 76 264 113 L264 560 L233 560 Z M136 640 L196 768 L169 768 L108 640 L136 640 Z " />
<glyph glyph-name="Ucircumflex" unicode="&#xdb;" horiz-adv-x="304" d="M233 560 L233 114 C233 85 226 62 211 46 C196 30 177 22 153 22 C129 22 110 30 95 46 C80 62 73 85 73 114 L73 560 L40 560 L40 111 C40 75 51 46 71 24 C92 3 119 -8 151 -8 C184 -8 211 3 232 25 C253 47 264 76 264 113 L264 560 L233 560 Z M94 632 L150 730 L209 632 L240 632 L168 760 L136 760 L64 632 L94 632 Z " />
<glyph glyph-name="Udieresis" unicode="&#xdc;" horiz-adv-x="304" d="M233 560 L233 114 C233 85 226 62 211 46 C196 30 177 22 153 22 C129 22 110 30 95 46 C80 62 73 85 73 114 L73 560 L40 560 L40 111 C40 75 51 46 71 24 C92 3 119 -8 151 -8 C184 -8 211 3 232 25 C253 47 264 76 264 113 L264 560 L233 560 Z M65 731 C65 717 77 704 93 704 C107 704 121 716 121 731 C121 745 108 760 93 760 C78 760 66 747 65 731 L65 731 Z M176 731 C176 717 189 704 205 704 C219 704 233 716 233 731 C233 745 220 760 205 760 C191 760 176 747 176 731 L176 731 Z " />
<glyph glyph-name="Yacute" unicode="&#xdd;" horiz-adv-x="267" d="M117 0 L149 0 L149 232 L259 560 L226 560 L133 269 L41 560 L7 560 L117 234 L117 0 Z M117 640 L177 768 L150 768 L89 640 L117 640 Z " />
<glyph glyph-name="Thorn" unicode="&#xde;" horiz-adv-x="308" d="M145 451 L72 451 L72 559 L40 559 L40 0 L72 0 L72 135 L143 135 C180 135 210 147 233 171 C256 195 268 227 268 268 L268 320 C268 361 257 393 234 417 C212 440 182 451 145 451 L145 451 Z M236 267 C236 234 227 208 211 190 C194 172 172 163 144 163 L72 163 L72 423 L144 423 C172 423 194 415 211 397 C227 379 236 353 236 320 L236 267 L236 267 Z " />
<glyph glyph-name="germandbls" unicode="&#xdf;" horiz-adv-x="303" d="M144 -8 L171 -8 C201 -8 227 4 248 27 C269 50 280 80 280 118 L280 230 C280 263 271 291 254 313 C236 334 213 347 184 352 L263 485 L261 494 C258 500 255 507 249 515 C244 523 238 531 230 539 C222 547 212 554 198 560 C184 566 169 569 153 569 C120 569 93 557 72 535 C51 513 40 484 40 448 L40 0 L72 0 L72 447 C72 476 79 498 94 515 C108 531 128 539 152 539 C191 539 217 521 231 485 L148 345 L148 323 L164 323 C189 323 209 314 225 297 C240 280 248 257 248 227 L248 118 C248 88 240 65 225 48 C209 31 189 22 164 22 C156 22 144 22 144 22 L144 -8 L144 -8 Z " />
<glyph glyph-name="agrave" unicode="&#xe0;" horiz-adv-x="282" d="M26 107 C26 73 36 46 55 24 C74 3 98 -8 128 -8 C165 -8 201 12 213 73 L213 0 L242 0 L242 304 C242 337 232 363 213 383 C194 403 170 413 141 413 C112 413 88 403 69 382 C50 362 40 335 40 303 L71 302 C71 327 77 347 90 361 C104 376 120 383 140 383 C161 383 177 376 190 361 C203 347 210 327 210 302 L210 201 C190 230 163 244 129 244 C100 244 75 233 56 211 C36 189 26 161 26 127 L26 107 Z M58 126 C58 152 65 174 79 190 C93 206 112 214 134 214 C156 214 175 206 189 190 C203 174 210 152 210 126 L210 110 C210 83 203 62 189 46 C175 30 156 22 134 22 C112 22 93 30 79 46 C65 62 58 83 58 110 L58 126 Z M185 431 L133 560 L97 560 L157 431 L185 431 Z " />
<glyph glyph-name="aacute" unicode="&#xe1;" horiz-adv-x="282" d="M26 107 C26 73 36 46 55 24 C74 3 98 -8 128 -8 C165 -8 201 12 213 73 L213 0 L242 0 L242 304 C242 337 232 363 213 383 C194 403 170 413 141 413 C112 413 88 403 69 382 C50 362 40 335 40 303 L71 302 C71 327 77 347 90 361 C104 376 120 383 140 383 C161 383 177 376 190 361 C203 347 210 327 210 302 L210 201 C190 230 163 244 129 244 C100 244 75 233 56 211 C36 189 26 161 26 127 L26 107 Z M58 126 C58 152 65 174 79 190 C93 206 112 214 134 214 C156 214 175 206 189 190 C203 174 210 152 210 126 L210 110 C210 83 203 62 189 46 C175 30 156 22 134 22 C112 22 93 30 79 46 C65 62 58 83 58 110 L58 126 Z M125 440 L185 568 L158 568 L97 440 L125 440 Z " />
<glyph glyph-name="acircumflex" unicode="&#xe2;" horiz-adv-x="282" d="M26 107 C26 73 36 46 55 24 C74 3 98 -8 128 -8 C165 -8 201 12 213 73 L213 0 L242 0 L242 304 C242 337 232 363 213 383 C194 403 170 413 141 413 C112 413 88 403 69 382 C50 362 40 335 40 303 L71 302 C71 327 77 347 90 361 C104 376 120 383 140 383 C161 383 177 376 190 361 C203 347 210 327 210 302 L210 201 C190 230 163 244 129 244 C100 244 75 233 56 211 C36 189 26 161 26 127 L26 107 Z M58 126 C58 152 65 174 79 190 C93 206 112 214 134 214 C156 214 175 206 189 190 C203 174 210 152 210 126 L210 110 C210 83 203 62 189 46 C175 30 156 22 134 22 C112 22 93 30 79 46 C65 62 58 83 58 110 L58 126 Z M83 432 L139 530 L198 432 L229 432 L157 560 L125 560 L53 432 L83 432 Z " />
<glyph glyph-name="atilde" unicode="&#xe3;" horiz-adv-x="282" d="M26 107 C26 73 36 46 55 24 C74 3 98 -8 128 -8 C165 -8 201 12 213 73 L213 0 L242 0 L242 304 C242 337 232 363 213 383 C194 403 170 413 141 413 C112 413 88 403 69 382 C50 362 40 335 40 303 L71 302 C71 327 77 347 90 361 C104 376 120 383 140 383 C161 383 177 376 190 361 C203 347 210 327 210 302 L210 201 C190 230 163 244 129 244 C100 244 75 233 56 211 C36 189 26 161 26 127 L26 107 Z M58 126 C58 152 65 174 79 190 C93 206 112 214 134 214 C156 214 175 206 189 190 C203 174 210 152 210 126 L210 110 C210 83 203 62 189 46 C175 30 156 22 134 22 C112 22 93 30 79 46 C65 62 58 83 58 110 L58 126 Z M32 480 L33 494 C34 503 37 513 44 523 C51 532 60 537 72 537 C84 537 95 534 106 527 C117 520 127 512 134 504 C142 496 153 489 166 482 C179 475 192 471 207 471 C221 471 233 475 243 481 C253 487 260 495 265 502 C270 510 274 519 276 529 C279 539 281 546 281 550 C281 554 281 557 281 559 L251 559 L249 545 C249 536 245 526 238 516 C232 507 222 502 210 502 C198 502 187 505 176 512 C165 519 156 527 148 535 C140 543 130 550 117 557 C104 564 90 568 76 568 C62 568 50 564 40 558 C29 552 22 544 17 537 C12 529 9 520 6 510 C3 500 2 493 2 489 C1 485 1 482 1 480 L32 480 Z " />
<glyph glyph-name="adieresis" unicode="&#xe4;" horiz-adv-x="282" d="M26 107 C26 73 36 46 55 24 C74 3 98 -8 128 -8 C165 -8 201 12 213 73 L213 0 L242 0 L242 304 C242 337 232 363 213 383 C194 403 170 413 141 413 C112 413 88 403 69 382 C50 362 40 335 40 303 L71 302 C71 327 77 347 90 361 C104 376 120 383 140 383 C161 383 177 376 190 361 C203 347 210 327 210 302 L210 201 C190 230 163 244 129 244 C100 244 75 233 56 211 C36 189 26 161 26 127 L26 107 Z M58 126 C58 152 65 174 79 190 C93 206 112 214 134 214 C156 214 175 206 189 190 C203 174 210 152 210 126 L210 110 C210 83 203 62 189 46 C175 30 156 22 134 22 C112 22 93 30 79 46 C65 62 58 83 58 110 L58 126 Z M54 531 C54 517 66 504 82 504 C96 504 110 516 110 531 C110 545 97 560 82 560 C67 560 55 547 54 531 L54 531 Z M165 531 C165 517 178 504 194 504 C208 504 222 516 222 531 C222 545 209 560 194 560 C180 560 165 547 165 531 L165 531 Z " />
<glyph glyph-name="aring" unicode="&#xe5;" horiz-adv-x="282" d="M26 107 C26 73 36 46 55 24 C74 3 98 -8 128 -8 C165 -8 201 12 213 73 L213 0 L242 0 L242 304 C242 337 232 363 213 383 C194 403 170 413 141 413 C112 413 88 403 69 382 C50 362 40 335 40 303 L71 302 C71 327 77 347 90 361 C104 376 120 383 140 383 C161 383 177 376 190 361 C203 347 210 327 210 302 L210 201 C190 230 163 244 129 244 C100 244 75 233 56 211 C36 189 26 161 26 127 L26 107 Z M58 126 C58 152 65 174 79 190 C93 206 112 214 134 214 C156 214 175 206 189 190 C203 174 210 152 210 126 L210 110 C210 83 203 62 189 46 C175 30 156 22 134 22 C112 22 93 30 79 46 C65 62 58 83 58 110 L58 126 Z M89 425 C102 412 119 405 139 405 C160 405 177 412 190 425 C203 437 210 454 210 474 C210 493 203 510 190 522 C177 535 160 542 139 542 C119 542 102 535 89 522 C76 510 69 493 69 474 C69 454 76 437 89 425 L89 425 Z M110 503 C118 511 128 515 139 515 C151 515 161 511 169 503 C176 496 180 486 180 474 C180 461 176 451 169 444 C161 436 151 432 139 432 C128 432 118 436 110 444 C102 451 99 461 99 474 C99 486 102 496 110 503 L110 503 Z " />
<glyph glyph-name="ae" unicode="&#xe6;" horiz-adv-x="459" d="M25 108 C25 74 35 46 54 24 C73 3 98 -8 127 -8 C148 -8 167 -2 183 10 C200 22 213 38 221 58 C228 38 240 22 256 10 C272 -2 292 -8 314 -8 C344 -8 369 3 389 24 C409 45 419 73 419 107 L419 124 L389 124 L389 108 C389 82 382 61 368 45 C354 30 336 22 315 22 C294 22 276 30 262 45 C248 61 241 82 241 108 L241 213 L419 213 L419 301 C419 335 409 362 390 382 C370 403 346 413 316 413 C275 413 245 395 226 359 C210 395 182 413 141 413 C112 413 88 403 68 382 C49 362 40 335 40 303 L40 289 L70 289 L70 302 C70 327 77 347 90 362 C103 376 119 384 140 384 C160 384 177 376 190 362 C203 347 209 327 209 302 L209 201 C190 230 163 244 129 244 C99 244 75 233 55 211 C35 189 25 161 25 127 L25 108 Z M57 126 C57 153 64 174 79 190 C93 206 111 214 133 214 C156 214 174 206 188 190 C202 174 209 153 209 126 L209 110 C209 83 202 62 188 46 C174 30 156 22 133 22 C111 22 93 30 79 46 C64 62 57 83 57 110 L57 126 Z M241 298 C241 324 248 345 262 360 C276 376 294 384 315 384 C336 384 354 376 368 360 C382 345 389 324 389 298 L389 240 L241 240 L241 298 Z " />
<glyph glyph-name="ccedilla" unicode="&#xe7;" horiz-adv-x="283" d="M213 104 C213 79 206 59 193 44 C180 29 163 22 143 22 C122 22 106 29 92 44 C79 59 72 79 72 104 L72 301 C72 326 79 346 92 361 C106 376 122 383 143 383 C163 383 180 376 193 361 C206 346 213 326 213 301 L213 261 L243 261 L243 303 C243 336 234 362 215 383 C196 403 172 413 143 413 C115 413 90 403 70 382 C50 361 40 334 40 302 L40 102 C40 69 50 43 69 23 C89 2 113 -8 142 -8 C171 -8 195 3 214 23 C234 44 243 71 243 103 L243 148 L213 148 L213 104 Z M130 0 L140 -6 C147 -10 154 -18 161 -30 C168 -42 171 -55 171 -69 C171 -87 166 -102 155 -112 C144 -122 130 -128 113 -128 C97 -128 86 -126 79 -122 L79 -150 L84 -151 C87 -153 91 -154 97 -154 C103 -155 109 -155 115 -155 C139 -155 159 -148 177 -134 C194 -120 203 -99 203 -71 C203 -60 201 -49 197 -39 C193 -29 189 -21 184 -15 C179 -10 173 -4 166 0 C160 5 156 8 153 10 C151 11 149 12 147 13 L130 0 Z " />
<glyph glyph-name="egrave" unicode="&#xe8;" horiz-adv-x="289" d="M249 213 L249 300 C249 334 239 362 220 382 C201 403 176 413 146 413 C116 413 90 402 70 381 C50 360 40 332 40 299 L40 105 C40 71 49 44 69 23 C89 3 114 -8 144 -8 C174 -8 199 3 219 24 C239 45 249 72 249 107 L249 124 L219 124 L219 107 C219 81 212 60 198 45 C184 29 167 22 145 22 C124 22 106 29 92 45 C78 60 72 81 72 107 L72 213 L249 213 Z M72 298 C72 324 78 345 92 360 C106 376 124 383 145 383 C167 383 184 376 198 360 C212 345 219 324 219 298 L219 239 L72 239 L72 298 Z M188 431 L136 560 L100 560 L160 431 L188 431 Z " />
<glyph glyph-name="eacute" unicode="&#xe9;" horiz-adv-x="289" d="M249 213 L249 300 C249 334 239 362 220 382 C201 403 176 413 146 413 C116 413 90 402 70 381 C50 360 40 332 40 299 L40 105 C40 71 49 44 69 23 C89 3 114 -8 144 -8 C174 -8 199 3 219 24 C239 45 249 72 249 107 L249 124 L219 124 L219 107 C219 81 212 60 198 45 C184 29 167 22 145 22 C124 22 106 29 92 45 C78 60 72 81 72 107 L72 213 L249 213 Z M72 298 C72 324 78 345 92 360 C106 376 124 383 145 383 C167 383 184 376 198 360 C212 345 219 324 219 298 L219 239 L72 239 L72 298 Z M128 440 L188 568 L161 568 L100 440 L128 440 Z " />
<glyph glyph-name="ecircumflex" unicode="&#xea;" horiz-adv-x="289" d="M249 213 L249 300 C249 334 239 362 220 382 C201 403 176 413 146 413 C116 413 90 402 70 381 C50 360 40 332 40 299 L40 105 C40 71 49 44 69 23 C89 3 114 -8 144 -8 C174 -8 199 3 219 24 C239 45 249 72 249 107 L249 124 L219 124 L219 107 C219 81 212 60 198 45 C184 29 167 22 145 22 C124 22 106 29 92 45 C78 60 72 81 72 107 L72 213 L249 213 Z M72 298 C72 324 78 345 92 360 C106 376 124 383 145 383 C167 383 184 376 198 360 C212 345 219 324 219 298 L219 239 L72 239 L72 298 Z M86 432 L142 530 L201 432 L232 432 L160 560 L128 560 L56 432 L86 432 Z " />
<glyph glyph-name="edieresis" unicode="&#xeb;" horiz-adv-x="289" d="M249 213 L249 300 C249 334 239 362 220 382 C201 403 176 413 146 413 C116 413 90 402 70 381 C50 360 40 332 40 299 L40 105 C40 71 49 44 69 23 C89 3 114 -8 144 -8 C174 -8 199 3 219 24 C239 45 249 72 249 107 L249 124 L219 124 L219 107 C219 81 212 60 198 45 C184 29 167 22 145 22 C124 22 106 29 92 45 C78 60 72 81 72 107 L72 213 L249 213 Z M72 298 C72 324 78 345 92 360 C106 376 124 383 145 383 C167 383 184 376 198 360 C212 345 219 324 219 298 L219 239 L72 239 L72 298 Z M60 531 C60 517 72 504 88 504 C102 504 116 516 116 531 C116 545 103 560 88 560 C73 560 61 547 60 531 L60 531 Z M171 531 C171 517 184 504 200 504 C214 504 228 516 228 531 C228 545 215 560 200 560 C186 560 171 547 171 531 L171 531 Z " />
<glyph glyph-name="igrave" unicode="&#xec;" horiz-adv-x="114" d="M74 0 L74 405 L40 405 L40 0 L74 0 Z M100 439 L48 568 L12 568 L72 439 L100 439 Z " />
<glyph glyph-name="iacute" unicode="&#xed;" horiz-adv-x="114" d="M74 0 L74 405 L40 405 L40 0 L74 0 Z M41 440 L101 568 L74 568 L13 440 L41 440 Z " />
<glyph glyph-name="icircumflex" unicode="&#xee;" horiz-adv-x="114" d="M74 0 L74 405 L40 405 L40 0 L74 0 Z M-1 432 L55 530 L114 432 L145 432 L73 560 L41 560 L-31 432 L-1 432 Z " />
<glyph glyph-name="idieresis" unicode="&#xef;" horiz-adv-x="114" d="M74 0 L74 405 L40 405 L40 0 L74 0 Z M-27 496 C-27 482 -15 469 1 469 C15 469 29 481 29 496 C29 510 16 525 1 525 C-14 525 -26 512 -27 496 L-27 496 Z M84 496 C84 482 97 469 113 469 C127 469 141 481 141 496 C141 510 128 525 113 525 C99 525 84 512 84 496 L84 496 Z " />
<glyph glyph-name="eth" unicode="&#xf0;" horiz-adv-x="274" d="M228 316 L170 447 L236 496 L219 518 L159 473 L120 560 L87 560 L134 455 L65 403 L82 381 L146 428 L200 307 C183 338 154 352 131 352 C100 352 74 342 55 321 C36 300 26 271 26 235 L26 111 C26 75 36 46 57 25 C78 3 105 -8 137 -8 C170 -8 196 3 216 24 C237 45 247 74 247 110 L247 225 C247 257 240 287 228 316 L228 316 Z M215 112 C215 84 207 61 193 46 C179 30 160 22 136 22 C113 22 94 30 80 46 C65 61 58 84 58 112 L58 232 C58 261 65 283 80 299 C94 315 113 323 136 323 C160 323 179 315 193 299 C207 283 215 261 215 232 L215 112 L215 112 Z " />
<glyph glyph-name="ntilde" unicode="&#xf1;" horiz-adv-x="288" d="M248 0 L248 307 C248 339 239 364 221 384 C204 403 181 413 154 413 C116 413 78 380 69 336 L69 405 L40 405 L40 0 L72 0 L72 299 C72 325 79 346 93 361 C108 376 126 383 147 383 C168 383 185 376 197 361 C210 347 216 326 216 299 L216 0 L248 0 Z M35 480 L36 494 C37 503 40 513 47 523 C54 532 63 537 75 537 C87 537 98 534 109 527 C120 520 130 512 137 504 C145 496 156 489 169 482 C182 475 195 471 210 471 C224 471 236 475 246 481 C256 487 263 495 268 502 C273 510 277 519 279 529 C282 539 284 546 284 550 C284 554 284 557 284 559 L254 559 L252 545 C252 536 248 526 241 516 C235 507 225 502 213 502 C201 502 190 505 179 512 C168 519 159 527 151 535 C143 543 133 550 120 557 C107 564 93 568 79 568 C65 568 53 564 43 558 C32 552 25 544 20 537 C15 529 12 520 9 510 C6 500 5 493 5 489 C4 485 4 482 4 480 L35 480 Z " />
<glyph glyph-name="ograve" unicode="&#xf2;" horiz-adv-x="291" d="M40 105 C40 71 49 44 69 23 C89 3 114 -8 144 -8 C175 -8 200 3 220 24 C241 46 251 73 251 107 L251 300 C251 334 241 361 221 382 C201 403 176 413 146 413 C116 413 90 402 70 381 C50 360 40 332 40 299 L40 105 Z M72 298 C72 324 78 345 92 360 C106 376 124 383 145 383 C167 383 184 376 198 360 C212 345 219 324 219 298 L219 107 C219 81 212 60 198 45 C184 29 167 22 145 22 C124 22 106 29 92 45 C78 60 72 81 72 107 L72 298 Z M189 431 L137 560 L101 560 L161 431 L189 431 Z " />
<glyph glyph-name="oacute" unicode="&#xf3;" horiz-adv-x="291" d="M40 105 C40 71 49 44 69 23 C89 3 114 -8 144 -8 C175 -8 200 3 220 24 C241 46 251 73 251 107 L251 300 C251 334 241 361 221 382 C201 403 176 413 146 413 C116 413 90 402 70 381 C50 360 40 332 40 299 L40 105 Z M72 298 C72 324 78 345 92 360 C106 376 124 383 145 383 C167 383 184 376 198 360 C212 345 219 324 219 298 L219 107 C219 81 212 60 198 45 C184 29 167 22 145 22 C124 22 106 29 92 45 C78 60 72 81 72 107 L72 298 Z M129 440 L189 568 L162 568 L101 440 L129 440 Z " />
<glyph glyph-name="ocircumflex" unicode="&#xf4;" horiz-adv-x="291" d="M40 105 C40 71 49 44 69 23 C89 3 114 -8 144 -8 C175 -8 200 3 220 24 C241 46 251 73 251 107 L251 300 C251 334 241 361 221 382 C201 403 176 413 146 413 C116 413 90 402 70 381 C50 360 40 332 40 299 L40 105 Z M72 298 C72 324 78 345 92 360 C106 376 124 383 145 383 C167 383 184 376 198 360 C212 345 219 324 219 298 L219 107 C219 81 212 60 198 45 C184 29 167 22 145 22 C124 22 106 29 92 45 C78 60 72 81 72 107 L72 298 Z M87 432 L143 530 L202 432 L233 432 L161 560 L129 560 L57 432 L87 432 Z " />
<glyph glyph-name="otilde" unicode="&#xf5;" horiz-adv-x="291" d="M40 105 C40 71 49 44 69 23 C89 3 114 -8 144 -8 C175 -8 200 3 220 24 C241 46 251 73 251 107 L251 300 C251 334 241 361 221 382 C201 403 176 413 146 413 C116 413 90 402 70 381 C50 360 40 332 40 299 L40 105 Z M72 298 C72 324 78 345 92 360 C106 376 124 383 145 383 C167 383 184 376 198 360 C212 345 219 324 219 298 L219 107 C219 81 212 60 198 45 C184 29 167 22 145 22 C124 22 106 29 92 45 C78 60 72 81 72 107 L72 298 Z M37 480 L38 494 C39 503 42 513 49 523 C56 532 65 537 77 537 C89 537 100 534 111 527 C122 520 132 512 139 504 C147 496 158 489 171 482 C184 475 197 471 212 471 C226 471 238 475 248 481 C258 487 265 495 270 502 C275 510 279 519 281 529 C284 539 286 546 286 550 C286 554 286 557 286 559 L256 559 L254 545 C254 536 250 526 243 516 C237 507 227 502 215 502 C203 502 192 505 181 512 C170 519 161 527 153 535 C145 543 135 550 122 557 C109 564 95 568 81 568 C67 568 55 564 45 558 C34 552 27 544 22 537 C17 529 14 520 11 510 C8 500 7 493 7 489 C6 485 6 482 6 480 L37 480 Z " />
<glyph glyph-name="odieresis" unicode="&#xf6;" horiz-adv-x="291" d="M40 105 C40 71 49 44 69 23 C89 3 114 -8 144 -8 C175 -8 200 3 220 24 C241 46 251 73 251 107 L251 300 C251 334 241 361 221 382 C201 403 176 413 146 413 C116 413 90 402 70 381 C50 360 40 332 40 299 L40 105 Z M72 298 C72 324 78 345 92 360 C106 376 124 383 145 383 C167 383 184 376 198 360 C212 345 219 324 219 298 L219 107 C219 81 212 60 198 45 C184 29 167 22 145 22 C124 22 106 29 92 45 C78 60 72 81 72 107 L72 298 Z M61 531 C61 517 73 504 89 504 C103 504 117 516 117 531 C117 545 104 560 89 560 C74 560 62 547 61 531 L61 531 Z M172 531 C172 517 185 504 201 504 C215 504 229 516 229 531 C229 545 216 560 201 560 C187 560 172 547 172 531 L172 531 Z " />
<glyph glyph-name="divide" unicode="&#xf7;" horiz-adv-x="344" d="M304 272 L304 300 L40 300 L40 272 L304 272 Z M152 413 C158 407 164 405 172 405 C179 405 186 407 191 413 C197 418 200 425 200 432 C200 440 197 446 191 452 C186 458 179 460 172 460 C164 460 158 458 152 452 C146 446 144 440 144 432 C144 425 146 418 152 413 L152 413 Z M152 121 C158 115 164 113 172 113 C179 113 186 115 191 121 C197 126 200 133 200 141 C200 148 197 154 191 160 C186 166 179 169 172 169 C164 169 158 166 152 160 C146 154 144 148 144 141 C144 133 146 126 152 121 L152 121 Z " />
<glyph glyph-name="oslash" unicode="&#xf8;" horiz-adv-x="292" d="M272 429 L242 431 L220 385 C200 404 176 413 147 413 C116 413 91 403 71 381 C50 360 40 332 40 299 L40 105 C40 82 45 62 54 45 L20 -24 L50 -25 L72 20 C92 2 116 -8 145 -8 C176 -8 201 3 221 24 C241 46 252 73 252 107 L252 300 C252 321 247 341 237 359 L272 429 Z M72 298 C72 324 79 345 93 360 C107 376 125 384 146 384 C171 384 191 374 204 353 L74 86 C73 90 72 97 72 108 L72 298 Z M220 298 L220 108 C220 82 213 61 199 45 C185 30 167 22 146 22 C121 22 101 32 87 51 L218 320 C219 310 220 303 220 298 L220 298 Z " />
<glyph glyph-name="ugrave" unicode="&#xf9;" horiz-adv-x="288" d="M40 405 L40 99 C40 67 49 41 67 21 C84 2 107 -8 134 -8 C172 -8 210 25 219 69 L219 0 L248 0 L248 405 L216 405 L216 106 C216 80 209 59 195 44 C180 29 162 22 141 22 C120 22 103 29 91 44 C78 58 72 79 72 106 L72 405 L40 405 Z M188 431 L136 560 L100 560 L160 431 L188 431 Z " />
<glyph glyph-name="uacute" unicode="&#xfa;" horiz-adv-x="288" d="M40 405 L40 99 C40 67 49 41 67 21 C84 2 107 -8 134 -8 C172 -8 210 25 219 69 L219 0 L248 0 L248 405 L216 405 L216 106 C216 80 209 59 195 44 C180 29 162 22 141 22 C120 22 103 29 91 44 C78 58 72 79 72 106 L72 405 L40 405 Z M128 440 L188 568 L161 568 L100 440 L128 440 Z " />
<glyph glyph-name="ucircumflex" unicode="&#xfb;" horiz-adv-x="288" d="M40 405 L40 99 C40 67 49 41 67 21 C84 2 107 -8 134 -8 C172 -8 210 25 219 69 L219 0 L248 0 L248 405 L216 405 L216 106 C216 80 209 59 195 44 C180 29 162 22 141 22 C120 22 103 29 91 44 C78 58 72 79 72 106 L72 405 L40 405 Z M86 432 L142 530 L201 432 L232 432 L160 560 L128 560 L56 432 L86 432 Z " />
<glyph glyph-name="udieresis" unicode="&#xfc;" horiz-adv-x="288" d="M40 405 L40 99 C40 67 49 41 67 21 C84 2 107 -8 134 -8 C172 -8 210 25 219 69 L219 0 L248 0 L248 405 L216 405 L216 106 C216 80 209 59 195 44 C180 29 162 22 141 22 C120 22 103 29 91 44 C78 58 72 79 72 106 L72 405 L40 405 Z M60 531 C60 517 72 504 88 504 C102 504 116 516 116 531 C116 545 103 560 88 560 C73 560 61 547 60 531 L60 531 Z M171 531 C171 517 184 504 200 504 C214 504 228 516 228 531 C228 545 215 560 200 560 C186 560 171 547 171 531 L171 531 Z " />
<glyph glyph-name="yacute" unicode="&#xfd;" horiz-adv-x="254" d="M116 -12 C106 -49 96 -75 85 -87 C75 -100 61 -106 44 -106 C38 -106 31 -106 31 -106 L31 -136 L47 -136 C68 -136 85 -127 100 -108 C114 -90 127 -58 139 -13 L239 405 L211 405 L129 44 L49 405 L15 405 L116 -12 Z M111 440 L171 568 L144 568 L83 440 L111 440 Z " />
<glyph glyph-name="thorn" unicode="&#xfe;" horiz-adv-x="291" d="M152 473 C117 473 86 448 72 405 L72 620 L40 620 L40 -68 L72 -68 L72 119 C85 71 116 52 151 52 C180 52 204 63 222 83 C241 103 251 129 251 160 L251 367 C251 398 242 424 223 444 C205 463 181 473 152 473 L152 473 Z M219 168 C219 142 212 121 198 105 C184 90 167 82 145 82 C124 82 106 90 93 105 C79 121 72 142 72 168 L72 358 C72 384 79 405 93 420 C106 436 124 444 145 444 C167 444 184 436 198 420 C212 405 219 384 219 358 L219 168 L219 168 Z " />
<glyph glyph-name="ydieresis" unicode="&#xff;" horiz-adv-x="254" d="M116 -12 C106 -49 96 -75 85 -87 C75 -100 61 -106 44 -106 C38 -106 31 -106 31 -106 L31 -136 L47 -136 C68 -136 85 -127 100 -108 C114 -90 127 -58 139 -13 L239 405 L211 405 L129 44 L49 405 L15 405 L116 -12 Z M43 531 C43 517 55 504 71 504 C85 504 99 516 99 531 C99 545 86 560 71 560 C56 560 44 547 43 531 L43 531 Z M154 531 C154 517 167 504 183 504 C197 504 211 516 211 531 C211 545 198 560 183 560 C169 560 154 547 154 531 L154 531 Z " />
<glyph glyph-name="Abreve" unicode="&#x102;" horiz-adv-x="300" d="M168 560 L133 560 L18 0 L50 0 L83 159 L220 159 L252 0 L281 0 L168 560 Z M152 496 L214 186 L88 186 L152 496 Z M68 731 L68 690 C68 663 75 642 91 626 C106 610 127 603 152 603 C177 603 198 611 214 627 C229 643 237 665 237 691 L237 731 L207 731 L207 691 C207 672 202 658 193 647 C184 636 170 630 152 630 C135 630 121 636 112 647 C103 658 98 672 98 691 L98 731 L68 731 Z " />
<glyph glyph-name="abreve" unicode="&#x103;" horiz-adv-x="282" d="M26 107 C26 73 36 46 55 24 C74 3 98 -8 128 -8 C165 -8 201 12 213 73 L213 0 L242 0 L242 304 C242 337 232 363 213 383 C194 403 170 413 141 413 C112 413 88 403 69 382 C50 362 40 335 40 303 L71 302 C71 327 77 347 90 361 C104 376 120 383 140 383 C161 383 177 376 190 361 C203 347 210 327 210 302 L210 201 C190 230 163 244 129 244 C100 244 75 233 56 211 C36 189 26 161 26 127 L26 107 Z M58 126 C58 152 65 174 79 190 C93 206 112 214 134 214 C156 214 175 206 189 190 C203 174 210 152 210 126 L210 110 C210 83 203 62 189 46 C175 30 156 22 134 22 C112 22 93 30 79 46 C65 62 58 83 58 110 L58 126 Z M56 568 L56 527 C56 500 63 479 79 463 C94 447 115 440 140 440 C165 440 186 448 202 464 C217 480 225 502 225 528 L225 568 L195 568 L195 528 C195 509 190 495 181 484 C172 473 158 467 140 467 C123 467 109 473 100 484 C91 495 86 509 86 528 L86 568 L56 568 Z " />
<glyph glyph-name="Aogonek" unicode="&#x104;" horiz-adv-x="300" d="M168 560 L133 560 L18 0 L50 0 L83 159 L220 159 L252 0 L281 0 L168 560 Z M152 496 L214 186 L88 186 L152 496 Z M261 19 L252 11 C245 6 238 -2 231 -15 C224 -28 221 -42 221 -57 C221 -82 231 -104 250 -120 C269 -137 293 -145 321 -145 C334 -145 344 -144 349 -141 L349 -115 L320 -118 C300 -118 283 -112 270 -100 C257 -89 251 -74 251 -55 C251 -27 259 -8 274 2 L261 19 Z " />
<glyph glyph-name="aogonek" unicode="&#x105;" horiz-adv-x="282" d="M26 107 C26 73 36 46 55 24 C74 3 98 -8 128 -8 C165 -8 201 12 213 73 L213 0 L242 0 L242 304 C242 337 232 363 213 383 C194 403 170 413 141 413 C112 413 88 403 69 382 C50 362 40 335 40 303 L71 302 C71 327 77 347 90 361 C104 376 120 383 140 383 C161 383 177 376 190 361 C203 347 210 327 210 302 L210 201 C190 230 163 244 129 244 C100 244 75 233 56 211 C36 189 26 161 26 127 L26 107 Z M58 126 C58 152 65 174 79 190 C93 206 112 214 134 214 C156 214 175 206 189 190 C203 174 210 152 210 126 L210 110 C210 83 203 62 189 46 C175 30 156 22 134 22 C112 22 93 30 79 46 C65 62 58 83 58 110 L58 126 Z M228 19 L219 11 C212 6 205 -2 198 -15 C191 -28 188 -42 188 -57 C188 -82 198 -104 217 -120 C236 -137 260 -145 288 -145 C301 -145 311 -144 316 -141 L316 -115 L287 -118 C267 -118 250 -112 237 -100 C224 -89 218 -74 218 -55 C218 -27 226 -8 241 2 L228 19 Z " />
<glyph glyph-name="Cacute" unicode="&#x106;" horiz-adv-x="302" d="M240 388 L272 388 L272 443 C272 481 261 511 239 534 C217 556 189 568 156 568 C123 568 95 556 73 534 C51 511 40 481 40 443 L40 117 C40 79 51 49 73 26 C95 4 123 -8 156 -8 C189 -8 217 4 239 26 C261 49 272 79 272 117 L272 172 L240 172 L240 118 C240 88 232 64 217 47 C199 27 179 22 156 22 C133 21 110 31 95 47 C79 64 72 88 72 118 L72 442 C72 472 80 496 95 513 C96 514 120 538 156 538 C195 538 216 514 217 513 C232 496 240 472 240 442 L240 388 Z M135 640 L195 768 L168 768 L107 640 L135 640 Z " />
<glyph glyph-name="cacute" unicode="&#x107;" horiz-adv-x="283" d="M213 104 C213 79 206 59 193 44 C180 29 163 22 143 22 C122 22 106 29 92 44 C79 59 72 79 72 104 L72 301 C72 326 79 346 92 361 C106 376 122 383 143 383 C163 383 180 376 193 361 C206 346 213 326 213 301 L213 261 L243 261 L243 303 C243 336 234 362 215 383 C196 403 172 413 143 413 C115 413 90 403 70 382 C50 361 40 334 40 302 L40 102 C40 69 50 43 69 23 C89 2 113 -8 142 -8 C171 -8 195 3 214 23 C234 44 243 71 243 103 L243 148 L213 148 L213 104 Z M125 440 L185 568 L158 568 L97 440 L125 440 Z " />
<glyph glyph-name="Ccaron" unicode="&#x10c;" horiz-adv-x="302" d="M240 388 L272 388 L272 443 C272 481 261 511 239 534 C217 556 189 568 156 568 C123 568 95 556 73 534 C51 511 40 481 40 443 L40 117 C40 79 51 49 73 26 C95 4 123 -8 156 -8 C189 -8 217 4 239 26 C261 49 272 79 272 117 L272 172 L240 172 L240 118 C240 88 232 64 217 47 C199 27 179 22 156 22 C133 21 110 31 95 47 C79 64 72 88 72 118 L72 442 C72 472 80 496 95 513 C96 514 120 538 156 538 C195 538 216 514 217 513 C232 496 240 472 240 442 L240 388 Z M210 748 L151 647 L94 743 L63 748 L135 620 L169 620 L239 745 L210 748 Z " />
<glyph glyph-name="ccaron" unicode="&#x10d;" horiz-adv-x="283" d="M213 104 C213 79 206 59 193 44 C180 29 163 22 143 22 C122 22 106 29 92 44 C79 59 72 79 72 104 L72 301 C72 326 79 346 92 361 C106 376 122 383 143 383 C163 383 180 376 193 361 C206 346 213 326 213 301 L213 261 L243 261 L243 303 C243 336 234 362 215 383 C196 403 172 413 143 413 C115 413 90 403 70 382 C50 361 40 334 40 302 L40 102 C40 69 50 43 69 23 C89 2 113 -8 142 -8 C171 -8 195 3 214 23 C234 44 243 71 243 103 L243 148 L213 148 L213 104 Z M200 599 L141 498 L84 594 L53 599 L125 471 L159 471 L229 596 L200 599 Z " />
<glyph glyph-name="Dcaron" unicode="&#x10e;" horiz-adv-x="308" d="M40 0 L144 0 C181 0 211 12 234 36 C257 59 268 92 268 133 L268 429 C268 470 257 502 235 525 C212 548 183 560 145 560 L40 560 L40 0 Z M73 532 L144 532 C173 532 195 523 212 505 C228 487 236 462 236 428 L236 132 C236 98 228 73 212 55 C195 37 173 28 144 28 L73 28 L73 532 Z M206 736 L147 635 L90 731 L59 736 L131 608 L165 608 L235 733 L206 736 Z " />
<glyph glyph-name="dcroat" unicode="&#x111;" horiz-adv-x="321" d="M251 560 L219 560 L219 500 L135 500 L135 473 L219 473 L219 373 C200 400 174 413 140 413 C111 413 87 403 68 383 C49 363 40 337 40 305 L40 99 C40 67 49 42 68 22 C86 2 109 -8 138 -8 C175 -8 203 8 221 38 L223 0 L251 0 L251 473 L315 473 L315 500 L251 500 L251 560 L251 560 Z M219 108 C219 82 212 61 198 45 C184 30 167 22 145 22 C124 22 106 30 93 45 C79 61 72 82 72 108 L72 298 C72 324 79 345 93 361 C106 376 124 384 145 384 C167 384 184 376 198 361 C212 345 219 324 219 298 L219 108 L219 108 Z " />
<glyph glyph-name="Edotaccent" unicode="&#x116;" horiz-adv-x="256" d="M229 0 L229 28 L72 28 L72 281 L201 281 L201 307 L72 307 L72 532 L225 532 L225 560 L40 560 L40 0 L229 0 Z M100 739 C100 725 113 712 128 712 C142 712 156 722 156 739 C156 753 144 768 128 768 C114 768 100 754 100 739 L100 739 Z " />
<glyph glyph-name="edotaccent" unicode="&#x117;" horiz-adv-x="289" d="M249 213 L249 300 C249 334 239 362 220 382 C201 403 176 413 146 413 C116 413 90 402 70 381 C50 360 40 332 40 299 L40 105 C40 71 49 44 69 23 C89 3 114 -8 144 -8 C174 -8 199 3 219 24 C239 45 249 72 249 107 L249 124 L219 124 L219 107 C219 81 212 60 198 45 C184 29 167 22 145 22 C124 22 106 29 92 45 C78 60 72 81 72 107 L72 213 L249 213 Z M72 298 C72 324 78 345 92 360 C106 376 124 383 145 383 C167 383 184 376 198 360 C212 345 219 324 219 298 L219 239 L72 239 L72 298 Z M116 539 C116 525 129 512 144 512 C158 512 172 522 172 539 C172 553 160 568 144 568 C130 568 116 554 116 539 L116 539 Z " />
<glyph glyph-name="Eogonek" unicode="&#x118;" horiz-adv-x="256" d="M229 0 L229 28 L72 28 L72 281 L201 281 L201 307 L72 307 L72 532 L225 532 L225 560 L40 560 L40 0 L229 0 Z M141 17 L132 9 C125 4 118 -4 111 -17 C104 -30 101 -44 101 -59 C101 -84 111 -106 130 -122 C149 -139 173 -147 201 -147 C214 -147 224 -146 229 -143 L229 -117 L200 -120 C180 -120 163 -114 150 -102 C137 -91 131 -76 131 -57 C131 -29 139 -10 154 0 L141 17 Z " />
<glyph glyph-name="eogonek" unicode="&#x119;" horiz-adv-x="289" d="M249 213 L249 300 C249 334 239 362 220 382 C201 403 176 413 146 413 C116 413 90 402 70 381 C50 360 40 332 40 299 L40 105 C40 71 49 44 69 23 C89 3 114 -8 144 -8 C174 -8 199 3 219 24 C239 45 249 72 249 107 L249 124 L219 124 L219 107 C219 81 212 60 198 45 C184 29 167 22 145 22 C124 22 106 29 92 45 C78 60 72 81 72 107 L72 213 L249 213 Z M72 298 C72 324 78 345 92 360 C106 376 124 383 145 383 C167 383 184 376 198 360 C212 345 219 324 219 298 L219 239 L72 239 L72 298 Z M161 17 L152 9 C145 4 138 -4 131 -17 C124 -30 121 -44 121 -59 C121 -84 131 -106 150 -122 C169 -139 193 -147 221 -147 C234 -147 244 -146 249 -143 L249 -117 L220 -120 C200 -120 183 -114 170 -102 C157 -91 151 -76 151 -57 C151 -29 159 -10 174 0 L161 17 Z " />
<glyph glyph-name="Ecaron" unicode="&#x11a;" horiz-adv-x="256" d="M229 0 L229 28 L72 28 L72 281 L201 281 L201 307 L72 307 L72 532 L225 532 L225 560 L40 560 L40 0 L229 0 Z M187 733 L128 632 L71 728 L40 733 L112 605 L146 605 L216 730 L187 733 Z " />
<glyph glyph-name="ecaron" unicode="&#x11b;" horiz-adv-x="289" d="M249 213 L249 300 C249 334 239 362 220 382 C201 403 176 413 146 413 C116 413 90 402 70 381 C50 360 40 332 40 299 L40 105 C40 71 49 44 69 23 C89 3 114 -8 144 -8 C174 -8 199 3 219 24 C239 45 249 72 249 107 L249 124 L219 124 L219 107 C219 81 212 60 198 45 C184 29 167 22 145 22 C124 22 106 29 92 45 C78 60 72 81 72 107 L72 213 L249 213 Z M72 298 C72 324 78 345 92 360 C106 376 124 383 145 383 C167 383 184 376 198 360 C212 345 219 324 219 298 L219 239 L72 239 L72 298 Z M201 585 L142 484 L85 580 L54 585 L126 457 L160 457 L230 582 L201 585 Z " />
<glyph glyph-name="Itilde" unicode="&#x128;" horiz-adv-x="114" d="M40 0 L74 0 L74 560 L40 560 L40 0 Z M-52 627 L-51 641 C-50 650 -47 660 -40 670 C-33 679 -24 684 -12 684 C0 684 11 681 22 674 C33 667 43 659 50 651 C58 643 69 636 82 629 C95 622 108 618 123 618 C137 618 149 622 159 628 C169 634 176 642 181 649 C186 657 190 666 192 676 C195 686 197 693 197 697 C197 701 197 704 197 706 L167 706 L165 692 C165 683 161 673 154 663 C148 654 138 649 126 649 C114 649 103 652 92 659 C81 666 72 674 64 682 C56 690 46 697 33 704 C20 711 6 715 -8 715 C-22 715 -34 711 -44 705 C-55 699 -62 691 -67 684 C-72 676 -75 667 -78 657 C-81 647 -82 640 -82 636 C-83 632 -83 629 -83 627 L-52 627 Z " />
<glyph glyph-name="Iogonek" unicode="&#x12e;" horiz-adv-x="114" d="M40 0 L74 0 L74 560 L40 560 L40 0 Z M58 17 L49 9 C42 4 35 -4 28 -17 C21 -30 18 -44 18 -59 C18 -84 28 -106 47 -122 C66 -139 90 -147 118 -147 C131 -147 141 -146 146 -143 L146 -117 L117 -120 C97 -120 80 -114 67 -102 C54 -91 48 -76 48 -57 C48 -29 56 -10 71 0 L58 17 Z " />
<glyph glyph-name="iogonek" unicode="&#x12f;" horiz-adv-x="114" d="M29 524 C29 509 40 496 57 496 C72 496 85 508 85 524 C85 538 76 552 57 552 C40 552 29 539 29 524 L29 524 Z M40 0 L74 0 L74 405 L40 405 L40 0 Z M56 17 L47 9 C40 4 33 -4 26 -17 C19 -30 16 -44 16 -59 C16 -84 26 -106 45 -122 C64 -139 88 -147 116 -147 C129 -147 139 -146 144 -143 L144 -117 L115 -120 C95 -120 78 -114 65 -102 C52 -91 46 -76 46 -57 C46 -29 54 -10 69 0 L56 17 Z " />
<glyph glyph-name="Lacute" unicode="&#x139;" horiz-adv-x="222" d="M212 0 L212 28 L72 28 L72 560 L40 560 L40 0 L212 0 Z M95 640 L155 768 L128 768 L67 640 L95 640 Z " />
<glyph glyph-name="lacute" unicode="&#x13a;" horiz-adv-x="113" d="M40 0 L73 0 L73 560 L40 560 L40 0 Z M41 568 L101 696 L74 696 L13 568 L41 568 Z " />
<glyph glyph-name="Lcaron" unicode="&#x13d;" horiz-adv-x="222" d="M212 0 L212 28 L72 28 L72 560 L40 560 L40 0 L212 0 L212 0 Z " />
<glyph glyph-name="Lslash" unicode="&#x141;" horiz-adv-x="312" d="M281 0 L281 29 L142 29 L142 273 L262 296 L262 324 L142 301 L142 561 L110 561 L110 295 L37 281 L37 253 L110 267 L110 0 L281 0 L281 0 Z " />
<glyph glyph-name="lslash" unicode="&#x142;" horiz-adv-x="246" d="M100 0 L134 0 L134 269 L206 281 L206 308 L134 296 L134 561 L100 561 L100 291 L36 281 L36 253 L100 263 L100 0 L100 0 Z " />
<glyph glyph-name="Nacute" unicode="&#x143;" horiz-adv-x="316" d="M245 0 L276 0 L276 560 L245 560 L245 80 L72 560 L40 560 L40 0 L70 0 L70 485 L245 0 Z M142 621 L202 749 L175 749 L114 621 L142 621 Z " />
<glyph glyph-name="nacute" unicode="&#x144;" horiz-adv-x="288" d="M248 0 L248 307 C248 339 239 364 221 384 C204 403 181 413 154 413 C116 413 78 380 69 336 L69 405 L40 405 L40 0 L72 0 L72 299 C72 325 79 346 93 361 C108 376 126 383 147 383 C168 383 185 376 197 361 C210 347 216 326 216 299 L216 0 L248 0 Z M128 440 L188 568 L161 568 L100 440 L128 440 Z " />
<glyph glyph-name="Ncaron" unicode="&#x147;" horiz-adv-x="316" d="M245 0 L276 0 L276 560 L245 560 L245 80 L72 560 L40 560 L40 0 L70 0 L70 485 L245 0 Z M217 727 L158 626 L101 722 L70 727 L142 599 L176 599 L246 724 L217 727 Z " />
<glyph glyph-name="ncaron" unicode="&#x148;" horiz-adv-x="288" d="M248 0 L248 307 C248 339 239 364 221 384 C204 403 181 413 154 413 C116 413 78 380 69 336 L69 405 L40 405 L40 0 L72 0 L72 299 C72 325 79 346 93 361 C108 376 126 383 147 383 C168 383 185 376 197 361 C210 347 216 326 216 299 L216 0 L248 0 Z M201 589 L142 488 L85 584 L54 589 L126 461 L160 461 L230 586 L201 589 Z " />
<glyph glyph-name="Ohungarumlaut" unicode="&#x150;" horiz-adv-x="312" d="M40 115 C40 78 51 48 72 26 C94 3 121 -8 155 -8 C189 -8 216 3 239 26 C261 49 272 79 272 117 L272 445 C272 482 261 512 239 534 C218 557 190 568 157 568 C123 568 95 557 73 534 C51 511 40 481 40 443 L40 115 Z M72 442 C72 472 80 496 95 513 C110 530 131 538 156 538 C181 538 201 530 217 513 C232 496 240 472 240 442 L240 118 C240 88 232 64 217 47 C201 30 181 22 156 22 C131 22 110 30 95 47 C80 64 72 88 72 118 L72 442 Z M96 640 L140 768 L112 768 L68 640 L96 640 Z M200 640 L244 768 L216 768 L172 640 L200 640 Z " />
<glyph glyph-name="ohungarumlaut" unicode="&#x151;" horiz-adv-x="291" d="M40 105 C40 71 49 44 69 23 C89 3 114 -8 144 -8 C175 -8 200 3 220 24 C241 46 251 73 251 107 L251 300 C251 334 241 361 221 382 C201 403 176 413 146 413 C116 413 90 402 70 381 C50 360 40 332 40 299 L40 105 Z M72 298 C72 324 78 345 92 360 C106 376 124 383 145 383 C167 383 184 376 198 360 C212 345 219 324 219 298 L219 107 C219 81 212 60 198 45 C184 29 167 22 145 22 C124 22 106 29 92 45 C78 60 72 81 72 107 L72 298 Z M85 440 L129 568 L101 568 L57 440 L85 440 Z M189 440 L233 568 L205 568 L161 440 L189 440 Z " />
<glyph glyph-name="OE" unicode="&#x152;" horiz-adv-x="436" d="M424 0 L424 29 L268 29 L268 281 L396 281 L396 308 L268 308 L268 533 L420 533 L420 560 L165 560 C128 560 98 549 75 525 C52 501 40 469 40 428 L40 132 C40 91 52 59 74 35 C96 12 126 0 164 0 L424 0 Z M236 29 L164 29 C136 29 114 37 97 55 C81 73 72 99 72 132 L72 428 C72 462 81 488 97 506 C114 524 136 533 164 533 L236 533 L236 29 Z " />
<glyph glyph-name="oe" unicode="&#x153;" horiz-adv-x="469" d="M40 105 C40 72 50 45 70 24 C90 3 115 -8 145 -8 C187 -8 217 11 235 48 C253 11 282 -8 325 -8 C354 -8 379 3 399 24 C419 45 429 73 429 107 L429 124 L399 124 L399 108 C399 82 392 61 378 45 C364 30 347 22 325 22 C304 22 286 30 273 45 C259 61 252 82 252 108 L252 213 L429 213 L429 301 C429 335 420 362 400 382 C381 403 356 413 326 413 C283 413 253 395 236 357 C219 395 189 413 147 413 C117 413 91 403 71 381 C51 360 40 333 40 299 L40 105 Z M72 298 C72 324 79 345 93 360 C107 376 125 384 146 384 C167 384 185 376 199 360 C213 345 220 324 220 298 L220 108 C220 82 213 61 199 45 C185 30 167 22 146 22 C125 22 107 30 93 45 C79 61 72 82 72 108 L72 298 Z M252 298 C252 324 259 345 273 360 C286 376 304 384 325 384 C347 384 364 376 378 360 C392 345 399 324 399 298 L399 240 L252 240 L252 298 Z " />
<glyph glyph-name="Racute" unicode="&#x154;" horiz-adv-x="294" d="M248 299 C261 320 268 347 268 378 L268 429 C268 470 257 502 234 525 C212 548 182 560 145 560 L40 560 L40 0 L72 0 L72 245 L143 245 C147 245 164 244 164 244 C183 241 198 232 210 220 C224 204 232 182 232 153 C232 153 232 153 232 152 L232 0 L262 0 L262 155 C262 191 252 220 232 242 C225 249 216 256 208 261 C224 270 237 283 248 299 L248 299 Z M166 273 C159 272 152 271 144 271 L72 271 L72 532 L144 532 C172 532 194 523 211 505 C228 487 236 462 236 428 L236 375 C236 342 228 316 211 298 C199 285 184 277 166 273 L166 273 Z M131 640 L191 768 L164 768 L103 640 L131 640 Z " />
<glyph glyph-name="racute" unicode="&#x155;" horiz-adv-x="183" d="M170 413 C124 413 80 382 70 336 L70 405 L40 405 L40 0 L72 0 L72 275 C72 311 80 337 97 356 C113 374 136 383 163 383 L170 383 L170 413 Z M75 440 L135 568 L108 568 L47 440 L75 440 Z " />
<glyph glyph-name="Rcaron" unicode="&#x158;" horiz-adv-x="294" d="M248 299 C261 320 268 347 268 378 L268 429 C268 470 257 502 234 525 C212 548 182 560 145 560 L40 560 L40 0 L72 0 L72 245 L143 245 C147 245 164 244 164 244 C183 241 198 232 210 220 C224 204 232 182 232 153 C232 153 232 153 232 152 L232 0 L262 0 L262 155 C262 191 252 220 232 242 C225 249 216 256 208 261 C224 270 237 283 248 299 L248 299 Z M166 273 C159 272 152 271 144 271 L72 271 L72 532 L144 532 C172 532 194 523 211 505 C228 487 236 462 236 428 L236 375 C236 342 228 316 211 298 C199 285 184 277 166 273 L166 273 Z M196 747 L137 646 L80 742 L49 747 L121 619 L155 619 L225 744 L196 747 Z " />
<glyph glyph-name="rcaron" unicode="&#x159;" horiz-adv-x="183" d="M170 413 C124 413 80 382 70 336 L70 405 L40 405 L40 0 L72 0 L72 275 C72 311 80 337 97 356 C113 374 136 383 163 383 L170 383 L170 413 Z M154 598 L95 497 L38 593 L7 598 L79 470 L113 470 L183 595 L154 598 Z " />
<glyph glyph-name="Sacute" unicode="&#x15a;" horiz-adv-x="278" d="M60 450 C60 478 68 499 82 515 C97 530 116 538 140 538 C164 538 183 530 198 514 C213 498 220 475 220 446 L220 424 L251 424 L251 449 C251 485 240 514 220 536 C200 557 173 568 141 568 C108 568 82 557 60 536 C39 515 28 486 28 451 C28 397 59 342 121 285 C155 254 180 225 196 199 C212 173 220 145 220 114 C220 85 212 62 197 46 C181 30 161 22 136 22 C111 22 91 30 75 47 C60 64 52 88 52 118 L52 148 L22 148 L22 115 C22 78 32 48 53 26 C74 3 102 -8 135 -8 C169 -8 197 3 219 25 C241 47 252 76 252 113 C252 149 243 182 225 213 C207 243 180 275 144 308 C116 334 95 357 81 379 C67 401 60 425 60 450 L60 450 Z M123 640 L183 768 L156 768 L95 640 L123 640 Z " />
<glyph glyph-name="sacute" unicode="&#x15b;" horiz-adv-x="262" d="M210 99 C210 75 203 56 190 43 C176 29 158 22 137 22 C115 22 98 29 84 43 C70 56 63 75 63 99 L63 108 L33 108 L33 97 C33 66 42 40 62 21 C81 2 106 -8 136 -8 C166 -8 192 2 212 22 C232 42 242 67 242 99 C242 127 234 151 218 171 C202 191 178 209 145 225 C119 237 100 250 88 264 C77 278 71 295 71 314 C71 334 78 351 91 364 C104 377 121 383 141 383 C160 383 177 377 190 364 C204 351 210 334 210 314 L210 305 L241 305 L241 316 C241 344 231 368 213 386 C194 404 170 413 141 413 C113 413 88 404 69 385 C49 366 39 343 39 315 C39 266 68 227 126 199 C156 185 178 170 191 154 C204 139 210 120 210 99 L210 99 Z M115 440 L175 568 L148 568 L87 440 L115 440 Z " />
<glyph glyph-name="Scedilla" unicode="&#x15e;" horiz-adv-x="278" d="M60 450 C60 478 68 499 82 515 C97 530 116 538 140 538 C164 538 183 530 198 514 C213 498 220 475 220 446 L220 424 L251 424 L251 449 C251 485 240 514 220 536 C200 557 173 568 141 568 C108 568 82 557 60 536 C39 515 28 486 28 451 C28 397 59 342 121 285 C155 254 180 225 196 199 C212 173 220 145 220 114 C220 85 212 62 197 46 C181 30 161 22 136 22 C111 22 91 30 75 47 C60 64 52 88 52 118 L52 148 L22 148 L22 115 C22 78 32 48 53 26 C74 3 102 -8 135 -8 C169 -8 197 3 219 25 C241 47 252 76 252 113 C252 149 243 182 225 213 C207 243 180 275 144 308 C116 334 95 357 81 379 C67 401 60 425 60 450 L60 450 Z M128 0 L138 -6 C145 -10 152 -18 159 -30 C166 -42 169 -55 169 -69 C169 -87 164 -102 153 -112 C142 -122 128 -128 111 -128 C95 -128 84 -126 77 -122 L77 -150 L82 -151 C85 -153 89 -154 95 -154 C101 -155 107 -155 113 -155 C137 -155 157 -148 175 -134 C192 -120 201 -99 201 -71 C201 -60 199 -49 195 -39 C191 -29 187 -21 182 -15 C177 -10 171 -4 164 0 C158 5 154 8 151 10 C149 11 147 12 145 13 L128 0 Z " />
<glyph glyph-name="Scaron" unicode="&#x160;" horiz-adv-x="278" d="M60 450 C60 478 68 499 82 515 C97 530 116 538 140 538 C164 538 183 530 198 514 C213 498 220 475 220 446 L220 424 L251 424 L251 449 C251 485 240 514 220 536 C200 557 173 568 141 568 C108 568 82 557 60 536 C39 515 28 486 28 451 C28 397 59 342 121 285 C155 254 180 225 196 199 C212 173 220 145 220 114 C220 85 212 62 197 46 C181 30 161 22 136 22 C111 22 91 30 75 47 C60 64 52 88 52 118 L52 148 L22 148 L22 115 C22 78 32 48 53 26 C74 3 102 -8 135 -8 C169 -8 197 3 219 25 C241 47 252 76 252 113 C252 149 243 182 225 213 C207 243 180 275 144 308 C116 334 95 357 81 379 C67 401 60 425 60 450 L60 450 Z M198 726 L139 625 L82 721 L51 726 L123 598 L157 598 L227 723 L198 726 Z " />
<glyph glyph-name="scaron" unicode="&#x161;" horiz-adv-x="262" d="M210 99 C210 75 203 56 190 43 C176 29 158 22 137 22 C115 22 98 29 84 43 C70 56 63 75 63 99 L63 108 L33 108 L33 97 C33 66 42 40 62 21 C81 2 106 -8 136 -8 C166 -8 192 2 212 22 C232 42 242 67 242 99 C242 127 234 151 218 171 C202 191 178 209 145 225 C119 237 100 250 88 264 C77 278 71 295 71 314 C71 334 78 351 91 364 C104 377 121 383 141 383 C160 383 177 377 190 364 C204 351 210 334 210 314 L210 305 L241 305 L241 316 C241 344 231 368 213 386 C194 404 170 413 141 413 C113 413 88 404 69 385 C49 366 39 343 39 315 C39 266 68 227 126 199 C156 185 178 170 191 154 C204 139 210 120 210 99 L210 99 Z M192 574 L133 473 L76 569 L45 574 L117 446 L151 446 L221 571 L192 574 Z " />
<glyph glyph-name="Tcaron" unicode="&#x164;" horiz-adv-x="272" d="M256 532 L256 560 L16 560 L16 532 L120 532 L120 0 L152 0 L152 532 L256 532 Z M192 729 L133 628 L76 724 L45 729 L117 601 L151 601 L221 726 L192 729 Z " />
<glyph glyph-name="utilde" unicode="&#x169;" horiz-adv-x="288" d="M40 405 L40 99 C40 67 49 41 67 21 C84 2 107 -8 134 -8 C172 -8 210 25 219 69 L219 0 L248 0 L248 405 L216 405 L216 106 C216 80 209 59 195 44 C180 29 162 22 141 22 C120 22 103 29 91 44 C78 58 72 79 72 106 L72 405 L40 405 Z M35 480 L36 494 C37 503 40 513 47 523 C54 532 63 537 75 537 C87 537 98 534 109 527 C120 520 130 512 137 504 C145 496 156 489 169 482 C182 475 195 471 210 471 C224 471 236 475 246 481 C256 487 263 495 268 502 C273 510 277 519 279 529 C282 539 284 546 284 550 C284 554 284 557 284 559 L254 559 L252 545 C252 536 248 526 241 516 C235 507 225 502 213 502 C201 502 190 505 179 512 C168 519 159 527 151 535 C143 543 133 550 120 557 C107 564 93 568 79 568 C65 568 53 564 43 558 C32 552 25 544 20 537 C15 529 12 520 9 510 C6 500 5 493 5 489 C4 485 4 482 4 480 L35 480 Z " />
<glyph glyph-name="Uring" unicode="&#x16e;" horiz-adv-x="304" d="M233 560 L233 114 C233 85 226 62 211 46 C196 30 177 22 153 22 C129 22 110 30 95 46 C80 62 73 85 73 114 L73 560 L40 560 L40 111 C40 75 51 46 71 24 C92 3 119 -8 151 -8 C184 -8 211 3 232 25 C253 47 264 76 264 113 L264 560 L233 560 Z M100 625 C113 612 130 605 150 605 C171 605 188 612 201 625 C214 637 221 654 221 674 C221 693 214 710 201 722 C188 735 171 742 150 742 C130 742 113 735 100 722 C87 710 80 693 80 674 C80 654 87 637 100 625 L100 625 Z M121 703 C129 711 139 715 150 715 C162 715 172 711 180 703 C187 696 191 686 191 674 C191 661 187 651 180 644 C172 636 162 632 150 632 C139 632 129 636 121 644 C113 651 110 661 110 674 C110 686 113 696 121 703 L121 703 Z " />
<glyph glyph-name="uring" unicode="&#x16f;" horiz-adv-x="288" d="M40 405 L40 99 C40 67 49 41 67 21 C84 2 107 -8 134 -8 C172 -8 210 25 219 69 L219 0 L248 0 L248 405 L216 405 L216 106 C216 80 209 59 195 44 C180 29 162 22 141 22 C120 22 103 29 91 44 C78 58 72 79 72 106 L72 405 L40 405 Z M92 425 C105 412 122 405 142 405 C163 405 180 412 193 425 C206 437 213 454 213 474 C213 493 206 510 193 522 C180 535 163 542 142 542 C122 542 105 535 92 522 C79 510 72 493 72 474 C72 454 79 437 92 425 L92 425 Z M113 503 C121 511 131 515 142 515 C154 515 164 511 172 503 C179 496 183 486 183 474 C183 461 179 451 172 444 C164 436 154 432 142 432 C131 432 121 436 113 444 C105 451 102 461 102 474 C102 486 105 496 113 503 L113 503 Z " />
<glyph glyph-name="Uhungarumlaut" unicode="&#x170;" horiz-adv-x="304" d="M233 560 L233 114 C233 85 226 62 211 46 C196 30 177 22 153 22 C129 22 110 30 95 46 C80 62 73 85 73 114 L73 560 L40 560 L40 111 C40 75 51 46 71 24 C92 3 119 -8 151 -8 C184 -8 211 3 232 25 C253 47 264 76 264 113 L264 560 L233 560 L233 560 Z " />
<glyph glyph-name="uhungarumlaut" unicode="&#x171;" horiz-adv-x="288" d="M40 405 L40 99 C40 67 49 41 67 21 C84 2 107 -8 134 -8 C172 -8 210 25 219 69 L219 0 L248 0 L248 405 L216 405 L216 106 C216 80 209 59 195 44 C180 29 162 22 141 22 C120 22 103 29 91 44 C78 58 72 79 72 106 L72 405 L40 405 Z M84 440 L128 568 L100 568 L56 440 L84 440 Z M188 440 L232 568 L204 568 L160 440 L188 440 Z " />
<glyph glyph-name="Uogonek" unicode="&#x172;" horiz-adv-x="304" d="M233 560 L233 114 C233 85 226 62 211 46 C196 30 177 22 153 22 C129 22 110 30 95 46 C80 62 73 85 73 114 L73 560 L40 560 L40 111 C40 75 51 46 71 24 C92 3 119 -8 151 -8 C184 -8 211 3 232 25 C253 47 264 76 264 113 L264 560 L233 560 Z M176 17 L167 9 C160 4 153 -4 146 -17 C139 -30 136 -44 136 -59 C136 -84 146 -106 165 -122 C184 -139 208 -147 236 -147 C249 -147 259 -146 264 -143 L264 -117 L235 -120 C215 -120 198 -114 185 -102 C172 -91 166 -76 166 -57 C166 -29 174 -10 189 0 L176 17 Z " />
<glyph glyph-name="uogonek" unicode="&#x173;" horiz-adv-x="288" d="M40 405 L40 99 C40 67 49 41 67 21 C84 2 107 -8 134 -8 C172 -8 210 25 219 69 L219 0 L248 0 L248 405 L216 405 L216 106 C216 80 209 59 195 44 C180 29 162 22 141 22 C120 22 103 29 91 44 C78 58 72 79 72 106 L72 405 L40 405 Z M160 17 L151 9 C144 4 137 -4 130 -17 C123 -30 120 -44 120 -59 C120 -84 130 -106 149 -122 C168 -139 192 -147 220 -147 C233 -147 243 -146 248 -143 L248 -117 L219 -120 C199 -120 182 -114 169 -102 C156 -91 150 -76 150 -57 C150 -29 158 -10 173 0 L160 17 Z " />
<glyph glyph-name="Ydieresis" unicode="&#x178;" horiz-adv-x="267" d="M117 0 L149 0 L149 232 L259 560 L226 560 L133 269 L41 560 L7 560 L117 234 L117 0 Z M49 614 C49 600 61 587 77 587 C91 587 105 599 105 614 C105 628 92 643 77 643 C62 643 50 630 49 614 L49 614 Z M160 614 C160 600 173 587 189 587 C203 587 217 599 217 614 C217 628 204 643 189 643 C175 643 160 630 160 614 L160 614 Z " />
<glyph glyph-name="Zacute" unicode="&#x179;" horiz-adv-x="221" d="M204 0 L204 28 L38 28 L204 540 L204 560 L16 560 L16 532 L170 532 L4 20 L4 0 L204 0 Z M94 640 L154 768 L127 768 L66 640 L94 640 Z " />
<glyph glyph-name="zacute" unicode="&#x17a;" horiz-adv-x="194" d="M8 20 L8 0 L184 0 L184 28 L41 28 L184 388 L184 405 L20 405 L20 377 L151 377 L8 20 Z M81 440 L141 568 L114 568 L53 440 L81 440 Z " />
<glyph glyph-name="Zdotaccent" unicode="&#x17b;" horiz-adv-x="221" d="M204 0 L204 28 L38 28 L204 540 L204 560 L16 560 L16 532 L170 532 L4 20 L4 0 L204 0 Z M82 739 C82 725 95 712 110 712 C124 712 138 722 138 739 C138 753 126 768 110 768 C96 768 82 754 82 739 L82 739 Z " />
<glyph glyph-name="zdotaccent" unicode="&#x17c;" horiz-adv-x="194" d="M8 20 L8 0 L184 0 L184 28 L41 28 L184 388 L184 405 L20 405 L20 377 L151 377 L8 20 Z M69 539 C69 525 82 512 97 512 C111 512 125 522 125 539 C125 553 113 568 97 568 C83 568 69 554 69 539 L69 539 Z " />
<glyph glyph-name="Zcaron" unicode="&#x17d;" horiz-adv-x="221" d="M204 0 L204 28 L38 28 L204 540 L204 560 L16 560 L16 532 L170 532 L4 20 L4 0 L204 0 Z M170 727 L111 626 L54 722 L23 727 L95 599 L129 599 L199 724 L170 727 Z " />
<glyph glyph-name="zcaron" unicode="&#x17e;" horiz-adv-x="194" d="M8 20 L8 0 L184 0 L184 28 L41 28 L184 388 L184 405 L20 405 L20 377 L151 377 L8 20 Z M156 572 L97 471 L40 567 L9 572 L81 444 L115 444 L185 569 L156 572 Z " />
<glyph glyph-name="florin" unicode="&#x192;" horiz-adv-x="269" d="M108 -88 L138 266 L230 266 L230 292 L140 292 L154 463 C158 507 177 530 212 530 C225 530 240 530 240 530 L240 560 L214 560 C187 560 166 551 150 535 C135 518 126 494 123 464 L109 292 L29 292 L29 266 L106 266 L77 -88 L108 -88 L108 -88 Z " />
<glyph glyph-name="circumflex" unicode="&#x2c6;" horiz-adv-x="205" d="M44 432 L100 530 L159 432 L190 432 L118 560 L86 560 L14 432 L44 432 L44 432 Z " />
<glyph glyph-name="caron" unicode="&#x2c7;" horiz-adv-x="223" d="M177 696 L118 595 L61 691 L30 696 L102 568 L136 568 L206 693 L177 696 L177 696 Z " />
<glyph glyph-name="breve" unicode="&#x2d8;" horiz-adv-x="226" d="M28 568 L28 527 C28 500 35 479 51 463 C66 447 87 440 112 440 C137 440 158 448 174 464 C189 480 197 502 197 528 L197 568 L167 568 L167 528 C167 509 162 495 153 484 C144 473 130 467 112 467 C95 467 81 473 72 484 C63 495 58 509 58 528 L58 568 L28 568 L28 568 Z " />
<glyph glyph-name="dotaccent" unicode="&#x2d9;" horiz-adv-x="84" d="M15 539 C15 525 28 512 43 512 C57 512 71 522 71 539 C71 553 59 568 43 568 C29 568 15 554 15 539 L15 539 Z " />
<glyph glyph-name="ring" unicode="&#x2da;" horiz-adv-x="189" d="M43 425 C56 412 73 405 93 405 C114 405 131 412 144 425 C157 437 164 454 164 474 C164 493 157 510 144 522 C131 535 114 542 93 542 C73 542 56 535 43 522 C30 510 23 493 23 474 C23 454 30 437 43 425 L43 425 Z M64 503 C72 511 82 515 93 515 C105 515 115 511 123 503 C130 496 134 486 134 474 C134 461 130 451 123 444 C115 436 105 432 93 432 C82 432 72 436 64 444 C56 451 53 461 53 474 C53 486 56 496 64 503 L64 503 Z " />
<glyph glyph-name="ogonek" unicode="&#x2db;" horiz-adv-x="168" d="M58 17 L49 9 C42 4 35 -4 28 -17 C21 -30 18 -44 18 -59 C18 -84 28 -106 47 -122 C66 -139 90 -147 118 -147 C131 -147 141 -146 146 -143 L146 -117 L117 -120 C97 -120 80 -114 67 -102 C54 -91 48 -76 48 -57 C48 -29 56 -10 71 0 L58 17 L58 17 Z " />
<glyph glyph-name="tilde" unicode="&#x2dc;" horiz-adv-x="316" d="M50 480 L51 494 C52 503 55 513 62 523 C69 532 78 537 90 537 C102 537 113 534 124 527 C135 520 145 512 152 504 C160 496 171 489 184 482 C197 475 210 471 225 471 C239 471 251 475 261 481 C271 487 278 495 283 502 C288 510 292 519 294 529 C297 539 299 546 299 550 C299 554 299 557 299 559 L269 559 L267 545 C267 536 263 526 256 516 C250 507 240 502 228 502 C216 502 205 505 194 512 C183 519 174 527 166 535 C158 543 148 550 135 557 C122 564 108 568 94 568 C80 568 68 564 58 558 C47 552 40 544 35 537 C30 529 27 520 24 510 C21 500 20 493 20 489 C19 485 19 482 19 480 L50 480 L50 480 Z " />
<glyph glyph-name="hungarumlaut" unicode="&#x2dd;" horiz-adv-x="220" d="M48 440 L92 568 L64 568 L20 440 L48 440 Z M152 440 L196 568 L168 568 L124 440 L152 440 Z " />
<glyph glyph-name="endash" unicode="&#x2013;" horiz-adv-x="392" d="M352 273 L352 300 L40 300 L40 273 L352 273 L352 273 Z " />
<glyph glyph-name="emdash" unicode="&#x2014;" horiz-adv-x="448" d="M408 273 L408 300 L40 300 L40 273 L408 273 L408 273 Z " />
<glyph glyph-name="quoteleft" unicode="&#x2018;" horiz-adv-x="117" d="M38 393 L74 393 L78 560 L50 560 L38 393 Z " />
<glyph glyph-name="quoteright" unicode="&#x2019;" horiz-adv-x="107" d="M33 393 L61 393 L73 560 L37 560 L33 393 Z " />
<glyph glyph-name="quotedblleft" unicode="&#x201c;" horiz-adv-x="185" d="M28 393 L64 393 L68 560 L40 560 L28 393 L28 393 Z M116 393 L152 393 L156 560 L128 560 L116 393 L116 393 Z " />
<glyph glyph-name="quotedblright" unicode="&#x201d;" horiz-adv-x="188" d="M125 560 L121 393 L149 393 L161 560 L125 560 L125 560 Z M33 393 L61 393 L73 560 L37 560 L33 393 L33 393 Z " />
<glyph glyph-name="daggerdbl" unicode="&#x2021;" horiz-adv-x="281" d="M246 226 L246 254 L154 254 L154 377 L246 377 L246 405 L154 405 L154 504 L122 504 L122 405 L30 405 L30 377 L122 377 L122 254 L30 254 L30 226 L122 226 L122 128 L154 128 L154 226 L246 226 L246 226 Z " />
<glyph glyph-name="bullet" unicode="&#x2022;" horiz-adv-x="203" d="M34 345 C34 326 40 309 53 297 C66 284 82 277 101 277 C121 277 137 284 150 297 C163 310 170 326 170 345 C170 365 163 381 150 394 C138 407 121 413 102 413 C82 413 66 407 53 394 C40 381 34 364 34 345 L34 345 Z " />
<glyph glyph-name="ellipsis" unicode="&#x2026;" horiz-adv-x="315" d="M27 20 C27 6 38 -8 55 -8 C69 -8 83 4 83 20 C83 33 70 48 55 48 C41 48 27 36 27 20 L27 20 Z M132 20 C132 6 143 -8 160 -8 C174 -8 188 4 188 20 C188 33 175 48 160 48 C146 48 132 36 132 20 L132 20 Z M237 20 C237 6 248 -8 265 -8 C279 -8 293 4 293 20 C293 33 280 48 265 48 C251 48 237 36 237 20 L237 20 Z " />
<glyph glyph-name="perthousand" unicode="&#x2030;" horiz-adv-x="651" d="M544 178 C518 178 495 169 477 151 C459 133 450 111 450 85 C450 58 459 37 476 19 C494 1 516 -8 543 -8 C569 -8 592 2 610 20 C628 38 637 60 637 86 C637 112 628 134 611 152 C593 169 571 178 544 178 L544 178 Z M588 39 C576 27 561 20 544 20 C526 20 511 27 499 39 C486 52 480 67 480 85 C480 103 486 119 499 131 C511 144 526 150 544 150 C561 150 576 144 588 131 C601 119 607 103 607 85 C607 67 601 52 588 39 L588 39 Z M177 330 C195 348 204 370 204 396 C204 423 195 444 178 462 C160 480 138 489 111 489 C85 489 62 479 44 461 C26 443 17 421 17 395 C17 369 26 347 43 329 C61 312 83 303 110 303 C137 303 159 312 177 330 L177 330 Z M47 396 C47 414 54 429 66 442 C78 454 93 461 111 461 C128 461 143 454 155 442 C168 429 174 414 174 396 C174 378 168 362 155 350 C143 337 128 331 111 331 C93 331 78 337 66 350 C54 362 47 378 47 396 L47 396 Z M308 178 C282 178 259 169 241 151 C223 133 214 111 214 85 C214 58 223 37 240 19 C258 1 280 -8 307 -8 C333 -8 356 2 374 20 C392 38 401 60 401 86 C401 112 392 134 375 152 C357 169 335 178 308 178 L308 178 Z M352 39 C340 27 325 20 307 20 C290 20 275 27 263 39 C250 52 244 67 244 85 C244 103 250 119 263 131 C275 144 290 150 307 150 C325 150 340 144 352 131 C365 119 371 103 371 85 C371 67 365 52 352 39 L352 39 Z M341 480 L45 1 L77 1 L373 480 L341 480 L341 480 Z " />
<glyph glyph-name="guilsinglleft" unicode="&#x2039;" horiz-adv-x="243" d="M204 142 L224 161 L82 301 L224 440 L204 462 L40 310 L40 293 L204 142 L204 142 Z " />
<glyph glyph-name="guilsinglright" unicode="&#x203a;" horiz-adv-x="242" d="M18 160 L38 141 L202 292 L202 309 L38 461 L18 439 L160 300 L18 160 L18 160 Z " />
<glyph glyph-name="Euro" unicode="&#x20ac;" horiz-adv-x="327" d="M269 108 C269 80 262 59 248 45 C235 29 217 22 195 22 C173 22 156 29 142 45 C128 59 122 80 122 108 L122 217 L258 217 L258 244 L122 244 L122 317 L261 317 L261 344 L122 344 L122 453 C122 480 128 502 142 516 C156 531 173 539 195 539 C217 539 235 531 248 516 C262 502 269 480 269 453 L269 417 L301 417 L301 456 C301 490 291 518 272 538 C252 558 227 568 196 568 C165 568 140 558 119 537 C100 516 90 489 90 454 L90 344 L25 344 L25 317 L90 317 L90 244 L25 244 L25 217 L90 217 L90 105 C90 71 99 43 119 23 C138 3 163 -7 194 -7 C225 -7 251 3 271 24 C291 45 301 72 301 107 L301 145 L269 145 L269 108 L269 108 Z " />
<glyph glyph-name="trademark" unicode="&#x2122;" horiz-adv-x="400" d="M164 534 L164 560 L29 560 L29 534 L81 534 L81 308 L112 308 L112 534 L164 534 Z M273 354 L287 355 L330 487 L330 308 L361 308 L361 560 L330 560 L282 409 L234 560 L202 560 L202 308 L232 308 L232 480 L273 354 Z " />
<glyph glyph-name="f_f" unicode="&#xfb00;" horiz-adv-x="354" d="M310 539 C320 539 337 539 337 539 L337 568 C337 568 310 568 304 568 C276 568 255 560 240 542 C224 525 217 499 217 465 L217 405 L72 405 L72 469 C72 516 92 539 130 539 C140 539 160 539 160 539 L160 568 C160 568 130 568 124 568 C98 568 77 560 63 543 C48 526 40 502 40 469 L40 0 L72 0 L72 377 L217 377 L217 0 L249 0 L249 377 L337 377 L337 405 L249 405 L249 465 C249 514 269 539 310 539 L310 539 Z " />
<glyph glyph-name="fi" unicode="&#xfb01;" horiz-adv-x="306" d="M72 405 L72 469 C72 516 92 539 130 539 C140 539 160 539 160 539 L160 568 C160 568 130 568 124 568 C98 568 77 560 62 543 C48 526 40 502 40 469 L40 0 L72 0 L72 377 L232 377 L232 0 L266 0 L266 377 L266 405 L232 405 L72 405 Z M249 553 C234 553 221 538 221 525 C221 510 235 496 249 496 C266 496 277 511 277 525 C277 541 263 553 249 553 L249 553 Z " />
<glyph glyph-name="fl" unicode="&#xfb02;" horiz-adv-x="306" d="M123 568 C97 568 77 560 62 543 C47 526 40 502 40 469 L40 0 L72 0 L72 377 L160 377 L160 405 L72 405 L72 469 C72 516 91 539 130 539 C136 539 194 539 232 539 L232 0 L266 0 L266 539 L266 561 L266 568 C266 568 130 568 123 568 L123 568 Z " />
</font>
</svg>
