<?xml version="1.0" encoding="UTF-8"?>
<svg xmlns="http://www.w3.org/2000/svg" xmlns:xlink="http://www.w3.org/1999/xlink" version="1.2" >
<font id="Lostfield Condensed light italic">
<font-face  font-family="Lostfield Condensed" units-per-em="1000" ascent="750" descent="-250" font-style="normal" font-weight="400" font-stretch="normal" cap-height="700" x-height="500" underline-position="-75" underline-thickness="50" />
<missing-glyph  horiz-adv-x="152" d="" />
<glyph glyph-name="NULL" d="" />
<glyph glyph-name="CR" unicode="&#xd;" horiz-adv-x="152" d="" />
<glyph glyph-name="space" unicode="&#x20;" horiz-adv-x="152" d="" />
<glyph glyph-name="exclam" unicode="&#x21;" horiz-adv-x="107" d="M-21 20 C-23 4 -14 -8 1 -8 C14 -8 30 2 34 20 C37 34 29 49 11 49 C-7 49 -17 36 -21 20 L-21 20 Z M21 160 L42 160 L127 561 L87 561 L21 160 Z " />
<glyph glyph-name="quotedbl" unicode="&#x22;" horiz-adv-x="186" d="M45 392 L88 560 L52 560 L17 392 L45 392 Z M133 392 L176 560 L140 560 L105 392 L133 392 Z " />
<glyph glyph-name="numbersign" unicode="&#x23;" horiz-adv-x="308" d="M130 0 L158 0 L196 141 L260 141 L265 166 L203 166 L242 313 L304 313 L309 338 L249 338 L287 480 L260 480 L222 338 L133 338 L171 480 L144 480 L106 338 L42 338 L37 313 L99 313 L59 166 L-1 166 L-6 141 L52 141 L14 0 L42 0 L80 141 L168 141 L130 0 Z M126 313 L215 313 L175 166 L87 166 L126 313 Z " />
<glyph glyph-name="dollar" unicode="&#x24;" horiz-adv-x="249" d="M262 423 L268 455 C274 487 271 513 257 532 C243 552 223 563 197 566 L207 623 L178 623 L168 565 C142 561 119 549 98 529 C78 509 66 484 60 454 C56 431 57 409 63 387 C68 364 76 346 84 332 C94 318 105 300 121 279 C143 249 158 221 167 194 C176 168 178 140 172 108 C167 81 156 59 139 44 C126 32 111 24 96 22 L99 42 L70 42 L67 21 C51 23 38 31 29 44 C18 59 15 81 20 108 L27 146 L-4 146 L-12 106 C-18 73 -14 47 -1 26 C13 6 33 -6 61 -9 L51 -65 L80 -65 L90 -8 C118 -4 142 8 163 29 C185 50 198 76 204 107 C210 144 210 177 200 206 C190 235 174 266 151 298 C135 320 123 337 115 348 C107 359 101 375 95 395 C90 414 88 434 92 453 C97 479 108 500 123 515 C135 526 148 532 162 535 L158 515 L187 515 L191 536 C207 534 219 527 227 515 C238 500 241 479 236 453 L230 423 L262 423 L262 423 Z " />
<glyph glyph-name="percent" unicode="&#x25;" horiz-adv-x="422" d="M61 329 C75 312 96 303 122 303 C149 303 173 312 194 330 C216 348 230 370 235 397 C240 423 235 445 220 462 C206 480 185 488 159 488 C132 488 108 479 87 461 C64 443 51 421 46 395 C41 369 46 347 61 329 L61 329 Z M1 1 L33 1 L418 481 L386 481 L1 1 Z M104 442 C118 454 135 461 153 461 C171 461 183 454 194 442 C204 429 207 414 204 396 C200 378 191 362 177 350 C162 337 146 331 128 331 C110 331 97 337 87 350 C77 362 74 378 78 396 C81 414 90 429 104 442 L104 442 Z M200 19 C214 1 234 -8 261 -8 C288 -8 312 2 334 20 C355 38 368 60 373 86 C378 112 374 134 359 152 C344 169 324 178 298 178 C271 178 246 169 225 151 C204 133 191 111 186 85 C181 58 186 36 200 19 L200 19 Z M243 131 C258 144 274 150 292 150 C309 150 323 144 333 131 C343 119 346 103 343 85 C339 67 331 52 316 39 C301 27 285 20 268 20 C250 20 236 27 226 39 C217 52 213 67 217 85 C220 103 229 119 243 131 L243 131 Z " />
<glyph glyph-name="ampersand" unicode="&#x26;" horiz-adv-x="317" d="M248 22 C209 22 194 45 202 91 L238 280 L277 280 L282 308 L243 308 L251 354 L219 354 L211 308 L136 308 C116 308 100 316 90 330 C80 345 77 365 82 390 L94 457 C99 482 109 502 125 517 C140 531 159 539 179 539 C200 539 214 531 225 517 C235 502 238 482 233 457 L226 416 L256 416 L264 458 C270 490 266 517 250 537 C234 558 212 568 183 568 C155 568 129 558 106 538 C83 518 69 492 63 459 L51 393 C42 348 53 315 85 295 C42 276 15 241 6 191 L-8 109 C-15 74 -9 46 6 24 C23 3 47 -8 78 -8 C110 -8 137 3 161 23 C164 27 168 30 171 34 C173 28 176 22 179 17 C191 1 209 -8 235 -8 C244 -8 242 -8 242 -8 L248 22 L248 22 L248 22 Z M83 22 C61 22 44 30 33 45 C21 61 18 83 23 110 L38 192 C43 219 54 241 72 257 C89 272 109 280 131 280 L206 280 L171 92 C165 73 155 58 142 45 C125 30 106 22 83 22 L83 22 Z " />
<glyph glyph-name="quotesingle" unicode="&#x27;" horiz-adv-x="85" d="M36 392 L79 560 L43 560 L8 392 L36 392 L36 392 Z " />
<glyph glyph-name="parenleft" unicode="&#x28;" horiz-adv-x="222" d="M106 477 C123 517 139 549 155 572 C170 596 187 618 205 639 C223 659 235 672 243 678 C250 683 255 687 259 690 L243 711 L227 699 C216 690 201 676 184 657 C167 637 149 614 130 587 C112 561 94 526 76 484 C59 442 46 397 37 350 C28 302 25 257 27 215 C29 173 34 140 41 114 C49 89 58 66 71 45 C83 24 92 11 97 5 C102 -1 106 -5 110 -8 L133 14 L122 26 C115 34 107 47 98 66 C89 84 81 106 74 131 C65 156 61 188 59 227 C58 267 62 308 70 352 C78 396 89 437 106 477 L106 477 Z " />
<glyph glyph-name="parenright" unicode="&#x29;" horiz-adv-x="222" d="M115 227 C98 187 82 155 67 132 C52 108 35 86 17 65 C-1 45 -13 32 -20 26 C-27 21 -33 17 -36 14 L-21 -8 L-4 5 C7 14 20 28 38 47 C54 67 73 90 91 117 C109 144 128 178 144 220 C162 262 175 307 184 354 C193 402 196 447 194 489 C190 531 185 565 178 590 C171 615 161 638 149 659 C137 680 128 693 123 699 C117 705 113 709 109 712 L86 690 L97 678 C105 670 113 657 122 638 C131 620 140 598 147 573 C154 548 160 516 160 477 C162 437 160 396 152 352 C143 308 131 266 115 227 L115 227 Z " />
<glyph glyph-name="asterisk" unicode="&#x2a;" horiz-adv-x="280" d="M268 459 L264 487 L153 449 L179 560 L149 560 L132 449 L36 487 L22 459 L121 429 L38 342 L58 325 L137 416 L180 325 L208 342 L156 429 L268 459 L268 459 Z " />
<glyph glyph-name="plus" unicode="&#x2b;" horiz-adv-x="344" d="M212 436 L185 436 L160 300 L42 300 L37 273 L155 273 L131 136 L158 136 L182 273 L301 273 L306 300 L187 300 L212 436 L212 436 Z " />
<glyph glyph-name="comma" unicode="&#x2c;" horiz-adv-x="99" d="M42 -115 L85 53 L49 53 L14 -115 L42 -115 L42 -115 Z " />
<glyph glyph-name="hyphen" unicode="&#x2d;" horiz-adv-x="272" d="M229 273 L234 300 L42 300 L37 273 L229 273 L229 273 Z " />
<glyph glyph-name="period" unicode="&#x2e;" horiz-adv-x="105" d="M27 20 C24 6 32 -8 49 -8 C63 -8 80 4 83 20 C85 33 75 48 60 48 C46 48 29 36 27 20 L27 20 Z " />
<glyph glyph-name="slash" unicode="&#x2f;" horiz-adv-x="283" d="M-48 -7 L-16 -8 L334 678 L302 680 L-48 -7 L-48 -7 Z " />
<glyph glyph-name="zero" unicode="0" horiz-adv-x="296" d="M8 108 C1 72 6 45 22 24 C38 3 61 -8 93 -8 C124 -8 152 3 177 24 C201 46 217 74 224 109 L288 453 C294 488 290 517 273 537 C257 558 233 568 201 568 C170 568 142 558 117 536 C93 515 78 487 71 452 L8 108 Z M103 451 C108 478 119 500 136 515 C153 531 173 539 196 539 C218 539 234 531 245 515 C257 500 260 478 255 451 L192 110 C187 83 176 61 158 46 C141 30 122 22 100 22 C77 22 60 30 49 46 C38 61 35 83 40 110 L103 451 Z " />
<glyph glyph-name="one" unicode="1" horiz-adv-x="152" d="M46 492 L62 471 L122 514 L28 0 L60 0 L163 560 L139 560 L46 492 L46 492 Z " />
<glyph glyph-name="two" unicode="2" horiz-adv-x="242" d="M172 0 L177 28 L7 28 L193 312 C227 363 248 408 255 448 C262 485 257 513 241 535 C226 557 202 567 171 567 C141 567 113 557 91 536 C67 515 52 487 46 452 L36 400 L66 400 L76 451 C81 479 92 500 108 515 C124 530 144 538 166 538 C187 538 203 530 215 515 C226 500 229 479 224 451 C216 411 199 370 171 328 L-32 19 L-35 0 L172 0 L172 0 Z " />
<glyph glyph-name="three" unicode="3" horiz-adv-x="251" d="M130 308 L125 281 C148 281 164 273 175 257 C186 241 189 220 184 192 L169 110 C164 83 153 61 136 46 C119 30 100 22 77 22 C55 22 38 30 27 46 C15 61 12 83 17 110 L25 156 L-4 156 L-12 108 C-19 72 -14 45 0 24 C16 3 39 -8 71 -8 C102 -8 130 3 155 24 C179 46 194 74 201 109 L216 191 C225 242 213 276 176 296 C215 315 239 348 248 393 L260 460 C266 492 261 519 246 539 C230 559 208 568 179 568 C150 568 124 558 101 538 C79 517 64 491 58 458 L50 417 L81 417 L88 457 C93 482 103 502 119 517 C135 532 153 539 173 539 C194 539 208 532 219 517 C230 502 232 482 227 457 L215 390 C210 365 201 345 184 330 C168 316 151 308 130 308 L130 308 Z " />
<glyph glyph-name="four" unicode="4" horiz-adv-x="261" d="M-7 186 L-12 159 L151 159 L122 0 L154 0 L183 159 L227 159 L232 187 L188 187 L257 560 L225 560 L-7 186 Z M21 187 L213 496 L156 187 L21 187 Z " />
<glyph glyph-name="five" unicode="5" horiz-adv-x="278" d="M38 268 L66 268 C70 288 80 306 95 319 C112 332 129 339 149 339 C170 339 186 331 198 317 C209 302 212 281 208 255 L181 108 C177 82 166 61 149 45 C132 30 113 22 92 22 C71 22 54 30 43 45 C32 61 29 82 33 108 L41 152 L9 152 L1 105 C-4 72 0 45 16 24 C32 3 55 -8 85 -8 C116 -8 143 3 167 24 C191 46 207 73 213 107 L240 257 C246 291 241 318 226 338 C210 358 188 368 159 368 C127 368 100 357 80 333 L115 531 L277 531 L283 561 L91 561 L38 268 L38 268 Z " />
<glyph glyph-name="six" unicode="6" horiz-adv-x="275" d="M-2 110 C-9 74 -4 45 12 24 C28 3 52 -8 85 -8 C117 -8 146 3 171 25 C196 46 211 75 218 112 L241 235 C248 271 243 300 228 321 C212 342 189 352 157 352 C135 352 115 346 96 332 L240 561 L208 561 L54 317 C37 287 24 257 18 225 L-2 110 Z M52 233 C57 261 68 284 86 299 C103 315 123 323 147 323 C170 323 188 315 199 299 C211 284 214 261 209 233 L186 113 C181 84 170 61 152 46 C135 30 114 22 91 22 C67 22 50 30 39 46 C27 61 24 84 29 113 L52 233 Z " />
<glyph glyph-name="seven" unicode="7" horiz-adv-x="247" d="M-3 0 L28 0 L283 539 L287 560 L63 560 L58 532 L249 532 L-3 0 L-3 0 Z " />
<glyph glyph-name="eight" unicode="8" horiz-adv-x="275" d="M55 400 C46 351 58 317 92 298 C72 288 54 274 39 256 C25 237 16 215 11 189 L-2 112 C-9 75 -4 46 12 25 C29 3 53 -8 86 -8 C118 -8 147 4 173 26 C198 48 214 77 221 113 L235 191 C245 244 231 281 193 300 C212 309 228 322 240 340 C254 358 262 378 267 401 L277 456 C283 489 278 517 263 537 C246 558 223 568 192 568 C162 568 135 558 110 536 C87 515 72 488 65 454 L55 400 Z M43 192 C49 221 60 244 78 260 C95 276 116 285 140 285 C164 285 182 276 194 260 C205 244 209 221 203 192 L189 114 C184 85 172 63 155 46 C137 30 116 22 92 22 C68 22 50 30 39 46 C27 63 24 85 29 114 L43 192 Z M97 453 C102 479 113 500 130 516 C146 531 165 539 187 539 C208 539 223 531 235 516 C246 500 249 479 244 453 L234 398 C229 372 218 351 202 336 C185 320 167 313 146 313 C124 313 108 320 97 336 C85 351 82 372 87 398 L97 453 Z " />
<glyph glyph-name="nine" unicode="9" horiz-adv-x="297" d="M290 450 C296 486 292 515 276 536 C258 557 234 567 201 567 C169 567 140 557 115 535 C91 513 75 485 68 448 L45 325 C39 289 43 260 58 239 C74 218 97 207 129 207 C152 207 173 214 190 227 L47 0 L80 0 L232 244 C251 273 262 303 268 335 L290 450 Z M235 328 C229 299 218 276 200 261 C183 245 163 237 140 237 C116 237 98 245 87 261 C75 276 72 299 78 328 L100 448 C105 476 117 499 134 514 C151 530 172 538 196 538 C219 538 236 530 247 514 C260 499 262 476 257 448 L235 328 Z " />
<glyph glyph-name="colon" unicode="&#x3a;" horiz-adv-x="122" d="M67 472 C65 458 74 444 90 444 C103 444 121 457 123 472 C126 486 117 500 101 500 C87 500 71 489 67 472 L67 472 Z M0 108 C-2 94 5 80 22 80 C36 80 53 92 56 108 C58 121 48 136 33 136 C19 136 3 124 0 108 L0 108 Z " />
<glyph glyph-name="semicolon" unicode="&#x3b;" horiz-adv-x="119" d="M74 472 C71 458 81 444 97 444 C110 444 127 457 130 472 C132 486 123 500 107 500 C93 500 77 489 74 472 L74 472 Z M20 -17 L63 151 L27 151 L-7 -17 L20 -17 Z " />
<glyph glyph-name="less" unicode="&#x3c;" horiz-adv-x="330" d="M327 452 L337 484 L42 312 L37 288 L271 117 L274 151 L68 301 L327 452 L327 452 Z " />
<glyph glyph-name="equal" unicode="&#x3d;" horiz-adv-x="327" d="M304 357 L309 385 L45 385 L40 357 L304 357 Z M278 217 L283 245 L19 245 L14 217 L278 217 Z " />
<glyph glyph-name="greater" unicode="&#x3e;" horiz-adv-x="331" d="M0 149 L-7 117 L288 289 L293 312 L61 484 L55 450 L260 300 L0 149 L0 149 Z " />
<glyph glyph-name="question" unicode="&#x3f;" horiz-adv-x="253" d="M124 187 C128 209 137 232 153 253 C168 274 182 294 194 311 C207 329 220 350 235 375 C249 401 258 425 262 448 C269 485 265 514 248 535 C233 557 209 567 178 567 C147 567 120 557 98 536 C74 515 59 487 52 452 L44 407 L75 407 L83 452 C88 479 99 500 115 515 C131 530 151 538 173 538 C194 538 210 530 222 515 C233 500 236 479 231 452 C224 415 210 382 189 352 C168 322 148 292 128 264 C107 235 96 209 91 184 L87 160 L119 160 L124 187 Z M49 20 C47 6 55 -8 72 -8 C87 -8 102 5 105 20 C108 34 96 48 82 48 C68 48 52 35 49 20 L49 20 Z " />
<glyph glyph-name="at" unicode="&#x40;" horiz-adv-x="746" d="M248 256 C240 230 241 209 253 192 C265 175 283 167 308 167 C338 167 363 178 384 199 C379 169 384 144 400 125 C416 106 440 96 474 96 C529 96 578 118 621 160 C665 203 692 258 705 326 C723 423 706 506 653 574 C601 642 528 676 435 676 C342 676 258 642 180 574 C102 506 55 423 37 326 C20 234 37 155 90 90 C143 25 215 -8 308 -8 C331 -8 358 -4 389 2 L389 32 C365 27 340 25 314 25 C230 25 164 54 117 113 C69 172 54 243 69 326 C85 414 128 489 198 551 C268 613 345 645 429 645 C513 645 579 613 627 551 C674 489 689 414 673 326 C662 269 639 221 603 183 C568 145 528 126 482 126 C455 126 435 134 423 149 C410 165 408 186 417 213 L510 495 L509 496 L484 496 L471 462 C463 489 444 503 412 503 C387 503 365 496 345 481 C325 466 310 446 302 420 L248 256 Z M333 415 C339 433 348 447 360 457 C373 467 388 472 406 472 C425 472 439 466 446 453 C453 441 455 425 451 406 L398 255 C391 237 383 223 370 213 C357 203 342 198 324 198 C304 198 291 204 284 216 C277 228 276 244 282 263 L333 415 Z " />
<glyph glyph-name="A" unicode="A" horiz-adv-x="300" d="M220 560 L185 560 L-34 0 L-2 0 L60 159 L197 159 L199 0 L228 0 L220 560 Z M192 496 L196 186 L70 186 L192 496 Z " />
<glyph glyph-name="B" unicode="B" horiz-adv-x="295" d="M-12 0 L94 0 C132 0 164 12 191 36 C219 59 236 92 244 133 L251 173 C257 204 255 230 246 251 C237 273 221 287 200 296 C248 317 278 357 289 417 L292 429 C299 470 294 502 276 525 C258 548 230 560 193 560 L92 560 L-12 0 Z M119 532 L187 532 C215 532 236 523 249 505 C263 487 266 462 259 428 L256 411 C250 378 237 352 217 334 C197 316 173 307 145 307 L77 307 L119 532 Z M72 281 L148 281 C176 281 197 272 210 254 C223 236 226 210 220 177 L212 132 C205 98 192 73 172 55 C153 37 128 28 100 28 L24 28 L72 281 Z " />
<glyph glyph-name="C" unicode="C" horiz-adv-x="302" d="M260 388 L292 388 L302 443 C309 481 304 511 287 534 C269 556 243 568 210 568 C177 568 147 556 121 534 C94 511 77 481 70 443 L9 117 C2 79 7 49 24 26 C42 4 68 -8 101 -8 C134 -8 164 4 190 26 C217 49 234 79 241 117 L251 172 L219 172 L209 118 C203 88 191 64 172 47 C151 27 130 22 107 22 C84 21 62 31 50 47 C38 64 35 88 41 118 L102 442 C108 472 120 496 139 513 C140 514 168 538 204 538 C243 538 260 514 261 513 C272 496 276 472 270 442 L260 388 L260 388 Z " />
<glyph glyph-name="D" unicode="D" horiz-adv-x="308" d="M-12 0 L91 0 C128 0 161 12 188 36 C215 59 233 92 240 133 L295 429 C303 470 298 502 280 525 C261 548 235 560 197 560 L92 560 L-12 0 Z M119 532 L190 532 C219 532 240 523 253 505 C266 487 269 462 263 428 L208 132 C202 98 189 73 170 55 C149 37 126 28 97 28 L26 28 L119 532 Z " />
<glyph glyph-name="E" unicode="E" horiz-adv-x="256" d="M176 0 L182 28 L25 28 L72 281 L201 281 L206 307 L77 307 L118 532 L271 532 L277 560 L92 560 L-12 0 L176 0 L176 0 Z " />
<glyph glyph-name="F" unicode="F" horiz-adv-x="241" d="M196 281 L201 307 L77 307 L118 532 L266 532 L272 560 L92 560 L-12 0 L19 0 L72 281 L196 281 L196 281 Z " />
<glyph glyph-name="G" unicode="G" horiz-adv-x="312" d="M291 388 L302 445 C308 482 304 512 286 534 C268 557 243 568 209 568 C176 568 146 557 120 534 C93 511 76 481 69 443 L9 115 C3 78 8 48 26 26 C43 3 69 -8 103 -8 C136 -8 166 3 192 26 C193 27 193 27 193 28 L188 0 L220 0 L242 117 L276 307 L168 307 L164 281 L240 281 L210 118 C204 88 193 64 174 47 C156 30 134 22 108 22 C83 22 65 30 53 47 C40 64 36 88 42 118 L101 442 C107 472 119 496 138 513 C156 530 178 538 203 538 C229 538 247 530 259 513 C272 496 275 472 269 442 L259 388 L291 388 L291 388 Z " />
<glyph glyph-name="H" unicode="H" horiz-adv-x="308" d="M184 0 L216 0 L319 560 L287 560 L241 312 L77 312 L123 560 L91 560 L-11 0 L20 0 L72 284 L236 284 L184 0 L184 0 Z " />
<glyph glyph-name="I" unicode="I" horiz-adv-x="114" d="M-11 0 L22 0 L125 560 L91 560 L-11 0 L-11 0 Z " />
<glyph glyph-name="J" unicode="J" horiz-adv-x="174" d="M-34 -8 L-12 -8 C15 -8 38 1 60 20 C81 38 95 63 100 94 L185 560 L151 560 L67 98 C62 73 53 54 38 41 C24 28 6 22 -15 22 L-29 22 L-34 -8 L-34 -8 Z " />
<glyph glyph-name="K" unicode="K" horiz-adv-x="282" d="M-11 0 L20 0 L72 280 L178 0 L216 0 L102 290 L311 560 L273 560 L74 295 L123 560 L91 560 L-11 0 L-11 0 Z " />
<glyph glyph-name="L" unicode="L" horiz-adv-x="222" d="M160 0 L165 28 L25 28 L123 560 L91 560 L-11 0 L160 0 L160 0 Z " />
<glyph glyph-name="M" unicode="M" horiz-adv-x="400" d="M156 96 L173 96 L363 471 L275 0 L307 0 L412 560 L380 560 L179 162 L125 560 L92 560 L-12 0 L19 0 L107 470 L156 96 L156 96 Z " />
<glyph glyph-name="N" unicode="N" horiz-adv-x="316" d="M192 0 L223 0 L328 560 L297 560 L207 80 L124 560 L92 560 L-12 0 L17 0 L108 485 L192 0 L192 0 Z " />
<glyph glyph-name="O" unicode="O" horiz-adv-x="312" d="M10 115 C3 78 9 48 26 26 C44 3 69 -8 103 -8 C137 -8 166 3 193 26 C219 49 235 79 242 117 L301 445 C308 482 302 512 284 534 C267 557 241 568 208 568 C174 568 144 557 118 534 C92 511 76 481 69 443 L10 115 Z M101 442 C106 472 118 496 136 513 C155 530 177 538 202 538 C227 538 246 530 258 513 C270 496 274 472 269 442 L210 118 C205 88 193 64 175 47 C156 30 134 22 109 22 C84 22 65 30 53 47 C41 64 37 88 42 118 L101 442 Z " />
<glyph glyph-name="P" unicode="P" horiz-adv-x="293" d="M-10 0 L21 0 L64 236 L135 236 C172 236 204 248 231 272 C258 295 276 328 284 369 L294 429 C302 470 296 502 278 525 C260 548 232 560 195 560 L90 560 L-10 0 Z M117 532 L189 532 C217 532 237 523 251 505 C265 487 268 462 262 428 L251 368 C245 334 233 309 212 291 C192 273 169 264 141 264 L69 264 L117 532 Z " />
<glyph glyph-name="Q" unicode="Q" horiz-adv-x="312" d="M221 50 C236 69 245 91 250 117 L310 445 C317 482 311 512 293 534 C276 557 250 568 217 568 C183 568 153 557 127 534 C101 511 84 481 77 443 L17 115 C11 78 16 48 33 26 C51 3 76 -8 110 -8 C117 -8 127 -7 139 -5 L160 -96 L196 -95 L171 7 C190 17 207 31 221 50 L221 50 Z M164 34 L160 50 L129 39 L133 23 C127 22 121 22 116 22 C91 22 72 30 60 47 C48 64 44 88 50 118 L109 442 C115 472 127 496 145 513 C163 530 186 538 211 538 C236 538 254 530 267 513 C279 496 283 472 277 442 L218 118 C212 88 200 64 182 47 C176 42 170 38 164 34 L164 34 Z " />
<glyph glyph-name="R" unicode="R" horiz-adv-x="294" d="M251 299 C268 320 280 347 285 378 L295 429 C302 470 297 502 278 525 C261 548 233 560 196 560 L91 560 L-11 0 L20 0 L65 245 L136 245 C140 245 157 244 157 244 C175 241 189 232 199 220 C210 204 214 182 208 153 C208 153 208 153 208 152 L180 0 L210 0 L239 155 C245 191 241 220 225 242 C219 249 211 256 204 261 C222 270 237 283 251 299 L251 299 Z M164 273 C157 272 150 271 142 271 L70 271 L118 532 L190 532 C218 532 238 523 252 505 C265 487 269 462 263 428 L253 375 C247 342 234 316 214 298 C199 285 183 277 164 273 L164 273 Z " />
<glyph glyph-name="S" unicode="S" horiz-adv-x="278" d="M91 450 C96 478 108 499 125 515 C143 530 163 538 187 538 C211 538 229 530 241 514 C253 498 256 475 250 446 L246 424 L277 424 L282 449 C289 485 283 514 267 536 C251 557 226 568 194 568 C161 568 133 557 107 536 C82 515 66 486 59 451 C49 397 70 342 121 285 C150 254 169 225 180 199 C192 173 194 145 189 114 C183 85 171 62 153 46 C134 30 113 22 88 22 C63 22 44 30 31 47 C19 64 16 88 21 118 L27 148 L-2 148 L-8 115 C-15 78 -11 48 5 26 C22 3 48 -8 81 -8 C115 -8 145 3 171 25 C197 47 214 76 220 113 C227 149 224 182 212 213 C200 243 179 275 149 308 C126 334 109 357 99 379 C89 401 86 425 91 450 L91 450 Z " />
<glyph glyph-name="T" unicode="T" horiz-adv-x="272" d="M302 532 L307 560 L67 560 L62 532 L166 532 L68 0 L100 0 L198 532 L302 532 L302 532 Z " />
<glyph glyph-name="U" unicode="U" horiz-adv-x="304" d="M284 560 L203 114 C198 85 186 62 168 46 C150 30 130 22 106 22 C82 22 64 30 52 46 C40 62 38 85 43 114 L124 560 L91 560 L9 111 C3 75 8 46 24 24 C42 3 67 -8 99 -8 C132 -8 161 3 186 25 C211 47 227 76 234 113 L315 560 L284 560 L284 560 Z " />
<glyph glyph-name="V" unicode="V" horiz-adv-x="274" d="M66 0 L99 0 L320 560 L292 560 L99 69 L94 560 L60 560 L66 0 L66 0 Z " />
<glyph glyph-name="W" unicode="W" horiz-adv-x="412" d="M47 0 L79 0 L239 458 L231 0 L262 0 L454 560 L426 560 L263 80 L273 560 L247 560 L82 82 L92 560 L59 560 L47 0 L47 0 Z " />
<glyph glyph-name="X" unicode="X" horiz-adv-x="283" d="M101 560 L66 560 L126 289 L-46 0 L-12 0 L136 248 L190 0 L225 0 L161 291 L322 560 L288 560 L152 332 L101 560 L101 560 Z " />
<glyph glyph-name="Y" unicode="Y" horiz-adv-x="267" d="M64 0 L96 0 L140 232 L311 560 L278 560 L130 269 L93 560 L59 560 L108 234 L64 0 L64 0 Z " />
<glyph glyph-name="Z" unicode="Z" horiz-adv-x="221" d="M153 0 L158 28 L-7 28 L250 540 L254 560 L66 560 L61 532 L215 532 L-42 20 L-46 0 L153 0 L153 0 Z " />
<glyph glyph-name="bracketleft" unicode="&#x5b;" horiz-adv-x="222" d="M132 -8 L137 20 L13 20 L130 651 L254 651 L259 679 L103 679 L-23 -8 L132 -8 L132 -8 Z " />
<glyph glyph-name="backslash" unicode="&#x5c;" horiz-adv-x="308" d="M112 678 L80 677 L177 -10 L209 -8 L112 678 L112 678 Z " />
<glyph glyph-name="bracketright" unicode="&#x5d;" horiz-adv-x="222" d="M117 -8 L247 679 L91 679 L85 651 L209 651 L90 20 L-33 20 L-38 -8 L117 -8 L117 -8 Z " />
<glyph glyph-name="asciicircum" unicode="&#x5e;" horiz-adv-x="310" d="M215 291 L250 288 L191 560 L167 560 L10 288 L46 290 L170 513 L215 291 L215 291 Z " />
<glyph glyph-name="underscore" unicode="&#x5f;" horiz-adv-x="407" d="M366 0 L371 28 L51 28 L46 0 L366 0 L366 0 Z " />
<glyph glyph-name="grave" unicode="&#x60;" horiz-adv-x="154" d="M175 431 L147 560 L111 560 L147 431 L175 431 L175 431 Z " />
<glyph glyph-name="a" unicode="a" horiz-adv-x="282" d="M8 107 C2 73 7 46 22 24 C37 3 59 -8 89 -8 C126 -8 166 12 189 73 L176 0 L205 0 L260 304 C266 337 261 363 246 383 C230 403 208 413 179 413 C150 413 124 403 101 382 C79 362 64 335 58 303 L89 302 C93 327 103 347 119 361 C135 376 153 383 173 383 C194 383 208 376 219 361 C229 347 232 327 228 302 L209 201 C195 230 170 244 136 244 C107 244 80 233 57 211 C33 189 18 161 12 127 L8 107 Z M44 126 C48 152 59 174 76 190 C93 206 114 214 136 214 C158 214 175 206 186 190 C197 174 200 152 196 126 L193 110 C188 83 177 62 160 46 C143 30 123 22 101 22 C79 22 61 30 50 46 C39 62 36 83 41 110 L44 126 Z " />
<glyph glyph-name="b" unicode="b" horiz-adv-x="291" d="M-9 0 L20 0 L33 73 C29 22 62 -8 99 -8 C128 -8 154 2 177 23 C200 43 213 69 219 100 L256 307 C262 338 257 364 243 383 C227 403 206 413 177 413 C142 413 113 399 89 371 L123 560 L91 560 L-9 0 Z M188 107 C183 81 173 60 156 45 C140 29 121 22 100 22 C78 22 62 29 51 45 C40 60 36 81 41 107 L75 298 C80 324 91 345 108 360 C125 376 143 383 165 383 C186 383 203 376 213 360 C224 345 227 324 222 298 L188 107 Z " />
<glyph glyph-name="c" unicode="c" horiz-adv-x="283" d="M193 104 C189 79 178 59 162 44 C145 29 127 22 107 22 C86 22 71 29 61 44 C51 59 48 79 52 104 L90 301 C95 326 105 346 121 361 C139 376 156 383 177 383 C197 383 213 376 222 361 C232 346 236 326 231 301 L223 261 L253 261 L261 303 C267 336 263 362 249 383 C234 403 212 413 183 413 C155 413 128 403 104 382 C79 361 64 334 58 302 L20 102 C14 69 19 43 33 23 C49 2 71 -8 100 -8 C129 -8 155 3 178 23 C203 44 217 71 223 103 L231 148 L201 148 L193 104 L193 104 Z " />
<glyph glyph-name="d" unicode="d" horiz-adv-x="292" d="M304 560 L272 560 L238 373 C224 400 200 413 165 413 C137 413 111 403 88 383 C65 362 51 336 45 305 L7 99 C1 67 6 42 20 22 C35 2 57 -8 86 -8 C123 -8 165 17 184 73 L170 0 L200 0 L304 560 Z M76 298 C80 324 91 345 108 360 C125 376 144 383 165 383 C186 383 203 376 214 360 C225 345 228 324 224 298 L188 107 C183 81 172 60 156 45 C139 29 119 22 98 22 C77 22 61 29 50 45 C38 60 35 81 40 107 L76 298 Z " />
<glyph glyph-name="e" unicode="e" horiz-adv-x="289" d="M251 213 L266 300 C273 334 268 362 252 382 C237 403 214 413 184 413 C154 413 126 402 102 381 C78 360 63 332 57 299 L22 105 C16 71 20 44 36 23 C52 3 75 -8 105 -8 C135 -8 162 3 186 24 C210 45 225 72 231 107 L234 124 L204 124 L201 107 C196 81 186 60 169 45 C152 29 134 22 112 22 C91 22 74 29 63 45 C52 60 49 81 54 107 L74 213 L251 213 Z M89 298 C94 324 104 345 120 360 C137 376 157 383 178 383 C200 383 215 376 226 360 C238 345 241 324 236 298 L225 239 L78 239 L89 298 Z " />
<glyph glyph-name="f" unicode="f" horiz-adv-x="192" d="M26 377 L82 377 L11 0 L43 0 L114 377 L202 377 L207 405 L119 405 L131 469 C140 515 164 539 203 539 C212 539 233 539 233 539 L238 568 C238 568 208 568 201 568 C175 568 154 560 135 543 C118 526 106 502 99 469 L87 405 L31 405 L26 377 L26 377 Z " />
<glyph glyph-name="g" unicode="g" horiz-adv-x="291" d="M299 405 L270 405 L258 336 C259 391 225 413 190 413 C161 413 136 403 113 383 C90 362 76 336 70 305 L38 131 C32 99 37 73 52 54 C66 34 89 24 118 24 C152 24 181 38 205 66 L189 -21 C185 -47 174 -68 158 -83 C141 -98 122 -106 101 -106 C79 -106 63 -98 52 -83 C41 -68 38 -47 42 -21 L44 -12 L14 -12 L12 -23 C6 -57 10 -84 26 -105 C41 -126 64 -136 94 -136 C124 -136 152 -125 176 -104 C200 -82 215 -55 221 -21 L299 405 Z M101 298 C106 324 116 345 133 360 C150 376 168 383 190 383 C211 383 228 376 239 360 C249 345 253 324 248 298 L219 139 C214 113 203 92 187 77 C171 62 151 54 130 54 C108 54 93 62 81 77 C70 92 67 113 72 139 L101 298 Z " />
<glyph glyph-name="h" unicode="h" horiz-adv-x="288" d="M196 0 L252 307 C258 339 255 364 241 384 C226 403 206 413 179 413 C144 413 100 386 82 336 L123 560 L91 560 L-11 0 L20 0 L76 303 C81 329 92 348 109 362 C126 376 144 383 166 383 C187 383 203 376 212 361 C222 347 224 326 219 299 L164 0 L196 0 L196 0 Z " />
<glyph glyph-name="i" unicode="i" horiz-adv-x="114" d="M74 524 C71 509 80 496 97 496 C112 496 127 508 130 524 C132 538 126 552 107 552 C90 552 77 539 74 524 L74 524 Z M-10 0 L23 0 L97 405 L63 405 L-10 0 Z " />
<glyph glyph-name="j" unicode="j" horiz-adv-x="114" d="M-91 -136 L-66 -136 C-44 -136 -24 -128 -7 -113 C9 -98 20 -77 25 -51 L110 405 L76 405 L-7 -50 C-11 -68 -17 -82 -28 -92 C-39 -101 -52 -106 -66 -106 C-73 -106 -86 -106 -86 -106 L-91 -136 Z M87 524 C85 510 92 496 110 496 C124 496 140 507 143 524 C146 540 135 552 120 552 C106 552 90 540 87 524 L87 524 Z " />
<glyph glyph-name="k" unicode="k" horiz-adv-x="257" d="M-12 0 L19 0 L59 214 L155 0 L195 0 L93 222 L263 405 L223 405 L61 225 L124 560 L92 560 L-12 0 L-12 0 Z " />
<glyph glyph-name="l" unicode="l" horiz-adv-x="113" d="M-10 0 L22 0 L123 560 L90 560 L-10 0 L-10 0 Z " />
<glyph glyph-name="m" unicode="m" horiz-adv-x="455" d="M205 0 L260 303 C266 329 276 348 293 362 C308 376 326 383 347 383 C368 383 383 376 392 361 C402 347 404 326 399 299 L345 0 L377 0 L433 307 C438 339 434 364 421 384 C408 403 388 413 360 413 C341 413 322 408 304 397 C286 387 273 373 261 355 C252 394 229 413 189 413 C153 413 109 380 93 336 L105 405 L75 405 L2 0 L34 0 L88 299 C93 325 104 346 120 361 C136 376 155 383 176 383 C197 383 212 376 221 361 C231 347 232 326 227 299 L173 0 L205 0 L205 0 Z " />
<glyph glyph-name="n" unicode="n" horiz-adv-x="288" d="M210 0 L266 307 C271 339 267 364 253 384 C239 403 218 413 191 413 C153 413 109 380 92 336 L104 405 L75 405 L2 0 L34 0 L88 299 C93 325 104 346 120 361 C138 376 157 383 178 383 C199 383 215 376 224 361 C235 347 237 326 232 299 L178 0 L210 0 L210 0 Z " />
<glyph glyph-name="o" unicode="o" horiz-adv-x="291" d="M22 105 C16 71 20 44 36 23 C52 3 75 -8 105 -8 C136 -8 163 3 187 24 C212 46 227 73 233 107 L268 300 C275 334 270 361 253 382 C237 403 214 413 184 413 C154 413 126 402 102 381 C78 360 63 332 57 299 L22 105 Z M89 298 C94 324 104 345 120 360 C137 376 157 383 178 383 C200 383 215 376 226 360 C238 345 241 324 236 298 L201 107 C196 81 186 60 169 45 C152 29 134 22 112 22 C91 22 74 29 63 45 C52 60 49 81 54 107 L89 298 Z " />
<glyph glyph-name="p" unicode="p" horiz-adv-x="291" d="M-10 -128 L21 -128 L51 32 C64 5 88 -8 123 -8 C152 -8 177 2 200 23 C223 43 237 69 243 100 L281 307 C287 338 283 364 267 383 C253 403 231 413 202 413 C166 413 123 381 105 336 L117 405 L88 405 L-10 -128 Z M212 107 C207 81 196 60 179 45 C162 29 144 22 122 22 C101 22 84 29 74 45 C63 60 60 81 65 107 L101 298 C105 324 116 345 133 360 C149 376 168 383 189 383 C211 383 227 376 238 360 C249 345 252 324 248 298 L212 107 Z " />
<glyph glyph-name="q" unicode="q" horiz-adv-x="291" d="M299 405 L270 405 L257 336 C262 388 224 413 189 413 C160 413 134 403 112 383 C89 362 75 336 69 305 L32 99 C26 67 30 42 46 22 C60 2 82 -8 110 -8 C145 -8 175 6 199 34 L169 -128 L201 -128 L299 405 Z M100 298 C105 324 116 345 132 360 C149 376 168 383 190 383 C211 383 226 376 237 360 C249 345 252 324 247 298 L212 107 C207 81 196 60 180 45 C163 29 145 22 124 22 C102 22 86 29 75 45 C63 60 60 81 65 107 L100 298 Z " />
<glyph glyph-name="r" unicode="r" horiz-adv-x="183" d="M207 413 C161 413 111 382 93 336 L105 405 L75 405 L2 0 L34 0 L84 275 C90 311 103 337 124 356 C143 374 167 383 194 383 L201 383 L207 413 L207 413 Z " />
<glyph glyph-name="s" unicode="s" horiz-adv-x="252" d="M180 99 C176 75 165 56 150 43 C133 29 114 22 93 22 C71 22 55 29 44 43 C32 56 29 75 33 99 L35 108 L5 108 L3 97 C-2 66 1 40 18 21 C34 2 57 -8 87 -8 C117 -8 145 2 168 22 C192 42 206 67 212 99 C217 127 214 151 201 171 C189 191 168 209 138 225 C115 237 98 250 88 264 C80 278 77 295 81 314 C84 334 94 351 110 364 C125 377 143 383 163 383 C182 383 198 377 209 364 C220 351 223 334 220 314 L218 305 L249 305 L251 316 C256 344 251 368 236 386 C220 404 198 413 169 413 C141 413 114 404 92 385 C68 366 54 343 49 315 C40 266 62 227 115 199 C142 185 161 170 171 154 C182 139 184 120 180 99 L180 99 Z " />
<glyph glyph-name="t" unicode="t" horiz-adv-x="192" d="M27 377 L83 377 L30 91 C24 59 27 34 38 17 C50 1 68 -8 95 -8 C108 -8 131 -8 131 -8 L137 22 L107 22 C69 22 53 45 62 91 L115 377 L207 377 L212 405 L120 405 L140 512 L108 512 L88 405 L32 405 L27 377 L27 377 Z " />
<glyph glyph-name="u" unicode="u" horiz-adv-x="288" d="M77 405 L21 99 C16 67 20 41 34 21 C48 2 69 -8 96 -8 C134 -8 178 25 195 69 L182 0 L211 0 L285 405 L253 405 L199 106 C194 80 183 59 166 44 C149 29 129 22 108 22 C87 22 72 29 62 44 C52 58 50 79 55 106 L109 405 L77 405 L77 405 Z " />
<glyph glyph-name="v" unicode="v" horiz-adv-x="255" d="M73 0 L105 0 L276 405 L248 405 L103 61 L86 405 L52 405 L73 0 L73 0 Z " />
<glyph glyph-name="w" unicode="w" horiz-adv-x="381" d="M63 0 L95 0 L213 312 L216 0 L244 0 L399 405 L372 405 L243 68 L241 405 L220 405 L94 71 L90 405 L56 405 L63 0 L63 0 Z " />
<glyph glyph-name="x" unicode="x" horiz-adv-x="249" d="M272 405 L239 405 L134 246 L87 405 L52 405 L109 210 L-29 0 L3 0 L120 176 L172 0 L206 0 L143 212 L272 405 L272 405 Z " />
<glyph glyph-name="y" unicode="y" horiz-adv-x="254" d="M89 -12 C72 -49 57 -75 44 -87 C32 -100 17 -106 0 -106 C-5 -106 -12 -106 -12 -106 L-18 -136 L-2 -136 C18 -136 37 -127 55 -108 C73 -90 91 -58 112 -13 L288 405 L260 405 L112 44 L98 405 L64 405 L89 -12 L89 -12 Z " />
<glyph glyph-name="z" unicode="z" horiz-adv-x="194" d="M-24 20 L-28 0 L147 0 L152 28 L9 28 L217 388 L220 405 L56 405 L51 377 L182 377 L-24 20 L-24 20 Z " />
<glyph glyph-name="braceleft" unicode="&#x7b;" horiz-adv-x="259" d="M146 405 L178 580 C183 605 191 623 205 634 C219 646 238 651 263 651 L299 651 L304 679 L264 679 C231 679 205 671 185 654 C165 637 152 613 146 580 L114 405 C110 384 103 370 93 362 C83 353 68 349 48 349 L24 349 L19 322 L43 322 C63 322 76 318 84 310 C90 302 93 287 89 266 L57 91 C51 58 54 34 68 17 C82 0 106 -8 139 -8 L179 -8 L184 20 L148 20 C123 20 106 25 96 37 C86 48 84 66 89 91 L121 266 C125 287 123 304 116 316 C110 328 99 334 86 335 C100 337 113 343 123 355 C135 368 142 384 146 405 L146 405 Z " />
<glyph glyph-name="bar" unicode="&#x7c;" horiz-adv-x="112" d="M-26 -8 L5 -8 L139 713 L107 713 L-26 -8 L-26 -8 Z " />
<glyph glyph-name="braceright" unicode="&#x7d;" horiz-adv-x="258" d="M112 266 L80 91 C75 66 66 48 52 37 C38 25 19 20 -4 20 L-40 20 L-45 -8 L-5 -8 C26 -8 52 0 72 17 C92 34 106 58 112 91 L144 266 C148 287 154 301 164 310 C174 318 189 322 210 322 L234 322 L239 349 L215 349 C194 349 181 353 173 361 C167 369 165 384 169 405 L201 580 C207 613 203 637 189 654 C175 671 151 679 119 679 L79 679 L74 651 L110 651 C134 651 151 646 161 634 C171 623 174 605 169 580 L137 405 C133 384 134 367 141 355 C148 343 158 337 172 335 C157 334 145 328 134 316 C123 303 116 287 112 266 L112 266 Z " />
<glyph glyph-name="asciitilde" unicode="&#x7e;" horiz-adv-x="342" d="M72 246 L77 261 C78 270 84 280 92 290 C101 299 112 304 124 304 C136 304 146 301 156 294 C166 287 173 279 180 271 C185 263 195 256 206 249 C218 242 231 239 245 239 C259 239 272 242 283 248 C294 254 304 261 310 269 C316 277 322 286 326 296 C331 306 334 313 334 317 C335 321 337 324 337 326 L306 326 L302 312 C300 302 294 293 286 283 C277 274 267 269 254 269 C243 269 232 272 222 279 C213 286 205 294 199 302 C193 310 183 317 172 324 C160 331 147 334 133 334 C119 334 106 331 95 325 C84 319 74 311 69 304 C62 296 57 287 52 277 C48 267 45 260 44 256 C43 252 42 249 42 246 L72 246 L72 246 Z " />
<glyph glyph-name="exclamdown" unicode="&#xa1;" horiz-adv-x="105" d="M123 560 C118 566 113 569 106 569 C98 569 91 566 84 560 C77 555 74 548 72 541 C71 533 72 526 77 521 C81 515 87 512 95 512 C102 512 108 515 116 521 C123 526 126 533 127 541 C129 548 128 555 123 560 L123 560 Z M84 401 L63 401 L-19 0 L19 0 L84 401 Z " />
<glyph glyph-name="cent" unicode="&#xa2;" horiz-adv-x="283" d="M253 260 L261 302 C266 332 263 357 251 377 C237 396 219 408 195 411 L205 468 L176 468 L166 410 C139 407 116 395 95 375 C76 355 63 330 58 301 L21 101 C16 70 19 45 31 26 C45 6 64 -5 89 -8 L88 -14 L79 -65 L108 -65 L117 -15 L118 -8 C144 -4 166 7 187 28 C207 48 219 72 224 102 L233 147 L203 147 L195 103 C190 78 179 58 163 43 C152 32 138 25 124 22 L128 46 L99 46 L95 22 C81 25 71 32 63 43 C51 58 49 78 54 103 L90 300 C94 325 104 345 121 360 C133 371 146 378 160 381 L155 350 L184 350 L189 381 C203 378 214 371 221 360 C232 345 235 325 231 300 L223 260 L253 260 L253 260 Z " />
<glyph glyph-name="sterling" unicode="&#xa3;" horiz-adv-x="312" d="M314 408 L322 455 C329 489 324 517 309 537 C293 557 269 568 238 568 C207 568 180 557 156 536 C132 515 117 488 111 453 L80 284 L16 284 L11 258 L75 258 L32 26 L-31 26 L-36 0 L27 0 L30 0 L227 0 L232 28 L64 28 L107 258 L215 258 L220 284 L112 284 L143 452 C148 479 159 501 174 515 C191 530 211 538 233 538 C254 538 270 530 281 515 C292 501 295 479 290 452 L282 408 L314 408 L314 408 Z " />
<glyph glyph-name="currency" unicode="&#xa4;" horiz-adv-x="402" d="M45 257 C37 216 43 181 62 154 L1 103 L18 81 L80 134 C104 112 136 102 172 102 C209 102 242 112 273 133 L317 81 L343 103 L299 154 C330 183 349 218 357 258 C364 299 357 333 336 362 L398 412 L380 434 L319 382 C295 403 265 413 230 413 C193 413 159 403 127 382 L81 434 L56 412 L100 360 C70 332 52 297 45 257 L45 257 Z M128 347 C156 372 188 384 223 384 C258 384 285 372 305 347 C324 323 331 293 325 258 C318 222 301 192 272 168 C244 143 213 131 178 131 C143 131 115 143 95 168 C77 192 70 222 77 258 C83 293 100 323 128 347 L128 347 Z " />
<glyph glyph-name="yen" unicode="&#xa5;" horiz-adv-x="289" d="M76 0 L108 0 L139 167 L234 167 L239 194 L144 194 L157 265 L161 271 L253 271 L258 298 L176 298 L322 560 L289 560 L148 298 L104 560 L70 560 L119 298 L38 298 L33 271 L125 271 L125 266 L112 194 L19 194 L14 167 L107 167 L76 0 L76 0 Z " />
<glyph glyph-name="brokenbar" unicode="&#xa6;" horiz-adv-x="126" d="M146 712 L114 712 L64 448 L96 448 L146 712 Z M-22 -8 L9 -8 L59 256 L27 256 L-22 -8 Z " />
<glyph glyph-name="section" unicode="&#xa7;" horiz-adv-x="358" d="M210 31 C205 8 195 -10 178 -24 C161 -38 142 -45 120 -45 C97 -45 80 -38 69 -23 C57 -8 54 11 58 35 L61 49 L30 49 L27 33 C21 1 26 -25 43 -45 C58 -65 82 -75 113 -75 C144 -75 172 -65 196 -45 C220 -25 236 0 242 30 C249 70 239 105 210 136 C238 143 262 157 283 177 C304 198 317 223 322 250 C328 281 322 308 307 332 C291 355 264 379 228 403 C199 422 179 441 167 459 C156 477 153 498 157 524 C162 547 172 565 189 579 C205 593 225 600 247 600 C270 600 286 593 297 578 C310 563 313 544 309 520 L306 505 L336 505 L339 522 C345 554 340 580 324 600 C308 620 284 629 253 629 C222 629 195 620 171 600 C146 580 131 555 126 525 C118 486 128 450 155 418 C127 411 104 398 83 377 C62 356 50 332 45 305 C39 274 44 247 59 223 C75 200 102 176 138 152 C168 133 187 114 199 96 C210 78 215 57 210 31 L210 31 Z M205 377 C241 354 265 333 278 315 C290 298 295 276 291 251 C286 226 273 205 253 188 C234 170 211 161 187 159 C184 161 182 163 179 166 C176 168 174 170 170 172 C167 175 164 177 161 178 C125 201 101 222 88 239 C76 257 72 279 77 304 C81 329 93 350 112 367 C132 384 154 394 178 395 C190 387 199 380 205 377 L205 377 Z " />
<glyph glyph-name="dieresis" unicode="&#xa8;" horiz-adv-x="255" d="M134 531 C132 517 141 504 157 504 C171 504 188 516 190 531 C193 545 183 560 168 560 C153 560 138 547 134 531 L134 531 Z M245 531 C243 517 253 504 269 504 C283 504 300 516 302 531 C305 545 295 560 280 560 C266 560 248 547 245 531 L245 531 Z " />
<glyph glyph-name="copyright" unicode="&#xa9;" horiz-adv-x="659" d="M85 75 C130 20 193 -8 276 -8 C358 -8 432 21 498 76 C564 133 605 201 620 282 C634 363 619 431 574 486 C528 541 464 568 382 568 C300 568 226 541 159 484 C93 429 53 360 38 279 C24 198 40 130 85 75 L85 75 Z M179 464 C238 514 303 539 375 539 C448 539 505 514 546 464 C587 414 601 353 588 280 C575 208 539 147 480 97 C421 47 355 22 282 22 C210 22 154 47 113 97 C72 147 58 208 71 280 C84 353 120 414 179 464 L179 464 Z M425 200 L412 188 C390 164 347 152 315 152 C279 152 251 164 229 188 C208 213 202 244 209 280 C215 317 233 348 262 373 C293 397 326 409 362 409 C396 409 425 399 448 371 C449 369 450 368 451 367 L477 385 L474 390 C456 422 408 439 367 439 C320 439 278 423 243 392 C206 362 184 324 176 279 C168 234 176 197 200 167 C225 137 260 122 308 122 C354 122 394 139 438 176 C440 178 442 181 443 182 L425 200 Z " />
<glyph glyph-name="ordfeminine" unicode="&#xaa;" horiz-adv-x="208" d="M25 380 C21 358 24 341 34 328 C44 315 59 308 78 308 C102 308 130 325 140 356 L132 313 L160 313 L194 500 C198 521 195 537 184 549 C173 561 159 568 139 568 C118 568 99 561 84 549 C69 536 60 520 56 499 L55 491 L85 491 L86 499 C88 511 93 521 101 528 C111 535 120 539 132 539 C143 539 153 535 158 528 C164 521 166 511 164 499 L154 445 C144 458 129 465 108 465 C89 465 71 458 56 444 C40 430 31 412 27 392 L25 380 Z M6 229 L145 229 L150 256 L11 256 L6 229 Z M58 391 C61 406 66 418 76 426 C85 435 96 440 110 440 C123 440 133 435 139 426 C145 418 147 406 144 391 L142 381 C140 367 134 355 124 347 C116 338 104 333 91 333 C77 333 68 338 61 347 C55 355 54 367 56 381 L58 391 Z " />
<glyph glyph-name="guillemotleft" unicode="&#xab;" horiz-adv-x="441" d="M250 439 L234 460 L41 308 L38 291 L173 140 L197 161 L81 300 L250 439 Z M450 439 L434 460 L241 308 L238 291 L373 140 L397 161 L281 300 L450 439 Z " />
<glyph glyph-name="logicalnot" unicode="&#xac;" horiz-adv-x="344" d="M289 140 L318 300 L54 300 L49 273 L285 273 L261 140 L289 140 L289 140 Z " />
<glyph glyph-name="registered" unicode="&#xae;" horiz-adv-x="318" d="M41 331 C64 305 94 292 133 292 C172 292 209 305 241 332 C272 359 292 392 299 431 C306 470 299 502 277 529 C254 555 224 568 186 568 C146 568 110 555 78 528 C46 501 26 468 19 429 C12 390 20 358 41 331 L41 331 Z M95 509 C119 530 148 541 180 541 C212 541 236 530 253 509 C270 488 275 462 270 430 C264 398 249 372 224 351 C199 330 171 320 139 320 C107 320 82 330 66 351 C49 372 43 398 49 430 C54 462 70 488 95 509 L95 509 Z M97 363 L123 363 L132 412 L152 412 L180 363 L209 363 L180 413 C204 420 216 433 220 454 C222 467 220 477 213 485 C205 493 195 497 180 497 L122 497 L97 363 Z M173 476 C191 476 199 469 196 454 C193 439 183 432 165 432 L136 432 L144 476 L173 476 Z " />
<glyph glyph-name="degree" unicode="&#xb0;" horiz-adv-x="288" d="M54 382 C71 362 95 351 126 351 C158 351 186 362 209 382 C233 402 248 428 254 459 C259 491 254 517 238 537 C221 557 197 568 165 568 C134 568 106 557 83 537 C58 517 43 491 38 459 C32 428 37 402 54 382 L54 382 Z M102 515 C118 530 138 538 160 538 C182 538 198 530 211 515 C222 501 226 482 222 459 C217 437 207 418 190 404 C173 389 153 381 131 381 C109 381 93 389 81 404 C70 418 65 437 70 459 C74 482 85 501 102 515 L102 515 Z " />
<glyph glyph-name="plusminus" unicode="&#xb1;" horiz-adv-x="345" d="M5 54 L270 54 L275 82 L10 82 L5 54 L5 54 Z M220 422 L193 422 L170 299 L51 299 L46 272 L165 272 L142 149 L169 149 L192 272 L311 272 L316 299 L197 299 L220 422 L220 422 Z " />
<glyph glyph-name="twosuperior" unicode="&#xb2;" horiz-adv-x="170" d="M118 228 L123 254 L23 254 L126 406 C148 439 163 468 167 493 C171 516 168 534 158 548 C148 562 133 568 113 568 C94 568 77 562 62 548 C47 535 38 517 34 495 L29 468 L57 468 L62 495 C67 526 83 541 108 541 C133 541 143 526 138 495 C133 469 122 444 104 418 L-10 249 L-14 228 L118 228 L118 228 Z " />
<glyph glyph-name="threesuperior" unicode="&#xb3;" horiz-adv-x="191" d="M95 391 C121 391 131 376 125 344 L117 297 C111 266 95 250 69 250 C43 250 33 266 39 297 L43 321 L15 321 L10 296 C6 274 9 256 19 243 C29 229 44 223 64 223 C84 223 101 229 117 243 C132 257 143 275 147 297 L155 342 C160 371 153 391 134 404 C156 418 168 437 173 463 L180 499 C183 520 180 536 171 549 C161 562 146 568 128 568 C109 568 92 562 78 549 C63 536 54 519 50 498 L47 477 L76 477 L79 498 C82 512 87 522 94 530 C102 537 111 541 122 541 C133 541 141 537 146 530 C152 522 153 512 150 498 L143 460 C141 446 136 435 128 428 C120 420 110 416 99 416 L95 391 Z " />
<glyph glyph-name="acute" unicode="&#xb4;" horiz-adv-x="154" d="M130 440 L211 568 L184 568 L102 440 L130 440 L130 440 Z " />
<glyph glyph-name="mu" unicode="&#xb5;" horiz-adv-x="289" d="M210 102 C204 78 193 58 176 44 C159 29 140 22 119 22 C98 22 82 29 73 44 C64 59 62 79 67 106 L122 405 L89 405 L-9 -128 L23 -128 L50 18 C62 1 81 -8 106 -8 C144 -8 175 8 200 38 L195 1 L223 1 L298 405 L266 405 L210 102 L210 102 Z " />
<glyph glyph-name="paragraph" unicode="&#xb6;" horiz-adv-x="342" d="M98 0 L130 0 L228 532 L316 532 L218 0 L250 0 L353 560 L194 560 C151 560 116 548 89 524 C62 499 44 468 37 430 C30 392 35 361 54 337 C72 313 102 301 144 301 L153 301 L98 0 L98 0 Z " />
<glyph glyph-name="cedilla" unicode="&#xb8;" horiz-adv-x="285" d="M139 0 L148 -6 C155 -10 160 -18 165 -30 C170 -42 170 -55 168 -69 C165 -87 157 -102 144 -112 C131 -122 116 -128 99 -128 C83 -128 72 -126 66 -122 L61 -150 L66 -151 C68 -153 72 -154 78 -154 C84 -155 90 -155 96 -155 C120 -155 141 -148 162 -134 C182 -120 194 -99 200 -71 C202 -60 202 -49 199 -39 C197 -29 195 -21 191 -15 C187 -10 182 -4 175 0 C170 5 167 8 164 10 C163 11 161 12 159 13 L139 0 L139 0 Z " />
<glyph glyph-name="onesuperior" unicode="&#xb9;" horiz-adv-x="126" d="M26 510 L41 491 L80 521 L24 225 L54 225 L117 560 L92 560 L26 510 L26 510 Z " />
<glyph glyph-name="ordmasculine" unicode="&#xba;" horiz-adv-x="200" d="M27 382 C23 360 26 342 37 329 C48 316 64 309 85 309 C105 309 124 316 140 330 C156 343 167 361 171 383 L191 495 C195 518 192 536 181 549 C170 562 154 568 134 568 C113 568 95 562 78 548 C61 534 51 516 47 494 L27 382 Z M6 228 L134 228 L139 255 L11 255 L6 228 Z M78 494 C81 508 87 519 95 527 C105 535 115 539 127 539 C140 539 150 535 155 527 C162 519 164 508 161 494 L141 383 C138 369 132 358 123 350 C114 343 104 339 91 339 C79 339 69 343 63 350 C57 358 55 369 58 383 L78 494 Z " />
<glyph glyph-name="guillemotright" unicode="&#xbb;" horiz-adv-x="441" d="M-8 160 L7 141 L199 292 L202 309 L66 461 L42 439 L159 300 L-8 160 Z M191 160 L207 141 L399 292 L402 309 L266 461 L242 439 L359 300 L191 160 Z " />
<glyph glyph-name="onequarter" unicode="&#xbc;" horiz-adv-x="443" d="M393 335 L364 335 L228 117 L223 91 L319 91 L302 0 L331 0 L348 91 L375 91 L380 117 L353 117 L393 335 L393 335 Z M324 117 L254 117 L353 276 L324 117 L324 117 Z M425 559 L-4 0 L27 0 L457 559 L425 559 L425 559 Z M59 223 L88 223 L150 559 L126 559 L58 508 L73 489 L114 520 L59 223 L59 223 Z " />
<glyph glyph-name="onehalf" unicode="&#xbd;" horiz-adv-x="511" d="M68 223 L97 223 L159 559 L135 559 L72 511 L86 492 L123 520 L68 223 L68 223 Z M435 559 L4 0 L36 0 L467 559 L435 559 L435 559 Z M454 265 C458 288 454 306 445 320 C434 333 420 340 400 340 C381 340 364 334 349 320 C334 307 324 289 320 267 L315 239 L343 239 L348 267 C354 298 370 313 395 313 C420 313 430 298 424 267 C420 241 408 215 391 190 L276 21 L272 0 L405 0 L410 26 L309 26 L413 178 C435 211 449 240 454 265 L454 265 Z " />
<glyph glyph-name="threequarters" unicode="&#xbe;" horiz-adv-x="485" d="M434 335 L405 335 L269 117 L264 91 L360 91 L343 0 L372 0 L389 91 L416 91 L421 117 L394 117 L434 335 L434 335 Z M365 117 L295 117 L394 276 L365 117 L365 117 Z M467 559 L36 0 L68 0 L500 559 L467 559 L467 559 Z M149 239 C164 253 174 271 179 293 L187 338 C192 367 185 387 166 400 C188 414 201 433 206 460 L212 495 C216 516 213 532 203 545 C194 558 179 564 161 564 C142 564 125 558 110 545 C96 532 87 515 83 494 L79 473 L107 473 L111 494 C114 508 119 518 127 526 C135 533 144 537 155 537 C166 537 174 533 179 526 C184 518 186 508 183 494 L176 456 C173 442 168 431 160 423 C152 416 143 412 132 412 L127 387 C153 387 163 372 157 340 L149 293 C143 262 127 246 101 246 C75 246 64 262 70 293 L74 317 L46 317 L41 292 C37 270 41 252 51 239 C61 225 76 219 96 219 C115 219 133 226 149 239 L149 239 Z " />
<glyph glyph-name="questiondown" unicode="&#xbf;" horiz-adv-x="253" d="M130 377 C126 356 117 335 101 312 C87 289 73 268 61 249 C48 230 34 208 19 183 C4 159 -5 135 -10 112 C-17 75 -12 46 3 25 C18 3 42 -8 73 -8 C104 -8 131 3 154 24 C178 45 193 73 200 108 L208 152 L177 152 L169 108 C163 81 153 60 137 45 C120 30 101 22 79 22 C58 22 41 30 30 45 C19 60 15 81 21 108 C26 138 40 170 61 202 C83 235 104 267 125 299 C146 330 158 357 162 379 L166 401 L134 401 L130 377 Z M200 560 C195 566 189 569 181 569 C174 569 167 566 161 560 C154 555 149 548 148 541 C147 533 148 526 153 521 C157 515 164 512 171 512 C179 512 185 515 192 521 C199 526 203 533 204 541 C205 548 205 555 200 560 L200 560 Z " />
<glyph glyph-name="Agrave" unicode="&#xc0;" horiz-adv-x="300" d="M220 560 L185 560 L-34 0 L-2 0 L60 159 L197 159 L199 0 L228 0 L220 560 Z M192 496 L196 186 L70 186 L192 496 Z M252 631 L224 760 L188 760 L224 631 L252 631 Z " />
<glyph glyph-name="Aacute" unicode="&#xc1;" horiz-adv-x="300" d="M220 560 L185 560 L-34 0 L-2 0 L60 159 L197 159 L199 0 L228 0 L220 560 Z M192 496 L196 186 L70 186 L192 496 Z M204 640 L285 768 L258 768 L176 640 L204 640 Z " />
<glyph glyph-name="Acircumflex" unicode="&#xc2;" horiz-adv-x="300" d="M220 560 L185 560 L-34 0 L-2 0 L60 159 L197 159 L199 0 L228 0 L220 560 Z M192 496 L196 186 L70 186 L192 496 Z M141 632 L213 730 L256 632 L287 632 L236 760 L204 760 L111 632 L141 632 Z " />
<glyph glyph-name="Atilde" unicode="&#xc3;" horiz-adv-x="300" d="M220 560 L185 560 L-34 0 L-2 0 L60 159 L197 159 L199 0 L228 0 L220 560 Z M192 496 L196 186 L70 186 L192 496 Z M105 625 L108 639 C111 648 115 658 124 668 C133 677 143 682 155 682 C167 682 177 679 187 672 C197 665 205 657 211 649 C217 641 227 634 239 627 C251 620 263 616 278 616 C292 616 305 620 316 626 C327 632 335 640 342 647 C348 655 354 664 357 674 C362 684 365 691 366 695 C367 699 367 702 367 704 L337 704 L333 690 C331 681 326 671 317 661 C309 652 299 647 287 647 C275 647 264 650 254 657 C245 664 237 672 230 680 C224 688 215 695 203 702 C191 709 178 713 164 713 C150 713 137 709 126 703 C114 697 106 689 100 682 C93 674 89 665 84 655 C79 645 77 638 76 634 C75 630 74 627 74 625 L105 625 Z " />
<glyph glyph-name="Adieresis" unicode="&#xc4;" horiz-adv-x="300" d="M220 560 L185 560 L-34 0 L-2 0 L60 159 L197 159 L199 0 L228 0 L220 560 Z M192 496 L196 186 L70 186 L192 496 Z M154 731 C152 717 161 704 177 704 C191 704 208 716 210 731 C213 745 203 760 188 760 C173 760 158 747 154 731 L154 731 Z M265 731 C263 717 273 704 289 704 C303 704 320 716 322 731 C325 745 315 760 300 760 C286 760 268 747 265 731 L265 731 Z " />
<glyph glyph-name="Aring" unicode="&#xc5;" horiz-adv-x="300" d="M220 560 L185 560 L-34 0 L-2 0 L60 159 L197 159 L199 0 L228 0 L220 560 Z M192 496 L196 186 L70 186 L192 496 Z M160 625 C171 612 187 605 207 605 C228 605 246 612 261 625 C277 637 287 654 291 674 C294 693 290 710 280 722 C269 735 254 742 233 742 C213 742 194 735 179 722 C163 710 153 693 150 674 C146 654 150 637 160 625 L160 625 Z M196 703 C206 711 216 715 227 715 C239 715 249 711 255 703 C261 696 263 686 261 674 C258 661 252 651 244 644 C235 636 224 632 212 632 C201 632 192 636 185 644 C178 651 177 661 180 674 C182 686 187 696 196 703 L196 703 Z " />
<glyph glyph-name="AE" unicode="&#xc6;" horiz-adv-x="417" d="M445 533 L449 560 L245 560 L-39 0 L-6 0 L73 160 L196 160 L168 0 L356 0 L361 29 L205 29 L249 281 L377 281 L381 308 L253 308 L293 533 L445 533 Z M86 186 L261 535 L200 186 L86 186 Z " />
<glyph glyph-name="Ccedilla" unicode="&#xc7;" horiz-adv-x="302" d="M260 388 L292 388 L302 443 C309 481 304 511 287 534 C269 556 243 568 210 568 C177 568 147 556 121 534 C94 511 77 481 70 443 L9 117 C2 79 7 49 24 26 C42 4 68 -8 101 -8 C134 -8 164 4 190 26 C217 49 234 79 241 117 L251 172 L219 172 L209 118 C203 88 191 64 172 47 C151 27 130 22 107 22 C84 21 62 31 50 47 C38 64 35 88 41 118 L102 442 C108 472 120 496 139 513 C140 514 168 538 204 538 C243 538 260 514 261 513 C272 496 276 472 270 442 L260 388 Z M136 0 L145 -6 C152 -10 157 -18 162 -30 C167 -42 167 -55 165 -69 C162 -87 154 -102 141 -112 C128 -122 113 -128 96 -128 C80 -128 69 -126 63 -122 L58 -150 L63 -151 C65 -153 69 -154 75 -154 C81 -155 87 -155 93 -155 C117 -155 138 -148 159 -134 C179 -120 191 -99 197 -71 C199 -60 199 -49 196 -39 C194 -29 192 -21 188 -15 C184 -10 179 -4 172 0 C167 5 164 8 161 10 C160 11 158 12 156 13 L136 0 Z " />
<glyph glyph-name="Egrave" unicode="&#xc8;" horiz-adv-x="256" d="M176 0 L182 28 L25 28 L72 281 L201 281 L206 307 L77 307 L118 532 L271 532 L277 560 L92 560 L-12 0 L176 0 Z M230 631 L202 760 L166 760 L202 631 L230 631 Z " />
<glyph glyph-name="Eacute" unicode="&#xc9;" horiz-adv-x="256" d="M176 0 L182 28 L25 28 L72 281 L201 281 L206 307 L77 307 L118 532 L271 532 L277 560 L92 560 L-12 0 L176 0 Z M195 640 L276 768 L249 768 L167 640 L195 640 Z " />
<glyph glyph-name="Ecircumflex" unicode="&#xca;" horiz-adv-x="256" d="M176 0 L182 28 L25 28 L72 281 L201 281 L206 307 L77 307 L118 532 L271 532 L277 560 L92 560 L-12 0 L176 0 Z M119 632 L191 730 L234 632 L265 632 L214 760 L182 760 L89 632 L119 632 Z " />
<glyph glyph-name="Edieresis" unicode="&#xcb;" horiz-adv-x="256" d="M176 0 L182 28 L25 28 L72 281 L201 281 L206 307 L77 307 L118 532 L271 532 L277 560 L92 560 L-12 0 L176 0 Z M132 731 C130 717 139 704 155 704 C169 704 186 716 188 731 C191 745 181 760 166 760 C151 760 136 747 132 731 L132 731 Z M243 731 C241 717 251 704 267 704 C281 704 298 716 300 731 C303 745 293 760 278 760 C264 760 246 747 243 731 L243 731 Z " />
<glyph glyph-name="Igrave" unicode="&#xcc;" horiz-adv-x="114" d="M-11 0 L22 0 L125 560 L91 560 L-11 0 Z M159 631 L131 760 L95 760 L131 631 L159 631 Z " />
<glyph glyph-name="Iacute" unicode="&#xcd;" horiz-adv-x="114" d="M-11 0 L22 0 L125 560 L91 560 L-11 0 Z M124 640 L205 768 L178 768 L96 640 L124 640 Z " />
<glyph glyph-name="Icircumflex" unicode="&#xce;" horiz-adv-x="114" d="M-11 0 L22 0 L125 560 L91 560 L-11 0 Z M48 632 L120 730 L163 632 L194 632 L143 760 L111 760 L18 632 L48 632 Z " />
<glyph glyph-name="Idieresis" unicode="&#xcf;" horiz-adv-x="114" d="M-11 0 L22 0 L125 560 L91 560 L-11 0 Z M61 731 C59 717 68 704 84 704 C98 704 115 716 117 731 C120 745 110 760 95 760 C80 760 65 747 61 731 L61 731 Z M172 731 C170 717 180 704 196 704 C210 704 227 716 229 731 C232 745 222 760 207 760 C193 760 175 747 172 731 L172 731 Z " />
<glyph glyph-name="Eth" unicode="&#xd0;" horiz-adv-x="345" d="M26 0 L129 0 C166 0 199 12 226 36 C253 60 271 92 278 133 L331 428 C339 469 333 502 315 525 C297 548 269 560 232 560 L127 560 L80 299 L8 299 L3 273 L75 273 L26 0 Z M154 531 L226 531 C254 531 275 523 288 505 C302 487 305 461 299 428 L246 132 C240 99 227 73 207 55 C188 37 163 29 135 29 L63 29 L107 273 L207 273 L212 299 L112 299 L154 531 Z " />
<glyph glyph-name="Ntilde" unicode="&#xd1;" horiz-adv-x="316" d="M192 0 L223 0 L328 560 L297 560 L207 80 L124 560 L92 560 L-12 0 L17 0 L108 485 L192 0 Z M113 629 L116 643 C119 652 123 662 132 672 C141 681 151 686 163 686 C175 686 185 683 195 676 C205 669 213 661 219 653 C225 645 235 638 247 631 C259 624 271 620 286 620 C300 620 313 624 324 630 C335 636 343 644 350 651 C356 659 362 668 365 678 C370 688 373 695 374 699 C375 703 375 706 375 708 L345 708 L341 694 C339 685 334 675 325 665 C317 656 307 651 295 651 C283 651 272 654 262 661 C253 668 245 676 238 684 C232 692 223 699 211 706 C199 713 186 717 172 717 C158 717 145 713 134 707 C122 701 114 693 108 686 C101 678 97 669 92 659 C87 649 85 642 84 638 C83 634 82 631 82 629 L113 629 Z " />
<glyph glyph-name="Ograve" unicode="&#xd2;" horiz-adv-x="312" d="M10 115 C3 78 9 48 26 26 C44 3 69 -8 103 -8 C137 -8 166 3 193 26 C219 49 235 79 242 117 L301 445 C308 482 302 512 284 534 C267 557 241 568 208 568 C174 568 144 557 118 534 C92 511 76 481 69 443 L10 115 Z M101 442 C106 472 118 496 136 513 C155 530 177 538 202 538 C227 538 246 530 258 513 C270 496 274 472 269 442 L210 118 C205 88 193 64 175 47 C156 30 134 22 109 22 C84 22 65 30 53 47 C41 64 37 88 42 118 L101 442 Z M258 631 L230 760 L194 760 L230 631 L258 631 Z " />
<glyph glyph-name="Oacute" unicode="&#xd3;" horiz-adv-x="312" d="M10 115 C3 78 9 48 26 26 C44 3 69 -8 103 -8 C137 -8 166 3 193 26 C219 49 235 79 242 117 L301 445 C308 482 302 512 284 534 C267 557 241 568 208 568 C174 568 144 557 118 534 C92 511 76 481 69 443 L10 115 Z M101 442 C106 472 118 496 136 513 C155 530 177 538 202 538 C227 538 246 530 258 513 C270 496 274 472 269 442 L210 118 C205 88 193 64 175 47 C156 30 134 22 109 22 C84 22 65 30 53 47 C41 64 37 88 42 118 L101 442 Z M223 640 L304 768 L277 768 L195 640 L223 640 Z " />
<glyph glyph-name="Ocircumflex" unicode="&#xd4;" horiz-adv-x="312" d="M10 115 C3 78 9 48 26 26 C44 3 69 -8 103 -8 C137 -8 166 3 193 26 C219 49 235 79 242 117 L301 445 C308 482 302 512 284 534 C267 557 241 568 208 568 C174 568 144 557 118 534 C92 511 76 481 69 443 L10 115 Z M101 442 C106 472 118 496 136 513 C155 530 177 538 202 538 C227 538 246 530 258 513 C270 496 274 472 269 442 L210 118 C205 88 193 64 175 47 C156 30 134 22 109 22 C84 22 65 30 53 47 C41 64 37 88 42 118 L101 442 Z M147 632 L219 730 L262 632 L293 632 L242 760 L210 760 L117 632 L147 632 Z " />
<glyph glyph-name="Otilde" unicode="&#xd5;" horiz-adv-x="312" d="M10 115 C3 78 9 48 26 26 C44 3 69 -8 103 -8 C137 -8 166 3 193 26 C219 49 235 79 242 117 L301 445 C308 482 302 512 284 534 C267 557 241 568 208 568 C174 568 144 557 118 534 C92 511 76 481 69 443 L10 115 Z M101 442 C106 472 118 496 136 513 C155 530 177 538 202 538 C227 538 246 530 258 513 C270 496 274 472 269 442 L210 118 C205 88 193 64 175 47 C156 30 134 22 109 22 C84 22 65 30 53 47 C41 64 37 88 42 118 L101 442 Z M111 633 L114 647 C117 656 121 666 130 676 C139 685 149 690 161 690 C173 690 183 687 193 680 C203 673 211 665 217 657 C223 649 233 642 245 635 C257 628 269 624 284 624 C298 624 311 628 322 634 C333 640 341 648 348 655 C354 663 360 672 363 682 C368 692 371 699 372 703 C373 707 373 710 373 712 L343 712 L339 698 C337 689 332 679 323 669 C315 660 305 655 293 655 C281 655 270 658 260 665 C251 672 243 680 236 688 C230 696 221 703 209 710 C197 717 184 721 170 721 C156 721 143 717 132 711 C120 705 112 697 106 690 C99 682 95 673 90 663 C85 653 83 646 82 642 C81 638 80 635 80 633 L111 633 Z " />
<glyph glyph-name="Odieresis" unicode="&#xd6;" horiz-adv-x="312" d="M10 115 C3 78 9 48 26 26 C44 3 69 -8 103 -8 C137 -8 166 3 193 26 C219 49 235 79 242 117 L301 445 C308 482 302 512 284 534 C267 557 241 568 208 568 C174 568 144 557 118 534 C92 511 76 481 69 443 L10 115 Z M101 442 C106 472 118 496 136 513 C155 530 177 538 202 538 C227 538 246 530 258 513 C270 496 274 472 269 442 L210 118 C205 88 193 64 175 47 C156 30 134 22 109 22 C84 22 65 30 53 47 C41 64 37 88 42 118 L101 442 Z M160 731 C158 717 167 704 183 704 C197 704 214 716 216 731 C219 745 209 760 194 760 C179 760 164 747 160 731 L160 731 Z M271 731 C269 717 279 704 295 704 C309 704 326 716 328 731 C331 745 321 760 306 760 C292 760 274 747 271 731 L271 731 Z " />
<glyph glyph-name="multiply" unicode="&#xd7;" horiz-adv-x="274" d="M261 405 L140 302 L56 405 L33 385 L117 282 L-4 180 L11 160 L133 263 L216 160 L240 180 L157 282 L278 385 L261 405 L261 405 Z " />
<glyph glyph-name="Oslash" unicode="&#xd8;" horiz-adv-x="312" d="M335 584 L307 582 L282 537 C264 558 240 568 208 568 C175 568 145 557 119 534 C93 511 76 481 70 444 L9 116 C4 88 5 65 14 46 L-23 -24 L4 -21 L29 24 C46 3 70 -8 102 -8 C135 -8 165 4 191 27 C217 50 235 80 242 117 L302 445 C306 471 305 494 297 515 L335 584 Z M101 443 C107 473 118 496 137 513 C155 530 177 539 202 539 C232 539 252 527 263 503 L39 93 C39 100 40 108 42 118 L101 443 Z M269 443 L210 118 C204 88 192 65 173 48 C155 31 133 22 108 22 C78 22 57 34 47 58 L271 468 C271 460 271 452 269 443 L269 443 Z " />
<glyph glyph-name="Ugrave" unicode="&#xd9;" horiz-adv-x="304" d="M284 560 L203 114 C198 85 186 62 168 46 C150 30 130 22 106 22 C82 22 64 30 52 46 C40 62 38 85 43 114 L124 560 L91 560 L9 111 C3 75 8 46 24 24 C42 3 67 -8 99 -8 C132 -8 161 3 186 25 C211 47 227 76 234 113 L315 560 L284 560 Z M254 631 L226 760 L190 760 L226 631 L254 631 Z " />
<glyph glyph-name="Uacute" unicode="&#xda;" horiz-adv-x="304" d="M284 560 L203 114 C198 85 186 62 168 46 C150 30 130 22 106 22 C82 22 64 30 52 46 C40 62 38 85 43 114 L124 560 L91 560 L9 111 C3 75 8 46 24 24 C42 3 67 -8 99 -8 C132 -8 161 3 186 25 C211 47 227 76 234 113 L315 560 L284 560 Z M219 640 L300 768 L273 768 L191 640 L219 640 Z " />
<glyph glyph-name="Ucircumflex" unicode="&#xdb;" horiz-adv-x="304" d="M284 560 L203 114 C198 85 186 62 168 46 C150 30 130 22 106 22 C82 22 64 30 52 46 C40 62 38 85 43 114 L124 560 L91 560 L9 111 C3 75 8 46 24 24 C42 3 67 -8 99 -8 C132 -8 161 3 186 25 C211 47 227 76 234 113 L315 560 L284 560 Z M143 632 L215 730 L258 632 L289 632 L238 760 L206 760 L113 632 L143 632 Z " />
<glyph glyph-name="Udieresis" unicode="&#xdc;" horiz-adv-x="304" d="M284 560 L203 114 C198 85 186 62 168 46 C150 30 130 22 106 22 C82 22 64 30 52 46 C40 62 38 85 43 114 L124 560 L91 560 L9 111 C3 75 8 46 24 24 C42 3 67 -8 99 -8 C132 -8 161 3 186 25 C211 47 227 76 234 113 L315 560 L284 560 Z M156 731 C154 717 163 704 179 704 C193 704 210 716 212 731 C215 745 205 760 190 760 C175 760 160 747 156 731 L156 731 Z M267 731 C265 717 275 704 291 704 C305 704 322 716 324 731 C327 745 317 760 302 760 C288 760 270 747 267 731 L267 731 Z " />
<glyph glyph-name="Yacute" unicode="&#xdd;" horiz-adv-x="267" d="M64 0 L96 0 L140 232 L311 560 L278 560 L130 269 L93 560 L59 560 L108 234 L64 0 Z M200 640 L281 768 L254 768 L172 640 L200 640 Z " />
<glyph glyph-name="Thorn" unicode="&#xde;" horiz-adv-x="308" d="M178 451 L105 451 L126 559 L94 559 L-14 0 L17 0 L43 135 L114 135 C151 135 184 147 211 171 C239 195 257 227 265 268 L275 320 C283 361 279 393 260 417 C243 440 215 451 178 451 L178 451 Z M233 267 C227 234 213 208 193 190 C173 172 149 163 121 163 L49 163 L100 423 L172 423 C200 423 220 415 234 397 C246 379 250 353 243 320 L233 267 L233 267 Z " />
<glyph glyph-name="germandbls" unicode="&#xdf;" horiz-adv-x="303" d="M88 -8 L115 -8 C145 -8 174 4 199 27 C224 50 241 80 248 118 L270 230 C276 263 273 291 260 313 C246 334 225 347 197 352 L302 485 L302 494 C300 500 298 507 294 515 C290 523 286 531 279 539 C273 547 264 554 251 560 C238 566 224 569 208 569 C175 569 146 557 120 535 C95 513 79 484 72 448 L-13 0 L18 0 L104 447 C109 476 120 498 139 515 C156 531 177 539 201 539 C240 539 263 521 270 485 L160 345 L156 323 L172 323 C197 323 215 314 228 297 C240 280 243 257 237 227 L216 118 C211 88 198 65 180 48 C161 31 139 22 114 22 C106 22 94 22 94 22 L88 -8 L88 -8 Z " />
<glyph glyph-name="agrave" unicode="&#xe0;" horiz-adv-x="282" d="M8 107 C2 73 7 46 22 24 C37 3 59 -8 89 -8 C126 -8 166 12 189 73 L176 0 L205 0 L260 304 C266 337 261 363 246 383 C230 403 208 413 179 413 C150 413 124 403 101 382 C79 362 64 335 58 303 L89 302 C93 327 103 347 119 361 C135 376 153 383 173 383 C194 383 208 376 219 361 C229 347 232 327 228 302 L209 201 C195 230 170 244 136 244 C107 244 80 233 57 211 C33 189 18 161 12 127 L8 107 Z M44 126 C48 152 59 174 76 190 C93 206 114 214 136 214 C158 214 175 206 186 190 C197 174 200 152 196 126 L193 110 C188 83 177 62 160 46 C143 30 123 22 101 22 C79 22 61 30 50 46 C39 62 36 83 41 110 L44 126 Z M243 431 L215 560 L179 560 L215 431 L243 431 Z " />
<glyph glyph-name="aacute" unicode="&#xe1;" horiz-adv-x="282" d="M8 107 C2 73 7 46 22 24 C37 3 59 -8 89 -8 C126 -8 166 12 189 73 L176 0 L205 0 L260 304 C266 337 261 363 246 383 C230 403 208 413 179 413 C150 413 124 403 101 382 C79 362 64 335 58 303 L89 302 C93 327 103 347 119 361 C135 376 153 383 173 383 C194 383 208 376 219 361 C229 347 232 327 228 302 L209 201 C195 230 170 244 136 244 C107 244 80 233 57 211 C33 189 18 161 12 127 L8 107 Z M44 126 C48 152 59 174 76 190 C93 206 114 214 136 214 C158 214 175 206 186 190 C197 174 200 152 196 126 L193 110 C188 83 177 62 160 46 C143 30 123 22 101 22 C79 22 61 30 50 46 C39 62 36 83 41 110 L44 126 Z M208 440 L289 568 L262 568 L180 440 L208 440 Z " />
<glyph glyph-name="acircumflex" unicode="&#xe2;" horiz-adv-x="282" d="M8 107 C2 73 7 46 22 24 C37 3 59 -8 89 -8 C126 -8 166 12 189 73 L176 0 L205 0 L260 304 C266 337 261 363 246 383 C230 403 208 413 179 413 C150 413 124 403 101 382 C79 362 64 335 58 303 L89 302 C93 327 103 347 119 361 C135 376 153 383 173 383 C194 383 208 376 219 361 C229 347 232 327 228 302 L209 201 C195 230 170 244 136 244 C107 244 80 233 57 211 C33 189 18 161 12 127 L8 107 Z M44 126 C48 152 59 174 76 190 C93 206 114 214 136 214 C158 214 175 206 186 190 C197 174 200 152 196 126 L193 110 C188 83 177 62 160 46 C143 30 123 22 101 22 C79 22 61 30 50 46 C39 62 36 83 41 110 L44 126 Z M132 432 L204 530 L247 432 L278 432 L227 560 L195 560 L102 432 L132 432 Z " />
<glyph glyph-name="atilde" unicode="&#xe3;" horiz-adv-x="282" d="M8 107 C2 73 7 46 22 24 C37 3 59 -8 89 -8 C126 -8 166 12 189 73 L176 0 L205 0 L260 304 C266 337 261 363 246 383 C230 403 208 413 179 413 C150 413 124 403 101 382 C79 362 64 335 58 303 L89 302 C93 327 103 347 119 361 C135 376 153 383 173 383 C194 383 208 376 219 361 C229 347 232 327 228 302 L209 201 C195 230 170 244 136 244 C107 244 80 233 57 211 C33 189 18 161 12 127 L8 107 Z M44 126 C48 152 59 174 76 190 C93 206 114 214 136 214 C158 214 175 206 186 190 C197 174 200 152 196 126 L193 110 C188 83 177 62 160 46 C143 30 123 22 101 22 C79 22 61 30 50 46 C39 62 36 83 41 110 L44 126 Z M98 480 L101 494 C104 503 108 513 117 523 C126 532 136 537 148 537 C160 537 170 534 180 527 C190 520 198 512 204 504 C210 496 220 489 232 482 C244 475 256 471 271 471 C285 471 298 475 309 481 C320 487 328 495 335 502 C341 510 347 519 350 529 C355 539 358 546 359 550 C360 554 360 557 360 559 L330 559 L326 545 C324 536 319 526 310 516 C302 507 292 502 280 502 C268 502 257 505 247 512 C238 519 230 527 223 535 C217 543 208 550 196 557 C184 564 171 568 157 568 C143 568 130 564 119 558 C107 552 99 544 93 537 C86 529 82 520 77 510 C72 500 70 493 69 489 C68 485 67 482 67 480 L98 480 Z " />
<glyph glyph-name="adieresis" unicode="&#xe4;" horiz-adv-x="282" d="M8 107 C2 73 7 46 22 24 C37 3 59 -8 89 -8 C126 -8 166 12 189 73 L176 0 L205 0 L260 304 C266 337 261 363 246 383 C230 403 208 413 179 413 C150 413 124 403 101 382 C79 362 64 335 58 303 L89 302 C93 327 103 347 119 361 C135 376 153 383 173 383 C194 383 208 376 219 361 C229 347 232 327 228 302 L209 201 C195 230 170 244 136 244 C107 244 80 233 57 211 C33 189 18 161 12 127 L8 107 Z M44 126 C48 152 59 174 76 190 C93 206 114 214 136 214 C158 214 175 206 186 190 C197 174 200 152 196 126 L193 110 C188 83 177 62 160 46 C143 30 123 22 101 22 C79 22 61 30 50 46 C39 62 36 83 41 110 L44 126 Z M145 531 C143 517 152 504 168 504 C182 504 199 516 201 531 C204 545 194 560 179 560 C164 560 149 547 145 531 L145 531 Z M256 531 C254 517 264 504 280 504 C294 504 311 516 313 531 C316 545 306 560 291 560 C277 560 259 547 256 531 L256 531 Z " />
<glyph glyph-name="aring" unicode="&#xe5;" horiz-adv-x="282" d="M8 107 C2 73 7 46 22 24 C37 3 59 -8 89 -8 C126 -8 166 12 189 73 L176 0 L205 0 L260 304 C266 337 261 363 246 383 C230 403 208 413 179 413 C150 413 124 403 101 382 C79 362 64 335 58 303 L89 302 C93 327 103 347 119 361 C135 376 153 383 173 383 C194 383 208 376 219 361 C229 347 232 327 228 302 L209 201 C195 230 170 244 136 244 C107 244 80 233 57 211 C33 189 18 161 12 127 L8 107 Z M44 126 C48 152 59 174 76 190 C93 206 114 214 136 214 C158 214 175 206 186 190 C197 174 200 152 196 126 L193 110 C188 83 177 62 160 46 C143 30 123 22 101 22 C79 22 61 30 50 46 C39 62 36 83 41 110 L44 126 Z M151 425 C162 412 178 405 198 405 C219 405 237 412 252 425 C268 437 278 454 282 474 C285 493 281 510 271 522 C260 535 245 542 224 542 C204 542 185 535 170 522 C154 510 144 493 141 474 C137 454 141 437 151 425 L151 425 Z M187 503 C197 511 207 515 218 515 C230 515 240 511 246 503 C252 496 254 486 252 474 C249 461 243 451 235 444 C226 436 215 432 203 432 C192 432 183 436 176 444 C169 451 168 461 171 474 C173 486 178 496 187 503 L187 503 Z " />
<glyph glyph-name="ae" unicode="&#xe6;" horiz-adv-x="459" d="M7 108 C1 74 6 46 21 24 C36 3 59 -8 88 -8 C109 -8 129 -2 147 10 C167 22 182 38 194 58 C197 38 207 22 220 10 C234 -2 253 -8 275 -8 C305 -8 332 3 356 24 C380 45 395 73 401 107 L404 124 L374 124 L371 108 C367 82 356 61 339 45 C322 30 303 22 282 22 C261 22 244 30 233 45 C222 61 219 82 223 108 L243 213 L421 213 L437 301 C443 335 438 362 422 382 C406 403 384 413 354 413 C313 413 280 395 254 359 C245 395 220 413 179 413 C150 413 124 403 100 382 C78 362 64 335 58 303 L55 289 L85 289 L88 302 C92 327 103 347 119 362 C134 376 152 384 173 384 C193 384 208 376 219 362 C229 347 231 327 227 302 L208 201 C195 230 170 244 136 244 C106 244 80 233 56 211 C32 189 17 161 11 127 L7 108 Z M43 126 C48 153 58 174 76 190 C93 206 113 214 135 214 C158 214 174 206 185 190 C196 174 200 153 195 126 L192 110 C187 83 176 62 159 46 C142 30 123 22 100 22 C78 22 61 30 50 46 C38 62 35 83 40 110 L43 126 Z M258 298 C263 324 274 345 290 360 C307 376 327 384 348 384 C369 384 385 376 396 360 C408 345 411 324 406 298 L395 240 L247 240 L258 298 Z " />
<glyph glyph-name="ccedilla" unicode="&#xe7;" horiz-adv-x="283" d="M193 104 C189 79 178 59 162 44 C145 29 127 22 107 22 C86 22 71 29 61 44 C51 59 48 79 52 104 L90 301 C95 326 105 346 121 361 C139 376 156 383 177 383 C197 383 213 376 222 361 C232 346 236 326 231 301 L223 261 L253 261 L261 303 C267 336 263 362 249 383 C234 403 212 413 183 413 C155 413 128 403 104 382 C79 361 64 334 58 302 L20 102 C14 69 19 43 33 23 C49 2 71 -8 100 -8 C129 -8 155 3 178 23 C203 44 217 71 223 103 L231 148 L201 148 L193 104 Z M129 0 L138 -6 C145 -10 150 -18 155 -30 C160 -42 160 -55 158 -69 C155 -87 147 -102 134 -112 C121 -122 106 -128 89 -128 C73 -128 62 -126 56 -122 L51 -150 L56 -151 C58 -153 62 -154 68 -154 C74 -155 80 -155 86 -155 C110 -155 131 -148 152 -134 C172 -120 184 -99 190 -71 C192 -60 192 -49 189 -39 C187 -29 185 -21 181 -15 C177 -10 172 -4 165 0 C160 5 157 8 154 10 C153 11 151 12 149 13 L129 0 Z " />
<glyph glyph-name="egrave" unicode="&#xe8;" horiz-adv-x="289" d="M251 213 L266 300 C273 334 268 362 252 382 C237 403 214 413 184 413 C154 413 126 402 102 381 C78 360 63 332 57 299 L22 105 C16 71 20 44 36 23 C52 3 75 -8 105 -8 C135 -8 162 3 186 24 C210 45 225 72 231 107 L234 124 L204 124 L201 107 C196 81 186 60 169 45 C152 29 134 22 112 22 C91 22 74 29 63 45 C52 60 49 81 54 107 L74 213 L251 213 Z M89 298 C94 324 104 345 120 360 C137 376 157 383 178 383 C200 383 215 376 226 360 C238 345 241 324 236 298 L225 239 L78 239 L89 298 Z M246 431 L218 560 L182 560 L218 431 L246 431 Z " />
<glyph glyph-name="eacute" unicode="&#xe9;" horiz-adv-x="289" d="M251 213 L266 300 C273 334 268 362 252 382 C237 403 214 413 184 413 C154 413 126 402 102 381 C78 360 63 332 57 299 L22 105 C16 71 20 44 36 23 C52 3 75 -8 105 -8 C135 -8 162 3 186 24 C210 45 225 72 231 107 L234 124 L204 124 L201 107 C196 81 186 60 169 45 C152 29 134 22 112 22 C91 22 74 29 63 45 C52 60 49 81 54 107 L74 213 L251 213 Z M89 298 C94 324 104 345 120 360 C137 376 157 383 178 383 C200 383 215 376 226 360 C238 345 241 324 236 298 L225 239 L78 239 L89 298 Z M211 440 L292 568 L265 568 L183 440 L211 440 Z " />
<glyph glyph-name="ecircumflex" unicode="&#xea;" horiz-adv-x="289" d="M251 213 L266 300 C273 334 268 362 252 382 C237 403 214 413 184 413 C154 413 126 402 102 381 C78 360 63 332 57 299 L22 105 C16 71 20 44 36 23 C52 3 75 -8 105 -8 C135 -8 162 3 186 24 C210 45 225 72 231 107 L234 124 L204 124 L201 107 C196 81 186 60 169 45 C152 29 134 22 112 22 C91 22 74 29 63 45 C52 60 49 81 54 107 L74 213 L251 213 Z M89 298 C94 324 104 345 120 360 C137 376 157 383 178 383 C200 383 215 376 226 360 C238 345 241 324 236 298 L225 239 L78 239 L89 298 Z M135 432 L207 530 L250 432 L281 432 L230 560 L198 560 L105 432 L135 432 Z " />
<glyph glyph-name="edieresis" unicode="&#xeb;" horiz-adv-x="289" d="M251 213 L266 300 C273 334 268 362 252 382 C237 403 214 413 184 413 C154 413 126 402 102 381 C78 360 63 332 57 299 L22 105 C16 71 20 44 36 23 C52 3 75 -8 105 -8 C135 -8 162 3 186 24 C210 45 225 72 231 107 L234 124 L204 124 L201 107 C196 81 186 60 169 45 C152 29 134 22 112 22 C91 22 74 29 63 45 C52 60 49 81 54 107 L74 213 L251 213 Z M89 298 C94 324 104 345 120 360 C137 376 157 383 178 383 C200 383 215 376 226 360 C238 345 241 324 236 298 L225 239 L78 239 L89 298 Z M151 531 C149 517 158 504 174 504 C188 504 205 516 207 531 C210 545 200 560 185 560 C170 560 155 547 151 531 L151 531 Z M262 531 C260 517 270 504 286 504 C300 504 317 516 319 531 C322 545 312 560 297 560 C283 560 265 547 262 531 L262 531 Z " />
<glyph glyph-name="igrave" unicode="&#xec;" horiz-adv-x="114" d="M37 0 L110 405 L76 405 L3 0 L37 0 Z M158 439 L130 568 L94 568 L130 439 L158 439 Z " />
<glyph glyph-name="iacute" unicode="&#xed;" horiz-adv-x="114" d="M37 0 L110 405 L76 405 L3 0 L37 0 Z M124 440 L205 568 L178 568 L96 440 L124 440 Z " />
<glyph glyph-name="icircumflex" unicode="&#xee;" horiz-adv-x="114" d="M37 0 L109 405 L75 405 L3 0 L37 0 Z M48 432 L120 530 L163 432 L194 432 L143 560 L111 560 L18 432 L48 432 Z " />
<glyph glyph-name="idieresis" unicode="&#xef;" horiz-adv-x="114" d="M39 0 L108 405 L74 405 L5 0 L39 0 Z M64 496 C62 482 71 469 87 469 C101 469 118 481 120 496 C123 510 113 525 98 525 C83 525 68 512 64 496 L64 496 Z M175 496 C173 482 183 469 199 469 C213 469 230 481 232 496 C235 510 225 525 210 525 C196 525 178 512 175 496 L175 496 Z " />
<glyph glyph-name="eth" unicode="&#xf0;" horiz-adv-x="274" d="M235 316 L201 447 L276 496 L264 518 L195 473 L172 560 L139 560 L167 455 L88 403 L101 381 L174 428 L205 307 C194 338 168 352 145 352 C114 352 86 342 63 321 C40 300 25 271 18 235 L-4 111 C-11 75 -6 46 10 25 C27 3 52 -8 84 -8 C117 -8 145 3 169 24 C194 45 209 74 216 110 L237 225 C243 257 242 287 235 316 L235 316 Z M184 112 C179 84 167 61 150 46 C133 30 112 22 88 22 C65 22 48 30 37 46 C25 61 22 84 27 112 L49 232 C55 261 66 283 84 299 C101 315 121 323 144 323 C168 323 186 315 197 299 C208 283 212 261 206 232 L184 112 L184 112 Z " />
<glyph glyph-name="ntilde" unicode="&#xf1;" horiz-adv-x="288" d="M210 0 L266 307 C271 339 267 364 253 384 C239 403 218 413 191 413 C153 413 109 380 92 336 L104 405 L75 405 L2 0 L34 0 L88 299 C93 325 104 346 120 361 C138 376 157 383 178 383 C199 383 215 376 224 361 C235 347 237 326 232 299 L178 0 L210 0 Z M101 480 L104 494 C107 503 111 513 120 523 C129 532 139 537 151 537 C163 537 173 534 183 527 C193 520 201 512 207 504 C213 496 223 489 235 482 C247 475 259 471 274 471 C288 471 301 475 312 481 C323 487 331 495 338 502 C344 510 350 519 353 529 C358 539 361 546 362 550 C363 554 363 557 363 559 L333 559 L329 545 C327 536 322 526 313 516 C305 507 295 502 283 502 C271 502 260 505 250 512 C241 519 233 527 226 535 C220 543 211 550 199 557 C187 564 174 568 160 568 C146 568 133 564 122 558 C110 552 102 544 96 537 C89 529 85 520 80 510 C75 500 73 493 72 489 C71 485 70 482 70 480 L101 480 Z " />
<glyph glyph-name="ograve" unicode="&#xf2;" horiz-adv-x="291" d="M22 105 C16 71 20 44 36 23 C52 3 75 -8 105 -8 C136 -8 163 3 187 24 C212 46 227 73 233 107 L268 300 C275 334 270 361 253 382 C237 403 214 413 184 413 C154 413 126 402 102 381 C78 360 63 332 57 299 L22 105 Z M89 298 C94 324 104 345 120 360 C137 376 157 383 178 383 C200 383 215 376 226 360 C238 345 241 324 236 298 L201 107 C196 81 186 60 169 45 C152 29 134 22 112 22 C91 22 74 29 63 45 C52 60 49 81 54 107 L89 298 Z M247 431 L219 560 L183 560 L219 431 L247 431 Z " />
<glyph glyph-name="oacute" unicode="&#xf3;" horiz-adv-x="291" d="M22 105 C16 71 20 44 36 23 C52 3 75 -8 105 -8 C136 -8 163 3 187 24 C212 46 227 73 233 107 L268 300 C275 334 270 361 253 382 C237 403 214 413 184 413 C154 413 126 402 102 381 C78 360 63 332 57 299 L22 105 Z M89 298 C94 324 104 345 120 360 C137 376 157 383 178 383 C200 383 215 376 226 360 C238 345 241 324 236 298 L201 107 C196 81 186 60 169 45 C152 29 134 22 112 22 C91 22 74 29 63 45 C52 60 49 81 54 107 L89 298 Z M212 440 L293 568 L266 568 L184 440 L212 440 Z " />
<glyph glyph-name="ocircumflex" unicode="&#xf4;" horiz-adv-x="291" d="M22 105 C16 71 20 44 36 23 C52 3 75 -8 105 -8 C136 -8 163 3 187 24 C212 46 227 73 233 107 L268 300 C275 334 270 361 253 382 C237 403 214 413 184 413 C154 413 126 402 102 381 C78 360 63 332 57 299 L22 105 Z M89 298 C94 324 104 345 120 360 C137 376 157 383 178 383 C200 383 215 376 226 360 C238 345 241 324 236 298 L201 107 C196 81 186 60 169 45 C152 29 134 22 112 22 C91 22 74 29 63 45 C52 60 49 81 54 107 L89 298 Z M136 432 L208 530 L251 432 L282 432 L231 560 L199 560 L106 432 L136 432 Z " />
<glyph glyph-name="otilde" unicode="&#xf5;" horiz-adv-x="291" d="M22 105 C16 71 20 44 36 23 C52 3 75 -8 105 -8 C136 -8 163 3 187 24 C212 46 227 73 233 107 L268 300 C275 334 270 361 253 382 C237 403 214 413 184 413 C154 413 126 402 102 381 C78 360 63 332 57 299 L22 105 Z M89 298 C94 324 104 345 120 360 C137 376 157 383 178 383 C200 383 215 376 226 360 C238 345 241 324 236 298 L201 107 C196 81 186 60 169 45 C152 29 134 22 112 22 C91 22 74 29 63 45 C52 60 49 81 54 107 L89 298 Z M103 480 L106 494 C109 503 113 513 122 523 C131 532 141 537 153 537 C165 537 175 534 185 527 C195 520 203 512 209 504 C215 496 225 489 237 482 C249 475 261 471 276 471 C290 471 303 475 314 481 C325 487 333 495 340 502 C346 510 352 519 355 529 C360 539 363 546 364 550 C365 554 365 557 365 559 L335 559 L331 545 C329 536 324 526 315 516 C307 507 297 502 285 502 C273 502 262 505 252 512 C243 519 235 527 228 535 C222 543 213 550 201 557 C189 564 176 568 162 568 C148 568 135 564 124 558 C112 552 104 544 98 537 C91 529 87 520 82 510 C77 500 75 493 74 489 C73 485 72 482 72 480 L103 480 Z " />
<glyph glyph-name="odieresis" unicode="&#xf6;" horiz-adv-x="291" d="M22 105 C16 71 20 44 36 23 C52 3 75 -8 105 -8 C136 -8 163 3 187 24 C212 46 227 73 233 107 L268 300 C275 334 270 361 253 382 C237 403 214 413 184 413 C154 413 126 402 102 381 C78 360 63 332 57 299 L22 105 Z M89 298 C94 324 104 345 120 360 C137 376 157 383 178 383 C200 383 215 376 226 360 C238 345 241 324 236 298 L201 107 C196 81 186 60 169 45 C152 29 134 22 112 22 C91 22 74 29 63 45 C52 60 49 81 54 107 L89 298 Z M152 531 C150 517 159 504 175 504 C189 504 206 516 208 531 C211 545 201 560 186 560 C171 560 156 547 152 531 L152 531 Z M263 531 C261 517 271 504 287 504 C301 504 318 516 320 531 C323 545 313 560 298 560 C284 560 266 547 263 531 L263 531 Z " />
<glyph glyph-name="divide" unicode="&#xf7;" horiz-adv-x="344" d="M301 272 L306 300 L42 300 L37 272 L301 272 Z M175 413 C180 407 186 405 194 405 C201 405 208 407 214 413 C221 418 225 425 227 432 C228 440 226 446 221 452 C217 458 211 460 204 460 C196 460 189 458 182 452 C175 446 172 440 171 432 C169 425 170 418 175 413 L175 413 Z M121 121 C126 115 131 113 139 113 C146 113 154 115 160 121 C167 126 171 133 173 141 C174 148 172 154 167 160 C163 166 157 169 150 169 C142 169 135 166 128 160 C121 154 118 148 117 141 C115 133 116 126 121 121 L121 121 Z " />
<glyph glyph-name="oslash" unicode="&#xf8;" horiz-adv-x="292" d="M313 429 L283 431 L253 385 C236 404 214 413 185 413 C154 413 127 403 103 381 C78 360 63 332 57 299 L22 105 C17 82 19 62 25 45 L-21 -24 L8 -25 L38 20 C55 2 77 -8 106 -8 C137 -8 164 3 188 24 C212 46 228 73 234 107 L269 300 C273 321 272 341 265 359 L313 429 Z M89 298 C94 324 104 345 121 360 C138 376 158 384 179 384 C204 384 222 374 231 353 L52 86 C52 90 52 97 54 108 L89 298 Z M237 298 L202 108 C197 82 187 61 170 45 C153 30 133 22 112 22 C87 22 69 32 59 51 L239 320 C238 310 238 303 237 298 L237 298 Z " />
<glyph glyph-name="ugrave" unicode="&#xf9;" horiz-adv-x="288" d="M77 405 L21 99 C16 67 20 41 34 21 C48 2 69 -8 96 -8 C134 -8 178 25 195 69 L182 0 L211 0 L285 405 L253 405 L199 106 C194 80 183 59 166 44 C149 29 129 22 108 22 C87 22 72 29 62 44 C52 58 50 79 55 106 L109 405 L77 405 Z M246 431 L218 560 L182 560 L218 431 L246 431 Z " />
<glyph glyph-name="uacute" unicode="&#xfa;" horiz-adv-x="288" d="M77 405 L21 99 C16 67 20 41 34 21 C48 2 69 -8 96 -8 C134 -8 178 25 195 69 L182 0 L211 0 L285 405 L253 405 L199 106 C194 80 183 59 166 44 C149 29 129 22 108 22 C87 22 72 29 62 44 C52 58 50 79 55 106 L109 405 L77 405 Z M211 440 L292 568 L265 568 L183 440 L211 440 Z " />
<glyph glyph-name="ucircumflex" unicode="&#xfb;" horiz-adv-x="288" d="M77 405 L21 99 C16 67 20 41 34 21 C48 2 69 -8 96 -8 C134 -8 178 25 195 69 L182 0 L211 0 L285 405 L253 405 L199 106 C194 80 183 59 166 44 C149 29 129 22 108 22 C87 22 72 29 62 44 C52 58 50 79 55 106 L109 405 L77 405 Z M135 432 L207 530 L250 432 L281 432 L230 560 L198 560 L105 432 L135 432 Z " />
<glyph glyph-name="udieresis" unicode="&#xfc;" horiz-adv-x="288" d="M77 405 L21 99 C16 67 20 41 34 21 C48 2 69 -8 96 -8 C134 -8 178 25 195 69 L182 0 L211 0 L285 405 L253 405 L199 106 C194 80 183 59 166 44 C149 29 129 22 108 22 C87 22 72 29 62 44 C52 58 50 79 55 106 L109 405 L77 405 Z M151 531 C149 517 158 504 174 504 C188 504 205 516 207 531 C210 545 200 560 185 560 C170 560 155 547 151 531 L151 531 Z M262 531 C260 517 270 504 286 504 C300 504 317 516 319 531 C322 545 312 560 297 560 C283 560 265 547 262 531 L262 531 Z " />
<glyph glyph-name="yacute" unicode="&#xfd;" horiz-adv-x="254" d="M89 -12 C72 -49 57 -75 44 -87 C32 -100 17 -106 0 -106 C-5 -106 -12 -106 -12 -106 L-18 -136 L-2 -136 C18 -136 37 -127 55 -108 C73 -90 91 -58 112 -13 L288 405 L260 405 L112 44 L98 405 L64 405 L89 -12 Z M194 440 L275 568 L248 568 L166 440 L194 440 Z " />
<glyph glyph-name="thorn" unicode="&#xfe;" horiz-adv-x="291" d="M188 473 C153 473 117 448 95 405 L135 620 L103 620 L-23 -68 L8 -68 L42 119 C46 71 74 52 109 52 C138 52 164 63 186 83 C208 103 223 129 229 160 L267 367 C273 398 269 424 254 444 C239 463 217 473 188 473 L188 473 Z M198 168 C194 142 183 121 166 105 C149 90 130 82 108 82 C87 82 71 90 61 105 C50 121 47 142 51 168 L87 358 C92 384 102 405 119 420 C135 436 155 444 176 444 C198 444 213 436 224 420 C235 405 239 384 234 358 L198 168 L198 168 Z " />
<glyph glyph-name="ydieresis" unicode="&#xff;" horiz-adv-x="254" d="M89 -12 C72 -49 57 -75 44 -87 C32 -100 17 -106 0 -106 C-5 -106 -12 -106 -12 -106 L-18 -136 L-2 -136 C18 -136 37 -127 55 -108 C73 -90 91 -58 112 -13 L288 405 L260 405 L112 44 L98 405 L64 405 L89 -12 Z M134 531 C132 517 141 504 157 504 C171 504 188 516 190 531 C193 545 183 560 168 560 C153 560 138 547 134 531 L134 531 Z M245 531 C243 517 253 504 269 504 C283 504 300 516 302 531 C305 545 295 560 280 560 C266 560 248 547 245 531 L245 531 Z " />
<glyph glyph-name="Abreve" unicode="&#x102;" horiz-adv-x="300" d="M220 560 L185 560 L-34 0 L-2 0 L60 159 L197 159 L199 0 L228 0 L220 560 Z M192 496 L196 186 L70 186 L192 496 Z M140 729 L132 688 C127 661 130 640 143 624 C155 608 174 601 199 601 C224 601 247 609 266 625 C284 641 296 663 301 689 L309 729 L279 729 L271 689 C267 670 260 656 249 645 C238 634 223 628 205 628 C188 628 175 634 168 645 C161 656 158 670 162 689 L170 729 L140 729 Z " />
<glyph glyph-name="abreve" unicode="&#x103;" horiz-adv-x="282" d="M8 107 C2 73 7 46 22 24 C37 3 59 -8 89 -8 C126 -8 166 12 189 73 L176 0 L205 0 L260 304 C266 337 261 363 246 383 C230 403 208 413 179 413 C150 413 124 403 101 382 C79 362 64 335 58 303 L89 302 C93 327 103 347 119 361 C135 376 153 383 173 383 C194 383 208 376 219 361 C229 347 232 327 228 302 L209 201 C195 230 170 244 136 244 C107 244 80 233 57 211 C33 189 18 161 12 127 L8 107 Z M44 126 C48 152 59 174 76 190 C93 206 114 214 136 214 C158 214 175 206 186 190 C197 174 200 152 196 126 L193 110 C188 83 177 62 160 46 C143 30 123 22 101 22 C79 22 61 30 50 46 C39 62 36 83 41 110 L44 126 Z M98 568 L90 527 C85 500 88 479 101 463 C113 447 132 440 157 440 C182 440 205 448 224 464 C242 480 254 502 259 528 L267 568 L237 568 L229 528 C225 509 218 495 207 484 C196 473 181 467 163 467 C146 467 133 473 126 484 C119 495 116 509 120 528 L128 568 L98 568 Z " />
<glyph glyph-name="Aogonek" unicode="&#x104;" horiz-adv-x="300" d="M220 560 L185 560 L-34 0 L-2 0 L60 159 L197 159 L199 0 L228 0 L220 560 Z M192 496 L196 186 L70 186 L192 496 Z M217 19 L206 11 C198 6 190 -2 181 -15 C171 -28 166 -42 164 -57 C159 -82 165 -104 182 -120 C198 -137 220 -145 248 -145 C261 -145 272 -144 277 -141 L282 -115 L252 -118 C232 -118 216 -112 205 -100 C194 -89 191 -74 194 -55 C199 -27 210 -8 227 2 L217 19 Z " />
<glyph glyph-name="aogonek" unicode="&#x105;" horiz-adv-x="282" d="M8 107 C2 73 7 46 22 24 C37 3 59 -8 89 -8 C126 -8 166 12 189 73 L176 0 L205 0 L260 304 C266 337 261 363 246 383 C230 403 208 413 179 413 C150 413 124 403 101 382 C79 362 64 335 58 303 L89 302 C93 327 103 347 119 361 C135 376 153 383 173 383 C194 383 208 376 219 361 C229 347 232 327 228 302 L209 201 C195 230 170 244 136 244 C107 244 80 233 57 211 C33 189 18 161 12 127 L8 107 Z M44 126 C48 152 59 174 76 190 C93 206 114 214 136 214 C158 214 175 206 186 190 C197 174 200 152 196 126 L193 110 C188 83 177 62 160 46 C143 30 123 22 101 22 C79 22 61 30 50 46 C39 62 36 83 41 110 L44 126 Z M194 23 L183 15 C175 10 167 2 158 -11 C148 -24 143 -38 141 -53 C136 -78 142 -100 159 -116 C175 -133 197 -141 225 -141 C238 -141 249 -140 254 -137 L259 -111 L229 -114 C209 -114 193 -108 182 -96 C171 -85 168 -70 171 -51 C176 -23 187 -4 204 6 L194 23 Z " />
<glyph glyph-name="Cacute" unicode="&#x106;" horiz-adv-x="302" d="M260 388 L292 388 L302 443 C309 481 304 511 287 534 C269 556 243 568 210 568 C177 568 147 556 121 534 C94 511 77 481 70 443 L9 117 C2 79 7 49 24 26 C42 4 68 -8 101 -8 C134 -8 164 4 190 26 C217 49 234 79 241 117 L251 172 L219 172 L209 118 C203 88 191 64 172 47 C151 27 130 22 107 22 C84 21 62 31 50 47 C38 64 35 88 41 118 L102 442 C108 472 120 496 139 513 C140 514 168 538 204 538 C243 538 260 514 261 513 C272 496 276 472 270 442 L260 388 Z M208 607 L289 735 L262 735 L180 607 L208 607 Z " />
<glyph glyph-name="cacute" unicode="&#x107;" horiz-adv-x="283" d="M193 104 C189 79 178 59 162 44 C145 29 127 22 107 22 C86 22 71 29 61 44 C51 59 48 79 52 104 L90 301 C95 326 105 346 121 361 C139 376 156 383 177 383 C197 383 213 376 222 361 C232 346 236 326 231 301 L223 261 L253 261 L261 303 C267 336 263 362 249 383 C234 403 212 413 183 413 C155 413 128 403 104 382 C79 361 64 334 58 302 L20 102 C14 69 19 43 33 23 C49 2 71 -8 100 -8 C129 -8 155 3 178 23 C203 44 217 71 223 103 L231 148 L201 148 L193 104 Z M208 440 L289 568 L262 568 L180 440 L208 440 Z " />
<glyph glyph-name="Ccaron" unicode="&#x10c;" horiz-adv-x="302" d="M260 388 L292 388 L302 443 C309 481 304 511 287 534 C269 556 243 568 210 568 C177 568 147 556 121 534 C94 511 77 481 70 443 L9 117 C2 79 7 49 24 26 C42 4 68 -8 101 -8 C134 -8 164 4 190 26 C217 49 234 79 241 117 L251 172 L219 172 L209 118 C203 88 191 64 172 47 C151 27 130 22 107 22 C84 21 62 31 50 47 C38 64 35 88 41 118 L102 442 C108 472 120 496 139 513 C140 514 168 538 204 538 C243 538 260 514 261 513 C272 496 276 472 270 442 L260 388 Z M314 738 L235 637 L197 733 L167 738 L214 610 L248 610 L342 735 L314 738 Z " />
<glyph glyph-name="ccaron" unicode="&#x10d;" horiz-adv-x="283" d="M193 104 C189 79 178 59 162 44 C145 29 127 22 107 22 C86 22 71 29 61 44 C51 59 48 79 52 104 L90 301 C95 326 105 346 121 361 C139 376 156 383 177 383 C197 383 213 376 222 361 C232 346 236 326 231 301 L223 261 L253 261 L261 303 C267 336 263 362 249 383 C234 403 212 413 183 413 C155 413 128 403 104 382 C79 361 64 334 58 302 L20 102 C14 69 19 43 33 23 C49 2 71 -8 100 -8 C129 -8 155 3 178 23 C203 44 217 71 223 103 L231 148 L201 148 L193 104 Z M282 599 L203 498 L165 594 L135 599 L182 471 L216 471 L310 596 L282 599 Z " />
<glyph glyph-name="Dcaron" unicode="&#x10e;" horiz-adv-x="308" d="M-12 0 L91 0 C128 0 161 12 188 36 C215 59 233 92 240 133 L295 429 C303 470 298 502 280 525 C261 548 235 560 197 560 L92 560 L-12 0 Z M119 532 L190 532 C219 532 240 523 253 505 C266 487 269 462 263 428 L208 132 C202 98 189 73 170 55 C149 37 126 28 97 28 L26 28 L119 532 Z M288 736 L209 635 L171 731 L141 736 L188 608 L222 608 L316 733 L288 736 Z " />
<glyph glyph-name="dcroat" unicode="&#x111;" horiz-adv-x="321" d="M303 560 L271 560 L260 500 L176 500 L171 473 L255 473 L237 373 C223 400 199 413 165 413 C136 413 110 403 87 383 C65 363 51 337 45 305 L7 99 C1 67 5 42 20 22 C35 2 56 -8 85 -8 C122 -8 153 8 176 38 L171 0 L199 0 L287 473 L351 473 L356 500 L292 500 L303 560 L303 560 Z M187 108 C182 82 172 61 155 45 C138 30 119 22 97 22 C76 22 60 30 50 45 C39 61 35 82 40 108 L76 298 C80 324 91 345 108 361 C124 376 144 384 165 384 C187 384 202 376 213 361 C224 345 227 324 223 298 L187 108 L187 108 Z " />
<glyph glyph-name="Edotaccent" unicode="&#x116;" horiz-adv-x="256" d="M176 0 L182 28 L25 28 L72 281 L201 281 L206 307 L77 307 L118 532 L271 532 L277 560 L92 560 L-12 0 L176 0 Z M168 739 C166 725 177 712 192 712 C206 712 222 722 224 739 C227 753 217 768 201 768 C187 768 171 754 168 739 L168 739 Z " />
<glyph glyph-name="edotaccent" unicode="&#x117;" horiz-adv-x="289" d="M251 213 L266 300 C273 334 268 362 252 382 C237 403 214 413 184 413 C154 413 126 402 102 381 C78 360 63 332 57 299 L22 105 C16 71 20 44 36 23 C52 3 75 -8 105 -8 C135 -8 162 3 186 24 C210 45 225 72 231 107 L234 124 L204 124 L201 107 C196 81 186 60 169 45 C152 29 134 22 112 22 C91 22 74 29 63 45 C52 60 49 81 54 107 L74 213 L251 213 Z M89 298 C94 324 104 345 120 360 C137 376 157 383 178 383 C200 383 215 376 226 360 C238 345 241 324 236 298 L225 239 L78 239 L89 298 Z M184 539 C182 525 193 512 208 512 C222 512 238 522 240 539 C243 553 233 568 217 568 C203 568 187 554 184 539 L184 539 Z " />
<glyph glyph-name="Eogonek" unicode="&#x118;" horiz-adv-x="256" d="M176 0 L182 28 L25 28 L72 281 L201 281 L206 307 L77 307 L118 532 L271 532 L277 560 L92 560 L-12 0 L176 0 Z M169 17 L158 9 C150 4 142 -4 133 -17 C123 -30 118 -44 116 -59 C111 -84 117 -106 134 -122 C150 -139 172 -147 200 -147 C213 -147 224 -146 229 -143 L234 -117 L204 -120 C184 -120 168 -114 157 -102 C146 -91 143 -76 146 -57 C151 -29 162 -10 179 0 L169 17 Z " />
<glyph glyph-name="eogonek" unicode="&#x119;" horiz-adv-x="289" d="M251 213 L266 300 C273 334 268 362 252 382 C237 403 214 413 184 413 C154 413 126 402 102 381 C78 360 63 332 57 299 L22 105 C16 71 20 44 36 23 C52 3 75 -8 105 -8 C135 -8 162 3 186 24 C210 45 225 72 231 107 L234 124 L204 124 L201 107 C196 81 186 60 169 45 C152 29 134 22 112 22 C91 22 74 29 63 45 C52 60 49 81 54 107 L74 213 L251 213 Z M89 298 C94 324 104 345 120 360 C137 376 157 383 178 383 C200 383 215 376 226 360 C238 345 241 324 236 298 L225 239 L78 239 L89 298 Z M142 17 L131 9 C123 4 115 -4 106 -17 C96 -30 91 -44 89 -59 C84 -84 90 -106 107 -122 C123 -139 145 -147 173 -147 C186 -147 197 -146 202 -143 L207 -117 L177 -120 C157 -120 141 -114 130 -102 C119 -91 116 -76 119 -57 C124 -29 135 -10 152 0 L142 17 Z " />
<glyph glyph-name="Ecaron" unicode="&#x11a;" horiz-adv-x="256" d="M176 0 L182 28 L25 28 L72 281 L201 281 L206 307 L77 307 L118 532 L271 532 L277 560 L92 560 L-12 0 L176 0 Z M269 733 L190 632 L152 728 L122 733 L169 605 L203 605 L297 730 L269 733 Z " />
<glyph glyph-name="ecaron" unicode="&#x11b;" horiz-adv-x="289" d="M251 213 L266 300 C273 334 268 362 252 382 C237 403 214 413 184 413 C154 413 126 402 102 381 C78 360 63 332 57 299 L22 105 C16 71 20 44 36 23 C52 3 75 -8 105 -8 C135 -8 162 3 186 24 C210 45 225 72 231 107 L234 124 L204 124 L201 107 C196 81 186 60 169 45 C152 29 134 22 112 22 C91 22 74 29 63 45 C52 60 49 81 54 107 L74 213 L251 213 Z M89 298 C94 324 104 345 120 360 C137 376 157 383 178 383 C200 383 215 376 226 360 C238 345 241 324 236 298 L225 239 L78 239 L89 298 Z M283 585 L204 484 L166 580 L136 585 L183 457 L217 457 L311 582 L283 585 Z " />
<glyph glyph-name="Itilde" unicode="&#x128;" horiz-adv-x="114" d="M-11 0 L22 0 L125 560 L91 560 L-11 0 Z M14 627 L17 641 C20 650 24 660 33 670 C42 679 52 684 64 684 C76 684 86 681 96 674 C106 667 114 659 120 651 C126 643 136 636 148 629 C160 622 172 618 187 618 C201 618 214 622 225 628 C236 634 244 642 251 649 C257 657 263 666 266 676 C271 686 274 693 275 697 C276 701 276 704 276 706 L246 706 L242 692 C240 683 235 673 226 663 C218 654 208 649 196 649 C184 649 173 652 163 659 C154 666 146 674 139 682 C133 690 124 697 112 704 C100 711 87 715 73 715 C59 715 46 711 35 705 C23 699 15 691 9 684 C2 676 -2 667 -7 657 C-12 647 -14 640 -15 636 C-16 632 -17 629 -17 627 L14 627 Z " />
<glyph glyph-name="Iogonek" unicode="&#x12e;" horiz-adv-x="114" d="M-11 0 L22 0 L125 560 L91 560 L-11 0 Z M11 22 L0 14 C-8 9 -16 1 -25 -12 C-35 -25 -40 -39 -42 -54 C-47 -79 -41 -101 -24 -117 C-8 -134 14 -142 42 -142 C55 -142 66 -141 71 -138 L76 -112 L46 -115 C26 -115 10 -109 -1 -97 C-12 -86 -15 -71 -12 -52 C-7 -24 4 -5 21 5 L11 22 Z " />
<glyph glyph-name="iogonek" unicode="&#x12f;" horiz-adv-x="114" d="M74 524 C71 509 80 496 97 496 C112 496 127 508 130 524 C132 538 126 552 107 552 C90 552 77 539 74 524 L74 524 Z M-10 0 L23 0 L97 405 L63 405 L-10 0 Z M12 17 L1 9 C-7 4 -15 -4 -24 -17 C-34 -30 -39 -44 -41 -59 C-46 -84 -40 -106 -23 -122 C-7 -139 15 -147 43 -147 C56 -147 67 -146 72 -143 L77 -117 L47 -120 C27 -120 11 -114 0 -102 C-11 -91 -14 -76 -11 -57 C-6 -29 5 -10 22 0 L12 17 Z " />
<glyph glyph-name="Lacute" unicode="&#x139;" horiz-adv-x="222" d="M160 0 L165 28 L25 28 L123 560 L91 560 L-11 0 L160 0 Z M149 603 L230 731 L203 731 L121 603 L149 603 Z " />
<glyph glyph-name="lacute" unicode="&#x13a;" horiz-adv-x="113" d="M-10 0 L22 0 L123 560 L90 560 L-10 0 Z M124 568 L205 696 L178 696 L96 568 L124 568 Z " />
<glyph glyph-name="Lcaron" unicode="&#x13d;" horiz-adv-x="222" d="M160 0 L165 28 L25 28 L123 560 L91 560 L-11 0 L160 0 L160 0 Z " />
<glyph glyph-name="Lslash" unicode="&#x141;" horiz-adv-x="312" d="M229 0 L235 29 L96 29 L140 273 L264 296 L270 324 L145 301 L193 561 L161 561 L112 295 L37 281 L32 253 L107 267 L58 0 L229 0 L229 0 Z " />
<glyph glyph-name="lslash" unicode="&#x142;" horiz-adv-x="246" d="M47 0 L81 0 L131 269 L206 281 L211 308 L136 296 L186 561 L152 561 L102 291 L36 281 L30 253 L96 263 L47 0 L47 0 Z " />
<glyph glyph-name="Nacute" unicode="&#x143;" horiz-adv-x="316" d="M192 0 L223 0 L328 560 L297 560 L207 80 L124 560 L92 560 L-12 0 L17 0 L108 485 L192 0 Z M225 621 L306 749 L279 749 L197 621 L225 621 Z " />
<glyph glyph-name="nacute" unicode="&#x144;" horiz-adv-x="288" d="M210 0 L266 307 C271 339 267 364 253 384 C239 403 218 413 191 413 C153 413 109 380 92 336 L104 405 L75 405 L2 0 L34 0 L88 299 C93 325 104 346 120 361 C138 376 157 383 178 383 C199 383 215 376 224 361 C235 347 237 326 232 299 L178 0 L210 0 Z M211 440 L292 568 L265 568 L183 440 L211 440 Z " />
<glyph glyph-name="Ncaron" unicode="&#x147;" horiz-adv-x="316" d="M192 0 L223 0 L328 560 L297 560 L207 80 L124 560 L92 560 L-12 0 L17 0 L108 485 L192 0 Z M299 727 L220 626 L182 722 L152 727 L199 599 L233 599 L327 724 L299 727 Z " />
<glyph glyph-name="ncaron" unicode="&#x148;" horiz-adv-x="288" d="M210 0 L266 307 C271 339 267 364 253 384 C239 403 218 413 191 413 C153 413 109 380 92 336 L104 405 L75 405 L2 0 L34 0 L88 299 C93 325 104 346 120 361 C138 376 157 383 178 383 C199 383 215 376 224 361 C235 347 237 326 232 299 L178 0 L210 0 Z M283 589 L204 488 L166 584 L136 589 L183 461 L217 461 L311 586 L283 589 Z " />
<glyph glyph-name="Ohungarumlaut" unicode="&#x150;" horiz-adv-x="312" d="M10 115 C3 78 9 48 26 26 C44 3 69 -8 103 -8 C137 -8 166 3 193 26 C219 49 235 79 242 117 L301 445 C308 482 302 512 284 534 C267 557 241 568 208 568 C174 568 144 557 118 534 C92 511 76 481 69 443 L10 115 Z M101 442 C106 472 118 496 136 513 C155 530 177 538 202 538 C227 538 246 530 258 513 C270 496 274 472 269 442 L210 118 C205 88 193 64 175 47 C156 30 134 22 109 22 C84 22 65 30 53 47 C41 64 37 88 42 118 L101 442 Z M177 605 L242 733 L214 733 L149 605 L177 605 Z M281 605 L346 733 L318 733 L253 605 L281 605 Z " />
<glyph glyph-name="ohungarumlaut" unicode="&#x151;" horiz-adv-x="291" d="M22 105 C16 71 20 44 36 23 C52 3 75 -8 105 -8 C136 -8 163 3 187 24 C212 46 227 73 233 107 L268 300 C275 334 270 361 253 382 C237 403 214 413 184 413 C154 413 126 402 102 381 C78 360 63 332 57 299 L22 105 Z M89 298 C94 324 104 345 120 360 C137 376 157 383 178 383 C200 383 215 376 226 360 C238 345 241 324 236 298 L201 107 C196 81 186 60 169 45 C152 29 134 22 112 22 C91 22 74 29 63 45 C52 60 49 81 54 107 L89 298 Z M139 440 L204 568 L176 568 L111 440 L139 440 Z M243 440 L308 568 L280 568 L215 440 L243 440 Z " />
<glyph glyph-name="OE" unicode="&#x152;" horiz-adv-x="436" d="M372 0 L378 29 L222 29 L268 281 L396 281 L401 308 L273 308 L314 533 L466 533 L471 560 L216 560 C179 560 147 549 119 525 C92 501 74 469 67 428 L12 132 C5 91 11 59 29 35 C46 12 74 0 112 0 L372 0 Z M190 29 L118 29 C90 29 69 37 55 55 C43 73 38 99 44 132 L99 428 C105 462 119 488 138 506 C158 524 182 533 210 533 L282 533 L190 29 Z " />
<glyph glyph-name="oe" unicode="&#x153;" horiz-adv-x="469" d="M21 105 C15 72 20 45 36 24 C52 3 75 -8 105 -8 C147 -8 181 11 206 48 C217 11 242 -8 285 -8 C314 -8 341 3 365 24 C389 45 405 73 411 107 L414 124 L384 124 L381 108 C376 82 365 61 348 45 C332 30 313 22 291 22 C270 22 254 30 243 45 C232 61 229 82 234 108 L254 213 L431 213 L447 301 C453 335 449 362 433 382 C418 403 395 413 365 413 C322 413 288 395 264 357 C254 395 228 413 186 413 C156 413 128 403 104 381 C80 360 64 333 58 299 L21 105 Z M89 298 C94 324 105 345 122 360 C139 376 158 384 179 384 C200 384 217 376 228 360 C239 345 242 324 237 298 L202 108 C197 82 186 61 169 45 C153 30 133 22 112 22 C91 22 75 30 63 45 C52 61 49 82 54 108 L89 298 Z M269 298 C274 324 285 345 302 360 C318 376 337 384 358 384 C380 384 396 376 407 360 C418 345 421 324 416 298 L406 240 L259 240 L269 298 Z " />
<glyph glyph-name="Racute" unicode="&#x154;" horiz-adv-x="294" d="M251 299 C268 320 280 347 285 378 L295 429 C302 470 297 502 278 525 C261 548 233 560 196 560 L91 560 L-11 0 L20 0 L65 245 L136 245 C140 245 157 244 157 244 C175 241 189 232 199 220 C210 204 214 182 208 153 C208 153 208 153 208 152 L180 0 L210 0 L239 155 C245 191 241 220 225 242 C219 249 211 256 204 261 C222 270 237 283 251 299 L251 299 Z M164 273 C157 272 150 271 142 271 L70 271 L118 532 L190 532 C218 532 238 523 252 505 C265 487 269 462 263 428 L253 375 C247 342 234 316 214 298 C199 285 183 277 164 273 L164 273 Z M207 617 L288 745 L261 745 L179 617 L207 617 Z " />
<glyph glyph-name="racute" unicode="&#x155;" horiz-adv-x="183" d="M207 413 C161 413 111 382 93 336 L105 405 L75 405 L2 0 L34 0 L84 275 C90 311 103 337 124 356 C143 374 167 383 194 383 L201 383 L207 413 Z M158 440 L239 568 L212 568 L130 440 L158 440 Z " />
<glyph glyph-name="Rcaron" unicode="&#x158;" horiz-adv-x="294" d="M251 299 C268 320 280 347 285 378 L295 429 C302 470 297 502 278 525 C261 548 233 560 196 560 L91 560 L-11 0 L20 0 L65 245 L136 245 C140 245 157 244 157 244 C175 241 189 232 199 220 C210 204 214 182 208 153 C208 153 208 153 208 152 L180 0 L210 0 L239 155 C245 191 241 220 225 242 C219 249 211 256 204 261 C222 270 237 283 251 299 L251 299 Z M164 273 C157 272 150 271 142 271 L70 271 L118 532 L190 532 C218 532 238 523 252 505 C265 487 269 462 263 428 L253 375 C247 342 234 316 214 298 C199 285 183 277 164 273 L164 273 Z M300 732 L221 631 L183 727 L153 732 L200 604 L234 604 L328 729 L300 732 Z " />
<glyph glyph-name="rcaron" unicode="&#x159;" horiz-adv-x="183" d="M207 413 C161 413 111 382 93 336 L105 405 L75 405 L2 0 L34 0 L84 275 C90 311 103 337 124 356 C143 374 167 383 194 383 L201 383 L207 413 Z M236 598 L157 497 L119 593 L89 598 L136 470 L170 470 L264 595 L236 598 Z " />
<glyph glyph-name="Sacute" unicode="&#x15a;" horiz-adv-x="278" d="M91 450 C96 478 108 499 125 515 C143 530 163 538 187 538 C211 538 229 530 241 514 C253 498 256 475 250 446 L246 424 L277 424 L282 449 C289 485 283 514 267 536 C251 557 226 568 194 568 C161 568 133 557 107 536 C82 515 66 486 59 451 C49 397 70 342 121 285 C150 254 169 225 180 199 C192 173 194 145 189 114 C183 85 171 62 153 46 C134 30 113 22 88 22 C63 22 44 30 31 47 C19 64 16 88 21 118 L27 148 L-2 148 L-8 115 C-15 78 -11 48 5 26 C22 3 48 -8 81 -8 C115 -8 145 3 171 25 C197 47 214 76 220 113 C227 149 224 182 212 213 C200 243 179 275 149 308 C126 334 109 357 99 379 C89 401 86 425 91 450 L91 450 Z M206 640 L287 768 L260 768 L178 640 L206 640 Z " />
<glyph glyph-name="sacute" unicode="&#x15b;" horiz-adv-x="262" d="M190 99 C186 75 175 56 160 43 C143 29 124 22 103 22 C81 22 65 29 54 43 C42 56 39 75 43 99 L45 108 L15 108 L13 97 C8 66 11 40 28 21 C44 2 67 -8 97 -8 C127 -8 155 2 178 22 C202 42 216 67 222 99 C227 127 224 151 211 171 C199 191 178 209 148 225 C125 237 108 250 98 264 C90 278 87 295 91 314 C94 334 104 351 120 364 C135 377 153 383 173 383 C192 383 208 377 219 364 C230 351 233 334 230 314 L228 305 L259 305 L261 316 C266 344 261 368 246 386 C230 404 208 413 179 413 C151 413 124 404 102 385 C78 366 64 343 59 315 C50 266 72 227 125 199 C152 185 171 170 181 154 C192 139 194 120 190 99 L190 99 Z M198 440 L279 568 L252 568 L170 440 L198 440 Z " />
<glyph glyph-name="Scedilla" unicode="&#x15e;" horiz-adv-x="278" d="M91 450 C96 478 108 499 125 515 C143 530 163 538 187 538 C211 538 229 530 241 514 C253 498 256 475 250 446 L246 424 L277 424 L282 449 C289 485 283 514 267 536 C251 557 226 568 194 568 C161 568 133 557 107 536 C82 515 66 486 59 451 C49 397 70 342 121 285 C150 254 169 225 180 199 C192 173 194 145 189 114 C183 85 171 62 153 46 C134 30 113 22 88 22 C63 22 44 30 31 47 C19 64 16 88 21 118 L27 148 L-2 148 L-8 115 C-15 78 -11 48 5 26 C22 3 48 -8 81 -8 C115 -8 145 3 171 25 C197 47 214 76 220 113 C227 149 224 182 212 213 C200 243 179 275 149 308 C126 334 109 357 99 379 C89 401 86 425 91 450 L91 450 Z M54 -2 L63 -8 C70 -12 75 -20 80 -32 C85 -44 85 -57 83 -71 C80 -89 72 -104 59 -114 C46 -124 31 -130 14 -130 C-2 -130 -13 -128 -19 -124 L-24 -152 L-19 -153 C-17 -155 -13 -156 -7 -156 C-1 -157 5 -157 11 -157 C35 -157 56 -150 77 -136 C97 -122 109 -101 115 -73 C117 -62 117 -51 114 -41 C112 -31 110 -23 106 -17 C102 -12 97 -6 90 -2 C85 3 82 6 79 8 C78 9 76 10 74 11 L54 -2 Z " />
<glyph glyph-name="Scaron" unicode="&#x160;" horiz-adv-x="278" d="M91 450 C96 478 108 499 125 515 C143 530 163 538 187 538 C211 538 229 530 241 514 C253 498 256 475 250 446 L246 424 L277 424 L282 449 C289 485 283 514 267 536 C251 557 226 568 194 568 C161 568 133 557 107 536 C82 515 66 486 59 451 C49 397 70 342 121 285 C150 254 169 225 180 199 C192 173 194 145 189 114 C183 85 171 62 153 46 C134 30 113 22 88 22 C63 22 44 30 31 47 C19 64 16 88 21 118 L27 148 L-2 148 L-8 115 C-15 78 -11 48 5 26 C22 3 48 -8 81 -8 C115 -8 145 3 171 25 C197 47 214 76 220 113 C227 149 224 182 212 213 C200 243 179 275 149 308 C126 334 109 357 99 379 C89 401 86 425 91 450 L91 450 Z M280 726 L201 625 L163 721 L133 726 L180 598 L214 598 L308 723 L280 726 Z " />
<glyph glyph-name="scaron" unicode="&#x161;" horiz-adv-x="262" d="M190 99 C186 75 175 56 160 43 C143 29 124 22 103 22 C81 22 65 29 54 43 C42 56 39 75 43 99 L45 108 L15 108 L13 97 C8 66 11 40 28 21 C44 2 67 -8 97 -8 C127 -8 155 2 178 22 C202 42 216 67 222 99 C227 127 224 151 211 171 C199 191 178 209 148 225 C125 237 108 250 98 264 C90 278 87 295 91 314 C94 334 104 351 120 364 C135 377 153 383 173 383 C192 383 208 377 219 364 C230 351 233 334 230 314 L228 305 L259 305 L261 316 C266 344 261 368 246 386 C230 404 208 413 179 413 C151 413 124 404 102 385 C78 366 64 343 59 315 C50 266 72 227 125 199 C152 185 171 170 181 154 C192 139 194 120 190 99 L190 99 Z M274 574 L195 473 L157 569 L127 574 L174 446 L208 446 L302 571 L274 574 Z " />
<glyph glyph-name="Tcaron" unicode="&#x164;" horiz-adv-x="272" d="M302 532 L307 560 L67 560 L62 532 L166 532 L68 0 L100 0 L198 532 L302 532 Z M298 729 L219 628 L181 724 L151 729 L198 601 L232 601 L326 726 L298 729 Z " />
<glyph glyph-name="utilde" unicode="&#x169;" horiz-adv-x="288" d="M77 405 L21 99 C16 67 20 41 34 21 C48 2 69 -8 96 -8 C134 -8 178 25 195 69 L182 0 L211 0 L285 405 L253 405 L199 106 C194 80 183 59 166 44 C149 29 129 22 108 22 C87 22 72 29 62 44 C52 58 50 79 55 106 L109 405 L77 405 Z M101 480 L104 494 C107 503 111 513 120 523 C129 532 139 537 151 537 C163 537 173 534 183 527 C193 520 201 512 207 504 C213 496 223 489 235 482 C247 475 259 471 274 471 C288 471 301 475 312 481 C323 487 331 495 338 502 C344 510 350 519 353 529 C358 539 361 546 362 550 C363 554 363 557 363 559 L333 559 L329 545 C327 536 322 526 313 516 C305 507 295 502 283 502 C271 502 260 505 250 512 C241 519 233 527 226 535 C220 543 211 550 199 557 C187 564 174 568 160 568 C146 568 133 564 122 558 C110 552 102 544 96 537 C89 529 85 520 80 510 C75 500 73 493 72 489 C71 485 70 482 70 480 L101 480 Z " />
<glyph glyph-name="Uring" unicode="&#x16e;" horiz-adv-x="304" d="M284 560 L203 114 C198 85 186 62 168 46 C150 30 130 22 106 22 C82 22 64 30 52 46 C40 62 38 85 43 114 L124 560 L91 560 L9 111 C3 75 8 46 24 24 C42 3 67 -8 99 -8 C132 -8 161 3 186 25 C211 47 227 76 234 113 L315 560 L284 560 Z M162 625 C173 612 189 605 209 605 C230 605 248 612 263 625 C279 637 289 654 293 674 C296 693 292 710 282 722 C271 735 256 742 235 742 C215 742 196 735 181 722 C165 710 155 693 152 674 C148 654 152 637 162 625 L162 625 Z M198 703 C208 711 218 715 229 715 C241 715 251 711 257 703 C263 696 265 686 263 674 C260 661 254 651 246 644 C237 636 226 632 214 632 C203 632 194 636 187 644 C180 651 179 661 182 674 C184 686 189 696 198 703 L198 703 Z " />
<glyph glyph-name="uring" unicode="&#x16f;" horiz-adv-x="288" d="M77 405 L21 99 C16 67 20 41 34 21 C48 2 69 -8 96 -8 C134 -8 178 25 195 69 L182 0 L211 0 L285 405 L253 405 L199 106 C194 80 183 59 166 44 C149 29 129 22 108 22 C87 22 72 29 62 44 C52 58 50 79 55 106 L109 405 L77 405 Z M154 425 C165 412 181 405 201 405 C222 405 240 412 255 425 C271 437 281 454 285 474 C288 493 284 510 274 522 C263 535 248 542 227 542 C207 542 188 535 173 522 C157 510 147 493 144 474 C140 454 144 437 154 425 L154 425 Z M190 503 C200 511 210 515 221 515 C233 515 243 511 249 503 C255 496 257 486 255 474 C252 461 246 451 238 444 C229 436 218 432 206 432 C195 432 186 436 179 444 C172 451 171 461 174 474 C176 486 181 496 190 503 L190 503 Z " />
<glyph glyph-name="Uhungarumlaut" unicode="&#x170;" horiz-adv-x="304" d="M284 560 L203 114 C198 85 186 62 168 46 C150 30 130 22 106 22 C82 22 64 30 52 46 C40 62 38 85 43 114 L124 560 L91 560 L9 111 C3 75 8 46 24 24 C42 3 67 -8 99 -8 C132 -8 161 3 186 25 C211 47 227 76 234 113 L315 560 L284 560 L284 560 Z " />
<glyph glyph-name="uhungarumlaut" unicode="&#x171;" horiz-adv-x="288" d="M77 405 L21 99 C16 67 20 41 34 21 C48 2 69 -8 96 -8 C134 -8 178 25 195 69 L182 0 L211 0 L285 405 L253 405 L199 106 C194 80 183 59 166 44 C149 29 129 22 108 22 C87 22 72 29 62 44 C52 58 50 79 55 106 L109 405 L77 405 Z M138 440 L203 568 L175 568 L110 440 L138 440 Z M242 440 L307 568 L279 568 L214 440 L242 440 Z " />
<glyph glyph-name="Uogonek" unicode="&#x172;" horiz-adv-x="304" d="M284 560 L203 114 C198 85 186 62 168 46 C150 30 130 22 106 22 C82 22 64 30 52 46 C40 62 38 85 43 114 L124 560 L91 560 L9 111 C3 75 8 46 24 24 C42 3 67 -8 99 -8 C132 -8 161 3 186 25 C211 47 227 76 234 113 L315 560 L284 560 Z M150 26 L139 18 C131 13 123 5 114 -8 C104 -21 99 -35 97 -50 C92 -75 98 -97 115 -113 C131 -130 153 -138 181 -138 C194 -138 205 -137 210 -134 L215 -108 L185 -111 C165 -111 149 -105 138 -93 C127 -82 124 -67 127 -48 C132 -20 143 -1 160 9 L150 26 Z " />
<glyph glyph-name="uogonek" unicode="&#x173;" horiz-adv-x="288" d="M77 405 L21 99 C16 67 20 41 34 21 C48 2 69 -8 96 -8 C134 -8 178 25 195 69 L182 0 L211 0 L285 405 L253 405 L199 106 C194 80 183 59 166 44 C149 29 129 22 108 22 C87 22 72 29 62 44 C52 58 50 79 55 106 L109 405 L77 405 Z M198 19 L187 11 C179 6 171 -2 162 -15 C152 -28 147 -42 145 -57 C140 -82 146 -104 163 -120 C179 -137 201 -145 229 -145 C242 -145 253 -144 258 -141 L263 -115 L233 -118 C213 -118 197 -112 186 -100 C175 -89 172 -74 175 -55 C180 -27 191 -8 208 2 L198 19 Z " />
<glyph glyph-name="Ydieresis" unicode="&#x178;" horiz-adv-x="267" d="M64 0 L96 0 L140 232 L311 560 L278 560 L130 269 L93 560 L59 560 L108 234 L64 0 Z M140 614 C138 600 147 587 163 587 C177 587 194 599 196 614 C199 628 189 643 174 643 C159 643 144 630 140 614 L140 614 Z M251 614 C249 600 259 587 275 587 C289 587 306 599 308 614 C311 628 301 643 286 643 C272 643 254 630 251 614 L251 614 Z " />
<glyph glyph-name="Zacute" unicode="&#x179;" horiz-adv-x="221" d="M153 0 L158 28 L-7 28 L250 540 L254 560 L66 560 L61 532 L215 532 L-42 20 L-46 0 L153 0 Z M177 640 L258 768 L231 768 L149 640 L177 640 Z " />
<glyph glyph-name="zacute" unicode="&#x17a;" horiz-adv-x="194" d="M-24 20 L-28 0 L147 0 L152 28 L9 28 L217 388 L220 405 L56 405 L51 377 L182 377 L-24 20 Z M164 440 L245 568 L218 568 L136 440 L164 440 Z " />
<glyph glyph-name="Zdotaccent" unicode="&#x17b;" horiz-adv-x="221" d="M153 0 L158 28 L-7 28 L250 540 L254 560 L66 560 L61 532 L215 532 L-42 20 L-46 0 L153 0 Z M138 679 C136 665 147 652 162 652 C176 652 192 662 194 679 C197 693 187 708 171 708 C157 708 141 694 138 679 L138 679 Z " />
<glyph glyph-name="zdotaccent" unicode="&#x17c;" horiz-adv-x="194" d="M-24 20 L-28 0 L147 0 L152 28 L9 28 L217 388 L220 405 L56 405 L51 377 L182 377 L-24 20 Z M137 539 C135 525 146 512 161 512 C175 512 191 522 193 539 C196 553 186 568 170 568 C156 568 140 554 137 539 L137 539 Z " />
<glyph glyph-name="Zcaron" unicode="&#x17d;" horiz-adv-x="221" d="M153 0 L158 28 L-7 28 L250 540 L254 560 L66 560 L61 532 L215 532 L-42 20 L-46 0 L153 0 Z M252 727 L173 626 L135 722 L105 727 L152 599 L186 599 L280 724 L252 727 Z " />
<glyph glyph-name="zcaron" unicode="&#x17e;" horiz-adv-x="194" d="M-24 20 L-28 0 L147 0 L152 28 L9 28 L217 388 L220 405 L56 405 L51 377 L182 377 L-24 20 Z M238 572 L159 471 L121 567 L91 572 L138 444 L172 444 L266 569 L238 572 Z " />
<glyph glyph-name="florin" unicode="&#x192;" horiz-adv-x="269" d="M46 -88 L143 266 L235 266 L240 292 L150 292 L196 463 C209 507 232 530 267 530 C280 530 295 530 295 530 L301 560 L275 560 C248 560 225 551 206 535 C188 518 174 494 166 464 L119 292 L39 292 L34 266 L111 266 L15 -88 L46 -88 L46 -88 Z " />
<glyph glyph-name="circumflex" unicode="&#x2c6;" horiz-adv-x="205" d="M93 432 L165 530 L208 432 L239 432 L188 560 L156 560 L63 432 L93 432 L93 432 Z " />
<glyph glyph-name="caron" unicode="&#x2c7;" horiz-adv-x="223" d="M262 696 L183 595 L145 691 L115 696 L162 568 L196 568 L290 693 L262 696 L262 696 Z " />
<glyph glyph-name="breve" unicode="&#x2d8;" horiz-adv-x="226" d="M70 568 L62 527 C57 500 60 479 73 463 C85 447 104 440 129 440 C154 440 177 448 196 464 C214 480 226 502 231 528 L239 568 L209 568 L201 528 C197 509 190 495 179 484 C168 473 153 467 135 467 C118 467 105 473 98 484 C91 495 88 509 92 528 L100 568 L70 568 L70 568 Z " />
<glyph glyph-name="dotaccent" unicode="&#x2d9;" horiz-adv-x="84" d="M83 539 C81 525 92 512 107 512 C121 512 137 522 139 539 C142 553 132 568 116 568 C102 568 86 554 83 539 L83 539 Z " />
<glyph glyph-name="ring" unicode="&#x2da;" horiz-adv-x="189" d="M105 425 C116 412 132 405 152 405 C173 405 191 412 206 425 C222 437 232 454 236 474 C239 493 235 510 225 522 C214 535 199 542 178 542 C158 542 139 535 124 522 C108 510 98 493 95 474 C91 454 95 437 105 425 L105 425 Z M141 503 C151 511 161 515 172 515 C184 515 194 511 200 503 C206 496 208 486 206 474 C203 461 197 451 189 444 C180 436 169 432 157 432 C146 432 137 436 130 444 C123 451 122 461 125 474 C127 486 132 496 141 503 L141 503 Z " />
<glyph glyph-name="ogonek" unicode="&#x2db;" horiz-adv-x="168" d="M86 17 L75 9 C67 4 59 -4 50 -17 C40 -30 35 -44 33 -59 C28 -84 34 -106 51 -122 C67 -139 89 -147 117 -147 C130 -147 141 -146 146 -143 L151 -117 L121 -120 C101 -120 85 -114 74 -102 C63 -91 60 -76 63 -57 C68 -29 79 -10 96 0 L86 17 L86 17 Z " />
<glyph glyph-name="tilde" unicode="&#x2dc;" horiz-adv-x="316" d="M116 480 L119 494 C122 503 126 513 135 523 C144 532 154 537 166 537 C178 537 188 534 198 527 C208 520 216 512 222 504 C228 496 238 489 250 482 C262 475 274 471 289 471 C303 471 316 475 327 481 C338 487 346 495 353 502 C359 510 365 519 368 529 C373 539 376 546 377 550 C378 554 378 557 378 559 L348 559 L344 545 C342 536 337 526 328 516 C320 507 310 502 298 502 C286 502 275 505 265 512 C256 519 248 527 241 535 C235 543 226 550 214 557 C202 564 189 568 175 568 C161 568 148 564 137 558 C125 552 117 544 111 537 C104 529 100 520 95 510 C90 500 88 493 87 489 C86 485 85 482 85 480 L116 480 L116 480 Z " />
<glyph glyph-name="hungarumlaut" unicode="&#x2dd;" horiz-adv-x="220" d="M102 440 L167 568 L139 568 L74 440 L102 440 Z M206 440 L271 568 L243 568 L178 440 L206 440 Z " />
<glyph glyph-name="endash" unicode="&#x2013;" horiz-adv-x="392" d="M349 273 L354 300 L42 300 L37 273 L349 273 L349 273 Z " />
<glyph glyph-name="emdash" unicode="&#x2014;" horiz-adv-x="448" d="M405 273 L410 300 L42 300 L37 273 L405 273 L405 273 Z " />
<glyph glyph-name="quoteleft" unicode="&#x2018;" horiz-adv-x="117" d="M23 393 L59 393 L93 560 L65 560 L23 393 Z " />
<glyph glyph-name="quoteright" unicode="&#x2019;" horiz-adv-x="107" d="M18 393 L46 393 L88 560 L52 560 L18 393 Z " />
<glyph glyph-name="quotedblleft" unicode="&#x201c;" horiz-adv-x="185" d="M13 393 L49 393 L83 560 L55 560 L13 393 L13 393 Z M101 393 L137 393 L171 560 L143 560 L101 393 L101 393 Z " />
<glyph glyph-name="quotedblright" unicode="&#x201d;" horiz-adv-x="188" d="M140 560 L105 393 L133 393 L176 560 L140 560 L140 560 Z M17 393 L45 393 L88 560 L52 560 L17 393 L17 393 Z " />
<glyph glyph-name="daggerdbl" unicode="&#x2021;" horiz-adv-x="281" d="M229 226 L234 254 L142 254 L165 377 L257 377 L262 405 L170 405 L188 504 L156 504 L138 405 L46 405 L41 377 L133 377 L110 254 L18 254 L13 226 L105 226 L87 128 L119 128 L137 226 L229 226 L229 226 Z " />
<glyph glyph-name="bullet" unicode="&#x2022;" horiz-adv-x="203" d="M34 345 C30 326 33 309 44 297 C54 284 69 277 88 277 C108 277 125 284 141 297 C156 310 166 326 170 345 C173 365 169 381 158 394 C149 407 133 413 114 413 C94 413 77 407 61 394 C46 381 37 364 34 345 L34 345 Z " />
<glyph glyph-name="ellipsis" unicode="&#x2026;" horiz-adv-x="315" d="M27 20 C24 6 32 -8 49 -8 C63 -8 80 4 83 20 C85 33 75 48 60 48 C46 48 29 36 27 20 L27 20 Z M132 20 C129 6 137 -8 154 -8 C168 -8 185 4 188 20 C190 33 180 48 165 48 C151 48 134 36 132 20 L132 20 Z M237 20 C234 6 242 -8 259 -8 C273 -8 290 4 293 20 C295 33 285 48 270 48 C256 48 239 36 237 20 L237 20 Z " />
<glyph glyph-name="perthousand" unicode="&#x2030;" horiz-adv-x="651" d="M532 178 C506 178 481 169 460 151 C439 133 426 111 421 85 C416 58 421 37 434 19 C449 1 469 -8 496 -8 C522 -8 547 2 569 20 C590 38 603 60 608 86 C613 112 608 134 594 152 C579 169 559 178 532 178 L532 178 Z M550 39 C536 27 520 20 503 20 C485 20 471 27 461 39 C451 52 447 67 451 85 C454 103 463 119 478 131 C493 144 509 150 527 150 C544 150 558 144 567 131 C578 119 581 103 578 85 C574 67 566 52 550 39 L550 39 Z M193 330 C215 348 228 370 233 396 C238 423 232 444 219 462 C204 480 184 489 157 489 C131 489 106 479 85 461 C63 443 50 421 45 395 C40 369 45 347 59 329 C74 312 94 303 121 303 C148 303 172 312 193 330 L193 330 Z M76 396 C79 414 89 429 103 442 C117 454 134 461 152 461 C169 461 182 454 192 442 C203 429 206 414 203 396 C199 378 190 362 175 350 C161 337 144 331 127 331 C109 331 96 337 86 350 C76 362 72 378 76 396 L76 396 Z M296 178 C270 178 245 169 224 151 C203 133 190 111 185 85 C180 58 185 37 198 19 C213 1 233 -8 260 -8 C286 -8 311 2 333 20 C354 38 367 60 372 86 C377 112 372 134 358 152 C343 169 323 178 296 178 L296 178 Z M314 39 C300 27 284 20 266 20 C249 20 235 27 225 39 C215 52 211 67 215 85 C218 103 227 119 242 131 C257 144 273 150 290 150 C308 150 322 144 331 131 C342 119 345 103 342 85 C338 67 330 52 314 39 L314 39 Z M385 480 L0 1 L32 1 L417 480 L385 480 L385 480 Z " />
<glyph glyph-name="guilsinglleft" unicode="&#x2039;" horiz-adv-x="243" d="M175 142 L198 161 L81 301 L248 440 L232 462 L41 310 L38 293 L175 142 L175 142 Z " />
<glyph glyph-name="guilsinglright" unicode="&#x203a;" horiz-adv-x="242" d="M-7 160 L9 141 L200 292 L203 309 L66 461 L42 439 L159 300 L-7 160 L-7 160 Z " />
<glyph glyph-name="Euro" unicode="&#x20ac;" horiz-adv-x="327" d="M237 108 C231 80 220 59 204 45 C188 29 169 22 147 22 C125 22 109 29 98 45 C86 59 84 80 90 108 L110 217 L246 217 L251 244 L115 244 L128 317 L267 317 L272 344 L133 344 L154 453 C159 480 169 502 185 516 C202 531 221 539 243 539 C265 539 281 531 291 516 C303 502 306 480 301 453 L294 417 L326 417 L333 456 C340 490 335 518 319 538 C303 558 280 568 249 568 C218 568 191 558 166 537 C143 516 128 489 122 454 L101 344 L36 344 L31 317 L96 317 L83 244 L18 244 L13 217 L78 217 L57 105 C51 71 54 43 71 23 C86 3 109 -7 140 -7 C171 -7 199 3 223 24 C247 45 262 72 268 107 L275 145 L243 145 L237 108 L237 108 Z " />
<glyph glyph-name="trademark" unicode="&#x2122;" horiz-adv-x="400" d="M182 534 L187 560 L52 560 L47 534 L99 534 L57 308 L88 308 L130 534 L182 534 Z M258 354 L272 355 L339 487 L306 308 L337 308 L384 560 L353 560 L277 409 L257 560 L225 560 L178 308 L208 308 L240 480 L258 354 Z " />
<glyph glyph-name="f_f" unicode="&#xfb00;" horiz-adv-x="354" d="M357 539 C367 539 384 539 384 539 L389 568 C389 568 362 568 356 568 C328 568 306 560 287 542 C268 525 256 499 250 465 L239 405 L94 405 L106 469 C115 516 139 539 177 539 C187 539 207 539 207 539 L212 568 C212 568 182 568 176 568 C150 568 128 560 111 543 C93 526 80 502 74 469 L-12 0 L19 0 L89 377 L234 377 L164 0 L196 0 L266 377 L354 377 L359 405 L271 405 L282 465 C291 514 316 539 357 539 L357 539 Z " />
<glyph glyph-name="fi" unicode="&#xfb01;" horiz-adv-x="306" d="M94 405 L106 469 C115 516 140 539 178 539 C188 539 208 539 208 539 L213 568 C213 568 183 568 177 568 C151 568 129 560 110 543 C93 526 81 502 74 469 L-13 0 L18 0 L89 377 L249 377 L178 0 L212 0 L283 377 L288 405 L254 405 L94 405 Z M299 553 C284 553 269 538 266 525 C263 510 275 496 289 496 C306 496 319 511 322 525 C325 541 313 553 299 553 L299 553 Z " />
<glyph glyph-name="fl" unicode="&#xfb02;" horiz-adv-x="306" d="M175 568 C149 568 128 560 110 543 C92 526 80 502 74 469 L-12 0 L19 0 L89 377 L177 377 L182 405 L94 405 L106 469 C115 516 138 539 177 539 C183 539 241 539 279 539 L179 0 L213 0 L313 539 L317 561 L318 568 C318 568 182 568 175 568 L175 568 Z " />
</font>
</svg>
