<?xml version="1.0" encoding="UTF-8"?>
<svg xmlns="http://www.w3.org/2000/svg" xmlns:xlink="http://www.w3.org/1999/xlink" version="1.2" >
<font id="Lostfield Condensed medium">
<font-face  font-family="Lostfield Condensed" units-per-em="1000" ascent="750" descent="-250" font-style="normal" font-weight="400" font-stretch="normal" cap-height="700" x-height="500" underline-position="-75" underline-thickness="50" />
<missing-glyph  horiz-adv-x="152" d="" />
<glyph glyph-name="NULL" d="" />
<glyph glyph-name="CR" unicode="&#xd;" horiz-adv-x="152" d="" />
<glyph glyph-name="space" unicode="&#x20;" horiz-adv-x="152" d="" />
<glyph glyph-name="exclam" unicode="&#x21;" horiz-adv-x="141" d="M37 74 C28 64 23 53 23 40 C23 26 28 15 37 6 C46 -4 58 -8 71 -8 C84 -8 96 -4 105 6 C114 15 119 26 119 40 C119 53 114 64 105 74 C96 83 84 88 71 88 C58 88 46 83 37 74 L37 74 Z M45 172 L96 172 L112 560 L29 560 L45 172 Z " />
<glyph glyph-name="quotedbl" unicode="&#x22;" horiz-adv-x="232" d="M72 360 L100 560 L20 560 L14 360 L72 360 Z M193 360 L221 560 L141 560 L136 360 L193 360 Z " />
<glyph glyph-name="numbersign" unicode="&#x23;" horiz-adv-x="318" d="M167 0 L217 0 L228 130 L286 130 L286 176 L232 176 L243 302 L298 302 L298 348 L247 348 L258 480 L208 480 L197 348 L129 348 L140 480 L90 480 L79 348 L23 348 L23 302 L75 302 L65 176 L10 176 L10 130 L61 130 L50 0 L99 0 L111 130 L178 130 L167 0 Z M125 302 L193 302 L182 176 L115 176 L125 302 Z " />
<glyph glyph-name="dollar" unicode="&#x24;" horiz-adv-x="271" d="M173 308 C145 336 125 361 113 381 C100 401 94 422 94 443 C94 460 98 474 106 484 C109 487 112 489 115 491 L115 451 L162 451 L162 494 C167 491 172 488 175 483 C184 473 188 459 188 441 L188 407 L259 407 L259 446 C259 479 251 506 233 526 C215 547 192 559 162 563 L162 623 L115 623 L115 562 C87 556 64 542 47 521 C29 500 21 473 21 441 C21 386 51 327 112 264 C139 236 159 211 171 188 C182 166 188 142 188 118 C188 100 183 85 174 75 C171 71 166 67 162 65 L162 102 L114 102 L114 64 C109 66 104 70 100 75 C90 86 86 101 86 119 L86 163 L15 163 L15 115 C15 81 24 54 42 32 C61 11 84 -2 114 -6 L114 -9 L115 -9 L115 -65 L162 -65 L162 -5 C192 1 216 14 234 36 C252 58 261 86 261 119 C261 185 232 247 173 308 L173 308 Z " />
<glyph glyph-name="percent" unicode="&#x25;" horiz-adv-x="434" d="M120 488 C66 488 19 445 19 388 C19 334 63 290 119 290 C172 290 220 332 220 389 C220 444 178 488 120 488 L120 488 Z M45 0 L97 0 L393 480 L341 480 L45 0 Z M86 354 C77 363 73 375 73 389 C73 402 77 414 86 423 C95 432 106 436 119 436 C133 436 144 432 153 423 C161 414 166 402 166 389 C166 375 161 363 153 354 C144 345 133 341 119 341 C106 341 95 345 86 354 L86 354 Z M319 189 C264 189 219 147 219 89 C219 35 261 -8 318 -8 C373 -8 419 33 419 91 C419 148 377 186 319 189 L319 189 Z M285 56 C277 65 272 76 272 90 C272 104 277 115 285 125 C294 133 305 138 318 138 C332 138 343 133 352 125 C361 115 365 104 365 90 C365 76 361 65 352 56 C343 47 332 42 318 42 C305 42 294 47 285 56 L285 56 Z " />
<glyph glyph-name="ampersand" unicode="&#x26;" horiz-adv-x="352" d="M312 260 L312 320 L268 320 L268 356 L196 356 L196 320 L145 320 C132 320 121 324 113 334 C104 344 100 357 100 373 L100 446 C100 463 104 476 113 485 C121 495 132 500 145 500 C158 500 169 495 177 485 C186 476 190 463 190 446 L190 400 L259 400 L259 447 C259 482 248 511 226 534 C203 556 176 568 143 568 C111 568 83 557 61 535 C39 513 27 484 27 449 L27 384 C27 345 42 313 71 291 C38 270 21 236 21 189 L21 119 C21 81 33 50 57 27 C81 3 111 -8 146 -8 C176 -8 201 0 222 17 C240 0 263 -8 294 -8 C311 -8 311 -8 311 -8 L311 58 C282 58 268 75 268 109 L268 260 L312 260 L312 260 Z M196 113 C195 98 190 85 182 76 C173 65 161 60 145 60 C129 60 117 65 107 75 C98 86 94 100 94 120 L94 200 C94 218 98 233 108 244 C117 254 130 260 145 260 L196 260 L196 113 L196 113 Z " />
<glyph glyph-name="quotesingle" unicode="&#x27;" horiz-adv-x="154" d="M124 560 L44 560 L39 360 L96 360 L124 560 Z " />
<glyph glyph-name="parenleft" unicode="&#x28;" horiz-adv-x="247" d="M221 32 L209 45 C144 129 110 239 110 352 C110 457 138 572 209 657 C214 663 218 668 221 671 L171 712 L157 698 C75 616 38 467 38 349 C38 237 73 89 156 6 C162 -1 167 -5 171 -8 L221 32 L221 32 Z " />
<glyph glyph-name="parenright" unicode="&#x29;" horiz-adv-x="246" d="M26 671 L37 658 C108 580 137 461 137 352 C137 248 110 131 38 46 C33 40 29 36 26 32 L77 -8 L90 5 C169 84 209 237 209 354 C209 469 179 609 91 698 C85 704 80 709 77 712 L26 671 L26 671 Z " />
<glyph glyph-name="asterisk" unicode="&#x2a;" horiz-adv-x="298" d="M280 445 L263 497 L171 461 L178 560 L121 560 L128 461 L37 497 L20 445 L114 420 L52 344 L98 312 L150 394 L202 312 L248 344 L185 420 L280 445 L280 445 Z " />
<glyph glyph-name="plus" unicode="&#x2b;" horiz-adv-x="352" d="M205 424 L147 424 L147 300 L40 300 L40 243 L147 243 L147 118 L205 118 L205 243 L312 243 L312 300 L205 300 L205 424 L205 424 Z " />
<glyph glyph-name="comma" unicode="&#x2c;" horiz-adv-x="114" d="M72 -147 L100 53 L20 53 L14 -147 L72 -147 L72 -147 Z " />
<glyph glyph-name="hyphen" unicode="&#x2d;" horiz-adv-x="272" d="M232 246 L232 300 L40 300 L40 246 L232 246 Z " />
<glyph glyph-name="period" unicode="&#x2e;" horiz-adv-x="109" d="M55 88 C30 88 7 67 7 40 C7 15 27 -8 55 -8 C80 -8 103 12 103 40 C103 66 82 87 55 88 L55 88 Z " />
<glyph glyph-name="slash" unicode="&#x2f;" horiz-adv-x="329" d="M20 -8 L84 -8 L308 680 L244 680 L20 -8 L20 -8 Z " />
<glyph glyph-name="zero" unicode="0" horiz-adv-x="328" d="M40 116 C40 79 52 49 75 26 C99 3 128 -8 162 -8 C198 -8 227 4 252 27 C276 51 288 82 288 119 L288 443 C288 480 276 510 252 533 C229 556 199 568 165 568 C130 568 101 556 76 532 C52 508 40 478 40 440 L40 116 Z M113 437 C113 456 117 471 127 481 C136 492 149 497 164 497 C180 497 192 492 201 481 C210 471 215 456 215 437 L215 121 C215 103 210 88 201 77 C192 67 180 61 164 61 C149 61 136 67 127 77 C117 88 113 103 113 121 L113 437 Z " />
<glyph glyph-name="one" unicode="1" horiz-adv-x="201" d="M10 487 L48 438 L88 469 L88 0 L161 0 L161 560 L100 560 L10 487 Z " />
<glyph glyph-name="two" unicode="2" horiz-adv-x="299" d="M270 0 L270 67 L113 67 L232 305 C258 357 270 402 270 440 C270 479 259 510 236 533 C214 556 185 568 150 568 C116 568 88 556 64 532 C41 509 30 479 30 441 L30 384 L99 384 L99 436 C99 456 104 471 112 481 C121 492 133 497 148 497 C163 497 175 492 184 481 C193 471 198 456 198 436 C198 403 190 370 174 337 L30 51 L30 0 L270 0 L270 0 Z " />
<glyph glyph-name="three" unicode="3" horiz-adv-x="285" d="M258 449 C258 484 247 513 224 535 C202 557 174 568 142 568 C109 568 82 556 59 534 C37 511 26 482 26 447 L26 400 L95 400 L95 446 C95 463 99 476 108 485 C116 495 127 500 140 500 C154 500 164 495 173 485 C181 476 185 463 185 446 L185 373 C185 357 181 344 173 334 C164 324 154 320 140 320 L140 260 C156 260 168 254 177 244 C187 233 191 218 191 200 L191 120 C191 101 187 86 178 75 C169 65 156 60 140 60 C125 60 112 65 103 76 C94 86 89 101 89 120 L89 172 L19 172 L19 116 C19 79 31 48 53 26 C76 3 105 -8 139 -8 C175 -8 204 3 228 27 C252 50 264 81 264 119 L264 189 C264 236 247 269 214 291 C243 313 258 344 258 384 L258 449 L258 449 Z " />
<glyph glyph-name="four" unicode="4" horiz-adv-x="301" d="M17 199 L17 140 L174 140 L174 0 L241 0 L241 140 L285 140 L285 200 L241 200 L241 560 L170 560 L17 199 Z M75 200 L174 431 L174 200 L75 200 Z " />
<glyph glyph-name="five" unicode="5" horiz-adv-x="308" d="M40 261 L105 261 C105 276 109 288 118 298 C127 307 138 312 151 312 C166 312 177 307 187 296 C196 286 200 272 200 255 L200 119 C200 101 196 87 187 77 C177 67 166 61 151 61 C137 61 125 67 116 77 C107 87 103 101 103 119 L103 168 L32 168 L32 112 C32 76 44 47 67 25 C90 3 117 -8 151 -8 C184 -8 213 3 237 27 C261 50 273 80 273 116 L273 266 C273 299 263 325 244 345 C224 366 200 376 171 376 C144 376 122 366 106 347 L106 492 L261 492 L261 560 L40 560 L40 261 L40 261 Z " />
<glyph glyph-name="six" unicode="6" horiz-adv-x="309" d="M29 118 C29 80 41 50 64 26 C88 3 118 -8 154 -8 C190 -8 220 4 245 28 C269 52 282 83 282 120 L282 237 C282 274 272 304 251 326 C232 349 204 360 170 360 C153 360 138 355 126 345 L217 560 L144 560 L54 341 C37 301 29 258 29 212 L29 118 Z M102 234 C102 253 107 268 116 279 C126 290 139 296 155 296 C171 296 184 290 194 279 C204 268 209 253 209 234 L209 123 C209 104 204 89 194 78 C184 67 171 61 155 61 C139 61 126 67 116 78 C107 89 102 104 102 123 L102 234 Z " />
<glyph glyph-name="seven" unicode="7" horiz-adv-x="273" d="M41 0 L115 0 L255 506 L255 560 L15 560 L15 490 L179 490 L41 0 L41 0 Z " />
<glyph glyph-name="eight" unicode="8" horiz-adv-x="286" d="M22 395 C22 351 38 318 70 297 C34 273 16 237 16 189 L16 120 C16 82 28 50 52 27 C76 3 106 -8 142 -8 C179 -8 210 4 235 28 C260 52 272 84 272 123 L272 192 C272 240 254 275 218 298 C250 321 265 354 265 397 L265 445 C265 482 254 511 231 534 C208 556 179 568 145 568 C111 568 82 556 58 532 C34 509 22 479 22 443 L22 395 Z M89 204 C89 224 94 240 104 251 C113 262 127 268 144 268 C160 268 174 262 184 251 C194 240 199 224 199 204 L199 121 C199 102 194 86 184 74 C174 63 160 57 144 57 C127 57 113 63 104 74 C94 86 89 102 89 121 L89 204 Z M95 444 C95 461 100 475 109 486 C118 496 129 501 144 501 C158 501 170 496 179 486 C188 475 193 461 193 444 L193 383 C193 365 188 351 179 341 C170 331 158 325 144 325 C129 325 118 331 109 341 C100 351 95 365 95 383 L95 444 Z " />
<glyph glyph-name="nine" unicode="9" horiz-adv-x="328" d="M291 441 C291 479 279 510 256 533 C232 556 202 568 167 568 C130 568 100 556 75 532 C51 508 39 477 39 439 L39 323 C39 285 49 255 69 233 C88 211 116 200 150 200 C167 200 182 205 194 214 L103 0 L176 0 L267 218 C283 258 291 301 291 347 L291 441 Z M219 325 C219 306 214 291 204 280 C194 269 181 264 165 264 C149 264 136 269 126 280 C116 291 111 306 111 325 L111 436 C111 456 116 471 126 482 C136 493 149 498 165 498 C181 498 194 493 204 482 C214 471 219 456 219 436 L219 325 Z " />
<glyph glyph-name="colon" unicode="&#x3a;" horiz-adv-x="122" d="M62 503 C37 503 14 483 14 455 C14 430 34 407 62 407 C87 407 109 427 109 455 C109 480 90 503 62 503 L62 503 Z M62 173 C37 173 14 153 14 125 C14 100 34 77 62 77 C87 77 109 97 109 125 C109 150 90 173 62 173 L62 173 Z " />
<glyph glyph-name="semicolon" unicode="&#x3b;" horiz-adv-x="127" d="M68 505 C43 505 20 485 20 457 C20 432 40 409 68 409 C93 409 116 430 116 457 C116 482 95 505 68 505 L68 505 Z M77 -17 L105 183 L25 183 L20 -17 L77 -17 Z " />
<glyph glyph-name="less" unicode="&#x3c;" horiz-adv-x="341" d="M303 419 L312 491 L40 331 L40 267 L312 107 L302 181 L93 300 L303 419 L303 419 Z " />
<glyph glyph-name="equal" unicode="&#x3d;" horiz-adv-x="336" d="M305 340 L305 400 L33 400 L33 340 L305 340 Z M305 192 L305 252 L33 252 L33 192 L305 192 Z " />
<glyph glyph-name="greater" unicode="&#x3e;" horiz-adv-x="340" d="M29 182 L26 110 L300 271 L301 334 L30 494 L29 419 L239 300 L29 182 L29 182 Z " />
<glyph glyph-name="question" unicode="&#x3f;" horiz-adv-x="275" d="M171 192 C171 215 178 240 193 266 C207 293 222 321 237 350 C251 379 259 410 259 440 C259 479 247 510 225 533 C202 556 173 568 139 568 C104 568 76 556 53 532 C30 508 18 477 18 437 L18 392 L88 392 L88 436 C88 456 92 471 101 481 C110 492 121 497 136 497 C151 497 163 492 172 481 C181 471 186 456 186 436 C186 416 182 394 173 372 C165 349 155 330 145 314 C134 298 125 279 116 258 C108 236 103 215 103 196 L103 172 L171 172 L171 192 Z M137 88 C112 88 89 67 89 40 C89 15 109 -8 137 -8 C162 -8 185 12 185 40 C185 65 164 88 137 88 L137 88 Z " />
<glyph glyph-name="at" unicode="&#x40;" horiz-adv-x="755" d="M255 257 C251 230 257 208 271 192 C285 175 305 167 331 167 C360 167 386 189 401 224 C391 183 410 138 431 119 C452 98 482 88 520 88 C576 88 623 111 660 156 C697 200 716 258 716 328 C716 426 683 508 618 575 C554 642 473 676 377 676 C282 676 202 642 137 574 C71 506 39 424 39 327 C39 233 71 153 135 88 C200 24 280 -8 376 -8 C392 -8 415 -6 443 0 L434 52 C420 48 401 46 377 46 C297 46 230 73 177 128 C123 183 97 249 97 328 C97 409 123 478 177 534 C231 591 298 620 377 620 C458 620 525 592 578 536 C631 480 658 409 658 324 C658 271 645 228 620 194 C594 160 562 143 525 143 C502 143 485 150 472 164 C460 178 455 198 459 224 L497 490 L493 496 L441 496 L435 465 C422 490 401 502 371 502 C347 502 326 495 309 480 C292 465 282 444 278 417 L255 257 Z M341 408 C344 433 358 446 384 446 C398 446 409 442 416 434 C423 426 426 415 424 402 L399 261 C396 235 382 222 356 222 C343 222 334 226 327 234 C321 242 319 253 320 266 L341 408 Z " />
<glyph glyph-name="A" unicode="A" horiz-adv-x="322" d="M199 560 L119 560 L14 0 L83 0 L106 126 L212 126 L235 0 L314 0 L199 560 Z M161 422 L210 186 L117 186 L161 422 Z " />
<glyph glyph-name="B" unicode="B" horiz-adv-x="325" d="M40 0 L170 0 C210 0 242 12 267 36 C292 60 304 93 304 135 L304 175 C304 234 281 274 236 294 C276 317 296 356 296 411 L296 427 C296 469 284 502 260 525 C236 548 204 560 165 560 L40 560 L40 0 Z M116 496 L156 496 C176 496 192 490 203 478 C214 465 220 447 220 424 L220 391 C220 368 214 350 203 338 C192 325 176 319 156 319 L116 319 L116 496 Z M116 260 L164 260 C184 260 200 254 211 242 C222 229 228 211 228 188 L228 136 C228 113 222 95 211 82 C200 70 184 64 164 64 L116 64 L116 260 Z " />
<glyph glyph-name="C" unicode="C" horiz-adv-x="321" d="M220 122 C220 104 215 89 205 78 C196 68 183 62 168 62 C152 62 139 68 130 78 C120 89 116 104 116 122 L116 437 C116 455 120 470 130 481 C139 492 152 497 168 497 C183 497 196 492 205 481 C215 470 220 455 220 437 L220 364 L292 364 L292 441 C292 480 281 511 258 534 C235 557 205 568 169 568 C132 568 102 556 77 532 C52 507 40 476 40 437 L40 121 C40 82 52 51 76 27 C100 4 130 -8 166 -8 C202 -8 232 4 256 28 C280 51 292 82 292 121 L292 204 L220 204 L220 122 L220 122 Z " />
<glyph glyph-name="D" unicode="D" horiz-adv-x="340" d="M40 0 L162 0 C204 0 237 12 262 37 C287 61 300 95 300 139 L300 423 C300 467 287 501 263 524 C239 548 206 560 164 560 L40 560 L40 0 Z M116 490 L160 490 C180 490 195 483 207 471 C218 459 224 441 224 418 L224 142 C224 118 218 100 207 88 C195 76 180 70 160 70 L116 70 L116 490 Z " />
<glyph glyph-name="E" unicode="E" horiz-adv-x="265" d="M253 0 L253 74 L117 74 L117 255 L225 255 L225 324 L117 324 L117 486 L248 486 L248 560 L40 560 L40 0 L253 0 L253 0 Z " />
<glyph glyph-name="F" unicode="F" horiz-adv-x="260" d="M220 255 L220 324 L115 324 L115 486 L244 486 L244 560 L40 560 L40 0 L115 0 L115 255 L220 255 L220 255 Z " />
<glyph glyph-name="G" unicode="G" horiz-adv-x="345" d="M305 372 L305 435 C305 476 292 508 267 532 C242 556 211 568 173 568 C136 568 104 556 79 531 C53 506 40 473 40 433 L40 125 C40 84 53 52 77 28 C102 4 133 -8 171 -8 C193 -8 212 -4 230 4 L230 0 L305 0 L305 127 L305 324 L177 324 L177 255 L230 255 L230 126 C230 105 225 90 214 78 C204 67 190 61 173 61 C156 61 143 67 132 78 C122 90 117 105 117 126 L117 433 C117 453 122 469 132 480 C142 491 155 497 173 497 C189 497 203 491 213 480 C223 469 228 453 228 433 L228 372 L305 372 L305 372 Z " />
<glyph glyph-name="H" unicode="H" horiz-adv-x="339" d="M224 0 L299 0 L299 560 L224 560 L224 330 L115 330 L115 560 L40 560 L40 0 L115 0 L115 256 L224 256 L224 0 L224 0 Z " />
<glyph glyph-name="I" unicode="I" horiz-adv-x="158" d="M40 0 L118 0 L118 560 L40 560 L40 0 L40 0 Z " />
<glyph glyph-name="J" unicode="J" horiz-adv-x="199" d="M14 -8 L47 -8 C79 -8 106 2 127 22 C148 43 159 71 159 108 L159 560 L80 560 L80 122 C80 84 63 65 29 65 C23 65 14 65 14 65 L14 -8 L14 -8 Z " />
<glyph glyph-name="K" unicode="K" horiz-adv-x="323" d="M40 0 L116 0 L116 271 L231 0 L316 0 L185 293 L308 560 L223 560 L116 307 L116 560 L40 560 L40 0 L40 0 Z " />
<glyph glyph-name="L" unicode="L" horiz-adv-x="251" d="M236 0 L236 74 L116 74 L116 560 L40 560 L40 0 L236 0 L236 0 Z " />
<glyph glyph-name="M" unicode="M" horiz-adv-x="432" d="M198 88 L233 88 L321 383 L321 0 L392 0 L392 560 L320 560 L219 220 L118 560 L40 560 L40 0 L110 0 L110 382 L198 88 L198 88 Z " />
<glyph glyph-name="N" unicode="N" horiz-adv-x="348" d="M241 0 L308 0 L308 560 L241 560 L241 183 L112 560 L40 560 L40 0 L107 0 L107 391 L241 0 L241 0 Z " />
<glyph glyph-name="O" unicode="O" horiz-adv-x="344" d="M40 125 C40 84 52 52 77 28 C101 4 132 -8 170 -8 C208 -8 240 4 265 29 C291 54 304 87 304 127 L304 435 C304 476 291 508 267 532 C242 556 211 568 173 568 C135 568 103 556 78 531 C53 506 40 473 40 433 L40 125 Z M116 433 C116 453 121 469 131 480 C141 491 155 497 172 497 C188 497 202 491 212 480 C223 469 228 453 228 433 L228 126 C228 107 223 91 212 80 C202 68 188 62 172 62 C155 62 141 68 131 80 C121 91 116 107 116 126 L116 433 Z " />
<glyph glyph-name="P" unicode="P" horiz-adv-x="332" d="M40 0 L116 0 L116 212 L158 212 C201 212 236 224 261 249 C287 274 300 309 300 355 L300 419 C300 464 288 499 263 524 C238 548 204 560 161 560 L40 560 L40 0 Z M116 490 L160 490 C180 490 196 483 207 471 C218 459 224 441 224 418 L224 352 C224 329 218 311 207 298 C196 286 180 280 160 280 L116 280 L116 490 Z " />
<glyph glyph-name="Q" unicode="Q" horiz-adv-x="344" d="M304 127 L304 435 C304 476 291 508 267 532 C242 556 211 568 173 568 C135 568 103 556 78 531 C52 506 40 473 40 433 L40 125 C40 84 52 52 77 28 C101 4 132 -8 170 -8 C177 -8 182 -7 188 -6 L218 -95 L291 -96 L250 17 C286 42 304 79 304 127 L304 127 Z M131 80 C121 91 116 107 116 126 L116 433 C116 453 121 469 131 480 C141 491 155 497 172 497 C188 497 202 491 212 480 C223 469 228 453 228 433 L228 126 C228 114 226 104 222 95 L218 106 L155 83 L162 63 C150 65 139 70 131 80 L131 80 Z " />
<glyph glyph-name="R" unicode="R" horiz-adv-x="329" d="M300 362 L300 419 C300 464 287 499 263 524 C238 548 204 560 161 560 L40 560 L40 0 L116 0 L116 224 L150 224 C153 224 155 224 158 224 C166 224 173 224 173 224 C186 223 197 218 206 209 C215 198 220 183 220 165 L220 0 L293 0 L293 169 C293 207 281 238 259 261 C286 282 300 316 300 362 L300 362 Z M224 359 C224 336 218 318 207 306 C203 301 198 297 192 294 C183 289 172 287 160 287 L116 287 L116 490 L160 490 C180 490 196 483 207 471 C218 459 224 441 224 418 L224 359 L224 359 Z " />
<glyph glyph-name="S" unicode="S" horiz-adv-x="284" d="M82 164 L9 164 L9 122 C9 83 21 51 45 28 C69 4 99 -8 137 -8 C175 -8 206 4 232 29 C257 53 270 85 270 125 C270 159 261 192 245 221 C228 251 203 282 170 314 C140 342 120 365 108 384 C96 403 90 422 90 441 C90 459 95 473 104 484 C114 494 126 499 142 499 C158 499 170 494 180 482 C189 471 194 456 194 437 L194 408 L267 408 L267 441 C267 480 256 511 233 534 C209 557 179 568 143 568 C106 568 76 556 51 532 C26 509 14 477 14 438 C14 383 45 326 106 267 C139 236 162 210 174 190 C187 169 194 147 194 123 C194 104 189 89 178 78 C168 66 155 61 138 61 C121 61 108 67 97 78 C87 90 82 106 82 126 L82 164 L82 164 Z " />
<glyph glyph-name="T" unicode="T" horiz-adv-x="296" d="M278 486 L278 560 L18 560 L18 486 L110 486 L110 0 L186 0 L186 486 L278 486 L278 486 Z " />
<glyph glyph-name="U" unicode="U" horiz-adv-x="335" d="M220 560 L220 122 C220 104 216 89 206 78 C196 68 184 62 168 62 C152 62 140 68 131 78 C121 89 117 104 117 122 L117 560 L40 560 L40 121 C40 82 52 51 76 27 C100 4 130 -8 166 -8 C203 -8 234 4 258 28 C283 53 296 84 296 123 L296 560 L220 560 L220 560 Z " />
<glyph glyph-name="V" unicode="V" horiz-adv-x="313" d="M116 0 L194 0 L304 560 L227 560 L160 162 L92 560 L12 560 L116 0 L116 0 Z " />
<glyph glyph-name="W" unicode="W" horiz-adv-x="445" d="M100 0 L165 0 L221 365 L277 0 L345 0 L439 560 L362 560 L314 172 L258 560 L195 560 L139 170 L87 560 L7 560 L100 0 L100 0 Z " />
<glyph glyph-name="X" unicode="X" horiz-adv-x="329" d="M312 560 L231 560 L166 395 L102 560 L19 560 L124 289 L11 0 L91 0 L165 186 L237 0 L320 0 L206 292 L312 560 L312 560 Z " />
<glyph glyph-name="Y" unicode="Y" horiz-adv-x="307" d="M115 0 L191 0 L191 216 L296 560 L219 560 L156 314 L93 560 L12 560 L115 217 L115 0 L115 0 Z " />
<glyph glyph-name="Z" unicode="Z" horiz-adv-x="256" d="M242 0 L242 70 L91 70 L242 502 L242 560 L22 560 L22 490 L161 490 L10 58 L10 0 L242 0 L242 0 Z " />
<glyph glyph-name="bracketleft" unicode="&#x5b;" horiz-adv-x="252" d="M220 -8 L220 56 L112 56 L112 616 L220 616 L220 680 L40 680 L40 -8 L220 -8 L220 -8 Z " />
<glyph glyph-name="backslash" unicode="&#x5c;" horiz-adv-x="328" d="M80 680 L16 680 L240 -8 L303 -8 L80 680 L80 680 Z " />
<glyph glyph-name="bracketright" unicode="&#x5d;" horiz-adv-x="262" d="M222 -8 L222 680 L42 680 L42 616 L150 616 L150 56 L42 56 L42 -8 L222 -8 L222 -8 Z " />
<glyph glyph-name="asciicircum" unicode="&#x5e;" horiz-adv-x="310" d="M220 288 L294 288 L188 560 L126 560 L20 288 L96 288 L157 473 L220 288 L220 288 Z " />
<glyph glyph-name="underscore" unicode="&#x5f;" horiz-adv-x="407" d="M369 0 L369 55 L49 55 L49 0 L369 0 L369 0 Z " />
<glyph glyph-name="grave" unicode="&#x60;" horiz-adv-x="154" d="M90 560 L14 560 L75 428 L131 428 L90 560 L90 560 Z " />
<glyph glyph-name="a" unicode="a" horiz-adv-x="313" d="M25 109 C25 73 35 45 54 24 C73 3 97 -8 127 -8 C164 -8 204 18 208 77 L208 0 L273 0 L273 301 C273 336 262 364 240 386 C217 407 190 418 156 418 C124 418 96 407 74 384 C52 362 40 333 40 298 L40 282 L110 282 L110 302 C110 319 114 332 123 341 C131 350 142 355 156 355 C169 355 180 350 188 341 C197 332 201 319 201 302 L201 212 C184 234 160 246 129 246 C99 246 75 235 55 213 C35 191 25 162 25 126 L25 109 Z M97 130 C97 148 102 163 112 174 C121 185 134 190 149 190 C165 190 177 185 187 174 C196 163 201 148 201 130 L201 110 C201 92 196 78 187 67 C177 56 165 50 149 50 C134 50 121 56 112 67 C102 78 97 92 97 110 L97 130 Z " />
<glyph glyph-name="b" unicode="b" horiz-adv-x="324" d="M40 0 L104 0 L104 77 C104 26 144 -8 182 -8 C211 -8 235 2 255 23 C274 43 284 71 284 105 L284 308 C284 342 274 368 255 388 C237 408 213 418 184 418 C153 418 129 407 112 384 L112 560 L40 560 L40 0 Z M211 115 C211 98 207 84 197 74 C188 64 176 58 162 58 C147 58 136 64 126 74 C117 84 112 98 112 115 L112 294 C112 312 117 326 126 336 C135 346 147 351 162 351 C176 351 188 346 197 336 C207 326 211 312 211 294 L211 115 Z " />
<glyph glyph-name="c" unicode="c" horiz-adv-x="314" d="M205 164 L205 112 C205 96 201 83 192 73 C183 63 172 58 159 58 C145 58 134 63 125 73 C117 83 112 96 112 112 L112 298 C112 314 117 327 125 337 C134 346 145 351 159 351 C172 351 183 346 192 337 C201 327 205 314 205 298 L205 250 L274 250 L274 300 C274 335 263 364 241 386 C219 407 192 418 160 418 C127 418 98 407 75 384 C52 362 40 333 40 298 L40 110 C40 75 52 47 74 25 C96 3 124 -8 157 -8 C190 -8 217 3 240 26 C263 49 274 78 274 113 L274 164 L205 164 L205 164 Z " />
<glyph glyph-name="d" unicode="d" horiz-adv-x="323" d="M283 560 L211 560 L211 386 C194 408 171 418 142 418 C112 418 88 408 69 387 C50 366 40 339 40 306 L40 102 C40 68 49 41 68 22 C86 2 110 -8 139 -8 C183 -8 213 25 218 77 L218 0 L283 0 L283 560 Z M112 294 C112 312 117 326 126 336 C135 346 147 351 162 351 C176 351 188 346 197 336 C206 326 211 312 211 294 L211 115 C211 98 206 84 197 74 C188 64 176 58 162 58 C147 58 135 64 126 74 C117 84 112 98 112 115 L112 294 Z " />
<glyph glyph-name="e" unicode="e" horiz-adv-x="319" d="M211 115 C211 98 207 84 197 74 C188 64 176 58 162 58 C147 58 136 64 126 74 C117 84 112 98 112 115 L112 200 L279 200 L279 298 C279 334 267 363 245 385 C223 407 195 418 161 418 C127 418 99 407 76 384 C52 361 40 332 40 296 L40 111 C40 75 52 47 74 25 C97 3 125 -8 159 -8 C192 -8 221 3 244 26 C267 49 279 78 279 114 L279 140 L211 140 L211 115 Z M112 299 C112 317 117 331 126 341 C136 351 147 356 162 356 C176 356 188 351 197 340 C207 330 211 316 211 299 L211 251 L112 251 L112 299 Z " />
<glyph glyph-name="f" unicode="f" horiz-adv-x="217" d="M12 350 L60 350 L60 0 L132 0 L132 350 L204 350 L204 410 L132 410 L132 452 C132 486 146 503 175 503 C183 503 204 503 204 503 L204 568 C204 568 165 568 157 568 C127 568 103 559 86 542 C68 525 60 499 60 465 L60 410 L12 410 L12 350 L12 350 Z " />
<glyph glyph-name="g" unicode="g" horiz-adv-x="323" d="M283 410 L218 410 L218 323 C218 384 182 418 141 418 C112 418 88 408 68 387 C49 366 40 339 40 306 L40 142 C40 108 49 81 67 62 C86 42 110 32 139 32 C169 32 193 43 211 66 L211 -17 C211 -34 206 -48 197 -58 C188 -68 176 -74 161 -74 C147 -74 135 -69 126 -58 C116 -48 112 -34 112 -17 L112 0 L42 0 L42 -14 C42 -51 53 -80 76 -102 C98 -125 126 -136 160 -136 C194 -136 223 -124 247 -101 C271 -78 283 -48 283 -12 L283 410 Z M112 294 C112 312 116 326 125 336 C134 346 146 351 161 351 C176 351 188 346 197 336 C206 326 211 312 211 294 L211 150 C211 133 206 120 197 110 C187 100 175 94 161 94 C147 94 135 100 126 110 C116 120 112 134 112 151 L112 294 Z " />
<glyph glyph-name="h" unicode="h" horiz-adv-x="320" d="M280 0 L280 308 C280 343 272 370 255 389 C238 409 216 418 188 418 C154 418 116 388 112 323 L112 560 L40 560 L40 0 L112 0 L112 300 C112 316 116 328 126 338 C135 347 147 351 161 351 C176 351 187 346 195 337 C204 327 208 314 208 296 L208 0 L280 0 L280 0 Z " />
<glyph glyph-name="i" unicode="i" horiz-adv-x="153" d="M77 568 C52 568 29 548 29 520 C29 495 49 472 77 472 C102 472 125 493 125 520 C125 545 104 568 77 568 L77 568 Z M40 0 L113 0 L113 410 L40 410 L40 0 Z " />
<glyph glyph-name="j" unicode="j" horiz-adv-x="154" d="M-12 -136 L23 -136 C49 -136 71 -127 88 -110 C105 -93 114 -69 114 -38 L114 410 L40 410 L40 -31 C40 -58 29 -71 5 -71 C-1 -71 -12 -71 -12 -71 L-12 -136 Z M77 568 C51 568 28 548 28 519 C28 494 49 471 77 471 C102 471 125 491 125 519 C125 545 106 568 77 568 L77 568 Z " />
<glyph glyph-name="k" unicode="k" horiz-adv-x="303" d="M40 0 L112 0 L112 204 L212 0 L296 0 L178 225 L288 410 L206 410 L112 235 L112 560 L40 560 L40 0 L40 0 Z " />
<glyph glyph-name="l" unicode="l" horiz-adv-x="154" d="M40 0 L114 0 L114 560 L40 560 L40 0 L40 0 Z " />
<glyph glyph-name="m" unicode="m" horiz-adv-x="478" d="M112 296 C112 314 116 327 125 337 C134 346 145 351 159 351 C188 351 203 333 203 296 L203 0 L275 0 L275 298 C275 315 279 328 288 337 C297 346 308 351 322 351 C351 351 366 333 366 296 L366 0 L438 0 L438 308 C438 343 430 370 414 389 C397 409 376 418 348 418 C310 418 282 400 265 364 C250 400 223 418 185 418 C148 418 107 385 104 323 L104 410 L40 410 L40 0 L112 0 L112 296 L112 296 Z " />
<glyph glyph-name="n" unicode="n" horiz-adv-x="320" d="M112 296 C112 314 117 327 126 337 C135 346 147 351 162 351 C176 351 187 346 196 337 C204 327 208 314 208 296 L208 0 L280 0 L280 308 C280 343 272 370 255 389 C238 409 216 418 188 418 C150 418 110 391 105 323 L105 410 L40 410 L40 0 L112 0 L112 296 L112 296 Z " />
<glyph glyph-name="o" unicode="o" horiz-adv-x="323" d="M40 114 C40 77 51 48 74 26 C97 3 126 -8 160 -8 C194 -8 223 4 247 27 C271 50 283 80 283 116 L283 297 C283 333 272 362 248 385 C225 407 197 418 162 418 C128 418 99 407 76 384 C52 360 40 331 40 294 L40 114 Z M112 294 C112 312 116 326 126 336 C135 346 147 351 162 351 C176 351 188 346 197 336 C207 326 211 312 211 294 L211 115 C211 98 207 84 197 74 C188 64 176 58 162 58 C147 58 135 64 126 74 C117 84 112 98 112 115 L112 294 Z " />
<glyph glyph-name="p" unicode="p" horiz-adv-x="323" d="M40 -128 L112 -128 L112 23 C129 2 152 -8 182 -8 C211 -8 235 2 255 23 C274 43 283 71 283 105 L283 308 C283 342 274 368 255 388 C237 408 213 418 184 418 C145 418 108 394 105 323 L105 410 L40 410 L40 -128 Z M211 115 C211 98 207 84 197 74 C188 64 176 58 162 58 C147 58 136 64 126 74 C117 84 112 98 112 115 L112 294 C112 312 117 326 126 336 C135 346 147 351 162 351 C176 351 188 346 197 336 C207 326 211 312 211 294 L211 115 Z " />
<glyph glyph-name="q" unicode="q" horiz-adv-x="323" d="M211 -128 L283 -128 L283 410 L218 410 L218 323 C215 394 178 418 139 418 C110 418 86 408 68 388 C49 368 40 342 40 308 L40 105 C40 71 49 43 68 23 C88 2 112 -8 141 -8 C171 -8 194 2 211 23 L211 -128 Z M126 74 C116 84 112 98 112 115 L112 294 C112 312 116 326 126 336 C135 346 147 351 161 351 C176 351 188 346 197 336 C206 326 211 312 211 294 L211 115 C211 98 206 84 197 74 C188 64 176 58 161 58 C147 58 135 64 126 74 L126 74 Z " />
<glyph glyph-name="r" unicode="r" horiz-adv-x="215" d="M201 418 C156 418 116 379 105 323 L105 410 L40 410 L40 0 L112 0 L112 257 C112 311 136 338 185 338 L201 338 L201 418 L201 418 Z " />
<glyph glyph-name="s" unicode="s" horiz-adv-x="293" d="M193 294 L263 294 L263 306 C263 340 252 366 230 387 C207 408 180 418 147 418 C114 418 87 408 64 387 C41 366 30 341 30 310 C30 258 60 216 119 186 C147 173 167 160 177 148 C188 136 193 123 193 107 C193 91 189 78 179 69 C170 59 158 54 144 54 C129 54 117 59 108 69 C99 79 94 92 94 110 L94 124 L25 124 L25 110 C25 74 37 46 59 24 C82 3 110 -8 144 -8 C179 -8 207 3 230 25 C254 47 265 75 265 110 C265 165 233 208 170 239 C144 252 127 264 117 274 C107 284 102 297 102 310 C102 324 106 335 115 343 C124 351 135 355 148 355 C161 355 172 351 180 342 C189 332 193 321 193 306 L193 294 L193 294 Z " />
<glyph glyph-name="t" unicode="t" horiz-adv-x="215" d="M7 350 L55 350 L55 94 C55 60 64 35 81 18 C99 0 122 -8 153 -8 C170 -8 199 -8 199 -8 L199 58 L170 58 C141 58 127 75 127 110 L127 350 L203 350 L203 410 L127 410 L127 512 L55 512 L55 410 L7 410 L7 350 L7 350 Z " />
<glyph glyph-name="u" unicode="u" horiz-adv-x="320" d="M208 114 C208 97 204 83 194 74 C185 64 173 59 159 59 C144 59 133 64 125 74 C116 83 112 97 112 114 L112 410 L40 410 L40 102 C40 68 49 41 65 21 C82 2 104 -8 132 -8 C170 -8 210 19 215 88 L215 0 L280 0 L280 410 L208 410 L208 114 L208 114 Z " />
<glyph glyph-name="v" unicode="v" horiz-adv-x="286" d="M110 0 L176 0 L271 410 L200 410 L146 119 L90 410 L15 410 L110 0 L110 0 Z " />
<glyph glyph-name="w" unicode="w" horiz-adv-x="414" d="M102 0 L163 0 L207 261 L251 0 L312 0 L397 410 L327 410 L281 137 L233 410 L184 410 L136 137 L92 410 L17 410 L102 0 L102 0 Z " />
<glyph glyph-name="x" unicode="x" horiz-adv-x="297" d="M281 410 L208 410 L150 291 L92 410 L17 410 L112 212 L9 0 L82 0 L148 136 L213 0 L289 0 L186 215 L281 410 L281 410 Z " />
<glyph glyph-name="y" unicode="y" horiz-adv-x="286" d="M110 0 C104 -29 96 -48 88 -59 C79 -70 67 -75 51 -75 C43 -75 31 -75 31 -75 L31 -136 C31 -136 57 -136 65 -136 C90 -136 112 -126 130 -108 C148 -89 163 -56 174 -11 L271 410 L200 410 L146 107 L90 410 L15 410 L110 0 L110 0 Z " />
<glyph glyph-name="z" unicode="z" horiz-adv-x="231" d="M10 50 L10 0 L218 0 L218 62 L86 62 L218 362 L218 410 L22 410 L22 348 L141 348 L10 50 L10 50 Z " />
<glyph glyph-name="braceleft" unicode="&#x7b;" horiz-adv-x="293" d="M172 252 C172 305 151 333 110 336 C129 337 144 344 155 358 C166 372 172 392 172 418 L172 561 C172 581 177 595 186 604 C195 613 209 617 228 617 L264 617 L264 680 L222 680 C141 680 100 639 100 557 L100 411 C100 395 96 384 90 377 C83 370 72 367 56 367 L28 367 L28 304 L56 304 C72 304 83 300 90 294 C96 287 100 276 100 260 L100 113 C100 32 141 -8 222 -8 L264 -8 L264 53 L228 53 C209 53 195 58 186 67 C177 75 172 90 172 109 L172 252 L172 252 Z " />
<glyph glyph-name="bar" unicode="&#x7c;" horiz-adv-x="142" d="M40 -8 L102 -8 L102 712 L40 712 L40 -8 L40 -8 Z " />
<glyph glyph-name="braceright" unicode="&#x7d;" horiz-adv-x="292" d="M121 419 C121 366 142 338 183 336 C164 335 149 327 138 313 C127 299 121 279 121 253 L121 110 C121 90 117 76 107 67 C98 58 84 54 65 54 L29 54 L29 -8 L71 -8 C152 -8 193 32 193 114 L193 261 C193 276 196 287 203 294 C210 301 222 304 237 304 L265 304 L265 368 L237 368 C222 368 210 371 203 378 C196 384 193 396 193 412 L193 558 C193 639 152 680 71 680 L29 680 L29 618 L65 618 C84 618 98 614 107 605 C117 596 121 582 121 562 L121 419 L121 419 Z " />
<glyph glyph-name="asciitilde" unicode="&#x7e;" horiz-adv-x="347" d="M78 235 L79 247 C80 256 83 263 88 271 C93 279 100 283 109 283 C121 283 132 278 143 270 C155 261 167 252 179 243 C192 233 208 228 228 228 C244 228 257 232 269 240 C281 248 289 256 295 266 C300 275 304 287 307 299 C311 312 312 320 312 325 C313 330 313 334 313 337 L259 337 L259 325 C258 318 255 310 250 302 C244 294 237 290 228 290 C216 290 205 294 194 303 C183 311 171 320 158 330 C145 340 130 344 112 344 C96 344 82 340 70 333 C58 325 49 316 44 307 C38 297 34 286 31 274 C27 261 26 252 25 247 C25 243 25 239 25 235 L78 235 L78 235 Z " />
<glyph glyph-name="exclamdown" unicode="&#xa1;" horiz-adv-x="138" d="M69 472 C94 472 117 492 117 520 C117 545 96 568 69 568 C45 568 20 547 20 520 C20 495 41 472 69 472 L69 472 Z M94 388 L44 388 L27 0 L111 0 L94 388 Z " />
<glyph glyph-name="cent" unicode="&#xa2;" horiz-adv-x="314" d="M274 246 L274 295 C274 325 265 350 248 371 C231 391 210 404 183 409 L183 470 L135 470 L135 409 C107 404 84 390 67 369 C49 348 40 323 40 293 L40 106 C40 75 49 49 67 28 C84 7 107 -5 135 -9 L135 -12 L135 -69 L183 -69 L183 -12 L183 -8 C210 -2 231 11 248 32 C265 53 274 78 274 108 L274 159 L205 159 L205 107 C205 91 200 78 192 68 C189 66 186 63 183 61 L183 105 L135 105 L135 60 C131 62 128 65 125 68 C116 78 112 91 112 107 L112 293 C112 309 116 323 125 332 C128 336 131 338 135 341 L135 292 L183 292 L183 339 C186 337 189 335 192 332 C200 323 205 309 205 293 L205 246 L274 246 L274 246 Z " />
<glyph glyph-name="sterling" unicode="&#xa3;" horiz-adv-x="334" d="M311 392 L311 447 C311 483 300 512 277 534 C255 557 227 568 193 568 C159 568 130 556 106 533 C82 510 70 480 70 443 L70 292 L14 292 L14 246 L70 246 L70 67 L14 67 L14 0 L70 0 L143 0 L302 0 L302 67 L143 67 L143 246 L242 246 L242 292 L143 292 L143 442 C143 460 148 474 156 484 C165 495 177 500 192 500 C207 500 219 495 228 484 C236 474 241 460 241 442 L241 392 L311 392 L311 392 Z " />
<glyph glyph-name="currency" unicode="&#xa4;" horiz-adv-x="396" d="M72 352 C50 324 40 293 40 257 C40 220 50 188 70 163 L18 110 L53 75 L107 130 C133 111 164 102 198 102 C232 102 263 111 290 130 L344 75 L378 110 L325 163 C347 191 357 223 357 258 C357 293 347 325 325 352 L378 406 L344 440 L289 385 C262 404 232 414 199 414 C165 414 135 404 107 385 L53 440 L18 406 L72 352 Z M133 191 C115 209 106 231 106 258 C106 284 115 306 133 324 C150 342 172 350 198 350 C224 350 246 342 264 324 C282 306 290 284 290 258 C290 231 282 209 264 191 C246 173 224 164 198 164 C172 164 150 173 133 191 L133 191 Z " />
<glyph glyph-name="yen" unicode="&#xa5;" horiz-adv-x="332" d="M127 0 L203 0 L203 166 L292 166 L292 209 L203 209 L203 252 L207 265 L292 265 L292 307 L221 307 L308 560 L232 560 L167 333 L104 560 L24 560 L109 307 L40 307 L40 265 L123 265 L127 253 L127 209 L40 209 L40 166 L127 166 L127 0 L127 0 Z " />
<glyph glyph-name="brokenbar" unicode="&#xa6;" horiz-adv-x="126" d="M93 712 L31 712 L31 444 L93 444 L93 712 Z M31 -8 L93 -8 L93 260 L31 260 L31 -8 Z " />
<glyph glyph-name="section" unicode="&#xa7;" horiz-adv-x="390" d="M246 35 C246 19 241 7 232 -2 C223 -11 211 -16 196 -16 C181 -16 169 -11 159 -1 C150 9 146 22 146 38 L146 60 L74 60 L74 37 C74 2 86 -26 108 -46 C131 -66 160 -76 194 -76 C230 -76 260 -66 284 -45 C308 -24 320 4 320 39 C320 76 306 110 277 141 C302 150 322 164 337 183 C352 203 360 227 360 255 C360 285 350 313 330 337 C311 360 279 387 234 415 C205 433 185 450 172 465 C160 481 154 498 154 517 C154 532 158 544 168 553 C177 562 189 567 204 567 C219 567 231 562 240 552 C249 542 254 529 254 512 L254 492 L325 492 L325 515 C325 549 313 577 291 597 C268 617 239 628 205 628 C169 628 140 617 116 596 C92 575 80 547 80 512 C80 475 94 440 123 409 C98 401 77 387 62 368 C48 348 40 325 40 296 C40 266 50 238 70 215 C89 191 121 165 166 136 C194 118 215 101 227 86 C239 71 246 54 246 35 L246 35 Z M181 362 C222 335 249 314 264 299 C278 283 285 266 285 248 C285 231 280 216 268 204 C257 193 242 186 225 185 L217 189 C177 215 150 236 135 252 C121 267 113 284 113 303 C113 320 119 334 131 346 C142 358 157 364 174 366 L181 362 Z " />
<glyph glyph-name="dieresis" unicode="&#xa8;" horiz-adv-x="255" d="M62 568 C39 568 19 551 19 525 C19 502 36 482 62 482 C84 482 105 500 105 525 C105 547 87 568 62 568 L62 568 Z M188 568 C165 568 145 550 145 525 C145 502 162 482 188 482 C211 482 231 499 231 525 C231 548 214 568 188 568 L188 568 Z " />
<glyph glyph-name="copyright" unicode="&#xa9;" horiz-adv-x="659" d="M123 484 C67 428 39 359 39 278 C39 197 66 129 122 74 C177 19 246 -8 328 -8 C410 -8 479 20 535 76 C591 132 620 200 620 281 C620 362 592 430 537 485 C482 540 413 568 331 568 C249 568 179 540 123 484 L123 484 Z M158 108 C112 154 89 211 89 280 C89 347 112 404 158 451 C205 497 261 520 329 520 C397 520 454 497 500 451 C546 404 569 347 569 280 C569 211 546 154 500 108 C454 61 397 38 329 38 C261 38 205 61 158 108 L158 108 Z M421 217 L413 206 C408 200 398 193 385 186 C371 180 356 176 339 176 C310 176 286 186 266 206 C246 226 236 250 236 280 C236 309 246 334 266 353 C286 373 310 383 339 383 C355 383 370 380 383 373 C396 367 405 362 408 358 C412 354 415 350 416 348 L459 384 L455 389 C452 393 447 397 440 403 C433 408 426 414 416 419 C407 424 396 429 382 432 C368 436 353 438 337 438 C291 438 253 423 222 392 C192 361 176 323 176 278 C176 233 191 196 221 166 C251 136 289 121 335 121 C351 121 367 123 382 128 C396 132 408 137 417 142 C426 147 434 153 442 160 C449 167 454 171 457 174 C459 177 460 179 461 180 L421 217 Z " />
<glyph glyph-name="ordfeminine" unicode="&#xaa;" horiz-adv-x="210" d="M24 384 C24 361 30 343 42 330 C54 317 70 311 89 311 C112 311 135 326 138 354 L138 316 L185 316 L185 496 C185 518 177 536 163 549 C149 563 131 570 109 570 C87 570 70 563 55 549 C41 535 33 516 33 495 L33 487 L83 487 L83 500 C83 508 85 515 90 520 C94 524 100 527 108 527 C125 527 133 518 133 500 L133 448 C123 459 108 465 90 465 C71 465 54 458 42 445 C30 431 24 413 24 391 L24 384 Z M32 229 L185 229 L185 268 L32 268 L32 229 Z M75 396 C75 406 78 414 83 420 C88 426 95 429 104 429 C124 429 133 418 133 396 L133 382 C133 372 131 364 126 358 C120 352 113 349 104 349 C95 349 88 352 83 358 C78 364 75 372 75 382 L75 396 Z " />
<glyph glyph-name="guillemotleft" unicode="&#xab;" horiz-adv-x="464" d="M237 420 L197 459 L40 311 L40 288 L197 140 L237 182 L122 300 L237 420 Z M439 420 L399 459 L242 311 L242 288 L400 140 L440 182 L324 300 L439 420 Z " />
<glyph glyph-name="logicalnot" unicode="&#xac;" horiz-adv-x="352" d="M250 127 L312 127 L312 300 L40 300 L40 243 L250 243 L250 127 L250 127 Z " />
<glyph glyph-name="registered" unicode="&#xae;" horiz-adv-x="334" d="M169 569 C129 569 96 555 69 528 C42 501 28 468 28 429 C28 391 42 358 69 332 C95 305 128 292 167 292 C206 292 240 305 266 332 C293 359 307 392 307 431 C307 470 294 503 267 529 C240 555 207 569 169 569 L169 569 Z M92 354 C72 374 61 400 61 430 C61 461 72 486 92 507 C113 527 138 538 168 538 C198 538 223 527 243 507 C264 486 274 461 274 430 C274 400 264 374 243 354 C223 333 198 323 168 323 C138 323 113 333 92 354 L92 354 Z M116 363 L148 363 L148 409 L164 409 L196 363 L232 363 L196 412 C216 419 226 432 226 453 C226 466 221 477 213 485 C203 493 191 497 176 497 L116 497 L116 363 Z M172 472 C188 472 196 465 196 452 C196 439 188 433 172 433 L148 433 L148 472 L172 472 Z " />
<glyph glyph-name="degree" unicode="&#xb0;" horiz-adv-x="288" d="M62 544 C39 521 28 493 28 460 C28 427 39 399 62 376 C84 354 112 343 146 343 C180 343 208 354 231 377 C254 399 266 427 266 461 C266 494 254 522 231 545 C209 567 180 579 147 579 C113 579 85 567 62 544 L62 544 Z M147 396 C129 396 114 402 102 415 C90 427 84 442 84 460 C84 478 90 494 102 506 C114 519 129 525 147 525 C164 525 179 519 191 506 C202 494 208 478 208 460 C208 442 202 427 191 415 C179 402 164 396 147 396 L147 396 Z " />
<glyph glyph-name="plusminus" unicode="&#xb1;" horiz-adv-x="352" d="M204 411 L147 411 L147 300 L40 300 L40 242 L147 242 L147 131 L204 131 L204 242 L312 242 L312 300 L204 300 L204 411 Z M312 19 L312 77 L40 77 L40 19 L312 19 Z " />
<glyph glyph-name="twosuperior" unicode="&#xb2;" horiz-adv-x="176" d="M162 228 L162 273 L67 273 L138 407 C154 437 162 465 162 488 C162 512 155 532 141 546 C127 561 109 568 87 568 C65 568 47 561 33 546 C18 532 11 513 11 489 L11 458 L60 458 L60 488 C60 510 68 520 85 520 C102 520 111 510 111 488 C111 466 106 446 96 427 L11 264 L11 228 L162 228 L162 228 Z " />
<glyph glyph-name="threesuperior" unicode="&#xb3;" horiz-adv-x="204" d="M175 493 C175 516 168 534 154 548 C140 562 123 568 102 568 C82 568 64 561 50 547 C35 533 28 515 28 493 L28 468 L78 468 L78 493 C78 512 85 522 101 522 C116 522 124 512 124 493 L124 451 C124 431 116 421 101 421 L82 421 L82 381 L101 381 C119 381 127 370 127 348 L127 301 C127 280 119 269 101 269 C83 269 74 280 74 301 L74 331 L25 331 L25 301 C25 278 32 259 46 244 C60 230 78 223 100 223 C123 223 141 230 156 245 C171 259 179 279 179 303 L179 340 C179 366 169 387 150 402 C167 416 175 436 175 460 L175 493 L175 493 Z " />
<glyph glyph-name="acute" unicode="&#xb4;" horiz-adv-x="154" d="M13 436 L69 436 L131 568 L55 568 L13 436 L13 436 Z " />
<glyph glyph-name="mu" unicode="&#xb5;" horiz-adv-x="320" d="M40 410 L40 -128 L112 -128 L112 0 C122 -5 133 -8 145 -8 C175 -8 198 7 214 37 L214 0 L280 0 L280 410 L208 410 L208 113 C208 96 203 83 194 73 C184 63 172 58 157 58 C143 58 132 63 124 73 C116 82 112 96 112 113 L112 410 L40 410 L40 410 Z " />
<glyph glyph-name="paragraph" unicode="&#xb6;" horiz-adv-x="408" d="M156 0 L228 0 L228 496 L296 496 L296 0 L368 0 L368 560 L151 560 C107 560 73 546 48 519 C23 492 10 459 10 419 C10 379 22 346 47 320 C72 293 106 280 149 280 L156 280 L156 0 L156 0 Z " />
<glyph glyph-name="cedilla" unicode="&#xb8;" horiz-adv-x="285" d="M122 0 L129 -5 C134 -9 139 -15 144 -24 C149 -33 151 -43 151 -54 C151 -70 146 -83 136 -92 C126 -101 114 -106 98 -106 C84 -106 75 -105 70 -102 L70 -152 L74 -152 C77 -153 82 -154 88 -155 C94 -156 101 -156 107 -156 C137 -156 161 -148 180 -131 C200 -114 209 -91 209 -63 C209 -51 208 -40 204 -29 C200 -18 195 -10 190 -4 C185 2 179 8 173 13 C166 18 162 21 160 23 C157 24 155 25 154 25 L122 0 L122 0 Z " />
<glyph glyph-name="onesuperior" unicode="&#xb9;" horiz-adv-x="146" d="M4 513 L31 479 L55 498 L55 225 L106 225 L106 561 L63 561 L4 513 L4 513 Z " />
<glyph glyph-name="ordmasculine" unicode="&#xba;" horiz-adv-x="200" d="M23 387 C23 364 30 345 45 331 C59 317 78 310 100 310 C123 310 142 318 157 332 C173 347 180 365 180 389 L180 492 C180 515 173 534 158 548 C143 563 124 570 102 570 C80 570 61 562 46 548 C30 533 23 514 23 490 L23 387 Z M31 228 L172 228 L172 267 L31 267 L31 228 Z M74 494 C74 513 83 523 101 523 C120 523 129 513 129 494 L129 386 C129 377 127 369 121 364 C116 359 110 356 101 356 C93 356 86 359 81 364 C76 369 74 377 74 386 L74 494 Z " />
<glyph glyph-name="guillemotright" unicode="&#xbb;" horiz-adv-x="465" d="M25 181 L65 141 L222 289 L222 313 L65 461 L25 418 L140 300 L25 181 Z M227 181 L267 141 L425 289 L425 313 L267 461 L227 418 L342 300 L227 181 Z " />
<glyph glyph-name="onequarter" unicode="&#xbc;" horiz-adv-x="459" d="M13 506 L40 472 L70 497 L70 224 L121 224 L121 560 L78 560 L13 506 Z M45 0 L97 0 L421 560 L368 560 L45 0 Z M268 123 L268 81 L362 81 L362 0 L409 0 L409 81 L436 81 L436 122 L409 122 L409 336 L361 336 L268 123 Z M309 122 L362 244 L362 122 L309 122 Z " />
<glyph glyph-name="onehalf" unicode="&#xbd;" horiz-adv-x="511" d="M13 506 L40 472 L70 497 L70 224 L122 224 L122 560 L78 560 L13 506 Z M45 0 L97 0 L421 560 L369 560 L45 0 Z M470 0 L470 45 L375 45 L445 179 C461 210 470 237 470 261 C470 285 462 304 448 319 C434 333 416 341 394 341 C373 341 355 333 340 319 C326 304 318 285 318 261 L318 230 L367 230 L367 260 C367 282 376 293 393 293 C410 293 418 282 418 260 C418 238 413 218 403 199 L318 36 L318 0 L470 0 Z " />
<glyph glyph-name="threequarters" unicode="&#xbe;" horiz-adv-x="498" d="M190 489 C190 512 183 530 169 544 C155 558 137 565 116 565 C96 565 79 558 64 543 C50 529 43 511 43 489 L43 464 L92 464 L92 489 C92 509 100 518 116 518 C131 518 139 509 139 489 L139 447 C139 427 131 417 116 417 L116 377 C133 377 142 366 142 345 L142 297 C142 276 133 266 116 266 C97 266 88 276 88 297 L88 327 L40 327 L40 297 C40 274 47 255 61 241 C75 226 93 219 115 219 C137 219 156 226 171 241 C186 256 193 275 193 299 L193 336 C193 363 184 383 164 398 C181 413 190 432 190 457 L190 489 Z M83 0 L136 0 L459 560 L408 560 L83 0 Z M307 123 L307 81 L401 81 L401 0 L448 0 L448 81 L475 81 L475 122 L448 122 L448 336 L400 336 L307 123 Z M348 122 L401 244 L401 122 L348 122 Z " />
<glyph glyph-name="questiondown" unicode="&#xbf;" horiz-adv-x="253" d="M94 368 C94 344 86 319 72 293 C57 266 42 238 28 209 C13 180 6 150 6 119 C6 81 17 50 40 26 C62 3 91 -8 126 -8 C160 -8 188 4 212 27 C235 51 246 83 246 122 L246 168 L177 168 L177 123 C177 104 173 89 164 78 C155 67 143 62 128 62 C113 62 101 67 92 78 C83 89 79 104 79 123 C79 144 83 165 91 188 C100 210 109 229 120 245 C130 261 140 280 148 302 C157 323 161 344 161 364 L161 388 L94 388 L94 368 Z M127 472 C152 472 175 492 175 520 C175 545 155 568 127 568 C102 568 79 547 79 520 C79 495 99 472 127 472 L127 472 Z " />
<glyph glyph-name="Agrave" unicode="&#xc0;" horiz-adv-x="312" d="M189 560 L109 560 L4 0 L73 0 L96 126 L202 126 L225 0 L304 0 L189 560 Z M151 422 L200 186 L107 186 L151 422 Z M168 760 L92 760 L153 628 L209 628 L168 760 Z " />
<glyph glyph-name="Aacute" unicode="&#xc1;" horiz-adv-x="312" d="M189 560 L109 560 L4 0 L73 0 L96 126 L202 126 L225 0 L304 0 L189 560 Z M151 422 L200 186 L107 186 L151 422 Z M88 636 L144 636 L206 768 L130 768 L88 636 Z " />
<glyph glyph-name="Acircumflex" unicode="&#xc2;" horiz-adv-x="312" d="M189 560 L109 560 L4 0 L73 0 L96 126 L202 126 L225 0 L304 0 L189 560 Z M151 422 L200 186 L107 186 L151 422 Z M47 628 L102 628 L149 705 L197 628 L255 628 L179 760 L123 760 L47 628 Z " />
<glyph glyph-name="Atilde" unicode="&#xc3;" horiz-adv-x="312" d="M189 560 L109 560 L4 0 L73 0 L96 126 L202 126 L225 0 L304 0 L189 560 Z M151 422 L200 186 L107 186 L151 422 Z M57 604 L59 616 C59 624 62 632 67 640 C72 648 80 652 89 652 C100 652 112 647 123 639 C134 630 146 621 159 612 C172 602 188 597 208 597 C223 597 237 601 249 609 C260 617 269 625 274 635 C280 645 284 656 287 668 C290 681 292 689 292 694 C293 699 293 703 293 706 L239 706 L238 694 C238 687 235 679 229 671 C224 663 217 659 208 659 C196 659 185 663 173 672 C162 680 150 689 138 699 C125 708 110 713 92 713 C76 713 61 709 49 702 C38 694 29 685 24 676 C18 666 14 655 10 643 C7 630 5 621 5 616 C5 612 5 608 5 604 L57 604 Z " />
<glyph glyph-name="Adieresis" unicode="&#xc4;" horiz-adv-x="312" d="M189 560 L109 560 L4 0 L73 0 L96 126 L202 126 L225 0 L304 0 L189 560 Z M151 422 L200 186 L107 186 L151 422 Z M83 768 C60 768 40 751 40 725 C40 702 57 682 83 682 C105 682 126 700 126 725 C126 747 108 768 83 768 L83 768 Z M209 768 C186 768 166 750 166 725 C166 702 183 682 209 682 C232 682 252 699 252 725 C252 748 235 768 209 768 L209 768 Z " />
<glyph glyph-name="Aring" unicode="&#xc5;" horiz-adv-x="312" d="M189 560 L109 560 L4 0 L73 0 L96 126 L202 126 L225 0 L304 0 L189 560 Z M151 422 L200 186 L107 186 L151 422 Z M97 724 C83 711 76 694 76 673 C76 653 83 637 97 623 C110 610 128 604 149 604 C170 604 188 610 202 623 C216 637 223 653 223 673 C223 694 216 711 202 724 C188 737 170 744 149 744 C128 744 110 737 97 724 L97 724 Z M149 640 C139 640 131 643 125 649 C119 655 115 663 115 673 C115 684 119 692 125 698 C131 705 139 708 149 708 C159 708 167 705 174 698 C180 692 183 684 183 673 C183 663 180 655 174 649 C167 643 159 640 149 640 L149 640 Z " />
<glyph glyph-name="AE" unicode="&#xc6;" horiz-adv-x="451" d="M425 485 L425 560 L160 560 L9 0 L84 0 L117 125 L217 125 L217 0 L429 0 L429 73 L293 73 L293 255 L401 255 L401 324 L293 324 L293 485 L425 485 Z M134 186 L217 497 L217 186 L134 186 Z " />
<glyph glyph-name="Ccedilla" unicode="&#xc7;" horiz-adv-x="321" d="M220 122 C220 104 215 89 205 78 C196 68 183 62 168 62 C152 62 139 68 130 78 C120 89 116 104 116 122 L116 437 C116 455 120 470 130 481 C139 492 152 497 168 497 C183 497 196 492 205 481 C215 470 220 455 220 437 L220 364 L292 364 L292 441 C292 480 281 511 258 534 C235 557 205 568 169 568 C132 568 102 556 77 532 C52 507 40 476 40 437 L40 121 C40 82 52 51 76 27 C100 4 130 -8 166 -8 C202 -8 232 4 256 28 C280 51 292 82 292 121 L292 204 L220 204 L220 122 Z M147 0 L154 -5 C159 -9 164 -15 169 -24 C174 -33 176 -43 176 -54 C176 -70 171 -83 161 -92 C151 -101 139 -106 123 -106 C109 -106 100 -105 95 -102 L95 -152 L99 -152 C102 -153 107 -154 113 -155 C119 -156 126 -156 132 -156 C162 -156 186 -148 205 -131 C225 -114 234 -91 234 -63 C234 -51 233 -40 229 -29 C225 -18 220 -10 215 -4 C210 2 204 8 198 13 C191 18 187 21 185 23 C182 24 180 25 179 25 L147 0 Z " />
<glyph glyph-name="Egrave" unicode="&#xc8;" horiz-adv-x="270" d="M253 0 L253 74 L117 74 L117 255 L225 255 L225 324 L117 324 L117 486 L248 486 L248 560 L40 560 L40 0 L253 0 Z M145 738 L69 738 L130 606 L186 606 L145 738 Z " />
<glyph glyph-name="Eacute" unicode="&#xc9;" horiz-adv-x="270" d="M253 0 L253 74 L117 74 L117 255 L225 255 L225 324 L117 324 L117 486 L248 486 L248 560 L40 560 L40 0 L253 0 Z M75 602 L131 602 L193 734 L117 734 L75 602 Z " />
<glyph glyph-name="Ecircumflex" unicode="&#xca;" horiz-adv-x="270" d="M253 0 L253 74 L117 74 L117 255 L225 255 L225 324 L117 324 L117 486 L248 486 L248 560 L40 560 L40 0 L253 0 Z M33 599 L88 599 L135 676 L183 599 L241 599 L165 731 L109 731 L33 599 Z " />
<glyph glyph-name="Edieresis" unicode="&#xcb;" horiz-adv-x="270" d="M253 0 L253 74 L117 74 L117 255 L225 255 L225 324 L117 324 L117 486 L248 486 L248 560 L40 560 L40 0 L253 0 Z M68 736 C45 736 25 719 25 693 C25 670 42 650 68 650 C90 650 111 668 111 693 C111 715 93 736 68 736 L68 736 Z M194 736 C171 736 151 718 151 693 C151 670 168 650 194 650 C217 650 237 667 237 693 C237 716 220 736 194 736 L194 736 Z " />
<glyph glyph-name="Igrave" unicode="&#xcc;" horiz-adv-x="159" d="M40 0 L118 0 L118 560 L40 560 L40 0 Z M97 734 L21 734 L82 602 L138 602 L97 734 Z " />
<glyph glyph-name="Iacute" unicode="&#xcd;" horiz-adv-x="158" d="M40 0 L118 0 L118 560 L40 560 L40 0 Z M26 608 L82 608 L144 740 L68 740 L26 608 Z " />
<glyph glyph-name="Icircumflex" unicode="&#xce;" horiz-adv-x="158" d="M40 0 L118 0 L118 560 L40 560 L40 0 Z M-25 605 L30 605 L77 682 L125 605 L183 605 L107 737 L51 737 L-25 605 Z " />
<glyph glyph-name="Idieresis" unicode="&#xcf;" horiz-adv-x="159" d="M40 0 L118 0 L118 560 L40 560 L40 0 Z M11 736 C-12 736 -32 719 -32 693 C-32 670 -15 650 11 650 C33 650 54 668 54 693 C54 715 36 736 11 736 L11 736 Z M137 736 C114 736 94 718 94 693 C94 670 111 650 137 650 C160 650 180 667 180 693 C180 716 163 736 137 736 L137 736 Z " />
<glyph glyph-name="Eth" unicode="&#xd0;" horiz-adv-x="390" d="M90 0 L213 0 C254 0 288 12 313 36 C338 61 350 95 350 139 L350 423 C350 467 338 500 314 524 C290 548 257 560 215 560 L90 560 L90 307 L30 307 L30 258 L90 258 L90 0 Z M166 489 L210 489 C231 489 246 483 257 471 C269 459 274 441 274 417 L274 141 C274 118 269 100 257 88 C246 75 231 69 210 69 L166 69 L166 258 L234 258 L234 307 L166 307 L166 489 Z " />
<glyph glyph-name="Ntilde" unicode="&#xd1;" horiz-adv-x="348" d="M241 0 L308 0 L308 560 L241 560 L241 183 L112 560 L40 560 L40 0 L107 0 L107 391 L241 0 Z M64 608 L66 620 C66 628 69 636 74 644 C79 652 87 656 96 656 C107 656 119 651 130 643 C141 634 153 625 166 616 C179 606 195 601 215 601 C230 601 244 605 256 613 C267 621 276 629 281 639 C287 649 291 660 294 672 C297 685 299 693 299 698 C300 703 300 707 300 710 L246 710 L245 698 C245 691 242 683 236 675 C231 667 224 663 215 663 C203 663 192 667 180 676 C169 684 157 693 145 703 C132 712 117 717 99 717 C83 717 68 713 56 706 C45 698 36 689 31 680 C25 670 21 659 17 647 C14 634 12 625 12 620 C12 616 12 612 12 608 L64 608 Z " />
<glyph glyph-name="Ograve" unicode="&#xd2;" horiz-adv-x="344" d="M40 125 C40 84 52 52 77 28 C101 4 132 -8 170 -8 C208 -8 240 4 265 29 C291 54 304 87 304 127 L304 435 C304 476 291 508 267 532 C242 556 211 568 173 568 C135 568 103 556 78 531 C53 506 40 473 40 433 L40 125 Z M116 433 C116 453 121 469 131 480 C141 491 155 497 172 497 C188 497 202 491 212 480 C223 469 228 453 228 433 L228 126 C228 107 223 91 212 80 C202 68 188 62 172 62 C155 62 141 68 131 80 C121 91 116 107 116 126 L116 433 Z M191 729 L115 729 L176 597 L232 597 L191 729 Z " />
<glyph glyph-name="Oacute" unicode="&#xd3;" horiz-adv-x="344" d="M40 125 C40 84 52 52 77 28 C101 4 132 -8 170 -8 C208 -8 240 4 265 29 C291 54 304 87 304 127 L304 435 C304 476 291 508 267 532 C242 556 211 568 173 568 C135 568 103 556 78 531 C53 506 40 473 40 433 L40 125 Z M116 433 C116 453 121 469 131 480 C141 491 155 497 172 497 C188 497 202 491 212 480 C223 469 228 453 228 433 L228 126 C228 107 223 91 212 80 C202 68 188 62 172 62 C155 62 141 68 131 80 C121 91 116 107 116 126 L116 433 Z M121 596 L177 596 L239 728 L163 728 L121 596 Z " />
<glyph glyph-name="Ocircumflex" unicode="&#xd4;" horiz-adv-x="344" d="M40 125 C40 84 52 52 77 28 C101 4 132 -8 170 -8 C208 -8 240 4 265 29 C291 54 304 87 304 127 L304 435 C304 476 291 508 267 532 C242 556 211 568 173 568 C135 568 103 556 78 531 C53 506 40 473 40 433 L40 125 Z M116 433 C116 453 121 469 131 480 C141 491 155 497 172 497 C188 497 202 491 212 480 C223 469 228 453 228 433 L228 126 C228 107 223 91 212 80 C202 68 188 62 172 62 C155 62 141 68 131 80 C121 91 116 107 116 126 L116 433 Z M70 597 L125 597 L172 674 L220 597 L278 597 L202 729 L146 729 L70 597 Z " />
<glyph glyph-name="Otilde" unicode="&#xd5;" horiz-adv-x="344" d="M40 125 C40 84 52 52 77 28 C101 4 132 -8 170 -8 C208 -8 240 4 265 29 C291 54 304 87 304 127 L304 435 C304 476 291 508 267 532 C242 556 211 568 173 568 C135 568 103 556 78 531 C53 506 40 473 40 433 L40 125 Z M116 433 C116 453 121 469 131 480 C141 491 155 497 172 497 C188 497 202 491 212 480 C223 469 228 453 228 433 L228 126 C228 107 223 91 212 80 C202 68 188 62 172 62 C155 62 141 68 131 80 C121 91 116 107 116 126 L116 433 Z M80 612 L82 624 C82 632 85 640 90 648 C95 656 103 660 112 660 C123 660 135 655 146 647 C157 638 169 629 182 620 C195 610 211 605 231 605 C246 605 260 609 272 617 C283 625 292 633 297 643 C303 653 307 664 310 676 C313 689 315 697 315 702 C316 707 316 711 316 714 L262 714 L261 702 C261 695 258 687 252 679 C247 671 240 667 231 667 C219 667 208 671 196 680 C185 688 173 697 161 707 C148 716 133 721 115 721 C99 721 84 717 72 710 C61 702 52 693 47 684 C41 674 37 663 33 651 C30 638 28 629 28 624 C28 620 28 616 28 612 L80 612 Z " />
<glyph glyph-name="Odieresis" unicode="&#xd6;" horiz-adv-x="344" d="M40 125 C40 84 52 52 77 28 C101 4 132 -8 170 -8 C208 -8 240 4 265 29 C291 54 304 87 304 127 L304 435 C304 476 291 508 267 532 C242 556 211 568 173 568 C135 568 103 556 78 531 C53 506 40 473 40 433 L40 125 Z M116 433 C116 453 121 469 131 480 C141 491 155 497 172 497 C188 497 202 491 212 480 C223 469 228 453 228 433 L228 126 C228 107 223 91 212 80 C202 68 188 62 172 62 C155 62 141 68 131 80 C121 91 116 107 116 126 L116 433 Z M108 734 C85 734 65 717 65 691 C65 668 82 648 108 648 C130 648 151 666 151 691 C151 713 133 734 108 734 L108 734 Z M234 734 C211 734 191 716 191 691 C191 668 208 648 234 648 C257 648 277 665 277 691 C277 714 260 734 234 734 L234 734 Z " />
<glyph glyph-name="multiply" unicode="&#xd7;" horiz-adv-x="280" d="M232 149 L273 190 L181 281 L273 373 L232 415 L140 323 L48 415 L7 373 L99 281 L7 190 L48 149 L140 240 L232 149 L232 149 Z " />
<glyph glyph-name="Oslash" unicode="&#xd8;" horiz-adv-x="344" d="M312 584 L272 584 L255 541 C232 559 205 568 174 568 C136 568 104 555 78 530 C53 506 40 473 40 432 L40 125 C40 95 47 69 60 48 L32 -24 L72 -24 L88 17 C111 0 139 -8 171 -8 C209 -8 241 4 266 29 C291 54 304 86 304 127 L304 435 C304 463 297 488 283 511 L312 584 Z M116 433 C116 453 121 469 132 480 C142 491 156 496 172 496 C198 496 215 485 223 461 L116 188 L116 433 Z M172 62 C146 62 129 74 120 98 L228 371 L228 126 C228 106 223 91 213 79 C203 68 189 62 172 62 L172 62 Z " />
<glyph glyph-name="Ugrave" unicode="&#xd9;" horiz-adv-x="336" d="M220 560 L220 122 C220 104 216 89 206 78 C196 68 184 62 168 62 C152 62 140 68 131 78 C121 89 117 104 117 122 L117 560 L40 560 L40 121 C40 82 52 51 76 27 C100 4 130 -8 166 -8 C203 -8 234 4 258 28 C283 53 296 84 296 123 L296 560 L220 560 Z M184 740 L108 740 L169 608 L225 608 L184 740 Z " />
<glyph glyph-name="Uacute" unicode="&#xda;" horiz-adv-x="336" d="M220 560 L220 122 C220 104 216 89 206 78 C196 68 184 62 168 62 C152 62 140 68 131 78 C121 89 117 104 117 122 L117 560 L40 560 L40 121 C40 82 52 51 76 27 C100 4 130 -8 166 -8 C203 -8 234 4 258 28 C283 53 296 84 296 123 L296 560 L220 560 Z M115 606 L171 606 L233 738 L157 738 L115 606 Z " />
<glyph glyph-name="Ucircumflex" unicode="&#xdb;" horiz-adv-x="336" d="M220 560 L220 122 C220 104 216 89 206 78 C196 68 184 62 168 62 C152 62 140 68 131 78 C121 89 117 104 117 122 L117 560 L40 560 L40 121 C40 82 52 51 76 27 C100 4 130 -8 166 -8 C203 -8 234 4 258 28 C283 53 296 84 296 123 L296 560 L220 560 Z M64 609 L119 609 L166 686 L214 609 L272 609 L196 741 L140 741 L64 609 Z " />
<glyph glyph-name="Udieresis" unicode="&#xdc;" horiz-adv-x="336" d="M220 560 L220 122 C220 104 216 89 206 78 C196 68 184 62 168 62 C152 62 140 68 131 78 C121 89 117 104 117 122 L117 560 L40 560 L40 121 C40 82 52 51 76 27 C100 4 130 -8 166 -8 C203 -8 234 4 258 28 C283 53 296 84 296 123 L296 560 L220 560 Z M102 738 C79 738 59 721 59 695 C59 672 76 652 102 652 C124 652 145 670 145 695 C145 717 127 738 102 738 L102 738 Z M228 738 C205 738 185 720 185 695 C185 672 202 652 228 652 C251 652 271 669 271 695 C271 718 254 738 228 738 L228 738 Z " />
<glyph glyph-name="Yacute" unicode="&#xdd;" horiz-adv-x="297" d="M110 0 L186 0 L186 216 L291 560 L214 560 L151 314 L88 560 L7 560 L110 217 L110 0 Z M93 601 L149 601 L211 733 L135 733 L93 601 Z " />
<glyph glyph-name="Thorn" unicode="&#xde;" horiz-adv-x="340" d="M40 0 L116 0 L116 124 L158 124 C201 124 236 136 261 161 C287 186 300 221 300 267 L300 321 C300 366 287 402 263 426 C238 450 204 462 161 462 L116 462 L116 560 L40 560 L40 0 Z M116 394 L160 394 C180 394 196 387 207 375 C218 363 224 345 224 322 L224 264 C224 240 218 223 207 210 C196 198 180 192 160 192 L116 192 L116 394 Z " />
<glyph glyph-name="germandbls" unicode="&#xdf;" horiz-adv-x="335" d="M160 -8 L189 -8 C223 -8 252 4 276 27 C300 51 312 82 312 121 L312 231 C312 262 305 287 290 309 C275 330 255 345 231 353 L295 484 L292 493 C290 498 285 506 279 514 C273 522 265 530 257 538 C248 546 236 553 220 559 C204 565 187 568 169 568 C132 568 102 555 77 531 C52 507 40 475 40 437 L40 0 L115 0 L115 435 C115 454 120 469 130 480 C140 491 154 496 169 496 C194 496 212 486 221 464 L164 348 L164 297 L180 297 C196 297 210 291 220 280 C231 268 236 253 236 232 L236 126 C236 106 231 91 220 79 C210 68 196 62 180 62 C171 62 160 62 160 62 L160 -8 L160 -8 Z " />
<glyph glyph-name="agrave" unicode="&#xe0;" horiz-adv-x="313" d="M25 109 C25 73 35 45 54 24 C73 3 97 -8 127 -8 C164 -8 204 18 208 77 L208 0 L273 0 L273 301 C273 336 262 364 240 386 C217 407 190 418 156 418 C124 418 96 407 74 384 C52 362 40 333 40 298 L40 282 L110 282 L110 302 C110 319 114 332 123 341 C131 350 142 355 156 355 C169 355 180 350 188 341 C197 332 201 319 201 302 L201 212 C184 234 160 246 129 246 C99 246 75 235 55 213 C35 191 25 162 25 126 L25 109 Z M97 130 C97 148 102 163 112 174 C121 185 134 190 149 190 C165 190 177 185 187 174 C196 163 201 148 201 130 L201 110 C201 92 196 78 187 67 C177 56 165 50 149 50 C134 50 121 56 112 67 C102 78 97 92 97 110 L97 130 Z M172 560 L96 560 L157 428 L213 428 L172 560 Z " />
<glyph glyph-name="aacute" unicode="&#xe1;" horiz-adv-x="313" d="M25 109 C25 73 35 45 54 24 C73 3 97 -8 127 -8 C164 -8 204 18 208 77 L208 0 L273 0 L273 301 C273 336 262 364 240 386 C217 407 190 418 156 418 C124 418 96 407 74 384 C52 362 40 333 40 298 L40 282 L110 282 L110 302 C110 319 114 332 123 341 C131 350 142 355 156 355 C169 355 180 350 188 341 C197 332 201 319 201 302 L201 212 C184 234 160 246 129 246 C99 246 75 235 55 213 C35 191 25 162 25 126 L25 109 Z M97 130 C97 148 102 163 112 174 C121 185 134 190 149 190 C165 190 177 185 187 174 C196 163 201 148 201 130 L201 110 C201 92 196 78 187 67 C177 56 165 50 149 50 C134 50 121 56 112 67 C102 78 97 92 97 110 L97 130 Z M105 436 L161 436 L223 568 L147 568 L105 436 Z " />
<glyph glyph-name="acircumflex" unicode="&#xe2;" horiz-adv-x="313" d="M25 109 C25 73 35 45 54 24 C73 3 97 -8 127 -8 C164 -8 204 18 208 77 L208 0 L273 0 L273 301 C273 336 262 364 240 386 C217 407 190 418 156 418 C124 418 96 407 74 384 C52 362 40 333 40 298 L40 282 L110 282 L110 302 C110 319 114 332 123 341 C131 350 142 355 156 355 C169 355 180 350 188 341 C197 332 201 319 201 302 L201 212 C184 234 160 246 129 246 C99 246 75 235 55 213 C35 191 25 162 25 126 L25 109 Z M97 130 C97 148 102 163 112 174 C121 185 134 190 149 190 C165 190 177 185 187 174 C196 163 201 148 201 130 L201 110 C201 92 196 78 187 67 C177 56 165 50 149 50 C134 50 121 56 112 67 C102 78 97 92 97 110 L97 130 Z M51 428 L106 428 L153 505 L201 428 L259 428 L183 560 L127 560 L51 428 Z " />
<glyph glyph-name="atilde" unicode="&#xe3;" horiz-adv-x="313" d="M25 109 C25 73 35 45 54 24 C73 3 97 -8 127 -8 C164 -8 204 18 208 77 L208 0 L273 0 L273 301 C273 336 262 364 240 386 C217 407 190 418 156 418 C124 418 96 407 74 384 C52 362 40 333 40 298 L40 282 L110 282 L110 302 C110 319 114 332 123 341 C131 350 142 355 156 355 C169 355 180 350 188 341 C197 332 201 319 201 302 L201 212 C184 234 160 246 129 246 C99 246 75 235 55 213 C35 191 25 162 25 126 L25 109 Z M97 130 C97 148 102 163 112 174 C121 185 134 190 149 190 C165 190 177 185 187 174 C196 163 201 148 201 130 L201 110 C201 92 196 78 187 67 C177 56 165 50 149 50 C134 50 121 56 112 67 C102 78 97 92 97 110 L97 130 Z M63 459 L65 471 C65 479 68 487 73 495 C78 503 86 507 95 507 C106 507 118 502 129 494 C140 485 152 476 165 467 C178 457 194 452 214 452 C229 452 243 456 255 464 C266 472 275 480 280 490 C286 500 290 511 293 523 C296 536 298 544 298 549 C299 554 299 558 299 561 L245 561 L244 549 C244 542 241 534 235 526 C230 518 223 514 214 514 C202 514 191 518 179 527 C168 535 156 544 144 554 C131 563 116 568 98 568 C82 568 67 564 55 557 C44 549 35 540 30 531 C24 521 20 510 16 498 C13 485 11 476 11 471 C11 467 11 463 11 459 L63 459 Z " />
<glyph glyph-name="adieresis" unicode="&#xe4;" horiz-adv-x="313" d="M25 109 C25 73 35 45 54 24 C73 3 97 -8 127 -8 C164 -8 204 18 208 77 L208 0 L273 0 L273 301 C273 336 262 364 240 386 C217 407 190 418 156 418 C124 418 96 407 74 384 C52 362 40 333 40 298 L40 282 L110 282 L110 302 C110 319 114 332 123 341 C131 350 142 355 156 355 C169 355 180 350 188 341 C197 332 201 319 201 302 L201 212 C184 234 160 246 129 246 C99 246 75 235 55 213 C35 191 25 162 25 126 L25 109 Z M97 130 C97 148 102 163 112 174 C121 185 134 190 149 190 C165 190 177 185 187 174 C196 163 201 148 201 130 L201 110 C201 92 196 78 187 67 C177 56 165 50 149 50 C134 50 121 56 112 67 C102 78 97 92 97 110 L97 130 Z M87 568 C64 568 44 551 44 525 C44 502 61 482 87 482 C109 482 130 500 130 525 C130 547 112 568 87 568 L87 568 Z M213 568 C190 568 170 550 170 525 C170 502 187 482 213 482 C236 482 256 499 256 525 C256 548 239 568 213 568 L213 568 Z " />
<glyph glyph-name="aring" unicode="&#xe5;" horiz-adv-x="313" d="M25 109 C25 73 35 45 54 24 C73 3 97 -8 127 -8 C164 -8 204 18 208 77 L208 0 L273 0 L273 301 C273 336 262 364 240 386 C217 407 190 418 156 418 C124 418 96 407 74 384 C52 362 40 333 40 298 L40 282 L110 282 L110 302 C110 319 114 332 123 341 C131 350 142 355 156 355 C169 355 180 350 188 341 C197 332 201 319 201 302 L201 212 C184 234 160 246 129 246 C99 246 75 235 55 213 C35 191 25 162 25 126 L25 109 Z M97 130 C97 148 102 163 112 174 C121 185 134 190 149 190 C165 190 177 185 187 174 C196 163 201 148 201 130 L201 110 C201 92 196 78 187 67 C177 56 165 50 149 50 C134 50 121 56 112 67 C102 78 97 92 97 110 L97 130 Z M101 524 C87 511 80 494 80 473 C80 453 87 437 101 423 C114 410 132 404 153 404 C174 404 192 410 206 423 C220 437 227 453 227 473 C227 494 220 511 206 524 C192 537 174 544 153 544 C132 544 114 537 101 524 L101 524 Z M153 440 C143 440 135 443 129 449 C123 455 119 463 119 473 C119 484 123 492 129 498 C135 505 143 508 153 508 C163 508 171 505 178 498 C184 492 187 484 187 473 C187 463 184 455 178 449 C171 443 163 440 153 440 L153 440 Z " />
<glyph glyph-name="ae" unicode="&#xe6;" horiz-adv-x="479" d="M25 108 C25 73 35 44 54 23 C74 2 99 -8 131 -8 C177 -8 209 9 228 43 C247 9 277 -8 319 -8 C353 -8 381 3 405 26 C428 48 439 77 439 113 L439 140 L372 140 L372 115 C372 98 367 84 358 74 C349 63 337 58 322 58 C308 58 296 63 287 73 C277 83 273 97 273 115 L273 200 L439 200 L439 298 C439 334 428 363 406 385 C383 407 355 418 322 418 C286 418 259 404 238 377 C219 404 192 418 156 418 C124 418 96 407 74 384 C51 361 40 333 40 298 L40 282 L110 282 L110 302 C110 319 114 332 122 341 C131 350 142 355 155 355 C169 355 180 350 188 341 C197 332 201 319 201 302 L201 212 C183 234 159 245 129 245 C99 245 74 234 54 212 C35 191 25 162 25 126 L25 108 Z M97 130 C97 148 102 163 111 174 C121 185 133 190 149 190 C164 190 177 185 186 174 C196 163 201 148 201 130 L201 110 C201 92 196 77 186 67 C177 56 164 50 149 50 C133 50 121 56 111 67 C102 77 97 92 97 110 L97 130 Z M273 302 C273 320 277 334 286 344 C296 354 308 359 322 359 C337 359 349 354 358 344 C367 334 372 320 372 302 L372 249 L273 249 L273 302 Z " />
<glyph glyph-name="ccedilla" unicode="&#xe7;" horiz-adv-x="314" d="M205 164 L205 112 C205 96 201 83 192 73 C183 63 172 58 159 58 C145 58 134 63 125 73 C117 83 112 96 112 112 L112 298 C112 314 117 327 125 337 C134 346 145 351 159 351 C172 351 183 346 192 337 C201 327 205 314 205 298 L205 250 L274 250 L274 300 C274 335 263 364 241 386 C219 407 192 418 160 418 C127 418 98 407 75 384 C52 362 40 333 40 298 L40 110 C40 75 52 47 74 25 C96 3 124 -8 157 -8 C190 -8 217 3 240 26 C263 49 274 78 274 113 L274 164 L205 164 Z M139 0 L146 -5 C151 -9 156 -15 161 -24 C166 -33 168 -43 168 -54 C168 -70 163 -83 153 -92 C143 -101 131 -106 115 -106 C101 -106 92 -105 87 -102 L87 -152 L91 -152 C94 -153 99 -154 105 -155 C111 -156 118 -156 124 -156 C154 -156 178 -148 197 -131 C217 -114 226 -91 226 -63 C226 -51 225 -40 221 -29 C217 -18 212 -10 207 -4 C202 2 196 8 190 13 C183 18 179 21 177 23 C174 24 172 25 171 25 L139 0 Z " />
<glyph glyph-name="egrave" unicode="&#xe8;" horiz-adv-x="315" d="M211 115 C211 98 207 84 197 74 C188 64 176 58 162 58 C147 58 136 64 126 74 C117 84 112 98 112 115 L112 200 L279 200 L279 298 C279 334 267 363 245 385 C223 407 195 418 161 418 C127 418 99 407 76 384 C52 361 40 332 40 296 L40 111 C40 75 52 47 74 25 C97 3 125 -8 159 -8 C192 -8 221 3 244 26 C267 49 279 78 279 114 L279 140 L211 140 L211 115 Z M112 299 C112 317 117 331 126 341 C136 351 147 356 162 356 C176 356 188 351 197 340 C207 330 211 316 211 299 L211 251 L112 251 L112 299 Z M175 560 L99 560 L160 428 L216 428 L175 560 Z " />
<glyph glyph-name="eacute" unicode="&#xe9;" horiz-adv-x="319" d="M211 115 C211 98 207 84 197 74 C188 64 176 58 162 58 C147 58 136 64 126 74 C117 84 112 98 112 115 L112 200 L279 200 L279 298 C279 334 267 363 245 385 C223 407 195 418 161 418 C127 418 99 407 76 384 C52 361 40 332 40 296 L40 111 C40 75 52 47 74 25 C97 3 125 -8 159 -8 C192 -8 221 3 244 26 C267 49 279 78 279 114 L279 140 L211 140 L211 115 Z M112 299 C112 317 117 331 126 341 C136 351 147 356 162 356 C176 356 188 351 197 340 C207 330 211 316 211 299 L211 251 L112 251 L112 299 Z M108 436 L164 436 L226 568 L150 568 L108 436 Z " />
<glyph glyph-name="ecircumflex" unicode="&#xea;" horiz-adv-x="319" d="M211 115 C211 98 207 84 197 74 C188 64 176 58 162 58 C147 58 136 64 126 74 C117 84 112 98 112 115 L112 200 L279 200 L279 298 C279 334 267 363 245 385 C223 407 195 418 161 418 C127 418 99 407 76 384 C52 361 40 332 40 296 L40 111 C40 75 52 47 74 25 C97 3 125 -8 159 -8 C192 -8 221 3 244 26 C267 49 279 78 279 114 L279 140 L211 140 L211 115 Z M112 299 C112 317 117 331 126 341 C136 351 147 356 162 356 C176 356 188 351 197 340 C207 330 211 316 211 299 L211 251 L112 251 L112 299 Z M54 428 L109 428 L156 505 L204 428 L262 428 L186 560 L130 560 L54 428 Z " />
<glyph glyph-name="edieresis" unicode="&#xeb;" horiz-adv-x="319" d="M211 115 C211 98 207 84 197 74 C188 64 176 58 162 58 C147 58 136 64 126 74 C117 84 112 98 112 115 L112 200 L279 200 L279 298 C279 334 267 363 245 385 C223 407 195 418 161 418 C127 418 99 407 76 384 C52 361 40 332 40 296 L40 111 C40 75 52 47 74 25 C97 3 125 -8 159 -8 C192 -8 221 3 244 26 C267 49 279 78 279 114 L279 140 L211 140 L211 115 Z M112 299 C112 317 117 331 126 341 C136 351 147 356 162 356 C176 356 188 351 197 340 C207 330 211 316 211 299 L211 251 L112 251 L112 299 Z M93 541 C70 541 50 524 50 498 C50 475 67 455 93 455 C115 455 136 473 136 498 C136 520 118 541 93 541 L93 541 Z M219 541 C196 541 176 523 176 498 C176 475 193 455 219 455 C242 455 262 472 262 498 C262 521 245 541 219 541 L219 541 Z " />
<glyph glyph-name="igrave" unicode="&#xec;" horiz-adv-x="153" d="M113 0 L113 410 L40 410 L40 0 L113 0 Z M94 568 L18 568 L79 436 L135 436 L94 568 Z " />
<glyph glyph-name="iacute" unicode="&#xed;" horiz-adv-x="153" d="M113 0 L113 410 L40 410 L40 0 L113 0 Z M19 435 L75 435 L137 567 L61 567 L19 435 Z " />
<glyph glyph-name="icircumflex" unicode="&#xee;" horiz-adv-x="153" d="M113 0 L113 410 L40 410 L40 0 L113 0 Z M-27 429 L28 429 L75 506 L123 429 L181 429 L105 561 L49 561 L-27 429 Z " />
<glyph glyph-name="idieresis" unicode="&#xef;" horiz-adv-x="153" d="M113 0 L113 410 L40 410 L40 0 L113 0 Z M14 543 C-9 543 -29 526 -29 500 C-29 477 -12 457 14 457 C36 457 57 475 57 500 C57 522 39 543 14 543 L14 543 Z M140 543 C117 543 97 525 97 500 C97 477 114 457 140 457 C163 457 183 474 183 500 C183 523 166 543 140 543 L140 543 Z " />
<glyph glyph-name="eth" unicode="&#xf0;" horiz-adv-x="310" d="M256 342 L206 462 L257 514 L211 560 L179 528 L166 560 L92 560 L127 477 L75 425 L122 378 L155 412 L194 321 C181 351 156 360 139 360 C105 360 78 349 58 327 C38 305 28 275 28 237 L28 121 C28 83 40 52 65 28 C89 4 120 -8 156 -8 C192 -8 221 4 245 27 C269 50 281 81 281 119 L281 213 C281 259 272 302 256 342 L256 342 Z M208 123 C208 104 203 89 193 78 C183 67 170 62 154 62 C138 62 125 67 115 78 C106 89 101 104 101 123 L101 235 C101 254 106 269 115 280 C125 291 138 296 154 296 C170 296 183 291 193 280 C203 269 208 254 208 235 L208 123 L208 123 Z " />
<glyph glyph-name="ntilde" unicode="&#xf1;" horiz-adv-x="320" d="M112 296 C112 314 117 327 126 337 C135 346 147 351 162 351 C176 351 187 346 196 337 C204 327 208 314 208 296 L208 0 L280 0 L280 308 C280 343 272 370 255 389 C238 409 216 418 188 418 C150 418 110 391 105 323 L105 410 L40 410 L40 0 L112 0 L112 296 Z M52 459 L54 471 C54 479 57 487 62 495 C67 503 75 507 84 507 C95 507 107 502 118 494 C129 485 141 476 154 467 C167 457 183 452 203 452 C218 452 232 456 244 464 C255 472 264 480 269 490 C275 500 279 511 282 523 C285 536 287 544 287 549 C288 554 288 558 288 561 L234 561 L233 549 C233 542 230 534 224 526 C219 518 212 514 203 514 C191 514 180 518 168 527 C157 535 145 544 133 554 C120 563 105 568 87 568 C71 568 56 564 44 557 C33 549 24 540 19 531 C13 521 9 510 5 498 C2 485 0 476 0 471 C0 467 0 463 0 459 L52 459 Z " />
<glyph glyph-name="ograve" unicode="&#xf2;" horiz-adv-x="323" d="M40 114 C40 77 51 48 74 26 C97 3 126 -8 160 -8 C194 -8 223 4 247 27 C271 50 283 80 283 116 L283 297 C283 333 272 362 248 385 C225 407 197 418 162 418 C128 418 99 407 76 384 C52 360 40 331 40 294 L40 114 Z M112 294 C112 312 116 326 126 336 C135 346 147 351 162 351 C176 351 188 346 197 336 C207 326 211 312 211 294 L211 115 C211 98 207 84 197 74 C188 64 176 58 162 58 C147 58 135 64 126 74 C117 84 112 98 112 115 L112 294 Z M180 584 L104 584 L165 452 L221 452 L180 584 Z " />
<glyph glyph-name="oacute" unicode="&#xf3;" horiz-adv-x="323" d="M40 114 C40 77 51 48 74 26 C97 3 126 -8 160 -8 C194 -8 223 4 247 27 C271 50 283 80 283 116 L283 297 C283 333 272 362 248 385 C225 407 197 418 162 418 C128 418 99 407 76 384 C52 360 40 331 40 294 L40 114 Z M112 294 C112 312 116 326 126 336 C135 346 147 351 162 351 C176 351 188 346 197 336 C207 326 211 312 211 294 L211 115 C211 98 207 84 197 74 C188 64 176 58 162 58 C147 58 135 64 126 74 C117 84 112 98 112 115 L112 294 Z M103 454 L159 454 L221 586 L145 586 L103 454 Z " />
<glyph glyph-name="ocircumflex" unicode="&#xf4;" horiz-adv-x="323" d="M40 114 C40 77 51 48 74 26 C97 3 126 -8 160 -8 C194 -8 223 4 247 27 C271 50 283 80 283 116 L283 297 C283 333 272 362 248 385 C225 407 197 418 162 418 C128 418 99 407 76 384 C52 360 40 331 40 294 L40 114 Z M112 294 C112 312 116 326 126 336 C135 346 147 351 162 351 C176 351 188 346 197 336 C207 326 211 312 211 294 L211 115 C211 98 207 84 197 74 C188 64 176 58 162 58 C147 58 135 64 126 74 C117 84 112 98 112 115 L112 294 Z M59 442 L114 442 L161 519 L209 442 L267 442 L191 574 L135 574 L59 442 Z " />
<glyph glyph-name="otilde" unicode="&#xf5;" horiz-adv-x="323" d="M40 114 C40 77 51 48 74 26 C97 3 126 -8 160 -8 C194 -8 223 4 247 27 C271 50 283 80 283 116 L283 297 C283 333 272 362 248 385 C225 407 197 418 162 418 C128 418 99 407 76 384 C52 360 40 331 40 294 L40 114 Z M112 294 C112 312 116 326 126 336 C135 346 147 351 162 351 C176 351 188 346 197 336 C207 326 211 312 211 294 L211 115 C211 98 207 84 197 74 C188 64 176 58 162 58 C147 58 135 64 126 74 C117 84 112 98 112 115 L112 294 Z M69 459 L71 471 C71 479 74 487 79 495 C84 503 92 507 101 507 C112 507 124 502 135 494 C146 485 158 476 171 467 C184 457 200 452 220 452 C235 452 249 456 261 464 C272 472 281 480 286 490 C292 500 296 511 299 523 C302 536 304 544 304 549 C305 554 305 558 305 561 L251 561 L250 549 C250 542 247 534 241 526 C236 518 229 514 220 514 C208 514 197 518 185 527 C174 535 162 544 150 554 C137 563 122 568 104 568 C88 568 73 564 61 557 C50 549 41 540 36 531 C30 521 26 510 22 498 C19 485 17 476 17 471 C17 467 17 463 17 459 L69 459 Z " />
<glyph glyph-name="odieresis" unicode="&#xf6;" horiz-adv-x="323" d="M40 114 C40 77 51 48 74 26 C97 3 126 -8 160 -8 C194 -8 223 4 247 27 C271 50 283 80 283 116 L283 297 C283 333 272 362 248 385 C225 407 197 418 162 418 C128 418 99 407 76 384 C52 360 40 331 40 294 L40 114 Z M112 294 C112 312 116 326 126 336 C135 346 147 351 162 351 C176 351 188 346 197 336 C207 326 211 312 211 294 L211 115 C211 98 207 84 197 74 C188 64 176 58 162 58 C147 58 135 64 126 74 C117 84 112 98 112 115 L112 294 Z M95 568 C72 568 52 551 52 525 C52 502 69 482 95 482 C117 482 138 500 138 525 C138 547 120 568 95 568 L95 568 Z M221 568 C198 568 178 550 178 525 C178 502 195 482 221 482 C244 482 264 499 264 525 C264 548 247 568 221 568 L221 568 Z " />
<glyph glyph-name="divide" unicode="&#xf7;" horiz-adv-x="352" d="M312 252 L312 315 L40 315 L40 252 L312 252 Z M176 471 C154 471 132 451 132 427 C132 405 152 383 176 383 C198 383 221 402 221 427 C221 449 200 471 176 471 L176 471 Z M176 184 C154 184 132 164 132 140 C132 118 152 96 176 96 C198 96 221 115 221 140 C221 162 201 184 176 184 L176 184 Z " />
<glyph glyph-name="oslash" unicode="&#xf8;" horiz-adv-x="323" d="M295 434 L252 434 L234 396 C213 411 189 418 162 418 C128 418 99 406 75 383 C52 360 40 331 40 294 L40 114 C40 86 47 62 61 42 L28 -24 L71 -24 L89 14 C111 -1 134 -8 160 -8 C194 -8 223 3 247 26 C271 50 283 79 283 116 L283 296 C283 323 276 347 262 367 L295 434 Z M109 295 C109 313 114 327 124 338 C134 348 147 353 162 353 C179 353 193 346 203 333 L109 142 L109 295 Z M162 57 C143 57 129 63 120 77 L213 266 L213 116 C213 97 208 83 198 72 C189 62 177 57 162 57 L162 57 Z " />
<glyph glyph-name="ugrave" unicode="&#xf9;" horiz-adv-x="320" d="M208 114 C208 97 204 83 194 74 C185 64 173 59 159 59 C144 59 133 64 125 74 C116 83 112 97 112 114 L112 410 L40 410 L40 102 C40 68 49 41 65 21 C82 2 104 -8 132 -8 C170 -8 210 19 215 88 L215 0 L280 0 L280 410 L208 410 L208 114 Z M178 581 L102 581 L163 449 L219 449 L178 581 Z " />
<glyph glyph-name="uacute" unicode="&#xfa;" horiz-adv-x="320" d="M208 114 C208 97 204 83 194 74 C185 64 173 59 159 59 C144 59 133 64 125 74 C116 83 112 97 112 114 L112 410 L40 410 L40 102 C40 68 49 41 65 21 C82 2 104 -8 132 -8 C170 -8 210 19 215 88 L215 0 L280 0 L280 410 L208 410 L208 114 Z M100 447 L156 447 L218 579 L142 579 L100 447 Z " />
<glyph glyph-name="ucircumflex" unicode="&#xfb;" horiz-adv-x="320" d="M208 114 C208 97 204 83 194 74 C185 64 173 59 159 59 C144 59 133 64 125 74 C116 83 112 97 112 114 L112 410 L40 410 L40 102 C40 68 49 41 65 21 C82 2 104 -8 132 -8 C170 -8 210 19 215 88 L215 0 L280 0 L280 410 L208 410 L208 114 Z M58 437 L113 437 L160 514 L208 437 L266 437 L190 569 L134 569 L58 437 Z " />
<glyph glyph-name="udieresis" unicode="&#xfc;" horiz-adv-x="320" d="M208 114 C208 97 204 83 194 74 C185 64 173 59 159 59 C144 59 133 64 125 74 C116 83 112 97 112 114 L112 410 L40 410 L40 102 C40 68 49 41 65 21 C82 2 104 -8 132 -8 C170 -8 210 19 215 88 L215 0 L280 0 L280 410 L208 410 L208 114 Z M99 562 C76 562 56 545 56 519 C56 496 73 476 99 476 C121 476 142 494 142 519 C142 541 124 562 99 562 L99 562 Z M225 562 C202 562 182 544 182 519 C182 496 199 476 225 476 C248 476 268 493 268 519 C268 542 251 562 225 562 L225 562 Z " />
<glyph glyph-name="yacute" unicode="&#xfd;" horiz-adv-x="286" d="M110 0 C104 -29 96 -48 88 -59 C79 -70 67 -75 51 -75 C43 -75 31 -75 31 -75 L31 -136 C31 -136 57 -136 65 -136 C90 -136 112 -126 130 -108 C148 -89 163 -56 174 -11 L271 410 L200 410 L146 107 L90 410 L15 410 L110 0 Z M87 450 L143 450 L205 582 L129 582 L87 450 Z " />
<glyph glyph-name="thorn" unicode="&#xfe;" horiz-adv-x="323" d="M40 -67 L112 -67 L112 118 C117 73 152 53 181 53 C211 53 235 63 254 84 C273 104 283 132 283 166 L283 369 C283 402 274 429 255 449 C236 469 213 479 184 479 C153 479 118 456 112 407 L112 621 L40 621 L40 -67 Z M211 176 C211 159 206 145 197 135 C188 124 176 119 161 119 C147 119 135 124 126 135 C116 145 112 158 112 176 L112 355 C112 373 116 387 125 397 C134 407 146 412 161 412 C176 412 188 407 197 397 C206 387 211 373 211 355 L211 176 Z " />
<glyph glyph-name="ydieresis" unicode="&#xff;" horiz-adv-x="286" d="M110 0 C104 -29 96 -48 88 -59 C79 -70 67 -75 51 -75 C43 -75 31 -75 31 -75 L31 -136 C31 -136 57 -136 65 -136 C90 -136 112 -126 130 -108 C148 -89 163 -56 174 -11 L271 410 L200 410 L146 107 L90 410 L15 410 L110 0 Z M80 568 C57 568 37 551 37 525 C37 502 54 482 80 482 C102 482 123 500 123 525 C123 547 105 568 80 568 L80 568 Z M206 568 C183 568 163 550 163 525 C163 502 180 482 206 482 C229 482 249 499 249 525 C249 548 232 568 206 568 L206 568 Z " />
<glyph glyph-name="Abreve" unicode="&#x102;" horiz-adv-x="300" d="M188 560 L108 560 L3 0 L72 0 L95 126 L201 126 L224 0 L303 0 L188 560 Z M150 422 L199 186 L106 186 L150 422 Z M60 735 L60 695 C60 667 69 645 86 628 C103 611 125 603 153 603 C180 603 203 611 220 629 C237 646 246 669 246 697 L246 735 L194 735 L194 695 C194 681 191 670 184 661 C176 652 166 648 153 648 C140 648 129 652 122 661 C116 670 112 681 112 695 L112 735 L60 735 Z " />
<glyph glyph-name="abreve" unicode="&#x103;" horiz-adv-x="313" d="M25 109 C25 73 35 45 54 24 C73 3 97 -8 127 -8 C164 -8 204 18 208 77 L208 0 L273 0 L273 301 C273 336 262 364 240 386 C217 407 190 418 156 418 C124 418 96 407 74 384 C52 362 40 333 40 298 L40 282 L110 282 L110 302 C110 319 114 332 123 341 C131 350 142 355 156 355 C169 355 180 350 188 341 C197 332 201 319 201 302 L201 212 C184 234 160 246 129 246 C99 246 75 235 55 213 C35 191 25 162 25 126 L25 109 Z M97 130 C97 148 102 163 112 174 C121 185 134 190 149 190 C165 190 177 185 187 174 C196 163 201 148 201 130 L201 110 C201 92 196 78 187 67 C177 56 165 50 149 50 C134 50 121 56 112 67 C102 78 97 92 97 110 L97 130 Z M62 572 L62 532 C62 504 71 482 88 465 C105 448 127 440 155 440 C182 440 205 448 222 466 C239 483 248 506 248 534 L248 572 L196 572 L196 532 C196 518 193 507 186 498 C178 489 168 485 155 485 C142 485 131 489 124 498 C118 507 114 518 114 532 L114 572 L62 572 Z " />
<glyph glyph-name="Aogonek" unicode="&#x104;" horiz-adv-x="323" d="M199 560 L119 560 L14 0 L83 0 L106 126 L212 126 L235 0 L314 0 L199 560 Z M161 422 L210 186 L117 186 L161 422 Z M276 31 L262 23 C253 17 245 8 236 -6 C228 -20 224 -36 224 -53 C224 -80 233 -102 253 -119 C273 -137 298 -145 328 -145 C342 -145 353 -144 360 -141 L360 -93 L333 -95 C317 -95 303 -90 292 -81 C282 -71 276 -58 276 -43 C276 -21 283 -6 296 3 L276 31 Z " />
<glyph glyph-name="aogonek" unicode="&#x105;" horiz-adv-x="313" d="M25 109 C25 73 35 45 54 24 C73 3 97 -8 127 -8 C164 -8 204 18 208 77 L208 0 L273 0 L273 301 C273 336 262 364 240 386 C217 407 190 418 156 418 C124 418 96 407 74 384 C52 362 40 333 40 298 L40 282 L110 282 L110 302 C110 319 114 332 123 341 C131 350 142 355 156 355 C169 355 180 350 188 341 C197 332 201 319 201 302 L201 212 C184 234 160 246 129 246 C99 246 75 235 55 213 C35 191 25 162 25 126 L25 109 Z M97 130 C97 148 102 163 112 174 C121 185 134 190 149 190 C165 190 177 185 187 174 C196 163 201 148 201 130 L201 110 C201 92 196 78 187 67 C177 56 165 50 149 50 C134 50 121 56 112 67 C102 78 97 92 97 110 L97 130 Z M246 31 L232 23 C223 17 215 8 206 -6 C198 -20 194 -36 194 -53 C194 -80 203 -102 223 -119 C243 -137 268 -145 298 -145 C312 -145 323 -144 330 -141 L330 -93 L303 -95 C287 -95 273 -90 262 -81 C252 -71 246 -58 246 -43 C246 -21 253 -6 266 3 L246 31 Z " />
<glyph glyph-name="Cacute" unicode="&#x106;" horiz-adv-x="302" d="M208 122 C208 104 203 89 193 78 C184 68 171 62 156 62 C140 62 127 68 118 78 C108 89 104 104 104 122 L104 437 C104 455 108 470 118 481 C127 492 140 497 156 497 C171 497 184 492 193 481 C203 470 208 455 208 437 L208 364 L280 364 L280 441 C280 480 269 511 246 534 C223 557 193 568 157 568 C120 568 90 556 65 532 C40 507 28 476 28 437 L28 121 C28 82 40 51 64 27 C88 4 118 -8 154 -8 C190 -8 220 4 244 28 C268 51 280 82 280 121 L280 204 L208 204 L208 122 Z M101 636 L157 636 L219 768 L143 768 L101 636 Z " />
<glyph glyph-name="cacute" unicode="&#x107;" horiz-adv-x="314" d="M205 164 L205 112 C205 96 201 83 192 73 C183 63 172 58 159 58 C145 58 134 63 125 73 C117 83 112 96 112 112 L112 298 C112 314 117 327 125 337 C134 346 145 351 159 351 C172 351 183 346 192 337 C201 327 205 314 205 298 L205 250 L274 250 L274 300 C274 335 263 364 241 386 C219 407 192 418 160 418 C127 418 98 407 75 384 C52 362 40 333 40 298 L40 110 C40 75 52 47 74 25 C96 3 124 -8 157 -8 C190 -8 217 3 240 26 C263 49 274 78 274 113 L274 164 L205 164 Z M105 436 L161 436 L223 568 L147 568 L105 436 Z " />
<glyph glyph-name="Ccaron" unicode="&#x10c;" horiz-adv-x="302" d="M208 122 C208 104 203 89 193 78 C184 68 171 62 156 62 C140 62 127 68 118 78 C108 89 104 104 104 122 L104 437 C104 455 108 470 118 481 C127 492 140 497 156 497 C171 497 184 492 193 481 C203 470 208 455 208 437 L208 364 L280 364 L280 441 C280 480 269 511 246 534 C223 557 193 568 157 568 C120 568 90 556 65 532 C40 507 28 476 28 437 L28 121 C28 82 40 51 64 27 C88 4 118 -8 154 -8 C190 -8 220 4 244 28 C268 51 280 82 280 121 L280 204 L208 204 L208 122 Z M252 748 L196 752 L149 675 L101 752 L44 752 L120 620 L178 620 L252 748 Z " />
<glyph glyph-name="ccaron" unicode="&#x10d;" horiz-adv-x="314" d="M205 164 L205 112 C205 96 201 83 192 73 C183 63 172 58 159 58 C145 58 134 63 125 73 C117 83 112 96 112 112 L112 298 C112 314 117 327 125 337 C134 346 145 351 159 351 C172 351 183 346 192 337 C201 327 205 314 205 298 L205 250 L274 250 L274 300 C274 335 263 364 241 386 C219 407 192 418 160 418 C127 418 98 407 75 384 C52 362 40 333 40 298 L40 110 C40 75 52 47 74 25 C96 3 124 -8 157 -8 C190 -8 217 3 240 26 C263 49 274 78 274 113 L274 164 L205 164 Z M256 599 L200 603 L153 526 L105 603 L48 603 L124 471 L182 471 L256 599 Z " />
<glyph glyph-name="Dcaron" unicode="&#x10e;" horiz-adv-x="340" d="M40 0 L162 0 C204 0 237 12 262 37 C287 61 300 95 300 139 L300 423 C300 467 287 501 263 524 C239 548 206 560 164 560 L40 560 L40 0 Z M116 490 L160 490 C180 490 195 483 207 471 C218 459 224 441 224 418 L224 142 C224 118 218 100 207 88 C195 76 180 70 160 70 L116 70 L116 490 Z M248 736 L192 740 L145 663 L97 740 L40 740 L116 608 L174 608 L248 736 Z " />
<glyph glyph-name="dcroat" unicode="&#x111;" horiz-adv-x="353" d="M283 560 L211 560 L211 511 L137 511 L137 462 L211 462 L211 386 C194 408 171 418 142 418 C112 418 88 408 69 387 C49 366 40 339 40 305 L40 102 C40 68 49 41 68 21 C86 2 110 -8 139 -8 C174 -8 211 20 218 77 L218 0 L283 0 L283 462 L335 462 L335 511 L283 511 L283 560 Z M112 294 C112 312 116 326 125 336 C135 346 147 351 161 351 C176 351 188 346 197 336 C206 326 211 312 211 294 L211 115 C211 98 206 84 197 74 C188 63 176 58 161 58 C147 58 135 63 126 74 C117 84 112 97 112 115 L112 294 Z " />
<glyph glyph-name="Edotaccent" unicode="&#x116;" horiz-adv-x="280" d="M253 0 L253 74 L117 74 L117 255 L225 255 L225 324 L117 324 L117 486 L248 486 L248 560 L40 560 L40 0 L253 0 Z M141 733 C119 733 98 715 98 690 C98 667 115 646 141 646 C163 646 184 666 184 690 C184 712 165 733 141 733 L141 733 Z " />
<glyph glyph-name="edotaccent" unicode="&#x117;" horiz-adv-x="319" d="M211 115 C211 98 207 84 197 74 C188 64 176 58 162 58 C147 58 136 64 126 74 C117 84 112 98 112 115 L112 200 L279 200 L279 298 C279 334 267 363 245 385 C223 407 195 418 161 418 C127 418 99 407 76 384 C52 361 40 332 40 296 L40 111 C40 75 52 47 74 25 C97 3 125 -8 159 -8 C192 -8 221 3 244 26 C267 49 279 78 279 114 L279 140 L211 140 L211 115 Z M112 299 C112 317 117 331 126 341 C136 351 147 356 162 356 C176 356 188 351 197 340 C207 330 211 316 211 299 L211 251 L112 251 L112 299 Z M158 582 C136 582 115 564 115 539 C115 516 132 495 158 495 C180 495 201 515 201 539 C201 561 182 582 158 582 L158 582 Z " />
<glyph glyph-name="Eogonek" unicode="&#x118;" horiz-adv-x="280" d="M253 0 L253 74 L117 74 L117 255 L225 255 L225 324 L117 324 L117 486 L248 486 L248 560 L40 560 L40 0 L253 0 Z M145 29 L131 21 C122 15 114 6 105 -8 C97 -22 93 -38 93 -55 C93 -82 102 -104 122 -121 C142 -139 167 -147 197 -147 C211 -147 222 -146 229 -143 L229 -95 L202 -97 C186 -97 172 -92 161 -83 C151 -73 145 -60 145 -45 C145 -23 152 -8 165 1 L145 29 Z " />
<glyph glyph-name="eogonek" unicode="&#x119;" horiz-adv-x="319" d="M211 115 C211 98 207 84 197 74 C188 64 176 58 162 58 C147 58 136 64 126 74 C117 84 112 98 112 115 L112 200 L279 200 L279 298 C279 334 267 363 245 385 C223 407 195 418 161 418 C127 418 99 407 76 384 C52 361 40 332 40 296 L40 111 C40 75 52 47 74 25 C97 3 125 -8 159 -8 C192 -8 221 3 244 26 C267 49 279 78 279 114 L279 140 L211 140 L211 115 Z M112 299 C112 317 117 331 126 341 C136 351 147 356 162 356 C176 356 188 351 197 340 C207 330 211 316 211 299 L211 251 L112 251 L112 299 Z M179 29 L165 21 C156 15 148 6 139 -8 C131 -22 127 -38 127 -55 C127 -82 136 -104 156 -121 C176 -139 201 -147 231 -147 C245 -147 256 -146 263 -143 L263 -95 L236 -97 C220 -97 206 -92 195 -83 C185 -73 179 -60 179 -45 C179 -23 186 -8 199 1 L179 29 Z " />
<glyph glyph-name="Ecaron" unicode="&#x11a;" horiz-adv-x="256" d="M253 0 L253 74 L117 74 L117 255 L225 255 L225 324 L117 324 L117 486 L248 486 L248 560 L40 560 L40 0 L253 0 Z M229 733 L173 737 L126 660 L78 737 L21 737 L97 605 L155 605 L229 733 Z " />
<glyph glyph-name="ecaron" unicode="&#x11b;" horiz-adv-x="319" d="M211 115 C211 98 207 84 197 74 C188 64 176 58 162 58 C147 58 136 64 126 74 C117 84 112 98 112 115 L112 200 L279 200 L279 298 C279 334 267 363 245 385 C223 407 195 418 161 418 C127 418 99 407 76 384 C52 361 40 332 40 296 L40 111 C40 75 52 47 74 25 C97 3 125 -8 159 -8 C192 -8 221 3 244 26 C267 49 279 78 279 114 L279 140 L211 140 L211 115 Z M112 299 C112 317 117 331 126 341 C136 351 147 356 162 356 C176 356 188 351 197 340 C207 330 211 316 211 299 L211 251 L112 251 L112 299 Z M257 585 L201 589 L154 512 L106 589 L49 589 L125 457 L183 457 L257 585 Z " />
<glyph glyph-name="Itilde" unicode="&#x128;" horiz-adv-x="158" d="M40 0 L118 0 L118 560 L40 560 L40 0 Z M-13 606 L-11 618 C-11 626 -8 634 -3 642 C2 650 10 654 19 654 C30 654 42 649 53 641 C64 632 76 623 89 614 C102 604 118 599 138 599 C153 599 167 603 179 611 C190 619 199 627 204 637 C210 647 214 658 217 670 C220 683 222 691 222 696 C223 701 223 705 223 708 L169 708 L168 696 C168 689 165 681 159 673 C154 665 147 661 138 661 C126 661 115 665 103 674 C92 682 80 691 68 701 C55 710 40 715 22 715 C6 715 -9 711 -21 704 C-32 696 -41 687 -46 678 C-52 668 -56 657 -60 645 C-63 632 -65 623 -65 618 C-65 614 -65 610 -65 606 L-13 606 Z " />
<glyph glyph-name="Iogonek" unicode="&#x12e;" horiz-adv-x="158" d="M40 0 L118 0 L118 560 L40 560 L40 0 Z M84 29 L70 21 C61 15 53 6 44 -8 C36 -22 32 -38 32 -55 C32 -82 41 -104 61 -121 C81 -139 106 -147 136 -147 C150 -147 161 -146 168 -143 L168 -95 L141 -97 C125 -97 111 -92 100 -83 C90 -73 84 -60 84 -45 C84 -23 91 -8 104 1 L84 29 Z " />
<glyph glyph-name="iogonek" unicode="&#x12f;" horiz-adv-x="153" d="M77 568 C52 568 29 548 29 520 C29 495 49 472 77 472 C102 472 125 493 125 520 C125 545 104 568 77 568 L77 568 Z M40 0 L113 0 L113 410 L40 410 L40 0 Z M81 29 L67 21 C58 15 50 6 41 -8 C33 -22 29 -38 29 -55 C29 -82 38 -104 58 -121 C78 -139 103 -147 133 -147 C147 -147 158 -146 165 -143 L165 -95 L138 -97 C122 -97 108 -92 97 -83 C87 -73 81 -60 81 -45 C81 -23 88 -8 101 1 L81 29 Z " />
<glyph glyph-name="Lacute" unicode="&#x139;" horiz-adv-x="260" d="M236 0 L236 74 L116 74 L116 560 L40 560 L40 0 L236 0 Z M61 636 L117 636 L179 768 L103 768 L61 636 Z " />
<glyph glyph-name="lacute" unicode="&#x13a;" horiz-adv-x="154" d="M40 0 L114 0 L114 560 L40 560 L40 0 Z M7 564 L63 564 L125 696 L49 696 L7 564 Z " />
<glyph glyph-name="Lcaron" unicode="&#x13d;" horiz-adv-x="253" d="M236 0 L236 74 L116 74 L116 560 L40 560 L40 0 L236 0 L236 0 Z " />
<glyph glyph-name="Lslash" unicode="&#x141;" horiz-adv-x="313" d="M286 0 L286 73 L166 73 L166 272 L263 292 L263 342 L166 323 L166 560 L90 560 L90 308 L30 296 L30 245 L90 257 L90 0 L286 0 L286 0 Z " />
<glyph glyph-name="lslash" unicode="&#x142;" horiz-adv-x="252" d="M83 0 L157 0 L157 271 L217 284 L217 334 L157 322 L157 560 L83 560 L83 307 L31 296 L31 245 L83 256 L83 0 L83 0 Z " />
<glyph glyph-name="Nacute" unicode="&#x143;" horiz-adv-x="348" d="M241 0 L308 0 L308 560 L241 560 L241 183 L112 560 L40 560 L40 0 L107 0 L107 391 L241 0 Z M108 617 L164 617 L226 749 L150 749 L108 617 Z " />
<glyph glyph-name="nacute" unicode="&#x144;" horiz-adv-x="320" d="M112 296 C112 314 117 327 126 337 C135 346 147 351 162 351 C176 351 187 346 196 337 C204 327 208 314 208 296 L208 0 L280 0 L280 308 C280 343 272 370 255 389 C238 409 216 418 188 418 C150 418 110 391 105 323 L105 410 L40 410 L40 0 L112 0 L112 296 Z M94 436 L150 436 L212 568 L136 568 L94 436 Z " />
<glyph glyph-name="Ncaron" unicode="&#x147;" horiz-adv-x="348" d="M241 0 L308 0 L308 560 L241 560 L241 183 L112 560 L40 560 L40 0 L107 0 L107 391 L241 0 Z M259 727 L203 731 L156 654 L108 731 L51 731 L127 599 L185 599 L259 727 Z " />
<glyph glyph-name="ncaron" unicode="&#x148;" horiz-adv-x="320" d="M112 296 C112 314 117 327 126 337 C135 346 147 351 162 351 C176 351 187 346 196 337 C204 327 208 314 208 296 L208 0 L280 0 L280 308 C280 343 272 370 255 389 C238 409 216 418 188 418 C150 418 110 391 105 323 L105 410 L40 410 L40 0 L112 0 L112 296 Z M243 589 L187 593 L140 516 L92 593 L35 593 L111 461 L169 461 L243 589 Z " />
<glyph glyph-name="Ohungarumlaut" unicode="&#x150;" horiz-adv-x="344" d="M40 125 C40 84 52 52 77 28 C101 4 132 -8 170 -8 C208 -8 240 4 265 29 C291 54 304 87 304 127 L304 435 C304 476 291 508 267 532 C242 556 211 568 173 568 C135 568 103 556 78 531 C53 506 40 473 40 433 L40 125 Z M116 433 C116 453 121 469 131 480 C141 491 155 497 172 497 C188 497 202 491 212 480 C223 469 228 453 228 433 L228 126 C228 107 223 91 212 80 C202 68 188 62 172 62 C155 62 141 68 131 80 C121 91 116 107 116 126 L116 433 Z M62 605 L115 605 L166 737 L91 737 L62 605 Z M186 605 L239 605 L290 737 L215 737 L186 605 Z " />
<glyph glyph-name="ohungarumlaut" unicode="&#x151;" horiz-adv-x="323" d="M40 114 C40 77 51 48 74 26 C97 3 126 -8 160 -8 C194 -8 223 4 247 27 C271 50 283 80 283 116 L283 297 C283 333 272 362 248 385 C225 407 197 418 162 418 C128 418 99 407 76 384 C52 360 40 331 40 294 L40 114 Z M112 294 C112 312 116 326 126 336 C135 346 147 351 162 351 C176 351 188 346 197 336 C207 326 211 312 211 294 L211 115 C211 98 207 84 197 74 C188 64 176 58 162 58 C147 58 135 64 126 74 C117 84 112 98 112 115 L112 294 Z M48 436 L101 436 L152 568 L77 568 L48 436 Z M172 436 L225 436 L276 568 L201 568 L172 436 Z " />
<glyph glyph-name="OE" unicode="&#x152;" horiz-adv-x="448" d="M436 0 L436 73 L300 73 L300 255 L408 255 L408 324 L300 324 L300 485 L432 485 L432 560 L177 560 C136 560 103 547 78 523 C52 498 40 464 40 420 L40 136 C40 93 52 59 76 35 C101 11 133 0 174 0 L436 0 Z M224 69 L180 69 C160 69 144 75 133 88 C121 100 116 118 116 141 L116 417 C116 441 121 459 133 471 C144 483 160 489 180 489 L224 489 L224 69 Z " />
<glyph glyph-name="oe" unicode="&#x153;" horiz-adv-x="490" d="M40 113 C40 77 52 48 75 25 C98 3 126 -8 160 -8 C196 -8 224 4 246 28 C266 4 294 -8 330 -8 C363 -8 392 3 415 26 C438 48 450 77 450 113 L450 140 L383 140 L383 115 C383 98 378 84 369 74 C359 63 348 58 333 58 C319 58 307 63 298 73 C288 83 283 97 283 115 L283 200 L450 200 L450 298 C450 334 439 363 416 385 C394 407 366 418 332 418 C298 418 269 405 247 380 C227 405 198 418 163 418 C129 418 100 406 76 383 C52 360 40 330 40 294 L40 113 Z M112 294 C112 312 117 325 126 336 C135 346 147 351 162 351 C176 351 188 346 198 336 C207 325 211 312 211 294 L211 115 C211 98 207 84 198 74 C188 63 176 58 162 58 C147 58 136 63 126 73 C117 83 112 97 112 115 L112 294 Z M283 299 C283 316 288 330 298 341 C307 351 319 356 333 356 C348 356 359 350 369 340 C378 330 383 316 383 299 L383 251 L283 251 L283 299 Z " />
<glyph glyph-name="Racute" unicode="&#x154;" horiz-adv-x="333" d="M300 362 L300 419 C300 464 287 499 263 524 C238 548 204 560 161 560 L40 560 L40 0 L116 0 L116 224 L150 224 C153 224 155 224 158 224 C166 224 173 224 173 224 C186 223 197 218 206 209 C215 198 220 183 220 165 L220 0 L293 0 L293 169 C293 207 281 238 259 261 C286 282 300 316 300 362 L300 362 Z M224 359 C224 336 218 318 207 306 C203 301 198 297 192 294 C183 289 172 287 160 287 L116 287 L116 490 L160 490 C180 490 196 483 207 471 C218 459 224 441 224 418 L224 359 L224 359 Z M97 636 L153 636 L215 768 L139 768 L97 636 Z " />
<glyph glyph-name="racute" unicode="&#x155;" horiz-adv-x="215" d="M201 418 C156 418 116 379 105 323 L105 410 L40 410 L40 0 L112 0 L112 257 C112 311 136 338 185 338 L201 338 L201 418 Z M42 436 L98 436 L160 568 L84 568 L42 436 Z " />
<glyph glyph-name="Rcaron" unicode="&#x158;" horiz-adv-x="329" d="M300 362 L300 419 C300 464 287 499 263 524 C238 548 204 560 161 560 L40 560 L40 0 L116 0 L116 224 L150 224 C153 224 155 224 158 224 C166 224 173 224 173 224 C186 223 197 218 206 209 C215 198 220 183 220 165 L220 0 L293 0 L293 169 C293 207 281 238 259 261 C286 282 300 316 300 362 L300 362 Z M224 359 C224 336 218 318 207 306 C203 301 198 297 192 294 C183 289 172 287 160 287 L116 287 L116 490 L160 490 C180 490 196 483 207 471 C218 459 224 441 224 418 L224 359 L224 359 Z M238 747 L182 751 L135 674 L87 751 L30 751 L106 619 L164 619 L238 747 Z " />
<glyph glyph-name="rcaron" unicode="&#x159;" horiz-adv-x="215" d="M201 418 C156 418 116 379 105 323 L105 410 L40 410 L40 0 L112 0 L112 257 C112 311 136 338 185 338 L201 338 L201 418 Z M197 598 L141 602 L94 525 L46 602 L-11 602 L65 470 L123 470 L197 598 Z " />
<glyph glyph-name="Sacute" unicode="&#x15a;" horiz-adv-x="278" d="M83 164 L10 164 L10 122 C10 83 22 51 46 28 C70 4 100 -8 138 -8 C176 -8 207 4 233 29 C258 53 271 85 271 125 C271 159 262 192 246 221 C229 251 204 282 171 314 C141 342 121 365 109 384 C97 403 91 422 91 441 C91 459 96 473 105 484 C115 494 127 499 143 499 C159 499 171 494 181 482 C190 471 195 456 195 437 L195 408 L268 408 L268 441 C268 480 257 511 234 534 C210 557 180 568 144 568 C107 568 77 556 52 532 C27 509 15 477 15 438 C15 383 46 326 107 267 C140 236 163 210 175 190 C188 169 195 147 195 123 C195 104 190 89 179 78 C169 66 156 61 139 61 C122 61 109 67 98 78 C88 90 83 106 83 126 L83 164 Z M89 636 L145 636 L207 768 L131 768 L89 636 Z " />
<glyph glyph-name="sacute" unicode="&#x15b;" horiz-adv-x="293" d="M193 294 L263 294 L263 306 C263 340 252 366 230 387 C207 408 180 418 147 418 C114 418 87 408 64 387 C41 366 30 341 30 310 C30 258 60 216 119 186 C147 173 167 160 177 148 C188 136 193 123 193 107 C193 91 189 78 179 69 C170 59 158 54 144 54 C129 54 117 59 108 69 C99 79 94 92 94 110 L94 124 L25 124 L25 110 C25 74 37 46 59 24 C82 3 110 -8 144 -8 C179 -8 207 3 230 25 C254 47 265 75 265 110 C265 165 233 208 170 239 C144 252 127 264 117 274 C107 284 102 297 102 310 C102 324 106 335 115 343 C124 351 135 355 148 355 C161 355 172 351 180 342 C189 332 193 321 193 306 L193 294 Z M89 436 L145 436 L207 568 L131 568 L89 436 Z " />
<glyph glyph-name="Scedilla" unicode="&#x15e;" horiz-adv-x="278" d="M83 164 L10 164 L10 122 C10 83 22 51 46 28 C70 4 100 -8 138 -8 C176 -8 207 4 233 29 C258 53 271 85 271 125 C271 159 262 192 246 221 C229 251 204 282 171 314 C141 342 121 365 109 384 C97 403 91 422 91 441 C91 459 96 473 105 484 C115 494 127 499 143 499 C159 499 171 494 181 482 C190 471 195 456 195 437 L195 408 L268 408 L268 441 C268 480 257 511 234 534 C210 557 180 568 144 568 C107 568 77 556 52 532 C27 509 15 477 15 438 C15 383 46 326 107 267 C140 236 163 210 175 190 C188 169 195 147 195 123 C195 104 190 89 179 78 C169 66 156 61 139 61 C122 61 109 67 98 78 C88 90 83 106 83 126 L83 164 Z M123 0 L130 -5 C135 -9 140 -15 145 -24 C150 -33 152 -43 152 -54 C152 -70 147 -83 137 -92 C127 -101 115 -106 99 -106 C85 -106 76 -105 71 -102 L71 -152 L75 -152 C78 -153 83 -154 89 -155 C95 -156 102 -156 108 -156 C138 -156 162 -148 181 -131 C201 -114 210 -91 210 -63 C210 -51 209 -40 205 -29 C201 -18 196 -10 191 -4 C186 2 180 8 174 13 C167 18 163 21 161 23 C158 24 156 25 155 25 L123 0 Z " />
<glyph glyph-name="Scaron" unicode="&#x160;" horiz-adv-x="294" d="M92 164 L19 164 L19 122 C19 83 31 51 55 28 C79 4 109 -8 147 -8 C185 -8 216 4 242 29 C267 53 280 85 280 125 C280 159 271 192 255 221 C238 251 213 282 180 314 C150 342 130 365 118 384 C106 403 100 422 100 441 C100 459 105 473 114 484 C124 494 136 499 152 499 C168 499 180 494 190 482 C199 471 204 456 204 437 L204 408 L277 408 L277 441 C277 480 266 511 243 534 C219 557 189 568 153 568 C116 568 86 556 61 532 C36 509 24 477 24 438 C24 383 55 326 116 267 C149 236 172 210 184 190 C197 169 204 147 204 123 C204 104 199 89 188 78 C178 66 165 61 148 61 C131 61 118 67 107 78 C97 90 92 106 92 126 L92 164 Z M249 726 L193 730 L146 653 L98 730 L41 730 L117 598 L175 598 L249 726 Z " />
<glyph glyph-name="scaron" unicode="&#x161;" horiz-adv-x="283" d="M188 294 L258 294 L258 306 C258 340 247 366 225 387 C202 408 175 418 142 418 C109 418 82 408 59 387 C36 366 25 341 25 310 C25 258 55 216 114 186 C142 173 162 160 172 148 C183 136 188 123 188 107 C188 91 184 78 174 69 C165 59 153 54 139 54 C124 54 112 59 103 69 C94 79 89 92 89 110 L89 124 L20 124 L20 110 C20 74 32 46 54 24 C77 3 105 -8 139 -8 C174 -8 202 3 225 25 C249 47 260 75 260 110 C260 165 228 208 165 239 C139 252 122 264 112 274 C102 284 97 297 97 310 C97 324 101 335 110 343 C119 351 130 355 143 355 C156 355 167 351 175 342 C184 332 188 321 188 306 L188 294 Z M237 574 L181 578 L134 501 L86 578 L29 578 L105 446 L163 446 L237 574 Z " />
<glyph glyph-name="Tcaron" unicode="&#x164;" horiz-adv-x="272" d="M265 486 L265 560 L5 560 L5 486 L97 486 L97 0 L173 0 L173 486 L265 486 Z M234 729 L178 733 L131 656 L83 733 L26 733 L102 601 L160 601 L234 729 Z " />
<glyph glyph-name="utilde" unicode="&#x169;" horiz-adv-x="320" d="M208 114 C208 97 204 83 194 74 C185 64 173 59 159 59 C144 59 133 64 125 74 C116 83 112 97 112 114 L112 410 L40 410 L40 102 C40 68 49 41 65 21 C82 2 104 -8 132 -8 C170 -8 210 19 215 88 L215 0 L280 0 L280 410 L208 410 L208 114 Z M69 460 L71 472 C71 480 74 488 79 496 C84 504 92 508 101 508 C112 508 124 503 135 495 C146 486 158 477 171 468 C184 458 200 453 220 453 C235 453 249 457 261 465 C272 473 281 481 286 491 C292 501 296 512 299 524 C302 537 304 545 304 550 C305 555 305 559 305 562 L251 562 L250 550 C250 543 247 535 241 527 C236 519 229 515 220 515 C208 515 197 519 185 528 C174 536 162 545 150 555 C137 564 122 569 104 569 C88 569 73 565 61 558 C50 550 41 541 36 532 C30 522 26 511 22 499 C19 486 17 477 17 472 C17 468 17 464 17 460 L69 460 Z " />
<glyph glyph-name="Uring" unicode="&#x16e;" horiz-adv-x="336" d="M220 560 L220 122 C220 104 216 89 206 78 C196 68 184 62 168 62 C152 62 140 68 131 78 C121 89 117 104 117 122 L117 560 L40 560 L40 121 C40 82 52 51 76 27 C100 4 130 -8 166 -8 C203 -8 234 4 258 28 C283 53 296 84 296 123 L296 560 L220 560 Z M113 724 C99 711 92 694 92 673 C92 653 99 637 113 623 C126 610 144 604 165 604 C186 604 204 610 218 623 C232 637 239 653 239 673 C239 694 232 711 218 724 C204 737 186 744 165 744 C144 744 126 737 113 724 L113 724 Z M165 640 C155 640 147 643 141 649 C135 655 131 663 131 673 C131 684 135 692 141 698 C147 705 155 708 165 708 C175 708 183 705 190 698 C196 692 199 684 199 673 C199 663 196 655 190 649 C183 643 175 640 165 640 L165 640 Z " />
<glyph glyph-name="uring" unicode="&#x16f;" horiz-adv-x="320" d="M208 114 C208 97 204 83 194 74 C185 64 173 59 159 59 C144 59 133 64 125 74 C116 83 112 97 112 114 L112 410 L40 410 L40 102 C40 68 49 41 65 21 C82 2 104 -8 132 -8 C170 -8 210 19 215 88 L215 0 L280 0 L280 410 L208 410 L208 114 Z M104 554 C90 541 83 524 83 503 C83 483 90 467 104 453 C117 440 135 434 156 434 C177 434 195 440 209 453 C223 467 230 483 230 503 C230 524 223 541 209 554 C195 567 177 574 156 574 C135 574 117 567 104 554 L104 554 Z M156 470 C146 470 138 473 132 479 C126 485 122 493 122 503 C122 514 126 522 132 528 C138 535 146 538 156 538 C166 538 174 535 181 528 C187 522 190 514 190 503 C190 493 187 485 181 479 C174 473 166 470 156 470 L156 470 Z " />
<glyph glyph-name="Uhungarumlaut" unicode="&#x170;" horiz-adv-x="336" d="M220 560 L220 122 C220 104 216 89 206 78 C196 68 184 62 168 62 C152 62 140 68 131 78 C121 89 117 104 117 122 L117 560 L40 560 L40 121 C40 82 52 51 76 27 C100 4 130 -8 166 -8 C203 -8 234 4 258 28 C283 53 296 84 296 123 L296 560 L220 560 L220 560 Z " />
<glyph glyph-name="uhungarumlaut" unicode="&#x171;" horiz-adv-x="320" d="M208 114 C208 97 204 83 194 74 C185 64 173 59 159 59 C144 59 133 64 125 74 C116 83 112 97 112 114 L112 410 L40 410 L40 102 C40 68 49 41 65 21 C82 2 104 -8 132 -8 C170 -8 210 19 215 88 L215 0 L280 0 L280 410 L208 410 L208 114 Z M51 439 L104 439 L155 571 L80 571 L51 439 Z M175 439 L228 439 L279 571 L204 571 L175 439 Z " />
<glyph glyph-name="Uogonek" unicode="&#x172;" horiz-adv-x="336" d="M220 560 L220 122 C220 104 216 89 206 78 C196 68 184 62 168 62 C152 62 140 68 131 78 C121 89 117 104 117 122 L117 560 L40 560 L40 121 C40 82 52 51 76 27 C100 4 130 -8 166 -8 C203 -8 234 4 258 28 C283 53 296 84 296 123 L296 560 L220 560 Z M195 29 L181 21 C172 15 164 6 155 -8 C147 -22 143 -38 143 -55 C143 -82 152 -104 172 -121 C192 -139 217 -147 247 -147 C261 -147 272 -146 279 -143 L279 -95 L252 -97 C236 -97 222 -92 211 -83 C201 -73 195 -60 195 -45 C195 -23 202 -8 215 1 L195 29 Z " />
<glyph glyph-name="uogonek" unicode="&#x173;" horiz-adv-x="320" d="M208 114 C208 97 204 83 194 74 C185 64 173 59 159 59 C144 59 133 64 125 74 C116 83 112 97 112 114 L112 410 L40 410 L40 102 C40 68 49 41 65 21 C82 2 104 -8 132 -8 C170 -8 210 19 215 88 L215 0 L280 0 L280 410 L208 410 L208 114 Z M249 29 L235 21 C226 15 218 6 209 -8 C201 -22 197 -38 197 -55 C197 -82 206 -104 226 -121 C246 -139 271 -147 301 -147 C315 -147 326 -146 333 -143 L333 -95 L306 -97 C290 -97 276 -92 265 -83 C255 -73 249 -60 249 -45 C249 -23 256 -8 269 1 L249 29 Z " />
<glyph glyph-name="Ydieresis" unicode="&#x178;" horiz-adv-x="307" d="M115 0 L191 0 L191 216 L296 560 L219 560 L156 314 L93 560 L12 560 L115 217 L115 0 Z M93 674 C70 674 50 657 50 631 C50 608 67 588 93 588 C115 588 136 606 136 631 C136 653 118 674 93 674 L93 674 Z M219 674 C196 674 176 656 176 631 C176 608 193 588 219 588 C242 588 262 605 262 631 C262 654 245 674 219 674 L219 674 Z " />
<glyph glyph-name="Zacute" unicode="&#x179;" horiz-adv-x="257" d="M237 0 L237 70 L86 70 L237 502 L237 560 L17 560 L17 490 L156 490 L5 58 L5 0 L237 0 Z M60 636 L116 636 L178 768 L102 768 L60 636 Z " />
<glyph glyph-name="zacute" unicode="&#x17a;" horiz-adv-x="231" d="M10 50 L10 0 L218 0 L218 62 L86 62 L218 362 L218 410 L22 410 L22 348 L141 348 L10 50 Z M66 436 L122 436 L184 568 L108 568 L66 436 Z " />
<glyph glyph-name="Zdotaccent" unicode="&#x17b;" horiz-adv-x="252" d="M237 0 L237 70 L86 70 L237 502 L237 560 L17 560 L17 490 L156 490 L5 58 L5 0 L237 0 Z M110 782 C88 782 67 764 67 739 C67 716 84 695 110 695 C132 695 153 715 153 739 C153 761 134 782 110 782 L110 782 Z " />
<glyph glyph-name="zdotaccent" unicode="&#x17c;" horiz-adv-x="245" d="M14 50 L14 0 L222 0 L222 62 L90 62 L222 362 L222 410 L26 410 L26 348 L145 348 L14 50 Z M120 582 C98 582 77 564 77 539 C77 516 94 495 120 495 C142 495 163 515 163 539 C163 561 144 582 120 582 L120 582 Z " />
<glyph glyph-name="Zcaron" unicode="&#x17d;" horiz-adv-x="270" d="M246 0 L246 70 L95 70 L246 502 L246 560 L26 560 L26 490 L165 490 L14 58 L14 0 L246 0 Z M221 727 L165 731 L118 654 L70 731 L13 731 L89 599 L147 599 L221 727 Z " />
<glyph glyph-name="zcaron" unicode="&#x17e;" horiz-adv-x="237" d="M11 50 L11 0 L219 0 L219 62 L87 62 L219 362 L219 410 L23 410 L23 348 L142 348 L11 50 Z M218 572 L162 576 L115 499 L67 576 L10 576 L86 444 L144 444 L218 572 Z " />
<glyph glyph-name="florin" unicode="&#x192;" horiz-adv-x="305" d="M152 -88 L180 253 L265 253 L265 300 L184 300 L195 435 C198 473 215 492 245 492 C259 492 275 492 275 492 L275 560 C275 560 241 560 232 560 C200 560 175 550 156 531 C137 512 126 485 124 450 L112 300 L40 300 L40 253 L108 253 L80 -88 L152 -88 L152 -88 Z " />
<glyph glyph-name="circumflex" unicode="&#x2c6;" horiz-adv-x="225" d="M8 428 L63 428 L110 505 L158 428 L216 428 L140 560 L84 560 L8 428 L8 428 Z " />
<glyph glyph-name="caron" unicode="&#x2c7;" horiz-adv-x="229" d="M219 696 L163 700 L116 623 L68 700 L11 700 L87 568 L145 568 L219 696 L219 696 Z " />
<glyph glyph-name="breve" unicode="&#x2d8;" horiz-adv-x="226" d="M20 572 L20 532 C20 504 29 482 46 465 C63 448 85 440 113 440 C140 440 163 448 180 466 C197 483 206 506 206 534 L206 572 L154 572 L154 532 C154 518 151 507 144 498 C136 489 126 485 113 485 C100 485 89 489 82 498 C76 507 72 518 72 532 L72 572 L20 572 L20 572 Z " />
<glyph glyph-name="dotaccent" unicode="&#x2d9;" horiz-adv-x="97" d="M48 582 C26 582 5 564 5 539 C5 516 22 495 48 495 C70 495 91 515 91 539 C91 561 72 582 48 582 L48 582 Z " />
<glyph glyph-name="ring" unicode="&#x2da;" horiz-adv-x="189" d="M41 524 C27 511 20 494 20 473 C20 453 27 437 41 423 C54 410 72 404 93 404 C114 404 132 410 146 423 C160 437 167 453 167 473 C167 494 160 511 146 524 C132 537 114 544 93 544 C72 544 54 537 41 524 L41 524 Z M93 440 C83 440 75 443 69 449 C63 455 59 463 59 473 C59 484 63 492 69 498 C75 505 83 508 93 508 C103 508 111 505 118 498 C124 492 127 484 127 473 C127 463 124 455 118 449 C111 443 103 440 93 440 L93 440 Z " />
<glyph glyph-name="ogonek" unicode="&#x2db;" horiz-adv-x="168" d="M62 29 L48 21 C39 15 31 6 22 -8 C14 -22 10 -38 10 -55 C10 -82 19 -104 39 -121 C59 -139 84 -147 114 -147 C128 -147 139 -146 146 -143 L146 -95 L119 -97 C103 -97 89 -92 78 -83 C68 -73 62 -60 62 -45 C62 -23 69 -8 82 1 L62 29 L62 29 Z " />
<glyph glyph-name="tilde" unicode="&#x2dc;" horiz-adv-x="321" d="M72 459 L74 471 C74 479 77 487 82 495 C87 503 95 507 104 507 C115 507 127 502 138 494 C149 485 161 476 174 467 C187 457 203 452 223 452 C238 452 252 456 264 464 C275 472 284 480 289 490 C295 500 299 511 302 523 C305 536 307 544 307 549 C308 554 308 558 308 561 L254 561 L253 549 C253 542 250 534 244 526 C239 518 232 514 223 514 C211 514 200 518 188 527 C177 535 165 544 153 554 C140 563 125 568 107 568 C91 568 76 564 64 557 C53 549 44 540 39 531 C33 521 29 510 25 498 C22 485 20 476 20 471 C20 467 20 463 20 459 L72 459 L72 459 Z " />
<glyph glyph-name="hungarumlaut" unicode="&#x2dd;" horiz-adv-x="255" d="M19 436 L72 436 L123 568 L48 568 L19 436 Z M143 436 L196 436 L247 568 L172 568 L143 436 Z " />
<glyph glyph-name="endash" unicode="&#x2013;" horiz-adv-x="392" d="M352 235 L352 300 L40 300 L40 235 L352 235 L352 235 Z " />
<glyph glyph-name="emdash" unicode="&#x2014;" horiz-adv-x="447" d="M407 235 L407 300 L40 300 L40 235 L407 235 L407 235 Z " />
<glyph glyph-name="quoteleft" unicode="&#x2018;" horiz-adv-x="125" d="M49 560 L21 360 L101 360 L106 560 L49 560 L49 560 Z " />
<glyph glyph-name="quoteright" unicode="&#x2019;" horiz-adv-x="110" d="M71 360 L99 560 L19 560 L13 360 L71 360 L71 360 Z " />
<glyph glyph-name="quotedblleft" unicode="&#x201c;" horiz-adv-x="235" d="M38 560 L10 360 L90 360 L96 560 L38 560 Z M160 560 L132 360 L212 360 L217 560 L160 560 Z " />
<glyph glyph-name="quotedblright" unicode="&#x201d;" horiz-adv-x="232" d="M70 360 L98 560 L18 560 L12 360 L70 360 Z M192 360 L220 560 L139 560 L134 360 L192 360 Z " />
<glyph glyph-name="daggerdbl" unicode="&#x2021;" horiz-adv-x="280" d="M28 267 L28 212 L110 212 L110 128 L170 128 L170 212 L252 212 L252 267 L170 267 L170 365 L252 365 L252 418 L170 418 L170 504 L110 504 L110 418 L28 418 L28 365 L110 365 L110 267 L28 267 L28 267 Z " />
<glyph glyph-name="bullet" unicode="&#x2022;" horiz-adv-x="251" d="M127 418 C79 418 36 379 36 328 C36 280 74 238 125 238 C174 238 216 278 216 329 C216 377 177 418 127 418 L127 418 Z " />
<glyph glyph-name="ellipsis" unicode="&#x2026;" horiz-adv-x="315" d="M27 20 C27 6 38 -8 55 -8 C69 -8 83 4 83 20 C83 33 70 48 55 48 C41 48 27 36 27 20 L27 20 Z M132 20 C132 6 143 -8 160 -8 C174 -8 188 4 188 20 C188 33 175 48 160 48 C146 48 132 36 132 20 L132 20 Z M237 20 C237 6 248 -8 265 -8 C279 -8 293 4 293 20 C293 33 280 48 265 48 C251 48 237 36 237 20 L237 20 Z " />
<glyph glyph-name="perthousand" unicode="&#x2030;" horiz-adv-x="670" d="M46 459 C27 440 17 417 17 388 C17 360 27 336 46 318 C64 299 88 290 116 290 C145 290 169 300 189 319 C208 338 218 361 218 389 C218 418 208 442 189 460 C170 479 147 488 118 488 C89 488 65 478 46 459 L46 459 Z M43 0 L95 0 L391 480 L339 480 L43 0 Z M84 354 C75 363 71 375 71 389 C71 403 75 414 84 423 C93 432 104 437 117 437 C131 437 142 432 150 423 C159 414 163 403 163 389 C163 375 159 363 150 354 C142 345 131 341 117 341 C104 341 93 345 84 354 L84 354 Z M245 161 C226 142 216 118 216 90 C216 61 226 38 245 19 C264 1 287 -8 316 -8 C344 -8 368 1 388 20 C407 39 417 63 417 91 C417 120 408 143 389 162 C370 180 346 189 317 189 C288 189 264 180 245 161 L245 161 Z M283 56 C274 65 270 76 270 90 C270 104 274 116 283 125 C292 134 303 138 316 138 C330 138 341 134 349 125 C358 116 363 104 363 90 C363 76 358 65 349 56 C341 47 330 42 316 42 C303 42 292 47 283 56 L283 56 Z M481 161 C462 142 452 118 452 90 C452 61 462 38 481 19 C500 1 523 -8 552 -8 C580 -8 604 1 624 20 C643 39 653 63 653 91 C653 120 644 143 625 162 C606 180 582 189 553 189 C524 189 500 180 481 161 L481 161 Z M519 56 C510 65 506 76 506 90 C506 104 510 116 519 125 C528 134 539 138 552 138 C566 138 577 134 585 125 C594 116 599 104 599 90 C599 76 594 65 585 56 C577 47 566 42 552 42 C539 42 528 47 519 56 L519 56 Z " />
<glyph glyph-name="guilsinglleft" unicode="&#x2039;" horiz-adv-x="263" d="M237 420 L197 460 L40 312 L40 289 L197 141 L237 183 L122 301 L237 420 L237 420 Z " />
<glyph glyph-name="guilsinglright" unicode="&#x203a;" horiz-adv-x="263" d="M26 180 L66 140 L223 288 L223 312 L66 460 L26 417 L141 299 L26 180 L26 180 Z " />
<glyph glyph-name="Euro" unicode="&#x20ac;" horiz-adv-x="353" d="M255 117 C255 99 251 84 242 75 C233 65 221 60 206 60 C192 60 180 65 171 75 C162 84 158 99 158 117 L158 212 L272 212 L272 253 L158 253 L158 305 L288 305 L288 348 L158 348 L158 442 C158 460 162 474 171 485 C180 495 192 500 206 500 C221 500 233 495 242 485 C251 474 255 460 255 442 L255 400 L326 400 L326 447 C326 483 315 512 292 534 C270 557 242 568 207 568 C173 568 144 556 121 533 C97 510 85 480 85 443 L85 348 L29 348 L29 305 L85 305 L85 253 L29 253 L29 212 L85 212 L85 114 C85 77 96 47 119 25 C142 3 170 -8 205 -8 C239 -8 268 3 291 26 C314 48 326 78 326 114 L326 160 L255 160 L255 117 L255 117 Z " />
<glyph glyph-name="trademark" unicode="&#x2122;" horiz-adv-x="405" d="M165 515 L165 560 L22 560 L22 515 L68 515 L68 308 L118 308 L118 515 L165 515 Z M280 351 L299 351 L335 456 L335 308 L382 308 L382 560 L335 560 L290 427 L247 560 L198 560 L198 308 L245 308 L245 457 L280 351 Z " />
<glyph glyph-name="f_f" unicode="&#xfb00;" horiz-adv-x="390" d="M345 503 C354 503 372 503 372 503 L372 568 C372 568 337 568 330 568 C298 568 273 559 255 540 C237 522 228 496 228 460 L228 410 L112 410 L112 452 C112 486 126 503 155 503 C164 503 184 503 184 503 L184 568 C184 568 145 568 137 568 C107 568 83 559 66 542 C48 524 40 499 40 464 L40 0 L112 0 L112 350 L228 350 L228 0 L300 0 L300 350 L372 350 L372 410 L300 410 L300 450 C300 485 315 503 345 503 L345 503 Z " />
<glyph glyph-name="fi" unicode="&#xfb01;" horiz-adv-x="353" d="M277 472 C305 473 325 494 325 520 C325 547 302 568 277 568 C249 568 229 545 229 520 C229 492 252 472 277 472 L277 472 Z M112 410 L112 452 C112 486 126 503 155 503 C163 503 184 503 184 503 L184 568 C184 568 145 568 137 568 C107 568 83 559 66 542 C48 524 40 499 40 464 L40 0 L112 0 L112 350 L240 350 L240 0 L313 0 L313 410 L112 410 Z " />
<glyph glyph-name="fl" unicode="&#xfb02;" horiz-adv-x="354" d="M138 568 C108 568 84 559 66 542 C49 524 40 499 40 464 L40 0 L112 0 L112 350 L184 350 L184 410 L112 410 L112 452 C112 486 127 503 156 503 C160 503 201 503 240 503 L240 0 L314 0 L314 503 L314 560 L314 568 C314 568 145 568 138 568 L138 568 Z " />
</font>
</svg>
