<?xml version="1.0" encoding="UTF-8"?>
<svg xmlns="http://www.w3.org/2000/svg" xmlns:xlink="http://www.w3.org/1999/xlink" version="1.2" >
<font id="Lostfield Condensed medium italic">
<font-face  font-family="Lostfield Condensed" units-per-em="1000" ascent="750" descent="-250" font-style="normal" font-weight="400" font-stretch="normal" cap-height="700" x-height="500" underline-position="-75" underline-thickness="50" />
<missing-glyph  horiz-adv-x="152" d="" />
<glyph glyph-name="NULL" d="" />
<glyph glyph-name="CR" unicode="&#xd;" horiz-adv-x="152" d="" />
<glyph glyph-name="space" unicode="&#x20;" horiz-adv-x="152" d="" />
<glyph glyph-name="exclam" unicode="&#x21;" horiz-adv-x="141" d="M0 74 C-11 64 -18 53 -20 40 C-23 26 -20 15 -13 6 C-6 -4 5 -8 18 -8 C31 -8 43 -4 54 6 C65 15 72 26 75 40 C77 53 74 64 67 74 C60 83 49 88 36 88 C23 88 10 83 0 74 L0 74 Z M25 172 L76 172 L164 560 L81 560 L25 172 Z " />
<glyph glyph-name="quotedbl" unicode="&#x22;" horiz-adv-x="232" d="M51 360 L120 560 L40 560 L-6 360 L51 360 Z M172 360 L241 560 L161 560 L115 360 L172 360 Z " />
<glyph glyph-name="numbersign" unicode="&#x23;" horiz-adv-x="318" d="M123 0 L173 0 L208 130 L266 130 L274 176 L220 176 L254 302 L309 302 L317 348 L266 348 L301 480 L251 480 L216 348 L148 348 L183 480 L133 480 L98 348 L42 348 L34 302 L86 302 L53 176 L-1 176 L-9 130 L41 130 L6 0 L55 0 L91 130 L158 130 L123 0 Z M136 302 L204 302 L170 176 L103 176 L136 302 Z " />
<glyph glyph-name="dollar" unicode="&#x24;" horiz-adv-x="271" d="M178 308 C155 336 140 361 132 381 C123 401 121 422 124 443 C128 460 134 474 144 484 C148 487 151 489 155 491 L147 451 L194 451 L202 494 C207 491 211 488 213 483 C220 473 222 459 218 441 L212 407 L283 407 L290 446 C296 479 293 506 279 526 C265 547 244 559 215 563 L227 623 L180 623 L168 562 C139 556 113 542 92 521 C70 500 57 473 51 441 C41 386 60 327 109 264 C130 236 146 211 153 188 C160 166 162 142 157 118 C154 100 146 85 135 75 C131 71 125 67 121 65 L128 102 L80 102 L73 64 C68 66 64 70 61 75 C53 86 52 101 55 119 L64 163 L-6 163 L-15 115 C-22 81 -18 54 -4 32 C10 11 30 -2 60 -6 L59 -9 L60 -9 L49 -65 L96 -65 L108 -5 C139 1 165 14 188 36 C210 58 224 86 230 119 C243 185 225 247 178 308 L178 308 Z " />
<glyph glyph-name="percent" unicode="&#x25;" horiz-adv-x="434" d="M166 488 C112 488 57 445 46 388 C36 334 72 290 128 290 C181 290 237 332 247 389 C257 444 224 488 166 488 L166 488 Z M0 0 L52 0 L437 480 L385 480 L0 0 Z M107 354 C99 363 98 375 100 389 C103 402 109 414 120 423 C130 432 142 436 155 436 C169 436 179 432 187 423 C193 414 196 402 193 389 C191 375 183 363 174 354 C163 345 151 341 137 341 C124 341 114 345 107 354 L107 354 Z M309 189 C254 189 201 147 190 89 C180 35 214 -8 271 -8 C326 -8 380 33 391 91 C401 148 366 186 309 189 L309 189 Z M250 56 C244 65 241 76 244 90 C246 104 253 115 263 125 C274 133 286 138 299 138 C313 138 323 133 330 125 C337 115 339 104 337 90 C334 76 328 65 317 56 C307 47 295 42 281 42 C268 42 258 47 250 56 L250 56 Z " />
<glyph glyph-name="ampersand" unicode="&#x26;" horiz-adv-x="352" d="M308 260 L319 320 L275 320 L282 356 L210 356 L203 320 L152 320 C139 320 129 324 123 334 C115 344 114 357 117 373 L130 446 C134 463 140 476 151 485 C160 495 172 500 185 500 C198 500 208 495 215 485 C222 476 224 463 220 446 L212 400 L281 400 L290 447 C296 482 290 511 273 534 C254 556 229 568 196 568 C164 568 134 557 108 535 C82 513 64 484 58 449 L46 384 C39 345 48 313 73 291 C36 270 12 236 4 189 L-8 119 C-16 81 -9 50 9 27 C29 3 57 -8 92 -8 C122 -8 148 0 173 17 C187 0 209 -8 240 -8 C257 -8 257 -8 257 -8 L269 58 C240 58 229 75 236 109 L264 260 L308 260 L308 260 Z M164 113 C161 98 153 85 144 76 C133 65 120 60 104 60 C88 60 77 65 68 75 C61 86 60 100 64 120 L79 200 C82 218 89 233 101 244 C112 254 126 260 141 260 L192 260 L164 113 L164 113 Z " />
<glyph glyph-name="quotesingle" unicode="&#x27;" horiz-adv-x="154" d="M142 560 L62 560 L20 360 L77 360 L142 560 Z " />
<glyph glyph-name="parenleft" unicode="&#x28;" horiz-adv-x="247" d="M161 32 L151 45 C102 129 88 239 110 352 C129 457 178 572 265 657 C271 663 276 668 280 671 L237 712 L221 698 C124 616 59 467 37 349 C16 237 24 89 91 6 C96 -1 100 -5 104 -8 L161 32 L161 32 Z " />
<glyph glyph-name="parenright" unicode="&#x29;" horiz-adv-x="246" d="M83 671 L92 658 C149 580 156 461 137 352 C118 248 70 131 -17 46 C-23 40 -27 36 -31 32 L12 -8 L27 5 C120 84 188 237 209 354 C230 469 225 609 153 698 C148 704 144 709 141 712 L83 671 L83 671 Z " />
<glyph glyph-name="asterisk" unicode="&#x2a;" horiz-adv-x="298" d="M281 445 L273 497 L175 461 L199 560 L142 560 L132 461 L47 497 L21 445 L111 420 L35 344 L76 312 L142 394 L180 312 L231 344 L182 420 L281 445 L281 445 Z " />
<glyph glyph-name="plus" unicode="&#x2b;" horiz-adv-x="352" d="M233 424 L175 424 L152 300 L45 300 L34 243 L141 243 L118 118 L176 118 L199 243 L306 243 L317 300 L210 300 L233 424 L233 424 Z " />
<glyph glyph-name="comma" unicode="&#x2c;" horiz-adv-x="114" d="M53 -147 L118 53 L38 53 L-4 -147 L53 -147 L53 -147 Z " />
<glyph glyph-name="hyphen" unicode="&#x2d;" horiz-adv-x="272" d="M227 246 L236 300 L44 300 L35 246 L227 246 Z " />
<glyph glyph-name="period" unicode="&#x2e;" horiz-adv-x="109" d="M63 88 C38 88 11 67 7 40 C2 15 18 -8 46 -8 C71 -8 98 12 103 40 C107 66 90 87 63 88 L63 88 Z " />
<glyph glyph-name="slash" unicode="&#x2f;" horiz-adv-x="329" d="M-37 -7 L26 -7 L365 681 L301 681 L-37 -7 L-37 -7 Z " />
<glyph glyph-name="zero" unicode="0" horiz-adv-x="328" d="M9 116 C3 79 9 49 28 26 C48 3 75 -8 109 -8 C145 -8 176 4 205 27 C234 51 251 82 258 119 L317 443 C324 480 318 510 298 533 C279 556 251 568 217 568 C182 568 151 556 122 532 C93 508 76 478 69 440 L9 116 Z M141 437 C145 456 151 471 163 481 C174 492 188 497 203 497 C219 497 230 492 237 481 C244 471 247 456 243 437 L185 121 C182 103 174 88 163 77 C153 67 139 61 123 61 C108 61 97 67 89 77 C81 88 80 103 83 121 L141 437 Z " />
<glyph glyph-name="one" unicode="1" horiz-adv-x="201" d="M47 487 L76 438 L122 469 L37 0 L110 0 L211 560 L150 560 L47 487 Z " />
<glyph glyph-name="two" unicode="2" horiz-adv-x="299" d="M218 0 L230 67 L73 67 L235 305 C271 357 291 402 298 440 C305 479 299 510 280 533 C262 556 236 568 201 568 C167 568 136 556 108 532 C81 509 65 479 58 441 L48 384 L117 384 L126 436 C129 456 137 471 147 481 C158 492 171 497 186 497 C201 497 212 492 219 481 C226 471 228 456 225 436 C219 403 205 370 183 337 L-11 51 L-21 0 L218 0 L218 0 Z " />
<glyph glyph-name="three" unicode="3" horiz-adv-x="285" d="M289 449 C296 484 291 513 272 535 C254 557 228 568 196 568 C163 568 134 556 107 534 C80 511 64 482 57 447 L48 400 L117 400 L126 446 C129 463 136 476 146 485 C156 495 168 500 181 500 C195 500 204 495 211 485 C218 476 219 463 216 446 L202 373 C199 357 193 344 183 334 C172 324 161 320 147 320 L136 260 C152 260 163 254 170 244 C178 233 179 218 175 200 L160 120 C157 101 150 86 139 75 C128 65 114 60 98 60 C83 60 71 65 64 76 C57 86 55 101 58 120 L68 172 L-1 172 L-11 116 C-18 79 -12 48 4 26 C23 3 50 -8 84 -8 C120 -8 151 3 180 27 C208 50 226 81 233 119 L246 189 C255 236 244 269 216 291 C249 313 270 344 277 384 L289 449 L289 449 Z " />
<glyph glyph-name="four" unicode="4" horiz-adv-x="301" d="M2 199 L-8 140 L148 140 L122 0 L189 0 L215 140 L259 140 L270 200 L226 200 L292 560 L221 560 L2 199 Z M60 200 L201 431 L159 200 L60 200 Z " />
<glyph glyph-name="five" unicode="5" horiz-adv-x="308" d="M37 261 L102 261 C105 276 111 288 122 298 C132 307 144 312 157 312 C172 312 182 307 190 296 C197 286 199 272 196 255 L170 119 C167 101 160 87 149 77 C138 67 126 61 111 61 C97 61 86 67 78 77 C71 87 70 101 73 119 L82 168 L11 168 L1 112 C-5 76 1 47 20 25 C39 3 64 -8 98 -8 C131 -8 162 3 190 27 C218 50 236 80 243 116 L271 266 C277 299 272 325 256 345 C240 366 218 376 189 376 C162 376 138 366 119 347 L146 492 L301 492 L313 560 L92 560 L37 261 L37 261 Z " />
<glyph glyph-name="six" unicode="6" horiz-adv-x="309" d="M0 118 C-6 80 0 50 18 26 C38 3 66 -8 102 -8 C138 -8 170 4 199 28 C228 52 246 83 253 120 L274 237 C281 274 277 304 260 326 C245 349 219 360 185 360 C168 360 152 355 138 345 L268 560 L195 560 L65 341 C41 301 25 258 17 212 L0 118 Z M94 234 C97 253 105 268 116 279 C128 290 142 296 158 296 C174 296 186 290 194 279 C202 268 204 253 201 234 L181 123 C177 104 169 89 157 78 C145 67 131 61 115 61 C99 61 87 67 79 78 C72 89 70 104 74 123 L94 234 Z " />
<glyph glyph-name="seven" unicode="7" horiz-adv-x="273" d="M-11 0 L62 0 L297 506 L307 560 L67 560 L54 490 L218 490 L-11 0 L-11 0 Z " />
<glyph glyph-name="eight" unicode="8" horiz-adv-x="286" d="M43 395 C35 351 45 318 73 297 C32 273 7 237 -1 189 L-14 120 C-21 82 -15 50 4 27 C23 3 51 -8 87 -8 C124 -8 157 4 187 28 C216 52 234 84 242 123 L255 192 C264 240 253 275 221 298 C257 321 278 354 287 397 L296 445 C303 482 297 511 279 534 C260 556 233 568 199 568 C165 568 134 556 105 532 C77 509 59 479 52 443 L43 395 Z M74 204 C78 224 86 240 98 251 C109 262 124 268 141 268 C157 268 170 262 178 251 C186 240 188 224 184 204 L168 121 C165 102 157 86 145 74 C132 63 117 57 101 57 C84 57 71 63 65 74 C57 86 55 102 58 121 L74 204 Z M125 444 C129 461 136 475 147 486 C158 496 170 501 185 501 C199 501 210 496 217 486 C224 475 227 461 223 444 L212 383 C209 365 201 351 190 341 C179 331 166 325 152 325 C137 325 127 331 120 341 C113 351 111 365 114 383 L125 444 Z " />
<glyph glyph-name="nine" unicode="9" horiz-adv-x="328" d="M320 441 C327 479 321 510 302 533 C282 556 254 568 219 568 C182 568 150 556 121 532 C92 508 74 477 67 439 L46 323 C39 285 43 255 59 233 C74 211 100 200 134 200 C151 200 167 205 180 214 L50 0 L123 0 L254 218 C278 258 294 301 302 347 L320 441 Z M226 325 C223 306 215 291 203 280 C191 269 177 264 161 264 C145 264 133 269 125 280 C117 291 115 306 118 325 L139 436 C142 456 150 471 162 482 C174 493 188 498 204 498 C220 498 232 493 240 482 C248 471 250 456 247 436 L226 325 Z " />
<glyph glyph-name="colon" unicode="&#x3a;" horiz-adv-x="122" d="M100 503 C75 503 48 483 43 455 C39 430 55 407 83 407 C108 407 133 427 138 455 C143 480 128 503 100 503 L100 503 Z M40 173 C15 173 -10 153 -15 125 C-20 100 -4 77 23 77 C48 77 74 97 79 125 C83 150 68 173 40 173 L40 173 Z " />
<glyph glyph-name="semicolon" unicode="&#x3b;" horiz-adv-x="127" d="M116 505 C91 505 64 485 59 457 C54 432 70 409 98 409 C123 409 150 430 155 457 C160 482 143 505 116 505 L116 505 Z M28 -17 L93 183 L13 183 L-28 -17 L28 -17 Z " />
<glyph glyph-name="less" unicode="&#x3c;" horiz-adv-x="341" d="M325 419 L347 491 L45 331 L34 267 L276 107 L280 181 L93 300 L325 419 L325 419 Z " />
<glyph glyph-name="equal" unicode="&#x3d;" horiz-adv-x="336" d="M313 340 L324 400 L52 400 L41 340 L313 340 Z M285 192 L296 252 L24 252 L13 192 L285 192 Z " />
<glyph glyph-name="greater" unicode="&#x3e;" horiz-adv-x="340" d="M6 182 L-9 110 L294 271 L306 334 L65 494 L50 419 L238 300 L6 182 L6 182 Z " />
<glyph glyph-name="question" unicode="&#x3f;" horiz-adv-x="275" d="M154 192 C159 215 170 240 190 266 C209 293 229 321 249 350 C269 379 282 410 288 440 C295 479 289 510 271 533 C252 556 225 568 191 568 C156 568 126 556 99 532 C71 508 54 477 46 437 L38 392 L108 392 L116 436 C120 456 126 471 137 481 C148 492 160 497 175 497 C190 497 201 492 208 481 C215 471 218 456 214 436 C210 416 202 394 189 372 C177 349 164 330 151 314 C137 298 124 279 111 258 C99 236 91 215 87 196 L83 172 L151 172 L154 192 Z M101 88 C76 88 50 67 45 40 C40 15 56 -8 84 -8 C109 -8 135 12 141 40 C145 65 128 88 101 88 L101 88 Z " />
<glyph glyph-name="at" unicode="&#x40;" horiz-adv-x="755" d="M240 257 C231 230 233 208 245 192 C255 175 274 167 300 167 C329 167 359 189 380 224 C363 183 374 138 391 119 C408 98 436 88 474 88 C530 88 582 111 627 156 C672 200 702 258 714 328 C732 426 714 508 662 575 C610 642 535 676 439 676 C344 676 258 642 180 574 C102 506 55 424 37 327 C20 233 37 153 89 88 C143 24 217 -8 313 -8 C329 -8 352 -6 381 0 L382 52 C367 48 348 46 324 46 C244 46 182 73 139 128 C95 183 81 249 95 328 C110 409 149 478 213 534 C278 591 350 620 429 620 C510 620 572 592 614 536 C657 480 671 409 656 324 C646 271 625 228 594 194 C562 160 527 143 490 143 C467 143 451 150 440 164 C431 178 430 198 438 224 L525 490 L522 496 L470 496 L458 465 C450 490 431 502 401 502 C377 502 355 495 335 480 C315 465 302 444 293 417 L240 257 Z M354 408 C362 433 378 446 404 446 C418 446 428 442 434 434 C439 426 440 415 436 402 L385 261 C377 235 361 222 335 222 C322 222 314 226 308 234 C304 242 304 253 307 266 L354 408 Z " />
<glyph glyph-name="A" unicode="A" horiz-adv-x="322" d="M250 560 L170 560 L-37 0 L31 0 L77 126 L183 126 L183 0 L262 0 L250 560 Z M186 422 L192 186 L99 186 L186 422 Z " />
<glyph glyph-name="B" unicode="B" horiz-adv-x="325" d="M-12 0 L117 0 C157 0 191 12 220 36 C250 60 268 93 276 135 L284 175 C295 234 279 274 238 294 C282 317 310 356 320 411 L323 427 C331 469 325 502 306 525 C286 548 256 560 217 560 L92 560 L-12 0 Z M156 496 L196 496 C216 496 231 490 240 478 C248 465 251 447 247 424 L240 391 C236 368 227 350 213 338 C200 325 183 319 163 319 L123 319 L156 496 Z M112 260 L160 260 C180 260 195 254 203 242 C212 229 214 211 210 188 L200 136 C196 113 187 95 173 82 C160 70 143 64 123 64 L75 64 L112 260 Z " />
<glyph glyph-name="C" unicode="C" horiz-adv-x="321" d="M190 122 C187 104 179 89 167 78 C156 68 142 62 127 62 C111 62 99 68 92 78 C84 89 83 104 86 122 L145 437 C148 455 155 470 167 481 C178 492 192 497 208 497 C223 497 235 492 242 481 C250 470 252 455 249 437 L235 364 L307 364 L321 441 C329 480 323 511 305 534 C286 557 258 568 222 568 C185 568 153 556 123 532 C94 507 76 476 69 437 L10 121 C3 82 9 51 28 27 C48 4 76 -8 112 -8 C148 -8 180 4 209 28 C237 51 255 82 262 121 L277 204 L205 204 L190 122 L190 122 Z " />
<glyph glyph-name="D" unicode="D" horiz-adv-x="340" d="M-12 0 L109 0 C151 0 187 12 216 37 C246 61 265 95 273 139 L326 423 C334 467 328 501 308 524 C288 548 258 560 216 560 L92 560 L-12 0 Z M155 490 L199 490 C219 490 232 483 242 471 C251 459 253 441 249 418 L198 142 C193 118 184 100 171 88 C157 76 140 70 120 70 L76 70 L155 490 Z " />
<glyph glyph-name="E" unicode="E" horiz-adv-x="265" d="M200 0 L214 74 L78 74 L112 255 L220 255 L233 324 L125 324 L155 486 L286 486 L300 560 L92 560 L-12 0 L200 0 L200 0 Z " />
<glyph glyph-name="F" unicode="F" horiz-adv-x="260" d="M215 255 L228 324 L123 324 L153 486 L282 486 L296 560 L92 560 L-12 0 L62 0 L110 255 L215 255 L215 255 Z " />
<glyph glyph-name="G" unicode="G" horiz-adv-x="345" d="M322 372 L333 435 C341 476 334 508 313 532 C293 556 264 568 226 568 C189 568 155 556 125 531 C95 506 75 473 68 433 L11 125 C3 84 10 52 30 28 C50 4 79 -8 117 -8 C139 -8 159 -4 178 4 L177 0 L252 0 L276 127 L313 324 L185 324 L172 255 L225 255 L201 126 C197 105 189 90 176 78 C164 67 149 61 132 61 C115 61 103 67 94 78 C86 90 84 105 88 126 L145 433 C149 453 157 469 169 480 C181 491 195 497 213 497 C229 497 242 491 250 480 C258 469 260 453 256 433 L245 372 L322 372 L322 372 Z " />
<glyph glyph-name="H" unicode="H" horiz-adv-x="339" d="M171 0 L246 0 L351 560 L276 560 L233 330 L124 330 L167 560 L92 560 L-12 0 L62 0 L110 256 L219 256 L171 0 L171 0 Z " />
<glyph glyph-name="I" unicode="I" horiz-adv-x="158" d="M-11 0 L66 0 L169 560 L91 560 L-11 0 L-11 0 Z " />
<glyph glyph-name="J" unicode="J" horiz-adv-x="199" d="M-38 -8 L-5 -8 C26 -8 55 2 79 22 C104 43 120 71 127 108 L211 560 L132 560 L51 122 C44 84 23 65 -10 65 C-16 65 -25 65 -25 65 L-38 -8 L-38 -8 Z " />
<glyph glyph-name="K" unicode="K" horiz-adv-x="323" d="M-12 0 L63 0 L114 271 L178 0 L263 0 L187 293 L360 560 L275 560 L121 307 L168 560 L92 560 L-12 0 L-12 0 Z " />
<glyph glyph-name="L" unicode="L" horiz-adv-x="251" d="M183 0 L197 74 L77 74 L168 560 L92 560 L-12 0 L183 0 L183 0 Z " />
<glyph glyph-name="M" unicode="M" horiz-adv-x="432" d="M161 88 L196 88 L340 383 L268 0 L339 0 L444 560 L372 560 L207 220 L170 560 L92 560 L-12 0 L57 0 L129 382 L161 88 L161 88 Z " />
<glyph glyph-name="N" unicode="N" horiz-adv-x="348" d="M188 0 L255 0 L360 560 L293 560 L222 183 L164 560 L92 560 L-12 0 L54 0 L127 391 L188 0 L188 0 Z " />
<glyph glyph-name="O" unicode="O" horiz-adv-x="344" d="M11 125 C3 84 9 52 30 28 C49 4 78 -8 116 -8 C154 -8 188 4 218 29 C248 54 268 87 275 127 L332 435 C340 476 333 508 313 532 C293 556 264 568 226 568 C188 568 154 556 124 531 C95 506 75 473 68 433 L11 125 Z M144 433 C148 453 156 469 168 480 C180 491 195 497 212 497 C228 497 241 491 249 480 C258 469 260 453 256 433 L199 126 C195 107 187 91 174 80 C162 68 147 62 131 62 C114 62 101 68 93 80 C85 91 83 107 87 126 L144 433 Z " />
<glyph glyph-name="P" unicode="P" horiz-adv-x="332" d="M-13 0 L61 0 L102 212 L144 212 C187 212 224 224 254 249 C284 274 305 309 313 355 L326 419 C334 464 329 499 309 524 C289 548 257 560 214 560 L93 560 L-13 0 Z M155 490 L199 490 C219 490 234 483 242 471 C251 459 254 441 250 418 L237 352 C232 329 223 311 210 298 C197 286 180 280 160 280 L116 280 L155 490 Z " />
<glyph glyph-name="Q" unicode="Q" horiz-adv-x="344" d="M283 127 L341 435 C348 476 341 508 322 532 C301 556 272 568 234 568 C196 568 162 556 132 531 C102 506 84 473 76 433 L19 125 C11 84 17 52 38 28 C57 4 86 -8 124 -8 C131 -8 136 -7 142 -6 L156 -95 L229 -96 L209 17 C249 42 274 79 283 127 L283 127 Z M101 80 C94 91 92 107 95 126 L152 433 C156 453 164 469 176 480 C188 491 203 497 220 497 C236 497 249 491 257 480 C266 469 268 453 264 433 L207 126 C205 114 201 104 195 95 L193 106 L126 83 L129 63 C118 65 108 70 101 80 L101 80 Z " />
<glyph glyph-name="R" unicode="R" horiz-adv-x="329" d="M315 362 L325 419 C333 464 327 499 307 524 C287 548 255 560 212 560 L91 560 L-11 0 L64 0 L105 224 L139 224 C142 224 144 224 147 224 C155 224 162 224 162 224 C175 223 185 218 193 209 C199 198 202 183 198 165 L168 0 L241 0 L272 169 C279 207 273 238 255 261 C286 282 306 316 315 362 L315 362 Z M238 359 C234 336 224 318 211 306 C206 301 201 297 194 294 C184 289 173 287 161 287 L117 287 L154 490 L198 490 C218 490 233 483 241 471 C250 459 253 441 249 418 L238 359 L238 359 Z " />
<glyph glyph-name="S" unicode="S" horiz-adv-x="284" d="M60 164 L-12 164 L-20 122 C-27 83 -21 51 -1 28 C17 4 45 -8 83 -8 C121 -8 154 4 185 29 C214 53 233 85 241 125 C247 159 244 192 234 221 C222 251 203 282 176 314 C151 342 135 365 127 384 C118 403 116 422 119 441 C123 459 130 473 141 484 C153 494 166 499 182 499 C198 499 209 494 217 482 C224 471 226 456 223 437 L217 408 L290 408 L296 441 C304 480 298 511 280 534 C260 557 232 568 196 568 C159 568 127 556 97 532 C68 509 50 477 43 438 C33 383 53 326 103 267 C130 236 148 210 157 190 C166 169 169 147 164 123 C161 104 153 89 140 78 C128 66 114 61 97 61 C80 61 68 67 59 78 C51 90 49 106 53 126 L60 164 L60 164 Z " />
<glyph glyph-name="T" unicode="T" horiz-adv-x="296" d="M315 486 L329 560 L69 560 L55 486 L147 486 L58 0 L134 0 L223 486 L315 486 L315 486 Z " />
<glyph glyph-name="U" unicode="U" horiz-adv-x="335" d="M272 560 L191 122 C188 104 181 89 169 78 C157 68 144 62 128 62 C112 62 101 68 94 78 C86 89 85 104 88 122 L169 560 L92 560 L11 121 C3 82 10 51 29 27 C49 4 77 -8 113 -8 C150 -8 183 4 211 28 C241 53 260 84 267 123 L348 560 L272 560 L272 560 Z " />
<glyph glyph-name="V" unicode="V" horiz-adv-x="313" d="M63 0 L141 0 L356 560 L279 560 L137 162 L144 560 L64 560 L63 0 L63 0 Z " />
<glyph glyph-name="W" unicode="W" horiz-adv-x="445" d="M47 0 L112 0 L237 365 L224 0 L292 0 L491 560 L414 560 L293 172 L310 560 L247 560 L118 170 L139 560 L59 560 L47 0 L47 0 Z " />
<glyph glyph-name="X" unicode="X" horiz-adv-x="329" d="M362 560 L281 560 L186 395 L152 560 L69 560 L125 289 L-39 0 L40 0 L148 186 L186 0 L269 0 L208 292 L362 560 L362 560 Z " />
<glyph glyph-name="Y" unicode="Y" horiz-adv-x="307" d="M60 0 L136 0 L178 216 L350 560 L273 560 L162 314 L147 560 L66 560 L102 217 L60 0 L60 0 Z " />
<glyph glyph-name="Z" unicode="Z" horiz-adv-x="256" d="M193 0 L205 70 L54 70 L280 502 L290 560 L70 560 L58 490 L197 490 L-28 58 L-38 0 L193 0 L193 0 Z " />
<glyph glyph-name="bracketleft" unicode="&#x5b;" horiz-adv-x="252" d="M154 -8 L167 56 L59 56 L164 616 L272 616 L285 680 L105 680 L-25 -8 L154 -8 L154 -8 Z " />
<glyph glyph-name="backslash" unicode="&#x5c;" horiz-adv-x="328" d="M147 680 L83 680 L172 -8 L235 -8 L147 680 L147 680 Z " />
<glyph glyph-name="bracketright" unicode="&#x5d;" horiz-adv-x="262" d="M158 -8 L285 680 L105 680 L94 616 L202 616 L97 56 L-10 56 L-21 -8 L158 -8 L158 -8 Z " />
<glyph glyph-name="asciicircum" unicode="&#x5e;" horiz-adv-x="310" d="M197 288 L271 288 L210 560 L148 560 L-2 288 L73 288 L165 473 L197 288 L197 288 Z " />
<glyph glyph-name="underscore" unicode="&#x5f;" horiz-adv-x="407" d="M364 0 L374 55 L54 55 L44 0 L364 0 L364 0 Z " />
<glyph glyph-name="grave" unicode="&#x60;" horiz-adv-x="154" d="M140 560 L64 560 L100 428 L156 428 L140 560 L140 560 Z " />
<glyph glyph-name="a" unicode="a" horiz-adv-x="313" d="M6 109 C0 73 4 45 19 24 C34 3 56 -8 86 -8 C123 -8 168 18 183 77 L169 0 L234 0 L291 301 C297 336 292 364 274 386 C255 407 230 418 196 418 C164 418 134 407 107 384 C81 362 64 333 57 298 L54 282 L124 282 L128 302 C131 319 138 332 148 341 C158 350 170 355 184 355 C197 355 207 350 213 341 C221 332 222 319 219 302 L202 212 C189 234 167 246 136 246 C106 246 80 235 56 213 C32 191 16 162 10 126 L6 109 Z M82 130 C86 148 94 163 106 174 C117 185 131 190 146 190 C162 190 173 185 181 174 C188 163 190 148 186 130 L183 110 C179 92 171 78 160 67 C148 56 135 50 119 50 C104 50 92 56 85 67 C77 78 75 92 79 110 L82 130 Z " />
<glyph glyph-name="b" unicode="b" horiz-adv-x="324" d="M-11 0 L52 0 L66 77 C57 26 91 -8 129 -8 C158 -8 184 2 207 23 C230 43 245 71 252 105 L289 308 C296 342 291 368 275 388 C261 408 239 418 210 418 C179 418 153 407 132 384 L164 560 L92 560 L-11 0 Z M181 115 C177 98 171 84 159 74 C148 64 135 58 121 58 C106 58 96 64 88 74 C81 84 78 98 82 115 L115 294 C118 312 126 326 137 336 C148 346 160 351 175 351 C189 351 201 346 208 336 C216 326 217 312 214 294 L181 115 Z " />
<glyph glyph-name="c" unicode="c" horiz-adv-x="314" d="M197 164 L187 112 C184 96 178 83 167 73 C156 63 144 58 131 58 C117 58 107 63 100 73 C94 83 91 96 94 112 L129 298 C132 314 139 327 149 337 C160 346 172 351 186 351 C199 351 209 346 216 337 C223 327 225 314 222 298 L213 250 L282 250 L291 300 C298 335 292 364 274 386 C256 407 231 418 199 418 C166 418 135 407 108 384 C81 362 63 333 57 298 L22 110 C15 75 22 47 40 25 C58 3 84 -8 117 -8 C150 -8 179 3 206 26 C233 49 250 78 256 113 L266 164 L197 164 L197 164 Z " />
<glyph glyph-name="d" unicode="d" horiz-adv-x="323" d="M335 560 L263 560 L231 386 C218 408 197 418 168 418 C138 418 112 408 89 387 C66 366 51 339 45 306 L7 102 C1 68 5 41 20 22 C35 2 57 -8 86 -8 C130 -8 166 25 180 77 L166 0 L231 0 L335 560 Z M115 294 C118 312 126 326 137 336 C148 346 160 351 175 351 C189 351 201 346 208 336 C215 326 217 312 214 294 L181 115 C177 98 170 84 159 74 C148 64 135 58 121 58 C106 58 95 64 88 74 C81 84 78 98 82 115 L115 294 Z " />
<glyph glyph-name="e" unicode="e" horiz-adv-x="319" d="M194 115 C191 98 184 84 173 74 C162 64 149 58 135 58 C120 58 110 64 102 74 C94 84 92 98 95 115 L111 200 L278 200 L296 298 C302 334 295 363 277 385 C259 407 233 418 199 418 C165 418 135 407 108 384 C80 361 63 332 56 296 L22 111 C16 75 23 47 41 25 C60 3 86 -8 120 -8 C153 -8 184 3 211 26 C238 49 255 78 262 114 L267 140 L199 140 L194 115 Z M129 299 C132 317 140 331 150 341 C162 351 174 356 189 356 C203 356 214 351 221 340 C229 330 231 316 228 299 L219 251 L120 251 L129 299 Z " />
<glyph glyph-name="f" unicode="f" horiz-adv-x="217" d="M24 350 L72 350 L6 0 L78 0 L144 350 L216 350 L227 410 L155 410 L163 452 C170 486 187 503 216 503 C224 503 245 503 245 503 L257 568 C257 568 218 568 210 568 C180 568 154 559 134 542 C113 525 100 499 94 465 L83 410 L35 410 L24 350 L24 350 Z " />
<glyph glyph-name="g" unicode="g" horiz-adv-x="323" d="M333 410 L268 410 L251 323 C263 384 233 418 192 418 C163 418 137 408 113 387 C90 366 76 339 70 306 L40 142 C33 108 37 81 52 62 C67 42 89 32 118 32 C148 32 174 43 197 66 L181 -17 C178 -34 170 -48 159 -58 C149 -68 136 -74 121 -74 C107 -74 95 -69 88 -58 C80 -48 79 -34 82 -17 L85 0 L15 0 L13 -14 C6 -51 11 -80 30 -102 C48 -125 74 -136 108 -136 C142 -136 173 -124 201 -101 C230 -78 247 -48 254 -12 L333 410 Z M140 294 C143 312 150 326 161 336 C172 346 185 351 200 351 C215 351 226 346 233 336 C240 326 242 312 239 294 L212 150 C209 133 202 120 191 110 C179 100 166 94 152 94 C138 94 127 100 120 110 C112 120 110 134 113 151 L140 294 Z " />
<glyph glyph-name="h" unicode="h" horiz-adv-x="320" d="M226 0 L285 308 C292 343 289 370 275 389 C262 409 242 418 214 418 C180 418 136 388 120 323 L165 560 L93 560 L-13 0 L58 0 L115 300 C118 316 125 328 137 338 C147 347 160 351 174 351 C189 351 199 346 205 337 C213 327 214 314 211 296 L154 0 L226 0 L226 0 Z " />
<glyph glyph-name="i" unicode="i" horiz-adv-x="153" d="M131 568 C106 568 79 548 74 520 C69 495 85 472 113 472 C138 472 165 493 170 520 C175 545 158 568 131 568 L131 568 Z M-14 0 L58 0 L137 410 L64 410 L-14 0 Z " />
<glyph glyph-name="j" unicode="j" horiz-adv-x="154" d="M-77 -135 L-42 -135 C-16 -135 7 -126 27 -109 C47 -92 60 -68 66 -37 L150 411 L76 411 L-5 -30 C-10 -57 -24 -70 -48 -70 C-54 -70 -65 -70 -65 -70 L-77 -135 Z M142 569 C116 569 89 549 84 520 C79 495 96 472 124 472 C149 472 176 492 181 520 C186 546 171 569 142 569 L142 569 Z " />
<glyph glyph-name="k" unicode="k" horiz-adv-x="303" d="M-12 0 L59 0 L97 204 L159 0 L243 0 L167 225 L312 410 L230 410 L103 235 L164 560 L92 560 L-12 0 L-12 0 Z " />
<glyph glyph-name="l" unicode="l" horiz-adv-x="154" d="M-12 0 L61 0 L166 560 L92 560 L-12 0 L-12 0 Z " />
<glyph glyph-name="m" unicode="m" horiz-adv-x="478" d="M128 296 C131 314 137 327 148 337 C159 346 171 351 185 351 C214 351 226 333 219 296 L164 0 L236 0 L291 298 C294 315 301 328 311 337 C322 346 334 351 348 351 C377 351 389 333 382 296 L327 0 L399 0 L456 308 C462 343 459 370 447 389 C434 409 414 418 386 418 C348 418 317 400 293 364 C285 400 261 418 223 418 C186 418 139 385 125 323 L141 410 L77 410 L1 0 L73 0 L128 296 L128 296 Z " />
<glyph glyph-name="n" unicode="n" horiz-adv-x="320" d="M128 296 C131 314 139 327 150 337 C160 346 173 351 188 351 C202 351 212 346 220 337 C226 327 227 314 224 296 L168 0 L240 0 L298 308 C305 343 302 370 289 389 C275 409 255 418 227 418 C189 418 144 391 126 323 L142 410 L77 410 L0 0 L72 0 L128 296 L128 296 Z " />
<glyph glyph-name="o" unicode="o" horiz-adv-x="323" d="M23 114 C16 77 22 48 41 26 C60 3 87 -8 121 -8 C155 -8 186 4 214 27 C243 50 260 80 266 116 L299 297 C306 333 300 362 280 385 C261 407 235 418 200 418 C166 418 135 407 108 384 C79 360 62 331 56 294 L23 114 Z M128 294 C131 312 137 326 149 336 C160 346 173 351 188 351 C202 351 213 346 220 336 C228 326 230 312 227 294 L194 115 C191 98 185 84 173 74 C162 64 149 58 135 58 C120 58 109 64 102 74 C95 84 92 98 95 115 L128 294 Z " />
<glyph glyph-name="p" unicode="p" horiz-adv-x="323" d="M-10 -128 L61 -128 L89 23 C102 2 123 -8 153 -8 C182 -8 208 2 232 23 C255 43 269 71 275 105 L313 308 C319 342 315 368 300 388 C285 408 263 418 234 418 C195 418 154 394 138 323 L154 410 L89 410 L-10 -128 Z M205 115 C202 98 195 84 183 74 C172 64 159 58 145 58 C130 58 120 64 112 74 C105 84 103 98 106 115 L139 294 C143 312 150 326 161 336 C172 346 185 351 200 351 C214 351 225 346 232 336 C240 326 242 312 238 294 L205 115 Z " />
<glyph glyph-name="q" unicode="q" horiz-adv-x="323" d="M160 -128 L232 -128 L332 410 L267 410 L251 323 C261 394 228 418 189 418 C160 418 134 408 113 388 C90 368 76 342 70 308 L32 105 C26 71 30 43 45 23 C61 2 83 -8 112 -8 C142 -8 167 2 188 23 L160 -128 Z M112 74 C104 84 103 98 106 115 L139 294 C143 312 149 326 161 336 C172 346 185 351 199 351 C214 351 225 346 232 336 C239 326 242 312 238 294 L205 115 C202 98 194 84 183 74 C172 64 159 58 144 58 C130 58 119 64 112 74 L112 74 Z " />
<glyph glyph-name="r" unicode="r" horiz-adv-x="215" d="M238 418 C193 418 146 379 125 323 L141 410 L76 410 L2 0 L74 0 L120 257 C130 311 159 338 208 338 L224 338 L238 418 L238 418 Z " />
<glyph glyph-name="s" unicode="s" horiz-adv-x="293" d="M209 294 L279 294 L281 306 C288 340 281 366 263 387 C244 408 219 418 186 418 C153 418 124 408 97 387 C70 366 55 341 49 310 C39 258 62 216 115 186 C141 173 158 160 166 148 C175 136 177 123 174 107 C171 91 165 78 153 69 C142 59 129 54 115 54 C100 54 89 59 82 69 C75 79 72 92 76 110 L78 124 L9 124 L7 110 C0 74 7 46 25 24 C44 3 70 -8 104 -8 C139 -8 169 3 196 25 C224 47 240 75 247 110 C257 165 233 208 176 239 C152 252 137 264 129 274 C121 284 119 297 121 310 C124 324 130 335 140 343 C151 351 162 355 175 355 C188 355 199 351 205 342 C212 332 214 321 211 306 L209 294 L209 294 Z " />
<glyph glyph-name="t" unicode="t" horiz-adv-x="215" d="M26 350 L74 350 L24 94 C17 60 21 35 35 18 C49 0 71 -8 102 -8 C119 -8 148 -8 148 -8 L161 58 L132 58 C103 58 92 75 99 110 L146 350 L222 350 L233 410 L157 410 L177 512 L105 512 L85 410 L37 410 L26 350 L26 350 Z " />
<glyph glyph-name="u" unicode="u" horiz-adv-x="320" d="M191 114 C188 97 181 83 169 74 C159 64 146 59 132 59 C117 59 107 64 100 74 C93 83 92 97 95 114 L151 410 L79 410 L21 102 C14 68 18 41 30 21 C44 2 64 -8 92 -8 C130 -8 175 19 193 88 L177 0 L242 0 L319 410 L247 410 L191 114 L191 114 Z " />
<glyph glyph-name="v" unicode="v" horiz-adv-x="286" d="M71 0 L137 0 L309 410 L238 410 L129 119 L128 410 L53 410 L71 0 L71 0 Z " />
<glyph glyph-name="w" unicode="w" horiz-adv-x="414" d="M63 0 L124 0 L217 261 L212 0 L273 0 L435 410 L365 410 L268 137 L271 410 L222 410 L123 137 L130 410 L55 410 L63 0 L63 0 Z " />
<glyph glyph-name="x" unicode="x" horiz-adv-x="297" d="M318 410 L245 410 L165 291 L129 410 L54 410 L113 212 L-28 0 L44 0 L135 136 L175 0 L251 0 L187 215 L318 410 L318 410 Z " />
<glyph glyph-name="y" unicode="y" horiz-adv-x="286" d="M85 0 C73 -29 61 -48 51 -59 C40 -70 27 -75 11 -75 C3 -75 -8 -75 -8 -75 L-19 -136 C-19 -136 6 -136 14 -136 C39 -136 63 -126 84 -108 C106 -89 127 -56 146 -11 L323 410 L252 410 L141 107 L142 410 L67 410 L85 0 L85 0 Z " />
<glyph glyph-name="z" unicode="z" horiz-adv-x="231" d="M-18 50 L-28 0 L179 0 L191 62 L59 62 L247 362 L256 410 L60 410 L48 348 L167 348 L-18 50 L-18 50 Z " />
<glyph glyph-name="braceleft" unicode="&#x7b;" horiz-adv-x="293" d="M156 252 C166 305 150 333 110 336 C129 337 145 344 159 358 C172 372 182 392 187 418 L213 561 C217 581 225 595 235 604 C246 613 261 617 280 617 L316 617 L327 680 L285 680 C204 680 156 639 141 557 L113 411 C110 395 104 384 97 377 C89 370 77 367 61 367 L33 367 L22 304 L50 304 C66 304 76 300 82 294 C86 287 88 276 85 260 L58 113 C43 32 77 -8 158 -8 L200 -8 L211 53 L175 53 C156 53 143 58 135 67 C128 75 126 90 129 109 L156 252 L156 252 Z " />
<glyph glyph-name="bar" unicode="&#x7c;" horiz-adv-x="142" d="M-26 -8 L35 -8 L168 712 L106 712 L-26 -8 L-26 -8 Z " />
<glyph glyph-name="braceright" unicode="&#x7d;" horiz-adv-x="292" d="M136 419 C126 366 142 338 183 336 C163 335 147 327 133 313 C120 299 110 279 105 253 L78 110 C75 90 68 76 56 67 C46 58 31 54 12 54 L-23 54 L-34 -8 L7 -8 C88 -8 136 32 151 114 L179 261 C181 276 186 287 195 294 C203 301 216 304 231 304 L259 304 L270 368 L242 368 C227 368 216 371 210 378 C204 384 204 396 207 412 L234 558 C249 639 215 680 134 680 L92 680 L81 618 L117 618 C136 618 149 614 157 605 C165 596 166 582 163 562 L136 419 L136 419 Z " />
<glyph glyph-name="asciitilde" unicode="&#x7e;" horiz-adv-x="347" d="M68 235 L71 247 C74 256 78 263 85 271 C91 279 99 283 108 283 C120 283 130 278 140 270 C150 261 160 252 171 243 C182 233 197 228 217 228 C233 228 247 232 260 240 C274 248 283 256 291 266 C297 275 304 287 309 299 C315 312 318 320 319 325 C321 330 321 334 322 337 L268 337 L266 325 C263 318 259 310 252 302 C245 294 237 290 228 290 C216 290 206 294 197 303 C187 311 177 320 166 330 C154 340 140 344 122 344 C106 344 91 340 78 333 C65 325 54 316 47 307 C40 297 34 286 28 274 C22 261 19 252 17 247 C17 243 16 239 15 235 L68 235 L68 235 Z " />
<glyph glyph-name="exclamdown" unicode="&#xa1;" horiz-adv-x="138" d="M103 472 C128 472 155 492 160 520 C165 545 148 568 121 568 C97 568 68 547 63 520 C59 495 75 472 103 472 L103 472 Z M113 388 L63 388 L-25 0 L58 0 L113 388 Z " />
<glyph glyph-name="cent" unicode="&#xa2;" horiz-adv-x="314" d="M282 246 L291 295 C297 325 292 350 279 371 C266 391 247 404 221 409 L233 470 L185 470 L173 409 C144 404 119 390 98 369 C76 348 62 323 57 293 L22 106 C16 75 20 49 35 28 C48 7 68 -5 96 -9 L95 -12 L84 -69 L132 -69 L143 -12 L144 -8 C172 -2 195 11 216 32 C237 53 251 78 256 108 L266 159 L197 159 L187 107 C184 91 177 78 167 68 C164 66 160 63 157 61 L165 105 L117 105 L108 60 C105 62 102 65 100 68 C93 78 91 91 94 107 L129 293 C132 309 138 323 149 332 C153 336 156 338 161 341 L152 292 L200 292 L208 339 C211 337 214 335 216 332 C222 323 225 309 222 293 L213 246 L282 246 L282 246 Z " />
<glyph glyph-name="sterling" unicode="&#xa3;" horiz-adv-x="334" d="M330 392 L340 447 C346 483 341 512 322 534 C304 557 278 568 244 568 C210 568 178 556 150 533 C122 510 105 480 98 443 L71 292 L15 292 L7 246 L63 246 L30 67 L-25 67 L-37 0 L18 0 L91 0 L250 0 L262 67 L103 67 L136 246 L235 246 L243 292 L144 292 L171 442 C174 460 182 474 192 484 C202 495 215 500 230 500 C245 500 256 495 264 484 C270 474 272 460 269 442 L260 392 L330 392 L330 392 Z " />
<glyph glyph-name="currency" unicode="&#xa4;" horiz-adv-x="396" d="M89 352 C62 324 46 293 40 257 C33 220 37 188 52 163 L-9 110 L19 75 L83 130 C105 111 135 102 169 102 C203 102 235 111 266 130 L310 75 L350 110 L307 163 C334 191 350 223 357 258 C363 293 359 325 342 352 L405 406 L378 440 L312 385 C289 404 261 414 228 414 C194 414 162 404 130 385 L87 440 L45 406 L89 352 Z M120 191 C106 209 101 231 106 258 C111 284 124 306 145 324 C165 342 189 350 215 350 C241 350 261 342 276 324 C291 306 295 284 290 258 C285 231 273 209 251 191 C230 173 206 164 180 164 C154 164 134 173 120 191 L120 191 Z " />
<glyph glyph-name="yen" unicode="&#xa5;" horiz-adv-x="332" d="M75 0 L151 0 L182 166 L271 166 L279 209 L190 209 L197 252 L204 265 L289 265 L296 307 L225 307 L359 560 L283 560 L176 333 L155 560 L75 560 L113 307 L44 307 L37 265 L120 265 L122 253 L114 209 L27 209 L19 166 L106 166 L75 0 L75 0 Z " />
<glyph glyph-name="brokenbar" unicode="&#xa6;" horiz-adv-x="126" d="M158 712 L96 712 L47 444 L109 444 L158 712 Z M-34 -8 L26 -8 L75 260 L13 260 L-34 -8 Z " />
<glyph glyph-name="section" unicode="&#xa7;" horiz-adv-x="390" d="M201 35 C198 19 190 7 180 -2 C169 -11 156 -16 141 -16 C126 -16 115 -11 107 -1 C100 9 98 22 101 38 L105 60 L33 60 L29 37 C23 2 29 -26 48 -46 C67 -66 94 -76 128 -76 C164 -76 196 -66 224 -45 C252 -24 269 4 275 39 C282 76 275 110 251 141 C278 150 301 164 319 183 C338 203 350 227 356 255 C361 285 356 313 341 337 C326 360 299 387 259 415 C234 433 217 450 207 465 C198 481 195 498 198 517 C201 532 207 544 219 553 C230 562 243 567 258 567 C273 567 284 562 291 552 C298 542 301 529 297 512 L294 492 L365 492 L369 515 C375 549 368 577 350 597 C331 617 304 628 270 628 C234 628 203 617 175 596 C147 575 130 547 123 512 C117 475 124 440 147 409 C121 401 97 387 79 368 C61 348 49 325 43 296 C38 266 42 238 58 215 C73 191 100 165 139 136 C164 118 182 101 191 86 C200 71 204 54 201 35 L201 35 Z M196 362 C232 335 256 314 268 299 C279 283 283 266 279 248 C276 231 268 216 254 204 C241 193 225 186 208 185 L200 189 C165 215 142 236 130 252 C119 267 114 284 118 303 C121 320 129 334 144 346 C157 358 173 364 190 366 L196 362 Z " />
<glyph glyph-name="dieresis" unicode="&#xa8;" horiz-adv-x="255" d="M134 568 C111 568 88 551 84 525 C79 502 93 482 119 482 C141 482 165 500 170 525 C173 547 159 568 134 568 L134 568 Z M260 568 C237 568 214 550 210 525 C205 502 219 482 245 482 C268 482 291 499 296 525 C300 548 286 568 260 568 L260 568 Z " />
<glyph glyph-name="copyright" unicode="&#xa9;" horiz-adv-x="659" d="M161 484 C94 428 53 359 38 278 C23 197 37 129 83 74 C127 19 191 -8 273 -8 C355 -8 429 20 496 76 C563 132 604 200 620 281 C635 362 620 430 575 485 C531 540 467 568 385 568 C303 568 228 540 161 484 L161 484 Z M125 108 C88 154 75 211 89 280 C101 347 135 404 190 451 C246 497 306 520 374 520 C442 520 495 497 532 451 C569 404 581 347 569 280 C555 211 522 154 467 108 C412 61 351 38 283 38 C215 38 163 61 125 108 L125 108 Z M409 217 L399 206 C392 200 381 193 367 186 C352 180 336 176 319 176 C290 176 268 186 252 206 C235 226 230 250 236 280 C241 309 256 334 279 353 C303 373 329 383 358 383 C374 383 388 380 400 373 C412 367 420 362 422 358 C425 354 428 350 428 348 L478 384 L475 389 C473 393 469 397 463 403 C457 408 451 414 442 419 C434 424 424 429 410 432 C397 436 382 438 366 438 C320 438 280 423 243 392 C207 361 184 323 175 278 C167 233 175 196 199 166 C223 136 258 121 304 121 C320 121 337 123 353 128 C368 132 380 137 390 142 C400 147 409 153 419 160 C427 167 433 171 436 174 C439 177 440 179 442 180 L409 217 Z " />
<glyph glyph-name="ordfeminine" unicode="&#xaa;" horiz-adv-x="210" d="M21 384 C17 361 19 343 29 330 C39 317 54 311 73 311 C96 311 121 326 129 354 L123 316 L170 316 L202 496 C206 518 201 536 190 549 C178 563 161 570 139 570 C117 570 99 563 82 549 C65 535 54 516 50 495 L48 487 L98 487 L101 500 C102 508 105 515 111 520 C116 524 123 527 131 527 C148 527 154 518 151 500 L141 448 C133 459 119 465 101 465 C82 465 64 458 50 445 C35 431 26 413 22 391 L21 384 Z M1 229 L154 229 L161 268 L8 268 L1 229 Z M74 396 C76 406 80 414 86 420 C92 426 100 429 109 429 C129 429 136 418 132 396 L129 382 C128 372 124 364 118 358 C111 352 104 349 95 349 C86 349 79 352 75 358 C71 364 70 372 71 382 L74 396 Z " />
<glyph glyph-name="guillemotleft" unicode="&#xab;" horiz-adv-x="464" d="M259 420 L226 459 L42 311 L37 288 L167 140 L215 182 L122 300 L259 420 Z M461 420 L428 459 L244 311 L239 288 L370 140 L418 182 L324 300 L461 420 Z " />
<glyph glyph-name="logicalnot" unicode="&#xac;" horiz-adv-x="352" d="M235 127 L297 127 L327 300 L55 300 L45 243 L255 243 L235 127 L235 127 Z " />
<glyph glyph-name="registered" unicode="&#xae;" horiz-adv-x="334" d="M192 569 C152 569 117 555 85 528 C53 501 34 468 27 429 C21 391 29 358 52 332 C74 305 104 292 143 292 C182 292 219 305 249 332 C281 359 300 392 307 431 C313 470 306 503 283 529 C261 555 230 569 192 569 L192 569 Z M79 354 C62 374 55 400 61 430 C66 461 81 486 104 507 C129 527 156 538 186 538 C216 538 239 527 255 507 C273 486 279 461 274 430 C268 400 254 374 230 354 C206 333 180 323 150 323 C120 323 96 333 79 354 L79 354 Z M104 363 L136 363 L144 409 L160 409 L184 363 L220 363 L192 412 C214 419 226 432 229 453 C232 466 228 477 222 485 C213 493 202 497 187 497 L127 497 L104 363 Z M179 472 C195 472 201 465 199 452 C197 439 188 433 172 433 L148 433 L155 472 L179 472 Z " />
<glyph glyph-name="degree" unicode="&#xb0;" horiz-adv-x="288" d="M77 544 C50 521 34 493 27 460 C21 427 27 399 45 376 C63 354 89 343 123 343 C157 343 187 354 215 377 C242 399 259 427 266 461 C272 494 265 522 246 545 C229 567 202 579 169 579 C135 579 105 567 77 544 L77 544 Z M134 396 C116 396 102 402 93 415 C83 427 80 442 83 460 C87 478 96 494 110 506 C124 519 141 525 159 525 C176 525 189 519 199 506 C208 494 211 478 207 460 C204 442 195 427 182 415 C167 402 151 396 134 396 L134 396 Z " />
<glyph glyph-name="plusminus" unicode="&#xb1;" horiz-adv-x="352" d="M240 411 L183 411 L163 300 L56 300 L45 242 L152 242 L132 131 L189 131 L209 242 L317 242 L328 300 L220 300 L240 411 Z M276 19 L287 77 L15 77 L4 19 L276 19 Z " />
<glyph glyph-name="twosuperior" unicode="&#xb2;" horiz-adv-x="176" d="M131 228 L139 273 L44 273 L139 407 C160 437 173 465 177 488 C182 512 178 532 167 546 C155 561 139 568 117 568 C95 568 75 561 59 546 C41 532 31 513 27 489 L21 458 L70 458 L75 488 C79 510 89 520 106 520 C123 520 130 510 126 488 C123 466 114 446 101 427 L-12 264 L-19 228 L131 228 L131 228 Z " />
<glyph glyph-name="threesuperior" unicode="&#xb3;" horiz-adv-x="204" d="M193 493 C197 516 194 534 182 548 C171 562 155 568 134 568 C114 568 95 561 78 547 C61 533 50 515 46 493 L41 468 L91 468 L96 493 C100 512 109 522 125 522 C140 522 146 512 142 493 L134 451 C130 431 120 421 105 421 L86 421 L79 381 L98 381 C116 381 122 370 118 348 L109 301 C105 280 95 269 77 269 C59 269 52 280 56 301 L61 331 L12 331 L7 301 C2 278 6 259 17 244 C28 230 45 223 67 223 C90 223 109 230 127 245 C145 259 157 279 161 303 L168 340 C173 366 167 387 151 402 C170 416 182 436 187 460 L193 493 L193 493 Z " />
<glyph glyph-name="acute" unicode="&#xb4;" horiz-adv-x="154" d="M79 436 L135 436 L218 568 L142 568 L79 436 L79 436 Z " />
<glyph glyph-name="mu" unicode="&#xb5;" horiz-adv-x="320" d="M90 410 L-10 -128 L61 -128 L85 0 C94 -5 105 -8 117 -8 C147 -8 173 7 194 37 L187 0 L253 0 L330 410 L258 410 L202 113 C199 96 192 83 181 73 C169 63 156 58 141 58 C127 58 117 63 111 73 C105 82 103 96 106 113 L162 410 L90 410 L90 410 Z " />
<glyph glyph-name="paragraph" unicode="&#xb6;" horiz-adv-x="408" d="M103 0 L175 0 L268 496 L336 496 L243 0 L315 0 L420 560 L203 560 C159 560 122 546 92 519 C62 492 43 459 35 419 C28 379 34 346 54 320 C74 293 106 280 149 280 L156 280 L103 0 L103 0 Z " />
<glyph glyph-name="cedilla" unicode="&#xb8;" horiz-adv-x="285" d="M93 0 L99 -5 C103 -9 107 -15 111 -24 C114 -33 114 -43 112 -54 C110 -70 102 -83 91 -92 C79 -101 66 -106 50 -106 C36 -106 27 -105 23 -102 L14 -152 L18 -152 C21 -153 26 -154 32 -155 C37 -156 44 -156 50 -156 C80 -156 106 -148 128 -131 C151 -114 164 -91 169 -63 C171 -51 172 -40 170 -29 C168 -18 164 -10 160 -4 C156 2 151 8 146 13 C140 18 137 21 135 23 C132 24 130 25 129 25 L93 0 L93 0 Z " />
<glyph glyph-name="onesuperior" unicode="&#xb9;" horiz-adv-x="146" d="M26 513 L47 479 L74 498 L23 225 L74 225 L137 561 L94 561 L26 513 L26 513 Z " />
<glyph glyph-name="ordmasculine" unicode="&#xba;" horiz-adv-x="200" d="M20 387 C16 364 19 345 32 331 C43 317 61 310 83 310 C106 310 126 318 144 332 C163 347 173 365 178 389 L197 492 C201 515 198 534 186 548 C173 563 156 570 134 570 C112 570 91 562 74 548 C55 533 44 514 40 490 L20 387 Z M-1 228 L139 228 L147 267 L6 267 L-1 228 Z M91 494 C95 513 106 523 124 523 C143 523 150 513 146 494 L126 386 C124 377 121 369 114 364 C108 359 101 356 92 356 C84 356 78 359 74 364 C70 369 69 377 71 386 L91 494 Z " />
<glyph glyph-name="guillemotright" unicode="&#xbb;" horiz-adv-x="465" d="M2 181 L35 141 L219 289 L224 313 L94 461 L46 418 L139 300 L2 181 Z M204 181 L237 141 L422 289 L427 313 L296 461 L248 418 L341 300 L204 181 Z " />
<glyph glyph-name="onequarter" unicode="&#xbc;" horiz-adv-x="459" d="M55 506 L75 472 L110 497 L59 224 L110 224 L173 560 L130 560 L55 506 Z M-7 0 L44 0 L473 560 L420 560 L-7 0 Z M238 123 L230 81 L324 81 L309 0 L356 0 L371 81 L398 81 L406 122 L379 122 L419 336 L371 336 L238 123 Z M279 122 L355 244 L332 122 L279 122 Z " />
<glyph glyph-name="onehalf" unicode="&#xbd;" horiz-adv-x="511" d="M54 506 L75 472 L109 497 L59 224 L111 224 L173 560 L129 560 L54 506 Z M-6 0 L45 0 L472 560 L420 560 L-6 0 Z M418 0 L426 45 L331 45 L426 179 C448 210 462 237 466 261 C470 285 466 304 455 319 C443 333 427 341 405 341 C384 341 364 333 347 319 C330 304 318 285 314 261 L308 230 L357 230 L363 260 C367 282 378 293 395 293 C412 293 418 282 414 260 C410 238 401 218 388 199 L273 36 L266 0 L418 0 Z " />
<glyph glyph-name="threequarters" unicode="&#xbe;" horiz-adv-x="498" d="M228 489 C232 512 229 530 217 544 C206 558 189 565 168 565 C148 565 130 558 112 543 C95 529 85 511 81 489 L76 464 L125 464 L130 489 C134 509 143 518 159 518 C174 518 181 509 177 489 L169 447 C165 427 156 417 141 417 L133 377 C150 377 157 366 153 345 L144 297 C140 276 130 266 113 266 C94 266 86 276 90 297 L96 327 L48 327 L42 297 C38 274 41 255 53 241 C64 226 81 219 103 219 C125 219 145 226 163 241 C181 256 191 275 196 299 L203 336 C208 363 202 383 185 398 C205 413 217 432 222 457 L228 489 Z M30 0 L83 0 L510 560 L459 560 L30 0 Z M277 123 L269 81 L363 81 L348 0 L395 0 L410 81 L437 81 L445 122 L418 122 L458 336 L410 336 L277 123 Z M318 122 L393 244 L371 122 L318 122 Z " />
<glyph glyph-name="questiondown" unicode="&#xbf;" horiz-adv-x="253" d="M110 368 C105 344 93 319 74 293 C54 266 34 238 15 209 C-5 180 -17 150 -23 119 C-30 81 -25 50 -6 26 C11 3 38 -8 73 -8 C107 -8 137 4 165 27 C193 51 209 83 217 122 L225 168 L156 168 L148 123 C144 104 138 89 127 78 C116 67 103 62 88 62 C73 62 62 67 55 78 C48 89 46 104 50 123 C54 144 61 165 74 188 C87 210 99 229 113 245 C126 261 140 280 152 302 C164 323 172 344 176 364 L180 388 L113 388 L110 368 Z M162 472 C187 472 213 492 218 520 C223 545 207 568 179 568 C154 568 127 547 122 520 C118 495 134 472 162 472 L162 472 Z " />
<glyph glyph-name="Agrave" unicode="&#xc0;" horiz-adv-x="312" d="M240 560 L160 560 L-47 0 L21 0 L67 126 L173 126 L173 0 L252 0 L240 560 Z M176 422 L182 186 L89 186 L176 422 Z M218 760 L142 760 L178 628 L234 628 L218 760 Z " />
<glyph glyph-name="Aacute" unicode="&#xc1;" horiz-adv-x="312" d="M240 560 L160 560 L-47 0 L21 0 L67 126 L173 126 L173 0 L252 0 L240 560 Z M176 422 L182 186 L89 186 L176 422 Z M154 636 L210 636 L293 768 L217 768 L154 636 Z " />
<glyph glyph-name="Acircumflex" unicode="&#xc2;" horiz-adv-x="312" d="M240 560 L160 560 L-47 0 L21 0 L67 126 L173 126 L173 0 L252 0 L240 560 Z M176 422 L182 186 L89 186 L176 422 Z M122 628 L176 628 L236 705 L271 628 L329 628 L276 760 L220 760 L122 628 Z " />
<glyph glyph-name="Atilde" unicode="&#xc3;" horiz-adv-x="312" d="M240 560 L160 560 L-47 0 L21 0 L67 126 L173 126 L173 0 L252 0 L240 560 Z M176 422 L182 186 L89 186 L176 422 Z M125 604 L130 616 C131 624 135 632 142 640 C148 648 157 652 166 652 C177 652 188 647 198 639 C207 630 217 621 229 612 C240 602 255 597 275 597 C290 597 305 601 318 609 C331 617 341 625 348 635 C356 645 362 656 367 668 C372 681 376 689 376 694 C378 699 379 703 380 706 L326 706 L322 694 C321 687 317 679 309 671 C303 663 295 659 286 659 C274 659 264 663 254 672 C244 680 234 689 223 699 C212 708 198 713 180 713 C164 713 148 709 135 702 C122 694 112 685 105 676 C97 666 92 655 85 643 C80 630 76 621 76 616 C75 612 74 608 73 604 L125 604 Z " />
<glyph glyph-name="Adieresis" unicode="&#xc4;" horiz-adv-x="312" d="M240 560 L160 560 L-47 0 L21 0 L67 126 L173 126 L173 0 L252 0 L240 560 Z M176 422 L182 186 L89 186 L176 422 Z M155 768 C132 768 109 751 105 725 C100 702 114 682 140 682 C162 682 186 700 191 725 C194 747 180 768 155 768 L155 768 Z M281 768 C258 768 235 750 231 725 C226 702 240 682 266 682 C289 682 312 699 317 725 C321 748 307 768 281 768 L281 768 Z " />
<glyph glyph-name="Aring" unicode="&#xc5;" horiz-adv-x="312" d="M240 560 L160 560 L-47 0 L21 0 L67 126 L173 126 L173 0 L252 0 L240 560 Z M176 422 L182 186 L89 186 L176 422 Z M167 724 C150 711 140 694 136 673 C133 653 137 637 148 623 C159 610 176 604 197 604 C218 604 237 610 253 623 C270 637 280 653 283 673 C287 694 283 711 272 724 C260 737 243 744 222 744 C201 744 182 737 167 724 L167 724 Z M203 640 C193 640 186 643 181 649 C176 655 173 663 175 673 C177 684 183 692 190 698 C197 705 206 708 216 708 C226 708 233 705 239 698 C244 692 245 684 243 673 C241 663 237 655 230 649 C222 643 213 640 203 640 L203 640 Z " />
<glyph glyph-name="AE" unicode="&#xc6;" horiz-adv-x="451" d="M461 485 L475 560 L210 560 L-41 0 L33 0 L89 125 L189 125 L166 0 L378 0 L391 73 L255 73 L288 255 L396 255 L408 324 L300 324 L329 485 L461 485 Z M117 186 L256 497 L200 186 L117 186 Z " />
<glyph glyph-name="Ccedilla" unicode="&#xc7;" horiz-adv-x="321" d="M190 122 C187 104 179 89 167 78 C156 68 142 62 127 62 C111 62 99 68 92 78 C84 89 83 104 86 122 L145 437 C148 455 155 470 167 481 C178 492 192 497 208 497 C223 497 235 492 242 481 C250 470 252 455 249 437 L235 364 L307 364 L321 441 C329 480 323 511 305 534 C286 557 258 568 222 568 C185 568 153 556 123 532 C94 507 76 476 69 437 L10 121 C3 82 9 51 28 27 C48 4 76 -8 112 -8 C148 -8 180 4 209 28 C237 51 255 82 262 121 L277 204 L205 204 L190 122 Z M76 0 L82 -5 C86 -9 90 -15 94 -24 C97 -33 97 -43 95 -54 C93 -70 85 -83 74 -92 C62 -101 49 -106 33 -106 C19 -106 10 -105 6 -102 L-3 -152 L1 -152 C4 -153 9 -154 15 -155 C20 -156 27 -156 33 -156 C63 -156 89 -148 111 -131 C134 -114 147 -91 152 -63 C154 -51 155 -40 153 -29 C151 -18 147 -10 143 -4 C139 2 134 8 129 13 C123 18 120 21 118 23 C115 24 113 25 112 25 L76 0 Z " />
<glyph glyph-name="Egrave" unicode="&#xc8;" horiz-adv-x="270" d="M200 0 L214 74 L78 74 L112 255 L220 255 L233 324 L125 324 L155 486 L286 486 L300 560 L92 560 L-12 0 L200 0 Z M195 738 L119 738 L155 606 L211 606 L195 738 Z " />
<glyph glyph-name="Eacute" unicode="&#xc9;" horiz-adv-x="270" d="M200 0 L214 74 L78 74 L112 255 L220 255 L233 324 L125 324 L155 486 L286 486 L300 560 L92 560 L-12 0 L200 0 Z M141 602 L197 602 L280 734 L204 734 L141 602 Z " />
<glyph glyph-name="Ecircumflex" unicode="&#xca;" horiz-adv-x="270" d="M200 0 L214 74 L78 74 L112 255 L220 255 L233 324 L125 324 L155 486 L286 486 L300 560 L92 560 L-12 0 L200 0 Z M108 599 L162 599 L222 676 L257 599 L315 599 L262 731 L206 731 L108 599 Z " />
<glyph glyph-name="Edieresis" unicode="&#xcb;" horiz-adv-x="270" d="M200 0 L214 74 L78 74 L112 255 L220 255 L233 324 L125 324 L155 486 L286 486 L300 560 L92 560 L-12 0 L200 0 Z M140 736 C117 736 94 719 90 693 C85 670 99 650 125 650 C147 650 171 668 176 693 C179 715 165 736 140 736 L140 736 Z M266 736 C243 736 220 718 216 693 C211 670 225 650 251 650 C274 650 297 667 302 693 C306 716 292 736 266 736 L266 736 Z " />
<glyph glyph-name="Igrave" unicode="&#xcc;" horiz-adv-x="159" d="M-11 0 L66 0 L169 560 L91 560 L-11 0 Z M147 734 L71 734 L107 602 L163 602 L147 734 Z " />
<glyph glyph-name="Iacute" unicode="&#xcd;" horiz-adv-x="158" d="M-11 0 L66 0 L169 560 L91 560 L-11 0 Z M92 608 L148 608 L231 740 L155 740 L92 608 Z " />
<glyph glyph-name="Icircumflex" unicode="&#xce;" horiz-adv-x="158" d="M-11 0 L66 0 L169 560 L91 560 L-11 0 Z M50 605 L104 605 L164 682 L199 605 L257 605 L204 737 L148 737 L50 605 Z " />
<glyph glyph-name="Idieresis" unicode="&#xcf;" horiz-adv-x="159" d="M-11 0 L66 0 L169 560 L91 560 L-11 0 Z M83 736 C60 736 37 719 33 693 C28 670 42 650 68 650 C90 650 114 668 119 693 C122 715 108 736 83 736 L83 736 Z M209 736 C186 736 163 718 159 693 C154 670 168 650 194 650 C217 650 240 667 245 693 C249 716 235 736 209 736 L209 736 Z " />
<glyph glyph-name="Eth" unicode="&#xd0;" horiz-adv-x="390" d="M37 0 L160 0 C201 0 237 12 266 36 C296 61 315 95 323 139 L377 423 C385 467 379 500 360 524 C340 548 309 560 267 560 L142 560 L95 307 L35 307 L25 258 L85 258 L37 0 Z M205 489 L249 489 C270 489 284 483 293 471 C302 459 304 441 299 417 L247 141 C243 118 234 100 220 88 C207 75 191 69 170 69 L126 69 L161 258 L229 258 L239 307 L171 307 L205 489 Z " />
<glyph glyph-name="Ntilde" unicode="&#xd1;" horiz-adv-x="348" d="M188 0 L255 0 L360 560 L293 560 L222 183 L164 560 L92 560 L-12 0 L54 0 L127 391 L188 0 Z M132 608 L137 620 C138 628 142 636 149 644 C155 652 164 656 173 656 C184 656 195 651 205 643 C214 634 224 625 236 616 C247 606 262 601 282 601 C297 601 312 605 325 613 C338 621 348 629 355 639 C363 649 369 660 374 672 C379 685 383 693 383 698 C385 703 386 707 387 710 L333 710 L329 698 C328 691 324 683 316 675 C310 667 302 663 293 663 C281 663 271 667 261 676 C251 684 241 693 230 703 C219 712 205 717 187 717 C171 717 155 713 142 706 C129 698 119 689 112 680 C104 670 99 659 92 647 C87 634 83 625 83 620 C82 616 81 612 80 608 L132 608 Z " />
<glyph glyph-name="Ograve" unicode="&#xd2;" horiz-adv-x="344" d="M11 125 C3 84 9 52 30 28 C49 4 78 -8 116 -8 C154 -8 188 4 218 29 C248 54 268 87 275 127 L332 435 C340 476 333 508 313 532 C293 556 264 568 226 568 C188 568 154 556 124 531 C95 506 75 473 68 433 L11 125 Z M144 433 C148 453 156 469 168 480 C180 491 195 497 212 497 C228 497 241 491 249 480 C258 469 260 453 256 433 L199 126 C195 107 187 91 174 80 C162 68 147 62 131 62 C114 62 101 68 93 80 C85 91 83 107 87 126 L144 433 Z M241 729 L165 729 L201 597 L257 597 L241 729 Z " />
<glyph glyph-name="Oacute" unicode="&#xd3;" horiz-adv-x="344" d="M11 125 C3 84 9 52 30 28 C49 4 78 -8 116 -8 C154 -8 188 4 218 29 C248 54 268 87 275 127 L332 435 C340 476 333 508 313 532 C293 556 264 568 226 568 C188 568 154 556 124 531 C95 506 75 473 68 433 L11 125 Z M144 433 C148 453 156 469 168 480 C180 491 195 497 212 497 C228 497 241 491 249 480 C258 469 260 453 256 433 L199 126 C195 107 187 91 174 80 C162 68 147 62 131 62 C114 62 101 68 93 80 C85 91 83 107 87 126 L144 433 Z M187 596 L243 596 L326 728 L250 728 L187 596 Z " />
<glyph glyph-name="Ocircumflex" unicode="&#xd4;" horiz-adv-x="344" d="M11 125 C3 84 9 52 30 28 C49 4 78 -8 116 -8 C154 -8 188 4 218 29 C248 54 268 87 275 127 L332 435 C340 476 333 508 313 532 C293 556 264 568 226 568 C188 568 154 556 124 531 C95 506 75 473 68 433 L11 125 Z M144 433 C148 453 156 469 168 480 C180 491 195 497 212 497 C228 497 241 491 249 480 C258 469 260 453 256 433 L199 126 C195 107 187 91 174 80 C162 68 147 62 131 62 C114 62 101 68 93 80 C85 91 83 107 87 126 L144 433 Z M145 597 L199 597 L259 674 L294 597 L352 597 L299 729 L243 729 L145 597 Z " />
<glyph glyph-name="Otilde" unicode="&#xd5;" horiz-adv-x="344" d="M11 125 C3 84 9 52 30 28 C49 4 78 -8 116 -8 C154 -8 188 4 218 29 C248 54 268 87 275 127 L332 435 C340 476 333 508 313 532 C293 556 264 568 226 568 C188 568 154 556 124 531 C95 506 75 473 68 433 L11 125 Z M144 433 C148 453 156 469 168 480 C180 491 195 497 212 497 C228 497 241 491 249 480 C258 469 260 453 256 433 L199 126 C195 107 187 91 174 80 C162 68 147 62 131 62 C114 62 101 68 93 80 C85 91 83 107 87 126 L144 433 Z M148 612 L153 624 C154 632 158 640 165 648 C171 656 180 660 189 660 C200 660 211 655 221 647 C230 638 240 629 252 620 C263 610 278 605 298 605 C313 605 328 609 341 617 C354 625 364 633 371 643 C379 653 385 664 390 676 C395 689 399 697 399 702 C401 707 402 711 403 714 L349 714 L345 702 C344 695 340 687 332 679 C326 671 318 667 309 667 C297 667 287 671 277 680 C267 688 257 697 246 707 C235 716 221 721 203 721 C187 721 171 717 158 710 C145 702 135 693 128 684 C120 674 115 663 108 651 C103 638 99 629 99 624 C98 620 97 616 96 612 L148 612 Z " />
<glyph glyph-name="Odieresis" unicode="&#xd6;" horiz-adv-x="344" d="M11 125 C3 84 9 52 30 28 C49 4 78 -8 116 -8 C154 -8 188 4 218 29 C248 54 268 87 275 127 L332 435 C340 476 333 508 313 532 C293 556 264 568 226 568 C188 568 154 556 124 531 C95 506 75 473 68 433 L11 125 Z M144 433 C148 453 156 469 168 480 C180 491 195 497 212 497 C228 497 241 491 249 480 C258 469 260 453 256 433 L199 126 C195 107 187 91 174 80 C162 68 147 62 131 62 C114 62 101 68 93 80 C85 91 83 107 87 126 L144 433 Z M180 734 C157 734 134 717 130 691 C125 668 139 648 165 648 C187 648 211 666 216 691 C219 713 205 734 180 734 L180 734 Z M306 734 C283 734 260 716 256 691 C251 668 265 648 291 648 C314 648 337 665 342 691 C346 714 332 734 306 734 L306 734 Z " />
<glyph glyph-name="multiply" unicode="&#xd7;" horiz-adv-x="280" d="M209 149 L257 190 L180 281 L288 373 L254 415 L147 323 L70 415 L22 373 L98 281 L-8 190 L25 149 L132 240 L209 149 L209 149 Z " />
<glyph glyph-name="Oslash" unicode="&#xd8;" horiz-adv-x="344" d="M368 584 L328 584 L303 541 C283 559 258 568 227 568 C189 568 155 555 124 530 C95 506 75 473 68 432 L11 125 C5 95 7 69 16 48 L-24 -24 L15 -24 L39 17 C58 0 85 -8 117 -8 C155 -8 189 4 219 29 C248 54 267 86 275 127 L332 435 C338 463 335 488 325 511 L368 584 Z M144 433 C148 453 156 469 169 480 C181 491 196 496 212 496 C238 496 253 485 256 461 L98 188 L144 433 Z M131 62 C105 62 90 74 86 98 L244 371 L199 126 C195 106 187 91 175 79 C163 68 148 62 131 62 L131 62 Z " />
<glyph glyph-name="Ugrave" unicode="&#xd9;" horiz-adv-x="336" d="M272 560 L191 122 C188 104 181 89 169 78 C157 68 144 62 128 62 C112 62 101 68 94 78 C86 89 85 104 88 122 L169 560 L92 560 L11 121 C3 82 10 51 29 27 C49 4 77 -8 113 -8 C150 -8 183 4 211 28 C241 53 260 84 267 123 L348 560 L272 560 Z M234 740 L158 740 L194 608 L250 608 L234 740 Z " />
<glyph glyph-name="Uacute" unicode="&#xda;" horiz-adv-x="336" d="M272 560 L191 122 C188 104 181 89 169 78 C157 68 144 62 128 62 C112 62 101 68 94 78 C86 89 85 104 88 122 L169 560 L92 560 L11 121 C3 82 10 51 29 27 C49 4 77 -8 113 -8 C150 -8 183 4 211 28 C241 53 260 84 267 123 L348 560 L272 560 Z M181 606 L237 606 L320 738 L244 738 L181 606 Z " />
<glyph glyph-name="Ucircumflex" unicode="&#xdb;" horiz-adv-x="336" d="M272 560 L191 122 C188 104 181 89 169 78 C157 68 144 62 128 62 C112 62 101 68 94 78 C86 89 85 104 88 122 L169 560 L92 560 L11 121 C3 82 10 51 29 27 C49 4 77 -8 113 -8 C150 -8 183 4 211 28 C241 53 260 84 267 123 L348 560 L272 560 Z M139 609 L193 609 L253 686 L288 609 L346 609 L293 741 L237 741 L139 609 Z " />
<glyph glyph-name="Udieresis" unicode="&#xdc;" horiz-adv-x="336" d="M272 560 L191 122 C188 104 181 89 169 78 C157 68 144 62 128 62 C112 62 101 68 94 78 C86 89 85 104 88 122 L169 560 L92 560 L11 121 C3 82 10 51 29 27 C49 4 77 -8 113 -8 C150 -8 183 4 211 28 C241 53 260 84 267 123 L348 560 L272 560 Z M174 738 C151 738 128 721 124 695 C119 672 133 652 159 652 C181 652 205 670 210 695 C213 717 199 738 174 738 L174 738 Z M300 738 C277 738 254 720 250 695 C245 672 259 652 285 652 C308 652 331 669 336 695 C340 718 326 738 300 738 L300 738 Z " />
<glyph glyph-name="Yacute" unicode="&#xdd;" horiz-adv-x="297" d="M55 0 L131 0 L173 216 L345 560 L268 560 L157 314 L142 560 L61 560 L97 217 L55 0 Z M159 601 L215 601 L298 733 L222 733 L159 601 Z " />
<glyph glyph-name="Thorn" unicode="&#xde;" horiz-adv-x="340" d="M-12 0 L63 0 L86 124 L128 124 C171 124 208 136 238 161 C269 186 288 221 297 267 L307 321 C316 366 310 402 290 426 C270 450 238 462 195 462 L150 462 L168 560 L92 560 L-12 0 Z M137 394 L181 394 C201 394 216 387 224 375 C233 363 236 345 231 322 L220 264 C216 240 207 223 193 210 C180 198 163 192 143 192 L99 192 L137 394 Z " />
<glyph glyph-name="germandbls" unicode="&#xdf;" horiz-adv-x="335" d="M105 -8 L134 -8 C168 -8 199 4 228 27 C256 51 274 82 281 121 L302 231 C308 262 306 287 295 309 C284 330 267 345 244 353 L333 484 L332 493 C331 498 327 506 323 514 C318 522 312 530 305 538 C298 546 287 553 272 559 C257 565 241 568 223 568 C186 568 153 555 124 531 C94 507 76 475 69 437 L-12 0 L62 0 L144 435 C147 454 155 469 167 480 C179 491 194 496 209 496 C234 496 250 486 255 464 L176 348 L167 297 L183 297 C199 297 212 291 220 280 C228 268 230 253 226 232 L206 126 C203 106 195 91 182 79 C169 68 154 62 138 62 C129 62 118 62 118 62 L105 -8 L105 -8 Z " />
<glyph glyph-name="agrave" unicode="&#xe0;" horiz-adv-x="313" d="M6 109 C0 73 4 45 19 24 C34 3 56 -8 86 -8 C123 -8 168 18 183 77 L169 0 L234 0 L291 301 C297 336 292 364 274 386 C255 407 230 418 196 418 C164 418 134 407 107 384 C81 362 64 333 57 298 L54 282 L124 282 L128 302 C131 319 138 332 148 341 C158 350 170 355 184 355 C197 355 207 350 213 341 C221 332 222 319 219 302 L202 212 C189 234 167 246 136 246 C106 246 80 235 56 213 C32 191 16 162 10 126 L6 109 Z M82 130 C86 148 94 163 106 174 C117 185 131 190 146 190 C162 190 173 185 181 174 C188 163 190 148 186 130 L183 110 C179 92 171 78 160 67 C148 56 135 50 119 50 C104 50 92 56 85 67 C77 78 75 92 79 110 L82 130 Z M222 560 L146 560 L182 428 L238 428 L222 560 Z " />
<glyph glyph-name="aacute" unicode="&#xe1;" horiz-adv-x="313" d="M6 109 C0 73 4 45 19 24 C34 3 56 -8 86 -8 C123 -8 168 18 183 77 L169 0 L234 0 L291 301 C297 336 292 364 274 386 C255 407 230 418 196 418 C164 418 134 407 107 384 C81 362 64 333 57 298 L54 282 L124 282 L128 302 C131 319 138 332 148 341 C158 350 170 355 184 355 C197 355 207 350 213 341 C221 332 222 319 219 302 L202 212 C189 234 167 246 136 246 C106 246 80 235 56 213 C32 191 16 162 10 126 L6 109 Z M82 130 C86 148 94 163 106 174 C117 185 131 190 146 190 C162 190 173 185 181 174 C188 163 190 148 186 130 L183 110 C179 92 171 78 160 67 C148 56 135 50 119 50 C104 50 92 56 85 67 C77 78 75 92 79 110 L82 130 Z M171 436 L227 436 L310 568 L234 568 L171 436 Z " />
<glyph glyph-name="acircumflex" unicode="&#xe2;" horiz-adv-x="313" d="M6 109 C0 73 4 45 19 24 C34 3 56 -8 86 -8 C123 -8 168 18 183 77 L169 0 L234 0 L291 301 C297 336 292 364 274 386 C255 407 230 418 196 418 C164 418 134 407 107 384 C81 362 64 333 57 298 L54 282 L124 282 L128 302 C131 319 138 332 148 341 C158 350 170 355 184 355 C197 355 207 350 213 341 C221 332 222 319 219 302 L202 212 C189 234 167 246 136 246 C106 246 80 235 56 213 C32 191 16 162 10 126 L6 109 Z M82 130 C86 148 94 163 106 174 C117 185 131 190 146 190 C162 190 173 185 181 174 C188 163 190 148 186 130 L183 110 C179 92 171 78 160 67 C148 56 135 50 119 50 C104 50 92 56 85 67 C77 78 75 92 79 110 L82 130 Z M126 428 L180 428 L240 505 L275 428 L333 428 L280 560 L224 560 L126 428 Z " />
<glyph glyph-name="atilde" unicode="&#xe3;" horiz-adv-x="313" d="M6 109 C0 73 4 45 19 24 C34 3 56 -8 86 -8 C123 -8 168 18 183 77 L169 0 L234 0 L291 301 C297 336 292 364 274 386 C255 407 230 418 196 418 C164 418 134 407 107 384 C81 362 64 333 57 298 L54 282 L124 282 L128 302 C131 319 138 332 148 341 C158 350 170 355 184 355 C197 355 207 350 213 341 C221 332 222 319 219 302 L202 212 C189 234 167 246 136 246 C106 246 80 235 56 213 C32 191 16 162 10 126 L6 109 Z M82 130 C86 148 94 163 106 174 C117 185 131 190 146 190 C162 190 173 185 181 174 C188 163 190 148 186 130 L183 110 C179 92 171 78 160 67 C148 56 135 50 119 50 C104 50 92 56 85 67 C77 78 75 92 79 110 L82 130 Z M131 459 L136 471 C137 479 141 487 148 495 C154 503 163 507 172 507 C183 507 194 502 204 494 C213 485 223 476 235 467 C246 457 261 452 281 452 C296 452 311 456 324 464 C337 472 347 480 354 490 C362 500 368 511 373 523 C378 536 382 544 382 549 C384 554 385 558 386 561 L332 561 L328 549 C327 542 323 534 315 526 C309 518 301 514 292 514 C280 514 270 518 260 527 C250 535 240 544 229 554 C218 563 204 568 186 568 C170 568 154 564 141 557 C128 549 118 540 111 531 C103 521 98 510 91 498 C86 485 82 476 82 471 C81 467 80 463 79 459 L131 459 Z " />
<glyph glyph-name="adieresis" unicode="&#xe4;" horiz-adv-x="313" d="M6 109 C0 73 4 45 19 24 C34 3 56 -8 86 -8 C123 -8 168 18 183 77 L169 0 L234 0 L291 301 C297 336 292 364 274 386 C255 407 230 418 196 418 C164 418 134 407 107 384 C81 362 64 333 57 298 L54 282 L124 282 L128 302 C131 319 138 332 148 341 C158 350 170 355 184 355 C197 355 207 350 213 341 C221 332 222 319 219 302 L202 212 C189 234 167 246 136 246 C106 246 80 235 56 213 C32 191 16 162 10 126 L6 109 Z M82 130 C86 148 94 163 106 174 C117 185 131 190 146 190 C162 190 173 185 181 174 C188 163 190 148 186 130 L183 110 C179 92 171 78 160 67 C148 56 135 50 119 50 C104 50 92 56 85 67 C77 78 75 92 79 110 L82 130 Z M159 568 C136 568 113 551 109 525 C104 502 118 482 144 482 C166 482 190 500 195 525 C198 547 184 568 159 568 L159 568 Z M285 568 C262 568 239 550 235 525 C230 502 244 482 270 482 C293 482 316 499 321 525 C325 548 311 568 285 568 L285 568 Z " />
<glyph glyph-name="aring" unicode="&#xe5;" horiz-adv-x="313" d="M6 109 C0 73 4 45 19 24 C34 3 56 -8 86 -8 C123 -8 168 18 183 77 L169 0 L234 0 L291 301 C297 336 292 364 274 386 C255 407 230 418 196 418 C164 418 134 407 107 384 C81 362 64 333 57 298 L54 282 L124 282 L128 302 C131 319 138 332 148 341 C158 350 170 355 184 355 C197 355 207 350 213 341 C221 332 222 319 219 302 L202 212 C189 234 167 246 136 246 C106 246 80 235 56 213 C32 191 16 162 10 126 L6 109 Z M82 130 C86 148 94 163 106 174 C117 185 131 190 146 190 C162 190 173 185 181 174 C188 163 190 148 186 130 L183 110 C179 92 171 78 160 67 C148 56 135 50 119 50 C104 50 92 56 85 67 C77 78 75 92 79 110 L82 130 Z M171 524 C154 511 144 494 140 473 C137 453 141 437 152 423 C163 410 180 404 201 404 C222 404 241 410 257 423 C274 437 284 453 287 473 C291 494 287 511 276 524 C264 537 247 544 226 544 C205 544 186 537 171 524 L171 524 Z M207 440 C197 440 190 443 185 449 C180 455 177 463 179 473 C181 484 187 492 194 498 C201 505 210 508 220 508 C230 508 237 505 243 498 C248 492 249 484 247 473 C245 463 241 455 234 449 C226 443 217 440 207 440 L207 440 Z " />
<glyph glyph-name="ae" unicode="&#xe6;" horiz-adv-x="479" d="M6 108 C0 73 5 44 20 23 C36 2 59 -8 91 -8 C137 -8 172 9 197 43 C210 9 237 -8 279 -8 C313 -8 343 3 371 26 C398 48 415 77 421 113 L426 140 L359 140 L355 115 C352 98 344 84 333 74 C322 63 309 58 294 58 C280 58 269 63 262 73 C254 83 252 97 256 115 L272 200 L438 200 L456 298 C462 334 457 363 439 385 C420 407 394 418 361 418 C325 418 296 404 269 377 C256 404 231 418 195 418 C163 418 133 407 107 384 C80 361 63 333 57 298 L54 282 L124 282 L128 302 C131 319 137 332 147 341 C157 350 169 355 182 355 C196 355 206 350 213 341 C220 332 222 319 219 302 L202 212 C188 234 166 245 136 245 C106 245 79 234 55 212 C32 191 17 162 10 126 L6 108 Z M83 130 C86 148 94 163 105 174 C117 185 130 190 146 190 C161 190 173 185 180 174 C188 163 190 148 187 130 L183 110 C179 92 172 77 160 67 C149 56 135 50 120 50 C104 50 93 56 85 67 C78 77 75 92 79 110 L83 130 Z M291 302 C294 320 300 334 311 344 C323 354 336 359 350 359 C365 359 376 354 383 344 C390 334 393 320 390 302 L380 249 L281 249 L291 302 Z " />
<glyph glyph-name="ccedilla" unicode="&#xe7;" horiz-adv-x="314" d="M197 164 L187 112 C184 96 178 83 167 73 C156 63 144 58 131 58 C117 58 107 63 100 73 C94 83 91 96 94 112 L129 298 C132 314 139 327 149 337 C160 346 172 351 186 351 C199 351 209 346 216 337 C223 327 225 314 222 298 L213 250 L282 250 L291 300 C298 335 292 364 274 386 C256 407 231 418 199 418 C166 418 135 407 108 384 C81 362 63 333 57 298 L22 110 C15 75 22 47 40 25 C58 3 84 -8 117 -8 C150 -8 179 3 206 26 C233 49 250 78 256 113 L266 164 L197 164 Z M110 0 L116 -5 C120 -9 124 -15 128 -24 C131 -33 131 -43 129 -54 C127 -70 119 -83 108 -92 C96 -101 83 -106 67 -106 C53 -106 44 -105 40 -102 L31 -152 L35 -152 C38 -153 43 -154 49 -155 C54 -156 61 -156 67 -156 C97 -156 123 -148 145 -131 C168 -114 181 -91 186 -63 C188 -51 189 -40 187 -29 C185 -18 181 -10 177 -4 C173 2 168 8 163 13 C157 18 154 21 152 23 C149 24 147 25 146 25 L110 0 Z " />
<glyph glyph-name="egrave" unicode="&#xe8;" horiz-adv-x="315" d="M194 115 C191 98 184 84 173 74 C162 64 149 58 135 58 C120 58 110 64 102 74 C94 84 92 98 95 115 L111 200 L278 200 L296 298 C302 334 295 363 277 385 C259 407 233 418 199 418 C165 418 135 407 108 384 C80 361 63 332 56 296 L22 111 C16 75 23 47 41 25 C60 3 86 -8 120 -8 C153 -8 184 3 211 26 C238 49 255 78 262 114 L267 140 L199 140 L194 115 Z M129 299 C132 317 140 331 150 341 C162 351 174 356 189 356 C203 356 214 351 221 340 C229 330 231 316 228 299 L219 251 L120 251 L129 299 Z M225 560 L149 560 L185 428 L241 428 L225 560 Z " />
<glyph glyph-name="eacute" unicode="&#xe9;" horiz-adv-x="319" d="M194 115 C191 98 184 84 173 74 C162 64 149 58 135 58 C120 58 110 64 102 74 C94 84 92 98 95 115 L111 200 L278 200 L296 298 C302 334 295 363 277 385 C259 407 233 418 199 418 C165 418 135 407 108 384 C80 361 63 332 56 296 L22 111 C16 75 23 47 41 25 C60 3 86 -8 120 -8 C153 -8 184 3 211 26 C238 49 255 78 262 114 L267 140 L199 140 L194 115 Z M129 299 C132 317 140 331 150 341 C162 351 174 356 189 356 C203 356 214 351 221 340 C229 330 231 316 228 299 L219 251 L120 251 L129 299 Z M174 436 L230 436 L313 568 L237 568 L174 436 Z " />
<glyph glyph-name="ecircumflex" unicode="&#xea;" horiz-adv-x="319" d="M194 115 C191 98 184 84 173 74 C162 64 149 58 135 58 C120 58 110 64 102 74 C94 84 92 98 95 115 L111 200 L278 200 L296 298 C302 334 295 363 277 385 C259 407 233 418 199 418 C165 418 135 407 108 384 C80 361 63 332 56 296 L22 111 C16 75 23 47 41 25 C60 3 86 -8 120 -8 C153 -8 184 3 211 26 C238 49 255 78 262 114 L267 140 L199 140 L194 115 Z M129 299 C132 317 140 331 150 341 C162 351 174 356 189 356 C203 356 214 351 221 340 C229 330 231 316 228 299 L219 251 L120 251 L129 299 Z M129 428 L183 428 L243 505 L278 428 L336 428 L283 560 L227 560 L129 428 Z " />
<glyph glyph-name="edieresis" unicode="&#xeb;" horiz-adv-x="319" d="M194 115 C191 98 184 84 173 74 C162 64 149 58 135 58 C120 58 110 64 102 74 C94 84 92 98 95 115 L111 200 L278 200 L296 298 C302 334 295 363 277 385 C259 407 233 418 199 418 C165 418 135 407 108 384 C80 361 63 332 56 296 L22 111 C16 75 23 47 41 25 C60 3 86 -8 120 -8 C153 -8 184 3 211 26 C238 49 255 78 262 114 L267 140 L199 140 L194 115 Z M129 299 C132 317 140 331 150 341 C162 351 174 356 189 356 C203 356 214 351 221 340 C229 330 231 316 228 299 L219 251 L120 251 L129 299 Z M165 541 C142 541 119 524 115 498 C110 475 124 455 150 455 C172 455 196 473 201 498 C204 520 190 541 165 541 L165 541 Z M291 541 C268 541 245 523 241 498 C236 475 250 455 276 455 C299 455 322 472 327 498 C331 521 317 541 291 541 L291 541 Z " />
<glyph glyph-name="igrave" unicode="&#xec;" horiz-adv-x="153" d="M74 0 L151 410 L78 410 L1 0 L74 0 Z M144 568 L68 568 L104 436 L160 436 L144 568 Z " />
<glyph glyph-name="iacute" unicode="&#xed;" horiz-adv-x="153" d="M73 0 L152 410 L79 410 L0 0 L73 0 Z M85 435 L141 435 L224 567 L148 567 L85 435 Z " />
<glyph glyph-name="icircumflex" unicode="&#xee;" horiz-adv-x="153" d="M73 0 L152 410 L79 410 L0 0 L73 0 Z M21 429 L75 429 L135 506 L170 429 L228 429 L175 561 L119 561 L21 429 Z " />
<glyph glyph-name="idieresis" unicode="&#xef;" horiz-adv-x="153" d="M73 0 L152 410 L79 410 L0 0 L73 0 Z M86 543 C63 543 40 526 36 500 C31 477 45 457 71 457 C93 457 117 475 122 500 C125 522 111 543 86 543 L86 543 Z M212 543 C189 543 166 525 162 500 C157 477 171 457 197 457 C220 457 243 474 248 500 C252 523 238 543 212 543 L212 543 Z " />
<glyph glyph-name="eth" unicode="&#xf0;" horiz-adv-x="310" d="M268 342 L240 462 L301 514 L263 560 L225 528 L218 560 L144 560 L164 477 L102 425 L140 378 L180 412 L202 321 C194 351 171 360 154 360 C120 360 91 349 67 327 C43 305 27 275 20 237 L0 121 C-7 83 -1 52 18 28 C38 4 67 -8 103 -8 C139 -8 170 4 198 27 C226 50 244 81 251 119 L269 213 C277 259 276 302 268 342 L268 342 Z M179 123 C176 104 168 89 156 78 C144 67 130 62 114 62 C98 62 86 67 78 78 C71 89 69 104 72 123 L93 235 C96 254 104 269 115 280 C127 291 141 296 157 296 C173 296 185 291 193 280 C201 269 203 254 200 235 L179 123 L179 123 Z " />
<glyph glyph-name="ntilde" unicode="&#xf1;" horiz-adv-x="320" d="M128 296 C131 314 139 327 150 337 C160 346 173 351 188 351 C202 351 212 346 220 337 C226 327 227 314 224 296 L168 0 L240 0 L298 308 C305 343 302 370 289 389 C275 409 255 418 227 418 C189 418 144 391 126 323 L142 410 L77 410 L0 0 L72 0 L128 296 Z M120 459 L125 471 C126 479 130 487 137 495 C143 503 152 507 161 507 C172 507 183 502 193 494 C202 485 212 476 224 467 C235 457 250 452 270 452 C285 452 300 456 313 464 C326 472 336 480 343 490 C351 500 357 511 362 523 C367 536 371 544 371 549 C373 554 374 558 375 561 L321 561 L317 549 C316 542 312 534 304 526 C298 518 290 514 281 514 C269 514 259 518 249 527 C239 535 229 544 218 554 C207 563 193 568 175 568 C159 568 143 564 130 557 C117 549 107 540 100 531 C92 521 87 510 80 498 C75 485 71 476 71 471 C70 467 69 463 68 459 L120 459 Z " />
<glyph glyph-name="ograve" unicode="&#xf2;" horiz-adv-x="323" d="M23 114 C16 77 22 48 41 26 C60 3 87 -8 121 -8 C155 -8 186 4 214 27 C243 50 260 80 266 116 L299 297 C306 333 300 362 280 385 C261 407 235 418 200 418 C166 418 135 407 108 384 C79 360 62 331 56 294 L23 114 Z M128 294 C131 312 137 326 149 336 C160 346 173 351 188 351 C202 351 213 346 220 336 C228 326 230 312 227 294 L194 115 C191 98 185 84 173 74 C162 64 149 58 135 58 C120 58 109 64 102 74 C95 84 92 98 95 115 L128 294 Z M230 584 L154 584 L190 452 L246 452 L230 584 Z " />
<glyph glyph-name="oacute" unicode="&#xf3;" horiz-adv-x="323" d="M23 114 C16 77 22 48 41 26 C60 3 87 -8 121 -8 C155 -8 186 4 214 27 C243 50 260 80 266 116 L299 297 C306 333 300 362 280 385 C261 407 235 418 200 418 C166 418 135 407 108 384 C79 360 62 331 56 294 L23 114 Z M128 294 C131 312 137 326 149 336 C160 346 173 351 188 351 C202 351 213 346 220 336 C228 326 230 312 227 294 L194 115 C191 98 185 84 173 74 C162 64 149 58 135 58 C120 58 109 64 102 74 C95 84 92 98 95 115 L128 294 Z M169 454 L225 454 L308 586 L232 586 L169 454 Z " />
<glyph glyph-name="ocircumflex" unicode="&#xf4;" horiz-adv-x="323" d="M23 114 C16 77 22 48 41 26 C60 3 87 -8 121 -8 C155 -8 186 4 214 27 C243 50 260 80 266 116 L299 297 C306 333 300 362 280 385 C261 407 235 418 200 418 C166 418 135 407 108 384 C79 360 62 331 56 294 L23 114 Z M128 294 C131 312 137 326 149 336 C160 346 173 351 188 351 C202 351 213 346 220 336 C228 326 230 312 227 294 L194 115 C191 98 185 84 173 74 C162 64 149 58 135 58 C120 58 109 64 102 74 C95 84 92 98 95 115 L128 294 Z M134 442 L188 442 L248 519 L283 442 L341 442 L288 574 L232 574 L134 442 Z " />
<glyph glyph-name="otilde" unicode="&#xf5;" horiz-adv-x="323" d="M23 114 C16 77 22 48 41 26 C60 3 87 -8 121 -8 C155 -8 186 4 214 27 C243 50 260 80 266 116 L299 297 C306 333 300 362 280 385 C261 407 235 418 200 418 C166 418 135 407 108 384 C79 360 62 331 56 294 L23 114 Z M128 294 C131 312 137 326 149 336 C160 346 173 351 188 351 C202 351 213 346 220 336 C228 326 230 312 227 294 L194 115 C191 98 185 84 173 74 C162 64 149 58 135 58 C120 58 109 64 102 74 C95 84 92 98 95 115 L128 294 Z M137 459 L142 471 C143 479 147 487 154 495 C160 503 169 507 178 507 C189 507 200 502 210 494 C219 485 229 476 241 467 C252 457 267 452 287 452 C302 452 317 456 330 464 C343 472 353 480 360 490 C368 500 374 511 379 523 C384 536 388 544 388 549 C390 554 391 558 392 561 L338 561 L334 549 C333 542 329 534 321 526 C315 518 307 514 298 514 C286 514 276 518 266 527 C256 535 246 544 235 554 C224 563 210 568 192 568 C176 568 160 564 147 557 C134 549 124 540 117 531 C109 521 104 510 97 498 C92 485 88 476 88 471 C87 467 86 463 85 459 L137 459 Z " />
<glyph glyph-name="odieresis" unicode="&#xf6;" horiz-adv-x="323" d="M23 114 C16 77 22 48 41 26 C60 3 87 -8 121 -8 C155 -8 186 4 214 27 C243 50 260 80 266 116 L299 297 C306 333 300 362 280 385 C261 407 235 418 200 418 C166 418 135 407 108 384 C79 360 62 331 56 294 L23 114 Z M128 294 C131 312 137 326 149 336 C160 346 173 351 188 351 C202 351 213 346 220 336 C228 326 230 312 227 294 L194 115 C191 98 185 84 173 74 C162 64 149 58 135 58 C120 58 109 64 102 74 C95 84 92 98 95 115 L128 294 Z M167 568 C144 568 121 551 117 525 C112 502 126 482 152 482 C174 482 198 500 203 525 C206 547 192 568 167 568 L167 568 Z M293 568 C270 568 247 550 243 525 C238 502 252 482 278 482 C301 482 324 499 329 525 C333 548 319 568 293 568 L293 568 Z " />
<glyph glyph-name="divide" unicode="&#xf7;" horiz-adv-x="352" d="M306 252 L318 315 L46 315 L34 252 L306 252 Z M211 471 C189 471 163 451 159 427 C155 405 170 383 194 383 C216 383 243 402 248 427 C252 449 235 471 211 471 L211 471 Z M157 184 C135 184 109 164 104 140 C100 118 116 96 140 96 C162 96 189 115 193 140 C198 162 182 184 157 184 L157 184 Z " />
<glyph glyph-name="oslash" unicode="&#xf8;" horiz-adv-x="323" d="M337 434 L294 434 L269 396 C251 411 228 418 201 418 C167 418 136 406 108 383 C80 360 63 331 56 294 L23 114 C17 86 20 62 30 42 L-14 -24 L28 -24 L53 14 C72 -1 94 -8 120 -8 C154 -8 185 3 213 26 C242 50 259 79 266 116 L299 296 C304 323 302 347 292 367 L337 434 Z M125 295 C129 313 136 327 148 338 C160 348 174 353 189 353 C206 353 219 346 226 333 L97 142 L125 295 Z M134 57 C115 57 102 63 96 77 L224 266 L196 116 C192 97 185 83 173 72 C162 62 149 57 134 57 L134 57 Z " />
<glyph glyph-name="ugrave" unicode="&#xf9;" horiz-adv-x="320" d="M191 114 C188 97 181 83 169 74 C159 64 146 59 132 59 C117 59 107 64 100 74 C93 83 92 97 95 114 L151 410 L79 410 L21 102 C14 68 18 41 30 21 C44 2 64 -8 92 -8 C130 -8 175 19 193 88 L177 0 L242 0 L319 410 L247 410 L191 114 Z M228 581 L152 581 L188 449 L244 449 L228 581 Z " />
<glyph glyph-name="uacute" unicode="&#xfa;" horiz-adv-x="320" d="M191 114 C188 97 181 83 169 74 C159 64 146 59 132 59 C117 59 107 64 100 74 C93 83 92 97 95 114 L151 410 L79 410 L21 102 C14 68 18 41 30 21 C44 2 64 -8 92 -8 C130 -8 175 19 193 88 L177 0 L242 0 L319 410 L247 410 L191 114 Z M166 447 L222 447 L305 579 L229 579 L166 447 Z " />
<glyph glyph-name="ucircumflex" unicode="&#xfb;" horiz-adv-x="320" d="M191 114 C188 97 181 83 169 74 C159 64 146 59 132 59 C117 59 107 64 100 74 C93 83 92 97 95 114 L151 410 L79 410 L21 102 C14 68 18 41 30 21 C44 2 64 -8 92 -8 C130 -8 175 19 193 88 L177 0 L242 0 L319 410 L247 410 L191 114 Z M133 437 L187 437 L247 514 L282 437 L340 437 L287 569 L231 569 L133 437 Z " />
<glyph glyph-name="udieresis" unicode="&#xfc;" horiz-adv-x="320" d="M191 114 C188 97 181 83 169 74 C159 64 146 59 132 59 C117 59 107 64 100 74 C93 83 92 97 95 114 L151 410 L79 410 L21 102 C14 68 18 41 30 21 C44 2 64 -8 92 -8 C130 -8 175 19 193 88 L177 0 L242 0 L319 410 L247 410 L191 114 Z M171 562 C148 562 125 545 121 519 C116 496 130 476 156 476 C178 476 202 494 207 519 C210 541 196 562 171 562 L171 562 Z M297 562 C274 562 251 544 247 519 C242 496 256 476 282 476 C305 476 328 493 333 519 C337 542 323 562 297 562 L297 562 Z " />
<glyph glyph-name="yacute" unicode="&#xfd;" horiz-adv-x="286" d="M85 0 C73 -29 61 -48 51 -59 C40 -70 27 -75 11 -75 C3 -75 -8 -75 -8 -75 L-19 -136 C-19 -136 6 -136 14 -136 C39 -136 63 -126 84 -108 C106 -89 127 -56 146 -11 L323 410 L252 410 L141 107 L142 410 L67 410 L85 0 Z M153 450 L209 450 L292 582 L216 582 L153 450 Z " />
<glyph glyph-name="thorn" unicode="&#xfe;" horiz-adv-x="323" d="M-23 -67 L48 -67 L82 118 C79 73 110 53 139 53 C169 53 195 63 218 84 C240 104 256 132 262 166 L300 369 C306 402 302 429 286 449 C271 469 250 479 221 479 C190 479 151 456 136 407 L175 621 L103 621 L-23 -67 Z M192 176 C189 159 181 145 170 135 C159 124 146 119 131 119 C117 119 106 124 99 135 C91 145 89 158 93 176 L126 355 C129 373 136 387 147 397 C158 407 171 412 186 412 C201 412 212 407 219 397 C226 387 228 373 225 355 L192 176 Z " />
<glyph glyph-name="ydieresis" unicode="&#xff;" horiz-adv-x="286" d="M85 0 C73 -29 61 -48 51 -59 C40 -70 27 -75 11 -75 C3 -75 -8 -75 -8 -75 L-19 -136 C-19 -136 6 -136 14 -136 C39 -136 63 -126 84 -108 C106 -89 127 -56 146 -11 L323 410 L252 410 L141 107 L142 410 L67 410 L85 0 Z M152 568 C129 568 106 551 102 525 C97 502 111 482 137 482 C159 482 183 500 188 525 C191 547 177 568 152 568 L152 568 Z M278 568 C255 568 232 550 228 525 C223 502 237 482 263 482 C286 482 309 499 314 525 C318 548 304 568 278 568 L278 568 Z " />
<glyph glyph-name="Abreve" unicode="&#x102;" horiz-adv-x="300" d="M239 560 L159 560 L-48 0 L20 0 L66 126 L172 126 L172 0 L251 0 L239 560 Z M175 422 L181 186 L88 186 L175 422 Z M105 735 L97 695 C92 667 97 645 111 628 C125 611 145 603 173 603 C200 603 225 611 245 629 C265 646 279 669 284 697 L291 735 L239 735 L231 695 C229 681 224 670 215 661 C205 652 195 648 182 648 C169 648 158 652 153 661 C149 670 147 681 149 695 L157 735 L105 735 Z " />
<glyph glyph-name="abreve" unicode="&#x103;" horiz-adv-x="313" d="M6 109 C0 73 4 45 19 24 C34 3 56 -8 86 -8 C123 -8 168 18 183 77 L169 0 L234 0 L291 301 C297 336 292 364 274 386 C255 407 230 418 196 418 C164 418 134 407 107 384 C81 362 64 333 57 298 L54 282 L124 282 L128 302 C131 319 138 332 148 341 C158 350 170 355 184 355 C197 355 207 350 213 341 C221 332 222 319 219 302 L202 212 C189 234 167 246 136 246 C106 246 80 235 56 213 C32 191 16 162 10 126 L6 109 Z M82 130 C86 148 94 163 106 174 C117 185 131 190 146 190 C162 190 173 185 181 174 C188 163 190 148 186 130 L183 110 C179 92 171 78 160 67 C148 56 135 50 119 50 C104 50 92 56 85 67 C77 78 75 92 79 110 L82 130 Z M107 572 L99 532 C94 504 99 482 113 465 C127 448 147 440 175 440 C202 440 227 448 247 466 C267 483 281 506 286 534 L293 572 L241 572 L233 532 C231 518 226 507 217 498 C207 489 197 485 184 485 C171 485 160 489 155 498 C151 507 149 518 151 532 L159 572 L107 572 Z " />
<glyph glyph-name="Aogonek" unicode="&#x104;" horiz-adv-x="323" d="M250 560 L170 560 L-37 0 L31 0 L77 126 L183 126 L183 0 L262 0 L250 560 Z M186 422 L192 186 L99 186 L186 422 Z M264 31 L248 23 C238 17 228 8 217 -6 C206 -20 199 -36 196 -53 C191 -80 196 -102 213 -119 C230 -137 253 -145 283 -145 C297 -145 309 -144 316 -141 L325 -93 L298 -95 C282 -95 268 -90 259 -81 C251 -71 247 -58 250 -43 C254 -21 264 -6 278 3 L264 31 Z " />
<glyph glyph-name="aogonek" unicode="&#x105;" horiz-adv-x="313" d="M6 109 C0 73 4 45 19 24 C34 3 56 -8 86 -8 C123 -8 168 18 183 77 L169 0 L234 0 L291 301 C297 336 292 364 274 386 C255 407 230 418 196 418 C164 418 134 407 107 384 C81 362 64 333 57 298 L54 282 L124 282 L128 302 C131 319 138 332 148 341 C158 350 170 355 184 355 C197 355 207 350 213 341 C221 332 222 319 219 302 L202 212 C189 234 167 246 136 246 C106 246 80 235 56 213 C32 191 16 162 10 126 L6 109 Z M82 130 C86 148 94 163 106 174 C117 185 131 190 146 190 C162 190 173 185 181 174 C188 163 190 148 186 130 L183 110 C179 92 171 78 160 67 C148 56 135 50 119 50 C104 50 92 56 85 67 C77 78 75 92 79 110 L82 130 Z M234 31 L218 23 C208 17 198 8 187 -6 C176 -20 169 -36 166 -53 C161 -80 166 -102 183 -119 C200 -137 223 -145 253 -145 C267 -145 279 -144 286 -141 L295 -93 L268 -95 C252 -95 238 -90 229 -81 C221 -71 217 -58 220 -43 C224 -21 234 -6 248 3 L234 31 Z " />
<glyph glyph-name="Cacute" unicode="&#x106;" horiz-adv-x="302" d="M178 122 C175 104 167 89 155 78 C144 68 130 62 115 62 C99 62 87 68 80 78 C72 89 71 104 74 122 L133 437 C136 455 143 470 155 481 C166 492 180 497 196 497 C211 497 223 492 230 481 C238 470 240 455 237 437 L223 364 L295 364 L309 441 C317 480 311 511 293 534 C274 557 246 568 210 568 C173 568 141 556 111 532 C82 507 64 476 57 437 L-2 121 C-9 82 -3 51 16 27 C36 4 64 -8 100 -8 C136 -8 168 4 197 28 C225 51 243 82 250 121 L265 204 L193 204 L178 122 Z M167 636 L223 636 L306 768 L230 768 L167 636 Z " />
<glyph glyph-name="cacute" unicode="&#x107;" horiz-adv-x="314" d="M197 164 L187 112 C184 96 178 83 167 73 C156 63 144 58 131 58 C117 58 107 63 100 73 C94 83 91 96 94 112 L129 298 C132 314 139 327 149 337 C160 346 172 351 186 351 C199 351 209 346 216 337 C223 327 225 314 222 298 L213 250 L282 250 L291 300 C298 335 292 364 274 386 C256 407 231 418 199 418 C166 418 135 407 108 384 C81 362 63 333 57 298 L22 110 C15 75 22 47 40 25 C58 3 84 -8 117 -8 C150 -8 179 3 206 26 C233 49 250 78 256 113 L266 164 L197 164 Z M171 436 L227 436 L310 568 L234 568 L171 436 Z " />
<glyph glyph-name="Ccaron" unicode="&#x10c;" horiz-adv-x="302" d="M178 122 C175 104 167 89 155 78 C144 68 130 62 115 62 C99 62 87 68 80 78 C72 89 71 104 74 122 L133 437 C136 455 143 470 155 481 C166 492 180 497 196 497 C211 497 223 492 230 481 C238 470 240 455 237 437 L223 364 L295 364 L309 441 C317 480 311 511 293 534 C274 557 246 568 210 568 C173 568 141 556 111 532 C82 507 64 476 57 437 L-2 121 C-9 82 -3 51 16 27 C36 4 64 -8 100 -8 C136 -8 168 4 197 28 C225 51 243 82 250 121 L265 204 L193 204 L178 122 Z M325 748 L269 752 L207 675 L174 752 L117 752 L168 620 L226 620 L325 748 Z " />
<glyph glyph-name="ccaron" unicode="&#x10d;" horiz-adv-x="314" d="M197 164 L187 112 C184 96 178 83 167 73 C156 63 144 58 131 58 C117 58 107 63 100 73 C94 83 91 96 94 112 L129 298 C132 314 139 327 149 337 C160 346 172 351 186 351 C199 351 209 346 216 337 C223 327 225 314 222 298 L213 250 L282 250 L291 300 C298 335 292 364 274 386 C256 407 231 418 199 418 C166 418 135 407 108 384 C81 362 63 333 57 298 L22 110 C15 75 22 47 40 25 C58 3 84 -8 117 -8 C150 -8 179 3 206 26 C233 49 250 78 256 113 L266 164 L197 164 Z M329 599 L273 603 L211 526 L178 603 L121 603 L172 471 L230 471 L329 599 Z " />
<glyph glyph-name="Dcaron" unicode="&#x10e;" horiz-adv-x="340" d="M-12 0 L109 0 C151 0 187 12 216 37 C246 61 265 95 273 139 L326 423 C334 467 328 501 308 524 C288 548 258 560 216 560 L92 560 L-12 0 Z M155 490 L199 490 C219 490 232 483 242 471 C251 459 253 441 249 418 L198 142 C193 118 184 100 171 88 C157 76 140 70 120 70 L76 70 L155 490 Z M321 736 L265 740 L203 663 L170 740 L113 740 L164 608 L222 608 L321 736 Z " />
<glyph glyph-name="dcroat" unicode="&#x111;" horiz-adv-x="353" d="M335 560 L263 560 L254 511 L180 511 L171 462 L245 462 L231 386 C218 408 197 418 168 418 C138 418 112 408 89 387 C65 366 51 339 45 305 L7 102 C1 68 5 41 20 21 C35 2 57 -8 86 -8 C121 -8 163 20 180 77 L166 0 L231 0 L317 462 L369 462 L378 511 L326 511 L335 560 Z M115 294 C118 312 125 326 136 336 C148 346 160 351 174 351 C189 351 201 346 208 336 C215 326 217 312 214 294 L181 115 C177 98 170 84 159 74 C148 63 135 58 120 58 C106 58 95 63 88 74 C81 84 78 97 82 115 L115 294 Z " />
<glyph glyph-name="Edotaccent" unicode="&#x116;" horiz-adv-x="280" d="M200 0 L214 74 L78 74 L112 255 L220 255 L233 324 L125 324 L155 486 L286 486 L300 560 L92 560 L-12 0 L200 0 Z M227 733 C205 733 181 715 177 690 C173 667 186 646 212 646 C234 646 259 666 263 690 C266 712 251 733 227 733 L227 733 Z " />
<glyph glyph-name="edotaccent" unicode="&#x117;" horiz-adv-x="319" d="M194 115 C191 98 184 84 173 74 C162 64 149 58 135 58 C120 58 110 64 102 74 C94 84 92 98 95 115 L111 200 L278 200 L296 298 C302 334 295 363 277 385 C259 407 233 418 199 418 C165 418 135 407 108 384 C80 361 63 332 56 296 L22 111 C16 75 23 47 41 25 C60 3 86 -8 120 -8 C153 -8 184 3 211 26 C238 49 255 78 262 114 L267 140 L199 140 L194 115 Z M129 299 C132 317 140 331 150 341 C162 351 174 356 189 356 C203 356 214 351 221 340 C229 330 231 316 228 299 L219 251 L120 251 L129 299 Z M244 582 C222 582 198 564 194 539 C190 516 203 495 229 495 C251 495 276 515 280 539 C283 561 268 582 244 582 L244 582 Z " />
<glyph glyph-name="Eogonek" unicode="&#x118;" horiz-adv-x="280" d="M200 0 L214 74 L78 74 L112 255 L220 255 L233 324 L125 324 L155 486 L286 486 L300 560 L92 560 L-12 0 L200 0 Z M133 29 L117 21 C107 15 97 6 86 -8 C75 -22 68 -38 65 -55 C60 -82 65 -104 82 -121 C99 -139 122 -147 152 -147 C166 -147 178 -146 185 -143 L194 -95 L167 -97 C151 -97 137 -92 128 -83 C120 -73 116 -60 119 -45 C123 -23 133 -8 147 1 L133 29 Z " />
<glyph glyph-name="eogonek" unicode="&#x119;" horiz-adv-x="319" d="M194 115 C191 98 184 84 173 74 C162 64 149 58 135 58 C120 58 110 64 102 74 C94 84 92 98 95 115 L111 200 L278 200 L296 298 C302 334 295 363 277 385 C259 407 233 418 199 418 C165 418 135 407 108 384 C80 361 63 332 56 296 L22 111 C16 75 23 47 41 25 C60 3 86 -8 120 -8 C153 -8 184 3 211 26 C238 49 255 78 262 114 L267 140 L199 140 L194 115 Z M129 299 C132 317 140 331 150 341 C162 351 174 356 189 356 C203 356 214 351 221 340 C229 330 231 316 228 299 L219 251 L120 251 L129 299 Z M167 29 L151 21 C141 15 131 6 120 -8 C109 -22 102 -38 99 -55 C94 -82 99 -104 116 -121 C133 -139 156 -147 186 -147 C200 -147 212 -146 219 -143 L228 -95 L201 -97 C185 -97 171 -92 162 -83 C154 -73 150 -60 153 -45 C157 -23 167 -8 181 1 L167 29 Z " />
<glyph glyph-name="Ecaron" unicode="&#x11a;" horiz-adv-x="256" d="M200 0 L214 74 L78 74 L112 255 L220 255 L233 324 L125 324 L155 486 L286 486 L300 560 L92 560 L-12 0 L200 0 Z M302 733 L246 737 L184 660 L151 737 L94 737 L145 605 L203 605 L302 733 Z " />
<glyph glyph-name="ecaron" unicode="&#x11b;" horiz-adv-x="319" d="M194 115 C191 98 184 84 173 74 C162 64 149 58 135 58 C120 58 110 64 102 74 C94 84 92 98 95 115 L111 200 L278 200 L296 298 C302 334 295 363 277 385 C259 407 233 418 199 418 C165 418 135 407 108 384 C80 361 63 332 56 296 L22 111 C16 75 23 47 41 25 C60 3 86 -8 120 -8 C153 -8 184 3 211 26 C238 49 255 78 262 114 L267 140 L199 140 L194 115 Z M129 299 C132 317 140 331 150 341 C162 351 174 356 189 356 C203 356 214 351 221 340 C229 330 231 316 228 299 L219 251 L120 251 L129 299 Z M330 585 L274 589 L212 512 L179 589 L122 589 L173 457 L231 457 L330 585 Z " />
<glyph glyph-name="Itilde" unicode="&#x128;" horiz-adv-x="158" d="M-11 0 L66 0 L169 560 L91 560 L-11 0 Z M55 606 L60 618 C61 626 65 634 72 642 C78 650 87 654 96 654 C107 654 118 649 128 641 C137 632 147 623 159 614 C170 604 185 599 205 599 C220 599 235 603 248 611 C261 619 271 627 278 637 C286 647 292 658 297 670 C302 683 306 691 306 696 C308 701 309 705 310 708 L256 708 L252 696 C251 689 247 681 239 673 C233 665 225 661 216 661 C204 661 194 665 184 674 C174 682 164 691 153 701 C142 710 128 715 110 715 C94 715 78 711 65 704 C52 696 42 687 35 678 C27 668 22 657 15 645 C10 632 6 623 6 618 C5 614 4 610 3 606 L55 606 Z " />
<glyph glyph-name="Iogonek" unicode="&#x12e;" horiz-adv-x="158" d="M-11 0 L66 0 L169 560 L91 560 L-11 0 Z M72 29 L56 21 C46 15 36 6 25 -8 C14 -22 7 -38 4 -55 C-1 -82 4 -104 21 -121 C38 -139 61 -147 91 -147 C105 -147 117 -146 124 -143 L133 -95 L106 -97 C90 -97 76 -92 67 -83 C59 -73 55 -60 58 -45 C62 -23 72 -8 86 1 L72 29 Z " />
<glyph glyph-name="iogonek" unicode="&#x12f;" horiz-adv-x="153" d="M131 568 C106 568 79 548 74 520 C69 495 85 472 113 472 C138 472 165 493 170 520 C175 545 158 568 131 568 L131 568 Z M-14 0 L58 0 L137 410 L64 410 L-14 0 Z M69 29 L53 21 C43 15 33 6 22 -8 C11 -22 4 -38 1 -55 C-4 -82 1 -104 18 -121 C35 -139 58 -147 88 -147 C102 -147 114 -146 121 -143 L130 -95 L103 -97 C87 -97 73 -92 64 -83 C56 -73 52 -60 55 -45 C59 -23 69 -8 83 1 L69 29 Z " />
<glyph glyph-name="Lacute" unicode="&#x139;" horiz-adv-x="260" d="M183 0 L197 74 L77 74 L168 560 L92 560 L-12 0 L183 0 Z M127 636 L183 636 L266 768 L190 768 L127 636 Z " />
<glyph glyph-name="lacute" unicode="&#x13a;" horiz-adv-x="154" d="M-12 0 L61 0 L166 560 L92 560 L-12 0 Z M73 564 L129 564 L212 696 L136 696 L73 564 Z " />
<glyph glyph-name="Lcaron" unicode="&#x13d;" horiz-adv-x="253" d="M183 0 L197 74 L77 74 L168 560 L92 560 L-12 0 L183 0 L183 0 Z " />
<glyph glyph-name="Lslash" unicode="&#x141;" horiz-adv-x="313" d="M234 0 L248 73 L128 73 L164 272 L265 292 L274 342 L173 323 L217 560 L141 560 L95 308 L32 296 L23 245 L85 257 L38 0 L234 0 L234 0 Z " />
<glyph glyph-name="lslash" unicode="&#x142;" horiz-adv-x="252" d="M31 0 L105 0 L155 271 L217 284 L226 334 L164 322 L208 560 L134 560 L87 307 L33 296 L24 245 L78 256 L31 0 L31 0 Z " />
<glyph glyph-name="Nacute" unicode="&#x143;" horiz-adv-x="348" d="M188 0 L255 0 L360 560 L293 560 L222 183 L164 560 L92 560 L-12 0 L54 0 L127 391 L188 0 Z M174 617 L230 617 L313 749 L237 749 L174 617 Z " />
<glyph glyph-name="nacute" unicode="&#x144;" horiz-adv-x="320" d="M128 296 C131 314 139 327 150 337 C160 346 173 351 188 351 C202 351 212 346 220 337 C226 327 227 314 224 296 L168 0 L240 0 L298 308 C305 343 302 370 289 389 C275 409 255 418 227 418 C189 418 144 391 126 323 L142 410 L77 410 L0 0 L72 0 L128 296 Z M160 436 L216 436 L299 568 L223 568 L160 436 Z " />
<glyph glyph-name="Ncaron" unicode="&#x147;" horiz-adv-x="348" d="M188 0 L255 0 L360 560 L293 560 L222 183 L164 560 L92 560 L-12 0 L54 0 L127 391 L188 0 Z M332 727 L276 731 L214 654 L181 731 L124 731 L175 599 L233 599 L332 727 Z " />
<glyph glyph-name="ncaron" unicode="&#x148;" horiz-adv-x="320" d="M128 296 C131 314 139 327 150 337 C160 346 173 351 188 351 C202 351 212 346 220 337 C226 327 227 314 224 296 L168 0 L240 0 L298 308 C305 343 302 370 289 389 C275 409 255 418 227 418 C189 418 144 391 126 323 L142 410 L77 410 L0 0 L72 0 L128 296 Z M316 589 L260 593 L198 516 L165 593 L108 593 L159 461 L217 461 L316 589 Z " />
<glyph glyph-name="Ohungarumlaut" unicode="&#x150;" horiz-adv-x="344" d="M11 125 C3 84 9 52 30 28 C49 4 78 -8 116 -8 C154 -8 188 4 218 29 C248 54 268 87 275 127 L332 435 C340 476 333 508 313 532 C293 556 264 568 226 568 C188 568 154 556 124 531 C95 506 75 473 68 433 L11 125 Z M144 433 C148 453 156 469 168 480 C180 491 195 497 212 497 C228 497 241 491 249 480 C258 469 260 453 256 433 L199 126 C195 107 187 91 174 80 C162 68 147 62 131 62 C114 62 101 68 93 80 C85 91 83 107 87 126 L144 433 Z M127 605 L180 605 L260 737 L185 737 L127 605 Z M251 605 L304 605 L384 737 L309 737 L251 605 Z " />
<glyph glyph-name="ohungarumlaut" unicode="&#x151;" horiz-adv-x="323" d="M23 114 C16 77 22 48 41 26 C60 3 87 -8 121 -8 C155 -8 186 4 214 27 C243 50 260 80 266 116 L299 297 C306 333 300 362 280 385 C261 407 235 418 200 418 C166 418 135 407 108 384 C79 360 62 331 56 294 L23 114 Z M128 294 C131 312 137 326 149 336 C160 346 173 351 188 351 C202 351 213 346 220 336 C228 326 230 312 227 294 L194 115 C191 98 185 84 173 74 C162 64 149 58 135 58 C120 58 109 64 102 74 C95 84 92 98 95 115 L128 294 Z M113 436 L166 436 L246 568 L171 568 L113 436 Z M237 436 L290 436 L370 568 L295 568 L237 436 Z " />
<glyph glyph-name="OE" unicode="&#x152;" horiz-adv-x="448" d="M384 0 L398 73 L262 73 L295 255 L403 255 L416 324 L308 324 L337 485 L469 485 L483 560 L228 560 C187 560 151 547 122 523 C91 498 73 464 65 420 L13 136 C5 93 11 59 31 35 C51 11 81 0 122 0 L384 0 Z M185 69 L141 69 C121 69 106 75 97 88 C88 100 86 118 90 141 L141 417 C145 441 153 459 167 471 C181 483 198 489 218 489 L262 489 L185 69 Z " />
<glyph glyph-name="oe" unicode="&#x153;" horiz-adv-x="490" d="M23 113 C16 77 23 48 42 25 C61 3 87 -8 121 -8 C157 -8 187 4 213 28 C229 4 255 -8 291 -8 C324 -8 355 3 382 26 C409 48 426 77 433 113 L438 140 L371 140 L366 115 C363 98 355 84 345 74 C333 63 321 58 306 58 C292 58 281 63 273 73 C265 83 263 97 266 115 L282 200 L449 200 L467 298 C473 334 467 363 448 385 C430 407 404 418 370 418 C336 418 305 405 279 380 C263 405 236 418 201 418 C167 418 136 406 108 383 C80 360 62 330 56 294 L23 113 Z M128 294 C131 312 138 325 149 336 C160 346 173 351 188 351 C202 351 213 346 221 336 C228 325 230 312 227 294 L194 115 C191 98 184 84 174 74 C162 63 149 58 135 58 C120 58 110 63 101 73 C94 83 92 97 95 115 L128 294 Z M300 299 C303 316 310 330 322 341 C333 351 346 356 360 356 C375 356 385 350 393 340 C400 330 403 316 400 299 L391 251 L291 251 L300 299 Z " />
<glyph glyph-name="Racute" unicode="&#x154;" horiz-adv-x="333" d="M315 362 L325 419 C333 464 327 499 307 524 C287 548 255 560 212 560 L91 560 L-11 0 L64 0 L105 224 L139 224 C142 224 144 224 147 224 C155 224 162 224 162 224 C175 223 185 218 193 209 C199 198 202 183 198 165 L168 0 L241 0 L272 169 C279 207 273 238 255 261 C286 282 306 316 315 362 L315 362 Z M238 359 C234 336 224 318 211 306 C206 301 201 297 194 294 C184 289 173 287 161 287 L117 287 L154 490 L198 490 C218 490 233 483 241 471 C250 459 253 441 249 418 L238 359 L238 359 Z M163 636 L219 636 L302 768 L226 768 L163 636 Z " />
<glyph glyph-name="racute" unicode="&#x155;" horiz-adv-x="215" d="M238 418 C193 418 146 379 125 323 L141 410 L76 410 L2 0 L74 0 L120 257 C130 311 159 338 208 338 L224 338 L238 418 Z M108 436 L164 436 L247 568 L171 568 L108 436 Z " />
<glyph glyph-name="Rcaron" unicode="&#x158;" horiz-adv-x="329" d="M315 362 L325 419 C333 464 327 499 307 524 C287 548 255 560 212 560 L91 560 L-11 0 L64 0 L105 224 L139 224 C142 224 144 224 147 224 C155 224 162 224 162 224 C175 223 185 218 193 209 C199 198 202 183 198 165 L168 0 L241 0 L272 169 C279 207 273 238 255 261 C286 282 306 316 315 362 L315 362 Z M238 359 C234 336 224 318 211 306 C206 301 201 297 194 294 C184 289 173 287 161 287 L117 287 L154 490 L198 490 C218 490 233 483 241 471 C250 459 253 441 249 418 L238 359 L238 359 Z M311 747 L255 751 L193 674 L160 751 L103 751 L154 619 L212 619 L311 747 Z " />
<glyph glyph-name="rcaron" unicode="&#x159;" horiz-adv-x="215" d="M238 418 C193 418 146 379 125 323 L141 410 L76 410 L2 0 L74 0 L120 257 C130 311 159 338 208 338 L224 338 L238 418 Z M270 598 L214 602 L152 525 L119 602 L62 602 L113 470 L171 470 L270 598 Z " />
<glyph glyph-name="Sacute" unicode="&#x15a;" horiz-adv-x="278" d="M61 164 L-11 164 L-19 122 C-26 83 -20 51 0 28 C18 4 46 -8 84 -8 C122 -8 155 4 186 29 C215 53 234 85 242 125 C248 159 245 192 235 221 C223 251 204 282 177 314 C152 342 136 365 128 384 C119 403 117 422 120 441 C124 459 131 473 142 484 C154 494 167 499 183 499 C199 499 210 494 218 482 C225 471 227 456 224 437 L218 408 L291 408 L297 441 C305 480 299 511 281 534 C261 557 233 568 197 568 C160 568 128 556 98 532 C69 509 51 477 44 438 C34 383 54 326 104 267 C131 236 149 210 158 190 C167 169 170 147 165 123 C162 104 154 89 141 78 C129 66 115 61 98 61 C81 61 69 67 60 78 C52 90 50 106 54 126 L61 164 Z M155 636 L211 636 L294 768 L218 768 L155 636 Z " />
<glyph glyph-name="sacute" unicode="&#x15b;" horiz-adv-x="293" d="M209 294 L279 294 L281 306 C288 340 281 366 263 387 C244 408 219 418 186 418 C153 418 124 408 97 387 C70 366 55 341 49 310 C39 258 62 216 115 186 C141 173 158 160 166 148 C175 136 177 123 174 107 C171 91 165 78 153 69 C142 59 129 54 115 54 C100 54 89 59 82 69 C75 79 72 92 76 110 L78 124 L9 124 L7 110 C0 74 7 46 25 24 C44 3 70 -8 104 -8 C139 -8 169 3 196 25 C224 47 240 75 247 110 C257 165 233 208 176 239 C152 252 137 264 129 274 C121 284 119 297 121 310 C124 324 130 335 140 343 C151 351 162 355 175 355 C188 355 199 351 205 342 C212 332 214 321 211 306 L209 294 Z M155 436 L211 436 L294 568 L218 568 L155 436 Z " />
<glyph glyph-name="Scedilla" unicode="&#x15e;" horiz-adv-x="278" d="M61 164 L-11 164 L-19 122 C-26 83 -20 51 0 28 C18 4 46 -8 84 -8 C122 -8 155 4 186 29 C215 53 234 85 242 125 C248 159 245 192 235 221 C223 251 204 282 177 314 C152 342 136 365 128 384 C119 403 117 422 120 441 C124 459 131 473 142 484 C154 494 167 499 183 499 C199 499 210 494 218 482 C225 471 227 456 224 437 L218 408 L291 408 L297 441 C305 480 299 511 281 534 C261 557 233 568 197 568 C160 568 128 556 98 532 C69 509 51 477 44 438 C34 383 54 326 104 267 C131 236 149 210 158 190 C167 169 170 147 165 123 C162 104 154 89 141 78 C129 66 115 61 98 61 C81 61 69 67 60 78 C52 90 50 106 54 126 L61 164 Z M94 0 L100 -5 C104 -9 108 -15 112 -24 C115 -33 115 -43 113 -54 C111 -70 103 -83 92 -92 C80 -101 67 -106 51 -106 C37 -106 28 -105 24 -102 L15 -152 L19 -152 C22 -153 27 -154 33 -155 C38 -156 45 -156 51 -156 C81 -156 107 -148 129 -131 C152 -114 165 -91 170 -63 C172 -51 173 -40 171 -29 C169 -18 165 -10 161 -4 C157 2 152 8 147 13 C141 18 138 21 136 23 C133 24 131 25 130 25 L94 0 Z " />
<glyph glyph-name="Scaron" unicode="&#x160;" horiz-adv-x="294" d="M70 164 L-2 164 L-10 122 C-17 83 -11 51 9 28 C27 4 55 -8 93 -8 C131 -8 164 4 195 29 C224 53 243 85 251 125 C257 159 254 192 244 221 C232 251 213 282 186 314 C161 342 145 365 137 384 C128 403 126 422 129 441 C133 459 140 473 151 484 C163 494 176 499 192 499 C208 499 219 494 227 482 C234 471 236 456 233 437 L227 408 L300 408 L306 441 C314 480 308 511 290 534 C270 557 242 568 206 568 C169 568 137 556 107 532 C78 509 60 477 53 438 C43 383 63 326 113 267 C140 236 158 210 167 190 C176 169 179 147 174 123 C171 104 163 89 150 78 C138 66 124 61 107 61 C90 61 78 67 69 78 C61 90 59 106 63 126 L70 164 Z M322 726 L266 730 L204 653 L171 730 L114 730 L165 598 L223 598 L322 726 Z " />
<glyph glyph-name="scaron" unicode="&#x161;" horiz-adv-x="283" d="M204 294 L274 294 L276 306 C283 340 276 366 258 387 C239 408 214 418 181 418 C148 418 119 408 92 387 C65 366 50 341 44 310 C34 258 57 216 110 186 C136 173 153 160 161 148 C170 136 172 123 169 107 C166 91 160 78 148 69 C137 59 124 54 110 54 C95 54 84 59 77 69 C70 79 67 92 71 110 L73 124 L4 124 L2 110 C-5 74 2 46 20 24 C39 3 65 -8 99 -8 C134 -8 164 3 191 25 C219 47 235 75 242 110 C252 165 228 208 171 239 C147 252 132 264 124 274 C116 284 114 297 116 310 C119 324 125 335 135 343 C146 351 157 355 170 355 C183 355 194 351 200 342 C207 332 209 321 206 306 L204 294 Z M310 574 L254 578 L192 501 L159 578 L102 578 L153 446 L211 446 L310 574 Z " />
<glyph glyph-name="Tcaron" unicode="&#x164;" horiz-adv-x="272" d="M302 486 L316 560 L56 560 L42 486 L134 486 L45 0 L121 0 L210 486 L302 486 Z M307 729 L251 733 L189 656 L156 733 L99 733 L150 601 L208 601 L307 729 Z " />
<glyph glyph-name="utilde" unicode="&#x169;" horiz-adv-x="320" d="M191 114 C188 97 181 83 169 74 C159 64 146 59 132 59 C117 59 107 64 100 74 C93 83 92 97 95 114 L151 410 L79 410 L21 102 C14 68 18 41 30 21 C44 2 64 -8 92 -8 C130 -8 175 19 193 88 L177 0 L242 0 L319 410 L247 410 L191 114 Z M137 460 L142 472 C143 480 147 488 154 496 C160 504 169 508 178 508 C189 508 200 503 210 495 C219 486 229 477 241 468 C252 458 267 453 287 453 C302 453 317 457 330 465 C343 473 353 481 360 491 C368 501 374 512 379 524 C384 537 388 545 388 550 C390 555 391 559 392 562 L338 562 L334 550 C333 543 329 535 321 527 C315 519 307 515 298 515 C286 515 276 519 266 528 C256 536 246 545 235 555 C224 564 210 569 192 569 C176 569 160 565 147 558 C134 550 124 541 117 532 C109 522 104 511 97 499 C92 486 88 477 88 472 C87 468 86 464 85 460 L137 460 Z " />
<glyph glyph-name="Uring" unicode="&#x16e;" horiz-adv-x="336" d="M272 560 L191 122 C188 104 181 89 169 78 C157 68 144 62 128 62 C112 62 101 68 94 78 C86 89 85 104 88 122 L169 560 L92 560 L11 121 C3 82 10 51 29 27 C49 4 77 -8 113 -8 C150 -8 183 4 211 28 C241 53 260 84 267 123 L348 560 L272 560 Z M183 724 C166 711 156 694 152 673 C149 653 153 637 164 623 C175 610 192 604 213 604 C234 604 253 610 269 623 C286 637 296 653 299 673 C303 694 299 711 288 724 C276 737 259 744 238 744 C217 744 198 737 183 724 L183 724 Z M219 640 C209 640 202 643 197 649 C192 655 189 663 191 673 C193 684 199 692 206 698 C213 705 222 708 232 708 C242 708 249 705 255 698 C260 692 261 684 259 673 C257 663 253 655 246 649 C238 643 229 640 219 640 L219 640 Z " />
<glyph glyph-name="uring" unicode="&#x16f;" horiz-adv-x="320" d="M191 114 C188 97 181 83 169 74 C159 64 146 59 132 59 C117 59 107 64 100 74 C93 83 92 97 95 114 L151 410 L79 410 L21 102 C14 68 18 41 30 21 C44 2 64 -8 92 -8 C130 -8 175 19 193 88 L177 0 L242 0 L319 410 L247 410 L191 114 Z M174 554 C157 541 147 524 143 503 C140 483 144 467 155 453 C166 440 183 434 204 434 C225 434 244 440 260 453 C277 467 287 483 290 503 C294 524 290 541 279 554 C267 567 250 574 229 574 C208 574 189 567 174 554 L174 554 Z M210 470 C200 470 193 473 188 479 C183 485 180 493 182 503 C184 514 190 522 197 528 C204 535 213 538 223 538 C233 538 240 535 246 528 C251 522 252 514 250 503 C248 493 244 485 237 479 C229 473 220 470 210 470 L210 470 Z " />
<glyph glyph-name="Uhungarumlaut" unicode="&#x170;" horiz-adv-x="336" d="M272 560 L191 122 C188 104 181 89 169 78 C157 68 144 62 128 62 C112 62 101 68 94 78 C86 89 85 104 88 122 L169 560 L92 560 L11 121 C3 82 10 51 29 27 C49 4 77 -8 113 -8 C150 -8 183 4 211 28 C241 53 260 84 267 123 L348 560 L272 560 L272 560 Z " />
<glyph glyph-name="uhungarumlaut" unicode="&#x171;" horiz-adv-x="320" d="M191 114 C188 97 181 83 169 74 C159 64 146 59 132 59 C117 59 107 64 100 74 C93 83 92 97 95 114 L151 410 L79 410 L21 102 C14 68 18 41 30 21 C44 2 64 -8 92 -8 C130 -8 175 19 193 88 L177 0 L242 0 L319 410 L247 410 L191 114 Z M116 439 L169 439 L249 571 L174 571 L116 439 Z M240 439 L293 439 L373 571 L298 571 L240 439 Z " />
<glyph glyph-name="Uogonek" unicode="&#x172;" horiz-adv-x="336" d="M272 560 L191 122 C188 104 181 89 169 78 C157 68 144 62 128 62 C112 62 101 68 94 78 C86 89 85 104 88 122 L169 560 L92 560 L11 121 C3 82 10 51 29 27 C49 4 77 -8 113 -8 C150 -8 183 4 211 28 C241 53 260 84 267 123 L348 560 L272 560 Z M183 29 L167 21 C157 15 147 6 136 -8 C125 -22 118 -38 115 -55 C110 -82 115 -104 132 -121 C149 -139 172 -147 202 -147 C216 -147 228 -146 235 -143 L244 -95 L217 -97 C201 -97 187 -92 178 -83 C170 -73 166 -60 169 -45 C173 -23 183 -8 197 1 L183 29 Z " />
<glyph glyph-name="uogonek" unicode="&#x173;" horiz-adv-x="320" d="M191 114 C188 97 181 83 169 74 C159 64 146 59 132 59 C117 59 107 64 100 74 C93 83 92 97 95 114 L151 410 L79 410 L21 102 C14 68 18 41 30 21 C44 2 64 -8 92 -8 C130 -8 175 19 193 88 L177 0 L242 0 L319 410 L247 410 L191 114 Z M237 29 L221 21 C211 15 201 6 190 -8 C179 -22 172 -38 169 -55 C164 -82 169 -104 186 -121 C203 -139 226 -147 256 -147 C270 -147 282 -146 289 -143 L298 -95 L271 -97 C255 -97 241 -92 232 -83 C224 -73 220 -60 223 -45 C227 -23 237 -8 251 1 L237 29 Z " />
<glyph glyph-name="Ydieresis" unicode="&#x178;" horiz-adv-x="307" d="M60 0 L136 0 L178 216 L350 560 L273 560 L162 314 L147 560 L66 560 L102 217 L60 0 Z M165 674 C142 674 119 657 115 631 C110 608 124 588 150 588 C172 588 196 606 201 631 C204 653 190 674 165 674 L165 674 Z M291 674 C268 674 245 656 241 631 C236 608 250 588 276 588 C299 588 322 605 327 631 C331 654 317 674 291 674 L291 674 Z " />
<glyph glyph-name="Zacute" unicode="&#x179;" horiz-adv-x="257" d="M188 0 L200 70 L49 70 L275 502 L285 560 L65 560 L53 490 L192 490 L-33 58 L-43 0 L188 0 Z M126 636 L182 636 L265 768 L189 768 L126 636 Z " />
<glyph glyph-name="zacute" unicode="&#x17a;" horiz-adv-x="231" d="M-18 50 L-28 0 L179 0 L191 62 L59 62 L247 362 L256 410 L60 410 L48 348 L167 348 L-18 50 Z M132 436 L188 436 L271 568 L195 568 L132 436 Z " />
<glyph glyph-name="Zdotaccent" unicode="&#x17b;" horiz-adv-x="252" d="M188 0 L200 70 L49 70 L275 502 L285 560 L65 560 L53 490 L192 490 L-33 58 L-43 0 L188 0 Z M196 782 C174 782 150 764 146 739 C142 716 155 695 181 695 C203 695 228 715 232 739 C235 761 220 782 196 782 L196 782 Z " />
<glyph glyph-name="zdotaccent" unicode="&#x17c;" horiz-adv-x="245" d="M-14 50 L-24 0 L183 0 L195 62 L63 62 L251 362 L260 410 L64 410 L52 348 L171 348 L-14 50 Z M206 582 C184 582 160 564 156 539 C152 516 165 495 191 495 C213 495 238 515 242 539 C245 561 230 582 206 582 L206 582 Z " />
<glyph glyph-name="Zcaron" unicode="&#x17d;" horiz-adv-x="270" d="M197 0 L209 70 L58 70 L284 502 L294 560 L74 560 L62 490 L201 490 L-24 58 L-34 0 L197 0 Z M294 727 L238 731 L176 654 L143 731 L86 731 L137 599 L195 599 L294 727 Z " />
<glyph glyph-name="zcaron" unicode="&#x17e;" horiz-adv-x="237" d="M-17 50 L-27 0 L180 0 L192 62 L60 62 L248 362 L257 410 L61 410 L49 348 L168 348 L-17 50 Z M291 572 L235 576 L173 499 L140 576 L83 576 L134 444 L192 444 L291 572 Z " />
<glyph glyph-name="florin" unicode="&#x192;" horiz-adv-x="305" d="M91 -88 L182 253 L267 253 L276 300 L195 300 L231 435 C241 473 262 492 292 492 C306 492 322 492 322 492 L334 560 C334 560 300 560 291 560 C259 560 232 550 210 531 C187 512 171 485 163 450 L123 300 L51 300 L42 253 L110 253 L19 -88 L91 -88 L91 -88 Z " />
<glyph glyph-name="circumflex" unicode="&#x2c6;" horiz-adv-x="225" d="M83 428 L137 428 L197 505 L232 428 L290 428 L237 560 L181 560 L83 428 L83 428 Z " />
<glyph glyph-name="caron" unicode="&#x2c7;" horiz-adv-x="229" d="M292 696 L236 700 L174 623 L141 700 L84 700 L135 568 L193 568 L292 696 L292 696 Z " />
<glyph glyph-name="breve" unicode="&#x2d8;" horiz-adv-x="226" d="M65 572 L57 532 C52 504 57 482 71 465 C85 448 105 440 133 440 C160 440 185 448 205 466 C225 483 239 506 244 534 L251 572 L199 572 L191 532 C189 518 184 507 175 498 C165 489 155 485 142 485 C129 485 118 489 113 498 C109 507 107 518 109 532 L117 572 L65 572 L65 572 Z " />
<glyph glyph-name="dotaccent" unicode="&#x2d9;" horiz-adv-x="185" d="M134 582 C112 582 88 564 84 539 C80 516 93 495 119 495 C141 495 166 515 170 539 C173 561 158 582 134 582 L134 582 Z " />
<glyph glyph-name="ring" unicode="&#x2da;" horiz-adv-x="189" d="M111 524 C94 511 84 494 80 473 C77 453 81 437 92 423 C103 410 120 404 141 404 C162 404 181 410 197 423 C214 437 224 453 227 473 C231 494 227 511 216 524 C204 537 187 544 166 544 C145 544 126 537 111 524 L111 524 Z M147 440 C137 440 130 443 125 449 C120 455 117 463 119 473 C121 484 127 492 134 498 C141 505 150 508 160 508 C170 508 177 505 183 498 C188 492 189 484 187 473 C185 463 181 455 174 449 C166 443 157 440 147 440 L147 440 Z " />
<glyph glyph-name="ogonek" unicode="&#x2db;" horiz-adv-x="168" d="M50 29 L34 21 C24 15 14 6 3 -8 C-8 -22 -15 -38 -18 -55 C-23 -82 -18 -104 -1 -121 C16 -139 39 -147 69 -147 C83 -147 95 -146 102 -143 L111 -95 L84 -97 C68 -97 54 -92 45 -83 C37 -73 33 -60 36 -45 C40 -23 50 -8 64 1 L50 29 L50 29 Z " />
<glyph glyph-name="tilde" unicode="&#x2dc;" horiz-adv-x="321" d="M140 459 L145 471 C146 479 150 487 157 495 C163 503 172 507 181 507 C192 507 203 502 213 494 C222 485 232 476 244 467 C255 457 270 452 290 452 C305 452 320 456 333 464 C346 472 356 480 363 490 C371 500 377 511 382 523 C387 536 391 544 391 549 C393 554 394 558 395 561 L341 561 L337 549 C336 542 332 534 324 526 C318 518 310 514 301 514 C289 514 279 518 269 527 C259 535 249 544 238 554 C227 563 213 568 195 568 C179 568 163 564 150 557 C137 549 127 540 120 531 C112 521 107 510 100 498 C95 485 91 476 91 471 C90 467 89 463 88 459 L140 459 L140 459 Z " />
<glyph glyph-name="hungarumlaut" unicode="&#x2dd;" horiz-adv-x="255" d="M84 436 L137 436 L217 568 L142 568 L84 436 Z M208 436 L261 436 L341 568 L266 568 L208 436 Z " />
<glyph glyph-name="endash" unicode="&#x2013;" horiz-adv-x="392" d="M346 235 L358 300 L46 300 L34 235 L346 235 L346 235 Z " />
<glyph glyph-name="emdash" unicode="&#x2014;" horiz-adv-x="447" d="M400 235 L413 300 L46 300 L33 235 L400 235 L400 235 Z " />
<glyph glyph-name="quoteleft" unicode="&#x2018;" horiz-adv-x="125" d="M67 560 L2 360 L83 360 L124 560 L67 560 L67 560 Z " />
<glyph glyph-name="quoteright" unicode="&#x2019;" horiz-adv-x="110" d="M52 360 L117 560 L37 560 L-5 360 L52 360 L52 360 Z " />
<glyph glyph-name="quotedblleft" unicode="&#x201c;" horiz-adv-x="235" d="M56 560 L-8 360 L72 360 L114 560 L56 560 Z M178 560 L114 360 L194 360 L235 560 L178 560 Z " />
<glyph glyph-name="quotedblright" unicode="&#x201d;" horiz-adv-x="232" d="M50 360 L117 560 L37 560 L-7 360 L50 360 Z M172 360 L239 560 L158 560 L114 360 L172 360 Z " />
<glyph glyph-name="daggerdbl" unicode="&#x2021;" horiz-adv-x="280" d="M19 267 L9 212 L91 212 L76 128 L136 128 L151 212 L233 212 L243 267 L161 267 L178 365 L260 365 L270 418 L188 418 L203 504 L143 504 L128 418 L46 418 L36 365 L118 365 L101 267 L19 267 L19 267 Z " />
<glyph glyph-name="bullet" unicode="&#x2022;" horiz-adv-x="251" d="M143 418 C95 418 45 379 36 328 C27 280 57 238 108 238 C157 238 206 278 216 329 C225 377 193 418 143 418 L143 418 Z " />
<glyph glyph-name="ellipsis" unicode="&#x2026;" horiz-adv-x="315" d="M27 20 C24 6 32 -8 49 -8 C63 -8 80 4 83 20 C85 33 75 48 60 48 C46 48 29 36 27 20 L27 20 Z M132 20 C129 6 137 -8 154 -8 C168 -8 185 4 188 20 C190 33 180 48 165 48 C151 48 134 36 132 20 L132 20 Z M237 20 C234 6 242 -8 259 -8 C273 -8 290 4 293 20 C295 33 285 48 270 48 C256 48 239 36 237 20 L237 20 Z " />
<glyph glyph-name="perthousand" unicode="&#x2030;" horiz-adv-x="670" d="M87 459 C64 440 50 417 44 388 C39 360 45 336 60 318 C75 299 97 290 125 290 C154 290 180 300 203 319 C226 338 240 361 246 389 C251 418 246 442 230 460 C215 479 193 488 164 488 C135 488 109 478 87 459 L87 459 Z M-2 0 L49 0 L436 480 L384 480 L-2 0 Z M105 354 C98 363 96 375 99 389 C101 403 107 414 118 423 C129 432 141 437 154 437 C168 437 178 432 184 423 C191 414 193 403 191 389 C188 375 182 363 171 354 C161 345 150 341 136 341 C123 341 112 345 105 354 L105 354 Z M230 161 C207 142 192 118 187 90 C182 61 187 38 203 19 C218 1 240 -8 269 -8 C297 -8 322 1 346 20 C369 39 383 63 388 91 C394 120 389 143 374 162 C358 180 336 189 307 189 C278 189 252 180 230 161 L230 161 Z M248 56 C240 65 239 76 241 90 C244 104 250 116 261 125 C271 134 283 138 296 138 C310 138 320 134 327 125 C334 116 337 104 334 90 C332 76 324 65 314 56 C304 47 292 42 278 42 C265 42 255 47 248 56 L248 56 Z M466 161 C443 142 428 118 423 90 C418 61 423 38 439 19 C454 1 476 -8 505 -8 C533 -8 558 1 582 20 C605 39 619 63 624 91 C630 120 625 143 610 162 C594 180 572 189 543 189 C514 189 488 180 466 161 L466 161 Z M484 56 C476 65 475 76 477 90 C480 104 486 116 497 125 C507 134 519 138 532 138 C546 138 556 134 563 125 C570 116 573 104 570 90 C568 76 560 65 550 56 C540 47 528 42 514 42 C501 42 491 47 484 56 L484 56 Z " />
<glyph glyph-name="guilsinglleft" unicode="&#x2039;" horiz-adv-x="263" d="M260 420 L227 460 L42 312 L37 289 L166 141 L214 183 L122 301 L260 420 L260 420 Z " />
<glyph glyph-name="guilsinglright" unicode="&#x203a;" horiz-adv-x="263" d="M3 180 L36 140 L220 288 L225 312 L95 460 L47 417 L140 299 L3 180 L3 180 Z " />
<glyph glyph-name="Euro" unicode="&#x20ac;" horiz-adv-x="353" d="M225 117 C221 99 215 84 204 75 C193 65 180 60 165 60 C151 60 140 65 133 75 C126 84 124 99 128 117 L145 212 L259 212 L267 253 L153 253 L162 305 L292 305 L300 348 L170 348 L187 442 C190 460 197 474 208 485 C219 495 232 500 246 500 C261 500 272 495 279 485 C286 474 287 460 284 442 L276 400 L347 400 L356 447 C363 483 357 512 338 534 C320 557 294 568 259 568 C225 568 194 556 167 533 C139 510 121 480 114 443 L97 348 L41 348 L33 305 L89 305 L80 253 L24 253 L16 212 L72 212 L54 114 C47 77 53 47 72 25 C91 3 117 -8 152 -8 C186 -8 217 3 244 26 C271 48 289 78 295 114 L304 160 L233 160 L225 117 L225 117 Z " />
<glyph glyph-name="trademark" unicode="&#x2122;" horiz-adv-x="405" d="M180 515 L188 560 L45 560 L37 515 L83 515 L44 308 L94 308 L133 515 L180 515 Z M264 351 L283 351 L339 456 L311 308 L358 308 L405 560 L358 560 L288 427 L270 560 L221 560 L174 308 L221 308 L249 457 L264 351 Z " />
<glyph glyph-name="f_f" unicode="&#xfb00;" horiz-adv-x="390" d="M385 503 C394 503 412 503 412 503 L424 568 C424 568 389 568 382 568 C350 568 324 559 302 540 C281 522 267 496 260 460 L251 410 L135 410 L143 452 C149 486 166 503 195 503 C204 503 224 503 224 503 L236 568 C236 568 197 568 189 568 C159 568 134 559 113 542 C92 524 79 499 73 464 L-12 0 L59 0 L124 350 L240 350 L175 0 L247 0 L312 350 L384 350 L395 410 L323 410 L330 450 C337 485 355 503 385 503 L385 503 Z " />
<glyph glyph-name="fi" unicode="&#xfb01;" horiz-adv-x="353" d="M312 472 C340 473 364 494 369 520 C374 547 355 568 330 568 C302 568 278 545 273 520 C268 492 287 472 312 472 L312 472 Z M135 410 L143 452 C150 486 167 503 196 503 C204 503 225 503 225 503 L237 568 C237 568 198 568 190 568 C160 568 134 559 114 542 C93 524 80 499 74 464 L-13 0 L58 0 L124 350 L252 350 L186 0 L259 0 L336 410 L135 410 Z " />
<glyph glyph-name="fl" unicode="&#xfb02;" horiz-adv-x="354" d="M190 568 C160 568 135 559 113 542 C93 524 79 499 73 464 L-12 0 L59 0 L124 350 L196 350 L207 410 L135 410 L143 452 C149 486 167 503 196 503 C200 503 241 503 280 503 L187 0 L261 0 L354 503 L365 560 L366 568 C366 568 197 568 190 568 L190 568 Z " />
</font>
</svg>
