<?xml version="1.0" encoding="UTF-8"?>
<svg xmlns="http://www.w3.org/2000/svg" xmlns:xlink="http://www.w3.org/1999/xlink" version="1.2" >
<font id="Lostfield Condensed regular italic">
<font-face  font-family="Lostfield Condensed" units-per-em="1000" ascent="750" descent="-250" font-style="normal" font-weight="400" font-stretch="normal" cap-height="700" x-height="500" underline-position="-75" underline-thickness="50" />
<missing-glyph  horiz-adv-x="152" d="" />
<glyph glyph-name="NULL" d="" />
<glyph glyph-name="CR" unicode="&#xd;" horiz-adv-x="152" d="" />
<glyph glyph-name="space" unicode="&#x20;" horiz-adv-x="152" d="" />
<glyph glyph-name="exclam" unicode="&#x21;" horiz-adv-x="124" d="M23 68 C3 68 -16 52 -21 30 C-24 10 -11 -8 10 -8 C30 -8 50 8 54 30 C58 51 45 67 23 68 L23 68 Z M23 166 L59 166 L144 560 L82 560 L23 166 Z " />
<glyph glyph-name="quotedbl" unicode="&#x22;" horiz-adv-x="208" d="M49 376 L102 560 L44 560 L6 376 L49 376 Z M153 376 L206 560 L148 560 L110 376 L153 376 Z " />
<glyph glyph-name="numbersign" unicode="&#x23;" horiz-adv-x="316" d="M128 0 L166 0 L202 136 L263 136 L270 172 L212 172 L249 308 L308 308 L315 344 L259 344 L294 480 L256 480 L220 344 L142 344 L177 480 L139 480 L103 344 L43 344 L36 308 L93 308 L57 172 L0 172 L-7 136 L47 136 L11 0 L50 0 L85 136 L163 136 L128 0 Z M132 308 L210 308 L174 172 L95 172 L132 308 Z " />
<glyph glyph-name="dollar" unicode="&#x24;" horiz-adv-x="256" d="M209 210 C201 240 183 270 160 301 C138 331 121 356 111 378 C102 400 100 423 104 447 C108 469 117 486 130 498 C138 505 146 510 154 513 L146 466 L185 466 L194 514 C203 512 211 506 217 498 C225 485 227 468 223 446 L217 413 L268 413 L274 449 C280 481 277 507 263 528 C250 548 229 560 203 563 L213 621 L174 621 L164 562 C136 557 111 545 91 524 C71 504 58 478 52 446 C46 415 49 385 60 358 C70 331 87 302 111 270 C133 241 148 214 156 190 C165 166 166 140 161 112 C157 89 147 71 134 58 C124 50 115 44 106 41 L118 105 L79 105 L66 40 C56 43 47 49 42 58 C32 71 30 90 34 112 L41 153 L-9 153 L-17 109 C-23 76 -19 48 -5 28 C7 7 29 -5 57 -8 L47 -67 L86 -67 L96 -8 C125 -3 151 10 173 32 C194 53 208 80 214 112 C221 148 219 181 209 210 L209 210 Z " />
<glyph glyph-name="percent" unicode="&#x25;" horiz-adv-x="422" d="M155 488 C128 488 104 479 81 460 C59 442 45 419 40 391 C35 364 41 342 55 323 C70 305 92 296 119 296 C147 296 171 305 194 324 C216 342 229 365 234 393 C239 421 234 444 219 461 C204 479 182 488 155 488 L155 488 Z M-2 0 L38 0 L421 480 L380 480 L-2 0 Z M91 352 C83 363 80 376 83 392 C86 408 93 422 105 433 C118 444 132 449 147 449 C162 449 174 444 183 433 C192 422 195 408 192 392 C189 376 182 363 169 352 C156 342 142 336 127 336 C112 336 100 342 91 352 L91 352 Z M298 183 C270 183 246 174 223 156 C201 137 188 115 183 87 C178 60 183 37 198 19 C213 1 235 -8 263 -8 C290 -8 315 2 337 20 C359 39 372 62 377 89 C382 116 377 139 363 157 C347 174 326 183 298 183 L298 183 Z M234 48 C225 58 222 72 225 88 C228 104 236 118 248 128 C261 139 275 144 291 144 C306 144 318 139 326 128 C336 118 338 104 335 88 C332 72 325 58 312 48 C300 37 286 31 271 31 C255 31 243 37 234 48 L234 48 Z " />
<glyph glyph-name="ampersand" unicode="&#x26;" horiz-adv-x="342" d="M263 39 C230 39 217 59 224 99 L255 269 L300 269 L308 313 L263 313 L271 357 L219 357 L211 313 L148 313 C131 313 118 319 109 332 C101 344 98 360 102 381 L114 451 C118 472 127 488 139 500 C153 513 168 519 185 519 C201 519 214 513 222 500 C230 488 232 472 228 451 L221 408 L272 408 L280 452 C286 486 281 514 264 535 C247 557 223 568 193 568 C162 568 134 557 109 536 C84 515 69 488 63 454 L51 388 C43 345 54 313 82 293 C42 272 18 237 9 190 L-3 113 C-10 77 -4 48 13 25 C31 3 57 -8 90 -8 C123 -8 152 2 177 24 C178 21 180 19 181 17 C194 0 215 -9 243 -9 C259 -9 255 -9 255 -9 L263 39 L263 39 Z M98 40 C79 40 65 47 55 60 C45 73 44 91 48 114 L63 196 C67 219 75 237 89 250 C104 263 121 269 140 269 L203 269 L175 113 C171 91 161 73 148 60 C134 47 117 40 98 40 L98 40 Z " />
<glyph glyph-name="quotesingle" unicode="&#x27;" horiz-adv-x="85" d="M37 376 L92 560 L34 560 L-5 376 L37 376 L37 376 Z " />
<glyph glyph-name="parenleft" unicode="&#x28;" horiz-adv-x="222" d="M148 24 L138 35 C132 44 124 57 117 76 C108 94 100 116 92 140 C86 165 81 196 80 233 C79 271 82 311 90 352 C97 394 108 434 124 472 C139 510 155 541 169 564 C183 587 199 609 216 629 C234 649 245 662 251 668 C258 674 263 678 267 681 L238 712 L222 699 C211 690 197 676 180 656 C163 635 145 612 127 585 C109 558 91 524 75 482 C58 440 45 396 37 350 C29 303 26 259 28 217 C30 175 35 141 42 116 C50 91 59 68 72 47 C83 25 91 12 96 6 C101 0 105 -4 109 -8 L148 24 L148 24 Z " />
<glyph glyph-name="parenright" unicode="&#x29;" horiz-adv-x="222" d="M74 681 L83 669 C90 661 97 647 106 629 C114 610 122 589 129 564 C136 540 141 509 142 471 C143 434 139 394 132 352 C124 311 111 271 96 233 C80 195 66 164 50 141 C36 117 20 96 2 75 C-14 55 -26 42 -32 36 C-38 30 -44 26 -48 24 L-18 -8 L-2 5 C8 14 21 29 39 49 C56 69 73 93 92 120 C110 146 128 180 145 222 C162 264 175 308 184 355 C193 401 196 445 194 487 C192 530 187 563 179 588 C172 613 163 637 151 658 C139 679 131 693 126 699 C121 705 117 709 114 712 L74 681 L74 681 Z " />
<glyph glyph-name="asterisk" unicode="&#x2a;" horiz-adv-x="280" d="M271 453 L265 494 L161 457 L185 561 L142 561 L130 457 L38 494 L18 453 L112 426 L33 345 L64 320 L136 407 L177 320 L216 345 L166 426 L271 453 L271 453 Z " />
<glyph glyph-name="plus" unicode="&#x2b;" horiz-adv-x="348" d="M222 430 L179 430 L156 300 L44 300 L36 257 L148 257 L124 127 L167 127 L191 257 L304 257 L312 300 L199 300 L222 430 L222 430 Z " />
<glyph glyph-name="comma" unicode="&#x2c;" horiz-adv-x="99" d="M44 -131 L97 53 L39 53 L1 -131 L44 -131 L44 -131 Z " />
<glyph glyph-name="hyphen" unicode="&#x2d;" horiz-adv-x="272" d="M243 260 L250 300 L32 300 L25 260 L243 260 L243 260 Z " />
<glyph glyph-name="period" unicode="&#x2e;" horiz-adv-x="136" d="M69 68 C49 68 28 52 25 30 C21 10 34 -8 56 -8 C76 -8 97 8 101 30 C104 51 91 67 69 68 L69 68 Z " />
<glyph glyph-name="slash" unicode="&#x2f;" horiz-adv-x="288" d="M-53 -8 L-5 -8 L341 680 L293 680 L-53 -8 L-53 -8 Z " />
<glyph glyph-name="zero" unicode="0" horiz-adv-x="311" d="M9 112 C2 76 7 47 25 25 C43 3 69 -8 102 -8 C135 -8 165 4 191 26 C217 48 234 78 240 114 L301 448 C308 484 303 514 285 535 C267 557 241 568 208 568 C175 568 146 557 119 534 C93 512 76 482 70 446 L9 112 Z M121 444 C125 467 134 485 149 499 C163 512 179 519 199 519 C217 519 231 512 241 499 C250 485 253 467 249 444 L188 116 C184 93 175 75 161 62 C146 49 130 42 112 42 C92 42 78 49 69 62 C59 75 56 93 60 116 L121 444 Z " />
<glyph glyph-name="one" unicode="1" horiz-adv-x="178" d="M51 489 L72 454 L125 492 L32 0 L85 0 L190 560 L147 560 L51 489 L51 489 Z " />
<glyph glyph-name="two" unicode="2" horiz-adv-x="264" d="M189 0 L198 48 L34 48 L207 309 C242 361 262 406 269 445 C276 482 272 512 254 534 C237 557 212 568 179 568 C147 568 119 557 93 535 C67 512 51 483 45 447 L35 392 L85 392 L94 444 C99 468 108 486 121 499 C135 512 151 519 169 519 C188 519 202 512 210 499 C219 486 222 468 217 444 C211 409 195 372 169 333 L-27 36 L-34 0 L189 0 L189 0 Z " />
<glyph glyph-name="three" unicode="3" horiz-adv-x="261" d="M268 455 C274 489 268 516 251 537 C233 558 210 568 179 568 C148 568 121 558 96 536 C71 514 56 486 50 452 L42 408 L92 408 L100 451 C104 472 112 489 125 501 C138 513 152 520 169 520 C185 520 198 513 207 501 C216 489 218 472 214 451 L201 382 C197 361 189 345 176 332 C163 320 148 314 132 314 L124 270 C143 270 157 263 166 250 C176 237 178 219 174 196 L159 115 C155 92 146 74 131 61 C118 48 101 41 82 41 C63 41 48 48 39 61 C30 74 28 92 32 115 L41 164 L-9 164 L-18 112 C-25 76 -19 47 -2 25 C14 3 39 -8 72 -8 C106 -8 136 3 162 26 C188 48 205 78 211 114 L225 191 C234 238 222 273 189 294 C226 314 248 346 255 389 L268 455 L268 455 Z " />
<glyph glyph-name="four" unicode="4" horiz-adv-x="279" d="M-1 195 L-9 150 L150 150 L122 0 L172 0 L200 150 L244 150 L252 194 L208 194 L275 560 L224 560 L-1 195 Z M42 194 L206 460 L158 194 L42 194 Z " />
<glyph glyph-name="five" unicode="5" horiz-adv-x="294" d="M37 264 L83 264 C87 282 95 297 108 308 C121 319 136 325 153 325 C170 325 184 319 193 306 C203 294 205 276 201 255 L175 114 C171 92 163 75 148 62 C135 48 119 42 102 42 C84 42 70 48 60 62 C52 75 49 92 53 114 L61 160 L10 160 L1 109 C-4 74 0 46 18 25 C35 3 60 -8 91 -8 C123 -8 152 3 179 26 C205 48 221 77 227 111 L255 262 C261 295 257 322 242 342 C225 362 203 372 174 372 C145 372 120 362 98 340 L130 511 L289 511 L297 560 L91 560 L37 264 L37 264 Z " />
<glyph glyph-name="six" unicode="6" horiz-adv-x="292" d="M0 115 C-8 77 -2 48 15 26 C33 3 59 -8 93 -8 C127 -8 158 4 184 27 C211 50 228 79 235 116 L257 236 C264 273 259 302 244 324 C228 345 204 356 171 356 C151 356 133 351 117 339 L254 560 L201 560 L59 329 C39 296 25 259 18 219 L0 115 Z M72 234 C76 258 86 276 100 290 C116 303 133 309 153 309 C173 309 188 303 197 290 C207 276 209 258 205 234 L183 118 C179 94 168 75 155 62 C139 49 123 42 103 42 C83 42 68 49 58 62 C48 75 46 94 50 118 L72 234 Z " />
<glyph glyph-name="seven" unicode="7" horiz-adv-x="256" d="M-6 0 L45 0 L287 524 L294 560 L62 560 L53 511 L231 511 L-6 0 L-6 0 Z " />
<glyph glyph-name="eight" unicode="8" horiz-adv-x="272" d="M45 397 C36 351 47 318 78 297 C36 275 10 239 1 190 L-12 116 C-18 79 -13 49 5 26 C23 4 49 -8 84 -8 C118 -8 149 4 176 27 C203 50 221 81 228 118 L241 192 C251 243 238 279 203 299 C241 321 264 354 272 400 L282 451 C288 486 283 514 265 536 C248 558 223 568 191 568 C159 568 130 557 103 535 C77 512 61 484 54 448 L45 397 Z M55 199 C59 223 69 242 84 256 C98 269 117 276 137 276 C157 276 171 269 182 256 C192 242 194 223 190 199 L175 118 C170 93 161 74 146 61 C131 47 114 40 94 40 C74 40 58 47 48 61 C38 74 35 93 40 118 L55 199 Z M106 449 C110 471 120 488 134 501 C147 514 163 520 181 520 C199 520 213 514 222 501 C231 488 233 471 229 449 L219 391 C215 369 205 351 192 338 C179 325 163 319 145 319 C127 319 113 325 104 338 C94 351 92 369 96 391 L106 449 Z " />
<glyph glyph-name="nine" unicode="9" horiz-adv-x="314" d="M306 442 C313 479 307 509 289 531 C271 553 245 564 211 564 C176 564 146 553 119 530 C93 507 75 477 68 440 L46 320 C39 283 44 254 60 233 C76 211 100 200 133 200 C153 200 170 206 186 217 L50 -4 L102 -4 L244 227 C265 261 279 297 286 338 L306 442 Z M231 323 C227 299 218 280 203 267 C189 254 172 248 152 248 C131 248 116 254 107 267 C98 280 95 299 99 323 L121 439 C126 463 135 481 149 495 C164 508 181 515 201 515 C221 515 236 508 245 495 C255 481 258 463 253 439 L231 323 Z " />
<glyph glyph-name="colon" unicode="&#x3a;" horiz-adv-x="122" d="M102 502 C82 502 62 486 57 464 C54 445 66 427 87 427 C106 427 129 442 133 464 C137 485 123 501 102 502 L102 502 Z M36 155 C16 155 -3 139 -7 117 C-11 98 0 79 22 79 C41 79 64 95 68 117 C72 138 57 154 36 155 L36 155 Z " />
<glyph glyph-name="semicolon" unicode="&#x3b;" horiz-adv-x="119" d="M108 501 C88 501 68 485 64 463 C60 443 72 426 94 426 C113 426 136 441 140 463 C144 483 130 501 108 501 L108 501 Z M27 -18 L81 166 L22 166 L-15 -18 L27 -18 Z " />
<glyph glyph-name="less" unicode="&#x3c;" horiz-adv-x="331" d="M326 435 L342 487 L44 321 L35 277 L273 111 L277 166 L81 300 L326 435 L326 435 Z " />
<glyph glyph-name="equal" unicode="&#x3d;" horiz-adv-x="327" d="M305 350 L313 394 L45 394 L37 350 L305 350 Z M278 206 L286 250 L18 250 L10 206 L278 206 Z " />
<glyph glyph-name="greater" unicode="&#x3e;" horiz-adv-x="336" d="M2 164 L-8 112 L292 280 L300 322 L61 488 L52 434 L250 300 L2 164 L2 164 Z " />
<glyph glyph-name="question" unicode="&#x3f;" horiz-adv-x="254" d="M133 188 C136 208 145 229 158 251 C172 273 186 293 200 310 C214 327 229 348 242 372 C256 397 265 421 270 445 C276 482 271 512 254 534 C236 557 212 568 179 568 C146 568 118 557 92 535 C67 512 50 482 44 445 L35 400 L86 400 L95 444 C99 468 107 486 121 499 C135 512 150 519 168 519 C187 519 201 512 211 499 C219 486 222 468 218 444 C213 422 204 399 191 375 C177 351 164 331 150 314 C136 297 122 277 109 254 C96 232 88 210 84 190 L80 166 L129 166 L133 188 Z M86 68 C67 68 46 51 42 30 C38 11 50 -8 72 -8 C92 -8 114 8 118 30 C122 51 108 67 86 68 L86 68 Z " />
<glyph glyph-name="at" unicode="&#x40;" horiz-adv-x="751" d="M245 256 C236 230 239 209 250 192 C260 175 279 167 305 167 C334 167 372 189 386 219 C372 180 380 142 398 122 C413 102 439 92 475 92 C531 92 580 114 625 158 C669 202 698 258 710 328 C728 425 710 507 658 575 C605 642 532 676 437 676 C343 676 258 642 180 574 C103 506 55 424 37 327 C20 233 39 154 91 89 C144 25 217 -8 311 -8 C332 -8 356 -5 386 1 L386 42 C366 38 345 36 320 36 C239 36 175 64 130 121 C83 178 68 247 82 327 C98 412 139 484 207 544 C274 603 348 632 429 632 C512 632 576 603 621 544 C666 485 681 412 665 325 C655 270 634 225 600 189 C566 153 528 135 486 135 C461 135 443 142 432 157 C422 172 421 193 429 219 L519 496 L477 496 L464 464 C457 490 438 503 406 503 C381 503 359 495 339 480 C319 465 306 445 297 419 L245 256 Z M344 412 C354 444 374 459 404 459 C422 459 435 454 443 444 C450 433 450 420 444 403 L393 258 C382 226 362 211 331 211 C315 211 304 216 297 226 C290 235 290 248 296 264 L344 412 Z " />
<glyph glyph-name="A" unicode="A" horiz-adv-x="300" d="M229 560 L169 560 L-37 0 L15 0 L67 142 L187 142 L189 0 L237 0 L229 560 Z M183 459 L187 186 L83 186 L183 459 Z " />
<glyph glyph-name="B" unicode="B" horiz-adv-x="305" d="M-11 0 L107 0 C145 0 178 12 207 36 C235 60 253 93 261 134 L268 174 C274 204 272 230 263 250 C254 271 240 286 218 295 C264 316 293 356 304 414 L307 428 C314 470 308 502 289 525 C272 548 242 560 204 560 L91 560 L-11 0 Z M135 514 L190 514 C214 514 232 506 243 491 C253 476 256 454 251 426 L247 402 C242 373 231 352 215 336 C198 321 178 314 154 314 L99 314 L135 514 Z M91 270 L154 270 C178 270 195 263 207 248 C218 232 220 211 215 182 L206 134 C200 105 191 84 174 68 C157 53 137 46 113 46 L50 46 L91 270 Z " />
<glyph glyph-name="C" unicode="C" horiz-adv-x="313" d="M193 118 C189 94 179 76 165 62 C150 49 134 42 114 42 C94 42 79 49 70 62 C60 76 57 94 61 118 L124 442 C128 465 139 484 153 497 C168 511 185 518 205 518 C225 518 239 511 248 497 C258 484 260 465 256 442 L242 372 L294 372 L308 445 C315 482 310 512 293 534 C276 557 250 568 216 568 C181 568 149 556 122 533 C95 510 78 479 71 442 L8 116 C1 78 6 48 24 26 C42 3 68 -8 103 -8 C137 -8 167 3 195 26 C221 49 238 80 245 117 L260 196 L208 196 L193 118 L193 118 Z " />
<glyph glyph-name="D" unicode="D" horiz-adv-x="324" d="M-12 0 L100 0 C139 0 174 12 202 36 C231 60 249 93 257 136 L311 426 C318 468 313 501 294 525 C274 548 246 560 207 560 L92 560 L-12 0 Z M136 511 L194 511 C219 511 237 504 247 488 C258 473 261 451 256 423 L203 137 C198 109 187 87 170 72 C154 56 134 49 109 49 L51 49 L136 511 Z " />
<glyph glyph-name="E" unicode="E" horiz-adv-x="257" d="M187 0 L197 51 L51 51 L91 268 L209 268 L218 316 L100 316 L136 509 L278 509 L288 560 L92 560 L-12 0 L187 0 L187 0 Z " />
<glyph glyph-name="F" unicode="F" horiz-adv-x="253" d="M205 268 L214 316 L100 316 L137 509 L275 509 L284 560 L92 560 L-12 0 L41 0 L91 268 L205 268 L205 268 Z " />
<glyph glyph-name="G" unicode="G" horiz-adv-x="328" d="M306 380 L317 440 C324 479 319 510 299 533 C280 556 253 568 217 568 C181 568 149 556 122 532 C93 508 76 477 68 438 L10 120 C3 81 9 50 28 27 C47 4 75 -8 110 -8 C138 -8 163 -1 186 13 L183 0 L236 0 L259 122 L294 316 L176 316 L167 268 L232 268 L206 122 C201 97 191 77 176 62 C160 48 141 41 120 41 C99 41 83 48 73 62 C62 77 60 97 65 122 L122 438 C127 462 136 482 152 496 C168 510 186 518 207 518 C228 518 244 510 254 496 C263 482 267 462 262 438 L252 380 L306 380 L306 380 Z " />
<glyph glyph-name="H" unicode="H" horiz-adv-x="324" d="M177 0 L231 0 L336 560 L282 560 L237 321 L101 321 L146 560 L92 560 L-12 0 L41 0 L92 270 L228 270 L177 0 L177 0 Z " />
<glyph glyph-name="I" unicode="I" horiz-adv-x="136" d="M-12 0 L43 0 L148 560 L92 560 L-12 0 L-12 0 Z " />
<glyph glyph-name="J" unicode="J" horiz-adv-x="175" d="M-47 -8 L-19 -8 C9 -8 36 2 58 21 C82 40 96 67 102 101 L187 560 L132 560 L49 110 C40 66 16 43 -24 43 C-29 43 -34 43 -38 43 L-47 -8 Z " />
<glyph glyph-name="K" unicode="K" horiz-adv-x="304" d="M-12 0 L41 0 L93 276 L178 0 L240 0 L146 291 L336 560 L275 560 L98 302 L146 560 L92 560 L-12 0 L-12 0 Z " />
<glyph glyph-name="L" unicode="L" horiz-adv-x="244" d="M172 0 L182 51 L52 51 L145 560 L91 560 L-11 0 L172 0 L172 0 Z " />
<glyph glyph-name="M" unicode="M" horiz-adv-x="416" d="M159 92 L184 93 L351 432 L272 0 L324 0 L427 560 L374 560 L192 190 L146 560 L91 560 L-11 0 L39 0 L117 427 L159 92 L159 92 Z " />
<glyph glyph-name="N" unicode="N" horiz-adv-x="332" d="M191 0 L240 0 L345 560 L296 560 L216 130 L145 560 L92 560 L-12 0 L36 0 L118 439 L191 0 L191 0 Z " />
<glyph glyph-name="O" unicode="O" horiz-adv-x="328" d="M10 120 C3 81 8 50 27 27 C47 4 74 -8 110 -8 C145 -8 177 4 205 28 C234 51 251 83 259 122 L317 440 C324 479 318 510 299 533 C279 556 252 568 216 568 C181 568 149 556 121 532 C92 508 76 477 68 438 L10 120 Z M121 438 C126 462 136 482 152 496 C168 510 186 518 207 518 C227 518 243 510 253 496 C263 482 266 462 261 438 L204 122 C199 97 190 78 174 64 C158 49 140 42 120 42 C99 42 83 49 73 64 C63 78 59 97 64 122 L121 438 Z " />
<glyph glyph-name="P" unicode="P" horiz-adv-x="313" d="M-12 0 L40 0 L82 224 L140 224 C180 224 215 236 244 260 C272 285 291 318 299 362 L311 424 C319 467 313 501 294 524 C275 548 245 560 204 560 L92 560 L-12 0 Z M136 511 L195 511 C219 511 237 504 248 488 C258 473 261 451 256 423 L244 360 C238 332 227 310 211 295 C195 280 174 272 150 272 L91 272 L136 511 Z " />
<glyph glyph-name="Q" unicode="Q" horiz-adv-x="329" d="M267 121 L327 440 C335 479 329 510 310 533 C290 556 264 568 228 568 C193 568 160 556 132 532 C103 508 85 477 78 438 L18 120 C11 81 17 50 35 27 C55 4 82 -8 118 -8 C126 -8 133 -7 141 -6 L157 -96 L212 -99 L189 12 C231 35 258 71 267 121 L267 121 Z M212 122 C208 97 198 78 182 64 C181 63 180 62 180 61 L177 73 L130 57 L133 43 C131 43 129 42 127 42 C107 42 92 49 81 64 C71 78 68 97 72 122 L132 438 C137 462 147 482 163 496 C179 510 197 518 217 518 C238 518 254 510 264 496 C274 482 277 462 272 438 L212 122 L212 122 Z " />
<glyph glyph-name="R" unicode="R" horiz-adv-x="310" d="M301 370 L311 424 C319 467 313 501 293 524 C275 548 245 560 204 560 L91 560 L-11 0 L42 0 L85 234 L139 234 C142 234 145 234 147 234 C168 236 188 225 195 214 C205 201 208 182 203 159 L174 0 L226 0 L256 162 C263 199 257 229 239 251 C237 255 234 258 231 261 C268 283 292 319 301 370 L301 370 Z M182 284 C173 281 162 279 151 279 L93 279 L136 511 L194 511 C219 511 236 504 248 488 C258 473 261 451 256 423 L245 367 C240 339 229 317 214 302 C204 293 194 287 182 284 L182 284 Z " />
<glyph glyph-name="S" unicode="S" horiz-adv-x="284" d="M45 156 L-6 156 L-13 119 C-20 80 -15 49 2 26 C21 3 47 -8 83 -8 C119 -8 151 4 178 27 C207 51 224 81 231 119 C237 154 234 187 223 217 C211 247 191 279 162 311 C138 338 121 361 113 382 C104 402 102 423 106 446 C110 469 119 486 133 499 C147 512 164 518 184 518 C204 518 219 512 228 498 C238 484 244 466 239 442 L234 416 L285 416 L291 445 C297 482 290 512 272 534 C254 557 228 568 194 568 C160 568 129 557 102 534 C75 511 57 482 51 445 C41 390 61 334 113 276 C140 245 159 217 170 194 C180 171 182 146 177 118 C172 94 163 76 148 62 C132 48 114 41 93 41 C72 41 57 48 47 63 C36 77 34 97 39 122 L45 156 L45 156 Z " />
<glyph glyph-name="T" unicode="T" horiz-adv-x="294" d="M313 509 L323 560 L73 560 L63 509 L161 509 L68 0 L122 0 L215 509 L313 509 L313 509 Z " />
<glyph glyph-name="U" unicode="U" horiz-adv-x="320" d="M276 560 L198 118 C193 94 184 76 170 62 C155 49 138 42 118 42 C99 42 84 49 74 62 C64 76 61 94 66 118 L144 560 L90 560 L11 116 C4 78 10 48 28 26 C47 3 73 -8 108 -8 C142 -8 173 3 200 26 C227 49 245 80 252 118 L330 560 L276 560 L276 560 Z " />
<glyph glyph-name="V" unicode="V" horiz-adv-x="291" d="M63 0 L122 0 L332 560 L284 560 L119 116 L120 560 L63 560 L63 0 L63 0 Z " />
<glyph glyph-name="W" unicode="W" horiz-adv-x="428" d="M44 0 L99 0 L241 414 L230 0 L280 0 L468 560 L422 560 L281 133 L294 560 L249 560 L102 126 L117 560 L61 560 L44 0 L44 0 Z " />
<glyph glyph-name="X" unicode="X" horiz-adv-x="306" d="M342 560 L284 560 L169 363 L126 560 L67 560 L125 289 L-43 0 L12 0 L140 217 L187 0 L247 0 L184 291 L342 560 L342 560 Z " />
<glyph glyph-name="Y" unicode="Y" horiz-adv-x="282" d="M61 0 L116 0 L157 224 L326 560 L270 560 L143 291 L115 560 L58 560 L103 226 L61 0 L61 0 Z " />
<glyph glyph-name="Z" unicode="Z" horiz-adv-x="244" d="M172 0 L181 49 L21 49 L268 522 L275 560 L71 560 L62 511 L208 511 L-36 39 L-43 0 L172 0 L172 0 Z " />
<glyph glyph-name="bracketleft" unicode="&#x5b;" horiz-adv-x="226" d="M144 -8 L152 38 L36 38 L145 634 L261 634 L269 680 L102 680 L-22 -8 L144 -8 L144 -8 Z " />
<glyph glyph-name="backslash" unicode="&#x5c;" horiz-adv-x="308" d="M118 680 L70 680 L169 -8 L217 -8 L118 680 L118 680 Z " />
<glyph glyph-name="bracketright" unicode="&#x5d;" horiz-adv-x="228" d="M124 -8 L251 680 L82 680 L74 634 L190 634 L79 38 L-36 38 L-44 -8 L124 -8 L124 -8 Z " />
<glyph glyph-name="asciicircum" unicode="&#x5e;" horiz-adv-x="310" d="M224 289 L279 289 L219 561 L176 561 L22 289 L77 289 L186 494 L224 289 L224 289 Z " />
<glyph glyph-name="underscore" unicode="&#x5f;" horiz-adv-x="407" d="M365 0 L372 40 L52 40 L45 0 L365 0 L365 0 Z " />
<glyph glyph-name="grave" unicode="&#x60;" horiz-adv-x="154" d="M132 560 L76 560 L114 431 L156 431 L132 560 L132 560 Z " />
<glyph glyph-name="a" unicode="a" horiz-adv-x="297" d="M7 108 C1 73 6 45 21 24 C35 3 58 -8 88 -8 C132 -8 174 31 187 77 L173 0 L219 0 L275 303 C281 336 276 363 259 384 C241 405 217 415 186 415 C156 415 128 405 104 383 C80 362 63 334 57 300 L108 303 C111 323 119 339 133 351 C146 364 161 370 177 370 C194 370 207 364 216 351 C224 339 226 323 223 303 L205 207 C191 232 168 245 136 245 C106 245 79 234 56 212 C32 190 17 161 11 127 L7 108 Z M63 128 C67 151 76 169 91 182 C104 196 122 203 141 203 C160 203 174 196 184 182 C192 169 195 151 191 128 L188 111 C183 88 174 70 161 57 C146 43 129 36 110 36 C91 36 76 43 68 57 C58 70 55 88 60 111 L63 128 Z " />
<glyph glyph-name="b" unicode="b" horiz-adv-x="308" d="M-12 0 L35 0 L50 77 C43 19 77 -8 113 -8 C142 -8 168 2 191 23 C214 44 229 70 235 103 L273 307 C280 340 275 366 260 386 C246 405 224 415 195 415 C162 415 135 403 112 377 L146 560 L93 560 L-12 0 Z M184 111 C180 90 171 72 156 59 C143 47 127 40 109 40 C91 40 77 47 68 59 C59 72 57 90 61 111 L96 296 C100 318 109 335 123 348 C137 361 153 367 171 367 C189 367 203 361 211 348 C221 335 223 318 219 296 L184 111 Z " />
<glyph glyph-name="c" unicode="c" horiz-adv-x="298" d="M200 156 L191 108 C187 87 178 71 165 59 C152 46 137 40 120 40 C103 40 90 46 81 59 C72 71 70 87 74 108 L109 299 C113 320 121 337 134 349 C147 361 163 367 180 367 C197 367 209 361 218 349 C227 337 230 320 226 299 L218 255 L267 255 L276 302 C282 336 277 363 261 384 C243 405 220 415 189 415 C158 415 130 405 104 383 C78 361 63 334 57 299 L22 106 C16 72 21 45 38 24 C55 3 79 -8 110 -8 C141 -8 168 3 193 25 C219 47 234 75 240 108 L249 156 L200 156 L200 156 Z " />
<glyph glyph-name="d" unicode="d" horiz-adv-x="307" d="M319 560 L267 560 L234 380 C221 404 198 415 166 415 C137 415 111 405 89 385 C66 365 51 338 45 305 L7 100 C1 68 5 42 20 22 C35 2 57 -8 86 -8 C122 -8 166 13 182 77 L168 0 L215 0 L319 560 Z M95 296 C99 318 108 335 122 348 C136 361 152 367 170 367 C188 367 202 361 211 348 C220 335 222 318 218 296 L184 111 C180 90 172 72 157 59 C144 47 128 40 110 40 C92 40 78 47 68 59 C60 72 57 90 61 111 L95 296 Z " />
<glyph glyph-name="e" unicode="e" horiz-adv-x="304" d="M198 111 C194 90 186 72 171 59 C158 47 142 40 124 40 C106 40 92 47 82 59 C74 72 71 90 75 111 L92 207 L264 207 L281 299 C288 335 283 363 266 384 C248 405 224 415 192 415 C160 415 131 404 105 383 C79 361 63 332 57 298 L22 108 C16 74 22 45 39 24 C56 3 80 -8 112 -8 C144 -8 173 3 199 25 C224 47 240 75 247 111 L251 132 L202 132 L198 111 Z M109 299 C113 321 122 339 136 351 C150 364 166 371 184 371 C202 371 216 364 225 351 C234 339 236 321 232 299 L222 244 L99 244 L109 299 Z " />
<glyph glyph-name="f" unicode="f" horiz-adv-x="212" d="M27 363 L79 363 L13 0 L65 0 L131 363 L211 363 L219 407 L139 407 L148 461 C156 501 176 521 210 521 C219 521 239 521 239 521 L248 568 L207 568 C178 568 154 560 135 543 C116 525 104 501 97 467 L87 407 L35 407 L27 363 L27 363 Z " />
<glyph glyph-name="g" unicode="g" horiz-adv-x="291" d="M309 407 L261 407 L247 331 C252 382 218 415 183 415 C154 415 128 405 106 385 C83 365 68 338 62 305 L31 136 C25 104 30 77 45 58 C59 38 81 28 110 28 C143 28 171 41 194 66 L179 -18 C175 -40 166 -57 151 -70 C138 -83 122 -89 104 -89 C86 -89 72 -83 63 -70 C54 -57 51 -40 55 -18 L57 -6 L8 -6 L6 -19 C0 -54 4 -82 21 -104 C38 -125 62 -136 94 -136 C126 -136 155 -125 181 -102 C207 -80 225 -51 231 -17 L309 407 Z M112 296 C116 318 125 335 140 348 C153 361 169 367 187 367 C205 367 219 361 228 348 C237 335 240 318 236 296 L208 144 C205 123 195 106 181 93 C167 81 152 75 134 75 C116 75 102 81 93 94 C84 107 81 124 85 146 L112 296 Z " />
<glyph glyph-name="h" unicode="h" horiz-adv-x="303" d="M210 0 L268 307 C274 341 271 367 257 387 C243 406 223 415 196 415 C161 415 116 384 100 331 L143 560 L92 560 L-12 0 L38 0 L95 302 C98 322 107 338 122 350 C136 362 152 367 170 367 C187 367 200 361 208 349 C216 337 218 320 214 298 L158 0 L210 0 L210 0 Z " />
<glyph glyph-name="i" unicode="i" horiz-adv-x="134" d="M117 560 C97 560 76 544 72 522 C68 502 81 484 103 484 C123 484 144 500 148 522 C152 542 139 560 117 560 L117 560 Z M-10 0 L43 0 L116 407 L62 407 L-10 0 Z " />
<glyph glyph-name="j" unicode="j" horiz-adv-x="134" d="M-84 -136 L-54 -136 C-30 -136 -9 -128 9 -111 C28 -95 40 -73 46 -45 L130 407 L76 407 L-7 -41 C-9 -56 -16 -68 -24 -76 C-34 -85 -44 -89 -56 -89 C-63 -89 -75 -89 -75 -89 L-84 -136 Z M130 560 C111 560 90 543 86 522 C83 503 95 484 116 484 C136 484 158 500 162 522 C166 542 152 560 130 560 L130 560 Z " />
<glyph glyph-name="k" unicode="k" horiz-adv-x="287" d="M-11 0 L40 0 L78 208 L158 0 L220 0 L129 223 L287 407 L226 407 L82 228 L143 560 L91 560 L-11 0 L-11 0 Z " />
<glyph glyph-name="l" unicode="l" horiz-adv-x="133" d="M-9 0 L43 0 L142 560 L89 560 L-9 0 L-9 0 Z " />
<glyph glyph-name="m" unicode="m" horiz-adv-x="467" d="M108 298 C113 320 122 337 135 349 C148 361 164 367 181 367 C199 367 211 361 219 349 C227 337 228 320 223 298 L168 0 L220 0 L276 301 C280 322 289 338 302 350 C316 362 331 367 348 367 C366 367 379 361 386 349 C394 337 396 320 391 298 L336 0 L388 0 L445 307 C451 341 447 367 434 387 C422 406 401 415 374 415 C334 415 302 397 278 360 C270 397 246 415 207 415 C170 415 131 386 110 331 L124 407 L77 407 L1 0 L53 0 L108 298 L108 298 Z " />
<glyph glyph-name="n" unicode="n" horiz-adv-x="304" d="M108 298 C113 320 122 337 136 349 C149 361 165 367 183 367 C201 367 214 361 222 349 C231 337 233 320 228 298 L173 0 L225 0 L282 307 C288 341 284 367 271 387 C258 406 237 415 209 415 C171 415 122 383 110 331 L124 407 L77 407 L1 0 L53 0 L108 298 L108 298 Z " />
<glyph glyph-name="o" unicode="o" horiz-adv-x="307" d="M22 109 C16 74 20 45 38 24 C56 3 80 -8 112 -8 C144 -8 173 3 201 26 C227 48 243 77 249 111 L284 299 C291 333 285 361 267 383 C250 405 225 415 193 415 C161 415 131 404 106 382 C80 360 63 331 57 296 L22 109 Z M109 296 C113 318 121 335 135 348 C149 361 165 367 183 367 C201 367 215 361 224 348 C233 335 236 318 232 296 L197 111 C193 90 184 72 171 59 C156 47 140 40 122 40 C104 40 90 47 82 59 C72 72 70 90 74 111 L109 296 Z " />
<glyph glyph-name="p" unicode="p" horiz-adv-x="307" d="M-11 -128 L40 -128 L70 27 C82 4 105 -8 137 -8 C166 -8 192 2 215 23 C238 44 253 70 259 103 L297 307 C304 340 300 366 284 386 C270 405 248 415 219 415 C183 415 136 385 122 331 L136 407 L89 407 L-11 -128 Z M208 111 C204 90 195 72 182 59 C167 47 152 40 134 40 C115 40 102 47 93 59 C84 72 81 90 85 111 L120 296 C125 318 134 335 147 348 C162 361 177 367 196 367 C214 367 227 361 236 348 C245 335 248 318 243 296 L208 111 Z " />
<glyph glyph-name="q" unicode="q" horiz-adv-x="307" d="M316 407 L269 407 L254 331 C262 392 226 415 191 415 C162 415 136 405 114 385 C91 365 76 338 70 305 L32 100 C26 68 30 42 45 22 C59 2 81 -8 109 -8 C143 -8 171 5 193 30 L164 -128 L216 -128 L316 407 Z M120 296 C124 318 133 335 147 348 C161 361 177 367 195 367 C213 367 227 361 236 348 C245 335 247 318 243 296 L209 111 C205 90 196 72 182 59 C169 47 152 40 134 40 C116 40 103 47 93 59 C84 72 82 90 86 111 L120 296 Z " />
<glyph glyph-name="r" unicode="r" horiz-adv-x="202" d="M224 415 C172 415 128 383 111 331 L125 407 L77 407 L1 0 L53 0 L103 267 C108 298 121 321 138 337 C155 352 177 360 203 360 L214 360 L224 415 L224 415 Z " />
<glyph glyph-name="s" unicode="s" horiz-adv-x="275" d="M212 299 L261 299 L264 311 C269 342 264 367 247 386 C230 406 206 415 175 415 C144 415 116 406 92 386 C68 367 53 342 48 312 C39 261 60 222 114 193 C140 179 159 165 168 151 C178 137 181 122 178 103 C174 84 166 68 151 56 C138 44 122 39 104 39 C86 39 72 44 63 56 C54 68 50 84 54 104 L56 116 L7 116 L5 103 C0 70 4 43 22 23 C39 2 64 -8 96 -8 C128 -8 157 3 183 24 C209 45 224 72 230 104 C235 134 232 158 219 179 C207 199 185 217 156 232 C132 245 116 257 107 269 C99 281 96 296 99 312 C102 329 110 343 123 354 C136 364 150 370 167 370 C184 370 196 364 205 353 C214 342 218 328 215 311 L212 299 L212 299 Z " />
<glyph glyph-name="t" unicode="t" horiz-adv-x="204" d="M28 363 L80 363 L29 93 C23 60 26 35 39 18 C52 1 72 -8 100 -8 C115 -8 142 -8 142 -8 L151 40 L121 40 C87 40 75 60 83 100 L132 363 L216 363 L225 407 L141 407 L161 512 L109 512 L89 407 L37 407 L28 363 L28 363 Z " />
<glyph glyph-name="u" unicode="u" horiz-adv-x="304" d="M196 110 C192 88 183 71 168 59 C154 46 138 40 120 40 C103 40 90 46 81 59 C74 71 72 88 76 110 L129 407 L77 407 L22 100 C16 67 19 40 34 21 C47 2 67 -8 94 -8 C132 -8 182 24 194 76 L180 0 L228 0 L301 407 L249 407 L196 110 L196 110 Z " />
<glyph glyph-name="v" unicode="v" horiz-adv-x="252" d="M57 0 L114 0 L283 407 L238 407 L107 91 L98 407 L43 407 L57 0 L57 0 Z " />
<glyph glyph-name="w" unicode="w" horiz-adv-x="372" d="M48 0 L100 0 L206 284 L203 0 L248 0 L401 407 L360 407 L245 98 L248 407 L213 407 L98 103 L101 407 L48 407 L48 0 L48 0 Z " />
<glyph glyph-name="x" unicode="x" horiz-adv-x="268" d="M292 407 L239 407 L146 268 L106 407 L51 407 L109 211 L-31 0 L20 0 L125 156 L171 0 L225 0 L162 213 L292 407 L292 407 Z " />
<glyph glyph-name="y" unicode="y" horiz-adv-x="260" d="M81 0 C67 -35 54 -60 43 -72 C30 -85 16 -91 0 -91 C-6 -91 -15 -91 -15 -91 L-23 -136 L1 -136 C65 -136 100 -66 124 -12 L299 407 L247 407 L122 81 L115 407 L59 407 L81 0 L81 0 Z " />
<glyph glyph-name="z" unicode="z" horiz-adv-x="211" d="M-22 35 L-28 0 L163 0 L171 45 L34 45 L232 373 L238 407 L58 407 L50 363 L176 363 L-22 35 L-22 35 Z " />
<glyph glyph-name="braceleft" unicode="&#x7b;" horiz-adv-x="259" d="M126 260 C131 284 129 302 122 315 C114 328 102 335 86 336 C103 337 117 344 130 358 C142 371 150 389 155 412 L184 571 C188 594 197 610 209 620 C222 630 239 636 260 636 L297 636 L305 680 L264 680 C190 680 146 643 132 569 L102 409 C99 390 93 377 84 370 C74 362 61 359 43 359 L18 359 L9 314 L34 314 C52 314 65 310 71 303 C78 295 78 282 75 263 L45 104 C31 29 63 -8 137 -8 L178 -8 L186 37 L149 37 C127 37 112 42 104 52 C96 62 93 79 97 101 L126 260 L126 260 Z " />
<glyph glyph-name="bar" unicode="&#x7c;" horiz-adv-x="128" d="M-24 -8 L23 -8 L152 712 L104 712 L-24 -8 L-24 -8 Z " />
<glyph glyph-name="braceright" unicode="&#x7d;" horiz-adv-x="266" d="M134 412 C129 389 131 371 139 358 C146 344 158 337 175 336 C157 335 143 328 131 315 C118 302 110 284 105 260 L76 101 C72 79 63 62 51 52 C38 42 21 37 0 37 L-36 37 L-44 -8 L-3 -8 C71 -8 114 29 128 104 L158 263 C161 282 167 295 176 303 C186 310 199 314 217 314 L243 314 L252 359 L226 359 C208 359 195 362 189 370 C182 377 182 390 185 409 L215 569 C229 643 198 680 123 680 L82 680 L74 636 L111 636 C133 636 148 630 156 620 C164 610 167 594 163 571 L134 412 L134 412 Z " />
<glyph glyph-name="asciitilde" unicode="&#x7e;" horiz-adv-x="342" d="M61 247 L65 260 C67 269 72 278 79 286 C87 295 96 299 107 299 C117 299 127 296 136 290 C145 284 153 277 158 270 C165 262 174 255 185 249 C194 242 208 239 222 239 C237 239 250 243 263 250 C275 257 284 265 291 274 C298 282 304 292 309 303 C314 315 316 323 318 327 C319 332 319 335 320 338 L278 338 L275 324 C273 316 267 307 260 298 C252 289 243 285 233 285 C220 285 208 290 197 300 C187 310 175 320 163 330 C149 340 134 345 116 345 C101 345 89 341 76 334 C64 327 55 319 48 311 C41 302 36 292 30 281 C25 270 23 262 22 257 C20 253 20 249 19 247 L61 247 L61 247 Z " />
<glyph glyph-name="exclamdown" unicode="&#xa1;" horiz-adv-x="105" d="M91 492 C111 492 132 509 136 531 C139 551 125 568 104 568 C85 568 64 553 60 531 C56 511 70 493 91 492 L91 492 Z M91 395 L55 395 L-29 0 L32 0 L91 395 Z " />
<glyph glyph-name="cent" unicode="&#xa2;" horiz-adv-x="298" d="M267 252 L275 298 C281 328 277 353 265 373 C253 393 233 406 208 410 L219 468 L181 468 L170 409 C142 405 118 392 97 372 C75 351 63 326 57 296 L22 103 C16 72 20 47 34 27 C47 7 67 -5 93 -9 L82 -68 L120 -68 L131 -8 C158 -4 181 8 201 29 C222 49 234 74 240 104 L249 152 L200 152 L191 105 C187 84 178 68 165 55 C158 48 150 43 140 40 L152 102 L114 102 L102 40 C94 43 87 48 81 55 C72 68 70 84 74 105 L109 296 C113 317 121 333 135 345 C142 353 151 358 161 361 L151 307 L189 307 L199 361 C206 358 213 353 218 345 C227 333 230 317 226 296 L218 252 L267 252 L267 252 Z " />
<glyph glyph-name="sterling" unicode="&#xa3;" horiz-adv-x="312" d="M323 400 L333 451 C339 487 334 516 317 537 C299 558 274 568 242 568 C209 568 180 557 154 536 C128 514 112 485 105 448 L75 289 L15 289 L9 253 L69 253 L31 48 L-28 48 L-37 0 L22 0 L74 0 L238 0 L247 48 L83 48 L121 253 L225 253 L231 289 L127 289 L157 447 C161 470 170 488 184 501 C197 513 213 519 232 519 C250 519 264 513 273 501 C281 488 284 470 280 447 L271 400 L323 400 L323 400 Z " />
<glyph glyph-name="currency" unicode="&#xa4;" horiz-adv-x="402" d="M98 355 C69 328 51 295 45 257 C37 217 43 184 61 158 L-1 106 L21 78 L84 131 C108 111 138 101 173 101 C208 101 241 111 270 130 L317 78 L350 106 L305 157 C335 187 353 220 360 258 C366 295 360 328 343 358 L405 409 L382 437 L318 384 C294 404 266 413 231 413 C196 413 163 403 133 384 L86 437 L53 409 L98 355 Z M110 179 C94 200 89 226 95 257 C100 288 115 314 139 335 C164 356 192 367 223 367 C254 367 277 356 294 335 C310 314 316 288 311 257 C305 226 289 200 265 179 C240 158 214 148 183 148 C152 148 127 158 110 179 L110 179 Z " />
<glyph glyph-name="yen" unicode="&#xa5;" horiz-adv-x="316" d="M78 0 L133 0 L164 167 L255 167 L261 202 L170 202 L180 258 L185 268 L273 268 L280 303 L205 303 L343 560 L288 560 L165 316 L132 560 L75 560 L119 303 L44 303 L37 268 L125 268 L126 260 L115 202 L25 202 L19 167 L109 167 L78 0 L78 0 Z " />
<glyph glyph-name="brokenbar" unicode="&#xa6;" horiz-adv-x="131" d="M154 712 L107 712 L59 446 L106 446 L154 712 Z M-21 -8 L25 -8 L73 258 L26 258 L-21 -8 Z " />
<glyph glyph-name="section" unicode="&#xa7;" horiz-adv-x="374" d="M205 33 C202 14 193 -1 179 -13 C165 -24 148 -30 130 -30 C111 -30 98 -24 88 -11 C78 1 75 17 79 37 L82 55 L32 55 L28 35 C22 2 27 -25 45 -45 C63 -65 88 -75 121 -75 C154 -75 184 -64 210 -44 C236 -23 253 3 258 35 C265 72 256 107 230 140 C258 148 282 162 301 181 C321 201 333 225 338 253 C344 284 339 311 323 335 C309 358 281 383 244 409 C216 428 197 446 187 463 C176 479 173 499 177 520 C180 540 189 555 203 566 C217 578 234 584 252 584 C271 584 284 578 294 565 C304 553 307 537 303 517 L300 499 L350 499 L354 519 C360 552 355 579 336 599 C319 619 294 629 261 629 C228 629 198 619 172 598 C146 578 129 551 124 519 C117 482 126 447 151 415 C124 407 100 393 80 373 C61 353 49 329 44 301 C38 270 43 243 58 219 C73 196 101 171 138 145 C165 126 184 108 195 92 C206 75 209 56 205 33 L205 33 Z M201 370 C236 346 260 325 272 308 C285 291 290 272 285 250 C282 229 270 211 253 196 C237 181 217 174 197 173 L181 184 C146 209 122 230 109 247 C97 263 93 283 97 304 C101 326 111 344 129 358 C145 372 164 381 185 382 L201 370 Z " />
<glyph glyph-name="dieresis" unicode="&#xa8;" horiz-adv-x="262" d="M135 560 C116 560 96 545 93 524 C89 506 102 489 122 489 C140 489 161 503 165 524 C168 543 156 560 135 560 L135 560 Z M255 560 C236 560 215 546 212 524 C208 505 222 489 242 489 C260 489 280 503 284 524 C287 543 276 559 255 560 L255 560 Z " />
<glyph glyph-name="copyright" unicode="&#xa9;" horiz-adv-x="659" d="M159 484 C93 428 51 360 36 279 C21 198 37 130 81 75 C126 20 190 -8 272 -8 C354 -8 428 20 496 76 C562 132 603 201 618 282 C633 363 619 431 573 486 C528 541 465 568 382 568 C300 568 226 540 159 484 L159 484 Z M118 103 C78 151 64 210 78 280 C91 351 126 410 184 458 C241 506 304 530 374 530 C444 530 499 506 538 458 C577 410 590 351 577 280 C563 210 529 151 472 103 C415 55 351 31 281 31 C211 31 157 55 118 103 L118 103 Z M415 208 L410 204 C408 201 404 197 398 193 C392 188 385 184 378 179 C370 175 360 172 350 169 C338 166 327 164 315 164 C283 164 257 175 239 197 C220 220 214 247 221 280 C227 313 243 341 270 363 C296 385 326 396 358 396 C376 396 392 393 405 385 C419 378 428 372 431 368 C434 363 436 360 439 357 L476 384 L473 390 C471 394 466 398 462 404 C455 409 448 414 440 419 C433 425 422 429 409 433 C396 437 381 439 366 439 C319 439 278 423 241 392 C205 361 183 324 174 279 C166 234 174 196 197 167 C222 137 257 122 304 122 C320 122 336 124 351 128 C367 133 380 137 390 143 C400 148 409 154 418 161 C427 168 433 173 435 176 C438 178 440 180 441 182 L415 208 Z " />
<glyph glyph-name="ordfeminine" unicode="&#xaa;" horiz-adv-x="208" d="M25 380 C21 358 24 341 34 328 C44 315 59 308 78 308 C102 308 130 325 140 356 L132 313 L160 313 L194 500 C198 521 195 537 184 549 C173 561 159 568 139 568 C118 568 99 561 84 549 C69 536 60 520 56 499 L55 491 L85 491 L86 499 C88 511 93 521 101 528 C111 535 120 539 132 539 C143 539 153 535 158 528 C164 521 166 511 164 499 L154 445 C144 458 129 465 108 465 C89 465 71 458 56 444 C40 430 31 412 27 392 L25 380 Z M6 229 L145 229 L150 256 L11 256 L6 229 Z M58 391 C61 406 66 418 76 426 C85 435 96 440 110 440 C123 440 133 435 139 426 C145 418 147 406 144 391 L142 381 C140 367 134 355 124 347 C116 338 104 333 91 333 C77 333 68 338 61 347 C55 355 54 367 56 381 L58 391 Z " />
<glyph glyph-name="guillemotleft" unicode="&#xab;" horiz-adv-x="441" d="M248 429 L224 460 L33 309 L30 289 L161 139 L198 171 L93 301 L248 429 Z M449 429 L424 460 L234 309 L231 289 L361 139 L399 171 L294 301 L449 429 Z " />
<glyph glyph-name="logicalnot" unicode="&#xac;" horiz-adv-x="348" d="M247 133 L292 133 L323 300 L55 300 L47 257 L270 257 L247 133 L247 133 Z " />
<glyph glyph-name="registered" unicode="&#xae;" horiz-adv-x="318" d="M42 331 C64 305 95 292 134 292 C173 292 209 305 241 332 C272 359 292 392 299 431 C306 470 298 502 276 529 C254 555 223 568 185 568 C145 568 110 555 78 528 C46 501 26 468 19 429 C12 390 21 358 42 331 L42 331 Z M69 352 C52 372 46 398 52 430 C57 461 73 487 98 508 C121 528 149 539 180 539 C211 539 235 528 252 508 C269 487 274 461 269 430 C263 398 248 372 223 352 C200 331 172 321 141 321 C110 321 86 331 69 352 L69 352 Z M98 363 L126 363 L135 410 L154 410 L179 363 L211 363 L184 412 C206 420 219 433 223 453 C225 466 222 477 214 485 C207 493 196 497 182 497 L123 497 L98 363 Z M174 474 C190 474 197 467 195 453 C192 439 183 432 167 432 L139 432 L146 474 L174 474 Z " />
<glyph glyph-name="degree" unicode="&#xb0;" horiz-adv-x="288" d="M80 536 C55 514 39 487 34 455 C28 423 34 396 51 374 C69 353 94 342 126 342 C159 342 188 353 214 374 C239 396 255 423 261 455 C267 488 260 515 243 536 C225 558 200 568 167 568 C135 568 106 557 80 536 L80 536 Z M88 404 C78 418 75 435 79 455 C82 476 91 493 107 506 C122 520 141 527 160 527 C180 527 195 520 206 506 C216 493 219 476 216 455 C212 435 203 418 187 404 C172 390 154 384 134 384 C115 384 99 390 88 404 L88 404 Z " />
<glyph glyph-name="plusminus" unicode="&#xb1;" horiz-adv-x="345" d="M228 418 L186 418 L164 301 L51 301 L43 259 L156 259 L135 142 L177 142 L198 259 L311 259 L319 301 L206 301 L228 418 Z M270 38 L278 81 L10 81 L2 38 L270 38 Z " />
<glyph glyph-name="twosuperior" unicode="&#xb2;" horiz-adv-x="170" d="M122 227 L129 263 L30 263 L129 406 C152 438 166 466 171 491 C175 514 171 533 160 547 C150 561 134 568 113 568 C93 568 75 561 58 547 C42 533 32 514 28 492 L23 463 L61 463 L66 491 C70 517 84 530 105 530 C127 530 134 517 130 491 C125 468 116 445 100 422 L-13 256 L-19 227 L122 227 L122 227 Z " />
<glyph glyph-name="threesuperior" unicode="&#xb3;" horiz-adv-x="191" d="M181 496 C185 517 182 535 171 548 C160 561 145 568 125 568 C105 568 87 561 71 548 C56 534 47 516 43 495 L39 472 L78 472 L82 495 C84 506 88 515 95 522 C101 528 108 531 117 531 C136 531 144 519 140 495 L132 454 C128 431 116 418 97 418 L91 386 C113 386 121 373 117 346 L108 299 C103 273 90 259 68 259 C46 259 37 273 42 299 L47 326 L8 326 L3 298 C0 275 2 256 13 243 C24 229 40 223 61 223 C82 223 101 230 118 244 C133 258 144 276 148 299 L156 341 C161 369 155 390 138 403 C158 417 170 436 175 462 L181 496 L181 496 Z " />
<glyph glyph-name="acute" unicode="&#xb4;" horiz-adv-x="154" d="M67 439 L109 439 L194 568 L138 568 L67 439 L67 439 Z " />
<glyph glyph-name="mu" unicode="&#xb5;" horiz-adv-x="289" d="M84 407 L-16 -128 L35 -128 L61 8 C73 -2 88 -8 106 -8 C140 -8 168 8 191 39 L183 0 L231 0 L308 407 L256 407 L200 110 C196 88 187 71 173 59 C159 46 143 40 125 40 C107 40 94 46 86 59 C78 71 76 88 80 110 L136 407 L84 407 L84 407 Z " />
<glyph glyph-name="paragraph" unicode="&#xb6;" horiz-adv-x="381" d="M107 0 L159 0 L255 514 L332 514 L236 0 L288 0 L392 560 L204 560 C161 560 126 547 97 522 C68 496 50 463 43 424 C36 386 41 354 60 328 C79 303 110 290 153 290 L161 290 L107 0 L107 0 Z " />
<glyph glyph-name="cedilla" unicode="&#xb8;" horiz-adv-x="285" d="M138 1 L146 -4 C151 -8 155 -15 160 -25 C162 -36 163 -48 161 -60 C158 -77 150 -91 138 -101 C125 -111 111 -116 94 -116 C79 -116 69 -114 64 -111 L57 -149 L61 -151 C64 -152 69 -153 75 -154 C81 -154 87 -155 94 -155 C120 -155 143 -147 164 -131 C186 -116 199 -94 205 -66 C207 -54 207 -43 205 -33 C203 -22 201 -14 196 -8 C192 -2 188 3 182 8 C177 13 172 16 171 18 C169 19 167 20 165 21 L138 1 L138 1 Z " />
<glyph glyph-name="onesuperior" unicode="&#xb9;" horiz-adv-x="146" d="M31 507 L47 480 L87 509 L32 225 L73 225 L138 561 L104 561 L31 507 L31 507 Z " />
<glyph glyph-name="ordmasculine" unicode="&#xba;" horiz-adv-x="200" d="M22 384 C18 361 22 343 34 330 C45 316 62 309 83 309 C104 309 123 316 141 330 C159 344 169 363 173 386 L193 494 C197 516 193 534 182 548 C171 562 154 568 133 568 C111 568 91 561 75 548 C57 534 46 515 42 492 L22 384 Z M2 228 L136 228 L142 261 L8 261 L2 228 Z M83 493 C85 505 91 515 98 521 C105 528 115 531 125 531 C135 531 142 528 148 521 C153 515 154 505 152 493 L132 384 C130 372 125 363 118 357 C110 351 101 348 91 348 C81 348 73 351 68 357 C63 363 61 372 63 384 L83 493 Z " />
<glyph glyph-name="guillemotright" unicode="&#xbb;" horiz-adv-x="454" d="M-1 172 L22 141 L211 292 L215 312 L81 461 L45 429 L151 301 L-1 172 Z M199 172 L223 141 L412 292 L416 312 L282 461 L246 429 L352 301 L199 172 Z " />
<glyph glyph-name="onequarter" unicode="&#xbc;" horiz-adv-x="432" d="M52 506 L70 480 L111 508 L59 224 L99 224 L161 560 L127 560 L52 506 Z M-4 0 L37 0 L466 560 L424 560 L-4 0 Z M228 119 L222 86 L318 86 L302 0 L340 0 L356 86 L382 86 L388 120 L362 120 L402 336 L363 336 L228 119 Z M262 120 L350 262 L324 120 L262 120 Z " />
<glyph glyph-name="onehalf" unicode="&#xbd;" horiz-adv-x="489" d="M51 504 L68 478 L111 508 L59 224 L100 224 L161 560 L126 560 L51 504 Z M-3 0 L38 0 L465 560 L423 560 L-3 0 Z M405 0 L412 36 L314 36 L412 179 C435 211 448 239 453 264 C457 287 453 306 443 320 C432 334 416 341 395 341 C375 341 357 334 341 320 C325 306 315 287 311 265 L306 236 L344 236 L349 264 C353 290 367 303 388 303 C410 303 417 290 413 264 C408 241 398 218 383 195 L269 29 L264 0 L405 0 Z " />
<glyph glyph-name="threequarters" unicode="&#xbe;" horiz-adv-x="473" d="M219 493 C223 514 220 532 209 545 C198 558 182 565 162 565 C143 565 125 558 110 545 C94 531 85 513 81 491 L77 469 L116 469 L120 492 C122 504 126 512 133 519 C139 525 147 528 155 528 C175 528 183 516 178 492 L171 452 C167 427 155 416 135 416 L129 384 C152 384 160 370 155 343 L147 296 C142 270 129 256 106 256 C85 256 76 270 81 296 L86 323 L47 323 L42 295 C38 272 41 254 52 240 C63 226 79 219 99 219 C121 219 140 227 156 241 C173 255 183 273 187 296 L195 338 C200 366 193 386 176 400 C196 414 209 433 213 459 L219 493 Z M37 0 L79 0 L506 560 L464 560 L37 0 Z M269 119 L263 86 L359 86 L344 0 L382 0 L397 86 L424 86 L430 120 L403 120 L442 336 L403 336 L269 119 Z M303 120 L391 262 L365 120 L303 120 Z " />
<glyph glyph-name="questiondown" unicode="&#xbf;" horiz-adv-x="253" d="M121 372 C118 353 109 332 96 310 C83 287 68 268 54 251 C40 234 26 213 13 188 C0 164 -9 140 -13 116 C-20 79 -15 49 1 26 C19 4 44 -8 76 -8 C109 -8 138 3 163 26 C188 48 204 78 211 116 L219 160 L169 160 L161 116 C157 93 148 75 134 62 C121 48 105 42 87 42 C68 42 54 48 45 62 C36 75 33 93 37 116 C41 139 50 162 64 186 C77 209 91 230 105 247 C119 264 132 284 145 306 C158 329 167 350 171 371 L175 395 L125 395 L121 372 Z M168 492 C188 492 208 510 212 531 C215 550 202 568 181 568 C162 568 140 553 136 531 C132 511 147 493 168 492 L168 492 Z " />
<glyph glyph-name="Agrave" unicode="&#xc0;" horiz-adv-x="300" d="M229 560 L169 560 L-37 0 L15 0 L67 142 L187 142 L189 0 L237 0 L229 560 Z M183 459 L187 186 L83 186 L183 459 Z M213 742 L157 742 L195 613 L237 613 L213 742 Z " />
<glyph glyph-name="Aacute" unicode="&#xc1;" horiz-adv-x="300" d="M229 560 L169 560 L-37 0 L15 0 L67 142 L187 142 L189 0 L237 0 L229 560 Z M183 459 L187 186 L83 186 L183 459 Z M155 610 L197 610 L282 739 L226 739 L155 610 Z " />
<glyph glyph-name="Acircumflex" unicode="&#xc2;" horiz-adv-x="300" d="M229 560 L169 560 L-37 0 L15 0 L67 142 L187 142 L189 0 L237 0 L229 560 Z M183 459 L187 186 L83 186 L183 459 Z M45 603 L86 603 L155 690 L192 603 L236 603 L186 732 L141 732 L45 603 Z " />
<glyph glyph-name="Atilde" unicode="&#xc3;" horiz-adv-x="300" d="M229 560 L169 560 L-37 0 L15 0 L67 142 L187 142 L189 0 L237 0 L229 560 Z M183 459 L187 186 L83 186 L183 459 Z M37 615 L40 628 C43 637 48 646 55 654 C63 663 72 667 83 667 C93 667 103 664 112 658 C121 652 129 645 134 638 C141 630 149 623 160 617 C170 610 183 607 197 607 C212 607 226 611 238 618 C251 625 260 633 267 642 C274 650 280 660 285 671 C290 683 293 691 294 695 C295 700 296 703 296 706 L254 706 L252 692 C249 684 243 675 236 666 C228 657 219 653 209 653 C196 653 184 658 173 668 C163 678 151 688 139 698 C126 708 111 713 93 713 C78 713 65 709 53 702 C40 695 31 687 24 679 C17 670 12 660 6 649 C1 638 -1 630 -2 625 C-4 621 -5 617 -5 615 L37 615 Z " />
<glyph glyph-name="Adieresis" unicode="&#xc4;" horiz-adv-x="300" d="M229 560 L169 560 L-37 0 L15 0 L67 142 L187 142 L189 0 L237 0 L229 560 Z M183 459 L187 186 L83 186 L183 459 Z M155 682 C136 682 116 667 113 646 C109 628 122 611 142 611 C160 611 181 625 185 646 C188 665 176 682 155 682 L155 682 Z M275 682 C256 682 235 668 232 646 C228 627 242 611 262 611 C280 611 300 625 304 646 C307 665 296 681 275 682 L275 682 Z " />
<glyph glyph-name="Aring" unicode="&#xc5;" horiz-adv-x="300" d="M229 560 L169 560 L-37 0 L15 0 L67 142 L187 142 L189 0 L237 0 L229 560 Z M183 459 L187 186 L83 186 L183 459 Z M173 672 C157 659 147 642 144 622 C140 602 144 585 154 572 C165 559 182 553 202 553 C223 553 241 559 257 572 C273 585 283 602 287 622 C290 642 286 659 276 672 C264 685 248 691 227 691 C207 691 188 685 173 672 L173 672 Z M184 595 C178 602 175 611 178 622 C180 634 185 643 194 650 C202 657 211 660 221 660 C232 660 241 657 247 650 C252 643 255 634 253 622 C250 611 245 601 236 594 C228 588 219 584 208 584 C198 584 189 588 184 595 L184 595 Z " />
<glyph glyph-name="AE" unicode="&#xc6;" horiz-adv-x="429" d="M454 509 L463 560 L228 560 L-41 0 L10 0 L79 143 L192 143 L166 0 L366 0 L375 52 L228 52 L267 268 L386 268 L395 316 L276 316 L311 509 L454 509 Z M101 187 L259 516 L200 187 L101 187 Z " />
<glyph glyph-name="Ccedilla" unicode="&#xc7;" horiz-adv-x="313" d="M193 118 C189 94 179 76 165 62 C150 49 134 42 114 42 C94 42 79 49 70 62 C60 76 57 94 61 118 L124 442 C128 465 139 484 153 497 C168 511 185 518 205 518 C225 518 239 511 248 497 C258 484 260 465 256 442 L242 372 L294 372 L308 445 C315 482 310 512 293 534 C276 557 250 568 216 568 C181 568 149 556 122 533 C95 510 78 479 71 442 L8 116 C1 78 6 48 24 26 C42 3 68 -8 103 -8 C137 -8 167 3 195 26 C221 49 238 80 245 117 L260 196 L208 196 L193 118 Z M72 2 L80 -3 C85 -7 89 -14 94 -24 C96 -35 97 -47 95 -59 C92 -76 84 -90 72 -100 C59 -110 45 -115 28 -115 C13 -115 3 -113 -2 -110 L-9 -148 L-5 -150 C-2 -151 3 -152 9 -153 C15 -153 21 -154 28 -154 C54 -154 77 -146 98 -130 C120 -115 133 -93 139 -65 C141 -53 141 -42 139 -32 C137 -21 135 -13 130 -7 C126 -1 122 4 116 9 C111 14 106 17 105 19 C103 20 101 21 99 22 L72 2 Z " />
<glyph glyph-name="Egrave" unicode="&#xc8;" horiz-adv-x="267" d="M187 0 L197 51 L51 51 L91 268 L209 268 L218 316 L100 316 L136 509 L278 509 L288 560 L92 560 L-12 0 L187 0 Z M188 714 L132 714 L170 585 L212 585 L188 714 Z " />
<glyph glyph-name="Eacute" unicode="&#xc9;" horiz-adv-x="267" d="M187 0 L197 51 L51 51 L91 268 L209 268 L218 316 L100 316 L136 509 L278 509 L288 560 L92 560 L-12 0 L187 0 Z M132 592 L174 592 L259 721 L203 721 L132 592 Z " />
<glyph glyph-name="Ecircumflex" unicode="&#xca;" horiz-adv-x="262" d="M187 0 L197 51 L51 51 L91 268 L209 268 L218 316 L100 316 L136 509 L278 509 L288 560 L92 560 L-12 0 L187 0 Z M24 581 L65 581 L134 668 L171 581 L215 581 L165 710 L120 710 L24 581 Z " />
<glyph glyph-name="Edieresis" unicode="&#xcb;" horiz-adv-x="267" d="M187 0 L197 51 L51 51 L91 268 L209 268 L218 316 L100 316 L136 509 L278 509 L288 560 L92 560 L-12 0 L187 0 Z M136 674 C117 674 97 659 94 638 C90 620 103 603 123 603 C141 603 162 617 166 638 C169 657 157 674 136 674 L136 674 Z M256 674 C237 674 216 660 213 638 C209 619 223 603 243 603 C261 603 281 617 285 638 C288 657 277 673 256 674 L256 674 Z " />
<glyph glyph-name="Igrave" unicode="&#xcc;" horiz-adv-x="136" d="M-12 0 L43 0 L148 560 L92 560 L-12 0 Z M129 729 L73 729 L111 600 L153 600 L129 729 Z " />
<glyph glyph-name="Iacute" unicode="&#xcd;" horiz-adv-x="136" d="M-12 0 L43 0 L148 560 L92 560 L-12 0 Z M70 587 L112 587 L197 716 L141 716 L70 587 Z " />
<glyph glyph-name="Icircumflex" unicode="&#xce;" horiz-adv-x="136" d="M-12 0 L43 0 L148 560 L92 560 L-12 0 Z M-38 586 L3 586 L72 673 L109 586 L153 586 L103 715 L58 715 L-38 586 Z " />
<glyph glyph-name="Idieresis" unicode="&#xcf;" horiz-adv-x="136" d="M-12 0 L43 0 L148 560 L92 560 L-12 0 Z M73 676 C54 676 34 661 31 640 C27 622 40 605 60 605 C78 605 99 619 103 640 C106 659 94 676 73 676 L73 676 Z M193 676 C174 676 153 662 150 640 C146 621 160 605 180 605 C198 605 218 619 222 640 C225 659 214 675 193 676 L193 676 Z " />
<glyph glyph-name="Eth" unicode="&#xd0;" horiz-adv-x="370" d="M34 0 L147 0 C186 0 220 12 249 36 C277 60 295 94 303 136 L356 426 C364 469 358 502 339 525 C321 549 291 560 252 560 L137 560 L90 303 L24 303 L17 266 L83 266 L34 0 Z M182 511 L240 511 C264 511 282 504 293 489 C304 474 307 452 302 423 L249 137 C244 109 233 87 216 72 C201 57 179 49 155 49 L97 49 L137 266 L221 266 L228 303 L144 303 L182 511 Z " />
<glyph glyph-name="Ntilde" unicode="&#xd1;" horiz-adv-x="333" d="M191 0 L240 0 L345 560 L296 560 L216 130 L145 560 L92 560 L-12 0 L36 0 L118 439 L191 0 Z M45 619 L48 632 C51 641 56 650 63 658 C71 667 80 671 91 671 C101 671 111 668 120 662 C129 656 137 649 142 642 C149 634 157 627 168 621 C178 614 191 611 205 611 C220 611 234 615 246 622 C259 629 268 637 275 646 C282 654 288 664 293 675 C298 687 301 695 302 699 C303 704 304 707 304 710 L262 710 L260 696 C257 688 251 679 244 670 C236 661 227 657 217 657 C204 657 192 662 181 672 C171 682 159 692 147 702 C134 712 119 717 101 717 C86 717 73 713 61 706 C48 699 39 691 32 683 C25 674 20 664 14 653 C9 642 7 634 6 629 C4 625 3 621 3 619 L45 619 Z " />
<glyph glyph-name="Ograve" unicode="&#xd2;" horiz-adv-x="328" d="M10 120 C3 81 8 50 27 27 C47 4 74 -8 110 -8 C145 -8 177 4 205 28 C234 51 251 83 259 122 L317 440 C324 479 318 510 299 533 C279 556 252 568 216 568 C181 568 149 556 121 532 C92 508 76 477 68 438 L10 120 Z M121 438 C126 462 136 482 152 496 C168 510 186 518 207 518 C227 518 243 510 253 496 C263 482 266 462 261 438 L204 122 C199 97 190 78 174 64 C158 49 140 42 120 42 C99 42 83 49 73 64 C63 78 59 97 64 122 L121 438 Z M223 728 L167 728 L205 599 L247 599 L223 728 Z " />
<glyph glyph-name="Oacute" unicode="&#xd3;" horiz-adv-x="328" d="M10 120 C3 81 8 50 27 27 C47 4 74 -8 110 -8 C145 -8 177 4 205 28 C234 51 251 83 259 122 L317 440 C324 479 318 510 299 533 C279 556 252 568 216 568 C181 568 149 556 121 532 C92 508 76 477 68 438 L10 120 Z M121 438 C126 462 136 482 152 496 C168 510 186 518 207 518 C227 518 243 510 253 496 C263 482 266 462 261 438 L204 122 C199 97 190 78 174 64 C158 49 140 42 120 42 C99 42 83 49 73 64 C63 78 59 97 64 122 L121 438 Z M166 595 L208 595 L293 724 L237 724 L166 595 Z " />
<glyph glyph-name="Ocircumflex" unicode="&#xd4;" horiz-adv-x="328" d="M10 120 C3 81 8 50 27 27 C47 4 74 -8 110 -8 C145 -8 177 4 205 28 C234 51 251 83 259 122 L317 440 C324 479 318 510 299 533 C279 556 252 568 216 568 C181 568 149 556 121 532 C92 508 76 477 68 438 L10 120 Z M121 438 C126 462 136 482 152 496 C168 510 186 518 207 518 C227 518 243 510 253 496 C263 482 266 462 261 438 L204 122 C199 97 190 78 174 64 C158 49 140 42 120 42 C99 42 83 49 73 64 C63 78 59 97 64 122 L121 438 Z M57 588 L98 588 L167 675 L204 588 L248 588 L198 717 L153 717 L57 588 Z " />
<glyph glyph-name="Otilde" unicode="&#xd5;" horiz-adv-x="328" d="M10 120 C3 81 8 50 27 27 C47 4 74 -8 110 -8 C145 -8 177 4 205 28 C234 51 251 83 259 122 L317 440 C324 479 318 510 299 533 C279 556 252 568 216 568 C181 568 149 556 121 532 C92 508 76 477 68 438 L10 120 Z M121 438 C126 462 136 482 152 496 C168 510 186 518 207 518 C227 518 243 510 253 496 C263 482 266 462 261 438 L204 122 C199 97 190 78 174 64 C158 49 140 42 120 42 C99 42 83 49 73 64 C63 78 59 97 64 122 L121 438 Z M52 603 L55 616 C58 625 63 634 70 642 C78 651 87 655 98 655 C108 655 118 652 127 646 C136 640 144 633 149 626 C156 618 164 611 175 605 C185 598 198 595 212 595 C227 595 241 599 253 606 C266 613 275 621 282 630 C289 638 295 648 300 659 C305 671 308 679 309 683 C310 688 311 691 311 694 L269 694 L267 680 C264 672 258 663 251 654 C243 645 234 641 224 641 C211 641 199 646 188 656 C178 666 166 676 154 686 C141 696 126 701 108 701 C93 701 80 697 68 690 C55 683 46 675 39 667 C32 658 27 648 21 637 C16 626 14 618 13 613 C11 609 10 605 10 603 L52 603 Z " />
<glyph glyph-name="Odieresis" unicode="&#xd6;" horiz-adv-x="328" d="M10 120 C3 81 8 50 27 27 C47 4 74 -8 110 -8 C145 -8 177 4 205 28 C234 51 251 83 259 122 L317 440 C324 479 318 510 299 533 C279 556 252 568 216 568 C181 568 149 556 121 532 C92 508 76 477 68 438 L10 120 Z M121 438 C126 462 136 482 152 496 C168 510 186 518 207 518 C227 518 243 510 253 496 C263 482 266 462 261 438 L204 122 C199 97 190 78 174 64 C158 49 140 42 120 42 C99 42 83 49 73 64 C63 78 59 97 64 122 L121 438 Z M168 679 C149 679 129 664 126 643 C122 625 135 608 155 608 C173 608 194 622 198 643 C201 662 189 679 168 679 L168 679 Z M288 679 C269 679 248 665 245 643 C241 624 255 608 275 608 C293 608 313 622 317 643 C320 662 309 678 288 679 L288 679 Z " />
<glyph glyph-name="multiply" unicode="&#xd7;" horiz-adv-x="295" d="M221 155 L257 187 L178 283 L293 380 L268 410 L153 314 L74 410 L38 380 L117 283 L2 187 L27 155 L142 253 L221 155 L221 155 Z " />
<glyph glyph-name="Oslash" unicode="&#xd8;" horiz-adv-x="328" d="M353 584 L318 584 L294 541 C275 559 250 568 218 568 C183 568 151 556 122 532 C94 508 76 477 69 438 L10 120 C4 91 7 67 15 47 L-23 -24 L9 -24 L34 20 C52 2 77 -8 110 -8 C145 -8 177 4 206 28 C234 52 251 83 258 122 L317 440 C322 468 321 492 313 513 L353 584 Z M123 438 C127 462 138 482 154 496 C169 511 188 518 209 518 C236 518 254 506 261 483 L67 139 L123 438 Z M120 42 C91 42 73 53 66 76 L260 420 L204 122 C199 97 190 78 174 63 C159 49 140 42 120 42 L120 42 Z " />
<glyph glyph-name="Ugrave" unicode="&#xd9;" horiz-adv-x="320" d="M276 560 L198 118 C193 94 184 76 170 62 C155 49 138 42 118 42 C99 42 84 49 74 62 C64 76 61 94 66 118 L144 560 L90 560 L11 116 C4 78 10 48 28 26 C47 3 73 -8 108 -8 C142 -8 173 3 200 26 C227 49 245 80 252 118 L330 560 L276 560 Z M220 724 L164 724 L202 595 L244 595 L220 724 Z " />
<glyph glyph-name="Uacute" unicode="&#xda;" horiz-adv-x="320" d="M276 560 L198 118 C193 94 184 76 170 62 C155 49 138 42 118 42 C99 42 84 49 74 62 C64 76 61 94 66 118 L144 560 L90 560 L11 116 C4 78 10 48 28 26 C47 3 73 -8 108 -8 C142 -8 173 3 200 26 C227 49 245 80 252 118 L330 560 L276 560 Z M165 587 L207 587 L292 716 L236 716 L165 587 Z " />
<glyph glyph-name="Ucircumflex" unicode="&#xdb;" horiz-adv-x="320" d="M276 560 L198 118 C193 94 184 76 170 62 C155 49 138 42 118 42 C99 42 84 49 74 62 C64 76 61 94 66 118 L144 560 L90 560 L11 116 C4 78 10 48 28 26 C47 3 73 -8 108 -8 C142 -8 173 3 200 26 C227 49 245 80 252 118 L330 560 L276 560 Z M56 583 L97 583 L166 670 L203 583 L247 583 L197 712 L152 712 L56 583 Z " />
<glyph glyph-name="Udieresis" unicode="&#xdc;" horiz-adv-x="320" d="M276 560 L198 118 C193 94 184 76 170 62 C155 49 138 42 118 42 C99 42 84 49 74 62 C64 76 61 94 66 118 L144 560 L90 560 L11 116 C4 78 10 48 28 26 C47 3 73 -8 108 -8 C142 -8 173 3 200 26 C227 49 245 80 252 118 L330 560 L276 560 Z M161 690 C142 690 122 675 119 654 C115 636 128 619 148 619 C166 619 187 633 191 654 C194 673 182 690 161 690 L161 690 Z M281 690 C262 690 241 676 238 654 C234 635 248 619 268 619 C286 619 306 633 310 654 C313 673 302 689 281 690 L281 690 Z " />
<glyph glyph-name="Yacute" unicode="&#xdd;" horiz-adv-x="282" d="M61 0 L116 0 L157 224 L326 560 L270 560 L143 291 L115 560 L58 560 L103 226 L61 0 Z M144 599 L186 599 L271 728 L215 728 L144 599 Z " />
<glyph glyph-name="Thorn" unicode="&#xde;" horiz-adv-x="324" d="M-10 0 L43 0 L67 130 L125 130 C165 130 199 142 227 167 C255 191 274 225 281 268 L291 321 C299 364 294 398 274 421 C255 445 225 457 184 457 L125 457 L144 560 L90 560 L-10 0 Z M117 409 L175 409 C200 409 217 402 229 386 C239 371 242 349 237 321 L227 266 C222 238 211 216 195 201 C179 186 158 178 133 178 L75 178 L117 409 Z " />
<glyph glyph-name="germandbls" unicode="&#xdf;" horiz-adv-x="319" d="M99 -8 L127 -8 C159 -8 189 4 215 27 C241 50 259 81 266 119 L286 230 C292 262 289 288 277 310 C265 331 245 345 220 351 L317 484 L315 493 C311 522 288 548 260 560 C246 565 230 568 213 568 C178 568 147 557 120 533 C93 510 76 480 69 442 L-11 0 L41 0 L122 441 C126 465 137 484 151 497 C166 511 183 518 203 518 C235 518 254 504 261 475 L168 346 L161 310 L177 310 C198 310 213 303 223 288 C233 274 236 254 231 230 L212 123 C207 98 198 78 182 64 C166 50 149 43 128 43 C119 43 108 43 108 43 L99 -8 Z " />
<glyph glyph-name="agrave" unicode="&#xe0;" horiz-adv-x="297" d="M7 108 C1 73 6 45 21 24 C35 3 58 -8 88 -8 C132 -8 174 31 187 77 L173 0 L219 0 L275 303 C281 336 276 363 259 384 C241 405 217 415 186 415 C156 415 128 405 104 383 C80 362 63 334 57 300 L108 303 C111 323 119 339 133 351 C146 364 161 370 177 370 C194 370 207 364 216 351 C224 339 226 323 223 303 L205 207 C191 232 168 245 136 245 C106 245 79 234 56 212 C32 190 17 161 11 127 L7 108 Z M63 128 C67 151 76 169 91 182 C104 196 122 203 141 203 C160 203 174 196 184 182 C192 169 195 151 191 128 L188 111 C183 88 174 70 161 57 C146 43 129 36 110 36 C91 36 76 43 68 57 C58 70 55 88 60 111 L63 128 Z M202 560 L146 560 L184 431 L226 431 L202 560 Z " />
<glyph glyph-name="aacute" unicode="&#xe1;" horiz-adv-x="297" d="M7 108 C1 73 6 45 21 24 C35 3 58 -8 88 -8 C132 -8 174 31 187 77 L173 0 L219 0 L275 303 C281 336 276 363 259 384 C241 405 217 415 186 415 C156 415 128 405 104 383 C80 362 63 334 57 300 L108 303 C111 323 119 339 133 351 C146 364 161 370 177 370 C194 370 207 364 216 351 C224 339 226 323 223 303 L205 207 C191 232 168 245 136 245 C106 245 79 234 56 212 C32 190 17 161 11 127 L7 108 Z M63 128 C67 151 76 169 91 182 C104 196 122 203 141 203 C160 203 174 196 184 182 C192 169 195 151 191 128 L188 111 C183 88 174 70 161 57 C146 43 129 36 110 36 C91 36 76 43 68 57 C58 70 55 88 60 111 L63 128 Z M147 439 L189 439 L274 568 L218 568 L147 439 Z " />
<glyph glyph-name="acircumflex" unicode="&#xe2;" horiz-adv-x="297" d="M7 108 C1 73 6 45 21 24 C35 3 58 -8 88 -8 C132 -8 174 31 187 77 L173 0 L219 0 L275 303 C281 336 276 363 259 384 C241 405 217 415 186 415 C156 415 128 405 104 383 C80 362 63 334 57 300 L108 303 C111 323 119 339 133 351 C146 364 161 370 177 370 C194 370 207 364 216 351 C224 339 226 323 223 303 L205 207 C191 232 168 245 136 245 C106 245 79 234 56 212 C32 190 17 161 11 127 L7 108 Z M63 128 C67 151 76 169 91 182 C104 196 122 203 141 203 C160 203 174 196 184 182 C192 169 195 151 191 128 L188 111 C183 88 174 70 161 57 C146 43 129 36 110 36 C91 36 76 43 68 57 C58 70 55 88 60 111 L63 128 Z M36 431 L77 431 L146 518 L183 431 L227 431 L177 560 L132 560 L36 431 Z " />
<glyph glyph-name="atilde" unicode="&#xe3;" horiz-adv-x="297" d="M7 108 C1 73 6 45 21 24 C35 3 58 -8 88 -8 C132 -8 174 31 187 77 L173 0 L219 0 L275 303 C281 336 276 363 259 384 C241 405 217 415 186 415 C156 415 128 405 104 383 C80 362 63 334 57 300 L108 303 C111 323 119 339 133 351 C146 364 161 370 177 370 C194 370 207 364 216 351 C224 339 226 323 223 303 L205 207 C191 232 168 245 136 245 C106 245 79 234 56 212 C32 190 17 161 11 127 L7 108 Z M63 128 C67 151 76 169 91 182 C104 196 122 203 141 203 C160 203 174 196 184 182 C192 169 195 151 191 128 L188 111 C183 88 174 70 161 57 C146 43 129 36 110 36 C91 36 76 43 68 57 C58 70 55 88 60 111 L63 128 Z M32 459 L35 472 C38 481 43 490 50 498 C58 507 67 511 78 511 C88 511 98 508 107 502 C116 496 124 489 129 482 C136 474 144 467 155 461 C165 454 178 451 192 451 C207 451 221 455 233 462 C246 469 255 477 262 486 C269 494 275 504 280 515 C285 527 288 535 289 539 C290 544 291 547 291 550 L249 550 L247 536 C244 528 238 519 231 510 C223 501 214 497 204 497 C191 497 179 502 168 512 C158 522 146 532 134 542 C121 552 106 557 88 557 C73 557 60 553 48 546 C35 539 26 531 19 523 C12 514 7 504 1 493 C-4 482 -6 474 -7 469 C-9 465 -10 461 -10 459 L32 459 Z " />
<glyph glyph-name="adieresis" unicode="&#xe4;" horiz-adv-x="297" d="M7 108 C1 73 6 45 21 24 C35 3 58 -8 88 -8 C132 -8 174 31 187 77 L173 0 L219 0 L275 303 C281 336 276 363 259 384 C241 405 217 415 186 415 C156 415 128 405 104 383 C80 362 63 334 57 300 L108 303 C111 323 119 339 133 351 C146 364 161 370 177 370 C194 370 207 364 216 351 C224 339 226 323 223 303 L205 207 C191 232 168 245 136 245 C106 245 79 234 56 212 C32 190 17 161 11 127 L7 108 Z M63 128 C67 151 76 169 91 182 C104 196 122 203 141 203 C160 203 174 196 184 182 C192 169 195 151 191 128 L188 111 C183 88 174 70 161 57 C146 43 129 36 110 36 C91 36 76 43 68 57 C58 70 55 88 60 111 L63 128 Z M141 538 C122 538 102 523 99 502 C95 484 108 467 128 467 C146 467 167 481 171 502 C174 521 162 538 141 538 L141 538 Z M261 538 C242 538 221 524 218 502 C214 483 228 467 248 467 C266 467 286 481 290 502 C293 521 282 537 261 538 L261 538 Z " />
<glyph glyph-name="aring" unicode="&#xe5;" horiz-adv-x="297" d="M7 108 C1 73 6 45 21 24 C35 3 58 -8 88 -8 C132 -8 174 31 187 77 L173 0 L219 0 L275 303 C281 336 276 363 259 384 C241 405 217 415 186 415 C156 415 128 405 104 383 C80 362 63 334 57 300 L108 303 C111 323 119 339 133 351 C146 364 161 370 177 370 C194 370 207 364 216 351 C224 339 226 323 223 303 L205 207 C191 232 168 245 136 245 C106 245 79 234 56 212 C32 190 17 161 11 127 L7 108 Z M63 128 C67 151 76 169 91 182 C104 196 122 203 141 203 C160 203 174 196 184 182 C192 169 195 151 191 128 L188 111 C183 88 174 70 161 57 C146 43 129 36 110 36 C91 36 76 43 68 57 C58 70 55 88 60 111 L63 128 Z M163 524 C147 511 137 494 134 474 C130 454 134 437 144 424 C155 411 172 405 192 405 C213 405 231 411 247 424 C263 437 273 454 277 474 C280 494 276 511 266 524 C254 537 238 543 217 543 C197 543 178 537 163 524 L163 524 Z M174 447 C168 454 165 463 168 474 C170 486 175 495 184 502 C192 509 201 512 211 512 C222 512 231 509 237 502 C242 495 245 486 243 474 C240 463 235 453 226 446 C218 440 209 436 198 436 C188 436 179 440 174 447 L174 447 Z " />
<glyph glyph-name="ae" unicode="&#xe6;" horiz-adv-x="469" d="M7 108 C0 73 5 45 20 24 C36 3 59 -8 89 -8 C111 -8 131 -2 149 8 C168 18 184 33 195 51 C205 12 232 -8 276 -8 C308 -8 337 3 363 25 C388 47 405 76 411 111 L415 132 L366 132 L363 112 C358 90 350 72 336 59 C322 47 306 40 288 40 C270 40 256 47 247 59 C238 72 235 90 240 112 L257 207 L429 207 L446 299 C453 335 448 363 431 384 C414 405 390 415 358 415 C319 415 287 400 262 368 C251 400 226 415 187 415 C157 415 129 405 105 383 C80 362 64 334 58 300 L55 286 L105 286 L108 303 C112 323 121 339 133 352 C146 364 162 370 179 370 C195 370 207 364 216 352 C225 339 227 323 223 303 L205 207 C192 232 168 245 136 245 C106 245 80 234 56 212 C32 190 17 161 10 127 L7 108 Z M63 128 C67 151 76 169 91 182 C105 196 122 203 141 203 C160 203 174 196 184 182 C192 169 195 151 191 128 L187 111 C183 88 174 70 160 57 C146 43 128 36 109 36 C90 36 77 43 67 57 C58 70 55 88 59 111 L63 128 Z M275 300 C279 322 288 340 301 352 C316 365 332 372 350 372 C368 372 382 365 390 352 C400 340 402 322 398 300 L387 244 L264 244 L275 300 Z " />
<glyph glyph-name="ccedilla" unicode="&#xe7;" horiz-adv-x="298" d="M200 156 L191 108 C187 87 178 71 165 59 C152 46 137 40 120 40 C103 40 90 46 81 59 C72 71 70 87 74 108 L109 299 C113 320 121 337 134 349 C147 361 163 367 180 367 C197 367 209 361 218 349 C227 337 230 320 226 299 L218 255 L267 255 L276 302 C282 336 277 363 261 384 C243 405 220 415 189 415 C158 415 130 405 104 383 C78 361 63 334 57 299 L22 106 C16 72 21 45 38 24 C55 3 79 -8 110 -8 C141 -8 168 3 193 25 C219 47 234 75 240 108 L249 156 L200 156 Z M81 5 L89 0 C94 -4 98 -11 103 -21 C105 -32 106 -44 104 -56 C101 -73 93 -87 81 -97 C68 -107 54 -112 37 -112 C22 -112 12 -110 7 -107 L0 -145 L4 -147 C7 -148 12 -149 18 -150 C24 -150 30 -151 37 -151 C63 -151 86 -143 107 -127 C129 -112 142 -90 148 -62 C150 -50 150 -39 148 -29 C146 -18 144 -10 139 -4 C135 2 131 7 125 12 C120 17 115 20 114 22 C112 23 110 24 108 25 L81 5 Z " />
<glyph glyph-name="egrave" unicode="&#xe8;" horiz-adv-x="304" d="M198 111 C194 90 186 72 171 59 C158 47 142 40 124 40 C106 40 92 47 82 59 C74 72 71 90 75 111 L92 207 L264 207 L281 299 C288 335 283 363 266 384 C248 405 224 415 192 415 C160 415 131 404 105 383 C79 361 63 332 57 298 L22 108 C16 74 22 45 39 24 C56 3 80 -8 112 -8 C144 -8 173 3 199 25 C224 47 240 75 247 111 L251 132 L202 132 L198 111 Z M109 299 C113 321 122 339 136 351 C150 364 166 371 184 371 C202 371 216 364 225 351 C234 339 236 321 232 299 L222 244 L99 244 L109 299 Z M211 560 L155 560 L193 431 L235 431 L211 560 Z " />
<glyph glyph-name="eacute" unicode="&#xe9;" horiz-adv-x="304" d="M198 111 C194 90 186 72 171 59 C158 47 142 40 124 40 C106 40 92 47 82 59 C74 72 71 90 75 111 L92 207 L264 207 L281 299 C288 335 283 363 266 384 C248 405 224 415 192 415 C160 415 131 404 105 383 C79 361 63 332 57 298 L22 108 C16 74 22 45 39 24 C56 3 80 -8 112 -8 C144 -8 173 3 199 25 C224 47 240 75 247 111 L251 132 L202 132 L198 111 Z M109 299 C113 321 122 339 136 351 C150 364 166 371 184 371 C202 371 216 364 225 351 C234 339 236 321 232 299 L222 244 L99 244 L109 299 Z M156 439 L198 439 L283 568 L227 568 L156 439 Z " />
<glyph glyph-name="ecircumflex" unicode="&#xea;" horiz-adv-x="304" d="M198 111 C194 90 186 72 171 59 C158 47 142 40 124 40 C106 40 92 47 82 59 C74 72 71 90 75 111 L92 207 L264 207 L281 299 C288 335 283 363 266 384 C248 405 224 415 192 415 C160 415 131 404 105 383 C79 361 63 332 57 298 L22 108 C16 74 22 45 39 24 C56 3 80 -8 112 -8 C144 -8 173 3 199 25 C224 47 240 75 247 111 L251 132 L202 132 L198 111 Z M109 299 C113 321 122 339 136 351 C150 364 166 371 184 371 C202 371 216 364 225 351 C234 339 236 321 232 299 L222 244 L99 244 L109 299 Z M45 431 L86 431 L155 518 L192 431 L236 431 L186 560 L141 560 L45 431 Z " />
<glyph glyph-name="edieresis" unicode="&#xeb;" horiz-adv-x="304" d="M198 111 C194 90 186 72 171 59 C158 47 142 40 124 40 C106 40 92 47 82 59 C74 72 71 90 75 111 L92 207 L264 207 L281 299 C288 335 283 363 266 384 C248 405 224 415 192 415 C160 415 131 404 105 383 C79 361 63 332 57 298 L22 108 C16 74 22 45 39 24 C56 3 80 -8 112 -8 C144 -8 173 3 199 25 C224 47 240 75 247 111 L251 132 L202 132 L198 111 Z M109 299 C113 321 122 339 136 351 C150 364 166 371 184 371 C202 371 216 364 225 351 C234 339 236 321 232 299 L222 244 L99 244 L109 299 Z M153 540 C134 540 114 525 111 504 C107 486 120 469 140 469 C158 469 179 483 183 504 C186 523 174 540 153 540 L153 540 Z M273 540 C254 540 233 526 230 504 C226 485 240 469 260 469 C278 469 298 483 302 504 C305 523 294 539 273 540 L273 540 Z " />
<glyph glyph-name="igrave" unicode="&#xec;" horiz-adv-x="134" d="M56 0 L131 407 L77 407 L2 0 L56 0 Z M124 568 L68 568 L106 439 L148 439 L124 568 Z " />
<glyph glyph-name="iacute" unicode="&#xed;" horiz-adv-x="134" d="M55 0 L133 407 L79 407 L1 0 L55 0 Z M61 439 L103 439 L188 568 L132 568 L61 439 Z " />
<glyph glyph-name="icircumflex" unicode="&#xee;" horiz-adv-x="134" d="M55 0 L132 407 L78 407 L1 0 L55 0 Z M-38 431 L3 431 L72 518 L109 431 L153 431 L103 560 L58 560 L-38 431 Z " />
<glyph glyph-name="idieresis" unicode="&#xef;" horiz-adv-x="134" d="M56 0 L131 407 L77 407 L2 0 L56 0 Z M65 525 C46 525 26 510 23 489 C19 471 32 454 52 454 C70 454 91 468 95 489 C98 508 86 525 65 525 L65 525 Z M185 525 C166 525 145 511 142 489 C138 470 152 454 172 454 C190 454 210 468 214 489 C217 508 206 524 185 525 L185 525 Z " />
<glyph glyph-name="eth" unicode="&#xf0;" horiz-adv-x="292" d="M251 329 L220 454 L284 508 L256 541 L209 501 L194 560 L141 560 L166 465 L95 406 L123 372 L177 418 L203 320 C191 347 169 356 150 356 C117 356 88 346 64 324 C41 302 26 273 19 236 L-2 116 C-9 79 -3 50 15 27 C33 4 60 -8 94 -8 C128 -8 158 3 184 25 C210 48 227 77 234 115 L253 219 C260 259 259 296 251 329 L251 329 Z M183 118 C178 94 168 75 154 62 C140 49 122 42 102 42 C83 42 68 49 58 62 C48 75 46 94 51 118 L72 234 C76 258 85 276 99 290 C113 303 131 309 151 309 C171 309 186 303 196 290 C205 276 208 258 204 234 L183 118 L183 118 Z " />
<glyph glyph-name="ntilde" unicode="&#xf1;" horiz-adv-x="304" d="M108 298 C113 320 122 337 136 349 C149 361 165 367 183 367 C201 367 214 361 222 349 C231 337 233 320 228 298 L173 0 L225 0 L282 307 C288 341 284 367 271 387 C258 406 237 415 209 415 C171 415 122 383 110 331 L124 407 L77 407 L1 0 L53 0 L108 298 Z M33 470 L36 483 C39 492 44 501 51 509 C59 518 68 522 79 522 C89 522 99 519 108 513 C117 507 125 500 130 493 C137 485 145 478 156 472 C166 465 179 462 193 462 C208 462 222 466 234 473 C247 480 256 488 263 497 C270 505 276 515 281 526 C286 538 289 546 290 550 C291 555 292 558 292 561 L250 561 L248 547 C245 539 239 530 232 521 C224 512 215 508 205 508 C192 508 180 513 169 523 C159 533 147 543 135 553 C122 563 107 568 89 568 C74 568 61 564 49 557 C36 550 27 542 20 534 C13 525 8 515 2 504 C-3 493 -5 485 -6 480 C-8 476 -9 472 -9 470 L33 470 Z " />
<glyph glyph-name="ograve" unicode="&#xf2;" horiz-adv-x="307" d="M22 109 C16 74 20 45 38 24 C56 3 80 -8 112 -8 C144 -8 173 3 201 26 C227 48 243 77 249 111 L284 299 C291 333 285 361 267 383 C250 405 225 415 193 415 C161 415 131 404 106 382 C80 360 63 331 57 296 L22 109 Z M109 296 C113 318 121 335 135 348 C149 361 165 367 183 367 C201 367 215 361 224 348 C233 335 236 318 232 296 L197 111 C193 90 184 72 171 59 C156 47 140 40 122 40 C104 40 90 47 82 59 C72 72 70 90 74 111 L109 296 Z M214 560 L158 560 L196 431 L238 431 L214 560 Z " />
<glyph glyph-name="oacute" unicode="&#xf3;" horiz-adv-x="301" d="M22 109 C16 74 20 45 38 24 C56 3 80 -8 112 -8 C144 -8 173 3 201 26 C227 48 243 77 249 111 L284 299 C291 333 285 361 267 383 C250 405 225 415 193 415 C161 415 131 404 106 382 C80 360 63 331 57 296 L22 109 Z M109 296 C113 318 121 335 135 348 C149 361 165 367 183 367 C201 367 215 361 224 348 C233 335 236 318 232 296 L197 111 C193 90 184 72 171 59 C156 47 140 40 122 40 C104 40 90 47 82 59 C72 72 70 90 74 111 L109 296 Z M159 439 L201 439 L286 568 L230 568 L159 439 Z " />
<glyph glyph-name="ocircumflex" unicode="&#xf4;" horiz-adv-x="307" d="M22 109 C16 74 20 45 38 24 C56 3 80 -8 112 -8 C144 -8 173 3 201 26 C227 48 243 77 249 111 L284 299 C291 333 285 361 267 383 C250 405 225 415 193 415 C161 415 131 404 106 382 C80 360 63 331 57 296 L22 109 Z M109 296 C113 318 121 335 135 348 C149 361 165 367 183 367 C201 367 215 361 224 348 C233 335 236 318 232 296 L197 111 C193 90 184 72 171 59 C156 47 140 40 122 40 C104 40 90 47 82 59 C72 72 70 90 74 111 L109 296 Z M48 431 L89 431 L158 518 L195 431 L239 431 L189 560 L144 560 L48 431 Z " />
<glyph glyph-name="otilde" unicode="&#xf5;" horiz-adv-x="307" d="M22 109 C16 74 20 45 38 24 C56 3 80 -8 112 -8 C144 -8 173 3 201 26 C227 48 243 77 249 111 L284 299 C291 333 285 361 267 383 C250 405 225 415 193 415 C161 415 131 404 106 382 C80 360 63 331 57 296 L22 109 Z M109 296 C113 318 121 335 135 348 C149 361 165 367 183 367 C201 367 215 361 224 348 C233 335 236 318 232 296 L197 111 C193 90 184 72 171 59 C156 47 140 40 122 40 C104 40 90 47 82 59 C72 72 70 90 74 111 L109 296 Z M45 470 L48 483 C51 492 56 501 63 509 C71 518 80 522 91 522 C101 522 111 519 120 513 C129 507 137 500 142 493 C149 485 157 478 168 472 C178 465 191 462 205 462 C220 462 234 466 246 473 C259 480 268 488 275 497 C282 505 288 515 293 526 C298 538 301 546 302 550 C303 555 304 558 304 561 L262 561 L260 547 C257 539 251 530 244 521 C236 512 227 508 217 508 C204 508 192 513 181 523 C171 533 159 543 147 553 C134 563 119 568 101 568 C86 568 73 564 61 557 C48 550 39 542 32 534 C25 525 20 515 14 504 C9 493 7 485 6 480 C4 476 3 472 3 470 L45 470 Z " />
<glyph glyph-name="odieresis" unicode="&#xf6;" horiz-adv-x="307" d="M22 109 C16 74 20 45 38 24 C56 3 80 -8 112 -8 C144 -8 173 3 201 26 C227 48 243 77 249 111 L284 299 C291 333 285 361 267 383 C250 405 225 415 193 415 C161 415 131 404 106 382 C80 360 63 331 57 296 L22 109 Z M109 296 C113 318 121 335 135 348 C149 361 165 367 183 367 C201 367 215 361 224 348 C233 335 236 318 232 296 L197 111 C193 90 184 72 171 59 C156 47 140 40 122 40 C104 40 90 47 82 59 C72 72 70 90 74 111 L109 296 Z M158 534 C139 534 119 519 116 498 C112 480 125 463 145 463 C163 463 184 477 188 498 C191 517 179 534 158 534 L158 534 Z M278 534 C259 534 238 520 235 498 C231 479 245 463 265 463 C283 463 303 477 307 498 C310 517 299 533 278 534 L278 534 Z " />
<glyph glyph-name="divide" unicode="&#xf7;" horiz-adv-x="344" d="M302 264 L311 308 L43 308 L34 264 L302 264 Z M206 467 C188 467 167 451 163 431 C160 412 171 395 192 395 C211 395 231 410 235 431 C239 450 225 466 206 467 L206 467 Z M153 177 C135 177 114 161 110 141 C107 123 119 105 139 105 C157 105 178 121 182 141 C185 159 173 177 153 177 L153 177 Z " />
<glyph glyph-name="oslash" unicode="&#xf8;" horiz-adv-x="308" d="M325 431 L289 431 L261 389 C243 407 221 416 194 416 C161 416 132 404 106 382 C80 360 63 331 57 296 L22 109 C18 85 19 63 27 43 L-18 -24 L17 -23 L45 18 C62 1 84 -8 113 -8 C145 -8 174 3 201 26 C227 48 244 77 251 112 L285 299 C290 323 288 345 279 363 L325 431 Z M109 296 C113 319 121 336 136 349 C149 362 165 368 184 368 C205 368 221 359 228 341 L75 113 L109 296 Z M123 39 C101 39 86 48 78 66 L233 295 L199 112 C194 90 185 72 172 59 C157 46 141 39 123 39 L123 39 Z " />
<glyph glyph-name="ugrave" unicode="&#xf9;" horiz-adv-x="306" d="M198 110 C194 88 185 71 170 59 C156 46 140 40 122 40 C105 40 92 46 83 59 C76 71 74 88 78 110 L131 407 L79 407 L24 100 C18 67 21 40 36 21 C49 2 69 -8 96 -8 C134 -8 184 24 196 76 L182 0 L230 0 L303 407 L251 407 L198 110 Z M203 560 L147 560 L185 431 L227 431 L203 560 Z " />
<glyph glyph-name="uacute" unicode="&#xfa;" horiz-adv-x="306" d="M198 110 C194 88 185 71 170 59 C156 46 140 40 122 40 C105 40 92 46 83 59 C76 71 74 88 78 110 L131 407 L79 407 L24 100 C18 67 21 40 36 21 C49 2 69 -8 96 -8 C134 -8 184 24 196 76 L182 0 L230 0 L303 407 L251 407 L198 110 Z M148 439 L190 439 L275 568 L219 568 L148 439 Z " />
<glyph glyph-name="ucircumflex" unicode="&#xfb;" horiz-adv-x="306" d="M198 110 C194 88 185 71 170 59 C156 46 140 40 122 40 C105 40 92 46 83 59 C76 71 74 88 78 110 L131 407 L79 407 L24 100 C18 67 21 40 36 21 C49 2 69 -8 96 -8 C134 -8 184 24 196 76 L182 0 L230 0 L303 407 L251 407 L198 110 Z M37 431 L78 431 L147 518 L184 431 L228 431 L178 560 L133 560 L37 431 Z " />
<glyph glyph-name="udieresis" unicode="&#xfc;" horiz-adv-x="306" d="M198 110 C194 88 185 71 170 59 C156 46 140 40 122 40 C105 40 92 46 83 59 C76 71 74 88 78 110 L131 407 L79 407 L24 100 C18 67 21 40 36 21 C49 2 69 -8 96 -8 C134 -8 184 24 196 76 L182 0 L230 0 L303 407 L251 407 L198 110 Z M152 534 C133 534 113 519 110 498 C106 480 119 463 139 463 C157 463 178 477 182 498 C185 517 173 534 152 534 L152 534 Z M272 534 C253 534 232 520 229 498 C225 479 239 463 259 463 C277 463 297 477 301 498 C304 517 293 533 272 534 L272 534 Z " />
<glyph glyph-name="yacute" unicode="&#xfd;" horiz-adv-x="270" d="M86 0 C72 -35 59 -60 48 -72 C35 -85 21 -91 5 -91 C-1 -91 -10 -91 -10 -91 L-18 -136 L6 -136 C70 -136 105 -66 129 -12 L304 407 L252 407 L127 81 L120 407 L64 407 L86 0 Z M131 439 L173 439 L258 568 L202 568 L131 439 Z " />
<glyph glyph-name="thorn" unicode="&#xfe;" horiz-adv-x="308" d="M-22 -67 L30 -67 L65 127 C61 77 94 53 126 53 C155 53 181 64 203 84 C226 105 241 131 247 164 L284 368 C290 401 285 427 271 447 C256 467 234 477 204 477 C172 477 133 449 115 401 L155 621 L102 621 L-22 -67 Z M196 173 C192 151 183 133 170 121 C156 108 139 101 121 101 C103 101 90 108 81 121 C71 133 69 151 73 173 L107 357 C111 379 119 396 134 409 C147 422 163 428 181 428 C199 428 213 422 223 409 C231 396 234 379 230 357 L196 173 Z " />
<glyph glyph-name="ydieresis" unicode="&#xff;" horiz-adv-x="270" d="M86 0 C72 -35 59 -60 48 -72 C35 -85 21 -91 5 -91 C-1 -91 -10 -91 -10 -91 L-18 -136 L6 -136 C70 -136 105 -66 129 -12 L304 407 L252 407 L127 81 L120 407 L64 407 L86 0 Z M142 543 C123 543 103 528 100 507 C96 489 109 472 129 472 C147 472 168 486 172 507 C175 526 163 543 142 543 L142 543 Z M262 543 C243 543 222 529 219 507 C215 488 229 472 249 472 C267 472 287 486 291 507 C294 526 283 542 262 543 L262 543 Z " />
<glyph glyph-name="Abreve" unicode="&#x102;" horiz-adv-x="300" d="M229 560 L169 560 L-37 0 L15 0 L67 142 L187 142 L189 0 L237 0 L229 560 Z M183 459 L187 186 L83 186 L183 459 Z M136 731 L128 691 C123 664 127 642 140 626 C153 609 173 601 199 601 C226 601 249 609 269 626 C288 643 300 665 306 693 L313 731 L272 731 L264 691 C261 675 255 663 245 653 C235 643 222 639 206 639 C191 639 180 643 174 653 C168 663 166 675 169 691 L177 731 L136 731 Z " />
<glyph glyph-name="abreve" unicode="&#x103;" horiz-adv-x="297" d="M7 108 C1 73 6 45 21 24 C35 3 58 -8 88 -8 C132 -8 174 31 187 77 L173 0 L219 0 L275 303 C281 336 276 363 259 384 C241 405 217 415 186 415 C156 415 128 405 104 383 C80 362 63 334 57 300 L108 303 C111 323 119 339 133 351 C146 364 161 370 177 370 C194 370 207 364 216 351 C224 339 226 323 223 303 L205 207 C191 232 168 245 136 245 C106 245 79 234 56 212 C32 190 17 161 11 127 L7 108 Z M63 128 C67 151 76 169 91 182 C104 196 122 203 141 203 C160 203 174 196 184 182 C192 169 195 151 191 128 L188 111 C183 88 174 70 161 57 C146 43 129 36 110 36 C91 36 76 43 68 57 C58 70 55 88 60 111 L63 128 Z M126 568 L118 528 C113 501 117 479 130 463 C143 446 163 438 189 438 C216 438 239 446 259 463 C278 480 290 502 296 530 L303 568 L262 568 L254 528 C251 512 245 500 235 490 C225 480 212 476 196 476 C181 476 170 480 164 490 C158 500 156 512 159 528 L167 568 L126 568 Z " />
<glyph glyph-name="Aogonek" unicode="&#x104;" horiz-adv-x="300" d="M229 560 L169 560 L-37 0 L15 0 L67 142 L187 142 L189 0 L237 0 L229 560 Z M183 459 L187 186 L83 186 L183 459 Z M224 29 C196 8 170 -14 163 -51 C159 -77 165 -98 181 -115 C197 -132 220 -141 249 -141 C263 -141 273 -139 279 -137 L287 -99 L258 -102 C240 -102 226 -96 216 -86 C207 -75 203 -62 207 -45 C211 -20 222 -2 237 7 L224 29 Z " />
<glyph glyph-name="aogonek" unicode="&#x105;" horiz-adv-x="297" d="M7 108 C1 73 6 45 21 24 C35 3 58 -8 88 -8 C132 -8 174 31 187 77 L173 0 L219 0 L275 303 C281 336 276 363 259 384 C241 405 217 415 186 415 C156 415 128 405 104 383 C80 362 63 334 57 300 L108 303 C111 323 119 339 133 351 C146 364 161 370 177 370 C194 370 207 364 216 351 C224 339 226 323 223 303 L205 207 C191 232 168 245 136 245 C106 245 79 234 56 212 C32 190 17 161 11 127 L7 108 Z M63 128 C67 151 76 169 91 182 C104 196 122 203 141 203 C160 203 174 196 184 182 C192 169 195 151 191 128 L188 111 C183 88 174 70 161 57 C146 43 129 36 110 36 C91 36 76 43 68 57 C58 70 55 88 60 111 L63 128 Z M207 25 C179 4 153 -18 146 -55 C142 -81 148 -102 164 -119 C180 -136 203 -145 232 -145 C246 -145 256 -143 262 -141 L270 -103 L241 -106 C223 -106 209 -100 199 -90 C190 -79 186 -66 190 -49 C194 -24 205 -6 220 3 L207 25 Z " />
<glyph glyph-name="Cacute" unicode="&#x106;" horiz-adv-x="309" d="M193 118 C189 94 179 76 165 62 C150 49 134 42 114 42 C94 42 79 49 70 62 C60 76 57 94 61 118 L124 442 C128 465 139 484 153 497 C168 511 185 518 205 518 C225 518 239 511 248 497 C258 484 260 465 256 442 L242 372 L294 372 L308 445 C315 482 310 512 293 534 C276 557 250 568 216 568 C181 568 149 556 122 533 C95 510 78 479 71 442 L8 116 C1 78 6 48 24 26 C42 3 68 -8 103 -8 C137 -8 167 3 195 26 C221 49 238 80 245 117 L260 196 L208 196 L193 118 Z M158 639 L200 639 L285 768 L229 768 L158 639 Z " />
<glyph glyph-name="cacute" unicode="&#x107;" horiz-adv-x="298" d="M200 156 L191 108 C187 87 178 71 165 59 C152 46 137 40 120 40 C103 40 90 46 81 59 C72 71 70 87 74 108 L109 299 C113 320 121 337 134 349 C147 361 163 367 180 367 C197 367 209 361 218 349 C227 337 230 320 226 299 L218 255 L267 255 L276 302 C282 336 277 363 261 384 C243 405 220 415 189 415 C158 415 130 405 104 383 C78 361 63 334 57 299 L22 106 C16 72 21 45 38 24 C55 3 79 -8 110 -8 C141 -8 168 3 193 25 C219 47 234 75 240 108 L249 156 L200 156 Z M153 439 L195 439 L280 568 L224 568 L153 439 Z " />
<glyph glyph-name="Ccaron" unicode="&#x10c;" horiz-adv-x="308" d="M193 118 C189 94 179 76 165 62 C150 49 134 42 114 42 C94 42 79 49 70 62 C60 76 57 94 61 118 L124 442 C128 465 139 484 153 497 C168 511 185 518 205 518 C225 518 239 511 248 497 C258 484 260 465 256 442 L242 372 L294 372 L308 445 C315 482 310 512 293 534 C276 557 250 568 216 568 C181 568 149 556 122 533 C95 510 78 479 71 442 L8 116 C1 78 6 48 24 26 C42 3 68 -8 103 -8 C137 -8 167 3 195 26 C221 49 238 80 245 117 L260 196 L208 196 L193 118 Z M324 746 L282 749 L213 662 L176 749 L132 749 L181 620 L227 620 L324 746 Z " />
<glyph glyph-name="ccaron" unicode="&#x10d;" horiz-adv-x="298" d="M200 156 L191 108 C187 87 178 71 165 59 C152 46 137 40 120 40 C103 40 90 46 81 59 C72 71 70 87 74 108 L109 299 C113 320 121 337 134 349 C147 361 163 367 180 367 C197 367 209 361 218 349 C227 337 230 320 226 299 L218 255 L267 255 L276 302 C282 336 277 363 261 384 C243 405 220 415 189 415 C158 415 130 405 104 383 C78 361 63 334 57 299 L22 106 C16 72 21 45 38 24 C55 3 79 -8 110 -8 C141 -8 168 3 193 25 C219 47 234 75 240 108 L249 156 L200 156 Z M318 583 L276 586 L207 499 L170 586 L126 586 L175 457 L221 457 L318 583 Z " />
<glyph glyph-name="Dcaron" unicode="&#x10e;" horiz-adv-x="324" d="M-12 0 L100 0 C139 0 174 12 202 36 C231 60 249 93 257 136 L311 426 C318 468 313 501 294 525 C274 548 246 560 207 560 L92 560 L-12 0 Z M136 511 L194 511 C219 511 237 504 247 488 C258 473 261 451 256 423 L203 137 C198 109 187 87 170 72 C154 56 134 49 109 49 L51 49 L136 511 Z M317 734 L275 737 L206 650 L169 737 L125 737 L174 608 L220 608 L317 734 Z " />
<glyph glyph-name="dcroat" unicode="&#x111;" horiz-adv-x="327" d="M319 560 L267 560 L257 506 L178 506 L171 467 L250 467 L234 380 C220 404 198 416 166 416 C138 416 111 405 88 385 C65 365 51 338 45 305 L7 100 C1 68 5 42 19 22 C35 2 56 -8 85 -8 C122 -8 163 10 182 76 L168 0 L215 0 L302 467 L359 467 L366 506 L309 506 L319 560 Z M95 296 C99 318 107 335 122 348 C135 361 151 367 169 367 C187 367 201 361 211 348 C219 335 222 318 218 296 L184 112 C180 90 171 72 157 60 C143 47 127 40 109 40 C91 40 77 47 68 60 C59 72 57 90 61 112 L95 296 Z " />
<glyph glyph-name="Edotaccent" unicode="&#x116;" horiz-adv-x="262" d="M187 0 L197 51 L51 51 L91 268 L209 268 L218 316 L100 316 L136 509 L278 509 L288 560 L92 560 L-12 0 L187 0 Z M185 696 C166 696 147 681 144 660 C140 641 152 625 173 625 C192 625 211 639 215 660 C218 680 207 696 185 696 L185 696 Z " />
<glyph glyph-name="edotaccent" unicode="&#x117;" horiz-adv-x="304" d="M198 111 C194 90 186 72 171 59 C158 47 142 40 124 40 C106 40 92 47 82 59 C74 72 71 90 75 111 L92 207 L264 207 L281 299 C288 335 283 363 266 384 C248 405 224 415 192 415 C160 415 131 404 105 383 C79 361 63 332 57 298 L22 108 C16 74 22 45 39 24 C56 3 80 -8 112 -8 C144 -8 173 3 199 25 C224 47 240 75 247 111 L251 132 L202 132 L198 111 Z M109 299 C113 321 122 339 136 351 C150 364 166 371 184 371 C202 371 216 364 225 351 C234 339 236 321 232 299 L222 244 L99 244 L109 299 Z M209 554 C190 554 171 539 168 518 C164 499 176 483 197 483 C216 483 235 497 239 518 C242 538 231 554 209 554 L209 554 Z " />
<glyph glyph-name="Eogonek" unicode="&#x118;" horiz-adv-x="257" d="M187 0 L197 51 L51 51 L91 268 L209 268 L218 316 L100 316 L136 509 L278 509 L288 560 L92 560 L-12 0 L187 0 Z M159 23 C131 2 105 -20 98 -57 C94 -83 100 -104 116 -121 C132 -138 155 -147 184 -147 C198 -147 208 -145 214 -143 L222 -105 L193 -108 C175 -108 161 -102 151 -92 C142 -81 138 -68 142 -51 C146 -26 157 -8 172 1 L159 23 Z " />
<glyph glyph-name="eogonek" unicode="&#x119;" horiz-adv-x="304" d="M198 111 C194 90 186 72 171 59 C158 47 142 40 124 40 C106 40 92 47 82 59 C74 72 71 90 75 111 L92 207 L264 207 L281 299 C288 335 283 363 266 384 C248 405 224 415 192 415 C160 415 131 404 105 383 C79 361 63 332 57 298 L22 108 C16 74 22 45 39 24 C56 3 80 -8 112 -8 C144 -8 173 3 199 25 C224 47 240 75 247 111 L251 132 L202 132 L198 111 Z M109 299 C113 321 122 339 136 351 C150 364 166 371 184 371 C202 371 216 364 225 351 C234 339 236 321 232 299 L222 244 L99 244 L109 299 Z M157 29 C129 8 103 -14 96 -51 C92 -77 98 -98 114 -115 C130 -132 153 -141 182 -141 C196 -141 206 -139 212 -137 L220 -99 L191 -102 C173 -102 159 -96 149 -86 C140 -75 136 -62 140 -45 C144 -20 155 -2 170 7 L157 29 Z " />
<glyph glyph-name="Ecaron" unicode="&#x11a;" horiz-adv-x="256" d="M187 0 L197 51 L51 51 L91 268 L209 268 L218 316 L100 316 L136 509 L278 509 L288 560 L92 560 L-12 0 L187 0 Z M298 731 L256 734 L187 647 L150 734 L106 734 L155 605 L201 605 L298 731 Z " />
<glyph glyph-name="ecaron" unicode="&#x11b;" horiz-adv-x="304" d="M198 111 C194 90 186 72 171 59 C158 47 142 40 124 40 C106 40 92 47 82 59 C74 72 71 90 75 111 L92 207 L264 207 L281 299 C288 335 283 363 266 384 C248 405 224 415 192 415 C160 415 131 404 105 383 C79 361 63 332 57 298 L22 108 C16 74 22 45 39 24 C56 3 80 -8 112 -8 C144 -8 173 3 199 25 C224 47 240 75 247 111 L251 132 L202 132 L198 111 Z M109 299 C113 321 122 339 136 351 C150 364 166 371 184 371 C202 371 216 364 225 351 C234 339 236 321 232 299 L222 244 L99 244 L109 299 Z M320 583 L278 586 L209 499 L172 586 L128 586 L177 457 L223 457 L320 583 Z " />
<glyph glyph-name="Itilde" unicode="&#x128;" horiz-adv-x="136" d="M-12 0 L43 0 L148 560 L92 560 L-12 0 Z M-42 617 L-39 630 C-36 639 -31 648 -24 656 C-16 665 -7 669 4 669 C14 669 24 666 33 660 C42 654 50 647 55 640 C62 632 70 625 81 619 C91 612 104 609 118 609 C133 609 147 613 159 620 C172 627 181 635 188 644 C195 652 201 662 206 673 C211 685 214 693 215 697 C216 702 217 705 217 708 L175 708 L173 694 C170 686 164 677 157 668 C149 659 140 655 130 655 C117 655 105 660 94 670 C84 680 72 690 60 700 C47 710 32 715 14 715 C-1 715 -14 711 -26 704 C-39 697 -48 689 -55 681 C-62 672 -67 662 -73 651 C-78 640 -80 632 -81 627 C-83 623 -84 619 -84 617 L-42 617 Z " />
<glyph glyph-name="Iogonek" unicode="&#x12e;" horiz-adv-x="136" d="M-12 0 L43 0 L148 560 L92 560 L-12 0 Z M30 23 C2 2 -24 -20 -31 -57 C-35 -83 -29 -104 -13 -121 C3 -138 26 -147 55 -147 C69 -147 79 -145 85 -143 L93 -105 L64 -108 C46 -108 32 -102 22 -92 C13 -81 9 -68 13 -51 C17 -26 28 -8 43 1 L30 23 Z " />
<glyph glyph-name="iogonek" unicode="&#x12f;" horiz-adv-x="134" d="M117 560 C97 560 76 544 72 522 C68 502 81 484 103 484 C123 484 144 500 148 522 C152 542 139 560 117 560 L117 560 Z M-10 0 L43 0 L116 407 L62 407 L-10 0 Z M31 24 C3 3 -23 -19 -30 -56 C-34 -82 -28 -103 -12 -120 C4 -137 27 -146 56 -146 C70 -146 80 -144 86 -142 L94 -104 L65 -107 C47 -107 33 -101 23 -91 C14 -80 10 -67 14 -50 C18 -25 29 -7 44 2 L31 24 Z " />
<glyph glyph-name="Lacute" unicode="&#x139;" horiz-adv-x="239" d="M172 0 L182 51 L52 51 L145 560 L91 560 L-11 0 L172 0 Z M115 639 L157 639 L242 768 L186 768 L115 639 Z " />
<glyph glyph-name="lacute" unicode="&#x13a;" horiz-adv-x="133" d="M-9 0 L43 0 L142 560 L89 560 L-9 0 Z M69 583 L111 583 L196 712 L140 712 L69 583 Z " />
<glyph glyph-name="Lslash" unicode="&#x141;" horiz-adv-x="298" d="M228 0 L238 52 L108 52 L147 273 L259 294 L266 333 L153 312 L198 560 L144 560 L97 301 L29 288 L23 249 L91 262 L44 0 L228 0 L228 0 Z " />
<glyph glyph-name="lslash" unicode="&#x142;" horiz-adv-x="250" d="M38 0 L92 0 L142 270 L210 282 L217 321 L149 309 L195 560 L141 560 L93 299 L34 288 L27 249 L86 260 L38 0 L38 0 Z " />
<glyph glyph-name="Nacute" unicode="&#x143;" horiz-adv-x="333" d="M191 0 L240 0 L345 560 L296 560 L216 130 L145 560 L92 560 L-12 0 L36 0 L118 439 L191 0 Z M162 620 L204 620 L289 749 L233 749 L162 620 Z " />
<glyph glyph-name="nacute" unicode="&#x144;" horiz-adv-x="288" d="M108 298 C113 320 122 337 136 349 C149 361 165 367 183 367 C201 367 214 361 222 349 C231 337 233 320 228 298 L173 0 L225 0 L282 307 C288 341 284 367 271 387 C258 406 237 415 209 415 C171 415 122 383 110 331 L124 407 L77 407 L1 0 L53 0 L108 298 Z M148 439 L190 439 L275 568 L219 568 L148 439 Z " />
<glyph glyph-name="Ncaron" unicode="&#x147;" horiz-adv-x="333" d="M191 0 L240 0 L345 560 L296 560 L216 130 L145 560 L92 560 L-12 0 L36 0 L118 439 L191 0 Z M328 725 L286 728 L217 641 L180 728 L136 728 L185 599 L231 599 L328 725 Z " />
<glyph glyph-name="ncaron" unicode="&#x148;" horiz-adv-x="288" d="M108 298 C113 320 122 337 136 349 C149 361 165 367 183 367 C201 367 214 361 222 349 C231 337 233 320 228 298 L173 0 L225 0 L282 307 C288 341 284 367 271 387 C258 406 237 415 209 415 C171 415 122 383 110 331 L124 407 L77 407 L1 0 L53 0 L108 298 Z M312 587 L270 590 L201 503 L164 590 L120 590 L169 461 L215 461 L312 587 Z " />
<glyph glyph-name="Ohungarumlaut" unicode="&#x150;" horiz-adv-x="328" d="M10 120 C3 81 8 50 27 27 C47 4 74 -8 110 -8 C145 -8 177 4 205 28 C234 51 251 83 259 122 L317 440 C324 479 318 510 299 533 C279 556 252 568 216 568 C181 568 149 556 121 532 C92 508 76 477 68 438 L10 120 Z M121 438 C126 462 136 482 152 496 C168 510 186 518 207 518 C227 518 243 510 253 496 C263 482 266 462 261 438 L204 122 C199 97 190 78 174 64 C158 49 140 42 120 42 C99 42 83 49 73 64 C63 78 59 97 64 122 L121 438 Z M160 603 L200 603 L270 733 L215 733 L160 603 Z M273 603 L314 603 L384 733 L329 733 L273 603 Z " />
<glyph glyph-name="ohungarumlaut" unicode="&#x151;" horiz-adv-x="307" d="M22 109 C16 74 20 45 38 24 C56 3 80 -8 112 -8 C144 -8 173 3 201 26 C227 48 243 77 249 111 L284 299 C291 333 285 361 267 383 C250 405 225 415 193 415 C161 415 131 404 106 382 C80 360 63 331 57 296 L22 109 Z M109 296 C113 318 121 335 135 348 C149 361 165 367 183 367 C201 367 215 361 224 348 C233 335 236 318 232 296 L197 111 C193 90 184 72 171 59 C156 47 140 40 122 40 C104 40 90 47 82 59 C72 72 70 90 74 111 L109 296 Z M151 438 L191 438 L261 568 L206 568 L151 438 Z M264 438 L305 438 L375 568 L320 568 L264 438 Z " />
<glyph glyph-name="OE" unicode="&#x152;" horiz-adv-x="441" d="M377 0 L387 52 L242 52 L281 268 L398 268 L407 316 L290 316 L325 509 L466 509 L476 560 L222 560 C182 560 149 548 120 524 C92 500 74 467 66 424 L13 134 C5 91 10 58 29 35 C48 12 77 0 116 0 L377 0 Z M186 49 L129 49 C104 49 87 57 75 72 C64 87 61 109 66 137 L119 423 C124 452 135 474 152 489 C168 504 189 511 214 511 L271 511 L186 49 Z " />
<glyph glyph-name="oe" unicode="&#x153;" horiz-adv-x="479" d="M373 112 C369 90 360 72 346 59 C332 47 316 40 298 40 C280 40 266 47 257 59 C248 72 246 90 250 112 L267 207 L439 207 L456 299 C463 335 457 363 440 384 C423 405 398 415 366 415 C329 415 298 401 271 372 C257 401 230 415 192 415 C159 415 130 404 104 382 C78 360 63 331 57 296 L22 109 C16 74 21 46 39 24 C56 3 81 -8 113 -8 C150 -8 182 7 208 35 C223 7 249 -8 287 -8 C319 -8 348 3 373 25 C399 47 415 76 422 111 L426 132 L377 132 L373 112 Z M108 296 C112 318 121 335 135 348 C148 361 165 367 183 367 C201 367 214 361 223 348 C233 335 236 318 232 296 L198 112 C194 90 185 72 170 59 C157 47 141 40 123 40 C105 40 91 47 82 59 C73 72 70 90 74 112 L108 296 Z M284 299 C288 321 296 339 311 352 C324 364 340 371 358 371 C376 371 390 364 400 352 C408 339 411 321 407 299 L397 244 L274 244 L284 299 Z " />
<glyph glyph-name="Racute" unicode="&#x154;" horiz-adv-x="310" d="M301 370 L311 424 C319 467 313 501 293 524 C275 548 245 560 204 560 L91 560 L-11 0 L42 0 L85 234 L139 234 C142 234 145 234 147 234 C168 236 188 225 195 214 C205 201 208 182 203 159 L174 0 L226 0 L256 162 C263 199 257 229 239 251 C237 255 234 258 231 261 C268 283 292 319 301 370 L301 370 Z M182 284 C173 281 162 279 151 279 L93 279 L136 511 L194 511 C219 511 236 504 248 488 C258 473 261 451 256 423 L245 367 C240 339 229 317 214 302 C204 293 194 287 182 284 L182 284 Z M151 639 L193 639 L278 768 L222 768 L151 639 Z " />
<glyph glyph-name="racute" unicode="&#x155;" horiz-adv-x="201" d="M224 415 C172 415 128 383 111 331 L125 407 L77 407 L1 0 L53 0 L103 267 C108 298 121 321 138 337 C155 352 177 360 203 360 L214 360 L224 415 Z M95 439 L137 439 L222 568 L166 568 L95 439 Z " />
<glyph glyph-name="Rcaron" unicode="&#x158;" horiz-adv-x="310" d="M301 370 L311 424 C319 467 313 501 293 524 C275 548 245 560 204 560 L91 560 L-11 0 L42 0 L85 234 L139 234 C142 234 145 234 147 234 C168 236 188 225 195 214 C205 201 208 182 203 159 L174 0 L226 0 L256 162 C263 199 257 229 239 251 C237 255 234 258 231 261 C268 283 292 319 301 370 L301 370 Z M182 284 C173 281 162 279 151 279 L93 279 L136 511 L194 511 C219 511 236 504 248 488 C258 473 261 451 256 423 L245 367 C240 339 229 317 214 302 C204 293 194 287 182 284 L182 284 Z M307 745 L265 748 L196 661 L159 748 L115 748 L164 619 L210 619 L307 745 Z " />
<glyph glyph-name="rcaron" unicode="&#x159;" horiz-adv-x="201" d="M224 415 C172 415 128 383 111 331 L125 407 L77 407 L1 0 L53 0 L103 267 C108 298 121 321 138 337 C155 352 177 360 203 360 L214 360 L224 415 Z M265 596 L223 599 L154 512 L117 599 L73 599 L122 470 L168 470 L265 596 Z " />
<glyph glyph-name="Sacute" unicode="&#x15a;" horiz-adv-x="284" d="M50 156 L-1 156 L-8 119 C-15 80 -10 49 7 26 C26 3 52 -8 88 -8 C124 -8 156 4 183 27 C212 51 229 81 236 119 C242 154 239 187 228 217 C216 247 196 279 167 311 C143 338 126 361 118 382 C109 402 107 423 111 446 C115 469 124 486 138 499 C152 512 169 518 189 518 C209 518 224 512 233 498 C243 484 249 466 244 442 L239 416 L290 416 L296 445 C302 482 295 512 277 534 C259 557 233 568 199 568 C165 568 134 557 107 534 C80 511 62 482 56 445 C46 390 66 334 118 276 C145 245 164 217 175 194 C185 171 187 146 182 118 C177 94 168 76 153 62 C137 48 119 41 98 41 C77 41 62 48 52 63 C41 77 39 97 44 122 L50 156 Z M149 619 L191 619 L276 748 L220 748 L149 619 Z " />
<glyph glyph-name="sacute" unicode="&#x15b;" horiz-adv-x="262" d="M214 299 L263 299 L266 311 C271 342 266 367 249 386 C232 406 208 415 177 415 C146 415 118 406 94 386 C70 367 55 342 50 312 C41 261 62 222 116 193 C142 179 161 165 170 151 C180 137 183 122 180 103 C176 84 168 68 153 56 C140 44 124 39 106 39 C88 39 74 44 65 56 C56 68 52 84 56 104 L58 116 L9 116 L7 103 C2 70 6 43 24 23 C41 2 66 -8 98 -8 C130 -8 159 3 185 24 C211 45 226 72 232 104 C237 134 234 158 221 179 C209 199 187 217 158 232 C134 245 118 257 109 269 C101 281 98 296 101 312 C104 329 112 343 125 354 C138 364 152 370 169 370 C186 370 198 364 207 353 C216 342 220 328 217 311 L214 299 Z M135 439 L177 439 L262 568 L206 568 L135 439 Z " />
<glyph glyph-name="Scedilla" unicode="&#x15e;" horiz-adv-x="284" d="M50 156 L-1 156 L-8 119 C-15 80 -10 49 7 26 C26 3 52 -8 88 -8 C124 -8 156 4 183 27 C212 51 229 81 236 119 C242 154 239 187 228 217 C216 247 196 279 167 311 C143 338 126 361 118 382 C109 402 107 423 111 446 C115 469 124 486 138 499 C152 512 169 518 189 518 C209 518 224 512 233 498 C243 484 249 466 244 442 L239 416 L290 416 L296 445 C302 482 295 512 277 534 C259 557 233 568 199 568 C165 568 134 557 107 534 C80 511 62 482 56 445 C46 390 66 334 118 276 C145 245 164 217 175 194 C185 171 187 146 182 118 C177 94 168 76 153 62 C137 48 119 41 98 41 C77 41 62 48 52 63 C41 77 39 97 44 122 L50 156 Z M145 1 L153 -4 C158 -8 162 -15 167 -25 C169 -36 170 -48 168 -60 C165 -77 157 -91 145 -101 C132 -111 118 -116 101 -116 C86 -116 76 -114 71 -111 L64 -149 L68 -151 C71 -152 76 -153 82 -154 C88 -154 94 -155 101 -155 C127 -155 150 -147 171 -131 C193 -116 206 -94 212 -66 C214 -54 214 -43 212 -33 C210 -22 208 -14 203 -8 C199 -2 195 3 189 8 C184 13 179 16 178 18 C176 19 174 20 172 21 L145 1 Z " />
<glyph glyph-name="Scaron" unicode="&#x160;" horiz-adv-x="278" d="M44 156 L-7 156 L-14 119 C-21 80 -16 49 1 26 C20 3 46 -8 82 -8 C118 -8 150 4 177 27 C206 51 223 81 230 119 C236 154 233 187 222 217 C210 247 190 279 161 311 C137 338 120 361 112 382 C103 402 101 423 105 446 C109 469 118 486 132 499 C146 512 163 518 183 518 C203 518 218 512 227 498 C237 484 243 466 238 442 L233 416 L284 416 L290 445 C296 482 289 512 271 534 C253 557 227 568 193 568 C159 568 128 557 101 534 C74 511 56 482 50 445 C40 390 60 334 112 276 C139 245 158 217 169 194 C179 171 181 146 176 118 C171 94 162 76 147 62 C131 48 113 41 92 41 C71 41 56 48 46 63 C35 77 33 97 38 122 L44 156 Z M309 724 L267 727 L198 640 L161 727 L117 727 L166 598 L212 598 L309 724 Z " />
<glyph glyph-name="scaron" unicode="&#x161;" horiz-adv-x="262" d="M214 299 L263 299 L266 311 C271 342 266 367 249 386 C232 406 208 415 177 415 C146 415 118 406 94 386 C70 367 55 342 50 312 C41 261 62 222 116 193 C142 179 161 165 170 151 C180 137 183 122 180 103 C176 84 168 68 153 56 C140 44 124 39 106 39 C88 39 74 44 65 56 C56 68 52 84 56 104 L58 116 L9 116 L7 103 C2 70 6 43 24 23 C41 2 66 -8 98 -8 C130 -8 159 3 185 24 C211 45 226 72 232 104 C237 134 234 158 221 179 C209 199 187 217 158 232 C134 245 118 257 109 269 C101 281 98 296 101 312 C104 329 112 343 125 354 C138 364 152 370 169 370 C186 370 198 364 207 353 C216 342 220 328 217 311 L214 299 Z M303 572 L261 575 L192 488 L155 575 L111 575 L160 446 L206 446 L303 572 Z " />
<glyph glyph-name="Tcaron" unicode="&#x164;" horiz-adv-x="284" d="M308 509 L318 560 L68 560 L58 509 L156 509 L63 0 L117 0 L210 509 L308 509 Z M309 727 L267 730 L198 643 L161 730 L117 730 L166 601 L212 601 L309 727 Z " />
<glyph glyph-name="utilde" unicode="&#x169;" horiz-adv-x="304" d="M196 110 C192 88 183 71 168 59 C154 46 138 40 120 40 C103 40 90 46 81 59 C74 71 72 88 76 110 L129 407 L77 407 L22 100 C16 67 19 40 34 21 C47 2 67 -8 94 -8 C132 -8 182 24 194 76 L180 0 L228 0 L301 407 L249 407 L196 110 Z M43 468 L46 481 C49 490 54 499 61 507 C69 516 78 520 89 520 C99 520 109 517 118 511 C127 505 135 498 140 491 C147 483 155 476 166 470 C176 463 189 460 203 460 C218 460 232 464 244 471 C257 478 266 486 273 495 C280 503 286 513 291 524 C296 536 299 544 300 548 C301 553 302 556 302 559 L260 559 L258 545 C255 537 249 528 242 519 C234 510 225 506 215 506 C202 506 190 511 179 521 C169 531 157 541 145 551 C132 561 117 566 99 566 C84 566 71 562 59 555 C46 548 37 540 30 532 C23 523 18 513 12 502 C7 491 5 483 4 478 C2 474 1 470 1 468 L43 468 Z " />
<glyph glyph-name="Uring" unicode="&#x16e;" horiz-adv-x="320" d="M276 560 L198 118 C193 94 184 76 170 62 C155 49 138 42 118 42 C99 42 84 49 74 62 C64 76 61 94 66 118 L144 560 L90 560 L11 116 C4 78 10 48 28 26 C47 3 73 -8 108 -8 C142 -8 173 3 200 26 C227 49 245 80 252 118 L330 560 L276 560 Z M181 724 C165 711 155 694 152 674 C148 654 152 637 162 624 C173 611 190 605 210 605 C231 605 249 611 265 624 C281 637 291 654 295 674 C298 694 294 711 284 724 C272 737 256 743 235 743 C215 743 196 737 181 724 L181 724 Z M192 647 C186 654 183 663 186 674 C188 686 193 695 202 702 C210 709 219 712 229 712 C240 712 249 709 255 702 C260 695 263 686 261 674 C258 663 253 653 244 646 C236 640 227 636 216 636 C206 636 197 640 192 647 L192 647 Z " />
<glyph glyph-name="uring" unicode="&#x16f;" horiz-adv-x="288" d="M198 110 C194 88 185 71 170 59 C156 46 140 40 122 40 C105 40 92 46 83 59 C76 71 74 88 78 110 L131 407 L79 407 L24 100 C18 67 21 40 36 21 C49 2 69 -8 96 -8 C134 -8 184 24 196 76 L182 0 L230 0 L303 407 L251 407 L198 110 Z M164 524 C148 511 138 494 135 474 C131 454 135 437 145 424 C156 411 173 405 193 405 C214 405 232 411 248 424 C264 437 274 454 278 474 C281 494 277 511 267 524 C255 537 239 543 218 543 C198 543 179 537 164 524 L164 524 Z M175 447 C169 454 166 463 169 474 C171 486 176 495 185 502 C193 509 202 512 212 512 C223 512 232 509 238 502 C243 495 246 486 244 474 C241 463 236 453 227 446 C219 440 210 436 199 436 C189 436 180 440 175 447 L175 447 Z " />
<glyph glyph-name="Uhungarumlaut" unicode="&#x170;" horiz-adv-x="320" d="M276 560 L198 118 C193 94 184 76 170 62 C155 49 138 42 118 42 C99 42 84 49 74 62 C64 76 61 94 66 118 L144 560 L90 560 L11 116 C4 78 10 48 28 26 C47 3 73 -8 108 -8 C142 -8 173 3 200 26 C227 49 245 80 252 118 L330 560 L276 560 L276 560 Z " />
<glyph glyph-name="uhungarumlaut" unicode="&#x171;" horiz-adv-x="304" d="M196 110 C192 88 183 71 168 59 C154 46 138 40 120 40 C103 40 90 46 81 59 C74 71 72 88 76 110 L129 407 L77 407 L22 100 C16 67 19 40 34 21 C47 2 67 -8 94 -8 C132 -8 182 24 194 76 L180 0 L228 0 L301 407 L249 407 L196 110 Z M154 439 L194 439 L264 569 L209 569 L154 439 Z M267 439 L308 439 L378 569 L323 569 L267 439 Z " />
<glyph glyph-name="Uogonek" unicode="&#x172;" horiz-adv-x="320" d="M276 560 L198 118 C193 94 184 76 170 62 C155 49 138 42 118 42 C99 42 84 49 74 62 C64 76 61 94 66 118 L144 560 L90 560 L11 116 C4 78 10 48 28 26 C47 3 73 -8 108 -8 C142 -8 173 3 200 26 C227 49 245 80 252 118 L330 560 L276 560 Z M153 28 C125 7 99 -15 92 -52 C88 -78 94 -99 110 -116 C126 -133 149 -142 178 -142 C192 -142 202 -140 208 -138 L216 -100 L187 -103 C169 -103 155 -97 145 -87 C136 -76 132 -63 136 -46 C140 -21 151 -3 166 6 L153 28 Z " />
<glyph glyph-name="uogonek" unicode="&#x173;" horiz-adv-x="304" d="M196 110 C192 88 183 71 168 59 C154 46 138 40 120 40 C103 40 90 46 81 59 C74 71 72 88 76 110 L129 407 L77 407 L22 100 C16 67 19 40 34 21 C47 2 67 -8 94 -8 C132 -8 182 24 194 76 L180 0 L228 0 L301 407 L249 407 L196 110 Z M216 24 C188 3 162 -19 155 -56 C151 -82 157 -103 173 -120 C189 -137 212 -146 241 -146 C255 -146 265 -144 271 -142 L279 -104 L250 -107 C232 -107 218 -101 208 -91 C199 -80 195 -67 199 -50 C203 -25 214 -7 229 2 L216 24 Z " />
<glyph glyph-name="Ydieresis" unicode="&#x178;" horiz-adv-x="267" d="M54 0 L109 0 L150 224 L319 560 L263 560 L136 291 L108 560 L51 560 L96 226 L54 0 Z M136 680 C117 680 97 665 94 644 C90 626 103 609 123 609 C141 609 162 623 166 644 C169 663 157 680 136 680 L136 680 Z M256 680 C237 680 216 666 213 644 C209 625 223 609 243 609 C261 609 281 623 285 644 C288 663 277 679 256 680 L256 680 Z " />
<glyph glyph-name="Zacute" unicode="&#x179;" horiz-adv-x="234" d="M172 0 L181 49 L21 49 L268 522 L275 560 L71 560 L62 511 L208 511 L-36 39 L-43 0 L172 0 Z M118 639 L160 639 L245 768 L189 768 L118 639 Z " />
<glyph glyph-name="zacute" unicode="&#x17a;" horiz-adv-x="221" d="M-17 35 L-23 0 L168 0 L176 45 L39 45 L237 373 L243 407 L63 407 L55 363 L181 363 L-17 35 Z M107 439 L149 439 L234 568 L178 568 L107 439 Z " />
<glyph glyph-name="Zdotaccent" unicode="&#x17b;" horiz-adv-x="244" d="M172 0 L181 49 L21 49 L268 522 L275 560 L71 560 L62 511 L208 511 L-36 39 L-43 0 L172 0 Z M172 704 C153 704 134 689 131 668 C127 649 139 633 160 633 C179 633 198 647 202 668 C205 688 194 704 172 704 L172 704 Z " />
<glyph glyph-name="zdotaccent" unicode="&#x17c;" horiz-adv-x="221" d="M-22 35 L-28 0 L163 0 L171 45 L34 45 L232 373 L238 407 L58 407 L50 363 L176 363 L-22 35 Z M154 550 C135 550 116 535 113 514 C109 495 121 479 142 479 C161 479 180 493 184 514 C187 534 176 550 154 550 L154 550 Z " />
<glyph glyph-name="Zcaron" unicode="&#x17d;" horiz-adv-x="245" d="M172 0 L181 49 L21 49 L268 522 L275 560 L71 560 L62 511 L208 511 L-36 39 L-43 0 L172 0 Z M285 725 L243 728 L174 641 L137 728 L93 728 L142 599 L188 599 L285 725 Z " />
<glyph glyph-name="zcaron" unicode="&#x17e;" horiz-adv-x="210" d="M-23 35 L-29 0 L162 0 L170 45 L33 45 L231 373 L237 407 L57 407 L49 363 L175 363 L-23 35 Z M280 570 L238 573 L169 486 L132 573 L88 573 L137 444 L183 444 L280 570 Z " />
<glyph glyph-name="florin" unicode="&#x192;" horiz-adv-x="269" d="M56 -88 L149 259 L237 259 L244 297 L159 297 L200 450 C210 491 232 512 264 512 C277 512 293 512 293 512 L302 560 L267 560 C238 560 213 551 192 534 C172 516 157 491 148 457 L106 297 L31 297 L24 259 L96 259 L4 -88 L56 -88 L56 -88 Z " />
<glyph glyph-name="circumflex" unicode="&#x2c6;" horiz-adv-x="205" d="M-5 431 L36 431 L105 518 L142 431 L186 431 L136 560 L91 560 L-5 431 L-5 431 Z " />
<glyph glyph-name="caron" unicode="&#x2c7;" horiz-adv-x="223" d="M288 694 L246 697 L177 610 L140 697 L96 697 L145 568 L191 568 L288 694 L288 694 Z " />
<glyph glyph-name="breve" unicode="&#x2d8;" horiz-adv-x="226" d="M96 568 L88 528 C83 501 87 479 100 463 C113 446 133 438 159 438 C186 438 209 446 229 463 C248 480 260 502 266 530 L273 568 L232 568 L224 528 C221 512 215 500 205 490 C195 480 182 476 166 476 C151 476 140 480 134 490 C128 500 126 512 129 528 L137 568 L96 568 L96 568 Z " />
<glyph glyph-name="dotaccent" unicode="&#x2d9;" horiz-adv-x="88" d="M99 568 C80 568 61 553 58 532 C54 513 66 497 87 497 C106 497 125 511 129 532 C132 552 121 568 99 568 L99 568 Z " />
<glyph glyph-name="ring" unicode="&#x2da;" horiz-adv-x="189" d="M115 524 C99 511 89 494 86 474 C82 454 86 437 96 424 C107 411 124 405 144 405 C165 405 183 411 199 424 C215 437 225 454 229 474 C232 494 228 511 218 524 C206 537 190 543 169 543 C149 543 130 537 115 524 L115 524 Z M126 447 C120 454 117 463 120 474 C122 486 127 495 136 502 C144 509 153 512 163 512 C174 512 183 509 189 502 C194 495 197 486 195 474 C192 463 187 453 178 446 C170 440 161 436 150 436 C140 436 131 440 126 447 L126 447 Z " />
<glyph glyph-name="ogonek" unicode="&#x2db;" horiz-adv-x="168" d="M76 23 C48 2 22 -20 15 -57 C11 -83 17 -104 33 -121 C49 -138 72 -147 101 -147 C115 -147 125 -145 131 -143 L139 -105 L110 -108 C92 -108 78 -102 68 -92 C59 -81 55 -68 59 -51 C63 -26 74 -8 89 1 L76 23 L76 23 Z " />
<glyph glyph-name="tilde" unicode="&#x2dc;" horiz-adv-x="316" d="M48 470 L51 483 C54 492 59 501 66 509 C74 518 83 522 94 522 C104 522 114 519 123 513 C132 507 140 500 145 493 C152 485 160 478 171 472 C181 465 194 462 208 462 C223 462 237 466 249 473 C262 480 271 488 278 497 C285 505 291 515 296 526 C301 538 304 546 305 550 C306 555 307 558 307 561 L265 561 L263 547 C260 539 254 530 247 521 C239 512 230 508 220 508 C207 508 195 513 184 523 C174 533 162 543 150 553 C137 563 122 568 104 568 C89 568 76 564 64 557 C51 550 42 542 35 534 C28 525 23 515 17 504 C12 493 10 485 9 480 C7 476 6 472 6 470 L48 470 L48 470 Z " />
<glyph glyph-name="hungarumlaut" unicode="&#x2dd;" horiz-adv-x="220" d="M104 438 L144 438 L214 568 L159 568 L104 438 Z M217 438 L258 438 L328 568 L273 568 L217 438 Z " />
<glyph glyph-name="endash" unicode="&#x2013;" horiz-adv-x="392" d="M347 253 L356 300 L44 300 L35 253 L347 253 L347 253 Z " />
<glyph glyph-name="emdash" unicode="&#x2014;" horiz-adv-x="448" d="M403 253 L412 300 L44 300 L35 253 L403 253 L403 253 Z " />
<glyph glyph-name="quoteleft" unicode="&#x2018;" horiz-adv-x="117" d="M4 376 L63 376 L103 560 L59 560 L4 376 Z " />
<glyph glyph-name="quoteright" unicode="&#x2019;" horiz-adv-x="107" d="M104 560 L45 560 L8 376 L51 376 L104 560 Z " />
<glyph glyph-name="quotedblleft" unicode="&#x201c;" horiz-adv-x="185" d="M38 560 L-14 376 L44 376 L82 560 L38 560 Z M142 560 L89 376 L148 376 L186 560 L142 560 Z " />
<glyph glyph-name="quotedblright" unicode="&#x201d;" horiz-adv-x="188" d="M38 376 L93 560 L34 560 L-4 376 L38 376 Z M142 376 L197 560 L138 560 L99 376 L142 376 Z " />
<glyph glyph-name="daggerdbl" unicode="&#x2021;" horiz-adv-x="266" d="M13 260 L5 219 L92 219 L76 127 L122 127 L138 219 L225 219 L233 260 L146 260 L166 371 L253 371 L260 412 L173 412 L190 504 L144 504 L127 412 L40 412 L33 371 L120 371 L100 260 L13 260 L13 260 Z " />
<glyph glyph-name="bullet" unicode="&#x2022;" horiz-adv-x="203" d="M116 413 C74 413 31 377 23 333 C15 291 42 254 86 254 C129 254 172 289 181 334 C188 376 161 413 116 413 L116 413 Z " />
<glyph glyph-name="ellipsis" unicode="&#x2026;" horiz-adv-x="315" d="M61 68 C41 68 20 52 17 30 C13 10 26 -8 48 -8 C68 -8 89 8 93 30 C96 51 83 67 61 68 L61 68 Z M166 68 C146 68 125 52 122 30 C118 10 131 -8 153 -8 C173 -8 194 8 198 30 C201 51 188 67 166 68 L166 68 Z M271 68 C251 68 230 52 227 30 C223 10 236 -8 258 -8 C278 -8 299 8 303 30 C306 51 293 67 271 68 L271 68 Z " />
<glyph glyph-name="perthousand" unicode="&#x2030;" horiz-adv-x="670" d="M167 488 C140 488 115 479 93 460 C70 442 56 419 51 392 C46 364 52 342 67 324 C81 305 103 296 130 296 C158 296 183 306 205 324 C227 342 240 365 245 393 C251 421 246 444 231 462 C216 479 195 488 167 488 L167 488 Z M8 0 L49 0 L432 480 L391 480 L8 0 Z M102 352 C94 363 91 376 94 392 C97 408 105 422 117 433 C130 444 144 449 159 449 C175 449 187 444 195 433 C204 422 206 408 203 392 C200 376 193 363 180 352 C168 342 154 336 138 336 C123 336 111 342 102 352 L102 352 Z M309 183 C282 183 256 174 234 156 C213 138 199 115 194 88 C189 60 193 37 209 19 C224 1 245 -8 273 -8 C300 -8 325 2 347 20 C370 39 383 62 388 89 C393 116 388 139 373 157 C358 175 337 183 309 183 L309 183 Z M244 47 C236 58 233 72 236 88 C239 104 247 118 259 128 C272 139 286 144 302 144 C317 144 329 139 337 128 C346 118 349 104 346 88 C343 72 335 58 322 47 C310 37 296 32 281 32 C265 32 253 37 244 47 L244 47 Z M545 183 C518 183 492 174 470 156 C449 138 435 115 430 88 C425 60 429 37 445 19 C460 1 481 -8 509 -8 C536 -8 561 2 583 20 C606 39 619 62 624 89 C629 116 624 139 609 157 C594 175 573 183 545 183 L545 183 Z M480 47 C472 58 469 72 472 88 C475 104 483 118 495 128 C508 139 522 144 538 144 C553 144 565 139 573 128 C582 118 585 104 582 88 C579 72 571 58 558 47 C546 37 532 32 517 32 C501 32 489 37 480 47 L480 47 Z " />
<glyph glyph-name="guilsinglleft" unicode="&#x2039;" horiz-adv-x="243" d="M221 460 L33 309 L30 289 L165 139 L200 171 L93 301 L245 429 L221 460 Z " />
<glyph glyph-name="guilsinglright" unicode="&#x203a;" horiz-adv-x="242" d="M17 140 L205 291 L208 311 L74 460 L39 428 L145 300 L-7 171 L17 140 Z " />
<glyph glyph-name="Euro" unicode="&#x20ac;" horiz-adv-x="343" d="M224 112 C220 90 211 72 198 60 C184 47 168 41 150 41 C131 41 117 47 109 60 C100 72 97 90 101 112 L120 215 L240 215 L247 249 L127 249 L138 311 L274 311 L281 346 L145 346 L164 447 C168 470 177 488 191 501 C204 513 220 519 239 519 C257 519 271 513 280 501 C288 488 291 470 287 447 L279 408 L331 408 L339 451 C346 487 340 516 323 537 C306 558 281 568 249 568 C216 568 187 557 161 536 C135 514 120 485 113 448 L94 346 L34 346 L27 311 L87 311 L76 249 L16 249 L9 215 L69 215 L50 110 C43 74 48 46 66 24 C83 3 108 -8 140 -8 C173 -8 202 3 228 25 C253 47 270 76 276 111 L284 152 L232 152 L224 112 L224 112 Z " />
<glyph glyph-name="trademark" unicode="&#x2122;" horiz-adv-x="406" d="M181 525 L187 560 L48 560 L42 525 L92 525 L51 308 L91 308 L132 525 L181 525 Z M261 352 L277 353 L339 473 L308 308 L348 308 L395 560 L355 560 L282 418 L263 560 L223 560 L176 308 L214 308 L244 468 L261 352 Z " />
<glyph glyph-name="f_f" unicode="&#xfb00;" horiz-adv-x="369" d="M368 521 C377 521 395 521 395 521 L404 568 C404 568 373 568 366 568 C337 568 312 559 292 542 C272 524 259 498 253 464 L243 408 L113 408 L123 461 C130 501 150 521 183 521 C193 521 213 521 213 521 L222 568 L180 568 C152 568 128 560 109 543 C90 526 78 501 72 468 L-10 0 L41 0 L105 363 L235 363 L171 0 L223 0 L287 363 L367 363 L375 408 L295 408 L304 458 C312 500 332 521 368 521 L368 521 Z " />
<glyph glyph-name="fi" unicode="&#xfb01;" horiz-adv-x="321" d="M113 408 L123 461 C130 501 149 521 183 521 C192 521 213 521 213 521 L222 568 L180 568 C152 568 128 560 109 543 C90 526 78 501 72 468 L-10 0 L41 0 L105 363 L241 363 L177 0 L230 0 L302 408 L113 408 L113 408 Z M302 560 C281 559 261 542 258 522 C254 501 270 484 289 484 C311 484 330 503 334 522 C338 544 322 560 302 560 L302 560 Z " />
<glyph glyph-name="fl" unicode="&#xfb02;" horiz-adv-x="322" d="M185 568 C156 568 132 560 113 543 C94 526 81 501 75 468 L-14 0 L37 0 L107 363 L187 363 L195 408 L115 408 L125 461 C133 501 154 521 188 521 C193 521 236 521 273 521 L173 0 L227 0 L336 568 L185 568 L185 568 Z " />
</font>
</svg>
