<?xml version="1.0" encoding="UTF-8"?>
<svg xmlns="http://www.w3.org/2000/svg" xmlns:xlink="http://www.w3.org/1999/xlink" version="1.2" >
<font id="Lostfield Condensed">
<font-face  font-family="Lostfield Condensed" units-per-em="1000" ascent="750" descent="-250" font-style="normal" font-weight="400" font-stretch="normal" cap-height="700" x-height="500" underline-position="-75" underline-thickness="50" />
<missing-glyph  horiz-adv-x="152" d="" />
<glyph glyph-name="NULL" d="" />
<glyph glyph-name="CR" unicode="&#xd;" horiz-adv-x="152" d="" />
<glyph glyph-name="space" unicode="&#x20;" horiz-adv-x="152" d="" />
<glyph glyph-name="exclam" unicode="&#x21;" horiz-adv-x="124" d="M62 68 C42 68 24 52 24 30 C24 10 40 -8 62 -8 C82 -8 100 8 100 30 C100 51 84 67 62 68 L62 68 Z M44 166 L80 166 L93 560 L31 560 L44 166 Z " />
<glyph glyph-name="quotedbl" unicode="&#x22;" horiz-adv-x="208" d="M66 376 L86 560 L28 560 L23 376 L66 376 Z M170 376 L190 560 L132 560 L127 376 L170 376 Z " />
<glyph glyph-name="numbersign" unicode="&#x23;" horiz-adv-x="316" d="M172 0 L210 0 L222 136 L283 136 L283 172 L225 172 L237 308 L296 308 L296 344 L240 344 L251 480 L213 480 L201 344 L123 344 L134 480 L96 480 L84 344 L24 344 L24 308 L81 308 L70 172 L12 172 L12 136 L67 136 L55 0 L94 0 L105 136 L183 136 L172 0 Z M120 308 L198 308 L187 172 L108 172 L120 308 Z " />
<glyph glyph-name="dollar" unicode="&#x24;" horiz-adv-x="256" d="M222 210 C208 240 185 270 156 301 C128 331 107 356 93 378 C80 400 73 423 73 447 C73 469 79 486 89 498 C96 505 103 510 111 513 L111 466 L150 466 L150 514 C160 512 169 506 176 498 C187 485 192 468 192 446 L192 413 L243 413 L243 449 C243 481 235 507 217 528 C200 548 177 560 150 563 L150 621 L111 621 L111 562 C84 557 62 545 46 524 C29 504 21 478 21 446 C21 415 29 385 45 358 C60 331 83 302 113 270 C140 241 160 214 173 190 C186 166 192 140 192 112 C192 89 186 71 175 58 C167 50 159 44 150 41 L150 105 L111 105 L111 40 C100 43 90 49 83 58 C71 71 65 90 65 112 L65 153 L14 153 L14 109 C14 76 23 48 41 28 C58 7 82 -5 111 -8 L111 -67 L150 -67 L150 -8 C178 -3 201 10 219 32 C236 53 245 80 245 112 C245 148 237 181 222 210 L222 210 Z " />
<glyph glyph-name="percent" unicode="&#x25;" horiz-adv-x="422" d="M111 488 C84 488 61 479 42 460 C23 442 13 419 13 391 C13 364 23 342 41 323 C59 305 82 296 109 296 C137 296 160 305 179 324 C198 342 207 365 207 393 C207 421 198 444 180 461 C161 479 138 488 111 488 L111 488 Z M41 0 L82 0 L378 480 L337 480 L41 0 Z M71 352 C61 363 56 376 56 392 C56 408 61 422 71 433 C82 444 95 449 110 449 C125 449 138 444 149 433 C160 422 165 408 165 392 C165 376 160 363 149 352 C138 342 125 336 110 336 C95 336 82 342 71 352 L71 352 Z M309 183 C281 183 258 174 239 156 C220 137 211 115 211 87 C211 60 220 37 238 19 C257 1 280 -8 308 -8 C335 -8 358 2 377 20 C396 39 405 62 405 89 C405 116 396 139 378 157 C359 174 337 183 309 183 L309 183 Z M269 48 C258 58 253 72 253 88 C253 104 258 118 269 128 C280 139 293 144 309 144 C324 144 337 139 347 128 C358 118 363 104 363 88 C363 72 358 58 347 48 C337 37 324 31 309 31 C293 31 280 37 269 48 L269 48 Z " />
<glyph glyph-name="ampersand" unicode="&#x26;" horiz-adv-x="342" d="M307 39 C274 39 257 59 257 99 L257 269 L302 269 L302 313 L257 313 L257 357 L205 357 L205 313 L142 313 C125 313 111 319 100 332 C90 344 84 360 84 381 L84 451 C84 472 90 488 100 500 C111 513 125 519 142 519 C158 519 172 513 183 500 C193 488 198 472 198 451 L198 408 L249 408 L249 452 C249 486 239 514 218 535 C197 557 171 568 141 568 C110 568 84 557 63 536 C42 515 32 488 32 454 L32 388 C32 345 48 313 80 293 C44 272 26 237 26 190 L26 113 C26 77 37 48 59 25 C81 3 109 -8 142 -8 C175 -8 202 2 223 24 C225 21 227 19 229 17 C245 0 267 -9 295 -9 C311 -9 307 -9 307 -9 L307 39 L307 39 Z M142 40 C123 40 107 47 95 60 C83 73 78 91 78 114 L78 196 C78 219 83 237 95 250 C107 263 123 269 142 269 L205 269 L205 113 C205 91 199 73 188 60 C176 47 161 40 142 40 L142 40 Z " />
<glyph glyph-name="quotesingle" unicode="&#x27;" horiz-adv-x="85" d="M55 376 L75 560 L17 560 L12 376 L55 376 L55 376 Z " />
<glyph glyph-name="parenleft" unicode="&#x28;" horiz-adv-x="222" d="M208 24 L196 35 C188 44 178 57 167 76 C155 94 143 116 131 140 C120 165 110 196 102 233 C94 271 90 311 90 352 C90 394 94 434 103 472 C111 510 121 541 131 564 C141 587 153 609 167 629 C181 649 190 662 195 668 C201 674 205 678 208 681 L174 712 L160 699 C151 690 139 676 126 656 C113 635 99 612 86 585 C72 558 61 524 52 482 C43 440 38 396 38 350 C38 303 43 259 53 217 C62 175 73 141 85 116 C97 91 111 68 127 47 C142 25 153 12 159 6 C165 0 170 -4 174 -8 L208 24 L208 24 Z " />
<glyph glyph-name="parenright" unicode="&#x29;" horiz-adv-x="222" d="M13 681 L25 669 C33 661 43 647 55 629 C67 610 78 589 90 564 C102 540 112 509 120 471 C128 434 132 394 132 352 C132 311 127 271 119 233 C110 195 101 164 90 141 C80 117 68 96 54 75 C41 55 31 42 26 36 C21 30 16 26 13 24 L48 -8 L62 5 C71 14 82 29 96 49 C109 69 122 93 136 120 C149 146 160 180 170 222 C179 264 184 308 184 355 C184 401 179 445 169 487 C159 530 148 563 136 588 C124 613 110 637 95 658 C79 679 68 693 62 699 C56 705 51 709 48 712 L13 681 L13 681 Z " />
<glyph glyph-name="asterisk" unicode="&#x2a;" horiz-adv-x="280" d="M269 453 L256 494 L158 457 L164 561 L121 561 L127 457 L29 494 L16 453 L115 426 L51 345 L86 320 L142 407 L199 320 L234 345 L169 426 L269 453 L269 453 Z " />
<glyph glyph-name="plus" unicode="&#x2b;" horiz-adv-x="348" d="M195 430 L152 430 L152 300 L40 300 L40 257 L152 257 L152 127 L195 127 L195 257 L308 257 L308 300 L195 300 L195 430 L195 430 Z " />
<glyph glyph-name="comma" unicode="&#x2c;" horiz-adv-x="99" d="M61 -131 L81 53 L23 53 L18 -131 L61 -131 L61 -131 Z " />
<glyph glyph-name="hyphen" unicode="&#x2d;" horiz-adv-x="272" d="M247 260 L247 300 L29 300 L29 260 L247 260 L247 260 Z " />
<glyph glyph-name="period" unicode="&#x2e;" horiz-adv-x="105" d="M55 68 C35 68 17 52 17 30 C17 10 33 -8 55 -8 C75 -8 93 8 93 30 C93 51 77 67 55 68 L55 68 Z " />
<glyph glyph-name="slash" unicode="&#x2f;" horiz-adv-x="288" d="M8 -8 L56 -8 L280 680 L232 680 L8 -8 L8 -8 Z " />
<glyph glyph-name="zero" unicode="0" horiz-adv-x="311" d="M40 112 C40 76 50 47 72 25 C94 3 122 -8 155 -8 C188 -8 216 4 238 26 C260 48 271 78 271 114 L271 448 C271 484 261 514 239 535 C217 557 189 568 156 568 C123 568 96 557 73 534 C51 512 40 482 40 446 L40 112 Z M91 444 C91 467 97 485 109 499 C121 512 136 519 156 519 C174 519 189 512 201 499 C213 485 219 467 219 444 L219 116 C219 93 213 75 201 62 C189 49 174 42 156 42 C136 42 121 49 109 62 C97 75 91 93 91 116 L91 444 Z " />
<glyph glyph-name="one" unicode="1" horiz-adv-x="178" d="M12 489 L40 454 L85 492 L85 0 L138 0 L138 560 L95 560 L12 489 L12 489 Z " />
<glyph glyph-name="two" unicode="2" horiz-adv-x="264" d="M241 0 L241 48 L77 48 L203 309 C229 361 241 406 241 445 C241 482 231 512 209 534 C188 557 161 568 128 568 C96 568 70 557 48 535 C26 512 16 483 16 447 L16 392 L66 392 L66 444 C66 468 72 486 83 499 C94 512 109 519 127 519 C146 519 161 512 172 499 C183 486 189 468 189 444 C189 409 180 372 161 333 L17 36 L17 0 L241 0 L241 0 Z " />
<glyph glyph-name="three" unicode="3" horiz-adv-x="261" d="M236 455 C236 489 225 516 204 537 C183 558 158 568 127 568 C96 568 71 558 50 536 C29 514 19 486 19 452 L19 408 L69 408 L69 451 C69 472 74 489 85 501 C96 513 109 520 126 520 C142 520 156 513 167 501 C178 489 183 472 183 451 L183 382 C183 361 178 345 167 332 C156 320 142 314 126 314 L126 270 C145 270 161 263 172 250 C184 237 190 219 190 196 L190 115 C190 92 184 74 172 61 C161 48 145 41 126 41 C107 41 91 48 80 61 C68 74 63 92 63 115 L63 164 L12 164 L12 112 C12 76 23 47 44 25 C65 3 92 -8 125 -8 C159 -8 187 3 209 26 C231 48 242 78 242 114 L242 191 C242 238 224 273 187 294 C220 314 236 346 236 389 L236 455 L236 455 Z " />
<glyph glyph-name="four" unicode="4" horiz-adv-x="279" d="M14 195 L14 150 L174 150 L174 0 L224 0 L224 150 L268 150 L268 194 L224 194 L224 560 L173 560 L14 195 Z M58 194 L174 460 L174 194 L58 194 Z " />
<glyph glyph-name="five" unicode="5" horiz-adv-x="294" d="M40 264 L86 264 C86 282 92 297 103 308 C114 319 128 325 145 325 C162 325 177 319 188 306 C200 294 205 276 205 255 L205 114 C205 92 200 75 188 62 C177 48 162 42 145 42 C127 42 112 48 100 62 C89 75 83 92 83 114 L83 160 L32 160 L32 109 C32 74 42 46 64 25 C85 3 112 -8 143 -8 C175 -8 202 3 225 26 C247 48 258 77 258 111 L258 262 C258 295 249 322 230 342 C210 362 186 372 157 372 C128 372 105 362 87 340 L87 511 L246 511 L246 560 L40 560 L40 264 L40 264 Z " />
<glyph glyph-name="six" unicode="6" horiz-adv-x="292" d="M29 115 C29 77 40 48 62 26 C84 3 112 -8 146 -8 C180 -8 209 4 231 27 C254 50 265 79 265 116 L265 236 C265 273 255 302 236 324 C216 345 190 356 157 356 C137 356 120 351 106 339 L202 560 L149 560 L50 329 C36 296 29 259 29 219 L29 115 Z M80 234 C80 258 86 276 98 290 C111 303 127 309 147 309 C167 309 183 303 195 290 C207 276 213 258 213 234 L213 118 C213 94 206 75 195 62 C182 49 167 42 147 42 C127 42 111 49 98 62 C86 75 80 94 80 118 L80 234 Z " />
<glyph glyph-name="seven" unicode="7" horiz-adv-x="256" d="M44 0 L96 0 L244 524 L244 560 L12 560 L12 511 L190 511 L44 0 L44 0 Z " />
<glyph glyph-name="eight" unicode="8" horiz-adv-x="272" d="M24 397 C24 351 41 318 75 297 C37 275 18 239 18 190 L18 116 C18 79 29 49 52 26 C74 4 102 -8 137 -8 C171 -8 200 4 223 27 C246 50 258 81 258 118 L258 192 C258 243 239 279 200 299 C234 321 251 354 251 400 L251 451 C251 486 241 514 219 536 C198 558 171 568 139 568 C107 568 80 557 57 535 C35 512 24 484 24 448 L24 397 Z M70 199 C70 223 76 242 89 256 C101 269 118 276 138 276 C158 276 174 269 187 256 C199 242 205 223 205 199 L205 118 C205 93 199 74 187 61 C174 47 158 40 138 40 C118 40 101 47 89 61 C76 74 70 93 70 118 L70 199 Z M76 449 C76 471 82 488 94 501 C105 514 120 520 138 520 C156 520 171 514 182 501 C193 488 199 471 199 449 L199 391 C199 369 193 351 182 338 C171 325 156 319 138 319 C120 319 105 325 94 338 C82 351 76 369 76 391 L76 449 Z " />
<glyph glyph-name="nine" unicode="9" horiz-adv-x="314" d="M276 442 C276 479 265 509 243 531 C221 553 193 564 159 564 C124 564 96 553 73 530 C51 507 39 477 39 440 L39 320 C39 283 49 254 69 233 C89 211 115 200 148 200 C168 200 184 206 198 217 L103 -4 L155 -4 L254 227 C269 261 276 297 276 338 L276 442 Z M224 323 C224 299 218 280 206 267 C194 254 178 248 158 248 C137 248 121 254 110 267 C98 280 92 299 92 323 L92 439 C92 463 98 481 110 495 C122 508 138 515 158 515 C178 515 194 508 206 495 C218 481 224 463 224 439 L224 323 Z " />
<glyph glyph-name="colon" unicode="&#x3a;" horiz-adv-x="122" d="M62 502 C42 502 25 486 25 464 C25 445 41 427 62 427 C81 427 101 442 101 464 C101 485 84 501 62 502 L62 502 Z M62 155 C42 155 25 139 25 117 C25 98 40 79 62 79 C81 79 101 95 101 117 C101 138 83 154 62 155 L62 155 Z " />
<glyph glyph-name="semicolon" unicode="&#x3b;" horiz-adv-x="119" d="M61 501 C41 501 24 485 24 463 C24 443 39 426 61 426 C80 426 100 441 100 463 C100 483 83 501 61 501 L61 501 Z M75 -18 L95 166 L36 166 L32 -18 L75 -18 Z " />
<glyph glyph-name="less" unicode="&#x3c;" horiz-adv-x="331" d="M302 435 L308 487 L40 321 L40 277 L308 111 L302 166 L81 300 L302 435 L302 435 Z " />
<glyph glyph-name="equal" unicode="&#x3d;" horiz-adv-x="327" d="M296 350 L296 394 L28 394 L28 350 L296 350 Z M296 206 L296 250 L28 250 L28 206 L296 206 Z " />
<glyph glyph-name="greater" unicode="&#x3e;" horiz-adv-x="336" d="M28 164 L26 112 L296 280 L296 322 L27 488 L28 434 L250 300 L28 164 L28 164 Z " />
<glyph glyph-name="question" unicode="&#x3f;" horiz-adv-x="254" d="M150 188 C150 208 155 229 164 251 C174 273 184 293 195 310 C206 327 217 348 226 372 C235 397 240 421 240 445 C240 482 229 512 208 534 C186 557 160 568 127 568 C94 568 68 557 46 535 C25 512 14 482 14 445 L14 400 L65 400 L65 444 C65 468 70 486 81 499 C93 512 107 519 125 519 C144 519 159 512 171 499 C182 486 188 468 188 444 C188 422 183 399 174 375 C165 351 155 331 144 314 C133 297 123 277 114 254 C105 232 101 210 101 190 L101 166 L150 166 L150 188 Z M125 68 C106 68 88 51 88 30 C88 11 103 -8 125 -8 C145 -8 164 8 164 30 C164 51 147 67 125 68 L125 68 Z " />
<glyph glyph-name="at" unicode="&#x40;" horiz-adv-x="751" d="M260 256 C256 230 262 209 276 192 C290 175 310 167 336 167 C365 167 388 177 405 199 C406 167 416 142 437 122 C456 102 484 92 520 92 C576 92 621 114 658 158 C694 202 712 258 712 328 C712 425 679 507 614 575 C549 642 470 676 375 676 C281 676 202 642 137 574 C72 506 39 424 39 327 C39 233 72 154 136 89 C201 25 280 -8 374 -8 C395 -8 419 -5 447 1 L440 42 C421 38 400 36 375 36 C294 36 225 64 169 121 C112 178 84 247 84 327 C84 412 112 484 169 544 C225 603 294 632 375 632 C458 632 527 603 583 544 C639 485 667 412 667 325 C667 270 654 225 627 189 C600 153 565 135 523 135 C498 135 479 142 465 157 C452 172 447 193 451 219 L490 496 L448 496 L441 464 C429 490 408 503 376 503 C351 503 330 495 313 480 C296 465 286 445 282 419 L260 256 Z M330 412 C334 444 352 459 382 459 C400 459 414 454 423 444 C432 433 435 420 432 403 L407 258 C402 226 385 211 354 211 C338 211 326 216 317 226 C309 235 306 248 309 264 L330 412 Z " />
<glyph glyph-name="A" unicode="A" horiz-adv-x="300" d="M180 560 L120 560 L12 0 L65 0 L92 142 L212 142 L239 0 L287 0 L180 560 Z M152 459 L204 186 L100 186 L152 459 Z " />
<glyph glyph-name="B" unicode="B" horiz-adv-x="305" d="M40 0 L159 0 C197 0 228 12 252 36 C276 60 288 93 288 134 L288 174 C288 204 282 230 269 250 C256 271 239 286 216 295 C258 316 280 356 280 414 L280 428 C280 470 268 502 245 525 C223 548 191 560 153 560 L40 560 L40 0 Z M93 514 L148 514 C172 514 191 506 205 491 C218 476 225 454 225 426 L225 402 C225 373 218 352 205 336 C191 321 172 314 148 314 L93 314 L93 514 Z M93 270 L156 270 C180 270 199 263 213 248 C227 232 233 211 233 182 L233 134 C233 105 227 84 213 68 C199 53 180 46 156 46 L93 46 L93 270 Z " />
<glyph glyph-name="C" unicode="C" horiz-adv-x="313" d="M225 118 C225 94 219 76 207 62 C195 49 180 42 160 42 C140 42 124 49 112 62 C100 76 93 94 93 118 L93 442 C93 465 100 484 112 497 C124 511 140 518 160 518 C180 518 195 511 207 497 C219 484 225 465 225 442 L225 372 L277 372 L277 445 C277 482 266 512 245 534 C223 557 195 568 161 568 C126 568 97 556 74 533 C51 510 40 479 40 442 L40 116 C40 78 51 48 73 26 C96 3 124 -8 159 -8 C193 -8 221 3 244 26 C266 49 277 80 277 117 L277 196 L225 196 L225 118 L225 118 Z " />
<glyph glyph-name="D" unicode="D" horiz-adv-x="324" d="M40 0 L153 0 C192 0 224 12 248 36 C272 60 284 93 284 136 L284 426 C284 468 272 501 249 525 C225 548 194 560 155 560 L40 560 L40 0 Z M94 511 L152 511 C177 511 196 504 209 488 C223 473 230 451 230 423 L230 137 C230 109 223 87 209 72 C196 56 177 49 152 49 L94 49 L94 511 Z " />
<glyph glyph-name="E" unicode="E" horiz-adv-x="257" d="M240 0 L240 51 L94 51 L94 268 L212 268 L212 316 L94 316 L94 509 L236 509 L236 560 L40 560 L40 0 L240 0 L240 0 Z " />
<glyph glyph-name="F" unicode="F" horiz-adv-x="253" d="M208 268 L208 316 L94 316 L94 509 L232 509 L232 560 L40 560 L40 0 L94 0 L94 268 L208 268 L208 268 Z " />
<glyph glyph-name="G" unicode="G" horiz-adv-x="328" d="M288 380 L288 440 C288 479 277 510 253 533 C230 556 201 568 165 568 C129 568 99 556 76 532 C52 508 40 477 40 438 L40 120 C40 81 52 50 75 27 C98 4 128 -8 163 -8 C191 -8 215 -1 235 13 L235 0 L288 0 L288 122 L288 316 L170 316 L170 268 L235 268 L235 122 C235 97 229 77 216 62 C203 48 185 41 164 41 C143 41 126 48 113 62 C100 77 94 97 94 122 L94 438 C94 462 100 482 113 496 C126 510 143 518 164 518 C185 518 202 510 215 496 C227 482 234 462 234 438 L234 380 L288 380 L288 380 Z " />
<glyph glyph-name="H" unicode="H" horiz-adv-x="324" d="M230 0 L284 0 L284 560 L230 560 L230 321 L94 321 L94 560 L40 560 L40 0 L94 0 L94 270 L230 270 L230 0 L230 0 Z " />
<glyph glyph-name="I" unicode="I" horiz-adv-x="136" d="M40 0 L96 0 L96 560 L40 560 L40 0 L40 0 Z " />
<glyph glyph-name="J" unicode="J" horiz-adv-x="175" d="M5 -8 L33 -8 C62 -8 87 2 106 21 C126 40 135 67 135 101 L135 560 L80 560 L80 110 C80 66 60 43 19 43 C14 43 9 43 5 43 L5 -8 Z " />
<glyph glyph-name="K" unicode="K" horiz-adv-x="304" d="M40 0 L94 0 L94 276 L231 0 L293 0 L144 291 L284 560 L223 560 L94 302 L94 560 L40 560 L40 0 L40 0 Z " />
<glyph glyph-name="L" unicode="L" horiz-adv-x="244" d="M224 0 L224 51 L94 51 L94 560 L40 560 L40 0 L224 0 L224 0 Z " />
<glyph glyph-name="M" unicode="M" horiz-adv-x="416" d="M194 92 L219 93 L324 432 L324 0 L376 0 L376 560 L323 560 L209 190 L95 560 L40 560 L40 0 L91 0 L91 427 L194 92 L194 92 Z " />
<glyph glyph-name="N" unicode="N" horiz-adv-x="332" d="M244 0 L293 0 L293 560 L244 560 L244 130 L93 560 L40 560 L40 0 L89 0 L89 439 L244 0 L244 0 Z " />
<glyph glyph-name="O" unicode="O" horiz-adv-x="328" d="M40 120 C40 81 51 50 74 27 C98 4 127 -8 163 -8 C198 -8 228 4 252 28 C276 51 288 83 288 122 L288 440 C288 479 276 510 253 533 C229 556 200 568 164 568 C129 568 99 556 75 532 C51 508 40 477 40 438 L40 120 Z M93 438 C93 462 100 482 113 496 C126 510 143 518 164 518 C184 518 201 510 214 496 C227 482 233 462 233 438 L233 122 C233 97 227 78 214 64 C201 49 184 42 164 42 C143 42 126 49 113 64 C100 78 93 97 93 122 L93 438 Z " />
<glyph glyph-name="P" unicode="P" horiz-adv-x="313" d="M40 0 L93 0 L93 224 L151 224 C191 224 224 236 248 260 C272 285 284 318 284 362 L284 424 C284 467 272 501 248 524 C225 548 193 560 152 560 L40 560 L40 0 Z M93 511 L152 511 C176 511 195 504 209 488 C222 473 229 451 229 423 L229 360 C229 332 222 310 209 295 C195 280 176 272 152 272 L93 272 L93 511 Z " />
<glyph glyph-name="Q" unicode="Q" horiz-adv-x="329" d="M289 121 L289 440 C289 479 277 510 254 533 C230 556 201 568 165 568 C130 568 100 556 76 532 C52 508 40 477 40 438 L40 120 C40 81 52 50 75 27 C99 4 128 -8 164 -8 C172 -8 179 -7 187 -6 L220 -96 L275 -99 L231 12 C269 35 289 71 289 121 L289 121 Z M234 122 C234 97 228 78 215 64 C214 63 213 62 213 61 L208 73 L164 57 L170 43 C168 43 166 42 164 42 C144 42 127 49 114 64 C101 78 94 97 94 122 L94 438 C94 462 101 482 114 496 C127 510 144 518 164 518 C185 518 202 510 215 496 C228 482 234 462 234 438 L234 122 L234 122 Z " />
<glyph glyph-name="R" unicode="R" horiz-adv-x="310" d="M285 370 L285 424 C285 467 273 501 249 524 C226 548 194 560 153 560 L40 560 L40 0 L94 0 L94 234 L148 234 C151 234 154 234 156 234 C177 236 199 225 208 214 C220 201 226 182 226 159 L226 0 L278 0 L278 162 C278 199 267 229 245 251 C242 255 239 258 235 261 C268 283 285 319 285 370 L285 370 Z M182 284 C173 281 163 279 152 279 L94 279 L94 511 L152 511 C177 511 196 504 210 488 C223 473 230 451 230 423 L230 367 C230 339 223 317 210 302 C202 293 193 287 182 284 L182 284 Z " />
<glyph glyph-name="S" unicode="S" horiz-adv-x="284" d="M68 156 L16 156 L16 119 C16 80 27 49 49 26 C72 3 100 -8 136 -8 C172 -8 202 4 225 27 C249 51 261 81 261 119 C261 154 252 187 235 217 C218 247 192 279 157 311 C128 338 107 361 95 382 C82 402 76 423 76 446 C76 469 82 486 93 499 C105 512 121 518 141 518 C161 518 177 512 189 498 C201 484 210 466 210 442 L210 416 L261 416 L261 445 C261 482 248 512 226 534 C204 557 176 568 142 568 C108 568 79 557 56 534 C33 511 21 482 21 445 C21 390 52 334 114 276 C147 245 171 217 186 194 C200 171 207 146 207 118 C207 94 201 76 188 62 C175 48 158 41 137 41 C116 41 100 48 87 63 C74 77 68 97 68 122 L68 156 L68 156 Z " />
<glyph glyph-name="T" unicode="T" horiz-adv-x="294" d="M272 509 L272 560 L22 560 L22 509 L120 509 L120 0 L174 0 L174 509 L272 509 L272 509 Z " />
<glyph glyph-name="U" unicode="U" horiz-adv-x="320" d="M226 560 L226 118 C226 94 220 76 208 62 C196 49 180 42 160 42 C141 42 125 49 112 62 C100 76 94 94 94 118 L94 560 L40 560 L40 116 C40 78 51 48 73 26 C96 3 124 -8 159 -8 C193 -8 222 3 245 26 C268 49 280 80 280 118 L280 560 L226 560 L226 560 Z " />
<glyph glyph-name="V" unicode="V" horiz-adv-x="291" d="M116 0 L175 0 L280 560 L232 560 L150 116 L68 560 L11 560 L116 0 L116 0 Z " />
<glyph glyph-name="W" unicode="W" horiz-adv-x="428" d="M96 0 L151 0 L217 414 L282 0 L332 0 L417 560 L371 560 L308 133 L243 560 L198 560 L131 126 L66 560 L10 560 L96 0 L96 0 Z " />
<glyph glyph-name="X" unicode="X" horiz-adv-x="306" d="M291 560 L233 560 L154 363 L75 560 L16 560 L124 289 L8 0 L64 0 L152 217 L239 0 L299 0 L182 291 L291 560 L291 560 Z " />
<glyph glyph-name="Y" unicode="Y" horiz-adv-x="282" d="M113 0 L168 0 L168 224 L275 560 L219 560 L141 291 L64 560 L7 560 L113 226 L113 0 L113 0 Z " />
<glyph glyph-name="Z" unicode="Z" horiz-adv-x="244" d="M224 0 L224 49 L64 49 L224 522 L224 560 L20 560 L20 511 L166 511 L8 39 L8 0 L224 0 L224 0 Z " />
<glyph glyph-name="bracketleft" unicode="&#x5b;" horiz-adv-x="226" d="M207 -8 L207 38 L91 38 L91 634 L207 634 L207 680 L40 680 L40 -8 L207 -8 L207 -8 Z " />
<glyph glyph-name="backslash" unicode="&#x5c;" horiz-adv-x="308" d="M56 680 L8 680 L232 -8 L280 -8 L56 680 L56 680 Z " />
<glyph glyph-name="bracketright" unicode="&#x5d;" horiz-adv-x="228" d="M188 -8 L188 680 L19 680 L19 634 L135 634 L135 38 L19 38 L19 -8 L188 -8 L188 -8 Z " />
<glyph glyph-name="asciicircum" unicode="&#x5e;" horiz-adv-x="310" d="M229 289 L284 289 L177 561 L134 561 L27 289 L82 289 L155 494 L229 289 L229 289 Z " />
<glyph glyph-name="underscore" unicode="&#x5f;" horiz-adv-x="407" d="M369 0 L369 40 L49 40 L49 0 L369 0 L369 0 Z " />
<glyph glyph-name="grave" unicode="&#x60;" horiz-adv-x="154" d="M76 560 L20 560 L81 431 L123 431 L76 560 L76 560 Z " />
<glyph glyph-name="a" unicode="a" horiz-adv-x="297" d="M25 108 C25 73 35 45 54 24 C72 3 97 -8 127 -8 C171 -8 206 31 211 77 L211 0 L257 0 L257 303 C257 336 247 363 226 384 C205 405 179 415 148 415 C118 415 92 405 72 383 C51 362 40 334 40 300 L90 303 C90 323 95 339 106 351 C117 364 131 370 147 370 C164 370 178 364 189 351 C200 339 205 323 205 303 L205 207 C186 232 161 245 129 245 C99 245 74 234 55 212 C35 190 25 161 25 127 L25 108 Z M77 128 C77 151 83 169 95 182 C106 196 122 203 141 203 C160 203 176 196 188 182 C199 169 205 151 205 128 L205 111 C205 88 199 70 188 57 C176 43 160 36 141 36 C122 36 106 43 95 57 C83 70 77 88 77 111 L77 128 Z " />
<glyph glyph-name="b" unicode="b" horiz-adv-x="308" d="M40 0 L88 0 L88 77 C92 19 131 -8 167 -8 C196 -8 220 2 239 23 C258 44 268 70 268 103 L268 307 C268 340 258 366 240 386 C222 405 198 415 169 415 C136 415 111 403 93 377 L93 560 L40 560 L40 0 Z M216 111 C216 90 210 72 198 59 C187 47 172 40 154 40 C136 40 121 47 110 59 C98 72 93 90 93 111 L93 296 C93 318 98 335 110 348 C121 361 136 367 154 367 C172 367 187 361 198 348 C210 335 216 318 216 296 L216 111 Z " />
<glyph glyph-name="c" unicode="c" horiz-adv-x="298" d="M209 156 L209 108 C209 87 203 71 192 59 C181 46 167 40 150 40 C133 40 119 46 108 59 C97 71 92 87 92 108 L92 299 C92 320 97 337 108 349 C119 361 133 367 150 367 C167 367 181 361 192 349 C203 337 209 320 209 299 L209 255 L258 255 L258 302 C258 336 248 363 228 384 C207 405 182 415 151 415 C120 415 94 405 72 383 C50 361 40 334 40 299 L40 106 C40 72 50 45 71 24 C92 3 118 -8 149 -8 C180 -8 205 3 226 25 C248 47 258 75 258 108 L258 156 L209 156 L209 156 Z " />
<glyph glyph-name="d" unicode="d" horiz-adv-x="307" d="M267 560 L215 560 L215 380 C198 404 173 415 141 415 C112 415 88 405 69 385 C50 365 40 338 40 305 L40 100 C40 68 49 42 68 22 C86 2 110 -8 139 -8 C175 -8 215 13 220 77 L220 0 L267 0 L267 560 Z M92 296 C92 318 98 335 109 348 C121 361 136 367 154 367 C172 367 187 361 198 348 C210 335 215 318 215 296 L215 111 C215 90 210 72 198 59 C187 47 172 40 154 40 C136 40 121 47 109 59 C98 72 92 90 92 111 L92 296 Z " />
<glyph glyph-name="e" unicode="e" horiz-adv-x="304" d="M215 111 C215 90 210 72 198 59 C187 47 172 40 154 40 C136 40 121 47 109 59 C98 72 92 90 92 111 L92 207 L264 207 L264 299 C264 335 254 363 233 384 C212 405 186 415 154 415 C122 415 95 404 73 383 C51 361 40 332 40 298 L40 108 C40 74 51 45 72 24 C93 3 119 -8 151 -8 C183 -8 210 3 232 25 C253 47 264 75 264 111 L264 132 L215 132 L215 111 Z M92 299 C92 321 98 339 109 351 C121 364 136 371 154 371 C172 371 187 364 198 351 C210 339 215 321 215 299 L215 244 L92 244 L92 299 Z " />
<glyph glyph-name="f" unicode="f" horiz-adv-x="212" d="M13 363 L65 363 L65 0 L117 0 L117 363 L197 363 L197 407 L117 407 L117 461 C117 501 134 521 168 521 C177 521 197 521 197 521 L197 568 L156 568 C127 568 105 560 89 543 C73 525 65 501 65 467 L65 407 L13 407 L13 363 L13 363 Z " />
<glyph glyph-name="g" unicode="g" horiz-adv-x="291" d="M260 407 L212 407 L212 331 C208 382 168 415 133 415 C104 415 80 405 61 385 C42 365 32 338 32 305 L32 136 C32 104 42 77 60 58 C78 38 102 28 131 28 C164 28 189 41 208 66 L208 -18 C208 -40 202 -57 190 -70 C179 -83 164 -89 146 -89 C128 -89 113 -83 102 -70 C90 -57 84 -40 84 -18 L84 -6 L35 -6 L35 -19 C35 -54 45 -82 66 -104 C87 -125 113 -136 145 -136 C177 -136 204 -125 226 -102 C248 -80 260 -51 260 -17 L260 407 Z M84 296 C84 318 90 335 102 348 C113 361 128 367 146 367 C164 367 179 361 190 348 C202 335 208 318 208 296 L208 144 C208 123 202 106 190 93 C178 81 164 75 146 75 C128 75 113 81 102 94 C90 107 84 124 84 146 L84 296 Z " />
<glyph glyph-name="h" unicode="h" horiz-adv-x="303" d="M263 0 L263 307 C263 341 255 367 238 387 C220 406 198 415 171 415 C136 415 97 384 91 331 L91 560 L40 560 L40 0 L91 0 L91 302 C91 322 97 338 109 350 C121 362 136 367 154 367 C171 367 185 361 196 349 C206 337 211 320 211 298 L211 0 L263 0 L263 0 Z " />
<glyph glyph-name="i" unicode="i" horiz-adv-x="134" d="M67 560 C47 560 29 544 29 522 C29 502 45 484 67 484 C87 484 105 500 105 522 C105 542 89 560 67 560 L67 560 Z M40 0 L94 0 L94 407 L40 407 L40 0 Z " />
<glyph glyph-name="j" unicode="j" horiz-adv-x="134" d="M-20 -136 L10 -136 C34 -136 54 -128 70 -111 C86 -95 94 -73 94 -45 L94 407 L40 407 L40 -41 C40 -56 36 -68 29 -76 C21 -85 11 -89 -1 -89 C-8 -89 -20 -89 -20 -89 L-20 -136 Z M66 560 C47 560 29 543 29 522 C29 503 45 484 66 484 C86 484 105 500 105 522 C105 542 88 560 66 560 L66 560 Z " />
<glyph glyph-name="k" unicode="k" horiz-adv-x="287" d="M40 0 L92 0 L92 208 L210 0 L272 0 L140 223 L264 407 L203 407 L92 228 L92 560 L40 560 L40 0 L40 0 Z " />
<glyph glyph-name="l" unicode="l" horiz-adv-x="133" d="M40 0 L93 0 L93 560 L40 560 L40 0 L40 0 Z " />
<glyph glyph-name="m" unicode="m" horiz-adv-x="467" d="M92 298 C92 320 98 337 109 349 C120 361 135 367 152 367 C170 367 183 361 193 349 C203 337 207 320 207 298 L207 0 L259 0 L259 301 C259 322 265 338 276 350 C288 362 302 367 319 367 C337 367 351 361 360 349 C370 337 375 320 375 298 L375 0 L427 0 L427 307 C427 341 418 367 401 387 C385 406 363 415 336 415 C296 415 267 397 250 360 C235 397 208 415 169 415 C132 415 98 386 87 331 L87 407 L40 407 L40 0 L92 0 L92 298 L92 298 Z " />
<glyph glyph-name="n" unicode="n" horiz-adv-x="304" d="M92 298 C92 320 98 337 110 349 C121 361 136 367 154 367 C172 367 186 361 196 349 C207 337 212 320 212 298 L212 0 L264 0 L264 307 C264 341 255 367 238 387 C221 406 199 415 171 415 C133 415 90 383 87 331 L87 407 L40 407 L40 0 L92 0 L92 298 L92 298 Z " />
<glyph glyph-name="o" unicode="o" horiz-adv-x="307" d="M40 109 C40 74 50 45 72 24 C94 3 120 -8 152 -8 C184 -8 211 3 234 26 C256 48 267 77 267 111 L267 299 C267 333 256 361 234 383 C213 405 186 415 154 415 C122 415 94 404 73 382 C51 360 40 331 40 296 L40 109 Z M92 296 C92 318 97 335 109 348 C120 361 135 367 153 367 C171 367 186 361 198 348 C209 335 215 318 215 296 L215 111 C215 90 209 72 198 59 C186 47 171 40 153 40 C135 40 120 47 109 59 C97 72 92 90 92 111 L92 296 Z " />
<glyph glyph-name="p" unicode="p" horiz-adv-x="307" d="M40 -128 L92 -128 L92 27 C109 4 134 -8 166 -8 C195 -8 219 2 238 23 C257 44 267 70 267 103 L267 307 C267 340 258 366 239 386 C221 405 197 415 168 415 C132 415 91 385 87 331 L87 407 L40 407 L40 -128 Z M215 111 C215 90 209 72 198 59 C186 47 172 40 154 40 C135 40 121 47 109 59 C98 72 92 90 92 111 L92 296 C92 318 98 335 109 348 C121 361 135 367 154 367 C172 367 186 361 198 348 C209 335 215 318 215 296 L215 111 Z " />
<glyph glyph-name="q" unicode="q" horiz-adv-x="307" d="M267 407 L220 407 L220 331 C216 392 176 415 141 415 C112 415 88 405 69 385 C50 365 40 338 40 305 L40 100 C40 68 49 42 68 22 C86 2 110 -8 138 -8 C172 -8 197 5 215 30 L215 -128 L267 -128 L267 407 Z M92 296 C92 318 98 335 109 348 C121 361 136 367 154 367 C172 367 187 361 198 348 C210 335 215 318 215 296 L215 111 C215 90 210 72 198 59 C187 47 172 40 154 40 C136 40 121 47 109 59 C98 72 92 90 92 111 L92 296 Z " />
<glyph glyph-name="r" unicode="r" horiz-adv-x="202" d="M186 415 C134 415 96 383 88 331 L88 407 L40 407 L40 0 L92 0 L92 267 C92 298 100 321 114 337 C129 352 149 360 175 360 L186 360 L186 415 L186 415 Z " />
<glyph glyph-name="s" unicode="s" horiz-adv-x="275" d="M196 299 L245 299 L245 311 C245 342 235 367 215 386 C195 406 169 415 138 415 C107 415 81 406 60 386 C39 367 29 342 29 312 C29 261 57 222 116 193 C145 179 166 165 178 151 C190 137 196 122 196 103 C196 84 190 68 178 56 C167 44 152 39 134 39 C116 39 101 44 90 56 C78 68 72 84 72 104 L72 116 L23 116 L23 103 C23 70 33 43 54 23 C75 2 102 -8 134 -8 C166 -8 193 3 215 24 C237 45 248 72 248 104 C248 134 240 158 224 179 C208 199 183 217 151 232 C125 245 107 257 96 269 C86 281 80 296 80 312 C80 329 86 343 97 354 C108 364 121 370 138 370 C155 370 168 364 179 353 C190 342 196 328 196 311 L196 299 L196 299 Z " />
<glyph glyph-name="t" unicode="t" horiz-adv-x="204" d="M8 363 L60 363 L60 93 C60 60 68 35 84 18 C100 1 122 -8 150 -8 C165 -8 192 -8 192 -8 L192 40 L162 40 C128 40 112 60 112 100 L112 363 L196 363 L196 407 L112 407 L112 512 L60 512 L60 407 L8 407 L8 363 L8 363 Z " />
<glyph glyph-name="u" unicode="u" horiz-adv-x="304" d="M212 110 C212 88 206 71 194 59 C182 46 167 40 149 40 C132 40 118 46 107 59 C97 71 92 88 92 110 L92 407 L40 407 L40 100 C40 67 48 40 66 21 C83 2 105 -8 132 -8 C170 -8 214 24 216 76 L216 0 L264 0 L264 407 L212 407 L212 110 L212 110 Z " />
<glyph glyph-name="v" unicode="v" horiz-adv-x="252" d="M94 0 L151 0 L247 407 L202 407 L128 91 L62 407 L7 407 L94 0 L94 0 Z " />
<glyph glyph-name="w" unicode="w" horiz-adv-x="372" d="M87 0 L139 0 L191 284 L242 0 L287 0 L362 407 L321 407 L266 98 L209 407 L174 407 L118 103 L62 407 L9 407 L87 0 L87 0 Z " />
<glyph glyph-name="x" unicode="x" horiz-adv-x="268" d="M255 407 L202 407 L135 268 L69 407 L14 407 L108 211 L6 0 L58 0 L134 156 L209 0 L263 0 L161 213 L255 407 L255 407 Z " />
<glyph glyph-name="y" unicode="y" horiz-adv-x="260" d="M106 0 C99 -35 90 -60 81 -72 C71 -85 58 -91 42 -91 C35 -91 26 -91 26 -91 L26 -136 L51 -136 C115 -136 137 -66 151 -12 L250 407 L198 407 L132 81 L66 407 L10 407 L106 0 L106 0 Z " />
<glyph glyph-name="z" unicode="z" horiz-adv-x="211" d="M9 35 L9 0 L201 0 L201 45 L64 45 L201 373 L201 407 L21 407 L21 363 L147 363 L9 35 L9 35 Z " />
<glyph glyph-name="braceleft" unicode="&#x7b;" horiz-adv-x="259" d="M141 260 C141 284 136 302 126 315 C116 328 103 335 86 336 C103 337 116 344 126 358 C136 371 141 389 141 412 L141 571 C141 594 147 610 157 620 C168 630 184 636 205 636 L242 636 L242 680 L201 680 C127 680 89 643 89 569 L89 409 C89 390 86 377 78 370 C70 362 57 359 39 359 L14 359 L14 314 L39 314 C57 314 70 310 78 303 C86 295 89 282 89 263 L89 104 C89 29 127 -8 201 -8 L242 -8 L242 37 L205 37 C183 37 167 42 157 52 C147 62 141 79 141 101 L141 260 L141 260 Z " />
<glyph glyph-name="bar" unicode="&#x7c;" horiz-adv-x="128" d="M40 -8 L88 -8 L88 712 L40 712 L40 -8 L40 -8 Z " />
<glyph glyph-name="braceright" unicode="&#x7d;" horiz-adv-x="266" d="M120 412 C120 389 125 371 135 358 C145 344 158 337 175 336 C158 335 145 328 135 315 C125 302 120 284 120 260 L120 101 C120 79 114 62 104 52 C93 42 77 37 56 37 L19 37 L19 -8 L60 -8 C135 -8 172 29 172 104 L172 263 C172 282 175 295 183 303 C191 310 204 314 222 314 L248 314 L248 359 L222 359 C204 359 191 362 183 370 C175 377 172 390 172 409 L172 569 C172 643 135 680 60 680 L19 680 L19 636 L56 636 C78 636 94 630 104 620 C114 610 120 594 120 571 L120 412 L120 412 Z " />
<glyph glyph-name="asciitilde" unicode="&#x7e;" horiz-adv-x="342" d="M70 247 L71 260 C72 269 75 278 81 286 C87 295 95 299 106 299 C116 299 127 296 137 290 C147 284 156 277 163 270 C171 262 181 255 193 249 C204 242 218 239 232 239 C247 239 260 243 271 250 C282 257 290 265 295 274 C300 282 304 292 307 303 C310 315 311 323 312 327 C312 332 312 335 312 338 L270 338 L270 324 C269 316 265 307 259 298 C253 289 245 285 235 285 C222 285 209 290 196 300 C184 310 170 320 156 330 C141 340 125 345 107 345 C92 345 80 341 69 334 C58 327 50 319 45 311 C40 302 36 292 33 281 C30 270 29 262 29 257 C28 253 28 249 28 247 L70 247 L70 247 Z " />
<glyph glyph-name="exclamdown" unicode="&#xa1;" horiz-adv-x="105" d="M53 492 C73 492 91 509 91 531 C91 551 74 568 53 568 C34 568 15 553 15 531 C15 511 32 493 53 492 L53 492 Z M71 395 L35 395 L22 0 L84 0 L71 395 Z " />
<glyph glyph-name="cent" unicode="&#xa2;" horiz-adv-x="298" d="M258 252 L258 298 C258 328 250 353 234 373 C218 393 196 406 170 410 L170 468 L132 468 L132 409 C105 405 83 392 66 372 C48 351 40 326 40 296 L40 103 C40 72 48 47 66 27 C83 7 105 -5 132 -9 L132 -68 L170 -68 L170 -8 C196 -4 217 8 233 29 C250 49 258 74 258 104 L258 152 L209 152 L209 105 C209 84 203 68 192 55 C186 48 179 43 170 40 L170 102 L132 102 L132 40 C123 43 115 48 108 55 C97 68 92 84 92 105 L92 296 C92 317 97 333 109 345 C115 353 123 358 132 361 L132 307 L170 307 L170 361 C178 358 186 353 192 345 C203 333 209 317 209 296 L209 252 L258 252 L258 252 Z " />
<glyph glyph-name="sterling" unicode="&#xa3;" horiz-adv-x="312" d="M302 400 L302 451 C302 487 291 516 270 537 C249 558 222 568 190 568 C157 568 130 557 108 536 C86 514 75 485 75 448 L75 289 L15 289 L15 253 L75 253 L75 48 L15 48 L15 0 L75 0 L127 0 L291 0 L291 48 L127 48 L127 253 L231 253 L231 289 L127 289 L127 447 C127 470 133 488 144 501 C155 513 170 519 189 519 C207 519 222 513 233 501 C244 488 250 470 250 447 L250 400 L302 400 L302 400 Z " />
<glyph glyph-name="currency" unicode="&#xa4;" horiz-adv-x="402" d="M81 355 C57 328 45 295 45 257 C45 217 57 184 80 158 L26 106 L54 78 L108 131 C135 111 167 101 202 101 C237 101 268 111 294 130 L350 78 L378 106 L324 157 C348 187 360 220 360 258 C360 295 348 328 325 358 L378 409 L350 437 L295 384 C268 404 238 413 203 413 C168 413 137 403 110 384 L54 437 L26 409 L81 355 Z M125 179 C105 200 95 226 95 257 C95 288 105 314 125 335 C146 356 172 367 203 367 C234 367 259 356 280 335 C300 314 311 288 311 257 C311 226 300 200 280 179 C259 158 234 148 203 148 C172 148 146 158 125 179 L125 179 Z " />
<glyph glyph-name="yen" unicode="&#xa5;" horiz-adv-x="316" d="M130 0 L185 0 L185 167 L276 167 L276 202 L185 202 L185 258 L188 268 L276 268 L276 303 L201 303 L292 560 L237 560 L159 316 L81 560 L24 560 L115 303 L40 303 L40 268 L128 268 L130 260 L130 202 L40 202 L40 167 L130 167 L130 0 L130 0 Z " />
<glyph glyph-name="brokenbar" unicode="&#xa6;" horiz-adv-x="131" d="M90 712 L43 712 L43 446 L90 446 L90 712 Z M43 -8 L90 -8 L90 258 L43 258 L43 -8 Z " />
<glyph glyph-name="section" unicode="&#xa7;" horiz-adv-x="374" d="M251 33 C251 14 245 -1 233 -13 C221 -24 206 -30 188 -30 C169 -30 154 -24 142 -11 C130 1 124 17 124 37 L124 55 L74 55 L74 35 C74 2 84 -25 105 -45 C127 -65 154 -75 187 -75 C220 -75 248 -64 270 -44 C292 -23 304 3 304 35 C304 72 288 107 256 140 C282 148 304 162 319 181 C336 201 343 225 343 253 C343 284 333 311 313 335 C294 358 262 383 220 409 C188 428 166 446 153 463 C139 479 132 499 132 520 C132 540 138 555 150 566 C162 578 177 584 195 584 C214 584 229 578 241 565 C253 553 259 537 259 517 L259 499 L309 499 L309 519 C309 552 299 579 277 599 C256 619 229 629 196 629 C163 629 135 619 113 598 C91 578 79 551 79 519 C79 482 95 447 126 415 C100 407 79 393 63 373 C47 353 40 329 40 301 C40 270 50 243 69 219 C89 196 121 171 163 145 C194 126 216 108 230 92 C244 75 251 56 251 33 L251 33 Z M184 370 C224 346 252 325 267 308 C283 291 291 272 291 250 C291 229 283 211 269 196 C255 181 237 174 217 173 L199 184 C159 209 131 230 115 247 C100 263 92 283 92 304 C92 326 99 344 114 358 C128 372 145 381 166 382 L184 370 Z " />
<glyph glyph-name="dieresis" unicode="&#xa8;" horiz-adv-x="262" d="M73 560 C54 560 37 545 37 524 C37 506 53 489 73 489 C91 489 109 503 109 524 C109 543 94 560 73 560 L73 560 Z M193 560 C174 560 156 546 156 524 C156 505 173 489 193 489 C211 489 228 503 228 524 C228 543 214 559 193 560 L193 560 Z " />
<glyph glyph-name="copyright" unicode="&#xa9;" horiz-adv-x="659" d="M122 484 C66 428 37 360 37 279 C37 198 65 130 120 75 C175 20 244 -8 326 -8 C408 -8 477 20 534 76 C590 132 618 201 618 282 C618 363 591 431 535 486 C480 541 412 568 329 568 C247 568 178 540 122 484 L122 484 Z M151 103 C102 151 78 210 78 280 C78 351 102 410 151 458 C199 506 258 530 328 530 C398 530 457 506 505 458 C553 410 577 351 577 280 C577 210 553 151 505 103 C457 55 398 31 328 31 C258 31 199 55 151 103 L151 103 Z M429 208 L425 204 C423 201 420 197 415 193 C410 188 403 184 397 179 C390 175 381 172 371 169 C360 166 349 164 337 164 C305 164 277 175 255 197 C232 220 221 247 221 280 C221 313 232 341 255 363 C277 385 305 396 337 396 C355 396 371 393 386 385 C401 378 411 372 415 368 C419 363 422 360 425 357 L457 384 L453 390 C450 394 445 398 439 404 C432 409 424 414 415 419 C407 425 395 429 381 433 C367 437 352 439 337 439 C290 439 252 423 221 392 C190 361 175 324 175 279 C175 234 190 196 219 167 C249 137 287 122 334 122 C350 122 366 124 380 128 C395 133 407 137 416 143 C425 148 433 154 441 161 C448 168 453 173 455 176 C457 178 459 180 460 182 L429 208 Z " />
<glyph glyph-name="ordfeminine" unicode="&#xaa;" horiz-adv-x="208" d="M29 380 C29 358 35 341 47 328 C60 315 76 308 95 308 C119 308 144 325 148 356 L148 313 L176 313 L176 500 C176 521 170 537 157 549 C144 561 128 568 108 568 C87 568 70 561 57 549 C44 536 38 520 38 499 L38 491 L68 491 L68 499 C68 511 71 521 78 528 C86 535 95 539 107 539 C118 539 128 535 135 528 C142 521 146 511 146 499 L146 445 C134 458 117 465 96 465 C77 465 61 458 48 444 C35 430 29 412 29 392 L29 380 Z M37 229 L176 229 L176 256 L37 256 L37 229 Z M60 391 C60 406 63 418 71 426 C79 435 89 440 103 440 C116 440 127 435 134 426 C142 418 146 406 146 391 L146 381 C146 367 142 355 134 347 C127 338 116 333 103 333 C89 333 79 338 71 347 C63 355 60 367 60 381 L60 391 Z " />
<glyph glyph-name="guillemotleft" unicode="&#xab;" horiz-adv-x="441" d="M223 429 L193 460 L32 309 L32 289 L193 139 L223 171 L93 301 L223 429 Z M424 429 L393 460 L233 309 L233 289 L393 139 L424 171 L294 301 L424 429 Z " />
<glyph glyph-name="logicalnot" unicode="&#xac;" horiz-adv-x="348" d="M263 133 L308 133 L308 300 L40 300 L40 257 L263 257 L263 133 L263 133 Z " />
<glyph glyph-name="registered" unicode="&#xae;" horiz-adv-x="318" d="M60 331 C87 305 120 292 159 292 C198 292 232 305 259 332 C285 359 299 392 299 431 C299 470 286 502 259 529 C232 555 199 568 161 568 C121 568 88 555 61 528 C34 501 20 468 20 429 C20 390 34 358 60 331 L60 331 Z M84 352 C63 372 52 398 52 430 C52 461 63 487 84 508 C104 528 130 539 161 539 C192 539 218 528 238 508 C259 487 269 461 269 430 C269 398 259 372 238 352 C218 331 192 321 161 321 C130 321 104 331 84 352 L84 352 Z M111 363 L139 363 L139 410 L158 410 L192 363 L224 363 L188 412 C208 420 219 433 219 453 C219 466 214 477 205 485 C196 493 184 497 170 497 L111 497 L111 363 Z M167 474 C183 474 191 467 191 453 C191 439 183 432 167 432 L139 432 L139 474 L167 474 Z " />
<glyph glyph-name="degree" unicode="&#xb0;" horiz-adv-x="288" d="M66 536 C45 514 34 487 34 455 C34 423 45 396 66 374 C88 353 115 342 147 342 C180 342 207 353 229 374 C250 396 261 423 261 455 C261 488 250 515 229 536 C207 558 180 568 147 568 C115 568 88 557 66 536 L66 536 Z M98 404 C85 418 79 435 79 455 C79 476 85 493 98 506 C111 520 128 527 147 527 C167 527 184 520 197 506 C210 493 216 476 216 455 C216 435 210 418 197 404 C184 390 167 384 147 384 C128 384 111 390 98 404 L98 404 Z " />
<glyph glyph-name="plusminus" unicode="&#xb1;" horiz-adv-x="345" d="M193 418 L151 418 L151 301 L38 301 L38 259 L151 259 L151 142 L193 142 L193 259 L306 259 L306 301 L193 301 L193 418 Z M306 38 L306 81 L38 81 L38 38 L306 38 Z " />
<glyph glyph-name="twosuperior" unicode="&#xb2;" horiz-adv-x="170" d="M154 227 L154 263 L55 263 L128 406 C145 438 154 466 154 491 C154 514 147 533 133 547 C120 561 103 568 82 568 C62 568 45 561 31 547 C18 533 11 514 11 492 L11 463 L49 463 L49 491 C49 517 60 530 81 530 C103 530 113 517 113 491 C113 468 108 445 96 422 L12 256 L12 227 L154 227 L154 227 Z " />
<glyph glyph-name="threesuperior" unicode="&#xb3;" horiz-adv-x="191" d="M163 496 C163 517 157 535 144 548 C130 561 114 568 94 568 C74 568 57 561 44 548 C31 534 25 516 25 495 L25 472 L64 472 L64 495 C64 506 67 515 72 522 C77 528 84 531 93 531 C112 531 122 519 122 495 L122 454 C122 431 112 418 93 418 L75 418 L75 386 L93 386 C115 386 126 373 126 346 L126 299 C126 273 115 259 93 259 C71 259 60 273 60 299 L60 326 L21 326 L21 298 C21 275 28 256 41 243 C55 229 72 223 93 223 C114 223 132 230 146 244 C159 258 166 276 166 299 L166 341 C166 369 156 390 137 403 C154 417 163 436 163 462 L163 496 L163 496 Z " />
<glyph glyph-name="acute" unicode="&#xb4;" horiz-adv-x="154" d="M14 439 L56 439 L117 568 L61 568 L14 439 L14 439 Z " />
<glyph glyph-name="mu" unicode="&#xb5;" horiz-adv-x="289" d="M34 407 L34 -128 L86 -128 L86 8 C100 -2 116 -8 134 -8 C168 -8 193 8 210 39 L210 0 L258 0 L258 407 L206 407 L206 110 C206 88 200 71 189 59 C177 46 162 40 144 40 C126 40 112 46 102 59 C91 71 86 88 86 110 L86 407 L34 407 L34 407 Z " />
<glyph glyph-name="paragraph" unicode="&#xb6;" horiz-adv-x="381" d="M160 0 L212 0 L212 514 L289 514 L289 0 L341 0 L341 560 L153 560 C110 560 77 547 53 522 C29 496 17 463 17 424 C17 386 28 354 52 328 C75 303 109 290 152 290 L160 290 L160 0 L160 0 Z " />
<glyph glyph-name="cedilla" unicode="&#xb8;" horiz-adv-x="285" d="M125 1 L134 -4 C140 -8 146 -15 152 -25 C157 -36 160 -48 160 -60 C160 -77 155 -91 145 -101 C134 -111 121 -116 104 -116 C89 -116 79 -114 73 -111 L73 -149 L78 -151 C81 -152 86 -153 92 -154 C98 -154 104 -155 111 -155 C137 -155 159 -147 177 -131 C196 -116 205 -94 205 -66 C205 -54 203 -43 199 -33 C195 -22 191 -14 185 -8 C180 -2 175 3 168 8 C162 13 157 16 155 18 C153 19 151 20 149 21 L125 1 L125 1 Z " />
<glyph glyph-name="onesuperior" unicode="&#xb9;" horiz-adv-x="146" d="M9 507 L31 480 L65 509 L65 225 L106 225 L106 561 L72 561 L9 507 L9 507 Z " />
<glyph glyph-name="ordmasculine" unicode="&#xba;" horiz-adv-x="200" d="M25 384 C25 361 33 343 47 330 C61 316 79 309 100 309 C121 309 139 316 154 330 C169 344 176 363 176 386 L176 494 C176 516 169 534 155 548 C141 562 123 568 102 568 C80 568 62 561 48 548 C33 534 25 515 25 492 L25 384 Z M34 228 L168 228 L168 261 L34 261 L34 228 Z M66 493 C66 505 70 515 76 521 C82 528 91 531 101 531 C111 531 119 528 126 521 C132 515 135 505 135 493 L135 384 C135 372 132 363 126 357 C119 351 111 348 101 348 C91 348 82 351 76 357 C70 363 66 372 66 384 L66 493 Z " />
<glyph glyph-name="guillemotright" unicode="&#xbb;" horiz-adv-x="454" d="M22 172 L52 141 L213 292 L213 312 L52 461 L22 429 L151 301 L22 172 Z M223 172 L253 141 L414 292 L414 312 L253 461 L223 429 L352 301 L223 172 Z " />
<glyph glyph-name="onequarter" unicode="&#xbc;" horiz-adv-x="432" d="M11 506 L34 480 L70 508 L70 224 L110 224 L110 560 L76 560 L11 506 Z M47 0 L89 0 L415 560 L373 560 L47 0 Z M258 119 L258 86 L354 86 L354 0 L392 0 L392 86 L418 86 L418 120 L392 120 L392 336 L353 336 L258 119 Z M292 120 L354 262 L354 120 L292 120 Z " />
<glyph glyph-name="onehalf" unicode="&#xbd;" horiz-adv-x="489" d="M11 504 L33 478 L70 508 L70 224 L111 224 L111 560 L76 560 L11 504 Z M47 0 L89 0 L415 560 L373 560 L47 0 Z M456 0 L456 36 L358 36 L431 179 C448 211 456 239 456 264 C456 287 449 306 436 320 C423 334 406 341 385 341 C365 341 348 334 334 320 C321 306 314 287 314 265 L314 236 L352 236 L352 264 C352 290 363 303 384 303 C406 303 416 290 416 264 C416 241 410 218 399 195 L315 29 L315 0 L456 0 Z " />
<glyph glyph-name="threequarters" unicode="&#xbe;" horiz-adv-x="473" d="M182 493 C182 514 175 532 162 545 C149 558 132 565 112 565 C93 565 76 558 63 545 C50 531 44 513 44 491 L44 469 L83 469 L83 492 C83 504 85 512 91 519 C96 525 103 528 111 528 C131 528 141 516 141 492 L141 452 C141 427 131 416 111 416 L111 384 C134 384 145 370 145 343 L145 296 C145 270 134 256 111 256 C90 256 79 270 79 296 L79 323 L40 323 L40 295 C40 272 47 254 60 240 C74 226 91 219 111 219 C133 219 150 227 164 241 C178 255 185 273 185 296 L185 338 C185 366 175 386 155 400 C173 414 182 433 182 459 L182 493 Z M88 0 L130 0 L456 560 L414 560 L88 0 Z M299 119 L299 86 L395 86 L395 0 L433 0 L433 86 L460 86 L460 120 L433 120 L433 336 L394 336 L299 119 Z M333 120 L395 262 L395 120 L333 120 Z " />
<glyph glyph-name="questiondown" unicode="&#xbf;" horiz-adv-x="253" d="M105 372 C105 353 100 332 91 310 C82 287 71 268 60 251 C49 234 39 213 30 188 C20 164 16 140 16 116 C16 79 26 49 47 26 C69 4 96 -8 128 -8 C161 -8 188 3 209 26 C230 48 241 78 241 116 L241 160 L191 160 L191 116 C191 93 185 75 174 62 C163 48 148 42 130 42 C111 42 96 48 85 62 C73 75 67 93 67 116 C67 139 72 162 81 186 C90 209 100 230 111 247 C122 264 132 284 141 306 C150 329 155 350 155 371 L155 395 L105 395 L105 372 Z M130 492 C150 492 167 510 167 531 C167 550 151 568 130 568 C111 568 91 553 91 531 C91 511 109 493 130 492 L130 492 Z " />
<glyph glyph-name="Agrave" unicode="&#xc0;" horiz-adv-x="300" d="M180 560 L120 560 L12 0 L65 0 L92 142 L212 142 L239 0 L287 0 L180 560 Z M152 459 L204 186 L100 186 L152 459 Z M157 742 L101 742 L162 613 L204 613 L157 742 Z " />
<glyph glyph-name="Aacute" unicode="&#xc1;" horiz-adv-x="300" d="M180 560 L120 560 L12 0 L65 0 L92 142 L212 142 L239 0 L287 0 L180 560 Z M152 459 L204 186 L100 186 L152 459 Z M102 610 L144 610 L205 739 L149 739 L102 610 Z " />
<glyph glyph-name="Acircumflex" unicode="&#xc2;" horiz-adv-x="300" d="M180 560 L120 560 L12 0 L65 0 L92 142 L212 142 L239 0 L287 0 L180 560 Z M152 459 L204 186 L100 186 L152 459 Z M56 603 L98 603 L151 690 L204 603 L248 603 L175 732 L130 732 L56 603 Z " />
<glyph glyph-name="Atilde" unicode="&#xc3;" horiz-adv-x="300" d="M180 560 L120 560 L12 0 L65 0 L92 142 L212 142 L239 0 L287 0 L180 560 Z M152 459 L204 186 L100 186 L152 459 Z M46 615 L47 628 C48 637 51 646 57 654 C63 663 71 667 82 667 C92 667 103 664 113 658 C123 652 132 645 139 638 C147 630 157 623 169 617 C180 610 194 607 208 607 C223 607 236 611 247 618 C258 625 266 633 271 642 C276 650 280 660 283 671 C286 683 287 691 288 695 C288 700 288 703 288 706 L246 706 L246 692 C245 684 241 675 235 666 C229 657 221 653 211 653 C198 653 185 658 172 668 C160 678 146 688 132 698 C117 708 101 713 83 713 C68 713 56 709 45 702 C34 695 26 687 21 679 C16 670 12 660 9 649 C6 638 5 630 5 625 C4 621 4 617 4 615 L46 615 Z " />
<glyph glyph-name="Adieresis" unicode="&#xc4;" horiz-adv-x="300" d="M180 560 L120 560 L12 0 L65 0 L92 142 L212 142 L239 0 L287 0 L180 560 Z M152 459 L204 186 L100 186 L152 459 Z M93 682 C74 682 57 667 57 646 C57 628 73 611 93 611 C111 611 129 625 129 646 C129 665 114 682 93 682 L93 682 Z M213 682 C194 682 176 668 176 646 C176 627 193 611 213 611 C231 611 248 625 248 646 C248 665 234 681 213 682 L213 682 Z " />
<glyph glyph-name="Aring" unicode="&#xc5;" horiz-adv-x="300" d="M180 560 L120 560 L12 0 L65 0 L92 142 L212 142 L239 0 L287 0 L180 560 Z M152 459 L204 186 L100 186 L152 459 Z M100 672 C87 659 80 642 80 622 C80 602 87 585 100 572 C113 559 131 553 151 553 C172 553 189 559 203 572 C216 585 223 602 223 622 C223 642 216 659 203 672 C189 685 172 691 151 691 C131 691 113 685 100 672 L100 672 Z M125 595 C118 602 114 611 114 622 C114 634 118 643 125 650 C132 657 141 660 151 660 C162 660 171 657 178 650 C185 643 189 634 189 622 C189 611 185 601 178 594 C171 588 162 584 151 584 C141 584 132 588 125 595 L125 595 Z " />
<glyph glyph-name="AE" unicode="&#xc6;" horiz-adv-x="429" d="M413 509 L413 560 L178 560 L9 0 L61 0 L104 143 L217 143 L217 0 L417 0 L417 52 L270 52 L270 268 L389 268 L389 316 L270 316 L270 509 L413 509 Z M118 187 L217 516 L217 187 L118 187 Z " />
<glyph glyph-name="Ccedilla" unicode="&#xc7;" horiz-adv-x="313" d="M225 118 C225 94 219 76 207 62 C195 49 180 42 160 42 C140 42 124 49 112 62 C100 76 93 94 93 118 L93 442 C93 465 100 484 112 497 C124 511 140 518 160 518 C180 518 195 511 207 497 C219 484 225 465 225 442 L225 372 L277 372 L277 445 C277 482 266 512 245 534 C223 557 195 568 161 568 C126 568 97 556 74 533 C51 510 40 479 40 442 L40 116 C40 78 51 48 73 26 C96 3 124 -8 159 -8 C193 -8 221 3 244 26 C266 49 277 80 277 117 L277 196 L225 196 L225 118 Z M141 -5 L150 -10 C156 -14 162 -21 168 -31 C173 -42 176 -54 176 -66 C176 -83 171 -97 161 -107 C150 -117 137 -122 120 -122 C105 -122 95 -120 89 -117 L89 -155 L94 -157 C97 -158 102 -159 108 -160 C114 -160 120 -161 127 -161 C153 -161 175 -153 193 -137 C212 -122 221 -100 221 -72 C221 -60 219 -49 215 -39 C211 -28 207 -20 201 -14 C196 -8 191 -3 184 2 C178 7 173 10 171 12 C169 13 167 14 165 15 L141 -5 Z " />
<glyph glyph-name="Egrave" unicode="&#xc8;" horiz-adv-x="267" d="M240 0 L240 51 L94 51 L94 268 L212 268 L212 316 L94 316 L94 509 L236 509 L236 560 L40 560 L40 0 L240 0 Z M132 714 L76 714 L137 585 L179 585 L132 714 Z " />
<glyph glyph-name="Eacute" unicode="&#xc9;" horiz-adv-x="267" d="M240 0 L240 51 L94 51 L94 268 L212 268 L212 316 L94 316 L94 509 L236 509 L236 560 L40 560 L40 0 L240 0 Z M79 592 L121 592 L182 721 L126 721 L79 592 Z " />
<glyph glyph-name="Ecircumflex" unicode="&#xca;" horiz-adv-x="262" d="M240 0 L240 51 L94 51 L94 268 L212 268 L212 316 L94 316 L94 509 L236 509 L236 560 L40 560 L40 0 L240 0 Z M35 581 L77 581 L130 668 L183 581 L227 581 L154 710 L109 710 L35 581 Z " />
<glyph glyph-name="Edieresis" unicode="&#xcb;" horiz-adv-x="267" d="M240 0 L240 51 L94 51 L94 268 L212 268 L212 316 L94 316 L94 509 L236 509 L236 560 L40 560 L40 0 L240 0 Z M74 674 C55 674 38 659 38 638 C38 620 54 603 74 603 C92 603 110 617 110 638 C110 657 95 674 74 674 L74 674 Z M194 674 C175 674 157 660 157 638 C157 619 174 603 194 603 C212 603 229 617 229 638 C229 657 215 673 194 674 L194 674 Z " />
<glyph glyph-name="Igrave" unicode="&#xcc;" horiz-adv-x="136" d="M40 0 L96 0 L96 560 L40 560 L40 0 Z M73 729 L17 729 L78 600 L120 600 L73 729 Z " />
<glyph glyph-name="Iacute" unicode="&#xcd;" horiz-adv-x="136" d="M40 0 L96 0 L96 560 L40 560 L40 0 Z M17 587 L59 587 L120 716 L64 716 L17 587 Z " />
<glyph glyph-name="Icircumflex" unicode="&#xce;" horiz-adv-x="136" d="M40 0 L96 0 L96 560 L40 560 L40 0 Z M-27 586 L15 586 L68 673 L121 586 L165 586 L92 715 L47 715 L-27 586 Z " />
<glyph glyph-name="Idieresis" unicode="&#xcf;" horiz-adv-x="136" d="M40 0 L96 0 L96 560 L40 560 L40 0 Z M11 676 C-8 676 -25 661 -25 640 C-25 622 -9 605 11 605 C29 605 47 619 47 640 C47 659 32 676 11 676 L11 676 Z M131 676 C112 676 94 662 94 640 C94 621 111 605 131 605 C149 605 166 619 166 640 C166 659 152 675 131 676 L131 676 Z " />
<glyph glyph-name="Eth" unicode="&#xd0;" horiz-adv-x="370" d="M86 0 L199 0 C238 0 270 12 294 36 C318 60 330 94 330 136 L330 426 C330 469 318 502 295 525 C272 549 240 560 201 560 L86 560 L86 303 L20 303 L20 266 L86 266 L86 0 Z M140 511 L198 511 C222 511 242 504 255 489 C269 474 276 452 276 423 L276 137 C276 109 269 87 255 72 C242 57 222 49 198 49 L140 49 L140 266 L224 266 L224 303 L140 303 L140 511 Z " />
<glyph glyph-name="Ntilde" unicode="&#xd1;" horiz-adv-x="333" d="M244 0 L293 0 L293 560 L244 560 L244 130 L93 560 L40 560 L40 0 L89 0 L89 439 L244 0 Z M54 619 L55 632 C56 641 59 650 65 658 C71 667 79 671 90 671 C100 671 111 668 121 662 C131 656 140 649 147 642 C155 634 165 627 177 621 C188 614 202 611 216 611 C231 611 244 615 255 622 C266 629 274 637 279 646 C284 654 288 664 291 675 C294 687 295 695 296 699 C296 704 296 707 296 710 L254 710 L254 696 C253 688 249 679 243 670 C237 661 229 657 219 657 C206 657 193 662 180 672 C168 682 154 692 140 702 C125 712 109 717 91 717 C76 717 64 713 53 706 C42 699 34 691 29 683 C24 674 20 664 17 653 C14 642 13 634 13 629 C12 625 12 621 12 619 L54 619 Z " />
<glyph glyph-name="Ograve" unicode="&#xd2;" horiz-adv-x="328" d="M40 120 C40 81 51 50 74 27 C98 4 127 -8 163 -8 C198 -8 228 4 252 28 C276 51 288 83 288 122 L288 440 C288 479 276 510 253 533 C229 556 200 568 164 568 C129 568 99 556 75 532 C51 508 40 477 40 438 L40 120 Z M93 438 C93 462 100 482 113 496 C126 510 143 518 164 518 C184 518 201 510 214 496 C227 482 233 462 233 438 L233 122 C233 97 227 78 214 64 C201 49 184 42 164 42 C143 42 126 49 113 64 C100 78 93 97 93 122 L93 438 Z M167 728 L111 728 L172 599 L214 599 L167 728 Z " />
<glyph glyph-name="Oacute" unicode="&#xd3;" horiz-adv-x="328" d="M40 120 C40 81 51 50 74 27 C98 4 127 -8 163 -8 C198 -8 228 4 252 28 C276 51 288 83 288 122 L288 440 C288 479 276 510 253 533 C229 556 200 568 164 568 C129 568 99 556 75 532 C51 508 40 477 40 438 L40 120 Z M93 438 C93 462 100 482 113 496 C126 510 143 518 164 518 C184 518 201 510 214 496 C227 482 233 462 233 438 L233 122 C233 97 227 78 214 64 C201 49 184 42 164 42 C143 42 126 49 113 64 C100 78 93 97 93 122 L93 438 Z M113 595 L155 595 L216 724 L160 724 L113 595 Z " />
<glyph glyph-name="Ocircumflex" unicode="&#xd4;" horiz-adv-x="328" d="M40 120 C40 81 51 50 74 27 C98 4 127 -8 163 -8 C198 -8 228 4 252 28 C276 51 288 83 288 122 L288 440 C288 479 276 510 253 533 C229 556 200 568 164 568 C129 568 99 556 75 532 C51 508 40 477 40 438 L40 120 Z M93 438 C93 462 100 482 113 496 C126 510 143 518 164 518 C184 518 201 510 214 496 C227 482 233 462 233 438 L233 122 C233 97 227 78 214 64 C201 49 184 42 164 42 C143 42 126 49 113 64 C100 78 93 97 93 122 L93 438 Z M68 588 L110 588 L163 675 L216 588 L260 588 L187 717 L142 717 L68 588 Z " />
<glyph glyph-name="Otilde" unicode="&#xd5;" horiz-adv-x="328" d="M40 120 C40 81 51 50 74 27 C98 4 127 -8 163 -8 C198 -8 228 4 252 28 C276 51 288 83 288 122 L288 440 C288 479 276 510 253 533 C229 556 200 568 164 568 C129 568 99 556 75 532 C51 508 40 477 40 438 L40 120 Z M93 438 C93 462 100 482 113 496 C126 510 143 518 164 518 C184 518 201 510 214 496 C227 482 233 462 233 438 L233 122 C233 97 227 78 214 64 C201 49 184 42 164 42 C143 42 126 49 113 64 C100 78 93 97 93 122 L93 438 Z M61 603 L62 616 C63 625 66 634 72 642 C78 651 86 655 97 655 C107 655 118 652 128 646 C138 640 147 633 154 626 C162 618 172 611 184 605 C195 598 209 595 223 595 C238 595 251 599 262 606 C273 613 281 621 286 630 C291 638 295 648 298 659 C301 671 302 679 303 683 C303 688 303 691 303 694 L261 694 L261 680 C260 672 256 663 250 654 C244 645 236 641 226 641 C213 641 200 646 187 656 C175 666 161 676 147 686 C132 696 116 701 98 701 C83 701 71 697 60 690 C49 683 41 675 36 667 C31 658 27 648 24 637 C21 626 20 618 20 613 C19 609 19 605 19 603 L61 603 Z " />
<glyph glyph-name="Odieresis" unicode="&#xd6;" horiz-adv-x="328" d="M40 120 C40 81 51 50 74 27 C98 4 127 -8 163 -8 C198 -8 228 4 252 28 C276 51 288 83 288 122 L288 440 C288 479 276 510 253 533 C229 556 200 568 164 568 C129 568 99 556 75 532 C51 508 40 477 40 438 L40 120 Z M93 438 C93 462 100 482 113 496 C126 510 143 518 164 518 C184 518 201 510 214 496 C227 482 233 462 233 438 L233 122 C233 97 227 78 214 64 C201 49 184 42 164 42 C143 42 126 49 113 64 C100 78 93 97 93 122 L93 438 Z M106 679 C87 679 70 664 70 643 C70 625 86 608 106 608 C124 608 142 622 142 643 C142 662 127 679 106 679 L106 679 Z M226 679 C207 679 189 665 189 643 C189 624 206 608 226 608 C244 608 261 622 261 643 C261 662 247 678 226 679 L226 679 Z " />
<glyph glyph-name="multiply" unicode="&#xd7;" horiz-adv-x="295" d="M245 155 L275 187 L178 283 L275 380 L245 410 L148 314 L51 410 L20 380 L117 283 L20 187 L51 155 L148 253 L245 155 L245 155 Z " />
<glyph glyph-name="Oslash" unicode="&#xd8;" horiz-adv-x="328" d="M297 584 L262 584 L246 541 C224 559 197 568 165 568 C130 568 100 556 76 532 C52 508 40 477 40 438 L40 120 C40 91 47 67 59 47 L33 -24 L66 -24 L83 20 C104 2 131 -8 164 -8 C199 -8 229 4 253 28 C277 52 288 83 288 122 L288 440 C288 468 282 492 270 513 L297 584 Z M94 438 C94 462 101 482 114 496 C127 511 144 518 165 518 C192 518 212 506 224 483 L94 139 L94 438 Z M165 42 C136 42 116 53 104 76 L234 420 L234 122 C234 97 228 78 215 63 C202 49 185 42 165 42 L165 42 Z " />
<glyph glyph-name="Ugrave" unicode="&#xd9;" horiz-adv-x="320" d="M226 560 L226 118 C226 94 220 76 208 62 C196 49 180 42 160 42 C141 42 125 49 112 62 C100 76 94 94 94 118 L94 560 L40 560 L40 116 C40 78 51 48 73 26 C96 3 124 -8 159 -8 C193 -8 222 3 245 26 C268 49 280 80 280 118 L280 560 L226 560 Z M164 724 L108 724 L169 595 L211 595 L164 724 Z " />
<glyph glyph-name="Uacute" unicode="&#xda;" horiz-adv-x="320" d="M226 560 L226 118 C226 94 220 76 208 62 C196 49 180 42 160 42 C141 42 125 49 112 62 C100 76 94 94 94 118 L94 560 L40 560 L40 116 C40 78 51 48 73 26 C96 3 124 -8 159 -8 C193 -8 222 3 245 26 C268 49 280 80 280 118 L280 560 L226 560 Z M112 587 L154 587 L215 716 L159 716 L112 587 Z " />
<glyph glyph-name="Ucircumflex" unicode="&#xdb;" horiz-adv-x="320" d="M226 560 L226 118 C226 94 220 76 208 62 C196 49 180 42 160 42 C141 42 125 49 112 62 C100 76 94 94 94 118 L94 560 L40 560 L40 116 C40 78 51 48 73 26 C96 3 124 -8 159 -8 C193 -8 222 3 245 26 C268 49 280 80 280 118 L280 560 L226 560 Z M67 583 L109 583 L162 670 L215 583 L259 583 L186 712 L141 712 L67 583 Z " />
<glyph glyph-name="Udieresis" unicode="&#xdc;" horiz-adv-x="320" d="M226 560 L226 118 C226 94 220 76 208 62 C196 49 180 42 160 42 C141 42 125 49 112 62 C100 76 94 94 94 118 L94 560 L40 560 L40 116 C40 78 51 48 73 26 C96 3 124 -8 159 -8 C193 -8 222 3 245 26 C268 49 280 80 280 118 L280 560 L226 560 Z M99 690 C80 690 63 675 63 654 C63 636 79 619 99 619 C117 619 135 633 135 654 C135 673 120 690 99 690 L99 690 Z M219 690 C200 690 182 676 182 654 C182 635 199 619 219 619 C237 619 254 633 254 654 C254 673 240 689 219 690 L219 690 Z " />
<glyph glyph-name="Yacute" unicode="&#xdd;" horiz-adv-x="282" d="M113 0 L168 0 L168 224 L275 560 L219 560 L141 291 L64 560 L7 560 L113 226 L113 0 Z M91 599 L133 599 L194 728 L138 728 L91 599 Z " />
<glyph glyph-name="Thorn" unicode="&#xde;" horiz-adv-x="324" d="M40 0 L94 0 L94 130 L152 130 C192 130 224 142 248 167 C272 191 284 225 284 268 L284 321 C284 364 273 398 249 421 C226 445 194 457 153 457 L94 457 L94 560 L40 560 L40 0 Z M94 409 L152 409 C177 409 196 402 210 386 C223 371 230 349 230 321 L230 266 C230 238 223 216 210 201 C196 186 177 178 152 178 L94 178 L94 409 Z " />
<glyph glyph-name="germandbls" unicode="&#xdf;" horiz-adv-x="319" d="M152 -8 L180 -8 C212 -8 240 4 262 27 C284 50 296 81 296 119 L296 230 C296 262 288 288 272 310 C256 331 234 345 208 351 L280 484 L277 493 C267 522 239 548 209 560 C194 565 178 568 161 568 C126 568 97 557 74 533 C51 510 40 480 40 442 L40 0 L93 0 L93 441 C93 465 100 484 112 497 C124 511 140 518 160 518 C192 518 214 504 226 475 L156 346 L156 310 L172 310 C193 310 209 303 222 288 C235 274 241 254 241 230 L241 123 C241 98 235 78 222 64 C209 50 193 43 172 43 C163 43 152 43 152 43 L152 -8 Z " />
<glyph glyph-name="agrave" unicode="&#xe0;" horiz-adv-x="297" d="M25 108 C25 73 35 45 54 24 C72 3 97 -8 127 -8 C171 -8 206 31 211 77 L211 0 L257 0 L257 303 C257 336 247 363 226 384 C205 405 179 415 148 415 C118 415 92 405 72 383 C51 362 40 334 40 300 L90 303 C90 323 95 339 106 351 C117 364 131 370 147 370 C164 370 178 364 189 351 C200 339 205 323 205 303 L205 207 C186 232 161 245 129 245 C99 245 74 234 55 212 C35 190 25 161 25 127 L25 108 Z M77 128 C77 151 83 169 95 182 C106 196 122 203 141 203 C160 203 176 196 188 182 C199 169 205 151 205 128 L205 111 C205 88 199 70 188 57 C176 43 160 36 141 36 C122 36 106 43 95 57 C83 70 77 88 77 111 L77 128 Z M146 560 L90 560 L151 431 L193 431 L146 560 Z " />
<glyph glyph-name="aacute" unicode="&#xe1;" horiz-adv-x="297" d="M25 108 C25 73 35 45 54 24 C72 3 97 -8 127 -8 C171 -8 206 31 211 77 L211 0 L257 0 L257 303 C257 336 247 363 226 384 C205 405 179 415 148 415 C118 415 92 405 72 383 C51 362 40 334 40 300 L90 303 C90 323 95 339 106 351 C117 364 131 370 147 370 C164 370 178 364 189 351 C200 339 205 323 205 303 L205 207 C186 232 161 245 129 245 C99 245 74 234 55 212 C35 190 25 161 25 127 L25 108 Z M77 128 C77 151 83 169 95 182 C106 196 122 203 141 203 C160 203 176 196 188 182 C199 169 205 151 205 128 L205 111 C205 88 199 70 188 57 C176 43 160 36 141 36 C122 36 106 43 95 57 C83 70 77 88 77 111 L77 128 Z M94 439 L136 439 L197 568 L141 568 L94 439 Z " />
<glyph glyph-name="acircumflex" unicode="&#xe2;" horiz-adv-x="297" d="M25 108 C25 73 35 45 54 24 C72 3 97 -8 127 -8 C171 -8 206 31 211 77 L211 0 L257 0 L257 303 C257 336 247 363 226 384 C205 405 179 415 148 415 C118 415 92 405 72 383 C51 362 40 334 40 300 L90 303 C90 323 95 339 106 351 C117 364 131 370 147 370 C164 370 178 364 189 351 C200 339 205 323 205 303 L205 207 C186 232 161 245 129 245 C99 245 74 234 55 212 C35 190 25 161 25 127 L25 108 Z M77 128 C77 151 83 169 95 182 C106 196 122 203 141 203 C160 203 176 196 188 182 C199 169 205 151 205 128 L205 111 C205 88 199 70 188 57 C176 43 160 36 141 36 C122 36 106 43 95 57 C83 70 77 88 77 111 L77 128 Z M47 431 L89 431 L142 518 L195 431 L239 431 L166 560 L121 560 L47 431 Z " />
<glyph glyph-name="atilde" unicode="&#xe3;" horiz-adv-x="297" d="M25 108 C25 73 35 45 54 24 C72 3 97 -8 127 -8 C171 -8 206 31 211 77 L211 0 L257 0 L257 303 C257 336 247 363 226 384 C205 405 179 415 148 415 C118 415 92 405 72 383 C51 362 40 334 40 300 L90 303 C90 323 95 339 106 351 C117 364 131 370 147 370 C164 370 178 364 189 351 C200 339 205 323 205 303 L205 207 C186 232 161 245 129 245 C99 245 74 234 55 212 C35 190 25 161 25 127 L25 108 Z M77 128 C77 151 83 169 95 182 C106 196 122 203 141 203 C160 203 176 196 188 182 C199 169 205 151 205 128 L205 111 C205 88 199 70 188 57 C176 43 160 36 141 36 C122 36 106 43 95 57 C83 70 77 88 77 111 L77 128 Z M41 459 L42 472 C43 481 46 490 52 498 C58 507 66 511 77 511 C87 511 98 508 108 502 C118 496 127 489 134 482 C142 474 152 467 164 461 C175 454 189 451 203 451 C218 451 231 455 242 462 C253 469 261 477 266 486 C271 494 275 504 278 515 C281 527 282 535 283 539 C283 544 283 547 283 550 L241 550 L241 536 C240 528 236 519 230 510 C224 501 216 497 206 497 C193 497 180 502 167 512 C155 522 141 532 127 542 C112 552 96 557 78 557 C63 557 51 553 40 546 C29 539 21 531 16 523 C11 514 7 504 4 493 C1 482 0 474 0 469 C-1 465 -1 461 -1 459 L41 459 Z " />
<glyph glyph-name="adieresis" unicode="&#xe4;" horiz-adv-x="297" d="M25 108 C25 73 35 45 54 24 C72 3 97 -8 127 -8 C171 -8 206 31 211 77 L211 0 L257 0 L257 303 C257 336 247 363 226 384 C205 405 179 415 148 415 C118 415 92 405 72 383 C51 362 40 334 40 300 L90 303 C90 323 95 339 106 351 C117 364 131 370 147 370 C164 370 178 364 189 351 C200 339 205 323 205 303 L205 207 C186 232 161 245 129 245 C99 245 74 234 55 212 C35 190 25 161 25 127 L25 108 Z M77 128 C77 151 83 169 95 182 C106 196 122 203 141 203 C160 203 176 196 188 182 C199 169 205 151 205 128 L205 111 C205 88 199 70 188 57 C176 43 160 36 141 36 C122 36 106 43 95 57 C83 70 77 88 77 111 L77 128 Z M79 538 C60 538 43 523 43 502 C43 484 59 467 79 467 C97 467 115 481 115 502 C115 521 100 538 79 538 L79 538 Z M199 538 C180 538 162 524 162 502 C162 483 179 467 199 467 C217 467 234 481 234 502 C234 521 220 537 199 538 L199 538 Z " />
<glyph glyph-name="aring" unicode="&#xe5;" horiz-adv-x="297" d="M25 108 C25 73 35 45 54 24 C72 3 97 -8 127 -8 C171 -8 206 31 211 77 L211 0 L257 0 L257 303 C257 336 247 363 226 384 C205 405 179 415 148 415 C118 415 92 405 72 383 C51 362 40 334 40 300 L90 303 C90 323 95 339 106 351 C117 364 131 370 147 370 C164 370 178 364 189 351 C200 339 205 323 205 303 L205 207 C186 232 161 245 129 245 C99 245 74 234 55 212 C35 190 25 161 25 127 L25 108 Z M77 128 C77 151 83 169 95 182 C106 196 122 203 141 203 C160 203 176 196 188 182 C199 169 205 151 205 128 L205 111 C205 88 199 70 188 57 C176 43 160 36 141 36 C122 36 106 43 95 57 C83 70 77 88 77 111 L77 128 Z M90 524 C77 511 70 494 70 474 C70 454 77 437 90 424 C103 411 121 405 141 405 C162 405 179 411 193 424 C206 437 213 454 213 474 C213 494 206 511 193 524 C179 537 162 543 141 543 C121 543 103 537 90 524 L90 524 Z M115 447 C108 454 104 463 104 474 C104 486 108 495 115 502 C122 509 131 512 141 512 C152 512 161 509 168 502 C175 495 179 486 179 474 C179 463 175 453 168 446 C161 440 152 436 141 436 C131 436 122 440 115 447 L115 447 Z " />
<glyph glyph-name="ae" unicode="&#xe6;" horiz-adv-x="469" d="M25 108 C25 73 35 45 54 24 C74 3 99 -8 129 -8 C151 -8 170 -2 186 8 C203 18 216 33 224 51 C241 12 272 -8 316 -8 C348 -8 375 3 397 25 C418 47 429 76 429 111 L429 132 L380 132 L380 112 C380 90 375 72 363 59 C352 47 337 40 319 40 C301 40 286 47 274 59 C263 72 257 90 257 112 L257 207 L429 207 L429 299 C429 335 419 363 398 384 C377 405 351 415 319 415 C280 415 251 400 232 368 C215 400 187 415 148 415 C118 415 92 405 72 383 C51 362 40 334 40 300 L40 286 L90 286 L90 303 C90 323 96 339 106 352 C117 364 131 370 148 370 C164 370 178 364 189 352 C200 339 205 323 205 303 L205 207 C187 232 161 245 129 245 C99 245 75 234 55 212 C35 190 25 161 25 127 L25 108 Z M77 128 C77 151 83 169 95 182 C107 196 122 203 141 203 C160 203 176 196 188 182 C199 169 205 151 205 128 L205 111 C205 88 199 70 188 57 C176 43 160 36 141 36 C122 36 107 43 95 57 C83 70 77 88 77 111 L77 128 Z M257 300 C257 322 263 340 274 352 C286 365 301 372 319 372 C337 372 352 365 363 352 C375 340 380 322 380 300 L380 244 L257 244 L257 300 Z " />
<glyph glyph-name="ccedilla" unicode="&#xe7;" horiz-adv-x="298" d="M209 156 L209 108 C209 87 203 71 192 59 C181 46 167 40 150 40 C133 40 119 46 108 59 C97 71 92 87 92 108 L92 299 C92 320 97 337 108 349 C119 361 133 367 150 367 C167 367 181 361 192 349 C203 337 209 320 209 299 L209 255 L258 255 L258 302 C258 336 248 363 228 384 C207 405 182 415 151 415 C120 415 94 405 72 383 C50 361 40 334 40 299 L40 106 C40 72 50 45 71 24 C92 3 118 -8 149 -8 C180 -8 205 3 226 25 C248 47 258 75 258 108 L258 156 L209 156 Z M136 1 L145 -4 C151 -8 157 -15 163 -25 C168 -36 171 -48 171 -60 C171 -77 166 -91 156 -101 C145 -111 132 -116 115 -116 C100 -116 90 -114 84 -111 L84 -149 L89 -151 C92 -152 97 -153 103 -154 C109 -154 115 -155 122 -155 C148 -155 170 -147 188 -131 C207 -116 216 -94 216 -66 C216 -54 214 -43 210 -33 C206 -22 202 -14 196 -8 C191 -2 186 3 179 8 C173 13 168 16 166 18 C164 19 162 20 160 21 L136 1 Z " />
<glyph glyph-name="egrave" unicode="&#xe8;" horiz-adv-x="304" d="M215 111 C215 90 210 72 198 59 C187 47 172 40 154 40 C136 40 121 47 109 59 C98 72 92 90 92 111 L92 207 L264 207 L264 299 C264 335 254 363 233 384 C212 405 186 415 154 415 C122 415 95 404 73 383 C51 361 40 332 40 298 L40 108 C40 74 51 45 72 24 C93 3 119 -8 151 -8 C183 -8 210 3 232 25 C253 47 264 75 264 111 L264 132 L215 132 L215 111 Z M92 299 C92 321 98 339 109 351 C121 364 136 371 154 371 C172 371 187 364 198 351 C210 339 215 321 215 299 L215 244 L92 244 L92 299 Z M155 560 L99 560 L160 431 L202 431 L155 560 Z " />
<glyph glyph-name="eacute" unicode="&#xe9;" horiz-adv-x="304" d="M215 111 C215 90 210 72 198 59 C187 47 172 40 154 40 C136 40 121 47 109 59 C98 72 92 90 92 111 L92 207 L264 207 L264 299 C264 335 254 363 233 384 C212 405 186 415 154 415 C122 415 95 404 73 383 C51 361 40 332 40 298 L40 108 C40 74 51 45 72 24 C93 3 119 -8 151 -8 C183 -8 210 3 232 25 C253 47 264 75 264 111 L264 132 L215 132 L215 111 Z M92 299 C92 321 98 339 109 351 C121 364 136 371 154 371 C172 371 187 364 198 351 C210 339 215 321 215 299 L215 244 L92 244 L92 299 Z M103 439 L145 439 L206 568 L150 568 L103 439 Z " />
<glyph glyph-name="ecircumflex" unicode="&#xea;" horiz-adv-x="304" d="M215 111 C215 90 210 72 198 59 C187 47 172 40 154 40 C136 40 121 47 109 59 C98 72 92 90 92 111 L92 207 L264 207 L264 299 C264 335 254 363 233 384 C212 405 186 415 154 415 C122 415 95 404 73 383 C51 361 40 332 40 298 L40 108 C40 74 51 45 72 24 C93 3 119 -8 151 -8 C183 -8 210 3 232 25 C253 47 264 75 264 111 L264 132 L215 132 L215 111 Z M92 299 C92 321 98 339 109 351 C121 364 136 371 154 371 C172 371 187 364 198 351 C210 339 215 321 215 299 L215 244 L92 244 L92 299 Z M56 431 L98 431 L151 518 L204 431 L248 431 L175 560 L130 560 L56 431 Z " />
<glyph glyph-name="edieresis" unicode="&#xeb;" horiz-adv-x="304" d="M215 111 C215 90 210 72 198 59 C187 47 172 40 154 40 C136 40 121 47 109 59 C98 72 92 90 92 111 L92 207 L264 207 L264 299 C264 335 254 363 233 384 C212 405 186 415 154 415 C122 415 95 404 73 383 C51 361 40 332 40 298 L40 108 C40 74 51 45 72 24 C93 3 119 -8 151 -8 C183 -8 210 3 232 25 C253 47 264 75 264 111 L264 132 L215 132 L215 111 Z M92 299 C92 321 98 339 109 351 C121 364 136 371 154 371 C172 371 187 364 198 351 C210 339 215 321 215 299 L215 244 L92 244 L92 299 Z M91 540 C72 540 55 525 55 504 C55 486 71 469 91 469 C109 469 127 483 127 504 C127 523 112 540 91 540 L91 540 Z M211 540 C192 540 174 526 174 504 C174 485 191 469 211 469 C229 469 246 483 246 504 C246 523 232 539 211 540 L211 540 Z " />
<glyph glyph-name="igrave" unicode="&#xec;" horiz-adv-x="134" d="M94 0 L94 407 L40 407 L40 0 L94 0 Z M68 568 L12 568 L73 439 L115 439 L68 568 Z " />
<glyph glyph-name="iacute" unicode="&#xed;" horiz-adv-x="134" d="M94 0 L94 407 L40 407 L40 0 L94 0 Z M8 439 L50 439 L111 568 L55 568 L8 439 Z " />
<glyph glyph-name="icircumflex" unicode="&#xee;" horiz-adv-x="134" d="M94 0 L94 407 L40 407 L40 0 L94 0 Z M-27 431 L15 431 L68 518 L121 431 L165 431 L92 560 L47 560 L-27 431 Z " />
<glyph glyph-name="idieresis" unicode="&#xef;" horiz-adv-x="134" d="M94 0 L94 407 L40 407 L40 0 L94 0 Z M3 525 C-16 525 -33 510 -33 489 C-33 471 -17 454 3 454 C21 454 39 468 39 489 C39 508 24 525 3 525 L3 525 Z M123 525 C104 525 86 511 86 489 C86 470 103 454 123 454 C141 454 158 468 158 489 C158 508 144 524 123 525 L123 525 Z " />
<glyph glyph-name="eth" unicode="&#xf0;" horiz-adv-x="292" d="M242 329 L188 454 L242 508 L208 541 L168 501 L143 560 L90 560 L132 465 L72 406 L106 372 L152 418 L195 320 C179 347 155 356 136 356 C103 356 76 346 56 324 C37 302 27 273 27 236 L27 116 C27 79 38 50 61 27 C83 4 112 -8 146 -8 C180 -8 208 3 230 25 C252 48 264 77 264 115 L264 219 C264 259 256 296 242 329 L242 329 Z M212 118 C212 94 205 75 194 62 C182 49 165 42 145 42 C126 42 110 49 98 62 C85 75 80 94 80 118 L80 234 C80 258 85 276 97 290 C109 303 125 309 145 309 C165 309 182 303 194 290 C205 276 212 258 212 234 L212 118 L212 118 Z " />
<glyph glyph-name="ntilde" unicode="&#xf1;" horiz-adv-x="304" d="M92 298 C92 320 98 337 110 349 C121 361 136 367 154 367 C172 367 186 361 196 349 C207 337 212 320 212 298 L212 0 L264 0 L264 307 C264 341 255 367 238 387 C221 406 199 415 171 415 C133 415 90 383 87 331 L87 407 L40 407 L40 0 L92 0 L92 298 Z M42 470 L43 483 C44 492 47 501 53 509 C59 518 67 522 78 522 C88 522 99 519 109 513 C119 507 128 500 135 493 C143 485 153 478 165 472 C176 465 190 462 204 462 C219 462 232 466 243 473 C254 480 262 488 267 497 C272 505 276 515 279 526 C282 538 283 546 284 550 C284 555 284 558 284 561 L242 561 L242 547 C241 539 237 530 231 521 C225 512 217 508 207 508 C194 508 181 513 168 523 C156 533 142 543 128 553 C113 563 97 568 79 568 C64 568 52 564 41 557 C30 550 22 542 17 534 C12 525 8 515 5 504 C2 493 1 485 1 480 C0 476 0 472 0 470 L42 470 Z " />
<glyph glyph-name="ograve" unicode="&#xf2;" horiz-adv-x="307" d="M40 109 C40 74 50 45 72 24 C94 3 120 -8 152 -8 C184 -8 211 3 234 26 C256 48 267 77 267 111 L267 299 C267 333 256 361 234 383 C213 405 186 415 154 415 C122 415 94 404 73 382 C51 360 40 331 40 296 L40 109 Z M92 296 C92 318 97 335 109 348 C120 361 135 367 153 367 C171 367 186 361 198 348 C209 335 215 318 215 296 L215 111 C215 90 209 72 198 59 C186 47 171 40 153 40 C135 40 120 47 109 59 C97 72 92 90 92 111 L92 296 Z M158 560 L102 560 L163 431 L205 431 L158 560 Z " />
<glyph glyph-name="oacute" unicode="&#xf3;" horiz-adv-x="301" d="M40 109 C40 74 50 45 72 24 C94 3 120 -8 152 -8 C184 -8 211 3 234 26 C256 48 267 77 267 111 L267 299 C267 333 256 361 234 383 C213 405 186 415 154 415 C122 415 94 404 73 382 C51 360 40 331 40 296 L40 109 Z M92 296 C92 318 97 335 109 348 C120 361 135 367 153 367 C171 367 186 361 198 348 C209 335 215 318 215 296 L215 111 C215 90 209 72 198 59 C186 47 171 40 153 40 C135 40 120 47 109 59 C97 72 92 90 92 111 L92 296 Z M106 439 L148 439 L209 568 L153 568 L106 439 Z " />
<glyph glyph-name="ocircumflex" unicode="&#xf4;" horiz-adv-x="307" d="M40 109 C40 74 50 45 72 24 C94 3 120 -8 152 -8 C184 -8 211 3 234 26 C256 48 267 77 267 111 L267 299 C267 333 256 361 234 383 C213 405 186 415 154 415 C122 415 94 404 73 382 C51 360 40 331 40 296 L40 109 Z M92 296 C92 318 97 335 109 348 C120 361 135 367 153 367 C171 367 186 361 198 348 C209 335 215 318 215 296 L215 111 C215 90 209 72 198 59 C186 47 171 40 153 40 C135 40 120 47 109 59 C97 72 92 90 92 111 L92 296 Z M59 431 L101 431 L154 518 L207 431 L251 431 L178 560 L133 560 L59 431 Z " />
<glyph glyph-name="otilde" unicode="&#xf5;" horiz-adv-x="307" d="M40 109 C40 74 50 45 72 24 C94 3 120 -8 152 -8 C184 -8 211 3 234 26 C256 48 267 77 267 111 L267 299 C267 333 256 361 234 383 C213 405 186 415 154 415 C122 415 94 404 73 382 C51 360 40 331 40 296 L40 109 Z M92 296 C92 318 97 335 109 348 C120 361 135 367 153 367 C171 367 186 361 198 348 C209 335 215 318 215 296 L215 111 C215 90 209 72 198 59 C186 47 171 40 153 40 C135 40 120 47 109 59 C97 72 92 90 92 111 L92 296 Z M54 470 L55 483 C56 492 59 501 65 509 C71 518 79 522 90 522 C100 522 111 519 121 513 C131 507 140 500 147 493 C155 485 165 478 177 472 C188 465 202 462 216 462 C231 462 244 466 255 473 C266 480 274 488 279 497 C284 505 288 515 291 526 C294 538 295 546 296 550 C296 555 296 558 296 561 L254 561 L254 547 C253 539 249 530 243 521 C237 512 229 508 219 508 C206 508 193 513 180 523 C168 533 154 543 140 553 C125 563 109 568 91 568 C76 568 64 564 53 557 C42 550 34 542 29 534 C24 525 20 515 17 504 C14 493 13 485 13 480 C12 476 12 472 12 470 L54 470 Z " />
<glyph glyph-name="odieresis" unicode="&#xf6;" horiz-adv-x="307" d="M40 109 C40 74 50 45 72 24 C94 3 120 -8 152 -8 C184 -8 211 3 234 26 C256 48 267 77 267 111 L267 299 C267 333 256 361 234 383 C213 405 186 415 154 415 C122 415 94 404 73 382 C51 360 40 331 40 296 L40 109 Z M92 296 C92 318 97 335 109 348 C120 361 135 367 153 367 C171 367 186 361 198 348 C209 335 215 318 215 296 L215 111 C215 90 209 72 198 59 C186 47 171 40 153 40 C135 40 120 47 109 59 C97 72 92 90 92 111 L92 296 Z M96 534 C77 534 60 519 60 498 C60 480 76 463 96 463 C114 463 132 477 132 498 C132 517 117 534 96 534 L96 534 Z M216 534 C197 534 179 520 179 498 C179 479 196 463 216 463 C234 463 251 477 251 498 C251 517 237 533 216 534 L216 534 Z " />
<glyph glyph-name="divide" unicode="&#xf7;" horiz-adv-x="344" d="M307 264 L307 308 L39 308 L39 264 L307 264 Z M173 467 C155 467 137 451 137 431 C137 412 152 395 173 395 C192 395 209 410 209 431 C209 450 193 466 173 467 L173 467 Z M173 177 C155 177 137 161 137 141 C137 123 153 105 173 105 C191 105 209 121 209 141 C209 159 193 177 173 177 L173 177 Z " />
<glyph glyph-name="oslash" unicode="&#xf8;" horiz-adv-x="308" d="M283 431 L247 431 L227 389 C206 407 182 416 155 416 C122 416 95 404 73 382 C51 360 40 331 40 296 L40 109 C40 85 46 63 57 43 L24 -24 L60 -23 L80 18 C100 1 124 -8 153 -8 C185 -8 212 3 234 26 C256 48 268 77 268 112 L268 299 C268 323 262 345 250 363 L283 431 Z M92 296 C92 319 97 336 109 349 C120 362 135 368 154 368 C175 368 192 359 203 341 L92 113 L92 296 Z M154 39 C132 39 115 48 104 66 L216 295 L216 112 C216 90 210 72 199 59 C187 46 172 39 154 39 L154 39 Z " />
<glyph glyph-name="ugrave" unicode="&#xf9;" horiz-adv-x="306" d="M214 110 C214 88 208 71 196 59 C184 46 169 40 151 40 C134 40 120 46 109 59 C99 71 94 88 94 110 L94 407 L42 407 L42 100 C42 67 50 40 68 21 C85 2 107 -8 134 -8 C172 -8 216 24 218 76 L218 0 L266 0 L266 407 L214 407 L214 110 Z M147 560 L91 560 L152 431 L194 431 L147 560 Z " />
<glyph glyph-name="uacute" unicode="&#xfa;" horiz-adv-x="306" d="M214 110 C214 88 208 71 196 59 C184 46 169 40 151 40 C134 40 120 46 109 59 C99 71 94 88 94 110 L94 407 L42 407 L42 100 C42 67 50 40 68 21 C85 2 107 -8 134 -8 C172 -8 216 24 218 76 L218 0 L266 0 L266 407 L214 407 L214 110 Z M95 439 L137 439 L198 568 L142 568 L95 439 Z " />
<glyph glyph-name="ucircumflex" unicode="&#xfb;" horiz-adv-x="306" d="M214 110 C214 88 208 71 196 59 C184 46 169 40 151 40 C134 40 120 46 109 59 C99 71 94 88 94 110 L94 407 L42 407 L42 100 C42 67 50 40 68 21 C85 2 107 -8 134 -8 C172 -8 216 24 218 76 L218 0 L266 0 L266 407 L214 407 L214 110 Z M48 431 L90 431 L143 518 L196 431 L240 431 L167 560 L122 560 L48 431 Z " />
<glyph glyph-name="udieresis" unicode="&#xfc;" horiz-adv-x="306" d="M214 110 C214 88 208 71 196 59 C184 46 169 40 151 40 C134 40 120 46 109 59 C99 71 94 88 94 110 L94 407 L42 407 L42 100 C42 67 50 40 68 21 C85 2 107 -8 134 -8 C172 -8 216 24 218 76 L218 0 L266 0 L266 407 L214 407 L214 110 Z M90 534 C71 534 54 519 54 498 C54 480 70 463 90 463 C108 463 126 477 126 498 C126 517 111 534 90 534 L90 534 Z M210 534 C191 534 173 520 173 498 C173 479 190 463 210 463 C228 463 245 477 245 498 C245 517 231 533 210 534 L210 534 Z " />
<glyph glyph-name="yacute" unicode="&#xfd;" horiz-adv-x="270" d="M111 0 C104 -35 95 -60 86 -72 C76 -85 63 -91 47 -91 C40 -91 31 -91 31 -91 L31 -136 L56 -136 C120 -136 142 -66 156 -12 L255 407 L203 407 L137 81 L71 407 L15 407 L111 0 Z M78 439 L120 439 L181 568 L125 568 L78 439 Z " />
<glyph glyph-name="thorn" unicode="&#xfe;" horiz-adv-x="308" d="M40 -67 L93 -67 L93 127 C98 77 135 53 167 53 C196 53 220 64 239 84 C258 105 268 131 268 164 L268 368 C268 401 258 427 240 447 C222 467 198 477 168 477 C136 477 102 449 93 401 L93 621 L40 621 L40 -67 Z M216 173 C216 151 210 133 199 121 C187 108 172 101 154 101 C136 101 121 108 110 121 C98 133 93 151 93 173 L93 357 C93 379 98 396 110 409 C121 422 136 428 154 428 C172 428 187 422 199 409 C210 396 216 379 216 357 L216 173 Z " />
<glyph glyph-name="ydieresis" unicode="&#xff;" horiz-adv-x="270" d="M111 0 C104 -35 95 -60 86 -72 C76 -85 63 -91 47 -91 C40 -91 31 -91 31 -91 L31 -136 L56 -136 C120 -136 142 -66 156 -12 L255 407 L203 407 L137 81 L71 407 L15 407 L111 0 Z M80 543 C61 543 44 528 44 507 C44 489 60 472 80 472 C98 472 116 486 116 507 C116 526 101 543 80 543 L80 543 Z M200 543 C181 543 163 529 163 507 C163 488 180 472 200 472 C218 472 235 486 235 507 C235 526 221 542 200 543 L200 543 Z " />
<glyph glyph-name="Abreve" unicode="&#x102;" horiz-adv-x="300" d="M180 560 L120 560 L12 0 L65 0 L92 142 L212 142 L239 0 L287 0 L180 560 Z M152 459 L204 186 L100 186 L152 459 Z M64 731 L64 691 C64 664 72 642 88 626 C104 609 126 601 152 601 C179 601 200 609 217 626 C233 643 241 665 241 693 L241 731 L200 731 L200 691 C200 675 196 663 188 653 C180 643 168 639 152 639 C137 639 125 643 117 653 C109 663 105 675 105 691 L105 731 L64 731 Z " />
<glyph glyph-name="abreve" unicode="&#x103;" horiz-adv-x="297" d="M25 108 C25 73 35 45 54 24 C72 3 97 -8 127 -8 C171 -8 206 31 211 77 L211 0 L257 0 L257 303 C257 336 247 363 226 384 C205 405 179 415 148 415 C118 415 92 405 72 383 C51 362 40 334 40 300 L90 303 C90 323 95 339 106 351 C117 364 131 370 147 370 C164 370 178 364 189 351 C200 339 205 323 205 303 L205 207 C186 232 161 245 129 245 C99 245 74 234 55 212 C35 190 25 161 25 127 L25 108 Z M77 128 C77 151 83 169 95 182 C106 196 122 203 141 203 C160 203 176 196 188 182 C199 169 205 151 205 128 L205 111 C205 88 199 70 188 57 C176 43 160 36 141 36 C122 36 106 43 95 57 C83 70 77 88 77 111 L77 128 Z M54 568 L54 528 C54 501 62 479 78 463 C94 446 116 438 142 438 C169 438 190 446 207 463 C223 480 231 502 231 530 L231 568 L190 568 L190 528 C190 512 186 500 178 490 C170 480 158 476 142 476 C127 476 115 480 107 490 C99 500 95 512 95 528 L95 568 L54 568 Z " />
<glyph glyph-name="Aogonek" unicode="&#x104;" horiz-adv-x="300" d="M180 560 L120 560 L12 0 L65 0 L92 142 L212 142 L239 0 L287 0 L180 560 Z M152 459 L204 186 L100 186 L152 459 Z M269 25 C245 4 223 -18 223 -55 C223 -81 233 -102 252 -119 C272 -136 296 -145 325 -145 C339 -145 349 -143 355 -141 L355 -103 L327 -106 C309 -106 294 -100 282 -90 C271 -79 265 -66 265 -49 C265 -24 272 -6 286 3 L269 25 Z " />
<glyph glyph-name="aogonek" unicode="&#x105;" horiz-adv-x="297" d="M25 108 C25 73 35 45 54 24 C72 3 97 -8 127 -8 C171 -8 206 31 211 77 L211 0 L257 0 L257 303 C257 336 247 363 226 384 C205 405 179 415 148 415 C118 415 92 405 72 383 C51 362 40 334 40 300 L90 303 C90 323 95 339 106 351 C117 364 131 370 147 370 C164 370 178 364 189 351 C200 339 205 323 205 303 L205 207 C186 232 161 245 129 245 C99 245 74 234 55 212 C35 190 25 161 25 127 L25 108 Z M77 128 C77 151 83 169 95 182 C106 196 122 203 141 203 C160 203 176 196 188 182 C199 169 205 151 205 128 L205 111 C205 88 199 70 188 57 C176 43 160 36 141 36 C122 36 106 43 95 57 C83 70 77 88 77 111 L77 128 Z M240 25 C216 4 194 -18 194 -55 C194 -81 204 -102 223 -119 C243 -136 267 -145 296 -145 C310 -145 320 -143 326 -141 L326 -103 L298 -106 C280 -106 265 -100 253 -90 C242 -79 236 -66 236 -49 C236 -24 243 -6 257 3 L240 25 Z " />
<glyph glyph-name="Cacute" unicode="&#x106;" horiz-adv-x="309" d="M225 118 C225 94 219 76 207 62 C195 49 180 42 160 42 C140 42 124 49 112 62 C100 76 93 94 93 118 L93 442 C93 465 100 484 112 497 C124 511 140 518 160 518 C180 518 195 511 207 497 C219 484 225 465 225 442 L225 372 L277 372 L277 445 C277 482 266 512 245 534 C223 557 195 568 161 568 C126 568 97 556 74 533 C51 510 40 479 40 442 L40 116 C40 78 51 48 73 26 C96 3 124 -8 159 -8 C193 -8 221 3 244 26 C266 49 277 80 277 117 L277 196 L225 196 L225 118 Z M105 639 L147 639 L208 768 L152 768 L105 639 Z " />
<glyph glyph-name="cacute" unicode="&#x107;" horiz-adv-x="298" d="M209 156 L209 108 C209 87 203 71 192 59 C181 46 167 40 150 40 C133 40 119 46 108 59 C97 71 92 87 92 108 L92 299 C92 320 97 337 108 349 C119 361 133 367 150 367 C167 367 181 361 192 349 C203 337 209 320 209 299 L209 255 L258 255 L258 302 C258 336 248 363 228 384 C207 405 182 415 151 415 C120 415 94 405 72 383 C50 361 40 334 40 299 L40 106 C40 72 50 45 71 24 C92 3 118 -8 149 -8 C180 -8 205 3 226 25 C248 47 258 75 258 108 L258 156 L209 156 Z M100 439 L142 439 L203 568 L147 568 L100 439 Z " />
<glyph glyph-name="Ccaron" unicode="&#x10c;" horiz-adv-x="308" d="M225 118 C225 94 219 76 207 62 C195 49 180 42 160 42 C140 42 124 49 112 62 C100 76 93 94 93 118 L93 442 C93 465 100 484 112 497 C124 511 140 518 160 518 C180 518 195 511 207 497 C219 484 225 465 225 442 L225 372 L277 372 L277 445 C277 482 266 512 245 534 C223 557 195 568 161 568 C126 568 97 556 74 533 C51 510 40 479 40 442 L40 116 C40 78 51 48 73 26 C96 3 124 -8 159 -8 C193 -8 221 3 244 26 C266 49 277 80 277 117 L277 196 L225 196 L225 118 Z M248 746 L206 749 L154 662 L100 749 L56 749 L130 620 L176 620 L248 746 Z " />
<glyph glyph-name="ccaron" unicode="&#x10d;" horiz-adv-x="298" d="M209 156 L209 108 C209 87 203 71 192 59 C181 46 167 40 150 40 C133 40 119 46 108 59 C97 71 92 87 92 108 L92 299 C92 320 97 337 108 349 C119 361 133 367 150 367 C167 367 181 361 192 349 C203 337 209 320 209 299 L209 255 L258 255 L258 302 C258 336 248 363 228 384 C207 405 182 415 151 415 C120 415 94 405 72 383 C50 361 40 334 40 299 L40 106 C40 72 50 45 71 24 C92 3 118 -8 149 -8 C180 -8 205 3 226 25 C248 47 258 75 258 108 L258 156 L209 156 Z M242 583 L200 586 L148 499 L94 586 L50 586 L124 457 L170 457 L242 583 Z " />
<glyph glyph-name="Dcaron" unicode="&#x10e;" horiz-adv-x="324" d="M40 0 L153 0 C192 0 224 12 248 36 C272 60 284 93 284 136 L284 426 C284 468 272 501 249 525 C225 548 194 560 155 560 L40 560 L40 0 Z M94 511 L152 511 C177 511 196 504 209 488 C223 473 230 451 230 423 L230 137 C230 109 223 87 209 72 C196 56 177 49 152 49 L94 49 L94 511 Z M241 734 L199 737 L147 650 L93 737 L49 737 L123 608 L169 608 L241 734 Z " />
<glyph glyph-name="dcroat" unicode="&#x111;" horiz-adv-x="327" d="M267 560 L215 560 L215 506 L136 506 L136 467 L215 467 L215 380 C197 404 172 416 140 416 C112 416 88 405 68 385 C49 365 40 338 40 305 L40 100 C40 68 49 42 67 22 C86 2 109 -8 138 -8 C175 -8 213 10 220 76 L220 0 L267 0 L267 467 L324 467 L324 506 L267 506 L267 560 Z M92 296 C92 318 97 335 109 348 C120 361 135 367 153 367 C171 367 186 361 198 348 C209 335 215 318 215 296 L215 112 C215 90 209 72 198 60 C186 47 171 40 153 40 C135 40 120 47 109 60 C97 72 92 90 92 112 L92 296 Z " />
<glyph glyph-name="Edotaccent" unicode="&#x116;" horiz-adv-x="262" d="M240 0 L240 51 L94 51 L94 268 L212 268 L212 316 L94 316 L94 509 L236 509 L236 560 L40 560 L40 0 L240 0 Z M130 696 C111 696 95 681 95 660 C95 641 109 625 130 625 C149 625 166 639 166 660 C166 680 152 696 130 696 L130 696 Z " />
<glyph glyph-name="edotaccent" unicode="&#x117;" horiz-adv-x="304" d="M215 111 C215 90 210 72 198 59 C187 47 172 40 154 40 C136 40 121 47 109 59 C98 72 92 90 92 111 L92 207 L264 207 L264 299 C264 335 254 363 233 384 C212 405 186 415 154 415 C122 415 95 404 73 383 C51 361 40 332 40 298 L40 108 C40 74 51 45 72 24 C93 3 119 -8 151 -8 C183 -8 210 3 232 25 C253 47 264 75 264 111 L264 132 L215 132 L215 111 Z M92 299 C92 321 98 339 109 351 C121 364 136 371 154 371 C172 371 187 364 198 351 C210 339 215 321 215 299 L215 244 L92 244 L92 299 Z M154 554 C135 554 119 539 119 518 C119 499 133 483 154 483 C173 483 190 497 190 518 C190 538 176 554 154 554 L154 554 Z " />
<glyph glyph-name="Eogonek" unicode="&#x118;" horiz-adv-x="257" d="M240 0 L240 51 L94 51 L94 268 L212 268 L212 316 L94 316 L94 509 L236 509 L236 560 L40 560 L40 0 L240 0 Z M144 23 C120 2 98 -20 98 -57 C98 -83 108 -104 127 -121 C147 -138 171 -147 200 -147 C214 -147 224 -145 230 -143 L230 -105 L202 -108 C184 -108 169 -102 157 -92 C146 -81 140 -68 140 -51 C140 -26 147 -8 161 1 L144 23 Z " />
<glyph glyph-name="eogonek" unicode="&#x119;" horiz-adv-x="304" d="M215 111 C215 90 210 72 198 59 C187 47 172 40 154 40 C136 40 121 47 109 59 C98 72 92 90 92 111 L92 207 L264 207 L264 299 C264 335 254 363 233 384 C212 405 186 415 154 415 C122 415 95 404 73 383 C51 361 40 332 40 298 L40 108 C40 74 51 45 72 24 C93 3 119 -8 151 -8 C183 -8 210 3 232 25 C253 47 264 75 264 111 L264 132 L215 132 L215 111 Z M92 299 C92 321 98 339 109 351 C121 364 136 371 154 371 C172 371 187 364 198 351 C210 339 215 321 215 299 L215 244 L92 244 L92 299 Z M172 23 C148 2 126 -20 126 -57 C126 -83 136 -104 155 -121 C175 -138 199 -147 228 -147 C242 -147 252 -145 258 -143 L258 -105 L230 -108 C212 -108 197 -102 185 -92 C174 -81 168 -68 168 -51 C168 -26 175 -8 189 1 L172 23 Z " />
<glyph glyph-name="Ecaron" unicode="&#x11a;" horiz-adv-x="256" d="M240 0 L240 51 L94 51 L94 268 L212 268 L212 316 L94 316 L94 509 L236 509 L236 560 L40 560 L40 0 L240 0 Z M222 731 L180 734 L128 647 L74 734 L30 734 L104 605 L150 605 L222 731 Z " />
<glyph glyph-name="ecaron" unicode="&#x11b;" horiz-adv-x="304" d="M215 111 C215 90 210 72 198 59 C187 47 172 40 154 40 C136 40 121 47 109 59 C98 72 92 90 92 111 L92 207 L264 207 L264 299 C264 335 254 363 233 384 C212 405 186 415 154 415 C122 415 95 404 73 383 C51 361 40 332 40 298 L40 108 C40 74 51 45 72 24 C93 3 119 -8 151 -8 C183 -8 210 3 232 25 C253 47 264 75 264 111 L264 132 L215 132 L215 111 Z M92 299 C92 321 98 339 109 351 C121 364 136 371 154 371 C172 371 187 364 198 351 C210 339 215 321 215 299 L215 244 L92 244 L92 299 Z M244 583 L202 586 L150 499 L96 586 L52 586 L126 457 L172 457 L244 583 Z " />
<glyph glyph-name="Itilde" unicode="&#x128;" horiz-adv-x="136" d="M40 0 L96 0 L96 560 L40 560 L40 0 Z M-33 617 L-32 630 C-31 639 -28 648 -22 656 C-16 665 -8 669 3 669 C13 669 24 666 34 660 C44 654 53 647 60 640 C68 632 78 625 90 619 C101 612 115 609 129 609 C144 609 157 613 168 620 C179 627 187 635 192 644 C197 652 201 662 204 673 C207 685 208 693 209 697 C209 702 209 705 209 708 L167 708 L167 694 C166 686 162 677 156 668 C150 659 142 655 132 655 C119 655 106 660 93 670 C81 680 67 690 53 700 C38 710 22 715 4 715 C-11 715 -23 711 -34 704 C-45 697 -53 689 -58 681 C-63 672 -67 662 -70 651 C-73 640 -74 632 -74 627 C-75 623 -75 619 -75 617 L-33 617 Z " />
<glyph glyph-name="Iogonek" unicode="&#x12e;" horiz-adv-x="136" d="M40 0 L96 0 L96 560 L40 560 L40 0 Z M75 21 C51 0 29 -22 29 -59 C29 -85 39 -106 58 -123 C78 -140 102 -149 131 -149 C145 -149 155 -147 161 -145 L161 -107 L133 -110 C115 -110 100 -104 88 -94 C77 -83 71 -70 71 -53 C71 -28 78 -10 92 -1 L75 21 Z " />
<glyph glyph-name="iogonek" unicode="&#x12f;" horiz-adv-x="134" d="M67 560 C47 560 29 544 29 522 C29 502 45 484 67 484 C87 484 105 500 105 522 C105 542 89 560 67 560 L67 560 Z M40 0 L94 0 L94 407 L40 407 L40 0 Z M73 23 C49 2 27 -20 27 -57 C27 -83 37 -104 56 -121 C76 -138 100 -147 129 -147 C143 -147 153 -145 159 -143 L159 -105 L131 -108 C113 -108 98 -102 86 -92 C75 -81 69 -68 69 -51 C69 -26 76 -8 90 1 L73 23 Z " />
<glyph glyph-name="Lacute" unicode="&#x139;" horiz-adv-x="239" d="M224 0 L224 51 L94 51 L94 560 L40 560 L40 0 L224 0 Z M62 639 L104 639 L165 768 L109 768 L62 639 Z " />
<glyph glyph-name="lacute" unicode="&#x13a;" horiz-adv-x="133" d="M40 0 L93 0 L93 560 L40 560 L40 0 Z M16 583 L58 583 L119 712 L63 712 L16 583 Z " />
<glyph glyph-name="Lslash" unicode="&#x141;" horiz-adv-x="298" d="M279 0 L279 52 L149 52 L149 273 L258 294 L258 333 L149 312 L149 560 L95 560 L95 301 L29 288 L29 249 L95 262 L95 0 L279 0 L279 0 Z " />
<glyph glyph-name="lslash" unicode="&#x142;" horiz-adv-x="250" d="M90 0 L144 0 L144 270 L210 282 L210 321 L144 309 L144 560 L90 560 L90 299 L33 288 L33 249 L90 260 L90 0 L90 0 Z " />
<glyph glyph-name="Nacute" unicode="&#x143;" horiz-adv-x="333" d="M244 0 L293 0 L293 560 L244 560 L244 130 L93 560 L40 560 L40 0 L89 0 L89 439 L244 0 Z M109 620 L151 620 L212 749 L156 749 L109 620 Z " />
<glyph glyph-name="nacute" unicode="&#x144;" horiz-adv-x="288" d="M92 298 C92 320 98 337 110 349 C121 361 136 367 154 367 C172 367 186 361 196 349 C207 337 212 320 212 298 L212 0 L264 0 L264 307 C264 341 255 367 238 387 C221 406 199 415 171 415 C133 415 90 383 87 331 L87 407 L40 407 L40 0 L92 0 L92 298 Z M95 439 L137 439 L198 568 L142 568 L95 439 Z " />
<glyph glyph-name="Ncaron" unicode="&#x147;" horiz-adv-x="333" d="M244 0 L293 0 L293 560 L244 560 L244 130 L93 560 L40 560 L40 0 L89 0 L89 439 L244 0 Z M252 725 L210 728 L158 641 L104 728 L60 728 L134 599 L180 599 L252 725 Z " />
<glyph glyph-name="ncaron" unicode="&#x148;" horiz-adv-x="288" d="M92 298 C92 320 98 337 110 349 C121 361 136 367 154 367 C172 367 186 361 196 349 C207 337 212 320 212 298 L212 0 L264 0 L264 307 C264 341 255 367 238 387 C221 406 199 415 171 415 C133 415 90 383 87 331 L87 407 L40 407 L40 0 L92 0 L92 298 Z M236 587 L194 590 L142 503 L88 590 L44 590 L118 461 L164 461 L236 587 Z " />
<glyph glyph-name="Ohungarumlaut" unicode="&#x150;" horiz-adv-x="328" d="M40 120 C40 81 51 50 74 27 C98 4 127 -8 163 -8 C198 -8 228 4 252 28 C276 51 288 83 288 122 L288 440 C288 479 276 510 253 533 C229 556 200 568 164 568 C129 568 99 556 75 532 C51 508 40 477 40 438 L40 120 Z M93 438 C93 462 100 482 113 496 C126 510 143 518 164 518 C184 518 201 510 214 496 C227 482 233 462 233 438 L233 122 C233 97 227 78 214 64 C201 49 184 42 164 42 C143 42 126 49 113 64 C100 78 93 97 93 122 L93 438 Z M63 603 L104 603 L151 733 L96 733 L63 603 Z M177 603 L218 603 L265 733 L210 733 L177 603 Z " />
<glyph glyph-name="ohungarumlaut" unicode="&#x151;" horiz-adv-x="307" d="M40 109 C40 74 50 45 72 24 C94 3 120 -8 152 -8 C184 -8 211 3 234 26 C256 48 267 77 267 111 L267 299 C267 333 256 361 234 383 C213 405 186 415 154 415 C122 415 94 404 73 382 C51 360 40 331 40 296 L40 109 Z M92 296 C92 318 97 335 109 348 C120 361 135 367 153 367 C171 367 186 361 198 348 C209 335 215 318 215 296 L215 111 C215 90 209 72 198 59 C186 47 171 40 153 40 C135 40 120 47 109 59 C97 72 92 90 92 111 L92 296 Z M54 438 L95 438 L142 568 L87 568 L54 438 Z M168 438 L209 438 L256 568 L201 568 L168 438 Z " />
<glyph glyph-name="OE" unicode="&#x152;" horiz-adv-x="441" d="M429 0 L429 52 L284 52 L284 268 L401 268 L401 316 L284 316 L284 509 L425 509 L425 560 L171 560 C131 560 100 548 76 524 C52 500 40 467 40 424 L40 134 C40 91 51 58 74 35 C98 12 129 0 168 0 L429 0 Z M229 49 L172 49 C147 49 128 57 114 72 C100 87 93 109 93 137 L93 423 C93 452 100 474 114 489 C128 504 147 511 172 511 L229 511 L229 49 Z " />
<glyph glyph-name="oe" unicode="&#x153;" horiz-adv-x="479" d="M390 112 C390 90 384 72 373 59 C361 47 346 40 328 40 C310 40 295 47 284 59 C272 72 267 90 267 112 L267 207 L439 207 L439 299 C439 335 428 363 407 384 C387 405 360 415 328 415 C291 415 262 401 241 372 C221 401 192 415 154 415 C121 415 94 404 72 382 C50 360 40 331 40 296 L40 109 C40 74 50 46 72 24 C93 3 120 -8 152 -8 C189 -8 218 7 239 35 C259 7 288 -8 326 -8 C358 -8 385 3 406 25 C428 47 439 76 439 111 L439 132 L390 132 L390 112 Z M91 296 C91 318 97 335 109 348 C120 361 135 367 153 367 C171 367 186 361 197 348 C209 335 215 318 215 296 L215 112 C215 90 209 72 197 59 C186 47 171 40 153 40 C135 40 120 47 109 59 C97 72 91 90 91 112 L91 296 Z M267 299 C267 321 272 339 284 352 C295 364 310 371 328 371 C346 371 361 364 373 352 C384 339 390 321 390 299 L390 244 L267 244 L267 299 Z " />
<glyph glyph-name="Racute" unicode="&#x154;" horiz-adv-x="310" d="M285 370 L285 424 C285 467 273 501 249 524 C226 548 194 560 153 560 L40 560 L40 0 L94 0 L94 234 L148 234 C151 234 154 234 156 234 C177 236 199 225 208 214 C220 201 226 182 226 159 L226 0 L278 0 L278 162 C278 199 267 229 245 251 C242 255 239 258 235 261 C268 283 285 319 285 370 L285 370 Z M182 284 C173 281 163 279 152 279 L94 279 L94 511 L152 511 C177 511 196 504 210 488 C223 473 230 451 230 423 L230 367 C230 339 223 317 210 302 C202 293 193 287 182 284 L182 284 Z M98 639 L140 639 L201 768 L145 768 L98 639 Z " />
<glyph glyph-name="racute" unicode="&#x155;" horiz-adv-x="201" d="M186 415 C134 415 96 383 88 331 L88 407 L40 407 L40 0 L92 0 L92 267 C92 298 100 321 114 337 C129 352 149 360 175 360 L186 360 L186 415 Z M42 439 L84 439 L145 568 L89 568 L42 439 Z " />
<glyph glyph-name="Rcaron" unicode="&#x158;" horiz-adv-x="310" d="M285 370 L285 424 C285 467 273 501 249 524 C226 548 194 560 153 560 L40 560 L40 0 L94 0 L94 234 L148 234 C151 234 154 234 156 234 C177 236 199 225 208 214 C220 201 226 182 226 159 L226 0 L278 0 L278 162 C278 199 267 229 245 251 C242 255 239 258 235 261 C268 283 285 319 285 370 L285 370 Z M182 284 C173 281 163 279 152 279 L94 279 L94 511 L152 511 C177 511 196 504 210 488 C223 473 230 451 230 423 L230 367 C230 339 223 317 210 302 C202 293 193 287 182 284 L182 284 Z M231 745 L189 748 L137 661 L83 748 L39 748 L113 619 L159 619 L231 745 Z " />
<glyph glyph-name="rcaron" unicode="&#x159;" horiz-adv-x="201" d="M186 415 C134 415 96 383 88 331 L88 407 L40 407 L40 0 L92 0 L92 267 C92 298 100 321 114 337 C129 352 149 360 175 360 L186 360 L186 415 Z M189 596 L147 599 L95 512 L41 599 L-3 599 L71 470 L117 470 L189 596 Z " />
<glyph glyph-name="Sacute" unicode="&#x15a;" horiz-adv-x="284" d="M73 156 L21 156 L21 119 C21 80 32 49 54 26 C77 3 105 -8 141 -8 C177 -8 207 4 230 27 C254 51 266 81 266 119 C266 154 257 187 240 217 C223 247 197 279 162 311 C133 338 112 361 100 382 C87 402 81 423 81 446 C81 469 87 486 98 499 C110 512 126 518 146 518 C166 518 182 512 194 498 C206 484 215 466 215 442 L215 416 L266 416 L266 445 C266 482 253 512 231 534 C209 557 181 568 147 568 C113 568 84 557 61 534 C38 511 26 482 26 445 C26 390 57 334 119 276 C152 245 176 217 191 194 C205 171 212 146 212 118 C212 94 206 76 193 62 C180 48 163 41 142 41 C121 41 105 48 92 63 C79 77 73 97 73 122 L73 156 Z M96 619 L138 619 L199 748 L143 748 L96 619 Z " />
<glyph glyph-name="sacute" unicode="&#x15b;" horiz-adv-x="262" d="M198 299 L247 299 L247 311 C247 342 237 367 217 386 C197 406 171 415 140 415 C109 415 83 406 62 386 C41 367 31 342 31 312 C31 261 59 222 118 193 C147 179 168 165 180 151 C192 137 198 122 198 103 C198 84 192 68 180 56 C169 44 154 39 136 39 C118 39 103 44 92 56 C80 68 74 84 74 104 L74 116 L25 116 L25 103 C25 70 35 43 56 23 C77 2 104 -8 136 -8 C168 -8 195 3 217 24 C239 45 250 72 250 104 C250 134 242 158 226 179 C210 199 185 217 153 232 C127 245 109 257 98 269 C88 281 82 296 82 312 C82 329 88 343 99 354 C110 364 123 370 140 370 C157 370 170 364 181 353 C192 342 198 328 198 311 L198 299 Z M82 439 L124 439 L185 568 L129 568 L82 439 Z " />
<glyph glyph-name="Scedilla" unicode="&#x15e;" horiz-adv-x="284" d="M73 156 L21 156 L21 119 C21 80 32 49 54 26 C77 3 105 -8 141 -8 C177 -8 207 4 230 27 C254 51 266 81 266 119 C266 154 257 187 240 217 C223 247 197 279 162 311 C133 338 112 361 100 382 C87 402 81 423 81 446 C81 469 87 486 98 499 C110 512 126 518 146 518 C166 518 182 512 194 498 C206 484 215 466 215 442 L215 416 L266 416 L266 445 C266 482 253 512 231 534 C209 557 181 568 147 568 C113 568 84 557 61 534 C38 511 26 482 26 445 C26 390 57 334 119 276 C152 245 176 217 191 194 C205 171 212 146 212 118 C212 94 206 76 193 62 C180 48 163 41 142 41 C121 41 105 48 92 63 C79 77 73 97 73 122 L73 156 Z M132 1 L141 -4 C147 -8 153 -15 159 -25 C164 -36 167 -48 167 -60 C167 -77 162 -91 152 -101 C141 -111 128 -116 111 -116 C96 -116 86 -114 80 -111 L80 -149 L85 -151 C88 -152 93 -153 99 -154 C105 -154 111 -155 118 -155 C144 -155 166 -147 184 -131 C203 -116 212 -94 212 -66 C212 -54 210 -43 206 -33 C202 -22 198 -14 192 -8 C187 -2 182 3 175 8 C169 13 164 16 162 18 C160 19 158 20 156 21 L132 1 Z " />
<glyph glyph-name="Scaron" unicode="&#x160;" horiz-adv-x="278" d="M67 156 L15 156 L15 119 C15 80 26 49 48 26 C71 3 99 -8 135 -8 C171 -8 201 4 224 27 C248 51 260 81 260 119 C260 154 251 187 234 217 C217 247 191 279 156 311 C127 338 106 361 94 382 C81 402 75 423 75 446 C75 469 81 486 92 499 C104 512 120 518 140 518 C160 518 176 512 188 498 C200 484 209 466 209 442 L209 416 L260 416 L260 445 C260 482 247 512 225 534 C203 557 175 568 141 568 C107 568 78 557 55 534 C32 511 20 482 20 445 C20 390 51 334 113 276 C146 245 170 217 185 194 C199 171 206 146 206 118 C206 94 200 76 187 62 C174 48 157 41 136 41 C115 41 99 48 86 63 C73 77 67 97 67 122 L67 156 Z M233 724 L191 727 L139 640 L85 727 L41 727 L115 598 L161 598 L233 724 Z " />
<glyph glyph-name="scaron" unicode="&#x161;" horiz-adv-x="262" d="M198 299 L247 299 L247 311 C247 342 237 367 217 386 C197 406 171 415 140 415 C109 415 83 406 62 386 C41 367 31 342 31 312 C31 261 59 222 118 193 C147 179 168 165 180 151 C192 137 198 122 198 103 C198 84 192 68 180 56 C169 44 154 39 136 39 C118 39 103 44 92 56 C80 68 74 84 74 104 L74 116 L25 116 L25 103 C25 70 35 43 56 23 C77 2 104 -8 136 -8 C168 -8 195 3 217 24 C239 45 250 72 250 104 C250 134 242 158 226 179 C210 199 185 217 153 232 C127 245 109 257 98 269 C88 281 82 296 82 312 C82 329 88 343 99 354 C110 364 123 370 140 370 C157 370 170 364 181 353 C192 342 198 328 198 311 L198 299 Z M227 572 L185 575 L133 488 L79 575 L35 575 L109 446 L155 446 L227 572 Z " />
<glyph glyph-name="Tcaron" unicode="&#x164;" horiz-adv-x="284" d="M267 509 L267 560 L17 560 L17 509 L115 509 L115 0 L169 0 L169 509 L267 509 Z M233 727 L191 730 L139 643 L85 730 L41 730 L115 601 L161 601 L233 727 Z " />
<glyph glyph-name="utilde" unicode="&#x169;" horiz-adv-x="304" d="M212 110 C212 88 206 71 194 59 C182 46 167 40 149 40 C132 40 118 46 107 59 C97 71 92 88 92 110 L92 407 L40 407 L40 100 C40 67 48 40 66 21 C83 2 105 -8 132 -8 C170 -8 214 24 216 76 L216 0 L264 0 L264 407 L212 407 L212 110 Z M52 468 L53 481 C54 490 57 499 63 507 C69 516 77 520 88 520 C98 520 109 517 119 511 C129 505 138 498 145 491 C153 483 163 476 175 470 C186 463 200 460 214 460 C229 460 242 464 253 471 C264 478 272 486 277 495 C282 503 286 513 289 524 C292 536 293 544 294 548 C294 553 294 556 294 559 L252 559 L252 545 C251 537 247 528 241 519 C235 510 227 506 217 506 C204 506 191 511 178 521 C166 531 152 541 138 551 C123 561 107 566 89 566 C74 566 62 562 51 555 C40 548 32 540 27 532 C22 523 18 513 15 502 C12 491 11 483 11 478 C10 474 10 470 10 468 L52 468 Z " />
<glyph glyph-name="Uring" unicode="&#x16e;" horiz-adv-x="320" d="M226 560 L226 118 C226 94 220 76 208 62 C196 49 180 42 160 42 C141 42 125 49 112 62 C100 76 94 94 94 118 L94 560 L40 560 L40 116 C40 78 51 48 73 26 C96 3 124 -8 159 -8 C193 -8 222 3 245 26 C268 49 280 80 280 118 L280 560 L226 560 Z M108 724 C95 711 88 694 88 674 C88 654 95 637 108 624 C121 611 139 605 159 605 C180 605 197 611 211 624 C224 637 231 654 231 674 C231 694 224 711 211 724 C197 737 180 743 159 743 C139 743 121 737 108 724 L108 724 Z M133 647 C126 654 122 663 122 674 C122 686 126 695 133 702 C140 709 149 712 159 712 C170 712 179 709 186 702 C193 695 197 686 197 674 C197 663 193 653 186 646 C179 640 170 636 159 636 C149 636 140 640 133 647 L133 647 Z " />
<glyph glyph-name="uring" unicode="&#x16f;" horiz-adv-x="288" d="M214 110 C214 88 208 71 196 59 C184 46 169 40 151 40 C134 40 120 46 109 59 C99 71 94 88 94 110 L94 407 L42 407 L42 100 C42 67 50 40 68 21 C85 2 107 -8 134 -8 C172 -8 216 24 218 76 L218 0 L266 0 L266 407 L214 407 L214 110 Z M91 524 C78 511 71 494 71 474 C71 454 78 437 91 424 C104 411 122 405 142 405 C163 405 180 411 194 424 C207 437 214 454 214 474 C214 494 207 511 194 524 C180 537 163 543 142 543 C122 543 104 537 91 524 L91 524 Z M116 447 C109 454 105 463 105 474 C105 486 109 495 116 502 C123 509 132 512 142 512 C153 512 162 509 169 502 C176 495 180 486 180 474 C180 463 176 453 169 446 C162 440 153 436 142 436 C132 436 123 440 116 447 L116 447 Z " />
<glyph glyph-name="Uhungarumlaut" unicode="&#x170;" horiz-adv-x="320" d="M226 560 L226 118 C226 94 220 76 208 62 C196 49 180 42 160 42 C141 42 125 49 112 62 C100 76 94 94 94 118 L94 560 L40 560 L40 116 C40 78 51 48 73 26 C96 3 124 -8 159 -8 C193 -8 222 3 245 26 C268 49 280 80 280 118 L280 560 L226 560 L226 560 Z " />
<glyph glyph-name="uhungarumlaut" unicode="&#x171;" horiz-adv-x="304" d="M212 110 C212 88 206 71 194 59 C182 46 167 40 149 40 C132 40 118 46 107 59 C97 71 92 88 92 110 L92 407 L40 407 L40 100 C40 67 48 40 66 21 C83 2 105 -8 132 -8 C170 -8 214 24 216 76 L216 0 L264 0 L264 407 L212 407 L212 110 Z M57 439 L98 439 L145 569 L90 569 L57 439 Z M171 439 L212 439 L259 569 L204 569 L171 439 Z " />
<glyph glyph-name="Uogonek" unicode="&#x172;" horiz-adv-x="320" d="M226 560 L226 118 C226 94 220 76 208 62 C196 49 180 42 160 42 C141 42 125 49 112 62 C100 76 94 94 94 118 L94 560 L40 560 L40 116 C40 78 51 48 73 26 C96 3 124 -8 159 -8 C193 -8 222 3 245 26 C268 49 280 80 280 118 L280 560 L226 560 Z M188 23 C164 2 142 -20 142 -57 C142 -83 152 -104 171 -121 C191 -138 215 -147 244 -147 C258 -147 268 -145 274 -143 L274 -105 L246 -108 C228 -108 213 -102 201 -92 C190 -81 184 -68 184 -51 C184 -26 191 -8 205 1 L188 23 Z " />
<glyph glyph-name="uogonek" unicode="&#x173;" horiz-adv-x="304" d="M212 110 C212 88 206 71 194 59 C182 46 167 40 149 40 C132 40 118 46 107 59 C97 71 92 88 92 110 L92 407 L40 407 L40 100 C40 67 48 40 66 21 C83 2 105 -8 132 -8 C170 -8 214 24 216 76 L216 0 L264 0 L264 407 L212 407 L212 110 Z M245 23 C221 2 199 -20 199 -57 C199 -83 209 -104 228 -121 C248 -138 272 -147 301 -147 C315 -147 325 -145 331 -143 L331 -105 L303 -108 C285 -108 270 -102 258 -92 C247 -81 241 -68 241 -51 C241 -26 248 -8 262 1 L245 23 Z " />
<glyph glyph-name="Ydieresis" unicode="&#x178;" horiz-adv-x="267" d="M106 0 L161 0 L161 224 L268 560 L212 560 L134 291 L57 560 L0 560 L106 226 L106 0 Z M74 680 C55 680 38 665 38 644 C38 626 54 609 74 609 C92 609 110 623 110 644 C110 663 95 680 74 680 L74 680 Z M194 680 C175 680 157 666 157 644 C157 625 174 609 194 609 C212 609 229 623 229 644 C229 663 215 679 194 680 L194 680 Z " />
<glyph glyph-name="Zacute" unicode="&#x179;" horiz-adv-x="234" d="M224 0 L224 49 L64 49 L224 522 L224 560 L20 560 L20 511 L166 511 L8 39 L8 0 L224 0 Z M65 639 L107 639 L168 768 L112 768 L65 639 Z " />
<glyph glyph-name="zacute" unicode="&#x17a;" horiz-adv-x="221" d="M14 35 L14 0 L206 0 L206 45 L69 45 L206 373 L206 407 L26 407 L26 363 L152 363 L14 35 Z M54 439 L96 439 L157 568 L101 568 L54 439 Z " />
<glyph glyph-name="Zdotaccent" unicode="&#x17b;" horiz-adv-x="244" d="M224 0 L224 49 L64 49 L224 522 L224 560 L20 560 L20 511 L166 511 L8 39 L8 0 L224 0 Z M117 704 C98 704 82 689 82 668 C82 649 96 633 117 633 C136 633 153 647 153 668 C153 688 139 704 117 704 L117 704 Z " />
<glyph glyph-name="zdotaccent" unicode="&#x17c;" horiz-adv-x="221" d="M9 35 L9 0 L201 0 L201 45 L64 45 L201 373 L201 407 L21 407 L21 363 L147 363 L9 35 Z M99 550 C80 550 64 535 64 514 C64 495 78 479 99 479 C118 479 135 493 135 514 C135 534 121 550 99 550 L99 550 Z " />
<glyph glyph-name="Zcaron" unicode="&#x17d;" horiz-adv-x="245" d="M224 0 L224 49 L64 49 L224 522 L224 560 L20 560 L20 511 L166 511 L8 39 L8 0 L224 0 Z M209 725 L167 728 L115 641 L61 728 L17 728 L91 599 L137 599 L209 725 Z " />
<glyph glyph-name="zcaron" unicode="&#x17e;" horiz-adv-x="210" d="M8 35 L8 0 L200 0 L200 45 L63 45 L200 373 L200 407 L20 407 L20 363 L146 363 L8 35 Z M204 570 L162 573 L110 486 L56 573 L12 573 L86 444 L132 444 L204 570 Z " />
<glyph glyph-name="florin" unicode="&#x192;" horiz-adv-x="269" d="M116 -88 L145 259 L233 259 L233 297 L148 297 L161 450 C164 491 182 512 214 512 C227 512 243 512 243 512 L243 560 L208 560 C179 560 156 551 138 534 C121 516 111 491 108 457 L95 297 L20 297 L20 259 L92 259 L64 -88 L116 -88 L116 -88 Z " />
<glyph glyph-name="circumflex" unicode="&#x2c6;" horiz-adv-x="205" d="M6 431 L48 431 L101 518 L154 431 L198 431 L125 560 L80 560 L6 431 L6 431 Z " />
<glyph glyph-name="caron" unicode="&#x2c7;" horiz-adv-x="223" d="M212 694 L170 697 L118 610 L64 697 L20 697 L94 568 L140 568 L212 694 L212 694 Z " />
<glyph glyph-name="breve" unicode="&#x2d8;" horiz-adv-x="226" d="M24 568 L24 528 C24 501 32 479 48 463 C64 446 86 438 112 438 C139 438 160 446 177 463 C193 480 201 502 201 530 L201 568 L160 568 L160 528 C160 512 156 500 148 490 C140 480 128 476 112 476 C97 476 85 480 77 490 C69 500 65 512 65 528 L65 568 L24 568 L24 568 Z " />
<glyph glyph-name="dotaccent" unicode="&#x2d9;" horiz-adv-x="88" d="M44 568 C25 568 9 553 9 532 C9 513 23 497 44 497 C63 497 80 511 80 532 C80 552 66 568 44 568 L44 568 Z " />
<glyph glyph-name="ring" unicode="&#x2da;" horiz-adv-x="189" d="M42 524 C29 511 22 494 22 474 C22 454 29 437 42 424 C55 411 73 405 93 405 C114 405 131 411 145 424 C158 437 165 454 165 474 C165 494 158 511 145 524 C131 537 114 543 93 543 C73 543 55 537 42 524 L42 524 Z M67 447 C60 454 56 463 56 474 C56 486 60 495 67 502 C74 509 83 512 93 512 C104 512 113 509 120 502 C127 495 131 486 131 474 C131 463 127 453 120 446 C113 440 104 436 93 436 C83 436 74 440 67 447 L67 447 Z " />
<glyph glyph-name="ogonek" unicode="&#x2db;" horiz-adv-x="168" d="M61 23 C37 2 15 -20 15 -57 C15 -83 25 -104 44 -121 C64 -138 88 -147 117 -147 C131 -147 141 -145 147 -143 L147 -105 L119 -108 C101 -108 86 -102 74 -92 C63 -81 57 -68 57 -51 C57 -26 64 -8 78 1 L61 23 L61 23 Z " />
<glyph glyph-name="tilde" unicode="&#x2dc;" horiz-adv-x="316" d="M57 470 L58 483 C59 492 62 501 68 509 C74 518 82 522 93 522 C103 522 114 519 124 513 C134 507 143 500 150 493 C158 485 168 478 180 472 C191 465 205 462 219 462 C234 462 247 466 258 473 C269 480 277 488 282 497 C287 505 291 515 294 526 C297 538 298 546 299 550 C299 555 299 558 299 561 L257 561 L257 547 C256 539 252 530 246 521 C240 512 232 508 222 508 C209 508 196 513 183 523 C171 533 157 543 143 553 C128 563 112 568 94 568 C79 568 67 564 56 557 C45 550 37 542 32 534 C27 525 23 515 20 504 C17 493 16 485 16 480 C15 476 15 472 15 470 L57 470 L57 470 Z " />
<glyph glyph-name="hungarumlaut" unicode="&#x2dd;" horiz-adv-x="220" d="M7 438 L48 438 L95 568 L40 568 L7 438 Z M121 438 L162 438 L209 568 L154 568 L121 438 Z " />
<glyph glyph-name="endash" unicode="&#x2013;" horiz-adv-x="392" d="M352 253 L352 300 L40 300 L40 253 L352 253 L352 253 Z " />
<glyph glyph-name="emdash" unicode="&#x2014;" horiz-adv-x="448" d="M408 253 L408 300 L40 300 L40 253 L408 253 L408 253 Z " />
<glyph glyph-name="quoteleft" unicode="&#x2018;" horiz-adv-x="117" d="M22 376 L81 376 L86 560 L42 560 L22 376 Z " />
<glyph glyph-name="quoteright" unicode="&#x2019;" horiz-adv-x="107" d="M88 560 L29 560 L25 376 L68 376 L88 560 Z " />
<glyph glyph-name="quotedblleft" unicode="&#x201c;" horiz-adv-x="185" d="M22 560 L2 376 L61 376 L66 560 L22 560 Z M126 560 L106 376 L165 376 L170 560 L126 560 Z " />
<glyph glyph-name="quotedblright" unicode="&#x201d;" horiz-adv-x="188" d="M56 376 L76 560 L17 560 L13 376 L56 376 Z M160 376 L180 560 L121 560 L117 376 L160 376 Z " />
<glyph glyph-name="daggerdbl" unicode="&#x2021;" horiz-adv-x="266" d="M23 260 L23 219 L110 219 L110 127 L156 127 L156 219 L243 219 L243 260 L156 260 L156 371 L243 371 L243 412 L156 412 L156 504 L110 504 L110 412 L23 412 L23 371 L110 371 L110 260 L23 260 L23 260 Z " />
<glyph glyph-name="bullet" unicode="&#x2022;" horiz-adv-x="203" d="M102 413 C60 413 23 377 23 333 C23 291 57 254 101 254 C144 254 181 289 181 334 C181 376 147 413 102 413 L102 413 Z " />
<glyph glyph-name="ellipsis" unicode="&#x2026;" horiz-adv-x="315" d="M55 68 C35 68 17 52 17 30 C17 10 33 -8 55 -8 C75 -8 93 8 93 30 C93 51 77 67 55 68 L55 68 Z M160 68 C140 68 122 52 122 30 C122 10 138 -8 160 -8 C180 -8 198 8 198 30 C198 51 182 67 160 68 L160 68 Z M265 68 C245 68 227 52 227 30 C227 10 243 -8 265 -8 C285 -8 303 8 303 30 C303 51 287 67 265 68 L265 68 Z " />
<glyph glyph-name="perthousand" unicode="&#x2030;" horiz-adv-x="670" d="M122 488 C95 488 72 479 53 460 C34 442 24 419 24 392 C24 364 34 342 52 324 C70 305 93 296 120 296 C148 296 171 306 190 324 C209 342 218 365 218 393 C218 421 209 444 191 462 C173 479 150 488 122 488 L122 488 Z M52 0 L93 0 L389 480 L348 480 L52 0 Z M82 352 C72 363 67 376 67 392 C67 408 72 422 82 433 C93 444 106 449 121 449 C137 449 150 444 160 433 C171 422 176 408 176 392 C176 376 171 363 160 352 C150 342 137 336 121 336 C106 336 93 342 82 352 L82 352 Z M320 183 C293 183 269 174 250 156 C232 138 222 115 222 88 C222 60 231 37 250 19 C268 1 291 -8 319 -8 C346 -8 369 2 388 20 C407 39 416 62 416 89 C416 116 407 139 389 157 C370 175 348 183 320 183 L320 183 Z M280 47 C270 58 264 72 264 88 C264 104 270 118 280 128 C291 139 304 144 320 144 C335 144 348 139 358 128 C369 118 374 104 374 88 C374 72 369 58 358 47 C348 37 335 32 320 32 C304 32 291 37 280 47 L280 47 Z M556 183 C529 183 505 174 486 156 C468 138 458 115 458 88 C458 60 467 37 486 19 C504 1 527 -8 555 -8 C582 -8 605 2 624 20 C643 39 652 62 652 89 C652 116 643 139 625 157 C606 175 584 183 556 183 L556 183 Z M516 47 C506 58 500 72 500 88 C500 104 506 118 516 128 C527 139 540 144 556 144 C571 144 584 139 594 128 C605 118 610 104 610 88 C610 72 605 58 594 47 C584 37 571 32 556 32 C540 32 527 37 516 47 L516 47 Z " />
<glyph glyph-name="guilsinglleft" unicode="&#x2039;" horiz-adv-x="243" d="M193 460 L32 309 L32 289 L193 139 L223 171 L93 301 L223 429 L193 460 Z " />
<glyph glyph-name="guilsinglright" unicode="&#x203a;" horiz-adv-x="242" d="M46 140 L207 291 L207 311 L46 460 L16 428 L145 300 L16 171 L46 140 Z " />
<glyph glyph-name="Euro" unicode="&#x20ac;" horiz-adv-x="343" d="M256 112 C256 90 250 72 239 60 C228 47 213 41 195 41 C176 41 161 47 150 60 C139 72 133 90 133 112 L133 215 L253 215 L253 249 L133 249 L133 311 L269 311 L269 346 L133 346 L133 447 C133 470 139 488 150 501 C161 513 176 519 195 519 C213 519 228 513 239 501 C250 488 256 470 256 447 L256 408 L308 408 L308 451 C308 487 297 516 276 537 C255 558 228 568 196 568 C163 568 136 557 114 536 C92 514 82 485 82 448 L82 346 L22 346 L22 311 L82 311 L82 249 L22 249 L22 215 L82 215 L82 110 C82 74 92 46 114 24 C135 3 162 -8 194 -8 C227 -8 254 3 276 25 C297 47 308 76 308 111 L308 152 L256 152 L256 112 L256 112 Z " />
<glyph glyph-name="trademark" unicode="&#x2122;" horiz-adv-x="406" d="M164 525 L164 560 L25 560 L25 525 L75 525 L75 308 L115 308 L115 525 L164 525 Z M277 352 L293 353 L332 473 L332 308 L372 308 L372 560 L332 560 L286 418 L240 560 L200 560 L200 308 L238 308 L238 468 L277 352 Z " />
<glyph glyph-name="f_f" unicode="&#xfb00;" horiz-adv-x="369" d="M327 521 C336 521 354 521 354 521 L354 568 C354 568 323 568 316 568 C287 568 264 559 247 542 C230 524 222 498 222 464 L222 408 L92 408 L92 461 C92 501 109 521 142 521 C152 521 172 521 172 521 L172 568 L130 568 C102 568 80 560 64 543 C48 526 40 501 40 468 L40 0 L92 0 L92 363 L222 363 L222 0 L274 0 L274 363 L354 363 L354 408 L274 408 L274 458 C274 500 291 521 327 521 L327 521 Z " />
<glyph glyph-name="fi" unicode="&#xfb01;" horiz-adv-x="321" d="M92 408 L92 461 C92 501 108 521 142 521 C151 521 172 521 172 521 L172 568 L130 568 C102 568 80 560 64 543 C48 526 40 501 40 468 L40 0 L92 0 L92 363 L228 363 L228 0 L281 0 L281 408 L92 408 L92 408 Z M254 560 C233 559 216 542 216 522 C216 501 235 484 254 484 C276 484 292 503 292 522 C292 544 274 560 254 560 L254 560 Z " />
<glyph glyph-name="fl" unicode="&#xfb02;" horiz-adv-x="322" d="M131 568 C102 568 80 560 64 543 C48 526 40 501 40 468 L40 0 L92 0 L92 363 L172 363 L172 408 L92 408 L92 461 C92 501 109 521 143 521 C148 521 191 521 228 521 L228 0 L282 0 L282 568 L131 568 L131 568 Z " />
</font>
</svg>
