<?xml version="1.0" encoding="UTF-8"?>
<svg xmlns="http://www.w3.org/2000/svg" xmlns:xlink="http://www.w3.org/1999/xlink" version="1.2" >
<font id="Scouthels">
<font-face  font-family="Scouthels" units-per-em="1000" ascent="750" descent="-250" font-style="normal" font-weight="400" font-stretch="normal" cap-height="700" x-height="500" underline-position="-75" underline-thickness="50" />
<missing-glyph  horiz-adv-x="152" d="" />
<glyph glyph-name="NULL" d="" />
<glyph glyph-name="CR" unicode="&#xd;" horiz-adv-x="152" d="" />
<glyph glyph-name="space" unicode="&#x20;" horiz-adv-x="152" d="" />
<glyph glyph-name="exclam" unicode="&#x21;" horiz-adv-x="156" d="M35 437 L45 156 C78 162 111 156 111 156 L120 437 C121 487 126 516 130 527 L26 527 C30 516 35 487 35 437 L35 437 Z M78 -3 C101 -3 120 20 120 45 C120 71 101 92 78 92 C54 92 35 71 35 45 C35 20 54 -3 78 -3 L78 -3 Z " />
<glyph glyph-name="quotedbl" unicode="&#x22;" horiz-adv-x="240" d="M17 487 C17 460 37 438 61 439 C56 419 33 399 24 397 L44 366 C71 381 104 415 104 474 C104 511 83 533 59 533 C36 533 17 512 17 487 L17 487 Z M175 533 C151 533 133 512 133 487 C133 460 152 438 176 439 C171 419 149 399 140 397 L159 366 C187 381 220 415 220 474 C220 511 199 533 175 533 L175 533 Z " />
<glyph glyph-name="numbersign" unicode="&#x23;" horiz-adv-x="560" d="M63 407 L49 325 C71 327 113 328 155 328 L165 328 L141 200 L112 200 C70 200 56 201 34 202 L20 121 C42 123 70 124 112 124 L126 124 L120 91 C110 41 105 17 100 0 C100 0 142 10 181 0 C181 0 186 38 196 91 L202 124 L305 124 L299 91 C289 41 284 17 279 0 C279 0 323 10 361 0 C361 0 366 38 375 91 L381 124 L406 124 C447 124 475 123 497 121 L511 202 C489 201 447 200 407 200 L395 200 L420 328 L449 328 C490 328 504 327 526 325 L540 407 C518 405 490 404 449 404 L435 404 L442 437 C450 488 461 527 461 527 C420 519 380 527 380 527 C378 517 375 490 366 437 L359 404 L255 404 L261 437 C271 488 282 527 282 527 C238 515 200 527 200 527 C200 517 196 490 185 437 L179 404 L155 404 C113 404 85 405 63 407 L63 407 Z M344 328 L319 200 L217 200 L241 328 L344 328 Z " />
<glyph glyph-name="dollar" unicode="&#x24;" horiz-adv-x="313" d="M298 202 C298 298 234 340 177 374 C177 421 178 470 179 519 C216 513 240 493 257 475 L257 566 C257 566 246 571 235 575 C220 581 207 584 181 587 C182 616 186 644 186 644 C153 638 116 644 116 644 C116 644 120 615 120 587 C63 575 18 530 18 461 C18 381 73 344 125 310 C125 252 125 189 123 126 C74 135 41 170 22 200 L22 102 C44 80 76 61 120 55 C120 27 116 0 116 0 C116 0 153 7 186 0 C186 0 181 29 181 58 C263 74 298 143 298 202 L298 202 Z M93 464 C93 485 104 503 123 513 C123 484 124 448 125 408 C106 424 93 441 93 464 L93 464 Z M180 130 C179 168 178 218 177 275 C203 254 222 231 222 197 C222 164 205 141 180 130 L180 130 Z " />
<glyph glyph-name="percent" unicode="&#x25;" horiz-adv-x="566" d="M122 215 C184 215 223 281 223 374 C223 469 184 534 122 534 C59 534 20 469 20 374 C20 281 59 215 122 215 L122 215 Z M154 374 C154 310 142 259 122 259 C101 259 89 310 89 374 C89 439 101 491 122 491 C142 491 154 439 154 374 L154 374 Z M264 92 L382 438 C399 488 408 512 416 528 C416 528 357 522 335 528 C335 528 321 481 306 438 L188 92 C171 44 162 18 154 1 C154 1 195 7 235 1 C235 1 250 49 264 92 L264 92 Z M549 157 C549 251 511 315 448 315 C385 315 347 251 347 157 C347 63 385 -3 448 -3 C511 -3 549 63 549 157 L549 157 Z M480 157 C480 92 469 40 448 40 C428 40 416 92 416 157 C416 220 428 273 448 273 C469 273 480 220 480 157 L480 157 Z " />
<glyph glyph-name="ampersand" unicode="&#x26;" horiz-adv-x="429" d="M351 157 C364 173 383 221 383 265 L319 265 C317 246 304 217 304 217 C231 301 132 357 132 410 C132 445 161 464 190 464 C219 464 240 446 240 425 L313 427 C311 483 262 532 190 532 C118 532 58 484 58 405 C58 364 80 330 112 298 C64 264 23 208 23 141 C23 59 83 -3 166 -3 C218 -3 259 22 292 59 C296 62 299 65 302 67 C310 48 317 26 321 0 C321 0 360 11 411 0 C411 0 397 104 351 157 L351 157 L351 157 Z M166 65 C130 65 97 95 97 141 C97 188 128 228 164 249 C199 217 236 182 263 136 C240 94 208 65 166 65 L166 65 Z " />
<glyph glyph-name="quotesingle" unicode="&#x27;" horiz-adv-x="141" d="M116 474 C116 511 95 533 71 533 C48 533 29 512 29 487 C29 460 48 438 73 439 C68 418 44 399 36 397 L56 366 C83 381 116 415 116 474 L116 474 Z " />
<glyph glyph-name="parenleft" unicode="&#x28;" horiz-adv-x="241" d="M208 0 C184 40 121 170 121 324 C121 480 184 610 208 649 L135 649 C91 578 40 457 40 324 C40 192 91 71 135 0 L208 0 L208 0 Z " />
<glyph glyph-name="parenright" unicode="&#x29;" horiz-adv-x="243" d="M34 649 C58 610 120 480 120 324 C120 170 58 40 34 0 L108 0 C151 71 203 192 203 324 C203 457 151 578 108 649 L34 649 L34 649 Z " />
<glyph glyph-name="asterisk" unicode="&#x2a;" horiz-adv-x="253" d="M173 420 C201 435 212 441 228 448 L198 499 C184 489 174 481 151 465 C151 496 153 510 156 527 L96 527 C98 510 99 496 100 465 C77 481 66 489 54 499 L22 448 C38 441 50 435 78 420 C50 405 38 399 22 393 L54 341 C66 352 77 360 100 376 C99 344 98 330 96 313 L156 313 C153 330 151 344 151 376 C174 360 184 352 198 341 L228 393 C212 399 201 405 173 420 L173 420 Z " />
<glyph glyph-name="plus" unicode="&#x2b;" horiz-adv-x="324" d="M284 300 C267 298 235 298 201 298 L194 298 L194 329 C194 362 194 394 196 411 L128 411 C130 394 130 362 130 329 L130 298 L123 298 C90 298 57 298 40 300 L40 233 C57 235 90 236 123 236 L130 236 L130 204 C130 171 130 139 128 122 L196 122 C194 139 194 171 194 204 L194 236 L201 236 C235 236 267 235 284 233 L284 300 L284 300 Z " />
<glyph glyph-name="comma" unicode="&#x2c;" horiz-adv-x="125" d="M27 -44 L48 -75 C74 -60 107 -27 107 33 C107 70 86 92 62 92 C39 92 20 71 20 45 C20 20 40 -3 64 -3 C62 -11 57 -19 51 -27 C44 -35 36 -42 27 -44 L27 -44 Z " />
<glyph glyph-name="hyphen" unicode="&#x2d;" horiz-adv-x="245" d="M40 300 L40 232 C57 233 89 234 123 234 C156 234 188 233 205 232 L205 300 C188 298 156 297 123 297 C89 297 57 298 40 300 L40 300 Z " />
<glyph glyph-name="period" unicode="&#x2e;" horiz-adv-x="122" d="M62 -3 C85 -3 104 20 104 45 C104 71 85 92 62 92 C38 92 20 71 20 45 C20 20 38 -3 62 -3 L62 -3 Z " />
<glyph glyph-name="slash" unicode="&#x2f;" horiz-adv-x="326" d="M101 0 C104 15 115 49 129 92 L280 530 C297 580 313 621 313 621 C267 612 227 621 227 621 C224 607 214 574 198 530 L49 92 C32 43 15 0 15 0 C55 9 101 0 101 0 L101 0 Z " />
<glyph glyph-name="zero" unicode="0" horiz-adv-x="419" d="M380 265 C380 424 315 533 210 533 C105 533 39 424 39 265 C39 107 105 -3 210 -3 C315 -3 380 107 380 265 L380 265 Z M295 265 C295 144 266 51 210 51 C155 51 125 144 125 265 C125 386 155 480 210 480 C266 480 295 386 295 265 L295 265 Z " />
<glyph glyph-name="one" unicode="1" horiz-adv-x="160" d="M120 0 C120 0 120 30 120 91 L120 533 L13 492 C25 485 40 461 40 408 L40 91 C40 30 32 8 28 0 L120 0 L120 0 Z " />
<glyph glyph-name="two" unicode="2" horiz-adv-x="331" d="M304 4 L304 79 C282 70 259 66 222 66 C184 66 132 71 99 73 C136 202 298 253 298 393 C298 476 238 529 160 529 C108 529 85 502 56 502 C51 502 41 502 41 502 L41 407 C64 437 106 461 151 461 C193 461 219 434 219 396 C219 296 15 206 15 27 C15 18 16 9 17 0 C32 3 49 4 68 4 C115 4 177 -3 238 -3 C262 -3 282 -2 304 4 L304 4 Z " />
<glyph glyph-name="three" unicode="3" horiz-adv-x="300" d="M80 308 L80 225 C80 225 86 240 98 241 C158 246 209 205 209 144 C209 96 173 66 124 66 C68 66 35 102 13 134 L13 36 C45 13 88 -3 131 -3 C222 -3 289 64 289 146 C289 230 232 264 190 277 C224 292 269 331 269 400 C269 483 209 533 133 533 C79 533 57 506 28 506 C24 506 13 506 13 506 L13 420 C32 442 68 465 119 465 C162 465 191 435 191 393 C191 337 143 308 98 308 C76 308 80 308 80 308 L80 308 Z " />
<glyph glyph-name="four" unicode="4" horiz-adv-x="345" d="M323 151 L331 225 C309 212 275 215 275 215 L275 527 L195 527 L18 219 L18 151 L195 151 L195 91 C195 48 195 0 195 0 L287 0 C279 15 275 48 275 91 L275 151 L323 151 Z M195 215 L91 215 L195 404 L195 215 Z " />
<glyph glyph-name="five" unicode="5" horiz-adv-x="335" d="M235 170 C235 106 195 67 143 67 C89 67 57 102 34 135 L34 32 C55 33 88 -3 151 -3 C247 -3 315 71 315 174 C315 267 251 335 158 335 C145 335 131 334 118 331 L127 461 L209 461 C239 461 257 456 281 449 L281 528 L55 528 L37 263 C57 270 99 276 130 276 C188 276 235 238 235 170 L235 170 Z " />
<glyph glyph-name="six" unicode="6" horiz-adv-x="376" d="M358 185 C358 268 310 348 220 348 C173 348 137 319 118 291 C123 404 174 466 229 466 C272 466 301 443 315 426 L315 508 C315 508 278 533 220 533 C108 533 38 416 38 257 C38 97 98 -3 206 -3 C304 -3 358 94 358 185 L358 185 Z M278 172 C278 106 244 66 204 66 C163 66 130 106 130 172 C130 239 163 279 204 279 C244 279 278 239 278 172 L278 172 Z " />
<glyph glyph-name="seven" unicode="7" horiz-adv-x="305" d="M40 0 L137 0 C137 0 152 55 164 91 L292 527 L23 527 L23 448 C48 455 80 460 109 460 L187 460 L78 91 C64 41 50 14 40 0 L40 0 Z " />
<glyph glyph-name="eight" unicode="8" horiz-adv-x="361" d="M19 141 C19 59 90 -3 180 -3 C271 -3 341 59 341 141 C341 213 296 255 254 275 C285 294 322 331 322 392 C322 474 254 533 180 533 C105 533 38 474 38 392 C38 331 75 294 107 275 C64 255 19 213 19 141 L19 141 Z M261 151 C261 103 225 66 180 66 C136 66 99 103 99 151 C99 198 136 236 180 236 C225 236 261 198 261 151 L261 151 Z M180 311 C144 311 116 345 116 388 C116 430 144 465 180 465 C216 465 245 430 245 388 C245 345 216 311 180 311 L180 311 Z " />
<glyph glyph-name="nine" unicode="9" horiz-adv-x="393" d="M34 350 C34 267 82 183 172 183 C219 183 255 208 274 239 C271 125 218 66 164 66 C123 66 95 96 77 122 L77 25 C112 5 134 -3 172 -3 C284 -3 354 111 354 270 C354 429 297 533 186 533 C87 533 34 443 34 350 L34 350 Z M114 359 C114 425 147 465 188 465 C229 465 262 425 262 359 C262 292 229 252 188 252 C147 252 114 292 114 359 L114 359 Z " />
<glyph glyph-name="colon" unicode="&#x3a;" horiz-adv-x="154" d="M35 322 C35 297 54 275 77 275 C101 275 119 297 119 322 C119 349 101 369 77 369 C54 369 35 349 35 322 L35 322 Z M77 -3 C101 -3 119 20 119 45 C119 71 101 92 77 92 C54 92 35 71 35 45 C35 20 54 -3 77 -3 L77 -3 Z " />
<glyph glyph-name="semicolon" unicode="&#x3b;" horiz-adv-x="153" d="M77 369 C53 369 35 349 35 322 C35 297 53 275 77 275 C100 275 118 297 118 322 C118 349 100 369 77 369 L77 369 Z M122 33 C122 70 100 92 77 92 C53 92 35 71 35 45 C35 20 54 -3 78 -3 C74 -24 50 -42 42 -44 L61 -75 C89 -60 122 -27 122 33 L122 33 Z " />
<glyph glyph-name="less" unicode="&#x3c;" horiz-adv-x="338" d="M205 0 L302 0 C281 21 248 56 224 84 L125 199 L224 313 C248 340 281 376 302 398 L205 398 L32 199 L205 0 L205 0 Z " />
<glyph glyph-name="equal" unicode="&#x3d;" horiz-adv-x="324" d="M284 300 C267 298 234 297 201 297 L123 297 C89 297 57 298 40 300 L40 231 C57 233 89 234 123 234 L201 234 C234 234 267 233 284 231 L284 300 Z M201 172 L123 172 C89 172 57 173 40 174 L40 107 C57 109 89 110 123 110 L201 110 C234 110 267 109 284 107 L284 174 C267 173 234 172 201 172 L201 172 Z " />
<glyph glyph-name="greater" unicode="&#x3e;" horiz-adv-x="337" d="M114 84 C90 56 57 21 36 0 L132 0 L305 199 L132 398 L36 398 C57 376 90 340 114 313 L212 199 L114 84 L114 84 Z " />
<glyph glyph-name="question" unicode="&#x3f;" horiz-adv-x="308" d="M136 465 C181 465 205 435 205 398 C205 310 97 269 97 174 C97 169 99 156 99 156 C138 171 172 156 172 156 C170 162 168 169 168 174 C168 234 283 294 283 400 C283 483 224 533 146 533 C93 533 70 506 41 506 C37 506 27 506 27 506 L27 393 C51 428 93 465 136 465 L136 465 Z M138 -3 C160 -3 179 20 179 45 C179 71 160 92 138 92 C115 92 96 71 96 45 C96 20 115 -3 138 -3 L138 -3 Z " />
<glyph glyph-name="at" unicode="&#x40;" horiz-adv-x="630" d="M483 -79 L465 -28 C439 -48 385 -72 315 -72 C180 -72 92 41 92 207 C92 374 180 487 315 487 C450 487 539 374 539 207 C539 110 503 67 476 67 C457 67 441 86 441 118 L441 410 L376 362 C363 378 337 395 303 395 C223 395 170 312 170 211 C170 110 214 23 292 23 C334 23 366 47 384 79 C398 48 427 18 472 18 C557 18 600 113 600 207 C600 399 485 533 315 533 C146 533 30 399 30 207 C30 16 146 -119 315 -119 C394 -119 460 -90 483 -79 L483 -79 Z M363 252 L363 177 C363 129 339 78 309 78 C275 78 250 139 250 215 C250 291 275 341 309 341 C341 341 363 291 363 252 L363 252 Z " />
<glyph glyph-name="A" unicode="A" horiz-adv-x="383" d="M258 527 L151 508 C136 499 129 468 122 436 L41 91 C29 45 17 17 10 0 L105 0 C105 0 117 61 130 128 L253 128 L283 0 L374 0 C366 17 354 45 342 91 L261 436 C255 468 251 495 258 527 L258 527 Z M240 195 L144 195 L192 427 L240 195 Z " />
<glyph glyph-name="B" unicode="B" horiz-adv-x="333" d="M321 134 C321 217 257 258 213 267 C272 280 305 329 305 388 C305 482 237 527 106 527 C106 527 40 476 40 436 L40 91 C40 30 40 0 40 0 C53 2 58 4 75 4 C106 4 129 -3 170 -3 C261 -3 321 52 321 134 L321 134 Z M122 301 L122 463 L142 463 C159 463 231 455 231 382 C231 310 159 301 142 301 L122 301 Z M246 136 C246 83 205 61 159 61 C144 61 130 63 122 66 L122 234 L141 234 C192 234 246 200 246 136 L246 136 Z " />
<glyph glyph-name="C" unicode="C" horiz-adv-x="352" d="M124 265 C124 386 166 465 232 465 C286 465 321 412 321 412 L321 521 C299 515 260 533 227 533 C107 533 38 423 38 265 C38 105 115 -3 228 -3 C268 -3 289 9 310 9 C314 9 318 9 321 8 L321 117 C321 117 292 66 236 66 C171 66 124 144 124 265 L124 265 Z " />
<glyph glyph-name="D" unicode="D" horiz-adv-x="385" d="M75 4 C107 4 128 -3 169 -3 C286 -3 347 106 347 264 C347 423 278 532 97 527 C97 527 40 479 40 436 L40 91 C40 30 40 0 40 0 C52 2 58 4 75 4 L75 4 Z M121 66 L121 463 L140 463 C185 463 261 426 261 266 C261 106 213 61 159 61 C144 61 129 64 121 66 L121 66 Z " />
<glyph glyph-name="E" unicode="E" horiz-adv-x="311" d="M120 460 L208 460 C241 460 277 454 293 448 L293 527 L81 527 C81 527 40 479 40 436 L40 93 C40 50 40 0 40 0 C54 4 59 7 77 7 C120 7 165 -3 220 -3 C243 -3 273 3 293 8 L293 80 C280 74 249 68 201 68 C174 68 142 72 120 74 L120 247 L161 247 C194 247 227 240 245 235 L259 314 L120 314 L120 460 L120 460 Z " />
<glyph glyph-name="F" unicode="F" horiz-adv-x="299" d="M40 436 L40 91 C40 20 40 0 40 0 L131 0 C131 0 121 20 121 91 L121 247 L162 247 C195 247 228 240 245 235 L262 314 L121 314 L121 460 L208 460 C241 460 277 454 294 448 L294 527 L74 527 C74 527 40 475 40 436 L40 436 Z " />
<glyph glyph-name="G" unicode="G" horiz-adv-x="364" d="M335 243 C335 251 294 300 294 300 L183 300 L198 221 C215 226 243 233 261 233 L261 79 C248 72 230 67 214 67 C154 67 115 145 115 266 C115 387 162 466 228 466 C283 466 312 431 312 431 L312 523 C309 523 306 521 302 521 C280 521 259 533 220 533 C107 533 29 425 29 266 C29 107 99 -3 209 -3 C261 -3 306 18 339 18 C339 18 332 143 335 243 L335 243 Z " />
<glyph glyph-name="H" unicode="H" horiz-adv-x="370" d="M122 230 C122 230 186 227 250 230 L249 92 C249 31 249 0 249 0 L342 0 C338 9 330 31 330 92 L330 437 C330 480 334 510 342 528 L249 528 C249 528 249 480 249 437 L250 301 C186 299 122 301 122 301 L121 437 C121 480 121 528 121 528 L28 528 C37 510 40 480 40 437 L40 92 C40 31 32 9 28 0 L121 0 C121 0 121 31 121 92 L122 230 L122 230 Z " />
<glyph glyph-name="I" unicode="I" horiz-adv-x="160" d="M120 92 L120 442 L120 528 L28 528 C36 510 40 480 40 437 L40 92 C40 31 40 0 40 0 L133 0 C129 9 120 31 120 92 L120 92 Z " />
<glyph glyph-name="J" unicode="J" horiz-adv-x="290" d="M250 174 L250 437 C250 480 255 511 263 528 L181 528 C181 528 169 493 170 437 L170 169 C170 111 137 72 92 72 C63 72 30 88 19 105 L19 13 C36 18 47 -3 101 -3 C187 -3 250 66 250 174 L250 174 Z " />
<glyph glyph-name="K" unicode="K" horiz-adv-x="367" d="M345 0 C291 44 251 196 176 263 C244 351 276 483 330 527 L232 527 C223 520 134 307 134 307 L134 435 C135 459 134 527 134 527 L41 527 C41 527 42 526 43 524 C51 507 53 480 53 441 C53 440 53 86 53 85 C53 46 50 18 42 0 C41 0 41 -1 134 0 C134 0 134 62 134 90 L134 220 L204 81 C207 74 238 7 247 0 L345 0 L345 0 Z " />
<glyph glyph-name="L" unicode="L" horiz-adv-x="310" d="M40 436 L40 92 C40 49 40 0 40 0 C53 3 59 6 77 6 C120 6 166 -3 220 -3 C242 -3 274 -1 294 4 L294 79 C281 73 249 67 200 67 C175 67 142 71 120 73 L120 436 C120 479 120 527 120 527 L28 527 C36 508 40 479 40 436 L40 436 Z " />
<glyph glyph-name="M" unicode="M" horiz-adv-x="480" d="M352 0 L440 0 C440 0 440 49 440 92 L440 436 C440 479 443 509 452 527 L364 527 L240 222 L117 527 L29 527 C37 509 40 479 40 436 L40 92 C40 49 40 0 40 0 L129 0 C120 18 117 49 117 92 L117 325 L240 57 L364 325 L364 92 C364 49 360 18 352 0 L352 0 Z " />
<glyph glyph-name="N" unicode="N" horiz-adv-x="364" d="M113 352 L230 108 C248 63 242 20 242 0 L324 0 C324 0 324 46 324 89 L324 435 C324 478 324 527 324 527 L239 527 C239 527 250 507 250 435 L250 205 C250 205 136 430 113 527 L27 527 C35 508 40 478 40 435 L40 89 C40 46 40 0 40 0 L125 0 C125 0 113 18 113 89 L113 352 L113 352 Z " />
<glyph glyph-name="O" unicode="O" horiz-adv-x="399" d="M370 266 C370 425 304 533 200 533 C94 533 29 425 29 266 C29 107 94 -3 200 -3 C304 -3 370 107 370 266 L370 266 Z M284 266 C284 145 255 52 200 52 C144 52 115 145 115 266 C115 386 144 484 200 484 C255 484 284 386 284 266 L284 266 Z " />
<glyph glyph-name="P" unicode="P" horiz-adv-x="327" d="M121 202 L154 202 C234 202 314 262 314 364 C314 467 250 532 94 527 C94 527 40 479 40 436 L40 91 C40 48 37 18 28 0 L121 0 C121 0 121 48 121 91 L121 202 Z M241 364 C241 297 184 266 145 266 L121 266 L121 463 L145 463 C184 463 241 432 241 364 L241 364 Z " />
<glyph glyph-name="Q" unicode="Q" horiz-adv-x="409" d="M286 -8 C266 -7 248 -4 232 0 C318 20 370 123 370 265 C370 424 305 533 200 533 C95 533 29 424 29 265 C29 182 47 112 79 65 L79 38 C103 -14 184 -80 286 -80 C322 -80 351 -71 370 -59 L370 14 C356 2 322 -11 286 -8 L286 -8 Z M200 482 C255 482 285 386 285 265 C285 144 255 48 200 48 C144 48 115 144 115 265 C115 386 144 482 200 482 L200 482 Z " />
<glyph glyph-name="R" unicode="R" horiz-adv-x="347" d="M102 527 C102 527 40 496 40 434 L40 89 C40 28 32 9 28 0 L121 0 C121 0 121 28 121 89 L121 228 C238 185 203 62 251 0 L333 0 C270 57 297 209 209 241 C264 260 310 306 310 380 C310 479 227 531 102 527 L102 527 Z M236 377 C236 313 180 292 140 292 L121 292 L121 462 L140 462 C180 462 236 442 236 377 L236 377 Z " />
<glyph glyph-name="S" unicode="S" horiz-adv-x="322" d="M25 48 C36 37 65 -3 146 -3 C254 -3 300 78 300 146 C300 318 95 314 95 407 C95 439 121 464 161 464 C210 464 238 433 259 406 L259 520 C259 520 244 520 238 520 C216 520 201 534 152 534 C82 534 19 485 19 405 C19 251 224 255 224 139 C224 95 192 68 148 68 C86 68 46 102 25 130 L25 48 L25 48 Z " />
<glyph glyph-name="T" unicode="T" horiz-adv-x="320" d="M222 459 C265 459 298 454 313 447 L313 527 L7 527 L7 447 C22 454 54 459 98 459 L120 459 L120 0 C159 5 162 5 200 0 C200 0 200 30 200 459 L222 459 L222 459 Z " />
<glyph glyph-name="U" unicode="U" horiz-adv-x="364" d="M324 205 L324 436 C324 479 328 510 336 527 L231 527 C240 510 244 479 244 436 L244 214 C244 138 234 66 182 66 C129 66 120 138 120 214 L120 436 C120 479 124 510 132 527 L27 527 C36 510 40 479 40 436 L40 205 C40 110 59 -3 182 -3 C305 -3 324 110 324 205 L324 205 Z " />
<glyph glyph-name="V" unicode="V" horiz-adv-x="387" d="M124 91 C135 41 144 0 144 0 C194 11 245 0 245 0 C245 0 253 41 263 91 L344 436 C355 477 363 503 376 527 L268 527 C273 510 271 477 263 436 L194 102 L125 436 C116 477 115 510 120 527 L11 527 C25 503 33 477 43 436 L124 91 L124 91 Z " />
<glyph glyph-name="W" unicode="W" horiz-adv-x="538" d="M530 527 L423 527 C426 512 428 486 421 436 L375 129 L303 527 L235 527 C235 527 227 481 164 129 L118 436 C111 486 113 512 117 527 L8 527 C18 508 29 473 36 436 C43 397 98 91 98 91 C106 48 115 0 115 0 C160 10 207 0 207 0 C207 0 216 52 224 91 L269 345 L315 91 C322 52 331 0 331 0 C376 11 424 0 424 0 C424 0 432 48 440 91 C440 91 496 397 503 436 C510 473 521 508 530 527 L530 527 Z " />
<glyph glyph-name="X" unicode="X" horiz-adv-x="355" d="M8 0 L108 0 L177 182 L210 100 C231 50 239 18 238 0 L335 0 C335 0 317 41 296 91 L220 265 L295 436 C315 486 331 510 346 527 L247 527 L177 351 L146 430 C127 480 118 510 118 527 L21 527 C21 527 40 486 61 436 L135 265 L61 91 C38 41 23 17 8 0 L8 0 Z " />
<glyph glyph-name="Y" unicode="Y" horiz-adv-x="378" d="M115 527 L6 527 C23 505 39 475 56 436 L149 223 L149 0 C189 8 229 0 229 0 C229 0 229 29 229 223 L322 436 C339 475 356 505 371 527 L263 527 C263 507 255 475 240 436 L189 310 L138 436 C122 475 114 507 115 527 L115 527 Z " />
<glyph glyph-name="Z" unicode="Z" horiz-adv-x="335" d="M20 527 L20 449 C37 457 73 461 111 461 L195 461 L8 0 C57 5 118 1 231 -3 C255 -4 289 -1 311 5 L311 80 C287 70 258 66 216 66 C187 65 149 71 126 74 L315 527 L20 527 L20 527 Z " />
<glyph glyph-name="bracketleft" unicode="&#x5b;" horiz-adv-x="229" d="M199 0 L199 76 C199 76 137 76 109 76 L109 574 L199 574 L199 650 C172 633 33 650 33 650 C49 340 33 0 33 0 C33 0 174 17 199 0 L199 0 Z " />
<glyph glyph-name="backslash" unicode="&#x5c;" horiz-adv-x="325" d="M46 530 L196 92 C211 48 224 0 224 0 C261 8 310 0 310 0 C303 18 293 43 276 92 L127 530 C112 574 98 621 98 621 C61 614 12 621 12 621 C19 604 29 579 46 530 L46 530 Z " />
<glyph glyph-name="bracketright" unicode="&#x5d;" horiz-adv-x="228" d="M30 76 L30 0 C55 17 196 0 196 0 C196 0 179 340 196 650 C196 650 57 633 30 650 L30 574 L120 574 L120 76 C92 76 30 76 30 76 L30 76 Z " />
<glyph glyph-name="asciicircum" unicode="&#x5e;" horiz-adv-x="416" d="M262 341 C279 309 293 277 304 253 L387 253 L237 527 L178 527 L29 253 L111 253 C122 277 137 309 154 341 L208 438 L262 341 L262 341 Z " />
<glyph glyph-name="underscore" unicode="&#x5f;" horiz-adv-x="343" d="M311 49 L30 49 L30 0 L311 0 L311 49 L311 49 Z " />
<glyph glyph-name="grave" unicode="&#x60;" horiz-adv-x="204" d="M26 477 C50 466 90 449 148 417 L171 458 C114 492 79 517 57 533 L26 477 L26 477 Z " />
<glyph glyph-name="a" unicode="a" horiz-adv-x="329" d="M211 18 L301 1 C295 15 289 41 289 92 L289 362 L224 335 C210 352 184 370 150 370 C71 370 18 286 18 185 C18 84 61 -3 139 -3 C173 -3 195 14 211 36 L211 18 Z M211 150 C211 102 186 54 156 54 C122 54 97 113 97 189 C97 265 122 314 156 314 C188 314 211 265 211 226 L211 150 Z " />
<glyph glyph-name="b" unicode="b" horiz-adv-x="339" d="M118 530 C90 505 28 495 28 495 C33 485 40 462 40 404 L40 92 C40 42 40 1 40 1 L94 27 C111 11 135 -3 163 -3 C252 -3 311 84 311 185 C311 286 258 369 185 369 C156 369 133 356 118 343 L118 530 Z M118 77 L118 217 C118 261 141 314 172 314 C206 314 232 265 232 189 C232 113 204 53 154 53 C138 53 125 70 118 77 L118 77 Z " />
<glyph glyph-name="c" unicode="c" horiz-adv-x="282" d="M250 8 L250 103 C234 79 211 61 179 61 C131 61 99 109 99 184 C99 261 137 306 182 306 C210 306 216 288 218 273 L246 354 C246 354 219 369 172 369 C80 369 20 291 20 184 C20 77 80 -3 175 -3 C217 -3 240 19 250 8 L250 8 Z " />
<glyph glyph-name="d" unicode="d" horiz-adv-x="330" d="M212 35 L290 1 C290 1 290 34 290 92 L290 530 C247 503 200 495 200 495 C205 485 212 462 212 404 L212 349 C197 360 177 369 151 369 C73 369 19 291 19 189 C19 89 63 -3 141 -3 C175 -3 197 14 212 35 L212 35 Z M212 151 C212 103 188 53 158 53 C124 53 99 113 99 189 C99 265 124 314 158 314 C190 314 212 265 212 226 L212 151 Z " />
<glyph glyph-name="e" unicode="e" horiz-adv-x="319" d="M22 183 C22 76 78 -3 184 -3 C223 -3 253 9 273 24 L273 102 C258 78 217 61 184 61 C143 61 111 90 104 150 C104 150 230 156 294 150 L299 183 C299 294 251 369 163 369 C76 369 22 289 22 183 L22 183 Z M218 210 L103 210 C108 271 131 313 163 313 C189 313 217 275 218 210 L218 210 Z " />
<glyph glyph-name="f" unicode="f" horiz-adv-x="243" d="M141 394 C141 437 160 472 192 472 C216 472 226 464 239 455 L239 523 C237 522 235 522 233 522 C221 522 205 532 179 532 C122 532 63 487 63 380 L63 364 L63 325 L20 317 L20 254 L63 266 L63 91 C63 34 56 11 52 0 L141 0 C141 0 141 34 141 91 L141 282 C141 282 189 293 203 280 L203 353 L141 340 L141 364 L141 394 L141 394 Z " />
<glyph glyph-name="g" unicode="g" horiz-adv-x="329" d="M211 36 L211 18 C211 -38 185 -68 147 -68 C105 -68 80 -41 72 -32 L72 -99 C88 -112 107 -126 147 -126 C252 -126 289 -47 289 60 L289 362 L224 335 C211 352 184 370 150 370 C71 370 18 286 18 185 C18 84 61 -3 139 -3 C173 -3 195 14 211 36 L211 36 Z M211 150 C211 102 185 54 156 54 C122 54 97 113 97 189 C97 265 122 314 156 314 C188 314 211 265 211 226 L211 150 Z " />
<glyph glyph-name="h" unicode="h" horiz-adv-x="339" d="M317 0 C311 14 306 41 306 91 L306 221 C306 321 263 368 201 368 C166 368 137 351 119 327 L119 529 C78 503 29 494 29 494 C33 484 40 461 40 403 L40 91 C40 41 40 0 40 0 L131 0 C124 14 119 41 119 91 L119 216 C119 264 143 305 179 305 C212 305 228 270 228 221 L228 0 L317 0 L317 0 Z " />
<glyph glyph-name="i" unicode="i" horiz-adv-x="161" d="M78 527 C51 527 30 503 30 474 C30 443 51 419 78 419 C105 419 127 443 127 474 C127 503 105 527 78 527 L78 527 Z M121 91 L121 370 C81 340 30 336 30 336 C36 325 43 303 43 245 L43 91 C43 41 43 0 43 0 L133 0 C126 13 121 41 121 91 L121 91 Z " />
<glyph glyph-name="j" unicode="j" horiz-adv-x="161" d="M31 336 C35 325 43 303 43 245 L43 11 C43 -32 26 -67 -7 -67 C-31 -67 -46 -51 -52 -44 L-52 -111 C-42 -119 -25 -128 7 -128 C64 -128 121 -82 121 26 L121 370 C80 337 31 336 31 336 L31 336 Z M80 527 C53 527 31 503 31 473 C31 444 53 418 80 418 C107 418 128 444 128 473 C128 503 107 527 80 527 L80 527 Z " />
<glyph glyph-name="k" unicode="k" horiz-adv-x="319" d="M212 0 L313 0 C303 10 285 32 257 91 L197 223 L241 283 C280 335 304 358 313 364 L205 364 C205 364 183 323 156 280 L119 221 L119 529 C77 501 29 494 29 494 C33 484 40 461 40 403 L40 91 C40 41 35 14 29 0 L119 0 C119 0 119 41 119 91 L119 116 L149 158 L212 0 L212 0 Z " />
<glyph glyph-name="l" unicode="l" horiz-adv-x="158" d="M118 0 L118 529 C79 499 28 494 28 494 C33 484 40 461 40 403 L40 91 C40 41 35 14 28 0 L118 0 L118 0 Z " />
<glyph glyph-name="m" unicode="m" horiz-adv-x="530" d="M416 0 L506 0 C499 13 494 41 494 91 L494 221 C494 323 443 369 381 369 C338 369 307 343 289 315 C271 351 244 369 206 369 C172 369 139 349 121 318 L121 370 C80 346 31 336 31 336 C36 325 43 303 43 245 L43 91 C43 41 38 13 31 0 L121 0 C121 0 121 41 121 91 L121 216 C121 264 146 305 181 305 C214 305 229 270 229 222 L229 0 L307 0 L307 215 C307 264 332 305 367 305 C400 305 416 270 416 222 L416 0 L416 0 Z " />
<glyph glyph-name="n" unicode="n" horiz-adv-x="345" d="M230 0 L320 0 C314 13 308 41 308 91 L308 221 C308 321 260 369 205 369 C170 369 139 349 121 323 L121 370 C79 345 32 336 32 336 C36 325 43 303 43 245 L43 91 C43 41 38 13 32 0 L121 0 C121 0 121 41 121 91 L121 215 C121 264 146 305 182 305 C215 305 230 270 230 222 L230 0 L230 0 Z " />
<glyph glyph-name="o" unicode="o" horiz-adv-x="304" d="M152 -3 C233 -3 293 71 293 183 C293 294 233 369 152 369 C71 369 11 294 11 183 C11 71 71 -3 152 -3 L152 -3 Z M152 324 C192 324 214 256 214 183 C214 110 192 42 152 42 C113 42 91 110 91 183 C91 256 113 324 152 324 L152 324 Z " />
<glyph glyph-name="p" unicode="p" horiz-adv-x="332" d="M314 185 C314 286 272 369 200 369 C170 369 139 352 122 324 L122 371 C81 343 31 337 31 337 C36 326 43 303 43 246 L43 -29 C43 -80 38 -108 31 -120 L122 -120 L122 35 C137 14 159 -3 193 -3 C271 -3 314 84 314 185 L314 185 Z M235 186 C235 111 209 53 176 53 C147 53 122 102 122 149 L122 219 C122 262 144 315 176 315 C209 315 235 261 235 186 L235 186 Z " />
<glyph glyph-name="q" unicode="q" horiz-adv-x="324" d="M206 -121 L296 -121 C290 -108 284 -80 284 -30 L284 362 L219 335 C206 352 179 370 145 370 C66 370 13 286 13 185 C13 84 56 -3 134 -3 C168 -3 190 14 206 36 L206 -121 Z M206 149 C206 102 181 54 151 54 C118 54 92 111 92 186 C92 261 118 314 151 314 C183 314 206 265 206 228 L206 149 Z " />
<glyph glyph-name="r" unicode="r" horiz-adv-x="233" d="M218 286 L218 369 C175 369 139 329 121 295 L121 370 C80 343 30 336 30 336 C36 325 43 303 43 245 L43 91 C43 41 37 13 30 0 L121 0 C121 0 121 41 121 225 C144 279 186 286 208 286 C212 286 216 286 218 286 L218 286 Z " />
<glyph glyph-name="s" unicode="s" horiz-adv-x="268" d="M38 124 L38 31 C58 13 94 -3 138 -3 C211 -3 256 43 256 107 C256 225 105 222 105 276 C105 298 122 311 148 311 C183 311 211 285 228 257 L228 351 C228 351 185 370 140 370 C80 370 37 333 37 274 C37 162 187 165 187 98 C187 75 169 57 140 57 C98 57 59 90 38 124 L38 124 Z " />
<glyph glyph-name="t" unicode="t" horiz-adv-x="217" d="M179 58 C159 58 147 73 147 91 L147 307 L195 317 L195 377 L147 367 L147 470 C106 444 58 435 58 435 C63 423 67 404 69 364 L69 351 L20 341 L20 277 L69 292 L69 91 C69 50 84 -3 151 -3 C181 -3 199 6 210 13 L210 77 C203 65 191 58 179 58 L179 58 Z " />
<glyph glyph-name="u" unicode="u" horiz-adv-x="348" d="M230 36 L308 1 C308 1 308 42 308 92 L308 371 C269 342 230 337 230 337 C230 337 230 304 230 246 L230 150 C230 102 211 62 176 62 C140 62 121 102 121 150 L121 280 C121 332 128 360 134 371 L32 332 C41 313 43 276 43 242 L43 152 C43 51 84 -3 151 -3 C184 -3 213 13 230 36 L230 36 Z " />
<glyph glyph-name="v" unicode="v" horiz-adv-x="303" d="M299 364 L212 364 C212 364 203 317 192 273 L152 102 L111 273 C101 317 90 364 90 364 L4 364 C15 348 24 321 37 273 L89 91 C102 40 112 0 112 0 C112 0 151 8 192 0 C192 0 201 40 214 91 L266 273 C279 321 289 348 299 364 L299 364 Z " />
<glyph glyph-name="w" unicode="w" horiz-adv-x="473" d="M184 0 L237 236 L289 0 C327 11 366 0 366 0 L436 273 C451 330 462 353 469 364 L381 364 C381 364 372 319 362 273 L327 102 L290 273 C282 316 273 364 273 364 C237 357 203 364 203 364 C203 364 193 316 184 273 L147 102 L111 273 C102 319 93 364 93 364 L4 364 C12 353 22 330 38 273 L108 0 C145 10 184 0 184 0 L184 0 Z " />
<glyph glyph-name="x" unicode="x" horiz-adv-x="308" d="M200 0 L306 0 C293 17 276 43 251 91 L200 186 L246 273 C269 318 286 346 302 364 L209 364 C209 364 191 321 167 273 L154 247 L141 273 C117 321 112 352 113 364 L6 364 C22 346 39 318 63 273 L108 186 L58 91 C32 43 16 17 2 0 L94 0 C94 0 115 45 136 91 L154 126 L173 91 C193 45 201 17 200 0 L200 0 Z " />
<glyph glyph-name="y" unicode="y" horiz-adv-x="303" d="M89 364 L4 364 C13 351 24 321 38 273 L89 91 C100 50 106 23 106 9 C106 -33 84 -67 53 -67 C29 -67 16 -57 6 -48 L6 -111 C17 -119 37 -128 65 -128 C155 -128 177 -35 214 91 L266 273 C279 321 290 351 300 364 L213 364 C213 364 205 329 193 273 L152 102 L112 273 C101 319 89 364 89 364 L89 364 Z " />
<glyph glyph-name="z" unicode="z" horiz-adv-x="291" d="M124 305 L163 305 L31 0 C46 3 63 5 78 5 C109 4 155 -4 198 -4 C220 -4 243 -4 261 1 L270 67 C254 58 224 55 193 55 C170 55 152 58 137 60 L269 364 L48 364 L39 294 C55 302 90 305 124 305 L124 305 Z " />
<glyph glyph-name="braceleft" unicode="&#x7b;" horiz-adv-x="256" d="M151 247 C151 292 116 318 93 322 C116 327 151 353 151 398 C151 450 132 495 132 536 C132 564 152 578 175 578 C191 578 225 578 225 578 L225 643 C222 642 218 642 216 642 C202 642 189 647 164 647 C107 647 59 609 59 543 C59 484 80 436 80 399 C80 362 56 348 40 348 L40 296 C56 296 80 283 80 245 C80 209 59 161 59 101 C59 36 107 -3 164 -3 C189 -3 202 3 216 3 C218 3 222 3 225 2 L225 66 C225 66 191 66 175 66 C152 66 132 81 132 109 C132 149 151 195 151 247 L151 247 Z " />
<glyph glyph-name="bar" unicode="&#x7c;" horiz-adv-x="156" d="M40 92 C40 43 38 14 37 0 C37 0 78 8 119 0 C119 0 116 43 116 92 L116 530 C116 579 119 621 119 621 C78 612 37 621 37 621 C38 609 40 579 40 530 L40 92 L40 92 Z " />
<glyph glyph-name="braceright" unicode="&#x7d;" horiz-adv-x="257" d="M164 322 C140 318 105 292 105 247 C105 195 124 149 124 109 C124 81 105 66 81 66 C65 66 32 66 32 66 L32 2 C35 3 39 3 41 3 C55 3 68 -3 93 -3 C150 -3 197 36 197 101 C197 161 177 209 177 245 C177 283 201 296 217 296 L217 348 C201 348 177 362 177 399 C177 436 197 484 197 543 C197 609 150 647 93 647 C68 647 55 642 41 642 C39 642 35 642 32 643 L32 578 C32 578 65 578 81 578 C105 578 124 564 124 536 C124 495 105 450 105 398 C105 353 140 327 164 322 L164 322 Z " />
<glyph glyph-name="asciitilde" unicode="&#x7e;" horiz-adv-x="344" d="M37 280 L73 269 C79 286 94 303 112 303 C145 303 184 259 233 259 C277 259 316 295 316 343 L281 354 C274 335 259 321 243 321 C208 321 171 364 121 364 C77 364 37 326 37 280 L37 280 Z " />
<glyph glyph-name="exclamdown" unicode="&#xa1;" horiz-adv-x="151" d="M43 373 L33 91 C33 41 28 12 24 0 L128 0 C124 12 119 41 118 91 L109 373 C109 373 76 367 43 373 L43 373 Z M118 484 C118 509 99 532 76 532 C52 532 33 509 33 484 C33 458 52 437 76 437 C99 437 118 458 118 484 L118 484 Z " />
<glyph glyph-name="cent" unicode="&#xa2;" horiz-adv-x="291" d="M211 386 C239 382 257 364 268 347 L268 444 C263 442 258 442 254 442 C242 442 230 446 212 449 L212 470 C212 496 213 511 216 528 C216 528 180 520 147 528 C147 528 151 496 151 470 L151 446 C81 425 38 355 38 264 C38 174 81 103 151 84 L151 58 C151 33 147 0 147 0 C180 7 216 0 216 0 C213 17 212 33 212 58 L212 79 C242 83 260 93 268 99 L268 183 C254 163 236 148 211 143 C211 237 211 328 211 386 L211 386 Z M117 264 C117 312 131 347 153 368 C154 287 154 211 153 159 C130 179 117 216 117 264 L117 264 Z " />
<glyph glyph-name="sterling" unicode="&#xa3;" horiz-adv-x="356" d="M336 78 C313 70 276 67 239 67 C206 67 170 70 137 73 C153 103 158 140 158 173 C158 190 157 206 155 223 L278 223 L260 286 L148 286 C146 304 144 323 144 337 C144 411 180 464 235 464 C265 464 293 448 313 411 L313 520 C310 520 306 520 304 520 C282 520 265 532 224 532 C133 532 63 459 63 338 C63 320 65 302 66 286 L19 286 L31 223 L78 223 C82 200 85 178 85 152 C85 111 75 60 42 0 C56 2 182 0 255 -4 C280 -6 313 -2 336 4 L336 78 L336 78 Z " />
<glyph glyph-name="yen" unicode="&#xa5;" horiz-adv-x="407" d="M271 286 L337 436 C354 475 371 505 386 528 L279 528 C279 507 271 476 255 436 L204 310 L153 436 C137 476 129 507 130 528 L22 528 C38 505 54 475 71 436 L136 286 L75 286 L60 223 L164 223 L164 173 L75 173 L60 110 L164 110 L164 91 C164 30 164 0 164 0 L245 0 C245 0 245 30 245 91 L245 110 L347 110 L362 173 L245 173 L245 223 L347 223 L362 286 L271 286 L271 286 Z " />
<glyph glyph-name="brokenbar" unicode="&#xa6;" horiz-adv-x="180" d="M53 529 L53 391 L129 391 L129 529 C129 578 132 620 132 620 C91 614 50 620 50 620 C51 608 53 578 53 529 L53 529 Z M129 91 L129 228 L53 228 L53 91 C53 42 50 0 50 0 C91 5 132 0 132 0 C131 13 129 42 129 91 L129 91 Z " />
<glyph glyph-name="section" unicode="&#xa7;" horiz-adv-x="320" d="M238 179 C262 193 285 226 285 267 C285 388 118 386 118 439 C118 461 135 474 160 474 C195 474 229 456 242 440 L242 523 C237 523 232 521 229 521 C212 521 197 533 154 533 C92 533 50 497 50 438 C50 402 67 379 89 361 C58 345 36 312 36 274 C36 165 200 168 200 98 C200 75 178 57 150 57 C108 57 66 91 50 111 L50 30 C71 13 103 -3 147 -3 C221 -3 268 42 268 106 C268 138 257 162 238 179 L238 179 Z M216 257 C216 225 187 220 174 220 C142 220 103 242 103 274 C103 307 133 311 147 311 C178 311 216 289 216 257 L216 257 Z " />
<glyph glyph-name="dieresis" unicode="&#xa8;" horiz-adv-x="247" d="M26 485 C26 461 42 443 64 443 C84 443 101 461 101 485 C101 508 84 527 64 527 C42 527 26 508 26 485 L26 485 Z M189 527 C168 527 151 508 151 485 C151 461 168 443 189 443 C210 443 227 461 227 485 C227 508 210 527 189 527 L189 527 Z " />
<glyph glyph-name="copyright" unicode="&#xa9;" horiz-adv-x="512" d="M256 -4 C381 -4 474 112 474 264 C474 418 381 533 256 533 C131 533 38 418 38 264 C38 112 131 -4 256 -4 L256 -4 Z M256 484 C351 484 420 401 420 264 C420 129 351 46 256 46 C160 46 91 129 91 264 C91 401 160 484 256 484 L256 484 Z M319 346 L319 421 L313 421 C299 421 288 428 266 428 C205 428 145 371 145 266 C145 162 202 105 271 105 C288 105 307 111 319 117 L319 188 C307 165 288 154 270 154 C236 154 207 190 207 266 C207 344 236 380 270 380 C288 380 307 368 319 346 L319 346 Z " />
<glyph glyph-name="ordfeminine" unicode="&#xaa;" horiz-adv-x="261" d="M229 257 C229 257 220 271 220 325 L220 527 L167 507 C157 520 138 533 113 533 C56 533 21 470 21 395 C21 320 49 255 105 255 C130 255 146 267 157 283 L157 271 L229 257 Z M157 374 C157 337 143 299 122 299 C101 299 84 340 84 397 C84 454 101 488 122 488 C143 488 157 450 157 421 L157 374 Z M49 227 L49 190 L229 190 L229 227 C229 227 139 215 49 227 L49 227 Z " />
<glyph glyph-name="guillemotleft" unicode="&#xab;" horiz-adv-x="349" d="M177 87 C169 99 148 130 136 153 L95 225 L136 298 C148 321 169 353 177 364 L101 364 L22 225 L101 87 L177 87 Z M278 153 L238 225 L278 298 C290 321 312 353 320 364 L243 364 L165 225 L243 87 L320 87 C312 99 290 130 278 153 L278 153 Z " />
<glyph glyph-name="registered" unicode="&#xae;" horiz-adv-x="512" d="M474 264 C474 418 380 533 256 533 C131 533 38 418 38 264 C38 112 131 -4 256 -4 C380 -4 474 112 474 264 L474 264 Z M419 264 C419 129 351 46 256 46 C159 46 91 129 91 264 C91 401 159 484 256 484 C351 484 419 401 419 264 L419 264 Z M361 111 C333 131 321 221 288 255 C321 267 349 295 349 336 C349 395 294 425 243 425 L169 425 C174 416 176 399 176 371 L176 166 C176 137 174 119 169 111 L237 111 C233 119 230 137 230 166 L230 243 C281 226 261 141 297 111 L361 111 Z M293 334 C293 296 265 285 241 285 L230 285 L230 384 L241 384 C265 384 293 373 293 334 L293 334 Z " />
<glyph glyph-name="degree" unicode="&#xb0;" horiz-adv-x="217" d="M195 447 C195 494 156 533 108 533 C61 533 23 494 23 447 C23 398 61 360 108 360 C156 360 195 398 195 447 L195 447 Z M160 447 C160 418 138 395 108 395 C81 395 58 418 58 447 C58 475 81 497 108 497 C138 497 160 475 160 447 L160 447 Z " />
<glyph glyph-name="acute" unicode="&#xb4;" horiz-adv-x="196" d="M51 417 C109 449 149 466 173 477 L142 533 C120 518 85 492 28 458 L51 417 L51 417 Z " />
<glyph glyph-name="mu" unicode="&#xb5;" horiz-adv-x="347" d="M43 -33 C43 -91 36 -114 32 -124 C32 -124 81 -116 121 -124 L121 31 C136 5 154 -3 176 -3 C197 -3 216 5 229 33 L229 -3 L320 -3 C314 11 307 38 307 88 L307 368 C267 344 218 333 218 333 C222 322 229 300 229 242 L229 147 C229 99 211 59 176 59 C140 59 121 99 121 147 L121 367 C83 339 32 333 32 333 C36 322 43 299 43 242 L43 -33 L43 -33 Z " />
<glyph glyph-name="paragraph" unicode="&#xb6;" horiz-adv-x="441" d="M259 527 L178 527 C80 527 19 472 19 388 C19 302 80 249 178 249 L178 91 C178 29 178 0 178 0 L259 0 L259 527 Z M401 91 L401 435 C401 496 409 518 413 527 L320 527 L320 0 L413 0 C409 9 401 29 401 91 L401 91 Z " />
<glyph glyph-name="cedilla" unicode="&#xb8;" horiz-adv-x="153" d="M139 -90 C139 -49 108 -26 80 -25 L80 0 L43 0 L43 -52 C49 -50 53 -49 57 -49 C78 -49 95 -63 95 -88 C95 -113 80 -126 64 -126 C51 -126 40 -116 34 -104 L14 -133 C23 -147 42 -161 69 -161 C101 -161 139 -135 139 -90 L139 -90 Z " />
<glyph glyph-name="ordmasculine" unicode="&#xba;" horiz-adv-x="228" d="M114 260 C175 260 214 316 214 399 C214 482 175 538 114 538 C53 538 13 482 13 399 C13 316 53 260 114 260 L114 260 Z M114 498 C136 498 150 451 150 399 C150 347 136 299 114 299 C91 299 79 347 79 399 C79 451 91 498 114 498 L114 498 Z M24 232 L24 195 L203 195 L203 232 C203 232 114 220 24 232 L24 232 Z " />
<glyph glyph-name="guillemotright" unicode="&#xbb;" horiz-adv-x="350" d="M71 298 L113 225 L71 153 C59 130 37 98 30 87 L106 87 L184 225 L106 364 L30 364 C37 353 59 321 71 298 L71 298 Z M172 364 C180 353 201 321 214 298 L255 225 L214 153 C201 130 180 98 172 87 L249 87 L327 225 L249 364 L172 364 Z " />
<glyph glyph-name="questiondown" unicode="&#xbf;" horiz-adv-x="308" d="M171 65 C126 65 103 95 103 132 C103 220 210 261 210 356 C210 361 209 374 209 374 C170 359 136 374 136 374 C138 368 140 361 140 356 C140 296 25 236 25 130 C25 47 84 -3 161 -3 C215 -3 237 24 266 24 C271 24 281 24 281 24 L281 138 C257 102 215 65 171 65 L171 65 Z M170 533 C147 533 128 511 128 485 C128 459 147 439 170 439 C192 439 211 459 211 485 C211 511 192 533 170 533 L170 533 Z " />
<glyph glyph-name="Agrave" unicode="&#xc0;" horiz-adv-x="383" d="M258 527 L151 508 C136 499 129 468 122 436 L41 91 C29 45 17 17 10 0 L105 0 C105 0 117 61 130 128 L253 128 L283 0 L374 0 C366 17 354 45 342 91 L261 436 C255 468 251 495 258 527 L258 527 Z M240 195 L144 195 L192 427 L240 195 Z M119 677 C143 666 183 649 241 617 L264 658 C207 692 172 717 150 733 L119 677 Z " />
<glyph glyph-name="Aacute" unicode="&#xc1;" horiz-adv-x="383" d="M258 527 L151 508 C136 499 129 468 122 436 L41 91 C29 45 17 17 10 0 L105 0 C105 0 117 61 130 128 L253 128 L283 0 L374 0 C366 17 354 45 342 91 L261 436 C255 468 251 495 258 527 L258 527 Z M240 195 L144 195 L192 427 L240 195 Z M142 617 C200 649 240 666 264 677 L233 733 C211 718 176 692 119 658 L142 617 Z " />
<glyph glyph-name="Acircumflex" unicode="&#xc2;" horiz-adv-x="383" d="M258 527 L151 508 C136 499 129 468 122 436 L41 91 C29 45 17 17 10 0 L105 0 C105 0 117 61 130 128 L253 128 L283 0 L374 0 C366 17 354 45 342 91 L261 436 C255 468 251 495 258 527 L258 527 Z M240 195 L144 195 L192 427 L240 195 Z M119 605 C131 617 150 638 191 672 C231 638 251 617 263 605 L304 657 C285 668 247 691 191 733 C135 691 97 668 78 657 L119 605 Z " />
<glyph glyph-name="Atilde" unicode="&#xc3;" horiz-adv-x="383" d="M258 527 L151 508 C136 499 129 468 122 436 L41 91 C29 45 17 17 10 0 L105 0 C105 0 117 61 130 128 L253 128 L283 0 L374 0 C366 17 354 45 342 91 L261 436 C255 468 251 495 258 527 L258 527 Z M240 195 L144 195 L192 427 L240 195 Z M52 649 L87 638 C94 655 109 672 126 672 C160 672 198 628 247 628 C291 628 331 664 331 712 L296 723 C289 704 274 690 258 690 C223 690 186 733 136 733 C92 733 52 695 52 649 L52 649 Z " />
<glyph glyph-name="Adieresis" unicode="&#xc4;" horiz-adv-x="383" d="M258 527 L151 508 C136 499 129 468 122 436 L41 91 C29 45 17 17 10 0 L105 0 C105 0 117 61 130 128 L253 128 L283 0 L374 0 C366 17 354 45 342 91 L261 436 C255 468 251 495 258 527 L258 527 Z M240 195 L144 195 L192 427 L240 195 Z M91 685 C91 661 107 643 129 643 C149 643 166 661 166 685 C166 708 149 727 129 727 C107 727 91 708 91 685 L91 685 Z M254 727 C233 727 216 708 216 685 C216 661 233 643 254 643 C275 643 292 661 292 685 C292 708 275 727 254 727 L254 727 Z " />
<glyph glyph-name="Aring" unicode="&#xc5;" horiz-adv-x="383" d="M258 527 L151 508 C136 499 129 468 122 436 L41 91 C29 45 17 17 10 0 L105 0 C105 0 117 61 130 128 L253 128 L283 0 L374 0 C366 17 354 45 342 91 L261 436 C255 468 251 495 258 527 L258 527 Z M240 195 L144 195 L192 427 L240 195 Z M277 647 C277 694 238 733 191 733 C143 733 105 694 105 647 C105 598 143 560 191 560 C238 560 277 598 277 647 L277 647 Z M242 647 C242 618 220 595 191 595 C163 595 140 618 140 647 C140 675 163 697 191 697 C220 697 242 675 242 647 L242 647 Z " />
<glyph glyph-name="AE" unicode="&#xc6;" horiz-adv-x="479" d="M381 463 C414 463 449 456 466 450 L466 527 C466 527 300 528 251 526 L173 512 C157 503 148 475 141 444 L40 92 C29 45 17 17 9 0 L104 0 C104 0 116 62 123 92 L130 128 L213 128 L213 95 C213 52 213 3 213 3 C227 6 232 9 250 9 C260 9 270 8 281 8 C302 6 325 3 350 0 C363 -1 378 -1 393 -1 C416 -1 446 3 466 8 L466 82 C453 76 422 71 373 71 C365 71 356 71 347 72 C328 73 308 75 293 76 L293 249 L334 249 C367 249 400 242 418 237 L432 316 L293 316 L293 463 L381 463 L381 463 Z M144 195 L213 450 L213 324 L213 195 L144 195 L144 195 Z " />
<glyph glyph-name="Ccedilla" unicode="&#xc7;" horiz-adv-x="363" d="M135 265 C135 386 177 465 243 465 C297 465 332 412 332 412 L332 521 C310 515 271 533 238 533 C118 533 49 423 49 265 C49 105 126 -3 239 -3 C279 -3 300 9 321 9 C325 9 329 9 332 8 L332 117 C332 117 303 66 247 66 C182 66 135 144 135 265 L135 265 Z M317 -90 C317 -49 286 -26 258 -25 L258 0 L221 0 L221 -52 C227 -50 231 -49 235 -49 C256 -49 273 -63 273 -88 C273 -113 258 -126 242 -126 C229 -126 218 -116 212 -104 L192 -133 C201 -147 220 -161 247 -161 C279 -161 317 -135 317 -90 L317 -90 Z " />
<glyph glyph-name="Egrave" unicode="&#xc8;" horiz-adv-x="322" d="M120 460 L208 460 C241 460 277 454 293 448 L293 527 L81 527 C81 527 40 479 40 436 L40 93 C40 50 40 0 40 0 C54 4 59 7 77 7 C120 7 165 -3 220 -3 C243 -3 273 3 293 8 L293 80 C280 74 249 68 201 68 C174 68 142 72 120 74 L120 247 L161 247 C194 247 227 240 245 235 L259 314 L120 314 L120 460 Z M88 677 C112 666 152 649 210 617 L233 658 C176 692 141 717 119 733 L88 677 Z " />
<glyph glyph-name="Eacute" unicode="&#xc9;" horiz-adv-x="322" d="M120 460 L208 460 C241 460 277 454 293 448 L293 527 L81 527 C81 527 40 479 40 436 L40 93 C40 50 40 0 40 0 C54 4 59 7 77 7 C120 7 165 -3 220 -3 C243 -3 273 3 293 8 L293 80 C280 74 249 68 201 68 C174 68 142 72 120 74 L120 247 L161 247 C194 247 227 240 245 235 L259 314 L120 314 L120 460 Z M111 617 C169 649 209 666 233 677 L202 733 C180 718 145 692 88 658 L111 617 Z " />
<glyph glyph-name="Ecircumflex" unicode="&#xca;" horiz-adv-x="322" d="M120 460 L208 460 C241 460 277 454 293 448 L293 527 L81 527 C81 527 40 479 40 436 L40 93 C40 50 40 0 40 0 C54 4 59 7 77 7 C120 7 165 -3 220 -3 C243 -3 273 3 293 8 L293 80 C280 74 249 68 201 68 C174 68 142 72 120 74 L120 247 L161 247 C194 247 227 240 245 235 L259 314 L120 314 L120 460 Z M89 605 C101 617 120 638 161 672 C201 638 221 617 233 605 L274 657 C255 668 217 691 161 733 C105 691 67 668 48 657 L89 605 Z " />
<glyph glyph-name="Edieresis" unicode="&#xcb;" horiz-adv-x="322" d="M120 460 L208 460 C241 460 277 454 293 448 L293 527 L81 527 C81 527 40 479 40 436 L40 93 C40 50 40 0 40 0 C54 4 59 7 77 7 C120 7 165 -3 220 -3 C243 -3 273 3 293 8 L293 80 C280 74 249 68 201 68 C174 68 142 72 120 74 L120 247 L161 247 C194 247 227 240 245 235 L259 314 L120 314 L120 460 Z M60 685 C60 661 76 643 98 643 C118 643 135 661 135 685 C135 708 118 727 98 727 C76 727 60 708 60 685 L60 685 Z M223 727 C202 727 185 708 185 685 C185 661 202 643 223 643 C244 643 261 661 261 685 C261 708 244 727 223 727 L223 727 Z " />
<glyph glyph-name="Igrave" unicode="&#xcc;" horiz-adv-x="160" d="M120 92 L120 442 L120 528 L28 528 C36 510 40 480 40 437 L40 92 C40 31 40 0 40 0 L133 0 C129 9 120 31 120 92 L120 92 Z M8 677 C32 666 72 649 130 617 L153 658 C96 692 61 717 39 733 L8 677 Z " />
<glyph glyph-name="Iacute" unicode="&#xcd;" horiz-adv-x="160" d="M120 92 L120 442 L120 528 L28 528 C36 510 40 480 40 437 L40 92 C40 31 40 0 40 0 L133 0 C129 9 120 31 120 92 L120 92 Z M31 617 C89 649 129 666 153 677 L122 733 C100 718 65 692 8 658 L31 617 Z " />
<glyph glyph-name="Icircumflex" unicode="&#xce;" horiz-adv-x="160" d="M120 92 L120 442 L120 528 L28 528 C36 510 40 480 40 437 L40 92 C40 31 40 0 40 0 L133 0 C129 9 120 31 120 92 L120 92 Z M8 605 C20 617 39 638 80 672 C120 638 140 617 152 605 L193 657 C174 668 136 691 80 733 C24 691 -14 668 -33 657 L8 605 Z " />
<glyph glyph-name="Idieresis" unicode="&#xcf;" horiz-adv-x="160" d="M120 92 L120 442 L120 528 L28 528 C36 510 40 480 40 437 L40 92 C40 31 40 0 40 0 L133 0 C129 9 120 31 120 92 L120 92 Z M-20 685 C-20 661 -4 643 18 643 C38 643 55 661 55 685 C55 708 38 727 18 727 C-4 727 -20 708 -20 685 L-20 685 Z M143 727 C122 727 105 708 105 685 C105 661 122 643 143 643 C164 643 181 661 181 685 C181 708 164 727 143 727 L143 727 Z " />
<glyph glyph-name="Eth" unicode="&#xd0;" horiz-adv-x="395" d="M108 527 C108 527 50 479 50 436 L50 289 C37 289 26 290 19 291 L19 223 C26 223 37 224 50 224 L50 91 C50 30 50 0 50 0 C62 2 68 4 85 4 C117 4 138 -3 179 -3 C296 -3 357 106 357 264 C357 423 288 532 108 527 L108 527 Z M169 61 C154 61 139 64 131 66 L131 225 C153 225 172 224 184 223 L184 291 C172 289 153 289 131 288 L131 463 L150 463 C195 463 271 426 271 266 C271 106 222 61 169 61 L169 61 Z " />
<glyph glyph-name="Ntilde" unicode="&#xd1;" horiz-adv-x="364" d="M113 352 L230 108 C248 63 242 20 242 0 L324 0 C324 0 324 46 324 89 L324 435 C324 478 324 527 324 527 L239 527 C239 527 250 507 250 435 L250 205 C250 205 136 430 113 527 L27 527 C35 508 40 478 40 435 L40 89 C40 46 40 0 40 0 L125 0 C125 0 113 18 113 89 L113 352 Z M42 649 L77 638 C84 655 99 672 116 672 C150 672 188 628 237 628 C281 628 321 664 321 712 L286 723 C279 704 264 690 248 690 C213 690 176 733 126 733 C82 733 42 695 42 649 L42 649 Z " />
<glyph glyph-name="Ograve" unicode="&#xd2;" horiz-adv-x="398" d="M369 266 C369 425 303 533 199 533 C93 533 28 425 28 266 C28 107 93 -3 199 -3 C303 -3 369 107 369 266 L369 266 Z M283 266 C283 145 254 52 199 52 C143 52 114 145 114 266 C114 386 143 484 199 484 C254 484 283 386 283 266 L283 266 Z M126 677 C150 666 190 649 248 617 L271 658 C214 692 179 717 157 733 L126 677 Z " />
<glyph glyph-name="Oacute" unicode="&#xd3;" horiz-adv-x="399" d="M370 266 C370 425 304 533 200 533 C94 533 29 425 29 266 C29 107 94 -3 200 -3 C304 -3 370 107 370 266 L370 266 Z M284 266 C284 145 255 52 200 52 C144 52 115 145 115 266 C115 386 144 484 200 484 C255 484 284 386 284 266 L284 266 Z M150 617 C208 649 248 666 272 677 L241 733 C219 718 184 692 127 658 L150 617 Z " />
<glyph glyph-name="Ocircumflex" unicode="&#xd4;" horiz-adv-x="399" d="M370 266 C370 425 304 533 200 533 C94 533 29 425 29 266 C29 107 94 -3 200 -3 C304 -3 370 107 370 266 L370 266 Z M284 266 C284 145 255 52 200 52 C144 52 115 145 115 266 C115 386 144 484 200 484 C255 484 284 386 284 266 L284 266 Z M127 605 C139 617 158 638 199 672 C239 638 259 617 271 605 L312 657 C293 668 255 691 199 733 C143 691 105 668 86 657 L127 605 Z " />
<glyph glyph-name="Otilde" unicode="&#xd5;" horiz-adv-x="399" d="M370 266 C370 425 304 533 200 533 C94 533 29 425 29 266 C29 107 94 -3 200 -3 C304 -3 370 107 370 266 L370 266 Z M284 266 C284 145 255 52 200 52 C144 52 115 145 115 266 C115 386 144 484 200 484 C255 484 284 386 284 266 L284 266 Z M60 649 L95 638 C102 655 117 672 134 672 C168 672 206 628 255 628 C299 628 339 664 339 712 L304 723 C297 704 282 690 266 690 C231 690 194 733 144 733 C100 733 60 695 60 649 L60 649 Z " />
<glyph glyph-name="Odieresis" unicode="&#xd6;" horiz-adv-x="399" d="M370 266 C370 425 304 533 200 533 C94 533 29 425 29 266 C29 107 94 -3 200 -3 C304 -3 370 107 370 266 L370 266 Z M284 266 C284 145 255 52 200 52 C144 52 115 145 115 266 C115 386 144 484 200 484 C255 484 284 386 284 266 L284 266 Z M99 685 C99 661 115 643 137 643 C157 643 174 661 174 685 C174 708 157 727 137 727 C115 727 99 708 99 685 L99 685 Z M262 727 C241 727 224 708 224 685 C224 661 241 643 262 643 C283 643 300 661 300 685 C300 708 283 727 262 727 L262 727 Z " />
<glyph glyph-name="Oslash" unicode="&#xd8;" horiz-adv-x="409" d="M339 443 L386 528 L318 528 L299 495 C273 521 242 534 205 534 C99 534 34 425 34 265 C34 195 48 134 71 87 L23 1 L91 1 L110 35 C136 11 168 -3 205 -3 C309 -3 375 107 375 265 C375 337 363 398 339 443 L339 443 Z M125 184 C122 208 120 236 120 265 C120 387 150 480 205 480 C228 480 247 452 261 426 L125 184 Z M283 346 C287 322 289 295 289 265 C289 144 261 55 205 55 C181 55 163 80 150 104 L283 346 Z " />
<glyph glyph-name="Ugrave" unicode="&#xd9;" horiz-adv-x="364" d="M324 205 L324 436 C324 479 328 510 336 527 L231 527 C240 510 244 479 244 436 L244 214 C244 138 234 66 182 66 C129 66 120 138 120 214 L120 436 C120 479 124 510 132 527 L27 527 C36 510 40 479 40 436 L40 205 C40 110 59 -3 182 -3 C305 -3 324 110 324 205 L324 205 Z M109 677 C133 666 173 649 231 617 L254 658 C197 692 162 717 140 733 L109 677 Z " />
<glyph glyph-name="Uacute" unicode="&#xda;" horiz-adv-x="364" d="M324 205 L324 436 C324 479 328 510 336 527 L231 527 C240 510 244 479 244 436 L244 214 C244 138 234 66 182 66 C129 66 120 138 120 214 L120 436 C120 479 124 510 132 527 L27 527 C36 510 40 479 40 436 L40 205 C40 110 59 -3 182 -3 C305 -3 324 110 324 205 L324 205 Z M132 617 C190 649 230 666 254 677 L223 733 C201 718 166 692 109 658 L132 617 Z " />
<glyph glyph-name="Ucircumflex" unicode="&#xdb;" horiz-adv-x="364" d="M324 205 L324 436 C324 479 328 510 336 527 L231 527 C240 510 244 479 244 436 L244 214 C244 138 234 66 182 66 C129 66 120 138 120 214 L120 436 C120 479 124 510 132 527 L27 527 C36 510 40 479 40 436 L40 205 C40 110 59 -3 182 -3 C305 -3 324 110 324 205 L324 205 Z M110 605 C122 617 141 638 182 672 C222 638 242 617 254 605 L295 657 C276 668 238 691 182 733 C126 691 88 668 69 657 L110 605 Z " />
<glyph glyph-name="Udieresis" unicode="&#xdc;" horiz-adv-x="364" d="M324 205 L324 436 C324 479 328 510 336 527 L231 527 C240 510 244 479 244 436 L244 214 C244 138 234 66 182 66 C129 66 120 138 120 214 L120 436 C120 479 124 510 132 527 L27 527 C36 510 40 479 40 436 L40 205 C40 110 59 -3 182 -3 C305 -3 324 110 324 205 L324 205 Z M81 685 C81 661 97 643 119 643 C139 643 156 661 156 685 C156 708 139 727 119 727 C97 727 81 708 81 685 L81 685 Z M244 727 C223 727 206 708 206 685 C206 661 223 643 244 643 C265 643 282 661 282 685 C282 708 265 727 244 727 L244 727 Z " />
<glyph glyph-name="Yacute" unicode="&#xdd;" horiz-adv-x="370" d="M111 527 L2 527 C19 505 35 475 52 436 L145 223 L145 0 C185 8 225 0 225 0 C225 0 225 29 225 223 L318 436 C335 475 352 505 367 527 L259 527 C259 507 251 475 236 436 L185 310 L134 436 C118 475 110 507 111 527 L111 527 Z M135 617 C193 649 233 666 257 677 L226 733 C204 718 169 692 112 658 L135 617 Z " />
<glyph glyph-name="germandbls" unicode="&#xdf;" horiz-adv-x="395" d="M118 0 C118 0 118 41 118 91 L118 387 C118 435 147 469 185 469 C220 469 243 443 243 410 C243 354 173 347 173 273 C173 164 317 168 317 98 C317 75 298 57 270 57 C229 57 191 72 170 97 L169 -3 C195 9 223 -3 268 -3 C341 -3 386 42 386 106 C386 225 237 220 237 274 C237 312 317 326 317 410 C317 489 255 533 185 533 C115 533 40 484 40 380 L40 91 C40 41 35 14 28 0 L118 0 L118 0 Z " />
<glyph glyph-name="agrave" unicode="&#xe0;" horiz-adv-x="329" d="M211 18 L301 1 C295 15 289 41 289 92 L289 362 L224 335 C210 352 184 370 150 370 C71 370 18 286 18 185 C18 84 61 -3 139 -3 C173 -3 195 14 211 36 L211 18 Z M211 150 C211 102 186 54 156 54 C122 54 97 113 97 189 C97 265 122 314 156 314 C188 314 211 265 211 226 L211 150 Z M92 477 C116 466 156 449 214 417 L237 458 C180 492 145 517 123 533 L92 477 Z " />
<glyph glyph-name="aacute" unicode="&#xe1;" horiz-adv-x="329" d="M211 18 L301 1 C295 15 289 41 289 92 L289 362 L224 335 C210 352 184 370 150 370 C71 370 18 286 18 185 C18 84 61 -3 139 -3 C173 -3 195 14 211 36 L211 18 Z M211 150 C211 102 186 54 156 54 C122 54 97 113 97 189 C97 265 122 314 156 314 C188 314 211 265 211 226 L211 150 Z M115 417 C173 449 213 466 237 477 L206 533 C184 518 149 492 92 458 L115 417 Z " />
<glyph glyph-name="acircumflex" unicode="&#xe2;" horiz-adv-x="329" d="M211 18 L301 1 C295 15 289 41 289 92 L289 362 L224 335 C210 352 184 370 150 370 C71 370 18 286 18 185 C18 84 61 -3 139 -3 C173 -3 195 14 211 36 L211 18 Z M211 150 C211 102 186 54 156 54 C122 54 97 113 97 189 C97 265 122 314 156 314 C188 314 211 265 211 226 L211 150 Z M92 405 C104 417 123 438 164 472 C204 438 224 417 236 405 L277 457 C258 468 220 491 164 533 C108 491 70 468 51 457 L92 405 Z " />
<glyph glyph-name="atilde" unicode="&#xe3;" horiz-adv-x="329" d="M211 18 L301 1 C295 15 289 41 289 92 L289 362 L224 335 C210 352 184 370 150 370 C71 370 18 286 18 185 C18 84 61 -3 139 -3 C173 -3 195 14 211 36 L211 18 Z M211 150 C211 102 186 54 156 54 C122 54 97 113 97 189 C97 265 122 314 156 314 C188 314 211 265 211 226 L211 150 Z M25 449 L60 438 C67 455 82 472 99 472 C133 472 171 428 220 428 C264 428 304 464 304 512 L269 523 C262 504 247 490 231 490 C196 490 159 533 109 533 C65 533 25 495 25 449 L25 449 Z " />
<glyph glyph-name="adieresis" unicode="&#xe4;" horiz-adv-x="329" d="M211 18 L301 1 C295 15 289 41 289 92 L289 362 L224 335 C210 352 184 370 150 370 C71 370 18 286 18 185 C18 84 61 -3 139 -3 C173 -3 195 14 211 36 L211 18 Z M211 150 C211 102 186 54 156 54 C122 54 97 113 97 189 C97 265 122 314 156 314 C188 314 211 265 211 226 L211 150 Z M64 485 C64 461 80 443 102 443 C122 443 139 461 139 485 C139 508 122 527 102 527 C80 527 64 508 64 485 L64 485 Z M227 527 C206 527 189 508 189 485 C189 461 206 443 227 443 C248 443 265 461 265 485 C265 508 248 527 227 527 L227 527 Z " />
<glyph glyph-name="aring" unicode="&#xe5;" horiz-adv-x="329" d="M211 18 L301 1 C295 15 289 41 289 92 L289 362 L224 335 C210 352 184 370 150 370 C71 370 18 286 18 185 C18 84 61 -3 139 -3 C173 -3 195 14 211 36 L211 18 Z M211 150 C211 102 186 54 156 54 C122 54 97 113 97 189 C97 265 122 314 156 314 C188 314 211 265 211 226 L211 150 Z M250 447 C250 494 211 533 164 533 C116 533 78 494 78 447 C78 398 116 360 164 360 C211 360 250 398 250 447 L250 447 Z M215 447 C215 418 193 395 164 395 C136 395 113 418 113 447 C113 475 136 497 164 497 C193 497 215 475 215 447 L215 447 Z " />
<glyph glyph-name="ae" unicode="&#xe6;" horiz-adv-x="497" d="M367 60 C325 60 294 90 287 150 C287 150 404 156 479 150 L482 183 C482 299 425 368 358 368 C321 368 292 347 278 335 L278 371 L219 335 C205 351 178 368 144 368 C65 368 12 284 12 184 C12 83 55 -4 133 -4 C167 -4 190 13 205 34 L205 19 L278 0 L278 32 C297 12 328 -4 367 -4 C406 -4 436 10 456 24 L456 102 C442 77 400 60 367 60 L367 60 Z M205 225 L205 149 C205 100 180 52 152 52 C117 52 91 112 91 188 C91 264 117 313 152 313 C183 313 205 264 205 225 L205 225 Z M347 313 C373 313 400 275 401 210 L286 210 C290 271 314 313 347 313 L347 313 Z " />
<glyph glyph-name="ccedilla" unicode="&#xe7;" horiz-adv-x="282" d="M250 8 L250 103 C234 79 211 61 179 61 C131 61 99 109 99 184 C99 261 137 306 182 306 C210 306 216 288 218 273 L246 354 C246 354 219 369 172 369 C80 369 20 291 20 184 C20 77 80 -3 175 -3 C217 -3 240 19 250 8 L250 8 Z M248 -90 C248 -49 217 -26 189 -25 L189 0 L152 0 L152 -52 C158 -50 162 -49 166 -49 C187 -49 204 -63 204 -88 C204 -113 189 -126 173 -126 C160 -126 149 -116 143 -104 L123 -133 C132 -147 151 -161 178 -161 C210 -161 248 -135 248 -90 L248 -90 Z " />
<glyph glyph-name="egrave" unicode="&#xe8;" horiz-adv-x="319" d="M22 183 C22 76 78 -3 184 -3 C223 -3 253 9 273 24 L273 102 C258 78 217 61 184 61 C143 61 111 90 104 150 C104 150 230 156 294 150 L299 183 C299 294 251 369 163 369 C76 369 22 289 22 183 L22 183 Z M218 210 L103 210 C108 271 131 313 163 313 C189 313 217 275 218 210 L218 210 Z M87 477 C111 466 151 449 209 417 L232 458 C175 492 140 517 118 533 L87 477 Z " />
<glyph glyph-name="eacute" unicode="&#xe9;" horiz-adv-x="319" d="M22 183 C22 76 78 -3 184 -3 C223 -3 253 9 273 24 L273 102 C258 78 217 61 184 61 C143 61 111 90 104 150 C104 150 230 156 294 150 L299 183 C299 294 251 369 163 369 C76 369 22 289 22 183 L22 183 Z M218 210 L103 210 C108 271 131 313 163 313 C189 313 217 275 218 210 L218 210 Z M110 417 C168 449 208 466 232 477 L201 533 C179 518 144 492 87 458 L110 417 Z " />
<glyph glyph-name="ecircumflex" unicode="&#xea;" horiz-adv-x="319" d="M22 183 C22 76 78 -3 184 -3 C223 -3 253 9 273 24 L273 102 C258 78 217 61 184 61 C143 61 111 90 104 150 C104 150 230 156 294 150 L299 183 C299 294 251 369 163 369 C76 369 22 289 22 183 L22 183 Z M218 210 L103 210 C108 271 131 313 163 313 C189 313 217 275 218 210 L218 210 Z M87 405 C99 417 118 438 159 472 C199 438 219 417 231 405 L272 457 C253 468 215 491 159 533 C103 491 65 468 46 457 L87 405 Z " />
<glyph glyph-name="edieresis" unicode="&#xeb;" horiz-adv-x="319" d="M22 183 C22 76 78 -3 184 -3 C223 -3 253 9 273 24 L273 102 C258 78 217 61 184 61 C143 61 111 90 104 150 C104 150 230 156 294 150 L299 183 C299 294 251 369 163 369 C76 369 22 289 22 183 L22 183 Z M218 210 L103 210 C108 271 131 313 163 313 C189 313 217 275 218 210 L218 210 Z M59 485 C59 461 75 443 97 443 C117 443 134 461 134 485 C134 508 117 527 97 527 C75 527 59 508 59 485 L59 485 Z M222 527 C201 527 184 508 184 485 C184 461 201 443 222 443 C243 443 260 461 260 485 C260 508 243 527 222 527 L222 527 Z " />
<glyph glyph-name="igrave" unicode="&#xec;" horiz-adv-x="161" d="M121 91 L121 370 C81 340 30 336 30 336 C36 325 43 303 43 245 L43 91 C43 41 43 0 43 0 L133 0 C126 13 121 41 121 91 L121 91 Z M8 477 C32 466 72 449 130 417 L153 458 C96 492 61 517 39 533 L8 477 Z " />
<glyph glyph-name="iacute" unicode="&#xed;" horiz-adv-x="161" d="M121 91 L121 370 C81 340 30 336 30 336 C36 325 43 303 43 245 L43 91 C43 41 43 0 43 0 L133 0 C126 13 121 41 121 91 L121 91 Z M31 417 C89 449 129 466 153 477 L122 533 C100 518 65 492 8 458 L31 417 Z " />
<glyph glyph-name="icircumflex" unicode="&#xee;" horiz-adv-x="161" d="M121 91 L121 370 C81 340 30 336 30 336 C36 325 43 303 43 245 L43 91 C43 41 43 0 43 0 L133 0 C126 13 121 41 121 91 L121 91 Z M9 405 C21 417 40 438 81 472 C121 438 141 417 153 405 L194 457 C175 468 137 491 81 533 C25 491 -13 468 -32 457 L9 405 Z " />
<glyph glyph-name="idieresis" unicode="&#xef;" horiz-adv-x="161" d="M121 91 L121 370 C81 340 30 336 30 336 C36 325 43 303 43 245 L43 91 C43 41 43 0 43 0 L133 0 C126 13 121 41 121 91 L121 91 Z M-20 485 C-20 461 -4 443 18 443 C38 443 55 461 55 485 C55 508 38 527 18 527 C-4 527 -20 508 -20 485 L-20 485 Z M143 527 C122 527 105 508 105 485 C105 461 122 443 143 443 C164 443 181 461 181 485 C181 508 164 527 143 527 L143 527 Z " />
<glyph glyph-name="ntilde" unicode="&#xf1;" horiz-adv-x="335" d="M230 0 L320 0 C314 13 308 41 308 91 L308 221 C308 321 260 369 205 369 C170 369 139 349 121 323 L121 370 C79 345 32 336 32 336 C36 325 43 303 43 245 L43 91 C43 41 38 13 32 0 L121 0 C121 0 121 41 121 91 L121 215 C121 264 146 305 182 305 C215 305 230 270 230 222 L230 0 Z M28 449 L63 438 C70 455 85 472 102 472 C136 472 174 428 223 428 C267 428 307 464 307 512 L272 523 C265 504 250 490 234 490 C199 490 162 533 112 533 C68 533 28 495 28 449 L28 449 Z " />
<glyph glyph-name="ograve" unicode="&#xf2;" horiz-adv-x="304" d="M152 -3 C233 -3 293 71 293 183 C293 294 233 369 152 369 C71 369 11 294 11 183 C11 71 71 -3 152 -3 L152 -3 Z M152 324 C192 324 214 256 214 183 C214 110 192 42 152 42 C113 42 91 110 91 183 C91 256 113 324 152 324 L152 324 Z M79 477 C103 466 143 449 201 417 L224 458 C167 492 132 517 110 533 L79 477 Z " />
<glyph glyph-name="oacute" unicode="&#xf3;" horiz-adv-x="304" d="M152 -3 C233 -3 293 71 293 183 C293 294 233 369 152 369 C71 369 11 294 11 183 C11 71 71 -3 152 -3 L152 -3 Z M152 324 C192 324 214 256 214 183 C214 110 192 42 152 42 C113 42 91 110 91 183 C91 256 113 324 152 324 L152 324 Z M102 417 C160 449 200 466 224 477 L193 533 C171 518 136 492 79 458 L102 417 Z " />
<glyph glyph-name="ocircumflex" unicode="&#xf4;" horiz-adv-x="304" d="M152 -3 C233 -3 293 71 293 183 C293 294 233 369 152 369 C71 369 11 294 11 183 C11 71 71 -3 152 -3 L152 -3 Z M152 324 C192 324 214 256 214 183 C214 110 192 42 152 42 C113 42 91 110 91 183 C91 256 113 324 152 324 L152 324 Z M80 405 C92 417 111 438 152 472 C192 438 212 417 224 405 L265 457 C246 468 208 491 152 533 C96 491 58 468 39 457 L80 405 Z " />
<glyph glyph-name="otilde" unicode="&#xf5;" horiz-adv-x="304" d="M152 -3 C233 -3 293 71 293 183 C293 294 233 369 152 369 C71 369 11 294 11 183 C11 71 71 -3 152 -3 L152 -3 Z M152 324 C192 324 214 256 214 183 C214 110 192 42 152 42 C113 42 91 110 91 183 C91 256 113 324 152 324 L152 324 Z M13 449 L48 438 C55 455 70 472 87 472 C121 472 159 428 208 428 C252 428 292 464 292 512 L257 523 C250 504 235 490 219 490 C184 490 147 533 97 533 C53 533 13 495 13 449 L13 449 Z " />
<glyph glyph-name="odieresis" unicode="&#xf6;" horiz-adv-x="304" d="M152 -3 C233 -3 293 71 293 183 C293 294 233 369 152 369 C71 369 11 294 11 183 C11 71 71 -3 152 -3 L152 -3 Z M152 324 C192 324 214 256 214 183 C214 110 192 42 152 42 C113 42 91 110 91 183 C91 256 113 324 152 324 L152 324 Z M51 485 C51 461 67 443 89 443 C109 443 126 461 126 485 C126 508 109 527 89 527 C67 527 51 508 51 485 L51 485 Z M214 527 C193 527 176 508 176 485 C176 461 193 443 214 443 C235 443 252 461 252 485 C252 508 235 527 214 527 L214 527 Z " />
<glyph glyph-name="oslash" unicode="&#xf8;" horiz-adv-x="306" d="M294 184 C294 236 281 279 259 312 L292 365 L233 365 L223 348 C202 362 179 370 153 370 C71 370 12 295 12 184 C12 134 24 91 45 60 L10 1 L69 1 L80 21 C102 7 126 -3 153 -3 C235 -3 294 73 294 184 L294 184 Z M94 139 C92 153 91 168 91 184 C91 260 114 315 153 315 C166 315 179 305 188 293 L94 139 Z M215 184 C215 108 192 50 153 50 C138 50 125 65 116 77 L211 233 C213 219 215 202 215 184 L215 184 Z " />
<glyph glyph-name="ugrave" unicode="&#xf9;" horiz-adv-x="348" d="M230 36 L308 1 C308 1 308 42 308 92 L308 371 C269 342 230 337 230 337 C230 337 230 304 230 246 L230 150 C230 102 211 62 176 62 C140 62 121 102 121 150 L121 280 C121 332 128 360 134 371 L32 332 C41 313 43 276 43 242 L43 152 C43 51 84 -3 151 -3 C184 -3 213 13 230 36 L230 36 Z M101 477 C125 466 165 449 223 417 L246 458 C189 492 154 517 132 533 L101 477 Z " />
<glyph glyph-name="uacute" unicode="&#xfa;" horiz-adv-x="348" d="M230 36 L308 1 C308 1 308 42 308 92 L308 371 C269 342 230 337 230 337 C230 337 230 304 230 246 L230 150 C230 102 211 62 176 62 C140 62 121 102 121 150 L121 280 C121 332 128 360 134 371 L32 332 C41 313 43 276 43 242 L43 152 C43 51 84 -3 151 -3 C184 -3 213 13 230 36 L230 36 Z M124 417 C182 449 222 466 246 477 L215 533 C193 518 158 492 101 458 L124 417 Z " />
<glyph glyph-name="ucircumflex" unicode="&#xfb;" horiz-adv-x="348" d="M230 36 L308 1 C308 1 308 42 308 92 L308 371 C269 342 230 337 230 337 C230 337 230 304 230 246 L230 150 C230 102 211 62 176 62 C140 62 121 102 121 150 L121 280 C121 332 128 360 134 371 L32 332 C41 313 43 276 43 242 L43 152 C43 51 84 -3 151 -3 C184 -3 213 13 230 36 L230 36 Z M102 405 C114 417 133 438 174 472 C214 438 234 417 246 405 L287 457 C268 468 230 491 174 533 C118 491 80 468 61 457 L102 405 Z " />
<glyph glyph-name="udieresis" unicode="&#xfc;" horiz-adv-x="348" d="M230 36 L308 1 C308 1 308 42 308 92 L308 371 C269 342 230 337 230 337 C230 337 230 304 230 246 L230 150 C230 102 211 62 176 62 C140 62 121 102 121 150 L121 280 C121 332 128 360 134 371 L32 332 C41 313 43 276 43 242 L43 152 C43 51 84 -3 151 -3 C184 -3 213 13 230 36 L230 36 Z M73 485 C73 461 89 443 111 443 C131 443 148 461 148 485 C148 508 131 527 111 527 C89 527 73 508 73 485 L73 485 Z M236 527 C215 527 198 508 198 485 C198 461 215 443 236 443 C257 443 274 461 274 485 C274 508 257 527 236 527 L236 527 Z " />
<glyph glyph-name="yacute" unicode="&#xfd;" horiz-adv-x="323" d="M99 364 L14 364 C23 351 34 321 48 273 L99 91 C110 50 116 23 116 9 C116 -33 94 -67 63 -67 C39 -67 26 -57 16 -48 L16 -111 C27 -119 47 -128 75 -128 C165 -128 187 -35 224 91 L276 273 C289 321 300 351 310 364 L223 364 C223 364 215 329 203 273 L162 102 L122 273 C111 319 99 364 99 364 L99 364 Z M112 417 C170 449 210 466 234 477 L203 533 C181 518 146 492 89 458 L112 417 Z " />
<glyph glyph-name="ydieresis" unicode="&#xff;" horiz-adv-x="323" d="M99 364 L14 364 C23 351 34 321 48 273 L99 91 C110 50 116 23 116 9 C116 -33 94 -67 63 -67 C39 -67 26 -57 16 -48 L16 -111 C27 -119 47 -128 75 -128 C165 -128 187 -35 224 91 L276 273 C289 321 300 351 310 364 L223 364 C223 364 215 329 203 273 L162 102 L122 273 C111 319 99 364 99 364 L99 364 Z M61 485 C61 461 77 443 99 443 C119 443 136 461 136 485 C136 508 119 527 99 527 C77 527 61 508 61 485 L61 485 Z M224 527 C203 527 186 508 186 485 C186 461 203 443 224 443 C245 443 262 461 262 485 C262 508 245 527 224 527 L224 527 Z " />
<glyph glyph-name="Lslash" unicode="&#x141;" horiz-adv-x="328" d="M314 80 C300 74 269 69 220 69 C195 69 162 72 141 74 L141 249 L233 290 L233 359 L141 316 L141 437 C141 480 141 527 141 527 L48 527 C56 511 60 480 60 437 L60 280 L13 259 L13 192 L60 212 L60 93 C60 50 60 0 60 0 C72 4 79 7 98 7 C141 7 186 -3 240 -3 C262 -3 295 0 314 5 L314 80 L314 80 Z " />
<glyph glyph-name="lslash" unicode="&#x142;" horiz-adv-x="274" d="M163 258 L234 290 L234 359 L163 326 L163 529 C125 502 74 494 74 494 C78 484 85 461 85 403 L85 291 L15 259 L15 192 L85 223 L85 91 C85 41 80 14 74 0 L163 0 C163 0 163 41 163 91 L163 258 L163 258 Z " />
<glyph glyph-name="OE" unicode="&#x152;" horiz-adv-x="608" d="M490 463 C522 463 558 457 575 451 L575 527 L363 527 C363 527 338 502 327 469 C298 509 258 533 210 533 C105 533 39 424 39 265 C39 106 105 -3 210 -3 C254 -3 291 16 320 51 L320 7 C332 9 340 10 359 10 C401 10 447 -1 502 -1 C524 -1 555 2 575 7 L575 83 C562 76 530 71 482 71 C456 71 424 75 402 77 L402 249 L443 249 C476 249 509 243 527 238 L541 317 L402 317 L402 463 L490 463 L490 463 Z M210 53 C154 53 125 144 125 265 C125 385 154 479 210 479 C265 479 294 385 294 265 C294 144 265 53 210 53 L210 53 Z " />
<glyph glyph-name="oe" unicode="&#x153;" horiz-adv-x="509" d="M378 -3 C417 -3 448 10 467 24 L467 102 C452 77 411 60 378 60 C337 60 304 90 297 150 C297 150 421 157 489 147 L494 183 C494 294 445 368 357 368 C313 368 279 347 257 312 C232 348 195 369 152 369 C71 369 11 294 11 183 C11 71 71 -3 152 -3 C195 -3 233 19 258 55 C282 19 322 -3 378 -3 L378 -3 Z M152 322 C192 322 214 256 214 183 C214 109 192 43 152 43 C112 43 90 109 90 183 C90 256 112 322 152 322 L152 322 Z M412 210 L296 210 C302 271 325 312 357 312 C384 312 412 275 412 210 L412 210 Z " />
<glyph glyph-name="Scaron" unicode="&#x160;" horiz-adv-x="322" d="M25 48 C36 37 65 -3 146 -3 C254 -3 300 78 300 146 C300 318 95 314 95 407 C95 439 121 464 161 464 C210 464 238 433 259 406 L259 520 C259 520 244 520 238 520 C216 520 201 534 152 534 C82 534 19 485 19 405 C19 251 224 255 224 139 C224 95 192 68 148 68 C86 68 46 102 25 130 L25 48 Z M233 733 C221 721 201 701 161 667 C120 701 101 721 88 733 L48 682 C67 671 105 647 161 605 C217 647 255 671 274 682 L233 733 Z " />
<glyph glyph-name="scaron" unicode="&#x161;" horiz-adv-x="268" d="M38 124 L38 31 C58 13 94 -3 138 -3 C211 -3 256 43 256 107 C256 225 105 222 105 276 C105 298 122 311 148 311 C183 311 211 285 228 257 L228 351 C228 351 185 370 140 370 C80 370 37 333 37 274 C37 162 187 165 187 98 C187 75 169 57 140 57 C98 57 59 90 38 124 L38 124 Z M206 533 C194 521 174 501 134 467 C93 501 74 521 61 533 L21 482 C40 471 78 447 134 405 C190 447 228 471 247 482 L206 533 Z " />
<glyph glyph-name="Ydieresis" unicode="&#x178;" horiz-adv-x="378" d="M115 527 L6 527 C23 505 39 475 56 436 L149 223 L149 0 C189 8 229 0 229 0 C229 0 229 29 229 223 L322 436 C339 475 356 505 371 527 L263 527 C263 507 255 475 240 436 L189 310 L138 436 C122 475 114 507 115 527 L115 527 Z M88 685 C88 661 104 643 126 643 C146 643 163 661 163 685 C163 708 146 727 126 727 C104 727 88 708 88 685 L88 685 Z M251 727 C230 727 213 708 213 685 C213 661 230 643 251 643 C272 643 289 661 289 685 C289 708 272 727 251 727 L251 727 Z " />
<glyph glyph-name="Zcaron" unicode="&#x17d;" horiz-adv-x="335" d="M20 527 L20 449 C37 457 73 461 111 461 L195 461 L8 0 C57 5 118 1 231 -3 C255 -4 289 -1 311 5 L311 80 C287 70 258 66 216 66 C187 65 149 71 126 74 L315 527 L20 527 Z M239 733 C227 721 207 701 167 667 C126 701 107 721 94 733 L54 682 C73 671 111 647 167 605 C223 647 261 671 280 682 L239 733 Z " />
<glyph glyph-name="zcaron" unicode="&#x17e;" horiz-adv-x="291" d="M124 305 L163 305 L31 0 C46 3 63 5 78 5 C109 4 155 -4 198 -4 C220 -4 243 -4 261 1 L270 67 C254 58 224 55 193 55 C170 55 152 58 137 60 L269 364 L48 364 L39 294 C55 302 90 305 124 305 L124 305 Z M218 533 C206 521 186 501 146 467 C105 501 86 521 73 533 L33 482 C52 471 90 447 146 405 C202 447 240 471 259 482 L218 533 Z " />
<glyph glyph-name="florin" unicode="&#x192;" horiz-adv-x="330" d="M186 396 C193 438 218 474 251 474 C275 474 283 465 294 456 L305 524 C304 524 302 524 300 524 C288 524 274 533 248 533 C191 533 124 489 106 381 L103 365 L97 326 L53 318 L42 255 L87 268 L58 93 C35 -40 25 -72 19 -83 L109 -83 C109 -83 116 -26 136 93 L168 283 C168 283 217 294 230 282 L242 354 L177 342 L181 365 L186 396 L186 396 Z " />
<glyph glyph-name="circumflex" unicode="&#x2c6;" horiz-adv-x="296" d="M78 405 C90 417 109 438 150 472 C190 438 210 417 222 405 L263 457 C244 468 206 491 150 533 C94 491 56 468 37 457 L78 405 L78 405 Z " />
<glyph glyph-name="caron" unicode="&#x2c7;" horiz-adv-x="286" d="M218 533 C206 521 186 501 146 467 C105 501 86 521 73 533 L33 482 C52 471 90 447 146 405 C202 447 240 471 259 482 L218 533 L218 533 Z " />
<glyph glyph-name="ring" unicode="&#x2da;" horiz-adv-x="233" d="M204 447 C204 494 165 533 118 533 C70 533 32 494 32 447 C32 398 70 360 118 360 C165 360 204 398 204 447 L204 447 Z M169 447 C169 418 147 395 118 395 C90 395 67 418 67 447 C67 475 90 497 118 497 C147 497 169 475 169 447 L169 447 Z " />
<glyph glyph-name="ogonek" unicode="&#x2db;" horiz-adv-x="157" d="M86 -144 C137 -144 150 -97 149 -83 C144 -88 120 -109 100 -109 C77 -109 58 -92 58 -62 C58 -42 80 -11 86 0 L48 0 C34 -14 14 -39 14 -72 C14 -117 47 -144 86 -144 L86 -144 Z " />
<glyph glyph-name="tilde" unicode="&#x2dc;" horiz-adv-x="343" d="M30 449 L65 438 C72 455 87 472 104 472 C138 472 176 428 225 428 C269 428 309 464 309 512 L274 523 C267 504 252 490 236 490 C201 490 164 533 114 533 C70 533 30 495 30 449 L30 449 Z " />
<glyph glyph-name="quoteleft" unicode="&#x2018;" horiz-adv-x="113" d="M11 425 C11 388 32 366 56 366 C79 366 98 386 98 412 C98 438 78 461 55 460 C58 469 62 476 68 484 C75 493 82 499 91 502 L71 533 C44 518 11 483 11 425 L11 425 Z " />
<glyph glyph-name="quoteright" unicode="&#x2019;" horiz-adv-x="147" d="M116 474 C116 511 95 533 71 533 C48 533 29 512 29 487 C29 460 48 438 73 439 C68 418 44 399 36 397 L56 366 C83 381 116 415 116 474 L116 474 Z " />
<glyph glyph-name="quotedblleft" unicode="&#x201c;" horiz-adv-x="226" d="M58 366 C81 366 99 386 99 412 C99 438 79 461 57 460 C59 469 64 476 69 484 C76 493 84 499 93 502 L72 533 C46 518 12 483 12 425 C12 388 34 366 58 366 L58 366 Z M216 412 C216 438 195 461 172 460 C174 469 179 476 185 484 C192 493 200 499 209 502 L188 533 C161 518 128 483 128 425 C128 388 150 366 174 366 C197 366 216 386 216 412 L216 412 Z " />
<glyph glyph-name="quotedblright" unicode="&#x201d;" horiz-adv-x="247" d="M17 487 L17 487 C17 460 37 438 61 439 C56 419 33 399 24 397 L44 366 C71 381 104 415 104 474 C104 511 83 533 59 533 C36 533 17 512 17 487 L17 487 Z M175 533 C151 533 133 512 133 487 C133 460 152 438 176 439 C171 419 149 399 140 397 L159 366 C187 381 220 415 220 474 C220 511 199 533 175 533 L175 533 Z " />
<glyph glyph-name="dagger" unicode="&#x2020;" horiz-adv-x="316" d="M196 395 C245 395 273 395 286 393 L286 474 C273 473 245 471 196 471 L196 529 C196 578 199 620 199 620 C158 615 117 620 117 620 C119 608 120 578 120 529 L120 471 C72 471 43 473 30 474 L30 393 C43 395 72 395 120 395 L120 91 C120 42 119 13 117 0 C117 0 158 4 199 0 C199 0 196 42 196 91 L196 395 L196 395 Z " />
<glyph glyph-name="daggerdbl" unicode="&#x2021;" horiz-adv-x="317" d="M197 395 C246 395 274 395 286 393 L286 474 C274 473 246 471 197 471 L197 529 C197 578 199 620 199 620 C158 617 118 620 118 620 C120 608 120 578 120 529 L120 471 C72 471 44 473 31 474 L31 393 C44 395 72 395 120 395 L120 224 C72 224 44 225 31 226 L31 145 C44 146 72 148 120 148 L120 91 C120 42 118 0 118 0 C158 4 199 0 199 0 C198 13 197 42 197 91 L197 148 C246 148 274 146 286 145 L286 226 C274 225 246 224 197 224 L197 395 L197 395 Z " />
<glyph glyph-name="bullet" unicode="&#x2022;" horiz-adv-x="205" d="M102 239 C137 239 165 267 165 302 C165 336 137 364 102 364 C68 364 40 336 40 302 C40 267 68 239 102 239 L102 239 Z " />
<glyph glyph-name="ellipsis" unicode="&#x2026;" horiz-adv-x="366" d="M62 -3 C85 -3 104 20 104 45 C104 71 85 92 62 92 C38 92 20 71 20 45 C20 20 38 -3 62 -3 L62 -3 Z M184 -3 C207 -3 226 20 226 45 C226 71 207 92 184 92 C160 92 142 71 142 45 C142 20 160 -3 184 -3 L184 -3 Z M306 -3 C329 -3 348 20 348 45 C348 71 329 92 306 92 C282 92 264 71 264 45 C264 20 282 -3 306 -3 L306 -3 Z " />
<glyph glyph-name="perthousand" unicode="&#x2030;" horiz-adv-x="828" d="M131 215 C194 215 233 281 233 374 C233 469 194 534 131 534 C69 534 30 469 30 374 C30 281 69 215 131 215 L131 215 Z M164 374 C164 310 152 251 131 251 C111 251 99 310 99 374 C99 440 111 498 131 498 C152 498 164 440 164 374 L164 374 Z M274 92 L392 437 C409 488 426 529 426 529 C384 521 345 529 345 529 C341 514 331 481 316 437 L198 92 C181 44 172 18 164 1 C164 1 207 8 245 1 C245 1 260 49 274 92 L274 92 Z M559 157 C559 251 521 315 458 315 C395 315 357 251 357 157 C357 63 395 -3 458 -3 C521 -3 559 63 559 157 L559 157 Z M490 157 C490 92 479 33 458 33 C438 33 426 92 426 157 C426 220 438 280 458 280 C479 280 490 220 490 157 L490 157 Z M801 157 C801 251 762 315 700 315 C637 315 599 251 599 157 C599 63 637 -3 700 -3 C762 -3 801 63 801 157 L801 157 Z M731 157 C731 92 720 34 700 34 C679 34 668 92 668 157 C668 220 679 280 700 280 C720 280 731 220 731 157 L731 157 Z " />
<glyph glyph-name="guilsinglleft" unicode="&#x2039;" horiz-adv-x="207" d="M100 364 L23 225 L100 87 L177 87 C169 98 148 130 136 153 L95 225 L136 298 C148 321 169 353 177 364 L100 364 L100 364 Z " />
<glyph glyph-name="guilsinglright" unicode="&#x203a;" horiz-adv-x="207" d="M106 87 L184 225 L106 364 L29 364 C37 353 58 321 71 298 L112 225 L71 153 C58 130 37 99 29 87 L106 87 L106 87 Z " />
<glyph glyph-name="Euro" unicode="&#x20ac;" horiz-adv-x="401" d="M186 353 C203 423 241 465 288 465 C345 465 373 436 373 436 L373 521 C369 521 366 521 364 521 C341 521 320 533 281 533 C189 533 122 463 99 353 L53 353 L38 290 L91 290 C90 282 90 274 90 265 C90 257 90 248 91 241 L53 241 L38 178 L98 178 C120 68 183 -3 279 -3 C312 -3 349 7 373 22 L373 96 C373 96 338 66 284 66 C236 66 200 108 185 178 L279 178 L294 241 L177 241 C176 248 176 257 176 265 C176 274 176 282 177 290 L279 290 L294 353 L186 353 L186 353 Z " />
<glyph glyph-name="trademark" unicode="&#x2122;" horiz-adv-x="493" d="M197 475 L197 527 L16 527 L16 475 C28 480 47 482 68 482 L80 482 L80 299 C80 278 80 252 80 252 L131 252 C131 252 131 278 131 299 L131 482 L144 482 C165 482 185 480 197 475 L197 475 Z M453 479 C453 501 455 517 460 527 L405 527 L340 389 L277 527 L221 527 C225 517 227 501 227 479 L227 299 C227 278 227 252 227 252 L282 252 C278 259 277 278 277 299 L277 406 L340 274 L405 406 L405 299 C405 278 403 259 398 252 L453 252 C453 252 453 278 453 299 L453 479 Z " />
<glyph glyph-name="f_f" unicode="&#xfb00;" horiz-adv-x="423" d="M321 394 C321 436 339 472 372 472 C396 472 406 464 418 455 L418 523 C417 522 415 522 413 522 C401 522 385 532 359 532 C302 532 243 487 243 380 L243 364 L243 325 L138 304 L138 364 L138 394 C138 436 157 472 189 472 C213 472 223 464 235 455 L235 523 C234 522 232 522 230 522 C218 522 202 532 176 532 C119 532 60 487 60 380 L60 364 L60 289 L17 280 L17 217 L60 230 L60 91 C60 34 53 11 49 0 L138 0 C138 0 138 34 138 91 L138 245 L243 266 L243 91 C243 34 235 11 232 0 L321 0 C321 0 321 34 321 91 L321 281 C321 281 368 293 383 280 L383 353 L321 340 L321 364 L321 394 L321 394 Z " />
<glyph glyph-name="f_i" unicode="&#xfb01;" horiz-adv-x="385" d="M267 0 L357 0 C351 13 345 41 345 91 L345 370 C306 340 255 335 255 335 C260 325 267 302 267 244 L267 91 C267 41 267 0 267 0 L267 0 Z M161 340 L161 363 L161 394 C161 436 179 472 212 472 C235 472 245 464 257 455 C263 434 281 418 302 418 C330 418 351 442 351 473 C351 503 330 527 302 527 C300 527 298 527 296 526 L296 526 C296 526 296 526 296 526 C293 526 291 526 289 525 C280 523 264 520 253 522 C241 523 225 532 199 532 C142 532 83 487 83 379 L83 363 L83 324 L40 316 L40 253 L83 266 L83 91 C83 34 75 11 72 0 L161 0 C161 0 161 34 161 91 L161 281 C161 281 208 292 223 280 L223 352 L161 340 L161 340 Z " />
<glyph glyph-name="f_f_i" unicode="&#xfb03;" horiz-adv-x="535" d="M417 0 L507 0 C500 13 495 41 495 91 L495 370 C456 340 405 336 405 336 C410 325 417 302 417 245 L417 91 C417 41 417 0 417 0 L417 0 Z M310 340 L310 364 L310 394 C310 436 329 472 361 472 C385 472 395 464 407 455 C413 434 431 419 452 419 C479 419 501 443 501 474 C501 503 479 527 452 527 C445 527 440 526 438 525 C429 523 414 521 402 522 C390 524 374 532 348 532 C291 532 232 487 232 380 L232 364 L232 325 L133 305 L133 364 L133 394 C133 436 152 472 184 472 C209 472 218 464 231 455 L231 523 C229 522 227 522 225 522 C213 522 197 532 171 532 C114 532 55 487 55 380 L55 364 L55 290 L12 281 L12 218 L55 231 L55 91 C55 34 48 11 44 0 L133 0 C133 0 133 34 133 91 L133 246 L232 266 L232 91 C232 34 225 11 221 0 L310 0 C310 0 310 34 310 91 L310 281 C310 281 358 293 372 280 L372 353 L310 340 L310 340 Z " />
</font>
</svg>
