<?xml version="1.0" encoding="UTF-8"?>
<svg xmlns="http://www.w3.org/2000/svg" xmlns:xlink="http://www.w3.org/1999/xlink" version="1.2" >
<font id="Goodsay Alt">
<font-face  font-family="Goodsay" units-per-em="1000" ascent="750" descent="-250" font-style="normal" font-weight="400" font-stretch="normal" cap-height="700" x-height="500" underline-position="-75" underline-thickness="50" />
<missing-glyph  horiz-adv-x="200" d="" />
<glyph glyph-name="NULL" d="" />
<glyph glyph-name="nonmarkingreturn" unicode="&#xd;" horiz-adv-x="200" d="" />
<glyph glyph-name="space" unicode="&#x20;" horiz-adv-x="200" d="" />
<glyph glyph-name="e" unicode="e" horiz-adv-x="209" d="M209 300 Q214 298 217 294 Q220 290 216 286 Q214 284 205 277.5 Q196 271 185.5 263.5 Q175 256 165 249.5 Q155 243 152 241 Q132 227 111.5 214.5 Q91 202 68 194 Q49 188 28.5 189 Q8 190 -6 207 Q-20 225 -17 247.5 Q-14 270 -5 290 Q4 311 18.5 330.5 Q33 350 53 362 Q62 367 74 369.5 Q86 372 94 362 Q102 352 99.5 339.5 Q97 327 91 317 Q83 304 66 294.5 Q49 285 35 291 Q30 293 27 297.5 Q24 302 22 307 Q17 298 11 287 Q5 276 1.5 264 Q-2 252 -1.5 240 Q-1 228 6 218 Q12 209 22.5 206 Q33 203 44 204.5 Q55 206 66 210.5 Q77 215 85 219 Q96 225 110.5 234 Q125 243 140 252.5 Q155 262 168.5 272 Q182 282 193 289 Q195 291 198 292.5 Q201 294 203 296 L209 300 Z M36 322 Q36 318 36.5 313 Q37 308 42 306 Q48 303 55 305.5 Q62 308 67.5 313 Q73 318 77 324 Q81 330 83 336 Q85 340 84 345.5 Q83 351 79 353 Q75 355 70.5 353 Q66 351 62 349 Q55 344 46.5 338 Q38 332 36 322 Z " />
<glyph glyph-name="f" unicode="f" horiz-adv-x="260" d="M265 777 Q271 772 272 763 Q273 754 273 746 Q272 728 267.5 709.5 Q263 691 257 673 Q246 638 231 605.5 Q216 573 199 541 Q182 509 163.5 478.5 Q145 448 125 418 Q104 389 81 360.5 Q58 332 31 307 Q29 305 24 298.5 Q19 292 17 289 Q12 281 7.5 270.5 Q3 260 -2 248 Q-10 226 -23 185.5 Q-36 145 -47 105 Q-39 109 -22 119.5 Q-5 130 18 144.5 Q41 159 68 176.5 Q95 194 122 211 Q184 251 260 300 Q269 297 269 291 Q269 285 266 282 Q263 280 243.5 267 Q224 254 194.5 235.5 Q165 217 130.5 195.5 Q96 174 64 154 Q32 134 7 118.5 Q-18 103 -28 97 L-43 88 Q-46 86 -49.5 84.5 Q-53 83 -55 80 Q-57 76 -60 67.5 Q-63 59 -63 54 Q-62 52 -59.5 51 Q-57 50 -56 48 Q-42 37 -30 25 Q-18 13 -7 -1 Q35 -57 29 -128 Q27 -143 23 -160.5 Q19 -178 12.5 -195.5 Q6 -213 -4 -227.5 Q-14 -242 -29 -251 Q-61 -270 -87 -243 Q-98 -229 -103 -212.5 Q-108 -196 -110 -179 Q-115 -142 -110.5 -104.5 Q-106 -67 -99 -30 Q-95 -11 -91 7.5 Q-87 26 -82 45 Q-81 47 -82 50 Q-85 55 -88.5 59.5 Q-92 64 -90 72 Q-87 80 -80 83.5 Q-73 87 -69 94 Q-65 107 -59 126.5 Q-53 146 -46.5 167 Q-40 188 -34 206.5 Q-28 225 -23 236 Q-10 273 3.5 309 Q17 345 31 381 Q45 417 60 452.5 Q75 488 90 523 Q106 558 121.5 593 Q137 628 154 662 Q171 696 191 726 Q201 740 212 754 Q223 768 238 777 Q244 781 251.5 782 Q259 783 265 777 Z M-54 26 Q-57 28 -60 31 Q-63 34 -67 36 Q-72 20 -75 4 Q-78 -12 -82 -28 Q-88 -60 -92.5 -93 Q-97 -126 -95 -161 Q-95 -170 -93.5 -181.5 Q-92 -193 -89 -204.5 Q-86 -216 -80 -225.5 Q-74 -235 -64 -240 Q-50 -246 -37 -237 Q-23 -226 -12 -205.5 Q-1 -185 5 -161 Q11 -137 12 -112 Q13 -87 8 -66 Q1 -43 -13 -21 Q-27 1 -54 26 Z M256 740 Q256 745 256.5 751.5 Q257 758 255 763 Q253 768 247 763.5 Q241 759 238 757 Q229 749 222 740 Q215 731 208 721 Q179 679 157.5 633.5 Q136 588 116 542 Q104 515 92.5 488 Q81 461 70 434 Q65 420 59.5 407.5 Q54 395 49 381 Q44 367 39.5 355.5 Q35 344 27 326 Q39 338 47 347.5 Q55 357 60 362 L90 398 Q104 417 117.5 436.5 Q131 456 143 476 Q192 555 229 644 Q238 667 245.5 691 Q253 715 256 740 Z " />
<glyph glyph-name="g" unicode="g" horiz-adv-x="348" d="M348 300 Q354 298 356.5 293 Q359 288 353 283 Q340 272 326.5 261 Q313 250 293 234 Q256 205 224 180.5 Q192 156 154 127 Q140 117 125.5 107 Q111 97 97 87 Q93 84 88 81.5 Q83 79 80 74 Q74 63 70 52.5 Q66 42 60 31 Q55 20 49.5 10.5 Q44 1 39 -10 Q17 -49 -8.5 -86.5 Q-34 -124 -66 -155 Q-81 -169 -98 -181.5 Q-115 -194 -134 -203 Q-152 -212 -173.5 -217.5 Q-195 -223 -215 -215 Q-233 -207 -242 -190 Q-251 -173 -251 -155 Q-251 -133 -241 -114 Q-231 -95 -216 -81 Q-200 -66 -182.5 -54 Q-165 -42 -146 -32 L-62 13 Q-41 24 -21 35.5 Q-1 47 20 58 Q38 68 52.5 75 Q67 82 72 95 Q76 107 82 118 Q99 163 114 207 Q129 251 140 298 Q142 303 145 316.5 Q148 330 150 339 Q130 316 109.5 292 Q89 268 67 245 Q56 234 44.5 224.5 Q33 215 21 207 Q10 201 -2.5 198 Q-15 195 -24 208 Q-30 217 -29 230.5 Q-28 244 -22.5 258 Q-17 272 -8.5 285.5 Q0 299 8 310 Q16 321 28 331 Q40 341 53 346 Q64 350 76.5 349 Q89 348 93 335 Q95 330 95 323 Q95 316 92 313 Q87 308 83 311 Q79 314 79 319 Q79 324 78 330 Q77 336 68 333 Q54 331 39 319 Q24 307 12 290 Q0 273 -6.5 254 Q-13 235 -11 221 Q-9 212 -3 213.5 Q3 215 8 218 Q27 229 43.5 245 Q60 261 76 279 Q92 297 107 314.5 Q122 332 139 351 Q143 356 148 362.5 Q153 369 160 369 Q167 369 169 363.5 Q171 358 170 353 Q168 329 161 304.5 Q154 280 147 257 Q138 226 127.5 195.5 Q117 165 106 135 Q103 127 100 120.5 Q97 114 94 106 Q104 111 112.5 117.5 Q121 124 130 130 Q140 137 149 143.5 Q158 150 168 158 Q187 173 205.5 187.5 Q224 202 244 217 Q253 224 270.5 238 Q288 252 305 266 Q325 282 348 300 Z M35 18 Q40 28 45.5 38 Q51 48 55 59 Q37 48 19 38 Q1 28 -17 18 Q-37 7 -56 -2.5 Q-75 -12 -94 -23 Q-113 -33 -131.5 -42.5 Q-150 -52 -167 -64 Q-184 -75 -199 -88 Q-214 -101 -224 -118 Q-233 -134 -234.5 -153 Q-236 -172 -224 -188 Q-213 -203 -194 -202 Q-175 -201 -159 -196 Q-121 -183 -91 -156 Q-61 -129 -37 -98 Q-23 -80 -10.5 -61.5 Q2 -43 13 -23 Q18 -12 24 -2.5 Q30 7 35 18 Z " />
<glyph glyph-name="h" unicode="h" horiz-adv-x="357" d="M357 300 Q367 295 364 289 Q361 283 354 278 Q335 265 313 250.5 Q291 236 269 223 Q247 210 226 199 Q205 188 189 183 Q181 181 173.5 180.5 Q166 180 159 185 Q151 190 150 200.5 Q149 211 151 220 Q152 231 155 243.5 Q158 256 160.5 268 Q163 280 164.5 289.5 Q166 299 166 305 Q166 315 158 314 Q133 306 112.5 289 Q92 272 72 256 Q57 242 40 228 Q23 214 7 204 Q-1 199 -8.5 203 Q-16 207 -17 216 Q-18 227 -15.5 238 Q-13 249 -11 259 Q-7 276 3 312 Q13 348 26.5 393 Q40 438 54.5 488 Q69 538 83 582 Q97 626 108.5 660.5 Q120 695 126 709 Q129 718 131.5 725 Q134 732 139 742 Q141 745 143 747 Q145 749 150 747 Q155 745 154 740.5 Q153 736 152 734 Q149 726 146.5 719 Q144 712 142 705 Q137 690 132 675 Q127 660 122 646 Q106 596 92 553 Q78 510 65.5 468 Q53 426 40 381.5 Q27 337 13 285 Q8 268 3.5 252 Q-1 236 -1 219 Q16 229 34 244 Q52 259 67 273 Q73 278 86.5 289 Q100 300 115.5 310.5 Q131 321 146 327.5 Q161 334 171 328 Q179 324 181.5 315.5 Q184 307 183 299 Q181 281 176 260 Q171 239 169 224 Q168 221 167 210.5 Q166 200 169 198 Q172 195 178 197 Q184 199 188 200 Q203 206 231.5 222.5 Q260 239 288 256 Q321 276 357 300 Z " />
<glyph glyph-name="i" unicode="i" horiz-adv-x="138" d="M138 300 Q146 291 144 288.5 Q142 286 137 283 Q123 275 105 263.5 Q87 252 73 244 Q60 236 44 229 Q28 222 13 227 Q-2 232 -5.5 245 Q-9 258 -7 272 Q-5 283 0 300.5 Q5 318 11 332 Q16 343 20.5 354.5 Q25 366 27 368 Q30 370 36 366 Q38 365 36.5 358 Q35 351 32 342 Q29 333 25 324 Q21 315 20 311 Q15 297 10.5 281 Q6 265 8 251 Q9 244 14.5 242 Q20 240 27 241 Q34 242 42 245 Q50 248 57 252 Q65 257 78.5 264.5 Q92 272 106 280 Q121 289 138 300 Z M58 429 Q57 421 49 422 Q41 423 42 431 Q43 438 51 437 Q59 436 58 429 Z " />
<glyph glyph-name="j" unicode="j" horiz-adv-x="173" d="M173 300 Q183 295 182 290 Q181 285 179 281 Q170 272 154.5 256 Q139 240 121.5 223 Q104 206 88.5 190 Q73 174 64 165 Q46 148 28 131 Q10 114 -10 98 Q-19 90 -28.5 82 Q-38 74 -49 66 L-67 51 Q-72 47 -74.5 42.5 Q-77 38 -80 32 Q-101 -14 -124.5 -59 Q-148 -104 -180 -145 Q-194 -163 -210.5 -179.5 Q-227 -196 -247 -209 Q-265 -221 -288 -229.5 Q-311 -238 -333 -232 Q-353 -226 -362.5 -208.5 Q-372 -191 -370 -171 Q-368 -147 -354 -127.5 Q-340 -108 -322 -94 Q-303 -78 -282 -65.5 Q-261 -53 -239 -41 Q-216 -27 -194 -14 Q-172 -1 -150 13 Q-139 19 -129.5 26 Q-120 33 -110 40 Q-105 44 -100 47 Q-95 50 -90 55 Q-85 59 -82.5 65 Q-80 71 -78 76 Q-68 100 -58 124 Q-48 148 -39 174 Q-31 198 -23 222.5 Q-15 247 -8 272 Q-4 285 -1 297.5 Q2 310 6 322 Q7 326 8.5 331 Q10 336 15 337 Q22 338 22.5 332.5 Q23 327 22 323 Q9 272 -6 222.5 Q-21 173 -40 124 Q-42 119 -46.5 108.5 Q-51 98 -57 80 Q-17 110 19.5 144.5 Q56 179 91 216 Q96 221 109 234 Q122 247 136 262 Q153 279 173 300 Z M-184 -122 Q-159 -88 -139 -50 Q-119 -12 -101 26 Q-110 20 -119 13.5 Q-128 7 -132 5 Q-140 0 -148 -5.5 Q-156 -11 -164 -16 Q-181 -26 -198 -35.5 Q-215 -45 -232 -55 Q-249 -65 -265 -74.5 Q-281 -84 -296 -95 Q-310 -105 -323.5 -117 Q-337 -129 -345 -145 Q-353 -159 -354 -176 Q-355 -193 -344 -206 Q-333 -218 -318 -218 Q-303 -218 -290 -213 Q-256 -201 -230 -175.5 Q-204 -150 -184 -122 Z M33 405 Q25 406 25.5 413.5 Q26 421 34 420 Q42 419 41.5 411.5 Q41 404 33 405 Z " />
<glyph glyph-name="k" unicode="k" horiz-adv-x="219" d="M219 300 Q225 297 226.5 291.5 Q228 286 225 284 Q205 272 180.5 258 Q156 244 136 233 Q125 227 108.5 217.5 Q92 208 74 201.5 Q56 195 38 193.5 Q20 192 8 201 Q-1 208 -3 215 Q-5 220 -4.5 224 Q-4 228 -4 233 Q-15 207 -21 179.5 Q-27 152 -36 125 Q-38 118 -44 118 Q-50 118 -51 126 Q-52 131 -51 134.5 Q-50 138 -48 142 Q-46 156 -42 169 Q-38 182 -33 195 Q-27 213 -21.5 231 Q-16 249 -10 267 Q13 339 35.5 411 Q58 483 81 555 Q91 586 97 603.5 Q103 621 108 638 Q113 655 120.5 677.5 Q128 700 141 739 Q143 746 150 745 Q157 744 153 729 Q144 700 137.5 678 Q131 656 125 637 Q119 618 113.5 602 Q108 586 103 569 Q80 497 57 426 Q34 355 11 283 Q11 281 9.5 276 Q8 271 6 265 Q3 258 1 250 Q22 286 55 313 Q63 319 71.5 324.5 Q80 330 90 334 Q94 335 98 335 Q102 335 104 331 Q107 323 97 321 Q80 314 64 300.5 Q48 287 35 271 Q31 266 24.5 257 Q18 248 14.5 238.5 Q11 229 12.5 221 Q14 213 26 211 Q46 208 67 216.5 Q88 225 107 235 Q127 245 146 256.5 Q165 268 184 279 Q186 281 192 284 Q198 287 204 291 Q211 295 219 300 Z " />
<glyph glyph-name="l" unicode="l" horiz-adv-x="225" d="M220 702 Q218 652 202.5 607 Q187 562 166 519 Q144 476 119 434.5 Q94 393 65 355 Q54 340 40.5 325 Q27 310 22 302 Q19 297 16.5 292 Q14 287 13 279 Q11 255 9.5 230 Q8 205 14 180 Q16 171 21 162 Q26 153 35 148 Q46 143 57.5 145 Q69 147 78 152 Q99 161 116 175.5 Q133 190 149 206 Q157 215 170 230.5 Q183 246 195 262 Q209 280 225 300 Q240 294 233 285 Q229 280 221.5 269.5 Q214 259 210 254 Q195 235 180 217 Q165 199 148 182 Q132 167 114 153.5 Q96 140 75 133 Q64 129 52 128.5 Q40 128 29 134 Q20 139 14 146.5 Q8 154 3 163 Q-7 186 -7 212 Q-7 238 -5 261 Q-3 284 -1 301 Q1 318 6 342 Q11 366 16.5 390 Q22 414 29 438 Q43 486 59 532 Q75 578 96 623 Q106 644 116.5 664 Q127 684 141 703 Q148 712 155.5 720.5 Q163 729 172 736 Q180 741 189 743.5 Q198 746 207 740 Q215 733 217.5 722 Q220 711 220 702 Z M20 325 Q21 325 25 329.5 Q29 334 33.5 340 Q38 346 42 351.5 Q46 357 47 358 Q54 367 60.5 376.5 Q67 386 73 395 Q86 414 97.5 432.5 Q109 451 120 470 Q143 509 162 549.5 Q181 590 194 634 Q196 645 198 655.5 Q200 666 202 677 Q204 687 204.5 698 Q205 709 201 720 Q198 729 190 727 Q185 725 181.5 722 Q178 719 174 716 Q158 700 148 683 Q124 647 106 606.5 Q88 566 74 524 Q39 426 20 325 Z " />
<glyph glyph-name="m" unicode="m" horiz-adv-x="456" d="M456 300 Q465 295 463.5 289.5 Q462 284 459 281 Q434 263 411.5 242 Q389 221 361 207 Q353 202 343 201.5 Q333 201 326 209 Q318 218 317.5 230.5 Q317 243 318 254 Q320 279 327 306.5 Q334 334 342 360 Q350 386 357.5 409 Q365 432 367 447 Q368 450 368.5 457 Q369 464 365 466 Q362 468 356.5 465 Q351 462 348 460 Q328 448 311 431 Q294 414 277 397 Q251 370 226 341.5 Q201 313 174 284 Q169 278 160.5 269 Q152 260 142.5 252.5 Q133 245 123 240.5 Q113 236 104 239 Q94 242 92 253 Q90 264 91 273 Q91 284 92.5 295.5 Q94 307 93 318 Q73 301 57 281 Q41 261 26 241 Q18 231 10.5 221 Q3 211 -5 202 Q-8 198 -12 195 Q-16 192 -21 194 Q-27 196 -27.5 202 Q-28 208 -27 213 Q-22 237 -13 263 Q-4 289 5 312 Q10 324 13.5 334.5 Q17 345 22 357 Q24 361 28 362 Q32 363 35 359 Q38 355 35 346 Q32 337 30 332 Q24 317 19.5 304.5 Q15 292 10.5 280 Q6 268 2 254.5 Q-2 241 -7 224 Q7 244 22 263 Q37 282 53 301 Q56 305 62.5 311.5 Q69 318 76 324 Q83 330 90 334 Q97 338 102 335 Q107 333 108.5 328 Q110 323 110 318 Q110 305 109 292.5 Q108 280 107 267 Q107 262 108 257.5 Q109 253 115 255 Q121 256 132 265 Q143 274 155 287 Q167 300 179.5 314 Q192 328 201 339 Q216 356 233 375 Q250 394 268 412.5 Q286 431 304.5 447 Q323 463 341 475 Q348 480 358 482.5 Q368 485 376 478 Q384 471 384 460 Q384 449 382 440 Q377 416 369.5 392.5 Q362 369 354 343 Q351 332 346.5 315 Q342 298 338.5 280 Q335 262 334 246.5 Q333 231 336 223 Q340 214 351 220 Q380 234 405 257.5 Q430 281 456 300 Z " />
<glyph glyph-name="n" unicode="n" horiz-adv-x="275" d="M275 300 Q282 295 282.5 290.5 Q283 286 279 284 Q270 278 256 269 Q242 260 232 255 L193 231 Q184 226 175 221 Q166 216 155 212 Q146 209 136 208.5 Q126 208 119 216 Q112 224 112 236 Q112 248 114 258 Q118 282 126 307 Q129 318 132 330 Q135 342 135 354 Q121 347 109 336.5 Q97 326 86 314 Q64 291 45 267 Q26 243 3 212 Q-1 207 -5.5 200.5 Q-10 194 -17 193 Q-24 193 -26 198.5 Q-28 204 -27 209 Q-20 244 -8.5 277 Q3 310 15 344 Q17 350 19.5 358 Q22 366 25 371 Q29 378 35 374 Q38 372 38 368.5 Q38 365 37 362 Q32 345 26.5 329.5 Q21 314 15 297 L3 261 Q3 259 1 253.5 Q-1 248 -3 242 Q-5 236 -6.5 230.5 Q-8 225 -7 225 Q7 243 21 261 Q35 279 49 297 Q63 313 77 328.5 Q91 344 107 357 Q114 362 123.5 367.5 Q133 373 142 369 Q151 364 151.5 354 Q152 344 150 336 Q148 325 145 315 Q142 305 139 295 Q137 284 134 272.5 Q131 261 129 249 Q129 244 128.5 239 Q128 234 130 229 Q132 224 135.5 224 Q139 224 144 225 Q154 227 163.5 232.5 Q173 238 181 243 Q191 248 207 258 Q223 268 238 277 Q256 288 275 300 Z " />
<glyph glyph-name="o" unicode="o" horiz-adv-x="271" d="M271 300 Q275 299 278 296 Q284 290 279 286 Q268 277 253 265.5 Q238 254 220 244.5 Q202 235 181.5 229 Q161 223 140 224 Q130 224 119.5 225 Q109 226 103 228 Q95 220 86.5 211 Q78 202 70 196 Q56 184 38 173.5 Q20 163 1 165 Q-19 167 -25 184 Q-31 201 -28 218 Q-26 239 -18.5 259 Q-11 279 -1 298 Q1 301 4.5 303 Q8 305 11 301 Q15 298 13 293 Q11 288 9 284 Q5 274 1.5 264.5 Q-2 255 -5 245 Q-9 234 -12 222.5 Q-15 211 -13 199 Q-11 188 -5 184 Q0 181 6 181 Q12 181 17 183 Q28 186 37 191.5 Q46 197 54 203 Q62 210 70 217.5 Q78 225 84 234 Q71 240 60.5 246.5 Q50 253 40 264 Q21 286 15 313 Q9 342 17 371.5 Q25 401 43 424 Q50 433 61 442.5 Q72 452 84.5 458.5 Q97 465 109.5 467 Q122 469 134 465 Q158 456 166 436 Q174 416 172.5 392.5 Q171 369 162.5 345.5 Q154 322 146 306 Q138 289 129 274 Q120 259 111 243 Q131 240 149.5 240.5 Q168 241 187 248 Q204 254 226 267 Q248 280 271 300 Z M94 247 Q110 268 122 291.5 Q134 315 143 339 Q147 350 151 363 Q155 376 156 389.5 Q157 403 154.5 416 Q152 429 144 439 Q135 449 123.5 450.5 Q112 452 100.5 448 Q89 444 78.5 436 Q68 428 61 420 Q44 401 35.5 377 Q27 353 29 327 Q32 301 50 278 Q59 267 70 260 Q81 253 94 247 Z " />
<glyph glyph-name="p" unicode="p" horiz-adv-x="285" d="M285 300 Q295 293 293.5 289.5 Q292 286 288 283 Q255 258 222.5 235 Q190 212 149 206 Q139 204 134 204 Q126 203 120 199 Q114 194 107.5 190 Q101 186 94 183 Q84 178 69 176 Q54 174 50 190 Q46 204 57 211 Q68 218 79 219 Q86 220 100 217.5 Q114 215 121 220 Q124 222 127 225 Q130 228 133 231 Q153 251 168.5 277 Q184 303 192 331 Q194 338 194.5 345 Q195 352 193 360 Q191 367 185.5 367.5 Q180 368 174 366 Q160 361 149 350.5 Q138 340 128 330 Q108 307 90.5 282 Q73 257 57 231 Q24 176 -2 118.5 Q-28 61 -51 1 Q-72 -52 -92 -105.5 Q-112 -159 -133 -212 Q-135 -215 -136 -217 Q-137 -219 -140 -221 Q-148 -223 -151 -217 Q-152 -214 -151.5 -210.5 Q-151 -207 -150 -204 Q-136 -149 -118 -89 Q-100 -29 -82 29 Q-63 92 -44 155 Q-25 218 -6 281 Q-2 295 1 305.5 Q4 316 7.5 326.5 Q11 337 14.5 348 Q18 359 24 373 Q26 378 28.5 378 Q31 378 34 376 Q38 374 37 369.5 Q36 365 35 362 Q33 353 28 337.5 Q23 322 18 305 Q13 288 8 273 Q3 258 1 251 Q-18 187 -36.5 124 Q-55 61 -75 -2 Q-75 -4 -78 -13 Q-81 -22 -84 -32.5 Q-87 -43 -89.5 -51.5 Q-92 -60 -92 -60 Q-65 10 -37 80 Q-9 150 29 216 Q46 248 66.5 278 Q87 308 111 335 Q122 348 135 360 Q148 372 163 379 Q177 386 191 383 Q205 380 210 363 Q215 345 208 325 Q201 305 193 288 Q184 271 171 253.5 Q158 236 147 222 Q161 225 174.5 229 Q188 233 202 240 Q222 251 245 269 Q268 287 285 300 Z M65 194 Q66 191 70.5 191.5 Q75 192 81 194 Q87 196 92 198.5 Q97 201 98 202 Q88 205 78 203 Q76 202 70 200.5 Q64 199 65 194 Z " />
<glyph glyph-name="q" unicode="q" horiz-adv-x="255" d="M255 300 Q265 293 263.5 288 Q262 283 257 278 Q243 264 225.5 247.5 Q208 231 189 214 Q170 197 151 180.5 Q132 164 116 150 Q111 146 102 139 Q93 132 82.5 124.5 Q72 117 62.5 109.5 Q53 102 48 98 Q44 91 42 87 Q40 83 38.5 79 Q37 75 35 70.5 Q33 66 30 58 Q26 48 22.5 35 Q19 22 21 17 Q25 9 26.5 0 Q28 -9 30 -17 Q34 -36 34.5 -54 Q35 -72 33 -91 Q31 -129 20 -160 Q15 -174 7 -190 Q-1 -206 -15 -215 Q-21 -219 -28 -219 Q-35 -219 -41 -214 Q-47 -208 -48.5 -195.5 Q-50 -183 -48.5 -167.5 Q-47 -152 -44.5 -136.5 Q-42 -121 -39 -109 Q-34 -91 -29.5 -73.5 Q-25 -56 -20 -39 Q-15 -25 -11 -12 Q-7 1 -2 15 Q1 24 -1 32 Q-3 40 -6 48.5 Q-9 57 -9 65 Q-9 78 0 85 Q9 92 19 100 Q22 102 26 104.5 Q30 107 32 110 Q36 118 42 137 Q48 156 56 175 Q65 196 71.5 212.5 Q78 229 84.5 245 Q91 261 97.5 278.5 Q104 296 112 318 Q97 295 82 271.5 Q67 248 47 228 Q39 220 28.5 213 Q18 206 6 209 Q-6 212 -10 223.5 Q-14 235 -14 246 Q-13 272 -1.5 297 Q10 322 27 341 Q35 349 45.5 358 Q56 367 69 365 Q82 363 85 352.5 Q88 342 88 331 Q88 326 83.5 323.5 Q79 321 76 326 Q74 328 73.5 331.5 Q73 335 73 337 Q73 339 72.5 342.5 Q72 346 70 348 Q65 351 59 347.5 Q53 344 50 341 Q34 325 25 310 Q16 295 9 278 Q7 274 5 267 Q3 260 2 252.5 Q1 245 2 238 Q3 231 7 227 Q11 223 16.5 225 Q22 227 27.5 231.5 Q33 236 37.5 241.5 Q42 247 44 250 Q53 261 61.5 272.5 Q70 284 78 295 Q86 307 93.5 319 Q101 331 109 343 Q110 346 114.5 352.5 Q119 359 124 364 Q129 369 134 371 Q139 373 142 366 Q144 361 142 354.5 Q140 348 138 343 Q130 319 123.5 300.5 Q117 282 110 264.5 Q103 247 95.5 228 Q88 209 78 184 Q70 163 64 148.5 Q58 134 55 124 Q85 144 113 168 Q141 192 167 217 Q174 223 188.5 236.5 Q203 250 218 264 Q236 281 255 300 Z M17 -96 Q19 -72 17.5 -48.5 Q16 -25 10 -1 Q3 -22 -2 -39.5 Q-7 -57 -15 -83 Q-21 -103 -26 -124.5 Q-31 -146 -33 -168 Q-33 -173 -34 -187 Q-35 -201 -28 -203 Q-20 -203 -13.5 -191.5 Q-7 -180 -4 -175 Q14 -139 17 -96 Z M10 52 Q13 59 15.5 66 Q18 73 20 80 Q18 81 14 76 Q10 71 8 69 Q6 65 7 60.5 Q8 56 10 52 Z " />
<glyph glyph-name="r" unicode="r" horiz-adv-x="218" d="M218 300 Q224 295 224 290 Q224 285 219 283 Q205 279 185 273 Q165 267 151 265 Q128 262 113.5 273 Q99 284 96 309 Q95 317 94.5 327.5 Q94 338 92 341 Q90 342 85.5 338 Q81 334 75.5 328 Q70 322 65 315.5 Q60 309 56 304 Q48 293 41 281 Q34 269 26 256 Q16 239 6.5 221 Q-3 203 -12 182 Q-14 177 -20 174 Q-26 171 -30 177 Q-32 179 -31.5 184.5 Q-31 190 -30 196.5 Q-29 203 -27.5 208.5 Q-26 214 -25 217 Q-21 232 -16 249.5 Q-11 267 -4 288 Q1 305 5.5 320 Q10 335 18 358 Q20 365 23 370 Q27 374 31.5 372 Q36 370 36 365 Q36 362 34.5 357.5 Q33 353 31 348 Q26 333 23 322 Q20 311 16.5 299.5 Q13 288 9 274.5 Q5 261 -1 241 Q13 267 27.5 291 Q42 315 61 337 Q68 344 79.5 353.5 Q91 363 101 355 Q106 351 107.5 344.5 Q109 338 110 333 Q111 322 113 306 Q115 290 126 283 Q131 280 138 280.5 Q145 281 151 282 Q159 284 170 286.5 Q181 289 192 292 Q204 296 218 300 Z " />
<glyph glyph-name="s" unicode="s" horiz-adv-x="198" d="M198 300 Q210 290 201 284 Q190 278 175.5 269 Q161 260 146.5 251 Q132 242 118 233.5 Q104 225 95 220 Q86 215 75.5 208.5 Q65 202 57 197 Q51 182 38.5 161.5 Q26 141 7 124 Q-7 113 -28.5 102 Q-50 91 -71 96 Q-80 98 -83.5 106 Q-87 114 -84 122 Q-81 130 -74 138.5 Q-67 147 -59 153 Q-41 167 -20.5 177.5 Q0 188 21 199 Q26 201 31 203.5 Q36 206 41 209 Q45 211 47 219 Q49 232 45.5 244 Q42 256 28 267 Q20 275 10.5 282 Q1 289 -1 301 Q-4 315 7 329.5 Q18 344 33 355 Q38 358 43.5 361.5 Q49 365 54 365 Q61 365 62.5 360 Q64 355 61.5 350 Q59 345 55 343 Q51 341 47 346 Q43 344 36.5 339 Q30 334 24.5 327.5 Q19 321 16 314 Q13 307 16 301 Q20 289 34.5 280.5 Q49 272 56 259 Q61 250 62.5 241 Q64 232 63 221 Q75 227 93.5 238 Q112 249 132 261 Q152 273 170 284 Q188 295 198 300 Z M-1 138 Q10 149 19.5 161.5 Q29 174 37 188 Q32 186 24.5 182.5 Q17 179 9 175 Q1 171 -5.5 167 Q-12 163 -15 162 Q-17 160 -27 154.5 Q-37 149 -47 142 Q-57 135 -64.5 127 Q-72 119 -69 113 Q-66 107 -56.5 109.5 Q-47 112 -36 117 Q-25 122 -14.5 128.5 Q-4 135 -1 138 Z " />
<glyph glyph-name="t" unicode="t" horiz-adv-x="214" d="M472 589 Q476 581 468 579 Q466 578 464 578.5 Q462 579 460 579 Q446 582 432 582.5 Q418 583 403 584 Q331 586 260.5 588 Q190 590 117 591 Q108 568 99.5 547 Q91 526 77 490 Q62 450 48.5 409.5 Q35 369 24 327 Q19 307 14.5 286.5 Q10 266 8 244 Q7 235 6.5 224.5 Q6 214 6.5 203.5 Q7 193 10 182.5 Q13 172 20 165 Q26 157 35 156.5 Q44 156 53.5 159.5 Q63 163 71.5 168.5 Q80 174 86 178 Q103 190 118 204 Q133 218 148 232 Q156 240 168 251 Q180 262 191 273 Q204 285 219 300 Q230 295 229 290 Q228 285 225 283 Q220 278 212 270.5 Q204 263 200 259 Q184 244 168 229 Q152 214 136 199 Q122 185 106 172.5 Q90 160 72 150 Q63 145 54.5 142.5 Q46 140 35 141 Q15 144 2 163 Q-6 175 -8.5 194 Q-11 213 -9.5 234.5 Q-8 256 -4 278 Q0 300 4 318 Q17 370 34 420 Q51 470 71 520 Q76 534 80 543.5 Q84 553 87 560.5 Q90 568 93 575 Q96 582 99 591 Q78 592 57 591 Q36 590 15 590 Q-9 589 -27.5 588.5 Q-46 588 -63 587 Q-80 586 -96.5 584.5 Q-113 583 -132 582 Q-136 582 -141 581.5 Q-146 581 -149 584 Q-154 591 -147 595 Q-139 598 -118.5 599.5 Q-98 601 -87 602 Q-36 605 10.5 605.5 Q57 606 105 608 Q121 648 132.5 677 Q144 706 161 739 Q163 742 165.5 746.5 Q168 751 173 749 Q184 745 177 736 Q171 728 167 717 Q153 682 143.5 659 Q134 636 124 607 Q191 605 257 604 Q323 603 390 601 Q406 600 421.5 599 Q437 598 454 596 Q459 595 464.5 594.5 Q470 594 472 589 Z " />
<glyph glyph-name="u" unicode="u" horiz-adv-x="225" d="M114 320 Q105 306 96 293.5 Q87 281 77 267 Q68 254 58 241 Q48 228 37 217 Q29 209 16 204 Q3 199 -7 210 Q-15 219 -13 239.5 Q-11 260 -4.5 283 Q2 306 10 327.5 Q18 349 23 358 Q25 360 26.5 362.5 Q28 365 32 364 Q40 364 38 356 Q38 353 36 349.5 Q34 346 33 344 Q31 339 24 320 Q17 301 11 279.5 Q5 258 2.5 240 Q0 222 7 219 Q10 217 14.5 219.5 Q19 222 23.5 226 Q28 230 32 235 Q36 240 39 243 Q62 270 79 297.5 Q96 325 117 350 Q121 355 127 355.5 Q133 356 135 348 Q137 341 135 332.5 Q133 324 131 318 Q129 312 125.5 298.5 Q122 285 119.5 270.5 Q117 256 117 243.5 Q117 231 123 227 Q128 223 136 227 Q144 231 148 233 Q165 244 187 265 Q209 286 225 300 Q234 295 233 291 Q232 287 230 285 Q220 275 208.5 264 Q197 253 185 243 Q173 233 162.5 225 Q152 217 144 214 Q131 208 120 211 Q109 214 104 228 Q99 244 101.5 259.5 Q104 275 107 286 Q111 301 114 320 Z " />
<glyph glyph-name="v" unicode="v" horiz-adv-x="220" d="M112 308 Q97 282 82 256 Q67 230 50 205 Q42 194 33 182.5 Q24 171 12 163 Q0 156 -9 161 Q-15 163 -18 170 Q-21 177 -22 184 Q-24 204 -18 235 Q-12 266 -1 297 Q4 312 9.5 326.5 Q15 341 21 355 Q23 358 23.5 361 Q24 364 26 368 Q28 375 32 376 Q38 376 40 371 Q42 367 40.5 363.5 Q39 360 38 357 Q28 328 17 299.5 Q6 271 -1 241 Q-4 227 -6 209.5 Q-8 192 -6 179 Q-5 175 1 176 Q11 181 17.5 188.5 Q24 196 30 204 Q48 229 63 255.5 Q78 282 93 308 Q97 315 100.5 322 Q104 329 109 335 Q112 340 117.5 339.5 Q123 339 125 333 Q127 327 127 320.5 Q127 314 129 307 Q133 297 142 291 Q153 284 167.5 285 Q182 286 193 289 Q197 290 202 292 Q207 294 211 296 Q215 298 220 300 Q226 297 226.5 292.5 Q227 288 225 286 Q220 282 203 276 Q186 270 169 269 Q156 268 143.5 272 Q131 276 122 287 Q118 292 116 297.5 Q114 303 112 308 Z " />
<glyph glyph-name="x" unicode="x" horiz-adv-x="168" d="M2 255 Q-18 226 -34.5 196 Q-51 166 -68 135 Q-76 120 -84 104.5 Q-92 89 -97 73 Q-98 71 -98 69.5 Q-98 68 -99 66 Q-99 65 -97 61 Q-97 51 -105 53 Q-113 53 -114.5 60 Q-116 67 -114 72 Q-105 103 -87 135 Q-69 167 -53 196 Q-42 215 -31 233.5 Q-20 252 -7 269 Q-5 272 -2.5 275 Q0 278 0 283 L0 319 Q0 329 0 338.5 Q0 348 1 358 Q1 362 1 367 Q1 372 3 375 Q9 381 14 374 Q16 371 16 366.5 Q16 362 16 359 Q16 344 15.5 330 Q15 316 16 300 Q24 308 31.5 318 Q39 328 46 336 Q57 350 67 360 Q77 370 88 381 Q96 389 105 395 Q108 397 112 398.5 Q116 400 120 396 Q122 394 122 389 Q121 386 115 384 Q111 382 108 379 Q105 376 101 372 Q93 364 87 357.5 Q81 351 76 345.5 Q71 340 66 334.5 Q61 329 55 322 Q53 319 46.5 312 Q40 305 33.5 297.5 Q27 290 22 283 Q17 276 17 274 Q17 260 21.5 241 Q26 222 34 213 Q45 199 63 208 Q77 215 95 231 Q113 247 126 260 Q130 264 137 270.5 Q144 277 151 284 Q159 292 168 300 Q174 298 176 292.5 Q178 287 175 284 Q170 279 161.5 271 Q153 263 148 258 Q140 250 132 242.5 Q124 235 116 227 Q109 221 100.5 213 Q92 205 82.5 199 Q73 193 63 190 Q53 187 42 189 Q31 191 24 198.5 Q17 206 13 215.5 Q9 225 6.5 235.5 Q4 246 2 255 Z " />
<glyph glyph-name="w" unicode="w" horiz-adv-x="349" d="M349 300 Q364 291 353 285 Q336 277 310 274.5 Q284 272 264 281 Q250 287 240 300 Q233 286 227 272.5 Q221 259 213.5 245.5 Q206 232 196.5 220 Q187 208 174 199 Q164 192 151 190.5 Q138 189 130 200 Q124 209 123 220.5 Q122 232 124 244.5 Q126 257 129.5 268.5 Q133 280 136 289 Q138 293 140.5 301.5 Q143 310 148 325 Q122 295 96.5 265 Q71 235 43 206 Q37 200 31.5 194 Q26 188 18 183 Q12 178 5 174.5 Q-2 171 -10 173 Q-19 175 -22.5 182 Q-26 189 -26.5 198 Q-27 207 -25.5 216.5 Q-24 226 -22 232 Q-15 259 -5 285.5 Q5 312 15 341 Q16 343 17.5 347.5 Q19 352 21.5 355.5 Q24 359 26.5 361 Q29 363 33 360 Q37 357 33 347 Q32 342 30.5 338 Q29 334 27 329 Q24 319 20.5 310 Q17 301 14 291 Q7 273 1 255 Q-5 237 -8 218 Q-9 214 -10.5 202 Q-12 190 -6 189 Q-2 189 1.5 190.5 Q5 192 7 194 Q11 197 14.5 200 Q18 203 21 206 Q35 220 47.5 234.5 Q60 249 73 263 Q86 278 98.5 292.5 Q111 307 124 322 Q130 330 136.5 336.5 Q143 343 150 351 Q154 356 161 360.5 Q168 365 173 357 Q175 355 174.5 351.5 Q174 348 173 345 L167 327 Q163 318 160 309 Q157 300 153 290 Q148 275 142 254 Q136 233 141 217 Q143 203 157 208 Q179 217 193.5 242 Q208 267 219 292 Q222 298 225.5 307.5 Q229 317 237 319 Q245 322 249 315 Q253 308 258 304 Q268 293 284 291.5 Q300 290 314 292 Q331 294 349 300 Z " />
<glyph glyph-name="y" unicode="y" horiz-adv-x="262" d="M262 300 Q273 295 272.5 290.5 Q272 286 270 282 Q257 265 244.5 249.5 Q232 234 219 218 Q207 203 194.5 188.5 Q182 174 168 160 Q154 146 139.5 132.5 Q125 119 110 106 Q99 97 87 87 Q75 77 64 68 Q60 65 58 61 Q56 57 54 52 Q37 15 19.5 -21 Q2 -57 -22 -89 Q-33 -104 -46 -118 Q-59 -132 -73 -144 Q-87 -155 -103.5 -164 Q-120 -173 -138 -175 Q-147 -176 -155.5 -174.5 Q-164 -173 -171 -167 Q-183 -157 -183 -139 Q-182 -120 -172 -104 Q-162 -88 -151 -74 Q-125 -44 -92 -21.5 Q-59 1 -27 24 Q-10 35 7 47 Q24 59 41 72 Q46 75 47.5 78 Q49 81 51 86 Q54 93 56.5 98.5 Q59 104 61.5 110 Q64 116 67 124 Q70 132 75 144 Q90 182 104.5 221 Q119 260 130 300 Q132 305 135 316.5 Q138 328 140 337 Q125 314 109.5 291.5 Q94 269 77 247 Q72 241 63.5 230 Q55 219 45 210 Q35 201 24 197.5 Q13 194 3 203 Q-6 211 -7.5 224 Q-9 237 -9 248 Q-9 258 -6.5 271 Q-4 284 -0.5 298.5 Q3 313 7.5 328 Q12 343 17 356 Q19 361 21 368.5 Q23 376 28 378 Q33 380 37 376 Q39 374 38.5 371 Q38 368 37 365 Q32 351 28 338 Q24 325 20 311 Q19 307 15 291.5 Q11 276 8.5 258.5 Q6 241 7.5 227.5 Q9 214 18 214 Q23 214 29 218.5 Q35 223 39 226 Q61 248 80 275.5 Q99 303 119 335 Q123 340 126.5 346 Q130 352 135 358 Q137 362 141.5 367.5 Q146 373 151 373 Q158 373 160 368 Q162 363 161.5 356.5 Q161 350 159.5 343 Q158 336 157 333 Q143 279 126 231.5 Q109 184 88 133 Q85 125 82 118 Q79 111 73 96 Q104 122 133.5 149.5 Q163 177 189 208 Q203 223 215.5 239 Q228 255 241 272 Q243 274 246 278.5 Q249 283 253 288 Q257 293 262 300 Z M-32 -76 Q-12 -48 4 -17.5 Q20 13 34 45 Q32 44 24.5 39.5 Q17 35 9 29.5 Q1 24 -6.5 18.5 Q-14 13 -17 11 Q-30 2 -43 -6.5 Q-56 -15 -69 -24 Q-92 -41 -115.5 -60.5 Q-139 -80 -155 -106 Q-160 -115 -165.5 -128.5 Q-171 -142 -163 -152 Q-155 -162 -140.5 -159.5 Q-126 -157 -116 -152 Q-90 -141 -69.5 -120 Q-49 -99 -32 -76 Z " />
<glyph glyph-name="z" unicode="z" horiz-adv-x="288" d="M288 300 Q294 297 296.5 292 Q299 287 296 284 Q291 278 280 264.5 Q269 251 256 236 Q243 221 231.5 207.5 Q220 194 216 189 Q196 168 176.5 148 Q157 128 136 109 Q125 99 114 90 Q103 81 92 72 Q87 68 81 64 Q75 60 73 55 L64 28 Q53 2 40.5 -22.5 Q28 -47 12 -70 Q-18 -115 -60 -143 Q-70 -149 -82 -155 Q-94 -161 -107 -164 Q-120 -167 -132.5 -166 Q-145 -165 -155 -157 Q-167 -148 -168.5 -136.5 Q-170 -125 -165.5 -113.5 Q-161 -102 -152.5 -91.5 Q-144 -81 -136 -74 Q-116 -54 -93 -39 Q-70 -24 -47 -8 Q-23 8 0.5 24 Q24 40 47 57 Q52 61 56 64.5 Q60 68 62 74 Q64 81 65 87.5 Q66 94 67 101 Q69 115 68.5 128 Q68 141 64 155 Q60 169 54 180.5 Q48 192 40 203 Q37 208 33 214 Q29 220 28 226 Q27 234 33 241.5 Q39 249 44 254 Q62 275 80.5 291.5 Q99 308 116 330 Q118 333 123.5 340.5 Q129 348 127 351 Q124 355 116.5 354.5 Q109 354 99.5 350.5 Q90 347 78.5 341.5 Q67 336 57 329 Q46 321 36 313.5 Q26 306 16 297 Q12 295 7 291.5 Q2 288 -1 295 Q-3 300 2 304.5 Q7 309 10 313 Q29 330 51.5 344.5 Q74 359 99 366 Q109 369 123 369.5 Q137 370 142 357 Q146 345 137.5 332.5 Q129 320 122 313 Q115 304 103.5 293 Q92 282 80 270 Q68 258 58.5 247.5 Q49 237 45 230 Q45 220 53.5 209.5 Q62 199 70 185 Q81 159 84 136 Q85 128 84 112.5 Q83 97 81 84 Q103 101 123.5 120 Q144 139 164 159 Q174 169 194.5 192 Q215 215 236 239 Q261 267 288 300 Z M-14 -78 Q6 -52 22 -22.5 Q38 7 51 38 Q50 39 46.5 37 Q43 35 39.5 32 Q36 29 32.5 26.5 Q29 24 28 23 Q22 18 15.5 14 Q9 10 3 5 Q-10 -3 -23 -12 Q-36 -21 -49 -29 Q-72 -45 -96.5 -61.5 Q-121 -78 -140 -101 Q-146 -109 -151.5 -121 Q-157 -133 -148 -142 Q-138 -151 -123 -149.5 Q-108 -148 -97 -143 Q-71 -134 -50.5 -116.5 Q-30 -99 -14 -78 Z " />
<glyph glyph-name="d" unicode="d" horiz-adv-x="287" d="M295 784 Q303 782 305.5 775.5 Q308 769 308 762 Q308 739 300 707 Q292 675 284 650 Q272 613 257.5 578 Q243 543 227 508 Q211 472 194 437.5 Q177 403 159 369 Q145 345 128 320.5 Q111 296 102 271 Q99 263 97.5 253.5 Q96 244 94 235 Q89 209 85 180 Q81 151 83 123 Q84 114 86 105 Q88 96 93 89 Q98 81 105.5 80.5 Q113 80 120.5 83 Q128 86 135 91 Q142 96 147 100 Q166 116 189 147.5 Q212 179 232.5 211 Q253 243 268.5 269 Q284 295 287 300 Q298 298 298 292.5 Q298 287 296 284 Q286 268 269.5 241.5 Q253 215 234 186 Q215 157 194.5 130.5 Q174 104 157 88 Q145 77 129 68.5 Q113 60 96 66 Q80 72 74.5 89 Q69 106 67 121 Q65 141 66.5 157.5 Q68 174 70 193 Q72 204 73.5 216 Q75 228 76 233 Q70 224 59.5 211.5 Q49 199 36.5 188.5 Q24 178 10.5 172 Q-3 166 -16 170 Q-30 175 -33.5 189 Q-37 203 -36 216 Q-35 231 -30 246 Q-25 261 -17.5 274.5 Q-10 288 -1 299.5 Q8 311 17 318 Q27 326 41 329 Q55 332 66 321 Q69 318 69.5 312 Q70 306 62 306 Q59 307 57.5 308.5 Q56 310 54 312 Q49 316 42 314 Q28 311 20 301 Q12 291 3 277 Q-2 270 -7 258.5 Q-12 247 -15 234.5 Q-18 222 -19 210.5 Q-20 199 -17 192 Q-15 186 -9 185.5 Q-3 185 2 187 Q16 193 27.5 203 Q39 213 48 224 Q59 235 68 248.5 Q77 262 85 276 Q89 283 90.5 291 Q92 299 94 307 Q101 331 108 355.5 Q115 380 122 404 Q143 468 166.5 530.5 Q190 593 216 655 Q228 685 241.5 714.5 Q255 744 275 770 Q279 775 283.5 779.5 Q288 784 295 784 Z M117 329 Q117 329 123.5 340 Q130 351 138 365.5 Q146 380 152.5 392.5 Q159 405 161 408 Q172 428 182 449 Q192 470 202 491 Q222 533 239.5 576 Q257 619 271 664 Q275 676 278.5 688.5 Q282 701 285 713 Q288 726 290.5 738.5 Q293 751 292 764 Q278 747 267.5 727 Q257 707 248 687 Q238 666 229.5 645 Q221 624 213 602 Q196 559 179 516 Q162 473 148 428 Q140 403 132 378.5 Q124 354 117 329 Z " />
<glyph glyph-name="exclam" unicode="&#x21;" horiz-adv-x="191" d="M205 716 Q210 714 209 706.5 Q208 699 206 694 Q197 665 183.5 620.5 Q170 576 154.5 525 Q139 474 123 420.5 Q107 367 93 320.5 Q79 274 68.5 239 Q58 204 54 190 Q52 185 49.5 181 Q47 177 41 179 Q36 181 38 188 Q41 199 51 233 Q61 267 74.5 313.5 Q88 360 104.5 413.5 Q121 467 136 517 Q151 567 164 608.5 Q177 650 185 673 Q189 684 191 693.5 Q193 703 194 705 Q196 710 197.5 714 Q199 718 205 716 Z M13 68 Q13 74 21 76.5 Q29 79 31 71 Q32 67 29 64 Q26 61 22 60 Q18 58 15.5 61 Q13 64 13 68 Z " />
<glyph glyph-name="quotedbl" unicode="&#x22;" horiz-adv-x="204" d="M162 685 Q166 690 170.5 687.5 Q175 685 175 679 Q171 666 169.5 658.5 Q168 651 163 638 Q158 624 156.5 616 Q155 608 151 603 Q147 598 142.5 601.5 Q138 605 138 607 Q138 612 140 620 Q142 628 144 633 L153 660 Q155 666 157 672 Q159 678 162 685 Z M131 683 Q136 685 139 682 Q142 679 141 675 Q139 667 136 657.5 Q133 648 129 634 Q127 629 124.5 620 Q122 611 119 609 Q114 607 111 609.5 Q108 612 108 616 Q110 624 113.5 637.5 Q117 651 121 662 Q123 667 124.5 673.5 Q126 680 131 683 Z " />
<glyph glyph-name="numbersign" unicode="&#x23;" horiz-adv-x="188" d="M183 317 Q185 309 176 307 Q172 306 169.5 308 Q167 310 164 312 Q161 313 157 313 Q153 313 149 314 L141 314 Q139 314 137 315 Q135 316 133 315 Q132 314 131 311.5 Q130 309 129 308 Q128 304 125 300 Q133 300 140.5 300.5 Q148 301 154 299 Q161 297 161 291 Q159 284 154 284 Q151 283 147 283.5 Q143 284 140 284 L123 284 Q117 284 115 279 Q113 275 111 271.5 Q109 268 107 264 Q103 256 99.5 249.5 Q96 243 93 235 Q92 232 91 229 Q90 226 86 225 Q81 222 77 226 Q73 231 77.5 239.5 Q82 248 85 253 Q90 267 99 282 Q95 282 91 281.5 Q87 281 83 281 L77 281 Q72 280 71 276 Q68 270 65 263.5 Q62 257 59 251 Q56 244 53 237.5 Q50 231 47 223 Q45 219 41 209 Q39 206 38.5 203 Q38 200 36 198 Q32 193 27 193.5 Q22 194 21 199 Q21 205 24.5 212 Q28 219 30 224 Q36 238 42.5 251 Q49 264 54 278 Q50 278 47 277.5 Q44 277 40 276 Q37 276 33.5 275 Q30 274 27 275 Q21 276 22.5 281.5 Q24 287 29 289 Q35 291 42 291.5 Q49 292 56 294 Q61 295 62 295.5 Q63 296 65 300 Q67 304 68 307 Q69 310 71 314 Q63 313 56 312.5 Q49 312 41 310 Q39 310 36 309 Q33 308 31 310 Q24 314 29 319 Q32 324 39.5 325 Q47 326 52 327 Q62 329 67 329 Q70 330 74 329.5 Q78 329 80 331 Q82 333 83.5 337 Q85 341 87 343 Q89 346 91 349.5 Q93 353 95 357 Q97 361 99.5 366 Q102 371 108 372 Q116 373 114.5 367 Q113 361 111 356 Q108 350 104.5 344 Q101 338 98 332 Q103 331 107.5 331 Q112 331 117 331 Q122 331 124 332 Q127 333 129 338 Q131 343 133.5 347 Q136 351 139 355 Q143 364 148 371 Q152 377 158 374 Q162 372 159 363 Q155 355 150.5 347 Q146 339 142 331 Q150 330 158 329.5 Q166 329 174 326 Q182 322 183 317 Z M110 304 Q112 307 113 309.5 Q114 312 116 315 Q111 316 104.5 315.5 Q98 315 93 315 Q89 315 88.5 313.5 Q88 312 86 309 L80 297 Q86 297 92 297.5 Q98 298 104 299 Q107 299 107.5 300 Q108 301 110 304 Z " />
<glyph glyph-name="dollar" unicode="&#x24;" horiz-adv-x="348" d="M333 507 Q341 499 341.5 487 Q342 475 338 465 Q330 439 315 417.5 Q300 396 286 375 Q283 371 277.5 371 Q272 371 272 377 Q271 382 276 388.5 Q281 395 284 399 Q291 410 298.5 421.5 Q306 433 312 444 Q317 454 322 466 Q327 478 325 489 Q322 500 308.5 500.5 Q295 501 287 499 Q283 498 281.5 498 Q280 498 278 494 Q276 488 273 482 Q270 476 268 469 Q263 456 258.5 443 Q254 430 249 417 Q240 391 231 364 Q222 337 214 310 Q224 304 232 299 Q240 294 249 287 Q273 269 273 243 Q274 230 269 218.5 Q264 207 256.5 196.5 Q249 186 240 176.5 Q231 167 223 159 Q208 145 191.5 132.5 Q175 120 160 107 Q158 105 155.5 103 Q153 101 151 98 Q145 86 144.5 78.5 Q144 71 142 57 Q141 54 140 44 Q139 34 138 31 Q136 26 130.5 27 Q125 28 123 33 Q122 39 126 62 Q127 67 127.5 73 Q128 79 130 84 Q110 70 90.5 55 Q71 40 51 26 Q46 22 38.5 17 Q31 12 24 13 Q14 17 19 25 Q21 28 26 30.5 Q31 33 35 35 Q54 48 71.5 60.5 Q89 73 107 87 Q114 92 120.5 97 Q127 102 134 107 Q138 111 139 116 Q152 162 166 208.5 Q180 255 193 300 Q186 305 178.5 308.5 Q171 312 161 317 Q152 322 143.5 327 Q135 332 128 340 Q114 354 114.5 371 Q115 388 125 404 Q145 437 180.5 464.5 Q216 492 254 507 Q257 508 260.5 508.5 Q264 509 266 511 Q268 513 268.5 515.5 Q269 518 271 520 Q276 532 281 545 Q286 558 291 569 Q295 577 296.5 582 Q298 587 303 591 Q307 594 311 592 Q315 590 315 585 Q314 583 312.5 580 Q311 577 310 575 Q305 562 299 547.5 Q293 533 287 516 Q299 516 311 516 Q323 516 333 507 Z M252 258 Q244 270 232 278 Q220 286 208 293 Q195 251 182.5 210 Q170 169 159 127 Q177 141 202 162 Q227 183 244 207 Q252 218 256 231.5 Q260 245 252 258 Z M199 316 Q225 402 259 491 Q256 490 250 487 Q245 485 235 480 Q225 475 211 466 Q187 450 169 432 Q163 427 155.5 418 Q148 409 141.5 399 Q135 389 131.5 380 Q128 371 131 365 Q136 354 144 347 Q156 337 170.5 330 Q185 323 199 316 Z " />
<glyph glyph-name="percent" unicode="&#x25;" horiz-adv-x="331" d="M323 477 Q327 469 323.5 461 Q320 453 315 446 Q261 375 204.5 308 Q148 241 96 170 Q80 148 65.5 128.5 Q51 109 36 89 Q34 86 29 77.5 Q24 69 19 69 Q15 68 12.5 71 Q10 74 10 78 Q11 82 14 86 Q17 90 19 94 Q45 130 77.5 173 Q110 216 138 251 Q177 301 220 352.5 Q263 404 304 459 Q306 462 308 466 Q310 470 305 471 Q288 473 264 473 Q240 473 221 471 Q223 461 218 453 Q213 445 206 437 Q201 432 194 426 Q187 420 179 415.5 Q171 411 162 409.5 Q153 408 145 413 Q138 418 136 424.5 Q134 431 136 439 Q141 459 154 473 Q167 487 183 495 Q187 497 191.5 498.5 Q196 500 199 497 Q202 495 202 491 Q202 487 198 485 Q196 484 194.5 484 Q193 484 191 483 Q185 480 178.5 474.5 Q172 469 166 462 Q160 455 155.5 447 Q151 439 151 432 Q151 422 160.5 424.5 Q170 427 177 432 Q185 437 192 444.5 Q199 452 203 460 Q207 467 202 475 Q196 483 205 488 Q209 490 213.5 489 Q218 488 223 488 Q234 487 250 488 Q266 489 291 489 Q299 489 308.5 487 Q318 485 323 477 Z M189 204 Q199 206 204 196 Q207 191 206 185.5 Q205 180 203 175 Q200 167 193 157 Q186 147 177 138.5 Q168 130 157.5 123.5 Q147 117 137 116 Q127 114 121.5 120 Q116 126 116 136 Q116 146 122.5 158 Q129 170 137 178 Q140 181 144.5 185.5 Q149 190 154 189 Q159 188 161.5 184 Q164 180 159 176 Q154 174 152 171.5 Q150 169 145 164 Q144 163 141 159 Q138 155 135 150 Q132 145 130.5 140.5 Q129 136 132 133 Q137 128 147 133.5 Q157 139 163 144 Q169 149 178.5 162 Q188 175 189 186 Q184 184 180 185 Q176 186 175 192 Q175 197 179.5 200 Q184 203 189 204 Z " />
<glyph glyph-name="ampersand" unicode="&#x26;" horiz-adv-x="329" d="M48 332 Q53 360 75 379 Q97 398 121 408 Q135 413 149.5 414.5 Q164 416 178 411 Q189 406 195 398 Q201 390 205 379 Q208 384 210 390 Q212 396 214 401 Q227 431 244 473 Q261 515 277.5 556.5 Q294 598 307 631.5 Q320 665 325 678 Q328 687 331.5 696 Q335 705 337 714 Q338 717 338.5 720.5 Q339 724 341 726 Q344 728 348 727 Q352 726 353 721 Q354 716 352 708.5 Q350 701 348 696 Q343 678 333 651 Q323 624 310.5 593 Q298 562 285 530 Q272 498 260.5 470.5 Q249 443 240.5 422.5 Q232 402 229 395 Q224 384 219.5 372 Q215 360 210 348 Q208 344 205.5 338.5 Q203 333 198 333 Q191 332 189.5 337.5 Q188 343 189 348 Q190 359 190 370.5 Q190 382 181 390 Q172 398 160 398.5 Q148 399 137 396 Q114 388 96 375 Q87 368 78.5 359.5 Q70 351 66 340 Q61 326 70 321 Q79 316 93 315.5 Q107 315 121.5 317 Q136 319 142 318 Q153 316 154 309 Q155 304 151.5 298.5 Q148 293 146 288 Q139 277 133.5 266 Q128 255 124 243 Q123 241 121.5 235 Q120 229 119.5 222.5 Q119 216 120 211.5 Q121 207 126 208 Q142 213 155 229 Q168 245 176 258 Q179 262 183 268.5 Q187 275 193 274 Q199 273 200 268 Q201 263 199 258 Q197 252 194.5 246 Q192 240 189 234 Q184 225 176.5 199 Q169 173 160 139 Q151 105 141.5 67 Q132 29 125 -3.5 Q118 -36 114 -60 Q110 -84 112 -89 Q114 -94 109 -97 Q104 -101 100 -97 Q96 -93 95 -88 Q94 -83 94.5 -77 Q95 -71 96 -65 Q104 -13 119 49.5 Q134 112 151 171 Q155 184 159 196 Q163 208 167 220 Q158 209 150.5 203.5 Q143 198 132 193 Q121 189 113.5 194.5 Q106 200 104 211 Q102 223 104.5 235 Q107 247 112 258 Q117 269 123 279.5 Q129 290 134 301 Q120 301 105 299.5 Q90 298 76 301 Q65 304 56.5 311.5 Q48 319 48 332 Z " />
<glyph glyph-name="quotesingle" unicode="&#x27;" horiz-adv-x="131" d="M114 710 Q117 712 120.5 709.5 Q124 707 124 702 Q122 697 121 693 Q120 689 118 683 Q116 678 114.5 671.5 Q113 665 111 660 Q109 655 107.5 648.5 Q106 642 103 640 Q99 638 95.5 640 Q92 642 92 646 Q92 650 93.5 657 Q95 664 97 669 Q100 682 104 692 Q106 698 107.5 703 Q109 708 114 710 Z " />
<glyph glyph-name="parenleft" unicode="&#x28;" horiz-adv-x="246" d="M303 743 Q307 743 309.5 740.5 Q312 738 310 734 Q309 730 304 728 Q299 726 296 724 Q288 718 281 711 Q274 704 266 696 Q251 682 237.5 666.5 Q224 651 210 634 Q157 567 119 490 Q81 413 57 332 Q45 290 38.5 247.5 Q32 205 32 160 Q32 138 32 116.5 Q32 95 33 73 Q34 62 34.5 51.5 Q35 41 36 30 Q37 20 38 9 Q39 -2 44 -10 Q46 -13 48 -17 Q50 -21 45 -24 Q38 -28 32 -20 Q29 -17 28 -12.5 Q27 -8 25 -4 Q23 1 22.5 6.5 Q22 12 21 17 Q18 39 17 61 Q16 83 16 105 Q14 150 16.5 193 Q19 236 27 279 Q35 322 49 362.5 Q63 403 80 443 Q114 526 162 596 Q185 630 214 664 Q241 697 271 723 Q278 729 286 735 Q294 741 303 743 Z " />
<glyph glyph-name="parenright" unicode="&#x29;" horiz-adv-x="178" d="M163 587 Q161 504 140.5 424.5 Q120 345 85 270 Q67 232 46.5 196 Q26 160 5 124 Q-6 106 -17 87.5 Q-28 69 -39 51 Q-44 42 -50 33 Q-56 24 -61 15 Q-67 6 -72.5 -3 Q-78 -12 -85 -20 Q-87 -22 -90 -25 Q-93 -28 -97 -29 Q-102 -30 -103.5 -25.5 Q-105 -21 -103 -17 Q-98 -9 -91.5 -0.5 Q-85 8 -79 16 Q-68 33 -57.5 51 Q-47 69 -36 87 Q-14 123 7.5 159.5 Q29 196 49 234 Q88 307 113.5 386 Q139 465 145 548 Q148 589 145 631 Q143 651 139.5 672 Q136 693 132 713 Q132 715 130.5 720 Q129 725 128.5 729.5 Q128 734 129.5 737.5 Q131 741 136 740 Q141 739 142 735.5 Q143 732 144 728 Q146 723 146.5 718 Q147 713 149 708 Q153 688 156 668 Q159 648 161 627 Q162 617 162.5 607 Q163 597 163 587 Z " />
<glyph glyph-name="asterisk" unicode="&#x2a;" horiz-adv-x="252" d="M219 567 Q225 563 224 558 Q224 550 214 552 Q198 555 181 555.5 Q164 556 146 554 Q149 548 152 542 Q155 536 159 530 Q161 526 164.5 520 Q168 514 164 510 Q159 505 154.5 508 Q150 511 146.5 517 Q143 523 139.5 529.5 Q136 536 135 539 Q130 522 124.5 505 Q119 488 114 471 Q113 467 112 462 Q111 457 105 457 Q99 457 97.5 461.5 Q96 466 97 472 Q98 478 100 484 Q102 490 103 493 Q107 504 110.5 515 Q114 526 117 537 Q106 528 96.5 518.5 Q87 509 76 501 Q73 498 69.5 496.5 Q66 495 63 499 Q58 505 66 513 Q74 521 78 524 Q85 530 91.5 537 Q98 544 106 549 Q106 549 102.5 549 Q99 549 94 548 Q89 547 84 546.5 Q79 546 76 546 Q71 546 68.5 550 Q66 554 69 559 Q72 562 78 561 Q83 561 91 563 Q99 565 106.5 566 Q114 567 122 568 Q115 581 111 593 Q109 597 106 603 Q103 609 107 614 Q112 620 115.5 615.5 Q119 611 121 607 Q124 601 127 595 Q130 589 132 583 Q137 597 142 610.5 Q147 624 152 639 Q153 642 154.5 646 Q156 650 161 650 Q166 650 167 646.5 Q168 643 167 638.5 Q166 634 164.5 629 Q163 624 162 622 Q156 606 151 587 Q160 595 168.5 601 Q177 607 190 616 Q193 618 201 622.5 Q209 627 212 619 Q214 613 208 609 Q206 608 199 603 Q192 598 184.5 592 Q177 586 169.5 580.5 Q162 575 159 572 Q162 572 169.5 572 Q177 572 186.5 572 Q196 572 205 571 Q214 570 219 567 Z " />
<glyph glyph-name="plus" unicode="&#x2b;" horiz-adv-x="226" d="M159 293 Q165 292 177.5 292 Q190 292 190 282 Q190 277 186.5 276 Q183 275 179 275 Q163 277 147 276.5 Q131 276 115 277 Q110 256 104 236.5 Q98 217 93 197 Q91 192 90 185.5 Q89 179 82 179 Q75 179 75 184.5 Q75 190 76 195 Q81 216 87 236 Q93 256 98 277 L61 277 Q58 277 53.5 277 Q49 277 45 278 Q41 279 38.5 281 Q36 283 37 287 Q38 293 46 293 L66 293 L101 293 Q106 308 113.5 332.5 Q121 357 129 376 Q130 380 131 384.5 Q132 389 135 391 Q141 395 145 389 Q147 386 146 381.5 Q145 377 144 374 Q139 354 132 333.5 Q125 313 120 293 L159 293 L159 293 Z " />
<glyph glyph-name="comma" unicode="&#x2c;" horiz-adv-x="84" d="M73 202 Q72 197 68 189 Q63 177 59 165 Q55 153 50 140 L47 131 Q44 123 37 127 Q32 129 32.5 134.5 Q33 140 35 144 Q39 158 44.5 172 Q50 186 56 200 Q63 215 71 207 Q73 205 73 202 Z " />
<glyph glyph-name="hyphen" unicode="&#x2d;" horiz-adv-x="185" d="M97 278 Q84 278 64 277.5 Q44 277 37 278 Q32 279 31 285 Q30 291 36 292 Q41 293 49 293 Q57 293 65 293 L123 293 Q130 293 139 293 Q148 293 152 291 Q154 290 155 286 Q156 282 153 279 Q151 277 134 277.5 Q117 278 97 278 Z " />
<glyph glyph-name="period" unicode="&#x2e;" horiz-adv-x="95" d="M73 195 Q73 187 66 187 Q58 187 58 194 Q57 197 59.5 200 Q62 203 66 203 Q73 203 73 195 Z " />
<glyph glyph-name="slash" unicode="&#x2f;" horiz-adv-x="347" d="M440 737 Q441 734 439.5 732 Q438 730 436 728 Q428 719 422 709.5 Q416 700 410 690 Q397 670 384.5 650.5 Q372 631 359 611 Q307 530 257.5 448.5 Q208 367 160 284 Q113 203 66 122.5 Q19 42 -23 -43 Q-25 -48 -28 -52.5 Q-31 -57 -33 -62 Q-35 -65 -36.5 -69 Q-38 -73 -43 -72 Q-50 -68 -49 -62 Q-46 -51 -40 -42 Q-31 -21 -19 0 Q-8 20 3.5 41 Q15 62 26 82 Q49 124 72.5 164.5 Q96 205 119 246 Q167 329 216 410 Q265 491 316 572 Q329 593 341.5 613.5 Q354 634 368 654 Q381 674 393.5 694 Q406 714 421 733 Q423 736 426.5 740.5 Q430 745 435 743 Q440 741 440 737 Z " />
<glyph glyph-name="zero" unicode="0" horiz-adv-x="185" d="M14 231 Q16 255 24.5 283.5 Q33 312 50 337 Q54 342 58.5 347.5 Q63 353 69 358 Q73 361 80.5 361.5 Q88 362 89 354 Q89 347 83 347 Q81 346 80.5 346.5 Q80 347 78 346 Q75 343 74 341 Q69 336 65 330.5 Q61 325 58 318 Q45 295 37 266 Q33 251 31 235.5 Q29 220 31 205 Q32 200 34 192.5 Q36 185 42 182 Q47 179 53 181.5 Q59 184 64 187 Q76 194 86 204 Q96 214 105 225 Q121 247 135 273 Q142 287 147.5 301 Q153 315 155 329 Q156 334 156 341 Q156 348 154 353.5 Q152 359 147.5 362 Q143 365 135 362 Q128 360 123 355.5 Q118 351 113 346 Q108 342 105 336 Q102 331 97 331 Q90 332 89 337 Q88 342 91 347 Q95 352 100.5 357 Q106 362 111 366 Q120 374 132 378.5 Q144 383 156 376 Q167 370 170 357 Q173 344 171 332 Q169 318 165 304.5 Q161 291 155 277 Q143 251 127 227.5 Q111 204 90 185 Q80 177 67.5 169.5 Q55 162 41 165 Q31 167 25.5 174.5 Q20 182 17.5 192 Q15 202 14.5 212.5 Q14 223 14 231 Z " />
<glyph glyph-name="one" unicode="1" horiz-adv-x="96" d="M74 370 Q79 372 81.5 369 Q84 366 84 362 Q84 357 82 352.5 Q80 348 79 344 Q77 338 75 332 Q73 326 71 321 Q61 293 52 265 Q43 237 36 208 Q34 203 33 197.5 Q32 192 31 186 Q30 184 30.5 182 Q31 180 30 178 Q27 174 22 174 Q18 174 15 177 Q15 178 14 180.5 Q13 183 14 183 Q19 206 25 228 Q31 250 37 272 Q40 283 43.5 293.5 Q47 304 51 315 Q55 325 59 335 Q63 345 67 356 Q69 360 69.5 364 Q70 368 74 370 Z " />
<glyph glyph-name="two" unicode="2" horiz-adv-x="151" d="M38 208 Q64 206 88 202 Q94 200 99.5 199 Q105 198 110 196 Q115 194 122 192 Q129 190 131 184 Q133 180 130 176.5 Q127 173 122 174 Q120 174 117.5 175.5 Q115 177 113 178 Q110 179 107.5 179.5 Q105 180 102 181 Q82 188 54 191 Q49 192 43 192 Q37 192 31 192 Q25 193 19 192 Q16 192 13 190.5 Q10 189 7 187 Q4 185 -1.5 183.5 Q-7 182 -12 182 Q-17 182 -20 183.5 Q-23 185 -22 191 Q-21 196 -16.5 199 Q-12 202 -7 204 Q-2 206 3.5 206.5 Q9 207 14 209 Q19 212 23 216 Q27 220 31 224 Q36 229 41.5 233.5 Q47 238 52 243 Q69 260 85 279.5 Q101 299 111 322 Q115 332 117 344 Q117 349 116.5 354 Q116 359 113 362 Q106 368 94.5 363.5 Q83 359 75 355 L57 343 Q50 339 48 335 Q46 333 45.5 330.5 Q45 328 43 326 Q39 323 35.5 325 Q32 327 31 332 Q31 337 35 341.5 Q39 346 42 350 Q50 357 59 363 Q68 369 78 373 Q89 378 100 380 Q111 382 121 377 Q131 372 132.5 361 Q134 350 132 339 Q130 326 124.5 314 Q119 302 112 291 Q104 280 95 269 Q86 258 77 248 Q72 243 67 237.5 Q62 232 57 227 Q52 222 47.5 217.5 Q43 213 38 208 Z " />
<glyph glyph-name="three" unicode="3" horiz-adv-x="158" d="M110 313 Q107 311 102.5 308 Q98 305 96 301 Q103 299 109.5 296.5 Q116 294 121 289 Q129 281 131 266 Q133 252 126 238 Q119 224 111 213 Q103 202 91.5 192 Q80 182 66 177 Q52 172 39.5 177 Q27 182 19 195 Q17 200 14.5 207 Q12 214 14 220 Q16 225 23.5 226 Q31 227 31 219 Q31 217 30.5 216 Q30 215 30 213 Q30 211 30.5 210 Q31 209 31 208 Q35 200 39 197 Q49 187 66 194 Q78 200 88.5 211.5 Q99 223 106 235 Q109 240 111.5 246.5 Q114 253 114.5 259.5 Q115 266 113 272 Q111 278 104 281 Q101 283 97 283.5 Q93 284 89 285 Q86 286 82 286.5 Q78 287 76 289 Q69 294 73 300 Q77 306 82 310 Q95 322 108 334 Q121 346 129 363 Q121 365 113 361.5 Q105 358 98 355 Q83 348 71 338 Q70 337 68.5 336 Q67 335 66 333 Q65 331 65.5 330.5 Q66 330 65 328 Q64 323 60.5 322.5 Q57 322 53 324 Q46 329 49.5 335 Q53 341 57 346 Q68 357 82 365 Q96 373 110 377 Q117 379 124.5 379.5 Q132 380 138 376 Q148 370 143 356 Q140 348 134 340.5 Q128 333 122 326 Q119 323 116 319.5 Q113 316 110 313 Z " />
<glyph glyph-name="four" unicode="4" horiz-adv-x="156" d="M139 369 Q148 367 146 357 Q146 352 144 347.5 Q142 343 140 338 Q137 328 132 316 Q128 305 124.5 294.5 Q121 284 117 273 Q110 250 103.5 228 Q97 206 89 184 Q88 179 86 174 Q84 169 78 170 Q72 171 71.5 175.5 Q71 180 72 184 Q77 197 80.5 209 Q84 221 88 234 Q92 247 95.5 259.5 Q99 272 104 284 Q106 291 108 297 Q110 303 112 309 Q112 310 114 313.5 Q116 317 117.5 320.5 Q119 324 120 327.5 Q121 331 120 331 Q112 322 104.5 313 Q97 304 89 295 Q82 287 74.5 280 Q67 273 58 268 Q50 263 41.5 263 Q33 263 28 271 Q22 279 22 290 Q22 301 23 311 Q25 322 28 332 Q31 342 35 353 Q37 357 39 363 Q41 369 43 371 Q45 375 49 374.5 Q53 374 55 369 Q57 365 55 360 Q53 355 51 352 Q47 342 44 329 Q41 318 39 307 Q37 296 39 285 Q42 278 48 281 Q57 285 66 294 Q74 302 81 311 Q88 320 96 328 Q104 337 110.5 345.5 Q117 354 125 362 Q127 365 130.5 368 Q134 371 139 369 Z " />
<glyph glyph-name="five" unicode="5" horiz-adv-x="151" d="M18 191 Q32 188 44.5 198 Q57 208 64 217 Q73 229 81.5 243 Q90 257 88 271 Q87 279 82 281 Q77 283 70.5 281.5 Q64 280 57.5 277 Q51 274 48 271 Q44 268 38 262 Q36 260 33.5 258 Q31 256 28 256 Q19 256 20 264 Q21 272 23 277 L47 343 Q42 344 39 348 Q36 352 41 357 Q43 359 46.5 359 Q50 359 52 360 L67 363 Q99 369 128 368 Q133 367 139 365 Q145 363 145 356 Q145 349 139 349 Q136 348 133 349.5 Q130 351 127 352 Q119 352 111 351.5 Q103 351 95 350 Q91 350 80 348 Q69 346 64 344 Q62 339 58.5 329 Q55 319 54 316 Q51 308 49 302 Q47 296 44 288 Q57 294 73.5 298 Q90 302 100 286 Q109 272 103 254.5 Q97 237 89 224 Q81 210 69 197.5 Q57 185 42 179 Q34 176 26 174.5 Q18 173 10 177 Q2 182 2 188 Q2 194 4 202 Q5 205 7 209.5 Q9 214 12 218.5 Q15 223 19 225 Q23 227 27 224 Q32 220 30 216 Q28 212 26 209 Q23 204 21.5 200 Q20 196 18 191 Z " />
<glyph glyph-name="six" unicode="6" horiz-adv-x="138" d="M26 215 Q35 229 45 243.5 Q55 258 68 269 Q72 272 78.5 275.5 Q85 279 91.5 280.5 Q98 282 103 279.5 Q108 277 109 268 Q110 260 107.5 252 Q105 244 101 237 Q97 230 93 223.5 Q89 217 84 211 Q75 200 62.5 189 Q50 178 34 177 Q28 176 22 178.5 Q16 181 12 187 Q8 194 8 202 Q8 210 9 217 Q12 234 18 249.5 Q24 265 30 280 Q44 311 62 338 Q64 342 70 350 Q73 354 75.5 358 Q78 362 81 365 Q86 370 91 366 Q96 361 90 353 Q79 336 69.5 320 Q60 304 51 286 Q47 278 43.5 269 Q40 260 36 251 Q36 250 34 244 Q32 238 30 231.5 Q28 225 27 220 Q26 215 26 215 Z M35 193 Q46 195 55.5 203.5 Q65 212 72 221 Q79 230 85 241.5 Q91 253 93 265 Q82 260 74.5 252 Q67 244 60 235 Q56 230 52.5 225 Q49 220 45 215 Q43 210 39 204.5 Q35 199 35 193 Z " />
<glyph glyph-name="seven" unicode="7" horiz-adv-x="140" d="M88 280 Q93 281 101 282 Q109 283 113 279 Q118 275 114.5 271 Q111 267 106 266 Q96 264 92 264 Q89 263 84 263.5 Q79 264 77 262 Q75 260 73.5 256 Q72 252 70 250 L61 235 Q56 228 52 221.5 Q48 215 44 207 Q39 201 35 194.5 Q31 188 28 180 Q26 174 22 172 Q15 169 12 174 Q9 179 13.5 186 Q18 193 20 198 Q29 213 38.5 228.5 Q48 244 57 259 Q54 259 51 258.5 Q48 258 46 258 Q40 256 37 256 Q31 256 31.5 261.5 Q32 267 37 270 Q42 272 47 273 Q52 274 57 275 Q62 276 65.5 277.5 Q69 279 73 284 Q80 295 87 305.5 Q94 316 101 327 Q105 332 108 337.5 Q111 343 114 348 Q117 353 116 355 Q115 357 112.5 356.5 Q110 356 108 356 Q97 358 84.5 356.5 Q72 355 61 353 Q56 352 50 350.5 Q44 349 39 351 Q34 353 34.5 357.5 Q35 362 39 364 Q44 366 49.5 366.5 Q55 367 60 368 Q66 369 72.5 370 Q79 371 85 372 Q90 373 95.5 373 Q101 373 106 373 Q111 373 116.5 372.5 Q122 372 127 369 Q137 361 131 348.5 Q125 336 119 327 Q111 315 103.5 303.5 Q96 292 88 280 Z " />
<glyph glyph-name="eight" unicode="8" horiz-adv-x="127" d="M90 247 Q98 235 94 224 Q90 211 78 203 Q69 195 58 187.5 Q47 180 35 178 Q24 175 15 179.5 Q6 184 5 197 Q3 210 9 223 Q15 236 22 247 Q28 255 31 258 Q33 262 34 263 Q35 264 35 265 Q35 266 34 267 Q33 268 33 269 Q25 278 27 290 Q29 303 37.5 313.5 Q46 324 54 334 Q72 354 95 369 Q99 371 104.5 374 Q110 377 115 375 Q120 374 122.5 370.5 Q125 367 126 362 Q126 354 123.5 347 Q121 340 119 332 Q114 314 109 300 Q107 292 104.5 284 Q102 276 100 268 Q98 262 98 255.5 Q98 249 90 247 Z M81 255 Q83 269 86.5 281.5 Q90 294 94 306 Q96 313 98 319.5 Q100 326 102 333 Q102 334 103.5 338 Q105 342 106.5 346.5 Q108 351 109 354.5 Q110 358 109 358 Q107 359 103.5 355.5 Q100 352 99 352 Q96 350 93.5 348 Q91 346 89 344 Q84 340 80 336.5 Q76 333 71 328 Q63 320 54.5 310 Q46 300 44 289 Q42 282 46.5 278 Q51 274 56 270 Q62 266 68.5 262.5 Q75 259 81 255 Z M47 256 Q40 246 34 236 Q28 226 24 214 Q22 211 20.5 203 Q19 195 24 193 Q28 191 34.5 194 Q41 197 45 199 Q53 204 62.5 211 Q72 218 77 227 Q80 233 77.5 236.5 Q75 240 70 243 Q64 246 58.5 249.5 Q53 253 47 256 Z " />
<glyph glyph-name="nine" unicode="9" horiz-adv-x="151" d="M75 360 Q68 355 63 348.5 Q58 342 54 335 Q50 327 47 318 Q44 309 45 300 Q45 293 49 294 Q52 294 55.5 298 Q59 302 61 304 Q68 311 73.5 318.5 Q79 326 84 334 Q90 342 96 349.5 Q102 357 107 365 Q111 370 117 376.5 Q123 383 129 376 Q132 373 132 369 Q132 365 132 361 Q131 356 130.5 351.5 Q130 347 129 342 Q127 332 125 322.5 Q123 313 121 304 Q116 285 110.5 267 Q105 249 97 232 Q89 216 79.5 201.5 Q70 187 55 178 Q49 174 41.5 172 Q34 170 26 173 Q12 180 14 195 Q14 203 21 203 Q28 203 30 195 Q31 192 31.5 189.5 Q32 187 37 188 Q43 189 51 195 Q67 207 76.5 226 Q86 245 93 264 Q96 274 99 283.5 Q102 293 104 304 Q106 309 106.5 314 Q107 319 109 324 Q110 329 111 334.5 Q112 340 113 345 Q104 332 95 319.5 Q86 307 75 295 Q72 291 67 286.5 Q62 282 56 279 Q50 276 44.5 276.5 Q39 277 34 283 Q26 294 28.5 308.5 Q31 323 36 334 Q41 345 49 356.5 Q57 368 68 373 Q73 375 79.5 375 Q86 375 88 368 Q90 361 85 358 Q80 355 75 360 Z " />
<glyph glyph-name="colon" unicode="&#x3a;" horiz-adv-x="95" d="M59 328 Q60 336 68 335 Q76 334 75 326 Q73 318 65.5 319 Q58 320 59 328 Z M40 244 Q48 243 47.5 235 Q47 227 39 228 Q31 228 31.5 236 Q32 244 40 244 Z " />
<glyph glyph-name="semicolon" unicode="&#x3b;" horiz-adv-x="106" d="M53 247 Q58 247 59 243 Q60 239 59 234 Q58 229 56 224 Q54 219 53 217 Q51 212 49.5 207 Q48 202 46 197 Q44 193 42.5 189 Q41 185 36 185 Q31 185 30 189 Q29 193 29.5 198 Q30 203 32 207.5 Q34 212 35 215 Q40 225 43 234 Q45 238 46.5 242.5 Q48 247 53 247 Z M81 334 Q85 335 88.5 333 Q92 331 92 327 Q91 321 83.5 316.5 Q76 312 74 321 Q73 324 75 328 Q77 332 81 334 Z " />
<glyph glyph-name="less" unicode="&#x3c;" horiz-adv-x="233" d="M220 373 Q222 368 219 366 Q216 364 211 362 Q192 355 173 350.5 Q154 346 134 340 Q115 334 96 327 Q77 320 60 310 Q57 308 53.5 305.5 Q50 303 48 300 Q46 296 50 292 Q54 288 56 286 Q64 280 73.5 275 Q83 270 91 265 Q110 254 128 243 Q146 232 163 220 Q167 217 171 214.5 Q175 212 179 209 Q182 207 185 204 Q188 201 190 197 Q191 193 188.5 190 Q186 187 181 188 Q177 189 173.5 192.5 Q170 196 167 198 Q148 211 128.5 223.5 Q109 236 89 247 Q79 253 69.5 259 Q60 265 50 272 Q42 277 36 284.5 Q30 292 31 301 Q33 310 39.5 315.5 Q46 321 54 325 Q62 330 71.5 333.5 Q81 337 90 341 Q109 349 128 355 Q147 361 167 366 Q177 368 187 370 Q197 372 206 375 Q210 377 214 377.5 Q218 378 220 373 Z " />
<glyph glyph-name="equal" unicode="&#x3d;" horiz-adv-x="227" d="M171 277 Q176 276 186.5 275 Q197 274 198 266 Q199 261 196 259.5 Q193 258 188.5 258 Q184 258 179.5 259 Q175 260 173 260 Q153 262 134 262 Q115 262 95 263 L53 263 Q50 263 44.5 262.5 Q39 262 34 263 Q29 264 26 266.5 Q23 269 23 274 Q26 278 28.5 278.5 Q31 279 36 278 L54 278 Q64 279 73.5 279 Q83 279 94 279 Q113 279 132 278.5 Q151 278 171 277 Z M201 312 Q204 311 207.5 309 Q211 307 210 303 Q210 294 200 296 Q181 298 162.5 298.5 Q144 299 124 299 L88 299 L70 299 Q65 299 61 299 Q57 299 52 300 Q46 302 46 307 Q46 312 52 314 Q57 315 61 315 Q65 315 70 315 L88 315 Q124 317 162 315 Q167 314 171.5 314 Q176 314 181 314 Q186 313 191 313.5 Q196 314 201 312 Z " />
<glyph glyph-name="greater" unicode="&#x3e;" horiz-adv-x="233" d="M188 309 Q196 303 202.5 296 Q209 289 207 278 Q205 270 197 264.5 Q189 259 181 255 Q173 250 164.5 246.5 Q156 243 148 240 Q129 232 110 224.5 Q91 217 72 209 Q54 203 36 194 Q33 193 28.5 190.5 Q24 188 20 190 Q16 192 15.5 195.5 Q15 199 18 202 Q23 207 33 211 Q38 213 42 214.5 Q46 216 51 218 Q60 222 69.5 225.5 Q79 229 88 233 Q106 241 124.5 247.5 Q143 254 161 262 Q165 264 168.5 266 Q172 268 177 270 Q180 272 184 274.5 Q188 277 190 280 Q191 283 189 286 Q187 289 183 292.5 Q179 296 174.5 298.5 Q170 301 168 303 Q152 314 135.5 323.5 Q119 333 102 343 Q95 348 86 353 Q77 358 70 364 Q65 370 70 375.5 Q75 381 81 376 Q88 369 97 364.5 Q106 360 114 355 Q132 345 152 333 Q161 327 170 321.5 Q179 316 188 309 Z " />
<glyph glyph-name="question" unicode="&#x3f;" horiz-adv-x="405" d="M402 722 Q409 712 409 700.5 Q409 689 407 678 Q401 651 388.5 625.5 Q376 600 362 576 Q333 527 303 479 Q273 431 244 382 Q215 331 188 280.5 Q161 230 135 179 Q122 153 109 127.5 Q96 102 84 76 Q81 69 77.5 62.5 Q74 56 72 49 Q70 44 68.5 37.5 Q67 31 62 29 Q56 27 54 33.5 Q52 40 53 44 Q55 51 57.5 57.5 Q60 64 63 71 Q87 122 113.5 172 Q140 222 166 273 Q193 324 221.5 374 Q250 424 281 474 Q296 499 311.5 523.5 Q327 548 341 573 Q355 597 368 622 Q381 647 389 673 Q392 684 393 696.5 Q394 709 386 717 Q377 725 362.5 725.5 Q348 726 337 724 Q311 720 286.5 709 Q262 698 240 684 Q219 671 200 654 Q181 637 170 614 Q168 609 165 603 Q162 597 164 592 Q165 590 166 588 Q167 586 168 584 Q170 578 164 576 Q159 574 155 578 Q151 582 149 587 Q147 598 152 614 Q160 637 178.5 655.5 Q197 674 217 688 Q259 720 311 735 Q323 738 336 740.5 Q349 743 362 741 Q373 741 384.5 736.5 Q396 732 402 722 Z M28 -72 Q36 -73 33 -81 Q30 -89 22 -87 Q14 -84 17.5 -77.5 Q21 -71 28 -72 Z " />
<glyph glyph-name="at" unicode="&#x40;" horiz-adv-x="330" d="M320 390 Q327 363 317.5 337.5 Q308 312 292 291 Q284 281 275 272 Q266 263 255 256 Q246 251 233.5 248 Q221 245 215 256 Q212 261 212 267 Q212 273 213 279 Q213 281 216 291 Q219 301 219 302 Q209 292 199 282.5 Q189 273 177 266 Q168 260 156 259 Q144 258 142 272 Q139 284 145 296 Q151 308 158 318 Q165 326 175.5 335 Q186 344 197 343 Q210 341 212 330 Q212 324 207 322 Q203 320 201.5 322.5 Q200 325 197 327 Q193 330 187.5 325 Q182 320 180 318 Q175 313 171 308 Q167 303 164 298 Q162 295 158.5 286 Q155 277 158 275 Q160 274 163.5 276 Q167 278 169 279 Q172 281 174.5 283.5 Q177 286 180 288 Q191 297 200.5 306.5 Q210 316 220 327 Q222 329 225 331.5 Q228 334 230 337 Q232 339 234.5 342 Q237 345 240 347 Q245 350 249.5 346.5 Q254 343 253 338 Q252 335 250.5 332.5 Q249 330 248 328 Q246 324 244.5 321 Q243 318 242 314 Q239 307 236.5 301 Q234 295 232 288 Q231 284 230 281 Q229 278 229 275 Q229 273 228 269.5 Q227 266 229 265 Q231 262 238.5 265.5 Q246 269 249 271 Q260 279 268.5 288.5 Q277 298 285 309 Q293 320 298.5 332.5 Q304 345 306 359 Q308 372 305 385.5 Q302 399 293 408 Q285 417 272.5 420 Q260 423 249 422 Q237 421 225 416.5 Q213 412 202 407 Q159 382 134 339 Q120 316 112.5 288.5 Q105 261 107 234 Q109 209 125 188.5 Q141 168 170 173 Q194 178 211 195 Q216 200 220.5 205.5 Q225 211 229 216 Q231 218 233 220.5 Q235 223 238 224 Q246 224 246 217 Q247 212 242.5 206.5 Q238 201 235 197 Q226 187 216 178 Q195 160 171 157 Q145 152 125.5 166.5 Q106 181 97 204 Q88 229 91 256.5 Q94 284 102 309 Q119 359 157 394 Q174 410 196.5 422 Q219 434 242 438 Q256 440 270 438 Q284 436 295 428 Q313 415 320 390 Z " />
<glyph glyph-name="bracketleft" unicode="&#x5b;" horiz-adv-x="339" d="M334 741 Q336 736 331.5 734 Q327 732 323 731 Q318 729 312 728 Q306 727 301 725 Q290 722 285.5 714.5 Q281 707 276 698 Q266 675 256 651.5 Q246 628 237 605 Q200 511 170.5 415 Q141 319 113 222 Q99 174 87 126 Q75 78 65 30 Q62 17 60 5 Q58 -7 56 -20 Q54 -31 52 -43.5 Q50 -56 52 -68 Q52 -73 56 -74.5 Q60 -76 65 -77 Q71 -78 77.5 -78.5 Q84 -79 90 -79 Q102 -80 112 -79 Q117 -78 121 -80.5 Q125 -83 123 -88 Q122 -93 117.5 -94.5 Q113 -96 107.5 -96.5 Q102 -97 96 -96.5 Q90 -96 87 -96 Q82 -95 76 -94.5 Q70 -94 65 -93 Q59 -92 54 -91 Q49 -90 44 -87 Q36 -80 35 -70 Q34 -60 36 -51 Q38 -26 42 -1.5 Q46 23 52 47 Q63 97 75.5 145 Q88 193 102 242 Q116 291 131 339.5 Q146 388 161 437 Q192 534 227 625 Q237 648 247 671 Q257 694 268 717 Q276 734 297 740 Q303 742 309 742.5 Q315 743 320 745 Q325 746 329 746 Q333 746 334 741 Z " />
<glyph glyph-name="backslash" unicode="&#x5c;" horiz-adv-x="168" d="M74 705 Q78 682 80 660 Q82 638 84 615 Q92 524 97 433.5 Q102 343 105 251 Q107 159 111 69 Q114 24 117 -20.5 Q120 -65 125 -110 Q125 -115 126.5 -120.5 Q128 -126 128 -131 Q128 -141 120 -139 Q113 -137 111 -128 Q110 -123 109.5 -117 Q109 -111 109 -106 Q107 -94 106.5 -82.5 Q106 -71 104 -59 Q102 -36 100.5 -13.5 Q99 9 98 32 Q95 78 92.5 123.5 Q90 169 89 214 Q86 307 82 398.5 Q78 490 70 582 Q68 605 66.5 627.5 Q65 650 63 673 Q61 684 59 695.5 Q57 707 56 718 Q56 723 55 728.5 Q54 734 53 739 Q53 744 51.5 749.5 Q50 755 51 760 Q51 765 54 766.5 Q57 768 61 766 Q66 763 66 757.5 Q66 752 68 747 Q69 738 70.5 727 Q72 716 74 705 Z " />
<glyph glyph-name="bracketright" unicode="&#x5d;" horiz-adv-x="356" d="M344 696 Q342 672 335 648 Q308 557 285.5 477 Q263 397 237 312 Q212 227 187 143.5 Q162 60 137 -25 Q134 -34 130.5 -43.5 Q127 -53 119 -61 Q111 -69 101 -74.5 Q91 -80 80 -85 Q77 -87 71.5 -90 Q66 -93 60 -95.5 Q54 -98 48.5 -97.5 Q43 -97 42 -91 Q41 -86 44 -84.5 Q47 -83 52 -81 Q56 -80 64.5 -76 Q73 -72 81.5 -67 Q90 -62 98 -56.5 Q106 -51 110 -46 Q113 -42 115.5 -35.5 Q118 -29 120 -24 Q143 67 170.5 154.5 Q198 242 226 331 Q239 374 250.5 414 Q262 454 273 494 Q284 534 295.5 575.5 Q307 617 321 664 Q324 675 326.5 687.5 Q329 700 324 711 Q321 721 311.5 723.5 Q302 726 292 728 Q286 729 280 729 Q274 729 268 730 Q263 730 257 731.5 Q251 733 251 738 Q250 744 254 745 Q258 746 263 745 Q269 743 275.5 743 Q282 743 288 743 Q300 742 311.5 740.5 Q323 739 331 731 Q339 723 341 714.5 Q343 706 344 696 Z " />
<glyph glyph-name="asciicircum" unicode="&#x5e;" horiz-adv-x="147" d="M143 639 Q145 630 142 613 Q139 596 137 582 Q136 577 135.5 572.5 Q135 568 133 564 Q131 560 127.5 558.5 Q124 557 120 560 Q116 563 116.5 566.5 Q117 570 119 577 Q121 587 123 598 Q125 609 125 619 Q119 611 112.5 604 Q106 597 100 589 Q95 584 91 578.5 Q87 573 82 568 Q80 563 77 562 Q71 559 67 566 Q65 571 69 575 Q73 579 75 582 Q81 590 87 597.5 Q93 605 99 613 Q105 621 111 628.5 Q117 636 124 643 Q129 647 135 647 Q141 647 143 639 Z " />
<glyph glyph-name="underscore" unicode="&#x5f;" horiz-adv-x="271" d="M230 210 Q232 207 230 203.5 Q228 200 224 200 Q221 199 218 199.5 Q215 200 212 200 Q210 200 207 200.5 Q204 201 201 201 L175 201 Q164 201 153 202 Q131 202 109.5 202 Q88 202 65 201 L44 201 Q40 201 36.5 202 Q33 203 32 208 Q31 213 34 215 Q37 217 41 217 L62 217 Q84 219 106 218.5 Q128 218 150 218 Q161 218 172 217.5 Q183 217 194 217 Q199 217 204 217 Q209 217 214 216 Q218 216 223 215.5 Q228 215 230 210 Z " />
<glyph glyph-name="grave" unicode="&#x60;" horiz-adv-x="106" d="M80 637 Q83 627 85.5 617 Q88 607 90 596 Q90 593 87.5 590 Q85 587 81 589 Q76 591 74.5 595.5 Q73 600 72 604 Q70 612 68 624 Q66 629 65 634 Q64 639 64 644 Q62 654 72 652 Q77 650 78 645.5 Q79 641 80 637 Z " />
<glyph glyph-name="braceleft" unicode="&#x7b;" horiz-adv-x="254" d="M326 737 Q326 731 321 729 Q319 728 317 729 Q315 730 313 729 Q308 729 302.5 724.5 Q297 720 293 716 Q276 699 264 679 Q252 659 242 638 Q231 615 222 591.5 Q213 568 205 545 Q189 499 172.5 454 Q156 409 124 371 Q120 366 116.5 362.5 Q113 359 108 354 Q106 352 104 350 Q102 348 100 346 Q98 344 95.5 342 Q93 340 93 338 Q102 336 113.5 333 Q125 330 126 318 Q126 308 121 298 L112 274 Q102 251 93 227 Q84 203 76 179 Q68 155 62.5 131 Q57 107 53 83 Q48 58 45.5 32 Q43 6 48 -19 Q52 -40 68 -56 Q74 -62 77 -64 Q80 -67 86 -67 Q91 -68 93.5 -72 Q96 -76 92 -81 Q88 -85 83 -84.5 Q78 -84 73 -81 Q68 -78 64 -74.5 Q60 -71 57 -68 Q40 -52 34 -32 Q27 -8 28.5 17.5 Q30 43 34 67 Q37 92 42.5 116.5 Q48 141 55 165 Q62 189 70.5 212.5 Q79 236 88 259 Q93 270 97 282 Q101 294 106 305 Q108 308 109.5 312 Q111 316 106 318 Q101 320 95 321 Q89 322 84 324 Q73 330 76 338.5 Q79 347 85 354 Q93 363 101.5 371.5 Q110 380 118 390 Q133 409 144 430 Q155 451 164 474 Q181 521 196.5 568 Q212 615 235 660 Q246 680 258.5 700 Q271 720 289 734 Q298 740 307 743 Q312 745 318.5 744 Q325 743 326 737 Z " />
<glyph glyph-name="bar" unicode="&#x7c;" horiz-adv-x="264" d="M272 767 Q277 765 277.5 760.5 Q278 756 276 752 Q275 743 271 730 Q262 698 251 666.5 Q240 635 229 603 Q179 453 132.5 302.5 Q86 152 42 -6 Q37 -27 31 -48.5 Q25 -70 20 -92 Q19 -95 18 -98.5 Q17 -102 12 -103 Q7 -103 5.5 -99 Q4 -95 3 -91 Q14 -46 26 -2.5 Q38 41 50 85 Q88 217 129 346 Q170 475 213 606 Q224 638 234.5 671 Q245 704 256 736 Q258 741 259 746 Q260 751 262 756 Q263 760 265 764 Q267 768 272 767 Z " />
<glyph glyph-name="braceright" unicode="&#x7d;" horiz-adv-x="254" d="M228 643 Q218 595 201.5 549.5 Q185 504 173 456 Q171 445 168 434 Q165 423 166 412 Q167 404 172 396 Q175 391 179.5 388 Q184 385 187 381 Q194 370 185 363 Q176 356 171 350 Q163 342 160 332 Q157 322 155 312 Q149 289 143.5 265 Q138 241 132 218 Q120 171 102 125 Q94 103 84 81.5 Q74 60 63 40 Q39 -1 7 -34 Q-1 -43 -9.5 -52 Q-18 -61 -27 -69 Q-31 -72 -35 -75.5 Q-39 -79 -44 -80 Q-49 -82 -53 -78 Q-57 -74 -54 -69 Q-53 -67 -49 -65 Q-47 -64 -45 -63 Q-43 -62 -41 -60 Q-36 -56 -32 -52 Q-28 -48 -24 -44 Q-8 -29 9 -9 Q40 26 60.5 68.5 Q81 111 96 155 Q104 178 110.5 201.5 Q117 225 123 249 Q126 260 128.5 272 Q131 284 134 296 Q137 307 139 318.5 Q141 330 146 341 Q151 351 157.5 358 Q164 365 173 373 Q165 379 159.5 386 Q154 393 152 402 Q149 412 150 422 Q151 432 153 442 Q158 466 165.5 490 Q173 514 181 537 Q189 560 196 583.5 Q203 607 208 630 Q214 653 217 677 Q218 688 218 701 Q218 714 212 724 Q208 730 198 732 Q194 734 191.5 737 Q189 740 193 744 Q196 747 201 746.5 Q206 746 209 744 Q219 741 224 734 Q231 726 232.5 715 Q234 704 234 693 Q234 680 232 668 Q230 656 228 643 Z " />
<glyph glyph-name="asciitilde" unicode="&#x7e;" horiz-adv-x="198" d="M108 291 Q117 296 125 302 Q133 308 141 313 Q144 315 148 318 Q152 321 156 320 Q166 318 162 309 Q161 305 156.5 302.5 Q152 300 149 298 L131 286 Q125 281 117 276.5 Q109 272 101 276 Q93 280 91.5 289 Q90 298 88 306 Q87 309 86.5 311.5 Q86 314 82 312 Q75 309 67 301 Q64 299 62 295.5 Q60 292 57 290 Q48 286 46 295 Q45 299 47.5 302.5 Q50 306 52 308 Q58 315 66 320 Q72 325 80 328.5 Q88 332 96 326 Q104 320 105 309.5 Q106 299 108 291 Z " />
<glyph glyph-name="A" unicode="A" horiz-adv-x="502" d="M499 606 Q487 537 467 470.5 Q447 404 426 338 L417 308 Q428 307 441.5 304.5 Q455 302 458 290 Q460 279 452 273 Q447 268 443 271 Q439 274 440 280 Q441 284 441 285.5 Q441 287 436 289 Q433 290 425 290.5 Q417 291 412 291 Q395 241 378.5 188 Q362 135 345.5 82.5 Q329 30 314 -20 Q299 -70 286 -115 Q282 -130 278 -144.5 Q274 -159 270 -173 Q269 -176 268 -179.5 Q267 -183 266 -187 Q265 -190 265 -193.5 Q265 -197 263 -201 Q260 -207 255 -205 Q250 -203 250 -197 Q249 -190 251 -183 Q253 -176 255 -169 Q257 -161 259 -154 Q261 -147 263 -139 Q267 -125 270.5 -110.5 Q274 -96 279 -82 Q305 13 334.5 105 Q364 197 394 291 Q359 289 325 284 Q291 279 257 272 Q250 272 246 268 Q244 266 242.5 262 Q241 258 239 255 Q236 249 230 236.5 Q224 224 217 210.5 Q210 197 204 183 Q198 169 194 160 Q194 156 195.5 153 Q197 150 199 147 Q203 138 199.5 124.5 Q196 111 189 96.5 Q182 82 173 68 Q164 54 158 45 Q148 31 138 18 Q128 5 118 -9 Q116 -11 113.5 -13.5 Q111 -16 108 -17 Q100 -17 98 -12 Q95 -7 99.5 1.5 Q104 10 106 15 Q122 51 138.5 86 Q155 121 172 156 Q168 157 163.5 158.5 Q159 160 151.5 161.5 Q144 163 133 163.5 Q122 164 104 163 Q87 162 70 161.5 Q53 161 36 163 Q24 163 14.5 171 Q5 179 11 193 Q19 206 32.5 214.5 Q46 223 59 229 Q88 243 119 253.5 Q150 264 182 272 Q186 273 193 275 Q200 277 208.5 279 Q217 281 224.5 282.5 Q232 284 236 285 Q239 292 242 298 Q247 309 250 314 Q285 386 322 456 Q359 526 399 595 Q413 621 432 652 Q451 683 471 699 Q477 704 484.5 705 Q492 706 497 701 Q503 696 504.5 684 Q506 672 505 657.5 Q504 643 502 629 Q500 615 499 606 Z M181 119 Q183 124 184 130 Q185 136 183 141 Q172 118 161.5 95 Q151 72 140 49 Q153 62 163.5 81.5 Q174 101 181 119 Z M227 267 Q187 257 147 246 Q107 235 67 215 Q55 209 41.5 199.5 Q28 190 26 182 Q27 180 34 179 Q41 178 50 178 Q59 178 69 178.5 Q79 179 87 179 Q90 179 100.5 179.5 Q111 180 124.5 180 Q138 180 152 178 Q166 176 176 172 Q179 171 181 174 L227 267 Z M419 371 Q435 422 450 472.5 Q465 523 477 574 Q480 586 483 604 Q486 622 488.5 639.5 Q491 657 491 671 Q491 685 487 688 Q474 678 459.5 658 Q445 638 434 621 Q422 602 410.5 582.5 Q399 563 388 543 Q366 502 344.5 461.5 Q323 421 302 379 Q290 357 279 334.5 Q268 312 257 289 Q283 294 309 298.5 Q335 303 361 305 Q370 307 380 307 Q390 307 400 308 L419 371 Z " />
<glyph glyph-name="B" unicode="B" horiz-adv-x="550" d="M513 651 Q524 652 540.5 652.5 Q557 653 571.5 649 Q586 645 595.5 636 Q605 627 604 610 Q602 596 594 583.5 Q586 571 577 560 Q567 548 556 537.5 Q545 527 534 516 Q486 473 434.5 434 Q383 395 332 356 Q319 346 307 336 Q295 326 282 315 L272 305 Q270 303 267.5 299 Q265 295 264 292 Q264 287 274 284.5 Q284 282 288 280 Q319 270 349 261 Q379 252 407 235 Q431 221 451 200.5 Q471 180 476 151 Q481 121 468 92.5 Q455 64 438 41 Q418 17 396 -3.5 Q374 -24 350 -43 Q301 -80 249 -108 Q225 -121 196 -134.5 Q167 -148 135.5 -158 Q104 -168 72.5 -171 Q41 -174 12 -165 Q-14 -157 -29.5 -137 Q-45 -117 -47 -85 Q-47 -54 -34.5 -25.5 Q-22 3 -2 27 Q10 42 25 58 Q40 74 55 87.5 Q70 101 84 111.5 Q98 122 109 127 Q111 129 112 133 Q113 137 114 140 Q122 168 127 183 Q132 198 138 217 Q158 280 178.5 342.5 Q199 405 222 467 Q228 481 233.5 495.5 Q239 510 244 525 Q211 502 179.5 476 Q148 450 121 421 Q104 402 85.5 380 Q67 358 59 332 Q59 325 57 322 Q55 315 48 318 Q43 320 43 324 Q43 328 44 332 Q47 351 58.5 368.5 Q70 386 82 401 Q95 417 108.5 431.5 Q122 446 137 460 Q152 474 167.5 487.5 Q183 501 200 513 Q208 519 216.5 525 Q225 531 233 536 Q238 539 241.5 542 Q245 545 250 547 Q255 551 257 555 Q259 559 261 564 Q271 587 280.5 610 Q290 633 300 656 Q307 673 314 689.5 Q321 706 328 723 Q330 727 332.5 731.5 Q335 736 340 735 Q347 731 344 722 Q337 705 330.5 688.5 Q324 672 317 655 Q307 632 297.5 610 Q288 588 279 565 Q304 580 331 592.5 Q358 605 391 619 Q420 630 450.5 638.5 Q481 647 513 651 Z M587 606 Q589 615 585.5 620.5 Q582 626 575.5 629.5 Q569 633 561 634.5 Q553 636 546 636 Q528 637 509.5 634.5 Q491 632 473 627 Q455 623 437.5 617.5 Q420 612 403 606 Q377 596 356.5 587.5 Q336 579 310 565 Q303 561 289.5 554 Q276 547 270 541 Q267 538 263.5 529.5 Q260 521 258 517 Q253 503 249.5 494 Q246 485 241 471 Q234 452 227.5 434 Q221 416 214 397 Q201 361 189 325 Q177 289 166 252 Q164 245 158.5 229 Q153 213 147.5 194.5 Q142 176 136.5 158.5 Q131 141 129 132 Q140 129 144 125 Q151 118 149 113 Q148 110 145 108.5 Q142 107 140 109 Q136 111 134 113 Q132 115 128 115 Q123 115 122 111 Q121 107 120 103 Q109 66 99 28.5 Q89 -9 80 -46 Q78 -60 76.5 -73 Q75 -86 75 -100 Q75 -104 72 -107 Q69 -110 65 -108 Q61 -106 60 -97 Q59 -88 59.5 -77 Q60 -66 62 -56 Q64 -46 65 -41 Q73 -4 83 33 Q93 70 104 105 Q88 96 75 84.5 Q62 73 49 60 Q36 47 24 33 Q12 19 1 5 Q-21 -26 -28 -60 Q-31 -77 -29.5 -93 Q-28 -109 -20.5 -122 Q-13 -135 0.5 -143 Q14 -151 36 -153 Q55 -155 73.5 -152.5 Q92 -150 110 -146 Q145 -137 178.5 -123 Q212 -109 244 -92 Q308 -58 362 -12 Q388 10 412.5 36.5 Q437 63 451 95 Q459 111 461 128.5 Q463 146 456 163 Q450 179 438.5 191 Q427 203 414 212 Q383 233 347.5 244.5 Q312 256 277 267 Q270 269 262.5 272 Q255 275 251 283 Q246 290 248.5 297.5 Q251 305 256 311 Q267 325 281 336 Q295 347 309 358 Q339 382 370 405.5 Q401 429 431 452 Q461 475 490.5 499 Q520 523 546 550 Q557 562 569.5 575.5 Q582 589 587 606 Z " />
<glyph glyph-name="C" unicode="C" horiz-adv-x="402" d="M430 676 Q436 671 437 662.5 Q438 654 437 646 Q434 624 427 607 Q420 588 411.5 569 Q403 550 395 531 Q378 493 361.5 454.5 Q345 416 328 378 Q323 368 319.5 358.5 Q316 349 311 339 Q309 334 307 330 Q305 326 303 321 Q301 316 299 311 Q297 306 294 302 Q288 296 282 302 Q280 306 281 309.5 Q282 313 283 317 Q288 327 291.5 336 Q295 345 300 354 Q317 393 334 431.5 Q351 470 368 508 Q376 528 384 546.5 Q392 565 400 585 Q409 602 415 623 Q419 634 420 642 Q421 646 422 651 Q423 656 421 661 Q419 666 410.5 663 Q402 660 392 654 Q382 648 373.5 641.5 Q365 635 363 633 Q347 620 333.5 606.5 Q320 593 306 578 Q279 549 255 517.5 Q231 486 208 453 Q162 386 124.5 313 Q87 240 63 162 Q51 123 43 83 Q35 43 35 1 Q35 -17 37 -36 Q39 -55 44.5 -73 Q50 -91 59 -107 Q68 -123 83 -135 Q97 -147 114.5 -151.5 Q132 -156 150 -155.5 Q168 -155 186 -150 Q204 -145 220 -138 Q229 -134 237 -129.5 Q245 -125 253 -120 Q256 -118 260 -115.5 Q264 -113 266 -109 Q268 -107 270 -104.5 Q272 -102 276 -104 Q281 -106 281 -109.5 Q281 -113 278.5 -116.5 Q276 -120 273 -123.5 Q270 -127 268 -128 Q260 -134 252.5 -139 Q245 -144 237 -148 Q204 -165 163.5 -170.5 Q123 -176 89 -158 Q56 -141 41 -107 Q26 -73 21 -38 Q19 -18 19 1 Q19 20 21 40 Q29 121 57 197 Q85 273 123 344 Q161 416 207.5 483 Q254 550 311 608 Q325 622 339 634.5 Q353 647 369 658 Q374 662 382 667.5 Q390 673 398 676.5 Q406 680 414.5 680.5 Q423 681 430 676 Z " />
<glyph glyph-name="D" unicode="D" horiz-adv-x="643" d="M611 613 Q632 585 638.5 551 Q645 517 642 483 Q639 448 628.5 415 Q618 382 604 350 Q575 287 534 230 Q493 173 446 122 Q398 70 346 24 Q294 -22 234 -60 Q219 -69 204 -78 Q189 -87 173 -95 Q157 -103 142 -109 Q137 -111 136.5 -112.5 Q136 -114 135 -119 Q133 -132 129.5 -144.5 Q126 -157 124 -172 Q123 -176 123 -179.5 Q123 -183 122 -188 Q122 -192 122 -196 Q122 -200 119 -202 Q114 -207 110 -201 Q107 -199 107 -194 Q107 -189 107 -185 Q107 -168 111 -151.5 Q115 -135 118 -118 Q97 -125 76 -129.5 Q55 -134 33 -132 Q13 -130 -4.5 -121 Q-22 -112 -31 -94 Q-41 -76 -41.5 -55.5 Q-42 -35 -36 -14 Q-30 7 -20.5 26.5 Q-11 46 0 62 Q21 98 50 130 Q64 145 79.5 160.5 Q95 176 113 186 Q117 188 120.5 189.5 Q124 191 128 190 Q133 188 135 184 Q137 180 133 177 Q131 175 129.5 175 Q128 175 126 175 Q122 175 119 172 Q114 168 110 165 Q106 162 102 158 Q86 144 72 130 Q58 116 45 99 Q32 82 20.5 64.5 Q9 47 -1 28 Q-9 14 -16 -6.5 Q-23 -27 -24 -47 Q-25 -67 -17.5 -84.5 Q-10 -102 11 -111 Q37 -121 66 -115.5 Q95 -110 121 -99 Q134 -58 143 -22.5 Q152 13 160 42 Q184 132 211 219 Q237 307 264 393 Q291 479 324 564 Q328 574 332 583 Q336 592 339 602 Q307 585 275 562 Q243 539 207 511 Q175 487 147 460 Q140 454 134 447 Q128 440 123 432 Q121 428 120 425.5 Q119 423 121 418 Q123 415 122.5 411.5 Q122 408 117 407 Q109 405 105.5 413 Q102 421 103 427 Q105 436 110.5 443.5 Q116 451 122 458 Q135 472 149.5 485 Q164 498 179 510 Q214 538 251 565 Q288 592 329 615 Q333 617 338.5 619.5 Q344 622 348 625 Q350 627 353 634.5 Q356 642 357 644 Q362 657 365.5 665.5 Q369 674 371.5 681 Q374 688 377 694.5 Q380 701 383 710 Q385 715 387 719.5 Q389 724 391 730 Q393 734 395 738.5 Q397 743 402 741 Q408 737 407.5 732.5 Q407 728 405 723 Q402 715 399.5 708.5 Q397 702 394 694 Q389 680 383 665.5 Q377 651 371 637 Q404 650 436 659.5 Q468 669 506 667 Q537 665 564.5 651.5 Q592 638 611 613 Z M620 446 Q624 467 626 489.5 Q628 512 625 534 Q622 556 614 576 Q606 596 590 613 Q558 646 514.5 649.5 Q471 653 429 641 Q399 633 366 617 Q361 614 359.5 609 Q358 604 356 599 Q347 576 338 554.5 Q329 533 321 510 Q304 465 289 419.5 Q274 374 260 328 Q228 223 198 119 Q168 15 142 -91 Q152 -87 162 -82 Q172 -77 182 -72 Q192 -67 201.5 -61 Q211 -55 221 -49 Q240 -37 258.5 -24 Q277 -11 295 3 Q368 60 430 129 Q462 164 490.5 200.5 Q519 237 545 277 Q570 315 589.5 357.5 Q609 400 620 446 Z " />
<glyph glyph-name="E" unicode="E" horiz-adv-x="492" d="M505 633 Q511 607 506 580.5 Q501 554 492 530 Q483 504 470.5 481 Q458 458 444 435 Q430 409 416 389 Q413 383 409 377.5 Q405 372 402 366 Q401 364 400.5 362 Q400 360 398 358 Q393 355 390 358 Q385 363 387.5 368.5 Q390 374 392 379 Q395 385 398.5 390.5 Q402 396 406 402 Q418 424 434 449 Q448 472 460 495.5 Q472 519 480 544 Q488 567 492 594.5 Q496 622 483 645 Q470 667 446 670 Q422 673 401 668 Q377 663 354 653.5 Q331 644 310 631 Q268 606 229 572 Q191 538 156.5 499 Q122 460 95 415 Q88 404 82 392.5 Q76 381 71 368 Q66 357 62.5 344.5 Q59 332 61 319 Q62 305 69.5 297 Q77 289 87.5 284 Q98 279 110.5 277 Q123 275 134 274 Q161 272 188 273 Q215 274 242 274 Q247 274 254 274 Q261 274 266 271 Q274 264 267 255 Q263 250 258 246 Q253 242 248 238 Q243 234 237.5 230 Q232 226 227 222 Q185 190 146.5 154 Q108 118 75 77 Q52 49 30 14 Q8 -21 3 -60 Q2 -71 4.5 -81 Q7 -91 16 -99 Q26 -107 39 -108 Q52 -109 63 -107 Q88 -103 112 -92 Q163 -72 209.5 -45.5 Q256 -19 304 7 Q321 17 339 26.5 Q357 36 372 49 Q375 52 378.5 56 Q382 60 387 55 Q392 51 390 46 Q388 41 382.5 36.5 Q377 32 371.5 28.5 Q366 25 363 24 Q330 1 294 -18 Q258 -37 219 -58 Q196 -71 172 -82.5 Q148 -94 123 -105 Q101 -114 76 -121.5 Q51 -129 27 -122 Q16 -120 7 -113.5 Q-2 -107 -7 -96 Q-12 -85 -12.5 -72.5 Q-13 -60 -11 -48 Q-6 -22 5.5 1 Q17 24 31 45 Q59 87 94.5 124.5 Q130 162 168 195 Q171 198 181.5 207 Q192 216 205 226 Q218 236 229.5 245.5 Q241 255 246 258 Q246 258 238.5 258 Q231 258 221 258 Q211 258 202.5 257.5 Q194 257 192 257 Q165 255 138 257 Q115 259 89.5 265.5 Q64 272 52 294 Q40 316 46 341.5 Q52 367 62 388 Q73 412 87.5 434.5 Q102 457 118 478 Q134 498 151 517 Q168 536 186 554 Q223 590 264 620.5 Q305 651 353 671 Q376 680 399.5 684.5 Q423 689 447 686 Q457 684 466.5 680.5 Q476 677 484 669 Q492 662 497 653 Q502 644 505 633 Z " />
<glyph glyph-name="F" unicode="F" horiz-adv-x="613" d="M707 721 Q711 718 712 713.5 Q713 709 708 707 Q692 700 666.5 692.5 Q641 685 621 679 Q591 670 561.5 661 Q532 652 503 641 Q474 630 446 619 Q418 608 389 596 Q362 584 334 570 Q327 568 325 562 Q323 556 321 551 L309 521 Q294 483 280.5 447 Q267 411 251 364 Q247 353 244.5 344 Q242 335 240 330 Q282 332 323 334.5 Q364 337 406 337 Q437 337 473 336 Q509 335 531 330 Q537 328 542.5 325 Q548 322 549 314 Q550 309 545.5 302 Q541 295 535 297 Q530 299 530 304 Q530 306 531 308 Q532 310 532 312 Q527 317 517.5 317.5 Q508 318 499 319 Q468 321 437 320.5 Q406 320 376 319 Q371 319 351 318 Q331 317 307.5 316 Q284 315 262.5 314 Q241 313 233 312 Q225 286 217 263 Q209 240 201 214 Q182 154 164 94 Q146 34 129 -27 Q121 -57 112.5 -87 Q104 -117 97 -148 Q93 -163 90 -178.5 Q87 -194 85 -210 L85 -223 Q87 -230 85 -233 Q80 -239 75.5 -234.5 Q71 -230 69 -225 Q67 -218 68 -211 Q69 -204 70 -197 Q75 -174 79.5 -151.5 Q84 -129 90 -106 Q98 -76 106.5 -46 Q115 -16 124 15 Q141 75 159 134.5 Q177 194 197 254 L215 311 Q204 311 193.5 310 Q183 309 172 309 Q161 308 149.5 307.5 Q138 307 127 307 Q105 307 82 308 Q59 309 39 318 Q18 328 18 344.5 Q18 361 28 378.5 Q38 396 53 411.5 Q68 427 78 435 Q111 464 148 487.5 Q185 511 223 532 Q243 543 262.5 553 Q282 563 303 573 Q307 575 310.5 577 Q314 579 316 583 Q319 588 321.5 594 Q324 600 326 605 Q333 621 339.5 635 Q346 649 355 669 Q357 674 359.5 679 Q362 684 366 687 Q370 691 374.5 690 Q379 689 381.5 685.5 Q384 682 384.5 678 Q385 674 381 672 Q379 671 377.5 671.5 Q376 672 374 671 Q372 670 371 667 Q370 664 369 662 Q360 644 352.5 627 Q345 610 337 590 Q355 597 372 605 Q389 613 406 620 Q424 628 442 635 Q460 642 478 649 Q553 677 626 697 Q643 703 666.5 709.5 Q690 716 707 721 Z M284 500 Q289 514 295 528 Q301 542 305 556 Q207 511 119 447 Q99 432 79 415 Q59 398 45 376 Q40 368 35.5 356 Q31 344 42 336 Q53 328 67.5 326.5 Q82 325 95 324 Q111 323 126 323.5 Q141 324 157 325 Q173 326 189 326.5 Q205 327 221 328 Q232 357 241.5 385 Q251 413 262 442 Q267 456 272.5 470.5 Q278 485 284 500 Z " />
<glyph glyph-name="G" unicode="G" horiz-adv-x="513" d="M400 148 Q404 150 407 147.5 Q410 145 410 141 Q410 137 407.5 134.5 Q405 132 403 129 Q400 124 397.5 119.5 Q395 115 392 110 Q371 74 344 41 Q319 9 290.5 -19.5 Q262 -48 230 -71 Q215 -82 198 -92 Q181 -102 162.5 -109 Q144 -116 125 -117.5 Q106 -119 88 -113 Q70 -107 57 -93.5 Q44 -80 36 -63 Q28 -46 23.5 -27.5 Q19 -9 17 9 Q15 29 16 50 Q17 71 19 91 Q29 177 63.5 256.5 Q98 336 146 407 Q194 478 251 535 Q280 564 311.5 590 Q343 616 379 634 Q386 637 396 641 Q406 645 416.5 647 Q427 649 436.5 647.5 Q446 646 453 639 Q458 634 459.5 625.5 Q461 617 461 609 Q461 590 454.5 564 Q448 538 439 509.5 Q430 481 420.5 452.5 Q411 424 404 400 Q402 395 401.5 390 Q401 385 399 381 Q393 372 386 379 Q383 383 384 388 Q385 393 387 398 L393 419 Q399 440 405.5 461 Q412 482 418 503 Q421 512 426 528.5 Q431 545 435.5 563 Q440 581 443 597.5 Q446 614 444 623 Q442 631 433.5 631.5 Q425 632 418 631 Q399 626 381.5 616.5 Q364 607 348 596 Q306 565 261 521 Q216 477 178 425 Q129 357 92.5 280.5 Q56 204 40 122 Q33 82 31.5 39 Q30 -4 44 -43 Q51 -60 61.5 -74.5 Q72 -89 89 -96 Q107 -104 127 -101 Q147 -98 164 -90 Q201 -75 232.5 -49.5 Q264 -24 291 5 Q320 34 343.5 66.5 Q367 99 388 134 Q390 138 393 142 Q396 146 400 148 Z M462 169 Q469 167 476 162.5 Q483 158 480 149 Q479 145 476 142 Q473 139 469 140 Q462 142 464 152 Q445 156 426 155.5 Q407 155 387 154 Q367 153 347.5 151.5 Q328 150 308 148 Q269 143 230 137.5 Q191 132 152 126 Q147 125 136.5 123.5 Q126 122 122 128 Q118 134 124 138 Q128 140 131.5 138.5 Q135 137 143 139 Q202 151 259.5 159 Q317 167 377 170 Q398 171 419.5 172 Q441 173 462 169 Z " />
<glyph glyph-name="H" unicode="H" horiz-adv-x="440" d="M497 751 Q505 750 505 741.5 Q505 733 504 728 Q500 711 494.5 695.5 Q489 680 484 664 L460 598 Q449 565 437 532 Q425 499 414 466 Q390 392 368 318.5 Q346 245 326 170 Q333 169 341 168 Q349 167 356 164 Q361 161 365 155 Q369 149 364 144 Q359 138 355 143 Q351 148 346 150 Q335 155 321 153 Q298 72 276.5 -9.5 Q255 -91 234 -173 Q231 -186 228.5 -194.5 Q226 -203 224.5 -209 Q223 -215 222 -220.5 Q221 -226 220 -233 Q219 -237 218.5 -242 Q218 -247 216 -251 Q214 -254 210 -254.5 Q206 -255 204 -252 Q202 -248 202.5 -243 Q203 -238 203 -234 Q205 -223 207.5 -213.5 Q210 -204 212 -193 Q231 -112 254 -31 Q266 16 279 61.5 Q292 107 304 154 Q267 156 220.5 152.5 Q174 149 138 144 Q135 144 134 141 Q132 137 131.5 133.5 Q131 130 129 126 Q122 104 116 81 Q110 58 103 36 Q85 -24 68 -83 Q51 -142 34 -202 Q29 -216 25.5 -231.5 Q22 -247 17 -261 Q15 -266 11.5 -269.5 Q8 -273 4 -268 Q-1 -264 1.5 -256 Q4 -248 5 -243 Q13 -214 21.5 -184.5 Q30 -155 39 -125 Q59 -58 78 8 Q97 74 117 141 Q102 139 82.5 135.5 Q63 132 42.5 128 Q22 124 1.5 119 Q-19 114 -36 110 Q-40 109 -44 108.5 Q-48 108 -50 113 Q-52 118 -48.5 120.5 Q-45 123 -41 124 Q-3 136 36 144 Q75 152 115 158 Q116 158 118.5 158 Q121 158 122 159 Q124 160 124 163 Q124 166 125 167 Q132 191 139 216 Q146 241 153 264 Q165 303 176.5 342 Q188 381 199 420 Q211 458 223 496.5 Q235 535 248 573 Q262 611 276 649.5 Q290 688 303 726 Q304 730 306 734.5 Q308 739 308 743 Q308 747 307 750.5 Q306 754 311 756 Q320 760 322 752 Q324 748 323.5 743.5 Q323 739 321 735 Q317 715 310 696.5 Q303 678 296 659 Q282 621 269 583.5 Q256 546 244 508 Q216 421 191 334.5 Q166 248 140 161 Q174 164 208 167 Q242 170 276 171 L304 171 Q308 171 309 173 Q312 183 316 198.5 Q320 214 324.5 229 Q329 244 332.5 256 Q336 268 337 272 Q357 339 377.5 405 Q398 471 421 537 Q432 570 444 602.5 Q456 635 467 668 Q473 684 478.5 699.5 Q484 715 489 732 Q489 734 489.5 735.5 Q490 737 489 739 Q489 741 488.5 742 Q488 743 488 745 Q490 753 497 751 Z " />
<glyph glyph-name="I" unicode="I" horiz-adv-x="324" d="M430 696 Q434 693 434.5 686.5 Q435 680 428 679 Q425 678 423.5 679.5 Q422 681 420 683 Q415 687 408 687 Q391 689 375 690 Q359 691 342 691 Q339 691 339 687 Q334 674 331 660.5 Q328 647 322 630 Q299 567 277.5 503.5 Q256 440 235 376 Q215 311 196 247 Q177 183 158 118 Q140 53 122.5 -11 Q105 -75 91 -141 Q89 -148 87.5 -155.5 Q86 -163 87 -171 Q102 -170 117 -169 Q132 -168 147 -170 Q153 -170 161 -172 Q169 -174 171 -180 Q175 -188 168 -190 Q164 -192 161 -190.5 Q158 -189 155 -188 Q147 -186 139.5 -186 Q132 -186 124 -186 Q116 -186 109 -186 Q102 -186 94 -187 Q78 -188 63 -189 Q48 -190 32 -192 Q24 -193 17.5 -194 Q11 -195 3 -197 Q0 -198 -3 -198.5 Q-6 -199 -8 -196 Q-13 -192 -9 -188 Q-6 -183 2.5 -181.5 Q11 -180 16 -178 Q24 -176 31 -175.5 Q38 -175 46 -174 Q50 -174 53.5 -173.5 Q57 -173 61 -173 Q66 -173 68 -172 Q70 -171 69.5 -171.5 Q69 -172 70 -170 Q71 -169 71 -167 Q71 -159 72 -152 Q73 -145 75 -137 Q78 -121 81.5 -105.5 Q85 -90 89 -74 Q105 -11 122.5 50 Q140 111 157 173 Q175 236 193.5 296.5 Q212 357 232 418 Q252 480 273 540.5 Q294 601 315 662 Q317 669 319.5 676 Q322 683 324 690 Q316 692 308.5 691 Q301 690 293 690 Q285 689 276.5 689 Q268 689 260 688 Q256 688 252.5 687.5 Q249 687 244 687 Q241 686 236.5 685.5 Q232 685 230 687 Q224 689 226 695 Q228 699 231 699.5 Q234 700 237 701 Q269 706 302.5 707 Q336 708 369 707 Q386 707 403 704 Q410 703 417 702 Q424 701 430 696 Z " />
<glyph glyph-name="J" unicode="J" horiz-adv-x="618" d="M587 597 Q599 572 603 543 Q607 514 604 486 Q598 423 575.5 366 Q553 309 522 255 Q490 201 452 150.5 Q414 100 370 54 Q327 8 278.5 -32 Q230 -72 175 -104 Q148 -119 119.5 -131.5 Q91 -144 60 -150 Q32 -156 1.5 -152.5 Q-29 -149 -50 -126 Q-70 -105 -70.5 -76 Q-71 -47 -61 -21 Q-51 5 -33.5 28 Q-16 51 7 68 Q30 86 56 98.5 Q82 111 109 121 Q124 127 139 132 Q154 137 170 140 Q175 141 183 143 Q191 145 199 145 Q207 145 213.5 142.5 Q220 140 222 133 Q224 128 220.5 122.5 Q217 117 211 120 Q209 122 208 124 Q207 126 205 127 Q203 129 198 128.5 Q193 128 190 127 Q174 125 159 120.5 Q144 116 129 111 Q100 101 72.5 89 Q45 77 21 58 Q-2 41 -20 18.5 Q-38 -4 -48 -31 Q-57 -57 -52.5 -85 Q-48 -113 -22 -128 Q4 -142 36 -137.5 Q68 -133 95 -123 Q124 -113 151.5 -98.5 Q179 -84 205 -67 Q257 -32 303 10.5 Q349 53 390 100 Q432 148 468 200.5 Q504 253 533 310 Q547 338 558.5 367.5 Q570 397 578 428 Q586 459 588.5 491 Q591 523 584 554 Q578 582 563.5 606 Q549 630 524 644 Q497 659 465.5 662.5 Q434 666 403 664 Q341 658 282 633 Q224 610 179 573 Q156 555 136.5 531.5 Q117 508 109 479 Q104 465 103.5 450.5 Q103 436 111 423 Q118 411 129.5 403.5 Q141 396 154 392 Q184 382 217 384 Q250 386 281 392 Q314 398 343 407 Q347 409 351 409.5 Q355 410 359 412 Q362 413 365.5 413.5 Q369 414 372 412 Q377 410 375 404 Q373 400 370 399.5 Q367 399 364 398 Q349 393 333.5 388 Q318 383 302 379 Q286 376 270.5 373.5 Q255 371 239 369 Q209 367 176.5 370 Q144 373 118 391 Q95 409 89 435 Q86 450 88.5 465 Q91 480 97 494 Q108 521 127 544 Q146 567 169 586 Q217 624 275 648 Q333 672 393 679 Q424 683 456 680.5 Q488 678 517 665 Q564 645 587 597 Z " />
<glyph glyph-name="K" unicode="K" horiz-adv-x="555" d="M839 -189 Q837 -190 836 -192 Q835 -194 831 -194 Q828 -194 826 -191.5 Q824 -189 822 -187 Q817 -182 810.5 -179 Q804 -176 797 -173 Q782 -167 766.5 -162.5 Q751 -158 734 -153 Q702 -144 669 -136.5 Q636 -129 603 -122 Q536 -107 469 -94 Q402 -81 334 -70 Q301 -64 268 -59.5 Q235 -55 202 -50 Q169 -46 135.5 -42 Q102 -38 69 -31 Q68 -31 67.5 -30.5 Q67 -30 66 -30 Q64 -31 64 -31 Q62 -35 62 -38 Q60 -43 59.5 -47 Q59 -51 57 -56 Q55 -64 53 -72.5 Q51 -81 49 -89 Q44 -106 40 -122.5 Q36 -139 31 -156 Q27 -172 23 -188 Q19 -204 17 -221 Q16 -226 16 -234 Q16 -242 10 -244 Q2 -246 1 -237 Q0 -228 0 -223 Q2 -206 6 -190 Q10 -174 14 -157 Q18 -140 22 -124 Q26 -108 31 -91 L40 -58 Q42 -48 44 -43 Q44 -41 46 -35 Q46 -33 47 -31 Q48 -29 48 -27 Q47 -25 47.5 -26 Q48 -27 46 -26 Q43 -23 43 -24 Q40 -24 36 -22 Q31 -21 21 -17 Q7 -11 -3 -1 Q-15 10 -17 24 Q-19 38 -15.5 52 Q-12 66 -4.5 79.5 Q3 93 11 104 Q29 131 51 155 Q73 179 96 202 L108 214 Q110 217 113.5 219.5 Q117 222 119 226 Q121 229 121.5 232.5 Q122 236 123 239 Q125 244 126 247.5 Q127 251 128 256 Q133 272 138 288 Q143 304 148 321 Q158 353 168.5 384.5 Q179 416 191 448 Q214 511 239.5 573 Q265 635 294 696 Q298 704 301 711.5 Q304 719 308 727 Q311 732 315.5 737.5 Q320 743 327 737 Q333 733 329 728 Q327 726 325.5 725 Q324 724 322 721 Q318 713 315 705.5 Q312 698 308 690 Q295 659 281.5 628.5 Q268 598 255 567 Q202 441 162 312 Q157 296 152.5 281 Q148 266 143 250 Q160 264 174.5 279.5 Q189 295 205 310 Q221 325 237 340 Q253 355 269 370 Q301 401 334 431 Q367 461 400 491 Q464 550 533 609 Q568 638 602 667 Q636 696 671 725 Q675 729 678.5 732 Q682 735 686 738 Q690 742 693.5 746 Q697 750 702 755 Q704 757 708 757.5 Q712 758 714 754 Q716 750 714 745.5 Q712 741 710 739 Q702 732 695.5 725.5 Q689 719 681 712 Q673 704 664 697.5 Q655 691 647 683 Q612 654 578.5 625 Q545 596 510 567 Q442 508 377 448 Q312 388 247 327 Q230 311 214.5 296 Q199 281 183 265 Q175 257 166.5 249.5 Q158 242 150 234 Q147 230 143 227 Q139 224 136 219 Q132 215 131 210 Q130 205 129 200 Q116 157 104 114 Q92 71 80 28 L68 -14 Q106 -22 145 -27 Q184 -32 223 -37 Q301 -48 379 -61 Q457 -75 534.5 -90.5 Q612 -106 690 -125 Q731 -135 774 -148 Q785 -152 795 -155.5 Q805 -159 815 -164 Q822 -167 830.5 -173 Q839 -179 839 -189 Z M109 192 Q108 192 103 186.5 Q98 181 91.5 174.5 Q85 168 79 161.5 Q73 155 72 154 Q62 143 53 132 Q44 121 35 110 Q27 99 19 88 Q11 77 6 64 Q1 53 -1.5 40 Q-4 27 4 16 Q12 4 25.5 -1 Q39 -6 52 -10 Q66 41 80.5 91 Q95 141 109 192 Z " />
<glyph glyph-name="L" unicode="L" horiz-adv-x="435" d="M621 -98 Q624 -101 624 -104.5 Q624 -108 624 -112 Q619 -115 617 -114.5 Q615 -114 611 -111 Q607 -109 603 -108.5 Q599 -108 594 -108 Q585 -107 575.5 -107.5 Q566 -108 557 -109 Q537 -111 518.5 -112.5 Q500 -114 481 -116 Q443 -120 406.5 -124 Q370 -128 332 -133 Q260 -143 183 -151 Q165 -153 146.5 -154.5 Q128 -156 109 -155 Q92 -154 75.5 -151 Q59 -148 45 -139 Q31 -130 23 -116.5 Q15 -103 11.5 -87.5 Q8 -72 7.5 -55 Q7 -38 9 -23 Q12 14 20.5 50.5 Q29 87 40 122 Q63 194 93 264 Q123 334 156 402 Q189 471 224.5 539 Q260 607 294 676 Q296 680 297.5 683.5 Q299 687 301 691 Q303 695 304 699.5 Q305 704 307 707 Q312 710 317 707 Q319 705 319 701 Q319 697 318 694 Q312 677 304 660 Q296 643 288 626 Q271 591 253 557 Q235 523 217 489 Q182 420 150 351.5 Q118 283 90 211 Q76 176 64 140.5 Q52 105 42 68 Q37 50 33 31.5 Q29 13 27 -7 Q25 -24 24 -43 Q23 -62 27 -79 Q30 -94 37 -106.5 Q44 -119 58 -127 Q74 -136 92.5 -137.5 Q111 -139 129 -138 Q167 -137 204 -132.5 Q241 -128 278 -123 Q316 -118 352.5 -114 Q389 -110 427 -105 Q465 -100 502 -96.5 Q539 -93 577 -91 Q585 -91 593.5 -91 Q602 -91 610 -93 Q618 -95 621 -98 Z " />
<glyph glyph-name="M" unicode="M" horiz-adv-x="659" d="M679 697 Q689 694 689 683 Q689 672 689 664 Q687 651 684.5 639 Q682 627 679 616 Q676 604 673 592 Q670 580 666 567 Q652 519 636.5 471 Q621 423 606 375 Q592 326 577 277.5 Q562 229 547 181 Q533 133 518.5 84.5 Q504 36 490 -12 Q482 -36 475 -60 Q468 -84 461 -108 Q458 -121 454.5 -133 Q451 -145 448 -158 Q446 -163 446 -168 Q446 -173 444 -178 Q442 -182 438.5 -183 Q435 -184 432 -181 Q427 -177 428 -172 Q429 -167 431 -162 Q433 -155 434 -148.5 Q435 -142 437 -136 Q440 -124 443.5 -111.5 Q447 -99 451 -87 Q458 -63 464.5 -39 Q471 -15 479 9 Q493 58 508 106.5 Q523 155 537 204 Q552 252 567 300.5 Q582 349 597 398 Q612 446 626.5 493.5 Q641 541 655 590 Q658 601 661 612.5 Q664 624 667 636 Q669 646 671.5 657 Q674 668 673 679 Q668 675 663.5 669.5 Q659 664 655 659 Q645 648 638 636 Q629 623 621 610 Q613 597 605 583 Q589 557 573.5 530.5 Q558 504 541 477 Q479 373 411 268 Q394 243 377 218.5 Q360 194 341 171 Q332 160 322.5 149.5 Q313 139 302 130 Q293 122 280.5 116 Q268 110 257 119 Q246 128 243.5 143 Q241 158 240 171 Q238 187 238.5 202.5 Q239 218 240 234 Q242 264 245 294.5 Q248 325 253 355 Q262 417 273 477.5 Q284 538 295 599 Q297 607 298 614 Q299 621 299 628 Q288 611 279 591.5 Q270 572 260 553 L224 472 Q206 432 189 392 Q172 352 155 311 Q123 230 94.5 147 Q66 64 44 -21 Q38 -45 32.5 -69 Q27 -93 22 -117 Q20 -129 17.5 -140.5 Q15 -152 13 -164 Q11 -172 11 -176 Q11 -178 11.5 -179.5 Q12 -181 13 -183 Q15 -187 12 -190.5 Q9 -194 5 -193 Q-4 -189 -4 -181 Q-5 -175 -4 -169 Q-3 -163 -2 -157 Q0 -145 2.5 -133 Q5 -121 7 -109 Q12 -84 17.5 -60 Q23 -36 29 -13 Q55 86 87 178 Q121 273 160 365.5 Q199 458 241 549 Q251 572 261.5 593.5 Q272 615 284 636 Q288 642 294 652 Q300 662 308 660 Q319 658 318 645.5 Q317 633 316 626 Q313 601 308.5 577 Q304 553 299 528 Q294 504 290 479 Q286 454 281 429 Q277 405 273.5 380.5 Q270 356 267 331 Q263 306 260.5 281.5 Q258 257 256 232 Q255 219 255 207 Q255 195 255 182 Q256 171 257.5 158.5 Q259 146 264 136 Q267 131 271.5 131 Q276 131 280.5 133.5 Q285 136 289 139.5 Q293 143 296 145 Q314 163 326 179 Q358 217 385 257.5 Q412 298 438 340 Q465 382 490.5 424.5 Q516 467 542 510 Q555 532 567.5 553 Q580 574 594 596 Q606 616 618.5 636.5 Q631 657 646 675 Q651 682 660 690.5 Q669 699 679 697 Z " />
<glyph glyph-name="N" unicode="N" horiz-adv-x="567" d="M606 689 Q608 685 606 677 Q604 670 602 663 Q600 656 598 648 Q583 591 568.5 534.5 Q554 478 539 421 Q525 364 510 308 Q495 252 478 195 Q469 167 460 139.5 Q451 112 440 85 Q429 58 418.5 31.5 Q408 5 394 -21 Q383 -43 365 -66 Q357 -75 347 -83 Q337 -91 324 -92 Q310 -92 300 -84 Q290 -76 282.5 -64.5 Q275 -53 270 -39.5 Q265 -26 262 -16 Q253 12 248.5 39.5 Q244 67 239 96 Q233 153 230 214 Q228 274 229 332 Q230 390 235 450 Q236 464 237 477.5 Q238 491 240 505 Q241 513 241.5 519.5 Q242 526 242 533 Q243 539 244 546 Q245 553 245 559 Q234 533 225 506 Q216 479 207 452 Q198 424 189 396 Q180 368 171 340 Q153 283 135 227.5 Q117 172 100 115 Q83 58 67.5 2.5 Q52 -53 36 -110 Q32 -124 28.5 -137.5 Q25 -151 21 -165 Q19 -171 17 -179 Q16 -181 16 -185 Q16 -189 14 -191 Q10 -196 5 -193.5 Q0 -191 1 -185 Q1 -178 3 -171.5 Q5 -165 7 -158 Q9 -150 10.5 -143.5 Q12 -137 14 -129 Q18 -115 22 -101 Q26 -87 30 -73 Q46 -16 62 40.5 Q78 97 95 154 Q112 211 130 266.5 Q148 322 166 379 Q175 408 184.5 435.5 Q194 463 203 491 Q208 505 212.5 518 Q217 531 222 545 Q225 553 227.5 559 Q230 565 233 573 Q235 578 237.5 584 Q240 590 245 595 Q249 599 254 598.5 Q259 598 261 593 Q264 586 263 578.5 Q262 571 261 564 Q260 550 259 535 Q258 520 256 505 Q254 477 251.5 448.5 Q249 420 247 391 Q241 275 250 159 Q252 130 255.5 100.5 Q259 71 264 42 Q267 28 270 14.5 Q273 1 278 -13 Q283 -26 288 -38 Q293 -50 301 -61 Q305 -66 309.5 -69.5 Q314 -73 319 -75 Q325 -76 330.5 -73.5 Q336 -71 341 -68 Q351 -60 358.5 -49 Q366 -38 372 -27 Q386 -2 397.5 24 Q409 50 419 76 Q440 131 457.5 185.5 Q475 240 490 297 Q506 355 520.5 412 Q535 469 550 527 Q558 556 564.5 584 Q571 612 579 641 Q581 648 583 655 Q585 662 587 669 Q588 674 590 681.5 Q592 689 597 691 Q602 695 606 689 Z " />
<glyph glyph-name="O" unicode="O" horiz-adv-x="614" d="M575 536 Q587 468 575.5 397 Q564 326 538 258 Q498 149 436 56 Q406 9 370.5 -33.5 Q335 -76 291 -111 Q271 -127 247.5 -140.5 Q224 -154 198 -159 Q171 -165 147.5 -157 Q124 -149 108 -126 Q93 -103 87.5 -75.5 Q82 -48 81 -22 Q80 7 83.5 35.5 Q87 64 92 93 Q95 107 98 121 Q101 135 105 149 Q106 151 107 154 Q108 157 107 160 Q105 163 103.5 166 Q102 169 100 172 Q96 179 92.5 185 Q89 191 86 197 Q73 222 61.5 247.5 Q50 273 45 301 Q35 357 51 410.5 Q67 464 96 511 Q125 556 163.5 594 Q202 632 249 659 Q297 686 353 698 Q409 710 462 689 Q511 670 538.5 628 Q566 586 575 536 Z M559 401 Q567 452 563 506 Q559 560 533 606 Q511 646 471 667 Q449 679 424.5 683 Q400 687 375 684 Q323 679 275 654.5 Q227 630 189 596 Q151 562 121.5 520.5 Q92 479 75 431 Q55 380 58 327 Q60 300 69 275 Q78 250 90 226 Q96 214 102 202.5 Q108 191 114 180 Q117 188 119.5 195.5 Q122 203 125 211 Q127 219 130.5 227.5 Q134 236 137 244 Q143 261 150 277 Q157 293 164 310 Q172 327 180 343 Q188 359 196 375 Q204 391 212 406 Q220 421 230 435 Q232 438 234.5 441.5 Q237 445 240 447 Q243 449 246 448 Q249 447 250 444 Q252 440 250 437 Q248 434 246 432 Q243 428 240.5 424 Q238 420 236 416 Q228 401 219.5 385.5 Q211 370 203 354 Q187 322 173 290 Q159 258 147 225 Q144 216 140.5 207 Q137 198 134 188 Q132 183 131 178.5 Q130 174 128 169 Q127 166 126 163.5 Q125 161 127 158 Q131 151 138 147 Q144 145 144 139 Q143 132 134 132 Q129 132 126 135 Q123 138 120 141 Q104 86 100 35 Q97 8 97 -20 Q97 -48 104 -75 Q109 -95 120.5 -114.5 Q132 -134 153 -142 Q176 -150 199 -143 Q222 -136 242 -125 Q287 -99 323 -61.5 Q359 -24 389 16 Q420 58 446.5 102.5 Q473 147 495 195 Q518 245 534.5 296 Q551 347 559 401 Z " />
<glyph glyph-name="P" unicode="P" horiz-adv-x="634" d="M690 600 Q691 542 664 489 Q637 436 601 393 Q566 349 522.5 314 Q479 279 431 250 Q375 218 313 198 Q251 178 197 170 Q192 159 188 149 Q184 139 179 128 Q173 114 167 99 Q161 84 155 70 Q143 41 131.5 12 Q120 -17 109 -46 Q98 -75 87 -103.5 Q76 -132 64 -161 Q61 -168 58 -175 Q55 -182 51 -188 Q48 -193 42 -194 Q36 -195 34 -188 Q33 -185 33.5 -177.5 Q34 -170 35.5 -162 Q37 -154 38.5 -146 Q40 -138 41 -133 Q58 -56 78.5 18.5 Q99 93 119 168 Q87 171 55.5 171.5 Q24 172 -8 179 Q-14 181 -22.5 185 Q-31 189 -25 198 Q-23 200 -19.5 201 Q-16 202 -13 202 Q-12 202 -8 200 Q-8 199 -7.5 199 Q-7 199 -7 198 Q-5 196 -3 195 Q1 193 17.5 191.5 Q34 190 54.5 188.5 Q75 187 94.5 186 Q114 185 123 185 Q126 193 133.5 217 Q141 241 149 268.5 Q157 296 164.5 321 Q172 346 175 355 Q188 397 202 438 Q216 479 232 520 Q255 587 286 656 Q292 670 294 676 Q296 682 299 687 Q302 694 310 691 Q317 688 313 679 Q310 671 307.5 665.5 Q305 660 301 650 Q287 612 271.5 575 Q256 538 242 500 Q223 450 206.5 400 Q190 350 175 299 Q166 270 157.5 242 Q149 214 141 185 Q154 185 164.5 185 Q175 185 187 187 Q190 193 193.5 200.5 Q197 208 199 214 Q212 242 225.5 269 Q239 296 253 323 Q281 377 312 429 Q343 481 379 530 Q413 575 454.5 617.5 Q496 660 549 683 Q572 694 599 696.5 Q626 699 649 685 Q671 672 680 648 Q689 624 690 600 Z M178 169 Q170 169 157.5 168.5 Q145 168 137 168 Q136 166 135 163 Q134 161 133.5 157.5 Q133 154 131 149 Q127 138 124.5 129.5 Q122 121 120 114 Q118 107 116.5 99.5 Q115 92 112 82 Q103 49 94.5 16.5 Q86 -16 78 -49 Q73 -68 69.5 -86.5 Q66 -105 61 -124 L178 169 Z M649 497 Q663 528 671 565 Q679 602 667 636 Q662 649 654 659.5 Q646 670 632 675 Q616 682 599.5 680 Q583 678 568 673 Q535 661 507 639.5 Q479 618 454 593 Q429 567 406.5 538.5 Q384 510 364 480 Q322 418 287 353 Q252 288 220 220 Q212 204 206 189 Q224 191 242.5 194.5 Q261 198 278 203 Q329 218 377 240.5 Q425 263 468 293 Q525 332 572.5 383 Q620 434 649 497 Z " />
<glyph glyph-name="Q" unicode="Q" horiz-adv-x="654" d="M292 -63 Q241 -51 188 -48 Q158 -46 128 -44.5 Q98 -43 69 -43 Q64 -43 62 -41 Q57 -35 62 -31.5 Q67 -28 72 -28 Q85 -28 98 -28 Q111 -28 124 -29 Q173 -31 215.5 -35.5 Q258 -40 306 -50 Q312 -51 317 -49 L329 -40 Q350 -26 370 -9 Q390 8 408 26 Q445 61 475.5 102.5 Q506 144 530 189 Q554 234 570.5 282.5 Q587 331 592 382 Q598 432 592.5 482.5 Q587 533 564 579 Q543 621 506 651.5 Q469 682 421 690 Q373 697 327 680.5 Q281 664 245 632 Q209 600 187 555.5 Q165 511 161 462 Q159 435 162.5 409 Q166 383 173.5 358.5 Q181 334 191 309.5 Q201 285 211 261 Q231 213 247.5 163 Q264 113 275 62 Q277 56 278 49.5 Q279 43 279 37 Q280 32 279.5 24.5 Q279 17 277 14 Q275 9 269 9.5 Q263 10 263 15 Q263 21 263.5 26.5 Q264 32 263 39 Q260 65 252.5 90.5 Q245 116 237 141 Q229 167 221 192 Q213 217 202 241 Q191 265 181 289 Q171 313 162 338 Q154 363 149 389 Q144 415 144 441 Q143 492 163 542 Q180 586 211 621 Q242 656 284 679 Q329 703 378.5 707 Q428 711 474 691 Q522 670 551 631 Q580 592 594.5 545 Q609 498 610.5 447 Q612 396 604 350 Q586 250 534 161.5 Q482 73 409 4 Q391 -13 372.5 -27.5 Q354 -42 335 -56 Q358 -64 382 -70 Q406 -76 429 -85 Q452 -93 474.5 -101.5 Q497 -110 515 -125 Q523 -131 529 -141.5 Q535 -152 527 -162 Q525 -165 520.5 -165 Q516 -165 514 -161 Q513 -159 514 -156.5 Q515 -154 515 -152 Q515 -148 511 -144 Q504 -135 493.5 -129.5 Q483 -124 472 -119 Q461 -114 450 -110 Q439 -106 428 -101 Q405 -93 381 -86 Q357 -79 333 -73 Q328 -71 323 -69.5 Q318 -68 313 -70 Q296 -79 281.5 -88 Q267 -97 247 -105 Q227 -113 205.5 -118.5 Q184 -124 162 -125 Q140 -126 119 -121 Q98 -116 79 -103 Q41 -77 26.5 -33.5 Q12 10 10 54 Q8 117 26 178.5 Q44 240 74 288 Q76 293 79.5 297.5 Q83 302 86 307 Q90 312 94 316 Q98 320 103 322 Q106 324 111 322.5 Q116 321 118 317 Q118 311 116 309 Q114 307 112 307.5 Q110 308 108 308 Q104 307 100.5 301.5 Q97 296 95 293 Q76 259 63.5 233 Q51 207 43.5 183 Q36 159 32.5 136 Q29 113 27 85 Q25 63 26.5 39.5 Q28 16 34 -7 Q40 -30 51.5 -50 Q63 -70 82 -85 Q100 -100 120.5 -105.5 Q141 -111 162 -109.5 Q183 -108 204 -102 Q225 -96 244 -88 Q248 -86 263 -80 Q278 -74 292 -63 Z " />
<glyph glyph-name="R" unicode="R" horiz-adv-x="576" d="M705 -182 Q707 -186 705.5 -189.5 Q704 -193 699 -193 Q694 -193 691.5 -189 Q689 -185 687 -182 Q680 -173 672 -166 Q664 -159 656 -152 Q614 -114 566 -80.5 Q518 -47 471 -16 Q433 10 394 34 Q355 58 313 76 Q287 88 260.5 96 Q234 104 205 108 Q200 109 195 109.5 Q190 110 188 114 Q185 118 187 122.5 Q189 127 193 130.5 Q197 134 201.5 137.5 Q206 141 209 143 Q246 169 282 196.5 Q318 224 353 253 Q388 282 421 312 Q454 342 485 375 Q508 398 529 424.5 Q550 451 564 481 Q569 491 572.5 501.5 Q576 512 575 523 Q574 535 567 540.5 Q560 546 551 548 Q542 550 531.5 549 Q521 548 513 545 Q459 526 407 486.5 Q355 447 301 390 Q238 324 185.5 251.5 Q133 179 86 101 Q38 21 -4 -61 L-25 -103 Q-28 -109 -34.5 -120 Q-41 -131 -50 -126 Q-57 -122 -55 -112 Q-48 -73 -34.5 -20 Q-21 33 -5 92 Q11 151 28.5 211 Q46 271 61 324 Q87 415 114.5 504.5 Q142 594 179 681 Q181 686 183.5 691 Q186 696 189 701 Q191 704 193.5 706 Q196 708 200 706 Q204 704 204.5 700 Q205 696 205 692 Q204 685 197 681 Q166 609 143 536.5 Q120 464 97 389 Q69 294 42 199.5 Q15 105 -9 8 Q-11 3 -13.5 -6.5 Q-16 -16 -19 -28 Q-22 -40 -25 -52 Q-28 -64 -29 -74 Q-19 -57 -11 -40 Q-3 -23 6 -6 Q15 11 24 27.5 Q33 44 43 61 Q63 95 82.5 127 Q102 159 124 191 Q166 254 212.5 313 Q259 372 313 426 Q339 452 367 475.5 Q395 499 425 519 Q438 528 454.5 538 Q471 548 489 555 Q507 562 525.5 565 Q544 568 560 563 Q591 553 591 521 Q592 503 584.5 485.5 Q577 468 568 452 Q548 420 524 392.5 Q500 365 474 339 Q447 313 418.5 288 Q390 263 361 239 Q304 190 240 145 Q233 140 226 134.5 Q219 129 211 124 Q293 111 377 62 Q438 30 494.5 -10.5 Q551 -51 607 -92 Q625 -106 643 -120 Q661 -134 678 -149 Q686 -156 693.5 -164 Q701 -172 705 -182 Z " />
<glyph glyph-name="S" unicode="S" horiz-adv-x="501" d="M529 650 Q528 624 517 598 Q512 587 505.5 575.5 Q499 564 491 553 Q476 531 459 511 Q442 491 425 470 Q423 468 421 465.5 Q419 463 418 460 Q418 454 415 453 Q410 450 406 453.5 Q402 457 403 462 Q403 467 407.5 472.5 Q412 478 415 483 Q420 488 423.5 493.5 Q427 499 432 504 Q449 524 465 545 Q481 566 494 589 Q505 609 511 634 Q517 659 505 681 Q494 703 470.5 711.5 Q447 720 424 722 Q372 726 321 709 Q270 692 225 669 Q202 656 180 642.5 Q158 629 138 612 Q118 597 99.5 579 Q81 561 67 540 Q53 519 47 494.5 Q41 470 51 446 Q60 423 78 406.5 Q96 390 116 377 Q139 362 163 349 Q187 336 211 324 Q235 311 259 298 Q283 285 307 271 Q326 259 348 244 Q370 229 387.5 210 Q405 191 414 168 Q423 145 416 118 Q409 95 393.5 75 Q378 55 359 38 Q340 20 319.5 4.5 Q299 -11 276 -25 Q229 -55 181 -82.5 Q133 -110 83 -136 Q34 -162 -15 -187 Q-64 -212 -116 -233 Q-122 -235 -127.5 -237.5 Q-133 -240 -140 -242 Q-145 -244 -152 -245.5 Q-159 -247 -165 -245 Q-170 -243 -173 -238.5 Q-176 -234 -170 -229 Q-168 -227 -165 -228 Q-162 -229 -159 -229 Q-154 -229 -146 -227 Q-133 -223 -121 -218 Q-109 -213 -97 -208 Q-84 -202 -72 -196.5 Q-60 -191 -47 -185 Q3 -161 52 -134.5 Q101 -108 150 -81 Q197 -55 243 -27.5 Q289 0 331 35 Q351 51 368.5 69.5 Q386 88 396 111 Q408 137 399 160 Q396 171 389 181.5 Q382 192 373 201 Q356 219 334.5 233.5 Q313 248 292 261 Q268 275 244 287.5 Q220 300 195 313 Q172 326 148 338.5 Q124 351 102 367 Q82 381 64 397.5 Q46 414 36 437 Q25 462 29 486.5 Q33 511 45 533.5 Q57 556 74.5 575.5 Q92 595 110 610 Q150 645 196 672 Q242 699 292 716 Q318 725 344 731 Q369 736 398 738 Q411 740 423.5 738.5 Q436 737 449 735 Q461 733 472 729 Q483 725 493 718 Q529 693 529 650 Z " />
<glyph glyph-name="T" unicode="T" horiz-adv-x="283" d="M-169 619 Q-168 626 -160 625 Q-137 620 -105.5 620.5 Q-74 621 -49 623 Q-18 625 12 627.5 Q42 630 74 632 Q137 636 200 638 Q211 639 223.5 638 Q236 637 247 640 Q250 642 250.5 645 Q251 648 253 650 Q262 666 274.5 679 Q287 692 299 705 Q301 707 304 710 Q307 713 311 712 Q318 711 319 705.5 Q320 700 317 696 Q309 682 300 669 Q291 656 283 642 Q294 640 304 641 Q314 642 325 642 Q357 642 389 642.5 Q421 643 453 643 L624 640 Q646 640 667 639 Q688 638 710 638 Q748 640 784 640 Q820 640 858 640 Q862 640 866 639.5 Q870 639 874 635 Q880 629 875 624 Q873 621 868 620.5 Q863 620 859 620 Q827 620 795.5 619.5 Q764 619 732 621 Q711 622 690.5 620.5 Q670 619 650 617 Q607 614 564.5 610 Q522 606 480 602 Q459 600 437.5 598 Q416 596 395 594 Q374 592 353 590.5 Q332 589 311 590 Q300 590 291 591 Q282 592 271 596 Q268 597 260 601 Q257 598 253 590.5 Q249 583 246 578 Q219 524 196 468 Q173 412 153 354 Q116 238 85 114.5 Q54 -9 43 -131 Q42 -142 41 -152.5 Q40 -163 42 -174 Q43 -178 44 -182.5 Q45 -187 47 -191 Q49 -195 52.5 -198 Q56 -201 54 -206 Q52 -210 48.5 -209.5 Q45 -209 42 -207 Q34 -202 32 -194 Q23 -175 25 -152 Q27 -102 36.5 -41 Q46 20 60.5 84.5 Q75 149 92.5 213 Q110 277 128 333 Q146 391 168.5 448 Q191 505 218 559 Q224 573 231.5 585 Q239 597 245 611 Q246 613 247 616.5 Q248 620 247 622 Q245 624 238 624 Q153 623 69 615 Q-15 607 -100 604 Q-120 604 -134.5 605 Q-149 606 -160 609 Q-172 612 -169 619 Z M267 615 Q279 608 292 607 Q305 606 317 606 Q359 606 399 610.5 Q439 615 480 618 Q511 621 540 624 Q505 626 469.5 626 Q434 626 399 626 Q368 626 337 625.5 Q306 625 276 625 Q272 623 270.5 621 Q269 619 267 615 Z " />
<glyph glyph-name="U" unicode="U" horiz-adv-x="592" d="M656 699 Q666 693 663 679.5 Q660 666 658 658 Q654 647 650 635 Q646 623 642 611 Q632 588 622.5 564 Q613 540 603 516 Q583 468 562 421 Q541 374 520 326 Q478 232 432.5 141.5 Q387 51 332 -36 Q306 -76 276.5 -114 Q247 -152 209 -180 Q191 -194 169.5 -203 Q148 -212 125 -210 Q103 -208 85 -196 Q67 -184 55 -166 Q42 -147 35 -125.5 Q28 -104 24 -81 Q19 -56 17.5 -30.5 Q16 -5 17 21 Q19 72 25.5 122.5 Q32 173 43 224 Q54 274 67 323 Q80 372 96 421 Q112 469 130 516 Q148 563 171 608 Q182 632 196 650 Q199 653 203 657.5 Q207 662 212 660 Q216 659 217.5 655 Q219 651 216 648 Q211 644 209 642 Q207 640 206 637.5 Q205 635 203 633 Q200 628 197 622.5 Q194 617 191 611 Q185 600 179.5 589 Q174 578 169 567 Q149 520 131.5 472.5 Q114 425 99 376 Q84 327 72.5 278.5 Q61 230 51 179 Q42 128 37 77 Q32 26 34 -25 Q35 -50 39 -75 Q43 -100 51 -123 Q59 -143 71.5 -161 Q84 -179 104 -188 Q126 -197 148 -191.5 Q170 -186 189 -174 Q209 -161 226 -144.5 Q243 -128 259 -110 Q275 -91 288.5 -71 Q302 -51 316 -30 Q330 -8 343 14 Q356 36 369 59 Q395 104 417.5 149 Q440 194 462 240 Q485 288 506 334.5 Q527 381 548 429 Q568 476 588.5 523 Q609 570 627 618 Q631 629 634.5 640 Q638 651 642 662 Q644 668 645.5 673.5 Q647 679 647 685 Q647 687 646.5 690 Q646 693 648 695 Q650 699 656 699 Z " />
<glyph glyph-name="V" unicode="V" horiz-adv-x="555" d="M661 649 Q666 646 665 642 Q664 638 662 633 Q640 593 616.5 554 Q593 515 570 475 Q547 436 523 397 Q499 358 476 319 Q427 241 376.5 164.5 Q326 88 269 15 Q255 -2 240.5 -19.5 Q226 -37 211 -54 Q197 -71 182 -86 Q167 -101 149 -114 Q135 -125 116 -131.5 Q97 -138 80 -127 Q63 -116 55 -96 Q47 -76 43 -56 Q34 -11 34.5 34.5 Q35 80 39 125 Q46 216 63 308 Q79 399 101 488.5 Q123 578 144 669 Q145 672 146 677 Q147 682 148.5 686.5 Q150 691 152.5 693.5 Q155 696 160 695 Q163 694 167 690.5 Q171 687 172 683 Q173 678 169.5 676.5 Q166 675 162 676 Q153 630 141 585 Q129 540 118 495 Q107 450 98 405.5 Q89 361 81 316 Q73 271 66.5 226 Q60 181 56 135 Q52 89 51 42.5 Q50 -4 58 -50 Q63 -72 70 -91 Q75 -99 80.5 -106.5 Q86 -114 96 -116 Q106 -119 115.5 -115 Q125 -111 133 -106 Q142 -100 149.5 -93.5 Q157 -87 165 -79 Q197 -49 225.5 -13.5 Q254 22 281 58 Q336 132 386 208.5 Q436 285 484 364 Q508 404 532 444 Q556 484 580 525 Q592 545 603.5 564.5 Q615 584 627 604 Q632 614 637.5 623.5 Q643 633 649 643 Q651 647 654 649 Q657 651 661 649 Z " />
<glyph glyph-name="W" unicode="W" horiz-adv-x="707" d="M27 -63 Q25 -53 24.5 -37 Q24 -21 24.5 -4 Q25 13 26.5 30.5 Q28 48 31 63 Q41 112 53 158.5 Q65 205 80 250 Q101 313 126 373 Q151 433 180 493 Q194 522 209 551 Q224 580 243 606 Q249 615 259.5 627.5 Q270 640 283 634 Q288 632 291.5 625.5 Q295 619 290 615 Q287 613 284 614 Q281 615 279 617 Q275 619 274 618 Q272 617 271 615.5 Q270 614 269 613 Q258 602 249.5 588 Q241 574 233 560 Q225 546 217.5 531 Q210 516 202 502 Q173 442 148 382 Q122 321 100.5 259 Q79 197 63 133 Q55 101 49 69 Q43 37 41 4 Q41 -6 40.5 -22.5 Q40 -39 42 -56.5 Q44 -74 50 -88 Q56 -102 68 -106 Q81 -111 94 -102.5 Q107 -94 117 -86 Q138 -68 159 -42 Q180 -17 199.5 9 Q219 35 239 62 Q277 116 315 169.5 Q353 223 397 273 Q407 285 417 297 Q427 309 441 317 Q446 321 453 322.5 Q460 324 467 321 Q472 319 474.5 313.5 Q477 308 479 303 Q482 287 479.5 270.5 Q477 254 474 238 Q463 181 448.5 125.5 Q434 70 429 11 Q429 10 428.5 4 Q428 -2 428 -8.5 Q428 -15 429 -20 Q430 -25 432 -24 Q435 -23 439.5 -17.5 Q444 -12 447 -7 Q452 0 455.5 6.5 Q459 13 463 20 Q479 49 493 78.5 Q507 108 522 137 Q536 167 551 197.5 Q566 228 580 259 Q609 319 638 379.5 Q667 440 696 501 Q711 531 725.5 561 Q740 591 754 621 Q761 635 768 650 Q775 665 781 679 Q783 683 784.5 691.5 Q786 700 794 699 Q802 698 800.5 691 Q799 684 797 679 Q792 664 785.5 649 Q779 634 772 620 Q764 605 757 589.5 Q750 574 742 559 Q728 528 713 498 Q698 468 683 437 Q654 377 625.5 316.5 Q597 256 568 195 Q554 165 539.5 135 Q525 105 510 75 Q502 61 495 46 Q488 31 480 17 Q472 3 464 -10 Q456 -23 445 -34 Q441 -38 435.5 -40 Q430 -42 425 -40 Q419 -38 416.5 -31.5 Q414 -25 412 -20 Q408 -4 412.5 27.5 Q417 59 425.5 95.5 Q434 132 443 170 Q452 208 457 237 Q460 253 462 273 Q464 293 462 301 Q460 308 453 304.5 Q446 301 443 298 Q429 286 414 268 Q399 250 385 233 Q343 181 305 127 Q267 73 228 19 Q208 -7 189 -32 Q170 -57 147 -80 Q138 -89 126.5 -99.5 Q115 -110 101.5 -117 Q88 -124 74.5 -124 Q61 -124 49 -113 Q38 -104 33.5 -90.5 Q29 -77 27 -63 Z " />
<glyph glyph-name="X" unicode="X" horiz-adv-x="396" d="M603 727 Q606 721 602 714.5 Q598 708 594 703 Q587 695 580.5 688.5 Q574 682 567 674 Q540 646 512.5 619 Q485 592 458 564 Q398 501 333.5 427.5 Q269 354 206 271 Q207 262 209.5 243 Q212 224 216 200.5 Q220 177 224.5 151.5 Q229 126 233 102.5 Q237 79 240.5 61.5 Q244 44 245 36 Q253 -13 261 -62 Q269 -111 280 -159 Q281 -162 281 -166 Q281 -170 278 -172 Q273 -177 267 -169 Q265 -165 264.5 -160.5 Q264 -156 262 -151 Q260 -137 256.5 -123 Q253 -109 251 -95 Q234 -7 220 80 Q206 167 192 256 Q189 253 177 238 Q165 223 151.5 206 Q138 189 126 175 Q114 161 111 158 L30 56 Q-11 4 -51 -47.5 Q-91 -99 -131 -152 Q-141 -166 -151.5 -180 Q-162 -194 -172 -209 Q-176 -216 -179.5 -222.5 Q-183 -229 -187 -237 Q-190 -243 -198 -240 Q-200 -239 -201.5 -235 Q-203 -231 -201 -227 Q-196 -219 -192.5 -212.5 Q-189 -206 -182 -195 L-161 -165 Q-138 -132 -115 -104 Q-92 -73 -68 -42.5 Q-44 -12 -20 19 Q28 81 77 141 Q126 201 175 262 Q177 266 180 269 Q183 272 186 275 Q188 279 188 282.5 Q188 286 187 290 Q176 357 168.5 424 Q161 491 156 560 Q153 598 150 636.5 Q147 675 142 713 Q141 718 140.5 723 Q140 728 140 733 Q139 736 140 739 Q141 742 146 743 Q150 744 151.5 741 Q153 738 154 735 Q156 730 156.5 725.5 Q157 721 158 716 Q161 696 162.5 677.5 Q164 659 166 639 Q174 553 181.5 468 Q189 383 202 297 Q240 341 273 380.5 Q306 420 341 461 Q377 501 413.5 540.5 Q450 580 488 618 Q509 640 531 661 Q553 682 573 705 Q566 705 564 710 Q562 714 565 717 Q568 720 571 722 Q576 725 588.5 728 Q601 731 603 727 Z " />
<glyph glyph-name="Y" unicode="Y" horiz-adv-x="480" d="M545 633 Q547 628 544 621.5 Q541 615 539 610 Q536 604 533.5 598 Q531 592 528 585 Q517 561 505 536.5 Q493 512 482 487 Q436 387 396 285.5 Q356 184 318 80 Q299 28 281.5 -23 Q264 -74 248 -126 Q241 -144 236 -163.5 Q231 -183 229 -203 Q229 -207 230.5 -214 Q232 -221 230 -225 Q228 -230 223.5 -230 Q219 -230 216 -227 Q213 -222 212.5 -216 Q212 -210 212 -204 Q214 -191 217 -178 Q220 -165 223 -152 Q237 -99 255.5 -47.5 Q274 4 292 56 Q330 160 369.5 262 Q409 364 454 465 Q456 468 462.5 483 Q469 498 477 515 L497 559 Q435 469 368.5 383 Q302 297 227 219 Q215 207 195 187.5 Q175 168 152 151.5 Q129 135 105 126.5 Q81 118 60 129 Q39 140 29.5 163.5 Q20 187 16 209 Q11 236 10.5 263 Q10 290 12 317 Q15 372 24.5 425.5 Q34 479 48 533 Q54 559 61.5 584.5 Q69 610 77 636 Q81 649 85 661.5 Q89 674 94 687 Q96 693 98.5 699.5 Q101 706 104 711 Q106 716 110.5 718.5 Q115 721 119 715 Q121 712 120 705 Q119 698 117 694 Q115 689 112 685.5 Q109 682 107 675 Q102 662 98 649.5 Q94 637 90 623 Q73 572 60 518 Q48 465 38.5 411 Q29 357 27 302 Q27 285 26.5 265 Q26 245 28.5 224.5 Q31 204 37.5 184.5 Q44 165 57 151 Q76 134 98.5 142 Q121 150 140 163 Q167 182 193 208 Q219 234 254 272 Q327 354 391 439 Q424 483 454.5 527.5 Q485 572 517 617 Q520 622 523 626.5 Q526 631 531 635 Q534 638 538.5 638 Q543 638 545 633 Z " />
<glyph glyph-name="Z" unicode="Z" horiz-adv-x="509" d="M204 263 Q195 254 183 240 Q171 226 168 217 Q200 213 232 215.5 Q264 218 299 215 Q329 213 361.5 206.5 Q394 200 418 180 Q442 162 447 133 Q449 117 445.5 101.5 Q442 86 436 72 Q423 43 402.5 19 Q382 -5 360 -26 Q266 -117 150 -174 Q121 -189 91.5 -201 Q62 -213 30 -220 Q1 -226 -31.5 -225.5 Q-64 -225 -88 -206 Q-101 -196 -107 -183 Q-113 -170 -114 -155.5 Q-115 -141 -112 -126.5 Q-109 -112 -104 -98 Q-93 -69 -73 -45.5 Q-53 -22 -30 -1 Q-18 10 -6 19.5 Q6 29 19 38 Q31 47 45 56 Q59 65 74 67 Q88 70 95 59 Q96 54 95.5 47 Q95 40 88 42 Q84 44 83.5 46 Q83 48 81 50 Q79 52 72 50 Q64 48 57.5 44 Q51 40 44 36 Q30 27 17.5 17.5 Q5 8 -7 -2 Q-19 -13 -30 -23.5 Q-41 -34 -52 -46 Q-71 -67 -85.5 -96 Q-100 -125 -98 -154 Q-96 -183 -72 -197 Q-58 -205 -42.5 -207.5 Q-27 -210 -12 -209 Q20 -207 50.5 -198 Q81 -189 110 -176 Q168 -150 221.5 -115 Q275 -80 323 -38 Q347 -17 369 6 Q391 29 408 56 Q415 67 421.5 81 Q428 95 430 109 Q432 123 429 137 Q426 151 415 162 Q404 173 390 178.5 Q376 184 362 189 Q330 198 296.5 200 Q263 202 229 200 Q214 200 196 198.5 Q178 197 164 201 Q152 204 152 218 Q153 231 171.5 252 Q190 273 210 293 Q234 316 258.5 340 Q283 364 307 388 Q356 435 403 482 Q450 529 492 583 Q502 596 511 609 Q520 622 528 636 Q534 647 539.5 663 Q545 679 537 692 Q530 704 514 706 Q498 708 486 708 Q454 707 421 697 Q389 688 359 675 Q329 662 300 646 Q241 614 191 573 Q178 562 164.5 550 Q151 538 138 524.5 Q125 511 115 497 Q105 483 99 469 Q97 465 97 462 Q97 460 97.5 458.5 Q98 457 97 455 Q94 449 87 451 Q82 455 82 463 Q84 475 91 488 Q98 501 110 517 Q130 542 153.5 563 Q177 584 202 603 Q228 622 255 639 Q282 656 311 670 Q340 685 370 697 Q400 709 432 716 Q465 725 496 724 Q510 724 524 720.5 Q538 717 547 706 Q557 695 557.5 681 Q558 667 553 652.5 Q548 638 540 624.5 Q532 611 525 601 Q507 574 485.5 549 Q464 524 441 500 Q395 450 347 404 Q299 358 250 310 Q239 299 227 287 Q215 275 204 263 Z " />
<glyph glyph-name="b" unicode="b" horiz-adv-x="195" d="M69 246 Q74 235 77 224 Q80 213 78 201 Q75 180 58 163 Q50 156 39.5 153 Q29 150 19 156 Q8 162 3 173 Q-2 184 -4 195 Q-7 213 -7 233.5 Q-7 254 -4 275 Q-1 296 3.5 316.5 Q8 337 13 355 Q31 424 56.5 488.5 Q82 553 112 615 Q136 663 166 708 Q180 729 197 749.5 Q214 770 235 785 Q244 791 255 795.5 Q266 800 277 795 Q288 790 291 778 Q294 766 294 755 Q293 732 284.5 703.5 Q276 675 265 650 Q244 600 217 553.5 Q190 507 158 462 Q126 417 91 377 Q74 357 57.5 341.5 Q41 326 25 310 Q23 308 20.5 306 Q18 304 17 302 Q14 285 12.5 271 Q11 257 10 248 Q9 235 9 222 Q9 209 12 196 Q13 191 15.5 185.5 Q18 180 21.5 175.5 Q25 171 30 169.5 Q35 168 41 171 Q50 176 55 185.5 Q60 195 62 206 Q62 217 59 228 Q57 232 54.5 237.5 Q52 243 47 245 Q41 246 35 246.5 Q29 247 24 252 Q20 255 18 259.5 Q16 264 18 269 Q21 274 26.5 275 Q32 276 37 274 Q44 272 48.5 268 Q53 264 57 261 Q59 260 62.5 261 Q66 262 68 262 Q100 269 132 279 Q164 289 195 300 Q201 295 202.5 290 Q204 285 199 284 Q167 273 134 262.5 Q101 252 69 246 Z M23 329 Q33 338 43 348.5 Q53 359 58 364 Q67 374 75.5 383.5 Q84 393 92 403 Q109 423 125 444 Q141 465 156 487 Q186 531 212 577 Q238 623 257 674 Q261 685 266 700 Q271 715 274 729 Q277 743 278 755.5 Q279 768 276 774 Q271 783 260.5 779.5 Q250 776 239 767.5 Q228 759 219 749 Q210 739 208 736 Q174 697 149 651.5 Q124 606 103 558 Q79 502 58.5 445 Q38 388 23 329 Z " />
<glyph glyph-name="c" unicode="c" horiz-adv-x="217" d="M217 300 Q226 295 224 290 Q222 285 218 283 Q213 280 197.5 272.5 Q182 265 164.5 257 Q147 249 131.5 241.5 Q116 234 111 231 Q101 226 83 217 Q65 208 45 201 Q25 194 7 194 Q-11 194 -21 208 Q-30 220 -28.5 235 Q-27 250 -20 265.5 Q-13 281 -3 295 Q7 309 15 319 Q26 332 44 348 Q62 364 78 365 Q88 365 93 360 Q96 357 97 352.5 Q98 348 95 345 Q92 342 88 343 Q86 344 85.5 345 Q85 346 83 348 Q78 353 68 346.5 Q58 340 47 329 Q36 318 26 305.5 Q16 293 10 286 Q7 282 1.5 272 Q-4 262 -8 250.5 Q-12 239 -12 228.5 Q-12 218 -3 213 Q6 208 17 210.5 Q28 213 37 216 Q47 220 55.5 223 Q64 226 72.5 230 Q81 234 92 239 Q103 244 118 252 Q120 253 131 258.5 Q142 264 154.5 270 Q167 276 177.5 281.5 Q188 287 191 288 Q193 289 197 291 Q201 293 206 295 Q211 298 217 300 Z " />
<glyph glyph-name="a" unicode="a" horiz-adv-x="183" d="M192 285 Q188 281 182.5 275 Q177 269 174 266 Q157 246 138.5 226.5 Q120 207 102 189 Q98 185 92 180 Q86 175 79 171.5 Q72 168 65.5 168 Q59 168 53 173 Q47 178 46 185.5 Q45 193 46 200 Q49 218 53.5 232 Q58 246 65 263 Q71 277 75 286.5 Q79 296 83 305 Q73 294 62.5 282.5 Q52 271 41 260 Q37 257 31 252 Q25 247 18.5 244 Q12 241 5.5 240.5 Q-1 240 -6 245 Q-11 250 -12 257 Q-13 264 -11.5 271.5 Q-10 279 -7 286.5 Q-4 294 -1 299 Q6 311 15 321.5 Q24 332 37 340 Q42 343 49 344 Q56 345 63 342 Q69 338 70.5 332 Q72 326 73 319 Q82 327 89.5 337.5 Q97 348 105 357 Q109 362 112 366.5 Q115 371 120 375 Q124 377 128 376 Q132 375 133 370 Q135 365 132 361 Q129 357 127 353 Q119 341 114 330 Q108 319 103 307.5 Q98 296 93 285 Q88 275 83 262 Q78 249 73 236 Q68 223 65 211.5 Q62 200 62 193 Q62 186 64 185 Q70 182 79.5 191 Q89 200 92 203 Q111 222 129 241 Q147 260 165 280 Q167 282 170 285.5 Q173 289 176 292 Q180 296 183 300 Q193 298 193.5 292.5 Q194 287 192 285 Z M62 306 Q56 309 58 316 Q58 318 58 322 Q58 326 56 328 Q51 332 42.5 325 Q34 318 31 314 Q20 304 11 288 Q2 272 5 257 Q14 259 21.5 265 Q29 271 36 277 Q50 291 62 306 Z " />
</font>
</svg>
