<?xml version="1.0" encoding="UTF-8"?>
<svg xmlns="http://www.w3.org/2000/svg" xmlns:xlink="http://www.w3.org/1999/xlink" version="1.2" >
<font id="Goodsay">
<font-face  font-family="Goodsay" units-per-em="1000" ascent="750" descent="-250" font-style="normal" font-weight="400" font-stretch="normal" cap-height="700" x-height="500" underline-position="-75" underline-thickness="50" />
<missing-glyph  horiz-adv-x="200" d="" />
<glyph glyph-name="NULL" d="" />
<glyph glyph-name="CR" unicode="&#xd;" horiz-adv-x="200" d="" />
<glyph glyph-name="space" unicode="&#x20;" horiz-adv-x="200" d="" />
<glyph glyph-name="exclam" unicode="&#x21;" horiz-adv-x="228" d="M205 710 C197 712 196 705 194 699 C193 696 190 682 185 667 C155 577 49 226 38 182 C37 178 38 174 41 173 C49 170 52 177 54 184 C71 241 170 573 206 688 C208 694 212 708 205 710 L205 710 Z M13 62 C13 57 17 52 22 54 C27 55 32 60 31 65 C29 75 13 70 13 62 L13 62 Z " />
<glyph glyph-name="quotedbl" unicode="&#x22;" horiz-adv-x="204" d="M162 673 C158 664 156 656 153 648 C150 639 147 630 144 621 C142 614 138 602 138 595 C138 592 146 585 151 591 C156 597 157 608 163 626 C169 643 170 650 175 667 C175 675 167 679 162 673 L162 673 Z M131 671 C125 667 123 656 121 650 C116 635 110 614 108 604 C108 599 113 594 119 597 C123 599 127 616 129 622 C134 640 139 652 141 663 C142 668 137 674 131 671 L131 671 Z " />
<glyph glyph-name="numbersign" unicode="&#x23;" horiz-adv-x="188" d="M183 317 C182 322 178 324 174 326 C164 330 153 330 142 331 C147 342 154 352 159 363 C161 368 162 372 158 374 C154 376 150 374 148 371 C144 366 141 360 139 355 C135 350 132 344 129 338 C128 336 126 333 124 332 C122 331 119 331 117 331 C111 331 104 331 98 332 C102 340 107 348 111 356 C114 362 118 373 108 372 C100 371 98 362 95 357 C92 352 89 347 87 343 C85 340 82 333 80 331 C77 329 71 330 67 329 C62 329 57 328 52 327 C46 326 33 326 29 319 C26 316 27 312 31 310 C34 308 38 310 41 310 C51 312 61 313 71 314 C69 309 67 305 65 300 C62 295 62 295 56 294 C47 292 37 292 29 289 C22 286 19 276 27 275 C31 274 36 276 40 276 C45 277 49 278 54 278 C47 260 38 242 30 224 C27 217 21 207 21 199 C22 192 31 192 36 198 C38 201 39 205 41 209 C43 214 45 219 47 223 C51 233 55 242 59 251 C63 259 67 268 71 276 C72 280 73 280 77 281 C79 281 81 281 83 281 C88 281 94 282 99 282 C94 273 89 263 85 253 C81 246 72 232 77 226 C79 224 83 223 86 225 C91 226 92 231 93 235 C97 245 102 254 107 264 C109 269 112 274 115 279 C117 284 118 284 123 284 C129 284 134 284 140 284 C144 284 150 283 154 284 C157 284 160 288 161 291 C161 295 158 298 154 299 C146 302 135 300 125 300 C127 303 128 305 129 308 C130 309 132 314 133 315 C135 316 139 314 141 314 C143 314 146 314 149 314 C154 313 160 313 164 312 C168 310 171 306 176 307 C181 308 184 313 183 317 L183 317 Z M110 304 C108 300 108 299 104 299 C96 298 88 297 80 297 C82 301 84 305 86 309 C88 313 88 315 93 315 C100 315 109 316 116 315 C114 311 112 308 110 304 L110 304 Z " />
<glyph glyph-name="dollar" unicode="&#x24;" horiz-adv-x="301" d="M286 507 C273 519 256 516 240 516 C248 539 256 558 263 575 C264 578 267 582 268 585 C268 591 261 595 256 591 C250 586 249 580 244 569 C237 554 230 536 224 520 C222 517 222 513 219 511 C216 509 211 508 207 507 C156 487 104 448 78 404 C65 383 62 359 81 340 C90 330 102 324 114 317 C127 310 137 306 146 300 C129 240 109 177 92 116 C91 112 90 110 87 107 C78 101 69 93 60 87 C36 69 13 52 -12 35 C-17 32 -25 29 -28 25 C-31 20 -28 15 -23 13 C-14 12 -3 21 4 26 C31 44 56 65 83 84 C81 77 80 68 79 62 C76 46 75 37 76 33 C78 26 88 24 91 31 C92 35 94 53 95 57 C98 76 96 82 104 98 C106 102 110 104 113 107 C133 124 156 141 176 159 C198 180 228 209 226 243 C226 259 218 275 202 287 C190 296 180 302 167 310 C178 346 190 382 202 417 C208 434 215 452 221 469 C224 478 228 486 231 494 C233 499 235 498 240 499 C251 501 274 504 278 489 C281 475 271 457 265 444 C257 429 246 414 237 399 C233 394 224 384 225 377 C225 369 235 370 239 375 C258 403 281 431 291 465 C296 478 297 496 286 507 L286 507 Z M205 258 C215 241 207 222 197 207 C175 175 136 145 112 127 C127 182 144 238 161 293 C177 284 195 274 205 258 L205 258 Z M152 316 C133 325 113 334 97 347 C91 352 87 358 84 365 C77 380 106 418 122 432 C135 445 149 456 164 466 C203 490 212 491 212 491 C190 433 170 375 152 316 L152 316 Z " />
<glyph glyph-name="percent" unicode="&#x25;" horiz-adv-x="296" d="M288 477 C282 488 267 489 256 489 C223 489 202 487 188 488 C182 488 175 491 170 488 C165 485 163 480 167 475 C170 470 171 466 168 460 C163 449 152 438 142 432 C133 426 116 419 116 432 C117 451 141 476 156 483 C158 484 161 484 163 485 C168 487 168 494 164 497 C160 501 153 498 148 495 C127 484 107 466 101 439 C99 429 101 419 110 413 C131 401 159 424 171 437 C180 447 188 458 186 471 C211 473 248 473 270 471 C276 470 272 463 269 459 C215 386 155 317 103 251 C66 204 19 142 -16 94 C-19 89 -24 83 -25 78 C-25 73 -21 68 -16 69 C-10 69 -2 85 1 89 C21 116 40 141 61 170 C130 264 208 352 280 446 C287 455 293 467 288 477 L288 477 Z M154 204 C148 203 140 199 140 192 C141 184 148 184 154 186 C153 171 136 151 128 144 C120 137 103 127 97 133 C90 140 108 161 110 164 C116 170 118 173 124 176 C130 181 125 188 119 189 C113 190 106 182 102 178 C92 167 81 149 81 136 C81 123 89 114 102 116 C130 120 159 153 168 175 C170 181 173 190 169 196 C166 202 160 205 154 204 L154 204 Z " />
<glyph glyph-name="ampersand" unicode="&#x26;" horiz-adv-x="330" d="M38 332 C38 315 51 305 66 301 C85 297 105 301 124 301 C117 287 108 273 102 258 C96 244 92 227 94 211 C97 197 108 188 122 193 C137 199 145 206 157 220 C152 204 146 188 141 171 C118 93 97 4 86 -65 C85 -73 84 -81 85 -88 C86 -94 93 -102 99 -97 C102 -95 103 -92 102 -89 C96 -67 161 198 179 234 C183 242 186 250 189 258 C191 264 191 273 183 274 C175 275 170 263 166 258 C155 241 137 214 116 208 C104 206 112 237 114 243 C119 259 127 274 136 288 C139 294 145 302 144 309 C143 315 138 317 132 318 C115 320 44 302 56 340 C61 354 74 366 86 375 C98 384 112 391 127 396 C141 400 159 401 171 390 C183 379 180 362 179 348 C178 342 179 332 188 333 C195 333 198 343 200 348 C207 364 213 380 219 395 C231 425 317 624 338 696 C340 703 344 714 343 721 C342 727 335 729 331 726 C328 723 328 718 327 714 C324 702 319 690 315 678 C301 644 239 480 204 401 C201 394 199 386 195 379 C190 394 183 405 168 411 C150 418 129 414 111 408 C79 395 44 369 38 332 L38 332 Z " />
<glyph glyph-name="quotesingle" unicode="&#x27;" horiz-adv-x="176" d="M159 684 C153 681 152 674 149 666 C146 658 144 651 142 643 C140 636 137 625 137 620 C137 615 143 611 148 614 C152 617 154 627 156 634 C158 641 160 650 163 657 C166 665 167 669 169 676 C169 682 163 686 159 684 L159 684 Z " />
<glyph glyph-name="parenleft" unicode="&#x28;" horiz-adv-x="246" d="M303 743 C291 741 280 731 271 723 C250 705 231 685 214 664 C195 642 178 620 162 596 C129 548 102 497 80 443 C57 390 38 336 27 279 C16 222 14 164 16 105 C16 76 17 46 21 17 C22 10 23 3 25 -4 C27 -9 28 -16 32 -20 C35 -24 40 -27 45 -24 C51 -20 47 -14 44 -10 C38 1 37 17 36 30 C35 44 34 58 33 73 C32 102 32 131 32 160 C32 219 41 276 57 332 C73 387 94 440 119 490 C144 541 175 590 210 634 C228 656 246 677 266 696 C276 706 286 716 296 724 C300 727 309 729 310 734 C312 739 308 743 303 743 L303 743 Z " />
<glyph glyph-name="parenright" unicode="&#x29;" horiz-adv-x="178" d="M163 587 C163 600 162 614 161 627 C159 655 154 681 149 708 C147 715 146 721 144 728 C143 733 142 739 136 740 C122 742 131 719 132 713 C137 686 142 658 145 631 C147 603 147 575 145 548 C137 438 101 331 49 234 C22 184 -7 135 -36 87 C-50 63 -64 39 -79 16 C-87 5 -96 -6 -103 -17 C-105 -22 -104 -30 -97 -29 C-92 -28 -87 -23 -85 -20 C-76 -9 -69 3 -61 15 C-54 27 -46 39 -39 51 C-24 75 -9 100 5 124 C33 172 61 220 85 270 C131 369 161 477 163 587 L163 587 Z " />
<glyph glyph-name="asterisk" unicode="&#x2a;" horiz-adv-x="252" d="M219 567 C205 574 166 572 159 572 C168 580 202 606 208 609 C211 611 214 614 212 619 C208 629 194 619 190 616 C173 604 163 597 151 587 C154 598 158 611 162 622 C164 628 174 650 161 650 C155 650 153 643 152 639 C146 619 139 602 132 583 C129 591 125 599 121 607 C119 612 113 622 107 614 C102 608 109 598 111 593 C114 585 118 576 122 568 C111 567 101 565 91 563 C87 562 82 561 78 561 C74 562 72 562 69 559 C65 553 70 546 76 546 C83 546 106 550 106 549 C96 542 87 532 78 524 C73 520 56 507 63 499 C67 494 72 497 76 501 C90 512 103 525 117 537 C113 522 108 507 103 493 C101 485 89 457 105 457 C113 457 113 466 114 471 C120 494 128 517 135 539 C139 532 152 498 164 510 C169 515 162 525 159 530 C154 538 150 546 146 554 C170 556 193 556 214 552 C219 551 224 553 224 558 C225 562 222 565 219 567 L219 567 Z " />
<glyph glyph-name="plus" unicode="&#x2b;" horiz-adv-x="205" d="M159 293 C146 293 133 293 120 293 C127 320 137 347 144 374 C145 378 147 385 145 389 C143 392 138 393 135 391 C131 389 130 381 129 376 C119 351 108 313 101 293 C90 293 77 293 66 293 C59 293 52 293 46 293 C42 293 38 292 37 287 C34 276 54 277 61 277 C74 277 86 277 98 277 C92 249 82 223 76 195 C75 189 73 179 82 179 C91 179 91 191 93 197 C99 224 108 249 115 277 C136 276 158 278 179 275 C184 275 190 276 190 282 C190 295 167 292 159 293 L159 293 Z " />
<glyph glyph-name="comma" unicode="&#x2c;" horiz-adv-x="116" d="M73 219 C73 221 72 223 71 224 C66 229 60 226 56 217 C48 199 40 180 35 161 C33 156 30 147 37 144 C40 142 45 143 47 148 C48 151 49 154 50 157 C56 174 62 190 68 206 C71 212 72 214 73 219 L73 219 Z " />
<glyph glyph-name="hyphen" unicode="&#x2d;" horiz-adv-x="176" d="M97 278 C123 278 150 276 153 279 C157 283 154 290 152 291 C147 293 132 293 123 293 C104 293 84 293 65 293 C55 293 42 293 36 292 C28 291 30 279 37 278 C46 277 80 278 97 278 L97 278 Z " />
<glyph glyph-name="period" unicode="&#x2e;" horiz-adv-x="116" d="M56 212 C56 217 53 220 49 220 C44 220 40 215 41 211 C41 207 45 204 49 204 C53 204 56 207 56 212 L56 212 Z " />
<glyph glyph-name="slash" unicode="&#x2f;" horiz-adv-x="394" d="M487 737 C487 740 485 742 482 743 C476 745 471 737 468 733 C448 708 432 680 415 654 C397 627 380 600 363 572 C295 465 230 356 166 246 C135 192 104 137 73 82 C58 55 42 27 28 0 C20 -14 13 -28 7 -42 C3 -48 0 -55 -2 -62 C-3 -67 -1 -69 4 -72 C10 -73 12 -66 14 -62 C17 -55 21 -49 24 -43 C80 69 145 176 207 284 C271 394 337 503 406 611 C423 637 440 664 457 690 C465 703 473 716 483 728 C485 731 488 733 487 737 L487 737 Z " />
<glyph glyph-name="zero" unicode="0" horiz-adv-x="185" d="M14 231 C13 210 15 170 41 165 C59 161 77 174 90 185 C118 210 139 243 155 277 C163 295 169 313 171 332 C173 348 171 368 156 376 C140 385 123 376 111 366 C104 361 96 354 91 347 C87 341 88 332 97 331 C101 331 103 333 105 336 C107 340 109 343 113 346 C119 352 126 359 135 362 C156 370 157 343 155 329 C152 310 144 291 135 273 C126 256 116 240 105 225 C93 211 80 196 64 187 C58 183 49 178 42 182 C34 186 32 198 31 205 C29 225 32 246 37 266 C42 284 49 302 58 318 C62 327 68 334 74 341 C75 343 77 345 78 346 C80 347 81 346 83 347 C86 347 89 351 89 354 C88 365 74 362 69 358 C61 352 55 344 50 337 C28 304 16 263 14 231 L14 231 Z " />
<glyph glyph-name="one" unicode="1" horiz-adv-x="96" d="M74 370 C69 368 69 361 67 356 C62 342 56 328 51 315 C46 301 41 286 37 272 C29 243 20 213 14 183 C13 183 15 178 15 177 C17 175 19 174 22 174 C25 174 28 175 30 178 C31 180 30 183 31 186 C32 194 34 201 36 208 C45 246 58 284 71 321 C74 328 76 336 79 344 C80 349 84 356 84 362 C84 367 80 373 74 370 L74 370 Z " />
<glyph glyph-name="two" unicode="2" horiz-adv-x="168" d="M38 208 C44 215 51 221 57 227 C64 234 71 241 77 248 C89 261 101 276 112 291 C121 306 129 322 132 339 C135 353 134 370 121 377 C108 384 92 379 78 373 C65 368 53 359 42 350 C38 345 31 339 31 332 C32 326 38 322 43 326 C46 329 46 332 48 335 C50 338 54 341 57 343 C63 347 69 351 75 355 C85 360 104 370 113 362 C117 358 117 350 117 344 C116 337 114 329 111 322 C98 292 74 266 52 243 C45 237 38 230 31 224 C26 219 20 213 14 209 C8 206 0 207 -7 204 C-13 202 -21 198 -22 191 C-25 176 -1 183 7 187 C11 189 15 192 19 192 C23 193 27 193 31 192 C39 192 47 192 54 191 C71 189 87 186 102 181 C106 180 109 179 113 178 C116 177 119 174 122 174 C128 173 133 179 131 184 C129 192 117 194 110 196 C103 198 96 200 88 202 C72 205 55 207 38 208 L38 208 Z " />
<glyph glyph-name="three" unicode="3" horiz-adv-x="158" d="M110 313 C114 317 118 322 122 326 C130 335 139 345 143 356 C146 364 145 372 138 376 C130 381 119 379 110 377 C91 372 71 361 57 346 C52 340 44 330 53 324 C58 321 64 322 65 328 C66 330 65 331 66 333 C67 335 70 337 71 338 C79 345 89 351 98 355 C107 359 119 365 129 363 C118 341 99 326 82 310 C76 305 67 296 76 289 C79 286 85 286 89 285 C94 284 100 283 104 281 C123 272 113 248 106 235 C97 219 82 202 66 194 C56 190 46 190 39 197 C35 200 33 204 31 208 C31 209 30 211 30 213 C30 215 31 217 31 219 C31 229 17 227 14 220 C11 212 16 201 19 195 C29 178 48 171 66 177 C84 183 100 198 111 213 C122 228 133 247 131 266 C130 275 127 283 121 289 C114 296 105 298 96 301 C99 306 106 310 110 313 L110 313 Z " />
<glyph glyph-name="four" unicode="4" horiz-adv-x="124" d="M122 369 C116 371 111 366 108 362 C98 351 89 340 79 328 C69 317 60 305 49 294 C44 289 38 284 31 281 C26 279 24 280 22 285 C19 300 23 315 27 329 C29 337 31 344 34 352 C36 356 40 364 38 369 C36 375 29 376 26 371 C24 369 23 366 22 363 C21 359 20 356 18 353 C13 339 8 325 6 311 C5 298 3 282 11 271 C18 261 31 262 41 268 C53 275 63 285 72 295 C83 307 93 319 103 331 C105 330 96 311 95 309 C92 301 89 293 87 284 C81 268 76 251 71 234 C66 217 61 201 55 184 C54 179 53 171 61 170 C69 169 71 178 72 184 C82 213 91 243 100 273 C105 287 110 302 115 316 C118 323 121 331 123 338 C126 344 129 350 129 357 C130 362 128 368 122 369 L122 369 Z " />
<glyph glyph-name="five" unicode="5" horiz-adv-x="140" d="M18 191 C20 197 22 203 26 209 C29 213 34 219 27 224 C16 232 7 209 4 202 C1 192 0 183 10 177 C20 172 32 175 42 179 C62 187 78 206 89 224 C99 241 112 267 100 286 C87 307 61 296 44 288 C48 299 50 305 54 316 C55 320 61 337 64 344 C71 347 90 350 95 350 C106 351 116 352 127 352 C131 351 135 348 139 349 C142 349 145 352 145 356 C145 365 135 367 128 368 C108 369 87 367 67 363 C62 362 57 361 52 360 C49 359 44 359 41 357 C34 351 40 344 47 343 C39 321 31 299 23 277 C21 271 16 256 28 256 C32 256 35 260 38 262 C41 265 44 268 48 271 C57 278 86 292 88 271 C90 253 76 233 64 217 C55 205 36 187 18 191 L18 191 Z " />
<glyph glyph-name="six" unicode="6" horiz-adv-x="133" d="M21 215 C20 215 30 248 31 251 C36 263 41 275 46 286 C58 310 71 331 85 353 C88 357 90 362 86 366 C83 369 79 368 76 365 C72 361 69 355 65 350 C62 346 59 342 57 338 C45 320 34 300 25 280 C17 260 8 239 4 217 C3 208 2 196 7 187 C12 179 21 176 29 177 C50 178 67 196 79 211 C86 219 91 228 96 237 C101 246 105 257 104 268 C101 291 73 278 63 269 C46 254 33 234 21 215 L21 215 Z M30 193 C30 201 37 209 40 215 C45 222 50 229 55 235 C64 247 73 259 88 265 C86 249 76 233 67 221 C58 209 45 196 30 193 L30 193 Z " />
<glyph glyph-name="seven" unicode="7" horiz-adv-x="140" d="M88 280 C98 296 109 311 119 327 C127 339 140 359 127 369 C121 373 113 373 106 373 C99 373 92 373 85 372 C77 371 68 369 60 368 C54 367 45 367 39 364 C34 361 33 353 39 351 C45 348 54 352 61 353 C76 355 93 358 108 356 C110 356 115 357 116 355 C117 353 115 350 114 348 C110 341 106 334 101 327 C92 313 82 299 73 284 C68 277 64 276 57 275 C51 274 43 273 37 270 C31 266 29 256 37 256 C40 256 43 257 46 258 C49 258 53 259 57 259 C45 239 32 218 20 198 C17 192 8 180 12 174 C14 171 18 170 22 172 C26 174 27 177 28 180 C32 190 38 199 44 207 C49 217 55 226 61 235 C64 240 67 245 70 250 C72 253 74 260 77 262 C80 264 88 263 92 264 C96 264 101 265 106 266 C112 267 119 274 113 279 C108 284 95 281 88 280 L88 280 Z " />
<glyph glyph-name="eight" unicode="8" horiz-adv-x="122" d="M85 247 C95 250 93 260 95 268 C98 279 101 289 104 300 C108 311 111 321 114 332 C117 342 121 352 121 362 C120 368 117 374 110 375 C103 377 95 372 90 369 C75 359 61 347 49 334 C38 321 25 307 22 290 C21 282 23 275 28 269 C28 268 30 266 30 265 C30 264 30 264 29 263 C28 262 27 260 26 258 C23 255 20 251 17 247 C8 233 -2 214 0 197 C1 180 15 174 30 178 C46 181 61 192 73 203 C80 208 86 215 89 224 C92 232 90 240 85 247 L85 247 Z M76 255 C68 260 59 265 51 270 C44 275 37 280 39 289 C42 304 56 317 66 328 C72 334 78 339 84 344 C87 347 90 349 94 352 C95 352 102 359 104 358 C106 357 98 336 97 333 C95 324 92 315 89 306 C84 290 78 273 76 255 L76 255 Z M42 256 C50 252 57 247 65 243 C71 239 76 235 72 227 C66 215 51 205 40 199 C35 196 24 190 19 193 C12 196 17 210 19 214 C24 230 33 243 42 256 L42 256 Z " />
<glyph glyph-name="nine" unicode="9" horiz-adv-x="143" d="M75 360 C81 353 90 359 88 368 C86 377 75 376 68 373 C53 366 42 348 36 334 C30 319 23 297 34 283 C47 267 66 285 75 295 C89 311 101 328 113 345 C112 338 110 331 109 324 C107 317 106 310 104 304 C101 290 97 277 93 264 C84 239 72 211 51 195 C47 192 42 189 37 188 C31 187 31 191 30 195 C28 205 14 206 14 195 C13 186 18 177 26 173 C36 169 47 173 55 178 C75 190 87 211 97 232 C108 255 115 279 121 304 C124 316 127 329 129 342 C130 348 131 355 132 361 C132 366 133 372 129 376 C121 385 112 371 107 365 C100 355 92 344 84 334 C77 324 70 313 61 304 C58 301 53 294 49 294 C45 293 45 297 45 300 C44 312 49 324 54 335 C59 344 66 354 75 360 L75 360 Z " />
<glyph glyph-name="colon" unicode="&#x3a;" horiz-adv-x="95" d="M59 328 C58 317 73 316 75 326 C76 337 60 339 59 328 L59 328 Z M40 244 C30 244 29 228 39 228 C50 227 51 243 40 244 L40 244 Z " />
<glyph glyph-name="semicolon" unicode="&#x3b;" horiz-adv-x="106" d="M53 247 C46 247 45 239 43 234 C41 228 38 221 35 215 C33 208 22 186 36 185 C43 185 44 192 46 197 C48 204 50 211 53 217 C55 223 67 247 53 247 L53 247 Z M81 334 C76 332 73 325 74 321 C77 309 91 319 92 327 C92 332 86 335 81 334 L81 334 Z " />
<glyph glyph-name="less" unicode="&#x3c;" horiz-adv-x="233" d="M220 373 C217 379 211 377 206 375 C194 371 180 369 167 366 C141 359 115 351 90 341 C78 336 65 331 54 325 C44 320 34 313 31 301 C30 289 40 278 50 272 C63 263 76 255 89 247 C116 232 142 215 167 198 C171 195 176 189 181 188 C187 187 191 192 190 197 C188 202 183 206 179 209 C174 213 168 216 163 220 C140 236 116 250 91 265 C80 272 67 278 56 286 C53 289 46 295 48 300 C50 304 56 308 60 310 C83 323 109 332 134 340 C160 348 186 353 211 362 C217 364 223 367 220 373 L220 373 Z " />
<glyph glyph-name="equal" unicode="&#x3d;" horiz-adv-x="227" d="M171 277 C145 278 119 279 94 279 C80 279 67 279 54 278 C48 278 42 278 36 278 C29 279 27 279 23 274 C22 260 44 263 53 263 C67 263 81 263 95 263 C121 262 147 263 173 260 C179 260 200 252 198 266 C197 276 178 276 171 277 L171 277 Z M201 312 C194 314 187 313 181 314 C175 314 168 314 162 315 C137 316 112 316 88 315 C82 315 76 315 70 315 C64 315 58 315 52 314 C44 312 44 302 52 300 C58 299 64 299 70 299 C76 299 82 299 88 299 C100 299 112 299 124 299 C150 299 175 299 200 296 C205 295 210 297 210 303 C211 308 205 311 201 312 L201 312 Z " />
<glyph glyph-name="greater" unicode="&#x3e;" horiz-adv-x="233" d="M188 309 C176 318 164 325 152 333 C139 341 127 348 114 355 C103 361 90 367 81 376 C73 383 64 372 70 364 C75 360 81 356 86 353 C92 350 97 347 102 343 C124 330 147 318 168 303 C174 299 194 287 190 280 C187 276 181 273 177 270 C171 267 166 265 161 262 C137 252 112 243 88 233 C76 228 63 223 51 218 C45 216 39 213 33 211 C28 209 22 206 18 202 C14 198 15 192 20 190 C25 188 32 193 36 194 C48 200 60 205 72 209 C97 219 123 230 148 240 C159 244 171 249 181 255 C191 260 204 267 207 278 C210 292 198 301 188 309 L188 309 Z " />
<glyph glyph-name="question" unicode="&#x3f;" horiz-adv-x="469" d="M443 722 C435 735 418 741 403 741 C386 743 368 739 352 735 C318 725 286 709 258 688 C232 670 204 645 193 614 C190 605 188 596 190 587 C192 581 198 573 205 576 C208 577 210 581 209 584 C208 587 206 589 205 592 C203 599 208 608 211 614 C226 644 253 667 281 684 C310 703 344 719 378 724 C393 726 415 728 427 717 C438 706 434 687 430 673 C420 638 400 605 382 573 C363 540 342 507 322 474 C281 408 243 341 207 273 C172 206 136 139 104 71 C100 62 96 53 94 44 C93 39 95 27 103 29 C110 31 111 43 113 49 C116 58 121 67 125 76 C141 111 159 145 176 179 C211 247 247 315 285 382 C323 447 365 511 403 576 C421 608 440 642 448 678 C451 692 452 709 443 722 L443 722 Z M69 -72 C60 -71 53 -83 63 -87 C74 -90 80 -73 69 -72 L69 -72 Z " />
<glyph glyph-name="at" unicode="&#x40;" horiz-adv-x="330" d="M320 390 C316 405 308 419 295 428 C280 438 260 440 242 438 C211 433 180 415 157 394 C132 371 113 341 102 309 C91 276 85 237 97 204 C109 174 137 151 171 157 C187 159 203 167 216 178 C223 184 229 190 235 197 C239 202 247 210 246 217 C246 221 242 224 238 224 C234 223 232 219 229 216 C224 209 217 202 211 195 C200 184 185 176 170 173 C132 166 110 201 107 234 C105 270 116 308 134 339 C150 367 174 391 202 407 C217 414 233 421 249 422 C264 423 282 420 293 408 C305 396 308 376 306 359 C304 341 295 324 285 309 C275 295 263 281 249 271 C245 269 232 261 229 265 C227 266 229 273 229 275 C229 279 231 283 232 288 C234 297 238 305 242 314 C243 319 246 323 248 328 C249 331 252 334 253 338 C254 345 247 351 240 347 C236 345 233 340 230 337 C227 333 223 330 220 327 C207 313 194 300 180 288 C176 285 173 282 169 279 C167 278 161 274 158 275 C154 277 162 294 164 298 C168 305 174 311 180 318 C183 321 192 331 197 327 C201 324 202 320 207 322 C210 323 212 326 212 330 C211 337 204 342 197 343 C182 344 167 329 158 318 C149 305 138 288 142 272 C145 254 165 258 177 266 C193 275 206 289 219 302 C219 301 213 281 213 279 C212 271 211 263 215 256 C223 241 243 249 255 256 C269 265 281 278 292 291 C313 319 329 354 320 390 L320 390 Z " />
<glyph glyph-name="A" unicode="A" horiz-adv-x="450" d="M479 742 C462 754 437 733 425 722 C388 690 359 650 332 610 C304 570 279 527 255 483 C207 394 164 302 126 208 C124 202 119 191 114 180 C103 176 86 172 76 170 C51 164 25 158 0 152 C-4 151 -9 149 -9 144 C-10 140 -6 137 -3 137 C3 136 9 138 15 139 C21 141 28 142 34 144 C59 149 83 155 107 160 C94 123 80 87 68 50 C55 13 43 -23 31 -60 C20 -94 11 -127 3 -161 C-1 -176 -6 -194 -4 -210 C-3 -216 1 -223 8 -224 C13 -224 20 -219 18 -213 C17 -210 14 -210 13 -207 C12 -205 12 -202 13 -199 C13 -191 14 -183 16 -176 C19 -159 24 -142 29 -126 C38 -92 48 -59 59 -26 C70 7 82 41 94 74 C99 90 105 106 111 121 C114 131 118 139 121 149 C123 154 124 162 130 164 C134 165 139 165 144 166 C156 170 226 175 232 175 C250 176 268 177 285 177 C302 178 319 179 335 176 C316 110 296 44 276 -21 C258 -80 238 -138 226 -197 C225 -203 221 -213 224 -219 C226 -223 233 -223 236 -220 C239 -215 239 -206 241 -201 C242 -194 244 -187 246 -180 C254 -151 263 -121 271 -92 C289 -32 307 27 325 86 C329 100 334 115 338 129 C345 150 352 173 352 173 C352 173 358 172 359 168 C359 166 359 164 361 162 C365 158 371 160 373 165 C381 177 366 185 357 189 C360 201 363 212 367 224 C397 324 424 424 451 524 C464 574 478 625 486 676 C488 688 490 701 490 713 C490 723 488 735 479 742 L479 742 Z M472 695 C472 685 470 675 468 665 C453 585 429 506 408 427 C392 369 375 308 357 250 C352 231 347 211 340 192 C306 196 270 193 236 192 C212 191 179 189 158 185 C151 184 140 182 133 181 C136 189 141 199 144 208 C174 282 207 355 243 426 C279 495 318 563 363 627 C385 657 409 688 438 712 C444 717 468 738 472 723 C475 715 473 704 472 695 L472 695 Z " />
<glyph glyph-name="B" unicode="B" horiz-adv-x="427" d="M449 586 C442 592 434 591 427 588 C406 581 390 564 374 548 C341 514 311 476 283 438 C254 400 226 360 200 320 C174 280 149 239 125 198 C100 153 86 129 60 78 C83 174 121 292 152 387 C183 482 217 576 255 668 C261 684 269 702 275 719 C277 725 280 730 281 736 C281 740 280 745 275 746 C271 747 268 744 266 741 C262 737 260 733 260 728 C260 723 258 719 256 713 C237 667 218 620 200 573 C164 480 133 385 104 290 C89 242 74 193 61 145 C54 121 46 97 41 72 C39 64 33 49 39 42 C46 33 56 43 60 49 C67 60 73 71 79 82 C98 113 115 146 133 178 C157 221 182 263 209 304 C235 344 262 384 291 422 C319 461 349 499 383 534 C391 542 399 550 408 557 C415 564 424 571 434 574 C442 575 440 563 439 558 C437 547 433 535 429 524 C411 480 386 438 361 398 C335 355 307 314 280 272 C266 251 253 231 240 210 C234 200 228 189 223 179 C219 170 215 159 218 149 C220 140 228 135 237 132 C248 129 260 127 272 125 C294 121 316 118 336 106 C353 95 362 78 360 57 C359 35 348 13 336 -5 C313 -41 283 -74 251 -103 C219 -132 184 -157 147 -179 C117 -195 83 -212 48 -215 C38 -216 24 -215 16 -209 C-2 -196 13 -157 22 -143 C42 -111 69 -72 100 -38 C107 -29 115 -20 124 -12 C127 -9 131 -4 135 -3 C139 -2 142 -5 146 -1 C151 6 143 16 135 15 C125 13 116 3 109 -3 C92 -20 77 -39 63 -58 C40 -88 0 -135 -8 -178 C-11 -196 -7 -215 10 -225 C53 -252 155 -195 198 -166 C234 -141 267 -112 297 -80 C327 -48 358 -12 371 31 C378 49 380 71 372 89 C364 107 348 120 330 128 C308 137 284 140 261 144 C255 145 249 146 243 147 C240 148 236 149 234 152 C230 160 238 173 241 179 C252 201 266 221 279 242 C293 263 307 283 321 304 C348 345 375 387 399 430 C411 450 423 472 433 493 C443 514 453 537 455 560 C456 569 456 580 449 586 L449 586 Z " />
<glyph glyph-name="C" unicode="C" horiz-adv-x="445" d="M465 616 C459 641 443 661 418 667 C392 673 365 665 342 654 C295 631 257 591 225 551 C190 507 162 459 137 409 C112 357 91 304 74 249 C58 194 45 137 40 80 C37 53 36 26 38 -1 C40 -48 51 -114 94 -142 C143 -174 199 -132 232 -96 C261 -64 289 -31 315 4 C319 10 324 16 328 22 C331 26 335 31 332 36 C324 48 310 25 306 19 C279 -14 253 -48 225 -79 C195 -112 141 -161 97 -123 C58 -90 53 -23 53 24 C53 82 63 140 77 197 C90 253 109 307 132 360 C155 411 182 461 214 508 C259 573 329 650 396 653 C422 655 442 639 448 615 C464 562 437 499 419 452 C402 411 384 376 363 337 C360 332 342 310 358 309 C364 308 367 316 370 320 C373 326 377 331 381 337 C403 374 420 411 436 451 C457 506 478 565 465 616 L465 616 Z " />
<glyph glyph-name="D" unicode="D" horiz-adv-x="613" d="M593 610 C581 630 561 643 538 647 C509 651 480 642 454 630 C400 604 353 562 312 519 C269 475 230 426 194 375 C175 349 157 322 140 295 C122 268 106 240 87 215 C89 235 96 273 102 297 C116 354 132 410 150 466 C168 522 186 577 209 631 C214 644 220 657 226 670 C232 682 237 695 244 707 C247 711 253 716 249 722 C244 727 238 723 235 719 C227 708 220 695 214 683 C189 632 169 576 151 522 C132 466 115 410 100 354 C92 326 85 297 79 269 C76 255 73 241 71 226 C70 217 65 198 77 192 C88 187 98 203 103 211 C112 223 120 235 128 246 C143 271 159 295 175 319 C206 366 240 412 276 456 C311 497 349 537 392 571 C413 587 435 603 459 614 C483 626 510 635 536 631 C592 622 599 555 595 509 C589 453 570 398 547 348 C501 246 437 152 362 71 C324 31 284 -7 239 -39 C197 -69 148 -98 95 -107 C70 -111 41 -111 20 -94 C-26 -56 1 7 27 42 C43 63 63 85 83 103 C92 111 105 121 113 116 C117 114 121 108 126 113 C130 117 127 124 124 127 C107 141 78 121 61 105 C41 87 22 65 6 43 C-18 10 -32 -33 -16 -74 C-5 -99 17 -116 42 -122 C72 -129 103 -124 132 -114 C188 -96 240 -61 285 -24 C381 54 460 154 521 261 C552 316 579 373 596 434 C605 464 611 494 612 525 C613 555 609 585 593 610 L593 610 Z " />
<glyph glyph-name="E" unicode="E" horiz-adv-x="614" d="M656 629 C635 633 614 632 592 632 C570 631 549 630 527 628 C483 625 440 619 396 613 C353 607 311 600 269 590 C282 612 293 631 311 654 C313 656 312 655 314 655 C315 655 316 655 317 655 C321 655 322 658 323 662 C325 670 325 683 313 679 C309 678 307 674 304 671 C301 668 298 664 295 660 C289 652 284 644 278 635 C270 623 261 608 253 595 C251 592 249 589 246 585 C234 581 226 579 219 577 C190 568 161 561 132 549 C123 546 85 532 84 525 C83 518 91 512 97 517 C98 518 99 520 101 521 C124 530 212 560 235 564 C219 533 201 502 186 469 C158 411 134 352 112 292 C100 261 90 230 80 198 C79 195 79 192 76 190 C59 184 28 172 19 168 C13 165 6 163 3 157 C2 151 8 147 13 149 C20 151 26 154 32 157 C45 162 59 168 72 172 C59 116 42 61 41 3 C39 -28 40 -70 70 -89 C84 -99 102 -100 118 -99 C137 -98 156 -94 175 -90 C212 -80 248 -68 284 -57 C322 -45 359 -33 396 -21 C410 -16 424 -13 438 -8 C439 -8 441 -8 442 -8 C444 -8 446 -10 448 -9 C455 -8 459 1 454 7 C448 13 436 8 429 6 C392 -4 355 -17 318 -29 C280 -41 243 -53 205 -64 C186 -70 168 -75 149 -79 C131 -83 111 -86 93 -81 C56 -73 55 -27 57 3 C60 66 75 117 91 178 C107 184 134 193 144 196 C255 231 371 255 486 273 C503 275 519 278 536 278 C542 278 541 272 547 271 C555 270 559 284 551 289 C547 292 534 293 526 293 C466 292 265 252 153 216 C134 211 116 203 98 198 C99 208 104 217 106 227 C133 310 166 392 204 471 C214 491 224 510 235 530 C240 540 245 549 251 559 C253 562 255 568 258 570 C300 580 366 592 401 597 C445 604 489 609 533 612 C554 614 575 615 597 616 C618 616 641 617 661 612 C665 610 670 609 673 607 C676 604 674 601 675 597 C677 588 687 589 689 597 C696 618 672 627 656 629 L656 629 Z " />
<glyph glyph-name="F" unicode="F" horiz-adv-x="706" d="M869 660 C817 663 764 659 712 656 C643 652 574 646 505 640 C471 637 436 634 402 630 C375 627 349 624 322 621 C320 621 304 617 302 620 C305 628 318 658 321 666 C324 673 338 704 322 703 C315 702 314 694 313 689 C304 665 294 642 284 620 C282 616 280 616 276 615 C272 615 268 614 264 614 C222 609 179 602 138 597 C129 596 121 596 112 596 C107 596 97 599 93 594 C88 588 95 583 101 582 C109 581 117 580 124 580 C141 581 158 583 174 585 C191 587 208 589 224 592 C241 594 258 597 274 598 C260 558 242 520 227 481 C213 445 200 409 187 374 C186 371 186 366 183 364 C180 363 175 363 172 362 C162 361 153 359 143 357 C115 351 107 350 78 344 C60 340 40 338 32 334 C29 332 28 330 29 327 C32 319 42 322 67 326 C106 332 139 341 177 346 C166 308 153 270 141 232 C108 127 78 23 51 -84 C47 -101 43 -119 40 -137 C39 -148 33 -171 47 -179 C59 -181 55 -165 55 -158 C55 -145 58 -132 60 -120 C81 -30 105 60 133 148 C152 211 173 273 192 336 C193 339 194 343 196 346 C197 350 197 350 200 351 C207 352 213 353 219 354 C298 369 379 376 459 383 C512 387 565 391 618 391 C632 391 646 391 659 390 C666 389 672 388 678 387 C681 386 685 385 686 383 C686 380 684 379 685 376 C689 363 703 376 703 384 C703 396 690 400 680 403 C654 409 627 408 601 407 C521 407 440 399 360 390 C320 385 282 381 242 375 C230 373 217 369 204 369 C208 384 214 399 220 414 C239 468 259 515 280 570 C285 583 289 594 294 599 C297 604 309 603 314 604 C340 607 364 610 390 613 C424 616 459 619 493 623 C563 629 633 634 702 639 C753 642 804 647 855 644 C864 644 872 644 881 643 C886 642 895 637 900 643 C911 656 875 660 869 660 L869 660 Z " />
<glyph glyph-name="G" unicode="G" horiz-adv-x="534" d="M519 641 C512 656 498 667 482 671 C462 675 441 670 422 664 C384 651 350 628 320 602 C288 575 259 545 232 513 C175 446 128 372 88 295 C68 256 50 216 35 175 C28 155 21 135 15 114 C8 93 4 72 -2 51 C-9 10 -15 -32 -10 -73 C-7 -109 6 -148 40 -166 C76 -185 121 -175 157 -161 C195 -147 232 -125 265 -102 C300 -78 332 -51 362 -21 C393 8 421 41 444 76 C456 93 467 110 475 129 C482 147 491 170 481 189 C473 206 452 209 435 207 C415 204 395 195 377 187 C339 168 304 144 269 120 C234 95 200 68 166 41 C150 27 134 13 120 -3 C113 -9 106 -17 104 -26 C102 -33 104 -44 113 -45 C118 -45 122 -42 121 -37 C121 -35 119 -33 119 -31 C119 -29 121 -28 122 -26 C127 -18 135 -10 142 -3 C157 12 174 26 190 40 C224 67 259 92 294 117 C328 141 364 164 403 180 C412 184 421 187 431 189 C440 191 450 193 459 189 C476 182 467 155 462 142 C447 103 421 68 394 37 C367 5 337 -25 305 -52 C273 -78 240 -102 204 -121 C169 -140 130 -159 90 -160 C-7 -163 0 -41 10 25 C24 111 57 195 96 273 C134 350 180 424 234 491 C260 523 288 553 319 580 C349 607 382 631 419 646 C438 653 460 659 479 654 C499 650 507 633 507 614 C508 592 501 571 493 552 C485 532 475 513 464 495 C442 457 416 422 391 386 C378 369 366 352 354 334 C350 329 347 324 344 320 C342 317 338 313 338 309 C337 305 340 301 344 301 C349 301 351 304 353 307 C378 342 404 377 429 413 C454 448 478 483 497 522 C507 541 515 561 520 582 C524 601 526 622 519 641 L519 641 Z " />
<glyph glyph-name="H" unicode="H" horiz-adv-x="435" d="M485 736 C481 736 477 734 476 730 C476 728 477 726 477 724 C478 721 477 719 477 717 C471 695 463 674 455 653 C440 609 424 566 409 522 C378 434 365 390 340 301 C336 291 317 221 311 202 C310 199 310 200 306 200 C251 200 197 196 142 190 C145 203 149 215 153 227 C183 330 199 390 232 493 C248 544 266 594 284 645 C293 669 304 694 309 720 C311 725 313 731 310 737 C308 741 304 743 299 741 C293 739 296 733 296 728 C296 723 292 716 291 711 C274 660 254 609 236 558 C219 507 203 456 187 405 C172 353 171 345 155 293 C148 268 140 242 132 216 C130 209 127 198 124 188 C108 186 92 183 77 181 C51 176 25 170 0 164 C-13 160 -26 157 -39 153 C-44 152 -50 148 -47 142 C-45 136 -39 138 -34 139 C-22 143 -9 145 4 148 C16 151 29 154 41 157 C67 163 93 169 119 170 C116 161 114 152 111 143 C87 63 64 -16 41 -96 C29 -136 17 -175 7 -214 C6 -221 -1 -234 5 -239 C11 -245 17 -238 19 -232 C25 -213 30 -192 36 -173 C58 -94 81 -14 105 64 C111 84 116 104 122 124 C127 139 130 155 136 170 C137 173 137 173 140 173 C157 176 175 177 193 178 C231 181 268 184 306 183 C299 152 289 121 281 91 C272 60 264 29 256 -2 C238 -68 210 -168 205 -205 C204 -210 203 -218 206 -223 C209 -227 216 -226 218 -222 C221 -217 221 -209 222 -204 C225 -184 234 -152 249 -94 C277 15 292 74 323 182 C331 183 341 182 348 179 C354 176 359 165 366 173 C372 180 364 189 358 193 C350 197 337 198 328 199 C331 210 332 216 336 229 C363 317 373 363 402 451 C417 495 433 539 448 583 C456 605 464 627 471 649 C479 670 487 691 491 713 C493 720 496 735 485 736 L485 736 Z " />
<glyph glyph-name="I" unicode="I" horiz-adv-x="216" d="M262 713 C257 716 252 712 252 707 C250 699 249 692 246 684 C241 669 236 653 231 638 C220 607 209 577 199 546 C135 362 83 175 29 -12 C12 -76 -7 -139 -20 -203 C-19 -209 -21 -218 -14 -219 C-7 -221 -5 -214 -4 -209 C8 -146 26 -84 43 -22 C98 164 149 352 213 536 C223 567 234 597 245 628 C250 643 256 658 260 674 C262 681 264 689 265 696 C266 701 268 709 262 713 L262 713 Z " />
<glyph glyph-name="J" unicode="J" horiz-adv-x="634" d="M593 536 C575 587 537 627 486 647 C431 669 368 665 312 651 C257 636 205 611 160 577 C137 560 117 541 100 519 C91 508 84 496 79 483 C76 476 74 469 74 461 C74 456 73 447 79 446 C87 444 89 450 89 456 C89 463 90 469 93 476 C98 489 106 500 114 511 C131 533 152 551 174 568 C219 600 271 624 325 637 C381 650 443 651 496 625 C543 601 573 557 585 506 C598 449 590 388 575 332 C558 273 531 219 500 166 C486 173 473 176 457 177 C443 177 428 177 414 177 C354 174 293 164 235 149 C178 134 123 112 74 79 C29 49 -13 8 -34 -43 C-44 -68 -50 -97 -43 -124 C-36 -148 -19 -168 4 -179 C56 -203 120 -186 170 -165 C223 -142 271 -108 315 -72 C360 -34 401 8 438 53 C457 77 475 101 493 126 C496 131 501 135 504 141 C507 147 510 153 514 159 C522 172 529 185 536 198 C565 250 587 306 599 364 C610 420 613 481 593 536 L593 536 Z M473 126 C422 53 361 -14 292 -70 C259 -97 223 -121 185 -140 C147 -159 104 -174 61 -174 C22 -174 -19 -157 -28 -115 C-36 -72 -13 -29 13 3 C66 67 146 108 224 129 C268 142 312 149 357 155 C379 158 402 160 424 161 C446 162 471 163 491 152 C485 144 479 135 473 126 L473 126 Z " />
<glyph glyph-name="K" unicode="K" horiz-adv-x="551" d="M798 747 C779 740 717 694 701 683 C557 580 440 471 316 348 C241 273 170 196 96 119 C86 108 32 47 26 41 C65 179 101 311 144 448 C170 528 199 609 229 688 C234 702 248 735 247 744 C247 748 240 750 236 748 C230 745 215 730 222 723 C223 720 217 702 211 687 C185 623 153 529 127 448 C86 313 43 177 9 41 C5 29 3 14 -4 3 C-11 -8 -20 -18 -23 -30 C-24 -36 -23 -41 -20 -46 C-18 -48 -17 -48 -17 -51 C-34 -102 -52 -176 -66 -226 C-67 -231 -70 -239 -67 -244 C-65 -248 -60 -249 -56 -247 C-51 -244 -51 -237 -50 -233 C-33 -160 -21 -122 -1 -52 C69 -45 135 -24 205 -19 C261 -14 317 -16 372 -21 C427 -25 482 -32 535 -47 C559 -54 586 -62 604 -80 C608 -83 612 -88 613 -93 C615 -98 613 -104 616 -109 C618 -113 624 -113 627 -109 C631 -106 630 -98 630 -93 C626 -68 599 -54 579 -45 C554 -34 528 -28 502 -22 C448 -11 392 -5 337 -2 C281 1 224 1 168 -6 C124 -13 84 -20 44 -29 C30 -31 17 -34 4 -35 C6 -27 9 -18 11 -9 C16 8 30 21 42 34 C54 49 67 63 80 77 C159 162 237 246 319 328 C467 473 612 609 777 716 C784 721 812 736 798 747 L798 747 Z " />
<glyph glyph-name="L" unicode="L" horiz-adv-x="467" d="M650 -178 C643 -169 629 -164 619 -162 C504 -140 384 -149 284 -160 C228 -166 173 -176 117 -183 C90 -187 61 -192 35 -186 C24 -184 14 -180 8 -169 C-14 -120 34 -17 51 25 C73 77 95 129 119 180 C166 282 216 383 271 481 C299 531 328 579 358 628 C372 652 387 676 401 700 C404 704 405 711 398 712 C393 714 389 708 386 704 C378 693 371 681 364 670 C304 575 249 478 198 379 C146 279 98 178 54 74 C27 11 -27 -92 -11 -162 C-9 -173 -4 -183 5 -190 C28 -210 82 -205 113 -200 C169 -193 225 -182 281 -177 C371 -169 522 -156 615 -178 C623 -180 640 -184 637 -195 C637 -200 633 -205 637 -209 C641 -213 646 -211 649 -207 C655 -198 656 -187 650 -178 L650 -178 Z " />
<glyph glyph-name="M" unicode="M" horiz-adv-x="867" d="M884 603 C873 644 807 573 796 562 C766 530 738 497 711 464 C655 396 603 326 553 255 C520 210 493 172 459 128 C457 125 432 96 429 101 C426 106 425 116 425 125 C425 180 437 234 448 288 C457 332 468 374 478 418 C485 448 493 483 498 513 C500 523 502 535 499 545 C491 566 468 546 459 537 C444 522 431 506 418 489 C364 420 314 348 265 276 C215 203 168 129 118 57 C106 39 94 21 81 4 C72 -7 50 -42 36 -37 C19 -31 38 72 40 82 C57 169 81 254 108 337 C134 421 164 503 200 583 C218 623 237 661 257 700 C261 709 266 719 271 728 C274 731 278 736 277 741 C276 744 273 747 269 746 C261 745 256 731 252 725 C247 715 242 706 237 696 C197 621 163 542 133 462 C103 380 77 296 54 212 C42 170 32 128 24 85 C17 48 6 -11 19 -37 C40 -81 91 -9 103 7 C129 42 153 79 177 115 C226 189 274 262 325 334 C350 370 376 405 402 440 C415 458 428 475 441 492 C454 508 471 531 484 536 C486 524 481 507 477 488 C463 421 445 355 431 288 C422 240 407 171 407 138 C407 124 407 104 417 92 C427 81 443 89 452 97 C470 114 516 174 543 214 C583 269 622 324 663 378 C704 430 745 482 790 531 C813 556 833 580 858 595 C860 596 867 600 869 597 C874 586 853 529 848 514 C804 385 758 256 719 124 C699 64 634 -163 627 -220 C625 -232 619 -253 631 -262 C636 -262 640 -263 642 -258 C643 -255 642 -252 641 -250 C639 -241 642 -230 643 -220 C664 -113 697 -7 728 98 C753 183 780 267 809 351 C823 393 838 435 853 477 C860 498 868 520 874 541 C880 560 888 589 884 603 L884 603 Z " />
<glyph glyph-name="N" unicode="N" horiz-adv-x="522" d="M554 684 C542 689 530 678 521 670 C510 661 500 649 490 637 C470 615 452 591 434 566 C360 466 290 362 224 256 C192 203 159 148 127 94 C111 68 95 41 78 15 C70 3 62 -9 53 -21 C45 -32 36 -43 24 -50 C17 -32 19 -9 21 10 C24 53 32 95 40 137 C49 179 58 221 68 264 C88 347 111 430 138 512 C151 553 165 593 181 633 C189 653 197 673 205 694 C209 703 213 713 216 723 C217 730 220 738 213 743 C207 746 200 740 201 734 C202 724 196 714 192 705 C184 685 176 665 168 645 C153 605 138 565 125 525 C98 443 75 360 55 277 C45 235 35 193 27 151 C18 109 10 66 5 23 C3 2 1 -20 5 -41 C6 -50 8 -59 16 -64 C23 -68 32 -65 38 -61 C54 -49 66 -31 78 -15 C90 2 101 21 112 39 C158 113 201 188 247 262 C293 335 340 406 389 476 C413 511 438 545 464 579 C477 596 490 612 503 628 C516 643 530 660 548 669 C551 654 546 636 543 621 C539 604 535 587 530 571 C520 537 509 505 498 472 C458 353 417 235 378 116 C358 57 339 -2 321 -62 C312 -91 304 -121 296 -151 C292 -166 288 -181 285 -196 C283 -206 278 -224 291 -229 C296 -229 303 -227 302 -220 C302 -218 300 -216 299 -214 C298 -211 300 -207 300 -204 C311 -143 332 -83 350 -24 C369 36 388 96 408 155 C428 216 449 276 469 337 C490 396 511 456 530 516 C539 546 549 576 556 606 C560 621 563 636 565 651 C566 662 567 679 554 684 L554 684 Z " />
<glyph glyph-name="O" unicode="O" horiz-adv-x="641" d="M530 688 C461 735 373 719 303 685 C231 649 167 595 119 531 C94 498 69 463 48 427 C39 410 27 390 25 371 C24 363 25 352 34 349 C37 348 41 350 43 353 C45 357 41 361 41 365 C40 373 45 384 48 392 C53 401 57 411 63 419 C73 437 84 455 96 472 C119 506 144 540 173 570 C201 598 231 622 264 644 C299 666 337 685 377 695 C416 704 458 705 495 689 C528 674 555 647 572 615 C612 540 607 448 589 369 C571 287 538 208 497 135 C458 63 411 -7 356 -68 C329 -97 300 -126 268 -149 C236 -172 197 -194 156 -188 C119 -183 96 -152 84 -119 C68 -80 64 -36 64 6 C64 92 82 178 107 260 C119 301 134 341 150 380 C158 400 166 419 174 439 C177 444 179 450 181 455 C182 459 185 463 182 467 C181 470 176 471 173 469 C169 467 168 462 166 458 C131 380 100 300 78 217 C57 136 43 50 50 -34 C53 -75 61 -117 82 -153 C91 -168 103 -182 118 -191 C134 -201 151 -204 169 -206 C189 -205 207 -201 225 -193 C242 -185 259 -175 274 -164 C340 -118 394 -54 440 12 C488 81 530 155 562 233 C595 311 618 395 618 480 C618 556 596 642 530 688 L530 688 Z " />
<glyph glyph-name="P" unicode="P" horiz-adv-x="629" d="M675 621 C662 682 613 723 554 739 C521 749 486 751 451 749 C415 746 381 738 347 729 C348 734 352 744 343 745 C334 746 332 733 330 727 C327 719 317 718 310 715 C269 701 229 678 194 654 C143 619 96 576 61 525 C45 501 24 462 28 436 C29 428 32 421 38 416 C43 413 49 413 51 420 C52 424 48 426 46 429 C44 432 43 435 43 438 C43 446 45 455 47 462 C57 492 76 519 95 543 C115 567 137 588 161 608 C208 647 261 680 318 701 C316 694 314 687 305 667 C272 593 244 526 216 449 C188 373 164 295 141 217 C136 197 130 177 125 158 C123 151 108 95 108 95 C102 97 95 100 88 104 C67 116 50 133 42 156 C31 192 45 226 62 257 C71 274 81 290 92 305 C98 313 104 320 111 327 C115 330 117 330 122 328 C125 327 129 328 131 332 C134 339 126 345 120 346 C112 348 104 343 99 338 C85 325 75 310 65 294 C50 271 37 248 28 221 C19 196 22 162 28 147 C41 113 70 91 103 79 C74 -32 57 -87 31 -215 C29 -223 27 -233 31 -241 C33 -246 39 -251 44 -245 C47 -242 45 -237 45 -233 C45 -221 48 -210 51 -196 C70 -106 92 -30 120 76 C134 74 146 73 162 73 C230 73 296 106 353 142 C467 212 568 315 632 427 C665 485 691 554 675 621 L675 621 Z M652 513 C614 399 529 306 444 230 C378 173 300 118 214 97 C184 89 154 88 124 92 C127 106 131 119 135 133 C169 256 205 377 251 496 C274 556 292 598 317 657 C321 665 334 696 341 709 C383 725 436 733 480 733 C535 732 596 717 633 673 C670 628 669 566 652 513 L652 513 Z " />
<glyph glyph-name="Q" unicode="Q" horiz-adv-x="641" d="M21 37 C23 66 26 95 32 123 C38 151 46 179 55 207 C64 234 75 261 88 287 C94 296 101 315 112 318 C116 319 122 317 125 313 C129 309 128 302 122 301 C120 301 119 302 117 302 C115 302 118 304 115 301 C112 299 111 294 110 292 C106 285 102 278 99 271 C81 232 65 192 55 150 C40 94 32 34 42 -23 C46 -49 55 -75 72 -95 C88 -114 110 -125 134 -126 C163 -126 192 -116 217 -104 C242 -92 265 -77 288 -61 C310 -44 332 -26 353 -7 C357 -2 363 2 367 7 C371 12 368 21 368 26 C366 41 365 57 363 72 C357 127 339 180 306 227 C273 274 228 308 184 345 C144 378 98 420 102 478 C105 531 146 576 184 610 C225 646 273 674 324 690 C378 707 438 711 491 692 C540 674 578 638 600 591 C649 486 615 363 568 264 C543 211 513 162 480 115 C462 91 444 69 426 46 C416 35 406 24 395 13 C393 10 390 8 388 5 C386 2 386 0 387 -3 C387 -10 388 -17 388 -24 C390 -54 393 -83 394 -113 C394 -143 396 -173 394 -203 C394 -209 394 -216 392 -222 C390 -227 383 -232 378 -227 C374 -223 377 -216 377 -211 C378 -203 378 -196 378 -188 C379 -158 378 -128 376 -98 C375 -69 373 -41 371 -12 C365 -17 360 -23 354 -28 C347 -34 340 -40 333 -46 C320 -57 306 -68 292 -78 C265 -98 235 -115 203 -128 C172 -140 137 -147 105 -137 C75 -127 53 -103 40 -75 C24 -40 21 -1 21 37 L21 37 Z M385 25 C425 68 461 115 494 165 C526 214 554 266 575 321 C614 422 632 562 542 643 C452 724 312 685 224 620 C201 604 180 585 161 564 C144 544 127 520 121 493 C105 432 158 388 200 353 C245 315 291 279 324 229 C357 181 374 125 380 68 C382 54 383 39 385 25 L385 25 Z " />
<glyph glyph-name="R" unicode="R" horiz-adv-x="632" d="M681 588 C678 629 645 660 610 676 C569 696 522 702 477 704 C455 704 432 703 410 701 C415 716 420 730 422 738 C423 742 419 745 414 745 C410 745 409 742 407 739 C402 725 399 713 394 699 C387 698 375 696 371 695 C349 691 327 686 305 680 C222 656 141 615 78 555 C70 548 63 541 56 532 C50 525 43 516 41 507 C40 502 40 496 44 493 C46 491 51 491 53 493 C57 496 55 501 56 505 C58 509 61 513 64 516 C91 549 125 576 161 598 C196 620 233 637 271 652 C309 666 347 676 388 681 C358 591 325 500 294 411 C269 333 245 256 221 178 C219 172 218 164 213 160 C205 154 182 143 172 142 C165 141 157 146 151 148 C135 152 120 157 104 161 C73 168 42 174 11 178 C-21 181 -53 183 -84 177 C-108 172 -145 159 -143 129 C-140 100 -105 88 -81 83 C-50 77 -18 78 12 82 C44 86 75 93 106 102 C121 106 136 111 151 117 C157 119 165 124 172 123 C178 122 195 116 200 113 C199 109 198 103 197 100 C191 76 183 53 177 30 C152 -63 125 -158 110 -253 C109 -262 107 -270 107 -278 C107 -283 108 -290 112 -292 C113 -294 120 -294 122 -292 C124 -291 125 -288 125 -286 C125 -283 124 -280 124 -278 C124 -274 124 -271 125 -267 C133 -203 152 -140 166 -77 C178 -30 190 17 204 63 C208 77 212 92 217 107 C223 105 237 99 239 98 C246 95 253 92 259 89 C274 82 288 75 302 68 C330 53 358 38 385 22 C456 -17 597 -107 619 -134 C621 -137 623 -140 624 -143 C624 -146 625 -148 627 -149 C632 -152 638 -148 639 -143 C641 -130 626 -117 617 -109 C595 -88 568 -71 543 -54 C462 -3 380 47 295 89 C275 100 252 110 231 119 C229 120 224 122 222 123 C223 129 229 148 233 151 C239 155 246 158 253 161 C267 168 281 175 294 183 C349 213 401 247 451 283 C500 320 547 359 589 403 C610 425 630 449 647 475 C668 512 683 541 681 588 L681 588 Z M19 99 C-18 94 -59 91 -95 103 C-107 108 -132 119 -125 137 C-119 152 -97 158 -83 160 C-44 168 -4 164 33 158 C53 155 72 151 92 147 C109 143 128 139 145 132 C104 117 62 106 19 99 L19 99 Z M205 129 C203 129 195 132 195 134 C200 136 204 138 209 140 C209 137 207 130 205 129 L205 129 Z M650 516 C625 461 582 416 539 376 C494 335 445 298 394 264 C344 229 291 198 237 171 C247 208 258 245 270 282 C291 350 313 417 337 484 C358 543 377 603 399 661 C402 669 404 677 407 684 C443 689 479 689 515 685 C548 681 582 673 612 657 C635 645 655 625 662 599 C670 571 662 541 650 516 L650 516 Z " />
<glyph glyph-name="S" unicode="S" horiz-adv-x="460" d="M481 626 C457 651 418 655 385 654 C350 652 316 644 283 632 C221 608 161 569 117 519 C95 493 76 461 74 426 C73 394 89 366 112 345 C139 320 173 304 204 286 C236 268 269 251 298 228 C322 209 344 183 343 151 C342 117 320 86 299 62 C253 9 195 -34 137 -71 C107 -90 76 -107 44 -121 C28 -128 12 -134 -5 -135 C-12 -136 -23 -136 -23 -127 C-24 -119 -19 -111 -15 -104 C-6 -89 7 -75 20 -62 C32 -50 45 -38 58 -26 C83 -2 110 22 141 38 C141 32 142 24 150 26 C156 28 158 37 158 42 C157 61 134 53 125 47 C94 31 67 5 41 -18 C16 -42 -12 -67 -29 -97 C-37 -110 -45 -129 -34 -142 C-24 -154 -5 -152 9 -150 C43 -143 75 -125 105 -108 C168 -74 227 -32 279 18 C323 60 382 126 351 191 C336 221 307 243 279 261 C248 281 215 298 183 316 C154 333 121 352 103 380 C83 410 89 445 106 475 C122 505 148 530 174 551 C201 572 230 590 262 605 C292 619 324 629 357 634 C390 640 431 642 460 623 C487 605 484 573 474 546 C461 512 439 483 415 456 C391 428 366 402 340 376 C327 363 315 350 303 337 C298 332 270 306 286 300 C293 297 296 307 300 311 C306 318 312 324 319 331 C332 344 345 358 359 372 C384 398 409 423 432 451 C455 478 476 507 489 540 C500 568 503 602 481 626 L481 626 Z " />
<glyph glyph-name="T" unicode="T" horiz-adv-x="290" d="M795 650 C775 660 751 661 730 664 C659 670 590 674 520 674 C427 675 333 676 240 669 C148 662 56 651 -33 631 C-55 626 -77 621 -100 615 C-105 614 -111 614 -114 610 C-117 608 -117 603 -114 600 C-110 597 -104 599 -100 600 C-94 601 -89 602 -84 604 C-38 613 6 623 50 631 C142 646 235 655 328 657 C228 468 143 210 85 -12 C76 -52 60 -106 61 -138 C61 -148 60 -166 72 -170 C75 -171 79 -169 80 -165 C80 -161 78 -155 77 -151 C70 -118 95 -37 108 12 C165 231 243 460 347 658 C395 660 524 660 611 656 C657 654 703 652 749 646 C760 644 771 642 782 638 C785 637 791 636 792 633 C793 630 790 627 791 624 C791 619 796 617 800 618 C804 619 807 625 808 628 C811 638 803 646 795 650 L795 650 Z " />
<glyph glyph-name="U" unicode="U" horiz-adv-x="555" d="M581 586 C576 593 569 587 566 581 C561 572 557 563 553 554 C519 482 481 410 444 339 C407 268 368 197 327 128 C306 94 285 60 262 27 C241 -4 218 -35 190 -61 C169 -83 132 -114 99 -99 C84 -92 74 -76 67 -61 C59 -44 54 -25 50 -7 C43 31 41 71 42 110 C43 151 46 191 51 232 C61 312 78 392 100 470 C121 546 148 621 184 691 C187 696 189 701 192 705 C194 708 198 711 198 715 C197 723 189 723 184 719 C177 712 173 703 169 695 C164 687 160 678 155 669 C139 634 124 597 111 560 C85 485 65 407 50 328 C35 249 25 168 26 87 C26 48 29 8 39 -30 C47 -62 62 -101 95 -115 C128 -128 162 -107 187 -87 C216 -62 240 -32 262 -1 C307 63 349 132 388 201 C427 270 463 341 500 411 C501 411 484 362 483 357 C477 338 471 320 466 301 C443 224 423 146 403 69 C383 -10 363 -88 350 -168 C348 -178 346 -188 347 -198 C348 -203 351 -214 359 -213 C363 -212 365 -208 365 -205 C364 -201 363 -197 363 -193 C364 -183 365 -174 367 -164 C374 -124 383 -84 392 -45 C411 34 431 113 452 191 C473 270 495 348 522 425 C535 462 548 499 563 535 C567 545 571 554 576 562 C578 568 587 580 581 586 L581 586 Z " />
<glyph glyph-name="V" unicode="V" horiz-adv-x="552" d="M712 688 C706 686 701 679 697 674 C693 669 688 664 684 658 C646 609 608 559 570 509 C496 410 421 310 348 210 C311 160 274 110 237 60 C200 11 164 -40 122 -84 C105 -101 89 -118 73 -120 C67 -120 63 -116 61 -110 C53 -90 50 -49 52 -24 C64 150 108 338 151 516 C158 545 164 574 170 604 C173 618 175 639 175 647 C175 652 167 655 162 652 C157 648 160 640 159 634 C158 626 153 604 151 590 C142 544 130 499 119 453 C104 395 91 336 79 276 C70 231 61 185 54 138 C47 90 40 50 37 4 C35 -26 23 -158 85 -133 C98 -128 109 -118 119 -109 C154 -77 180 -42 206 -7 C282 91 354 192 428 292 C502 392 577 492 653 591 C672 616 690 641 710 664 C714 669 722 675 722 681 C723 687 717 690 712 688 L712 688 Z " />
<glyph glyph-name="W" unicode="W" horiz-adv-x="900" d="M875 538 C874 574 870 613 861 649 C859 658 851 668 843 669 C836 670 827 668 823 661 C819 654 826 648 833 651 C836 652 838 655 841 652 C843 650 845 646 846 643 C857 603 860 550 860 508 C860 392 835 292 778 192 C741 128 698 69 649 15 C603 -36 550 -86 488 -118 C460 -132 420 -146 393 -123 C368 -102 363 -63 361 -33 C356 41 371 117 385 189 C394 234 405 280 415 325 C416 332 417 341 411 345 C398 353 383 328 377 320 C334 257 292 194 249 133 C206 73 163 13 115 -43 C93 -67 69 -98 38 -112 C33 -114 26 -116 20 -111 C15 -106 13 -98 11 -92 C-3 -38 27 103 50 184 C69 257 93 328 121 397 C153 474 188 548 236 615 C241 621 245 629 252 631 C259 633 259 642 253 645 C245 648 238 640 233 635 C210 611 191 578 174 547 C138 482 109 413 83 343 C57 273 36 200 18 127 C10 91 2 54 -3 17 C-8 -16 -18 -117 17 -128 C32 -133 48 -126 61 -118 C90 -98 113 -70 136 -43 C184 13 227 74 270 135 C302 182 334 229 366 275 C376 289 386 305 397 319 C396 307 392 294 389 282 C377 231 366 179 357 127 C348 75 341 23 344 -30 C347 -72 357 -131 403 -147 C426 -155 451 -150 473 -142 C540 -117 599 -62 647 -11 C681 25 713 64 741 105 C836 240 881 353 875 538 L875 538 Z " />
<glyph glyph-name="X" unicode="X" horiz-adv-x="394" d="M585 741 C581 744 577 743 574 740 C569 734 559 720 549 710 C510 669 471 628 433 587 C396 545 358 502 322 459 C286 417 250 373 215 330 C212 346 212 363 211 380 C203 481 201 583 201 685 C201 702 201 718 202 735 C202 741 202 750 194 751 C187 751 186 742 186 737 C181 601 188 465 198 329 C199 324 199 319 199 314 C199 311 193 304 191 302 C156 255 122 212 84 165 C21 84 -42 3 -104 -80 C-114 -93 -123 -107 -133 -120 C-142 -133 -153 -147 -159 -161 C-166 -178 -147 -177 -142 -163 C-134 -149 -123 -135 -114 -122 C-94 -94 -74 -67 -53 -39 C10 43 74 125 138 207 C144 215 194 278 201 286 C204 248 211 186 212 167 C224 43 237 -88 254 -204 C256 -217 258 -238 270 -246 C277 -249 280 -241 280 -238 C280 -234 276 -228 275 -224 C264 -179 246 1 234 111 C228 173 224 239 217 301 C217 307 220 311 224 315 C233 326 242 337 251 348 C336 459 433 564 529 666 C548 685 569 704 584 726 C587 730 589 737 585 741 L585 741 Z " />
<glyph glyph-name="Y" unicode="Y" horiz-adv-x="455" d="M561 685 C553 689 548 679 544 674 C523 643 506 601 485 565 C468 536 448 508 430 480 C411 453 392 426 372 399 C331 345 289 292 242 242 C222 220 195 191 166 181 C134 168 115 195 105 221 C81 286 87 357 95 425 C109 528 136 620 174 717 C176 722 183 732 183 737 C183 743 174 746 170 743 C164 738 162 728 159 722 C132 650 109 588 93 512 C75 418 54 299 92 210 C104 182 127 155 160 162 C190 168 216 193 237 213 C261 237 283 263 305 289 C327 315 349 342 370 369 C390 396 410 424 430 452 C417 417 399 380 390 361 C334 232 281 101 231 -30 C205 -96 181 -149 163 -218 C161 -225 158 -235 160 -242 C162 -248 168 -251 174 -248 C177 -246 179 -243 179 -239 C179 -236 177 -234 177 -231 C178 -224 180 -217 182 -211 C211 -111 251 -22 290 74 C316 140 343 207 370 272 C397 337 426 400 455 464 C469 495 484 527 500 558 C520 594 547 629 562 665 C564 670 568 682 561 685 L561 685 Z " />
<glyph glyph-name="Z" unicode="Z" horiz-adv-x="485" d="M573 -81 C503 -57 400 -44 313 -42 C216 -38 95 -52 23 -52 C16 -52 1 -51 -2 -43 C-6 -35 1 -23 4 -17 C29 28 66 66 100 104 C155 165 210 228 268 286 C271 289 274 294 277 296 C281 298 287 299 291 299 C319 301 344 303 372 305 C377 305 396 304 399 307 C402 310 402 314 399 317 C396 320 393 320 378 320 C327 320 327 317 295 316 C351 379 409 440 460 509 C480 535 499 561 512 591 C523 615 529 645 507 664 C483 686 445 688 414 688 C345 686 281 670 218 650 C187 640 155 629 127 611 C121 607 115 602 114 595 C114 590 118 585 124 587 C127 588 128 591 130 594 C131 596 134 598 136 599 C143 603 151 607 158 610 C188 623 220 634 252 643 C316 661 385 678 449 670 C479 666 510 654 505 621 C499 589 478 560 460 535 C420 480 374 429 329 378 C313 359 287 332 270 312 C233 306 196 301 159 292 C152 290 144 288 136 285 C130 283 119 280 117 274 C114 267 122 263 128 266 C135 269 141 271 148 273 C182 280 217 287 251 293 C237 277 220 260 207 246 C148 182 90 121 35 54 C16 32 -24 -19 -21 -45 C-19 -65 6 -69 23 -70 C44 -71 66 -69 87 -68 C278 -56 343 -55 475 -76 C516 -84 594 -98 621 -126 C628 -133 628 -140 622 -148 C619 -153 606 -163 616 -168 C624 -172 633 -160 636 -155 C664 -115 606 -94 573 -81 L573 -81 Z " />
<glyph glyph-name="bracketleft" unicode="&#x5b;" horiz-adv-x="339" d="M334 741 C333 748 326 746 320 745 C313 743 305 742 297 740 C283 736 274 730 268 717 C253 687 240 656 227 625 C203 563 181 500 161 437 C141 372 121 307 102 242 C83 177 66 113 52 47 C44 15 39 -18 36 -51 C34 -63 33 -78 44 -87 C50 -91 57 -92 65 -93 C72 -94 80 -95 87 -96 C96 -96 120 -100 123 -88 C125 -81 118 -78 112 -79 C105 -80 98 -80 90 -79 C82 -79 73 -78 65 -77 C59 -76 52 -75 52 -68 C50 -52 54 -35 56 -20 C59 -3 61 13 65 30 C78 94 95 158 113 222 C150 351 188 480 237 605 C249 636 263 667 276 698 C282 710 287 721 301 725 C308 727 316 729 323 731 C328 732 336 734 334 741 L334 741 Z " />
<glyph glyph-name="backslash" unicode="&#x5c;" horiz-adv-x="174" d="M79 688 C77 703 74 718 73 730 C71 736 72 745 66 749 C61 752 56 749 56 743 C55 736 58 729 58 722 C59 715 61 708 61 701 C62 686 65 671 68 656 C71 626 73 595 75 565 C85 443 90 320 94 197 C95 137 99 76 103 15 C104 -15 107 -46 109 -76 C111 -92 112 -107 114 -123 C114 -130 115 -138 116 -145 C117 -150 119 -154 125 -156 C130 -157 133 -153 133 -148 C133 -141 130 -134 130 -127 C123 -68 120 -8 116 52 C113 112 111 173 110 234 C106 356 100 477 89 598 C87 628 84 658 79 688 L79 688 Z " />
<glyph glyph-name="bracketright" unicode="&#x5d;" horiz-adv-x="356" d="M344 696 C343 709 342 721 331 731 C320 741 304 742 288 743 C280 743 271 743 263 745 C257 746 250 746 251 738 C251 731 261 730 268 730 C276 729 284 729 292 728 C305 726 320 724 324 711 C330 696 325 679 321 664 C284 539 261 447 226 331 C189 213 151 96 120 -24 C118 -30 114 -41 110 -46 C99 -60 64 -77 52 -81 C46 -83 41 -85 42 -91 C46 -107 73 -89 80 -85 C94 -78 109 -72 119 -61 C129 -50 133 -37 137 -25 C170 87 204 199 237 312 C272 424 299 528 335 648 C340 664 343 680 344 696 L344 696 Z " />
<glyph glyph-name="asciicircum" unicode="&#x5e;" horiz-adv-x="147" d="M143 639 C141 649 131 648 124 643 C115 634 107 623 99 613 C91 602 83 592 75 582 C72 578 65 572 67 566 C69 562 73 560 77 562 C80 563 81 565 82 568 C89 575 94 582 100 589 C108 599 117 609 125 619 C125 606 122 590 119 577 C117 568 115 564 120 560 C125 556 131 559 133 564 C135 569 136 576 137 582 C140 601 145 627 143 639 L143 639 Z " />
<glyph glyph-name="underscore" unicode="&#x5f;" horiz-adv-x="289" d="M242 210 C239 216 231 216 226 216 C219 217 213 217 206 217 C191 217 177 218 162 218 C133 218 103 219 74 217 C67 217 60 217 53 217 C48 217 43 214 44 208 C45 202 51 201 56 201 C63 201 70 201 77 201 C107 202 136 202 165 202 C165 202 209 201 213 201 C217 201 221 200 224 200 C228 200 232 199 236 200 C241 200 244 206 242 210 L242 210 Z " />
<glyph glyph-name="grave" unicode="&#x60;" horiz-adv-x="106" d="M80 637 C79 642 78 650 72 652 C67 653 63 649 64 644 C64 638 66 630 68 624 C69 617 70 611 72 604 C73 599 75 591 81 589 C86 587 90 592 90 596 C88 610 84 624 80 637 L80 637 Z " />
<glyph glyph-name="a" unicode="a" horiz-adv-x="205" d="M99 307 C99 307 89 280 88 277 C80 257 72 228 76 211 C78 202 83 195 92 193 C103 191 113 196 121 201 C140 213 157 230 173 246 C186 258 201 273 212 285 C215 288 216 294 205 300 C205 300 177 273 167 262 C150 246 134 229 115 216 C109 213 95 203 92 214 C89 224 92 236 95 247 C101 269 110 290 120 311 C125 322 130 333 136 343 C140 351 151 365 144 373 C137 383 127 369 123 363 C112 347 110 346 101 335 C86 317 71 298 55 280 C47 272 39 263 31 256 C26 252 10 238 5 240 C1 242 1 249 1 252 C1 268 7 284 16 297 C23 307 52 340 60 328 C62 325 58 318 59 314 C60 310 64 308 68 309 C76 311 76 327 74 333 C67 356 36 340 25 331 C9 318 -3 299 -9 281 C-14 266 -21 234 -2 225 C7 221 18 227 26 232 C49 246 77 280 99 307 L99 307 Z " />
<glyph glyph-name="b" unicode="b" horiz-adv-x="246" d="M151 737 C152 742 153 747 145 748 C140 749 138 745 137 741 C100 631 98 614 65 507 C48 455 32 402 16 350 C8 324 -2 299 -8 272 C-9 267 -10 262 -5 259 C-1 255 4 257 8 261 C18 270 26 281 35 291 C51 309 69 326 89 339 C98 344 111 351 121 345 C131 340 131 325 130 315 C128 285 111 253 98 226 C95 221 93 217 88 215 C76 211 65 207 54 202 C34 194 8 182 1 160 C-2 151 -1 142 7 136 C14 130 25 131 34 134 C56 143 74 161 88 180 C92 185 95 190 99 196 C102 201 104 203 110 206 C122 210 134 215 146 221 C170 232 192 244 213 259 C224 266 240 278 251 285 C255 288 257 296 246 300 C239 296 223 286 216 280 C184 260 152 238 116 225 C125 245 134 265 140 286 C146 304 150 326 143 343 C136 359 121 366 105 363 C86 359 70 346 56 334 C48 328 41 321 35 314 C28 308 22 300 15 294 C15 298 18 304 19 308 C23 322 29 338 33 353 C40 373 46 393 52 413 C74 483 98 562 122 638 C136 683 144 706 151 737 L151 737 Z M77 193 C66 178 52 161 33 152 C29 150 20 145 17 149 C12 152 18 161 22 165 C31 174 40 178 55 185 C58 186 72 192 77 193 L77 193 Z " />
<glyph glyph-name="c" unicode="c" horiz-adv-x="218" d="M218 300 C218 300 109 239 79 225 C61 217 5 190 -9 211 C-16 223 -9 243 -5 254 C7 285 25 313 47 335 C56 344 74 361 83 354 C89 351 85 343 87 338 C90 332 98 331 101 337 C105 346 101 361 92 367 C68 382 35 348 22 332 C2 307 -18 276 -26 244 C-30 229 -30 210 -19 198 C-7 185 12 187 28 189 C63 196 97 215 128 231 C143 240 207 275 223 284 C228 286 226 296 218 300 L218 300 Z " />
<glyph glyph-name="d" unicode="d" horiz-adv-x="237" d="M103 326 C96 292 85 252 98 212 C101 203 107 195 117 192 C127 189 138 192 147 197 C169 209 187 227 205 244 C213 252 234 273 242 282 C248 288 252 295 237 300 C237 300 226 289 221 284 C197 260 169 228 138 210 C129 205 120 202 114 214 C109 224 108 238 108 250 C108 276 114 302 121 326 C132 371 158 442 179 493 C209 567 223 606 253 679 C259 692 265 705 270 717 C272 722 282 741 268 743 C258 745 252 730 248 722 C242 711 237 697 232 686 C202 612 188 574 161 499 C144 449 114 384 90 337 C88 344 85 352 80 357 C74 362 67 362 60 361 C45 358 32 344 23 333 C-2 302 -30 251 -24 212 C-22 200 -16 187 -2 188 C11 188 23 200 31 209 C41 220 50 233 58 245 C75 271 89 298 103 326 L103 326 Z M87 331 C74 305 61 280 45 256 C38 246 32 235 24 226 C18 219 8 206 -2 204 C-11 203 -8 228 -7 234 C-5 245 -1 257 3 268 C12 290 25 312 41 329 C45 333 49 337 54 340 C57 343 63 347 68 346 C73 345 73 338 76 335 C79 330 83 331 87 331 L87 331 Z " />
<glyph glyph-name="e" unicode="e" horiz-adv-x="204" d="M204 300 C204 300 169 273 162 268 C137 248 108 221 78 207 C57 196 13 182 1 212 C-5 227 -1 245 3 261 C8 278 15 293 24 308 C27 301 30 293 37 289 C43 285 51 284 59 286 C75 290 87 305 95 320 C102 333 110 354 97 366 C85 378 66 371 53 363 C25 346 6 315 -6 285 C-17 259 -27 220 -8 195 C12 170 51 176 76 188 C107 202 134 225 161 246 C168 252 195 272 202 278 C207 282 222 293 204 300 L204 300 Z M41 326 C43 329 43 331 44 334 C46 340 55 345 60 349 C66 352 72 356 79 356 C87 357 88 352 87 345 C83 330 76 318 65 308 C60 304 54 300 48 302 C41 303 39 311 39 317 C39 320 39 323 41 326 L41 326 Z " />
<glyph glyph-name="f" unicode="f" horiz-adv-x="209" d="M209 300 C209 300 196 291 190 286 C153 259 116 231 78 204 C42 177 5 151 -34 129 C-28 147 -20 179 -17 190 C10 279 41 367 72 455 C110 562 128 611 175 716 C177 721 180 726 183 731 C185 735 185 739 182 741 C173 748 164 731 162 726 C124 643 113 616 82 531 C66 487 50 443 34 398 C3 310 -26 222 -51 133 C-52 128 -53 122 -56 119 C-58 116 -63 114 -66 112 C-70 109 -72 105 -71 100 C-70 95 -65 92 -64 88 C-63 84 -66 76 -67 72 C-71 58 -76 38 -79 23 C-89 -21 -99 -68 -96 -113 C-94 -131 -90 -157 -71 -165 C-53 -172 -34 -156 -23 -143 C4 -111 17 -67 15 -26 C14 14 -3 49 -30 78 C-34 82 -38 86 -42 90 C-46 94 -44 97 -43 102 C-41 108 -37 110 -32 112 C-27 115 -22 117 -18 120 C2 130 20 142 38 155 C76 181 113 209 150 237 C169 251 195 269 214 283 C219 287 220 296 209 300 L209 300 Z M-2 -16 C2 -48 -5 -81 -20 -109 C-27 -123 -37 -136 -49 -145 C-54 -149 -62 -153 -68 -148 C-73 -144 -75 -136 -77 -129 C-84 -97 -79 -60 -73 -28 C-67 7 -59 41 -50 75 C-25 50 -6 20 -2 -16 L-2 -16 Z " />
<glyph glyph-name="g" unicode="g" horiz-adv-x="257" d="M257 300 C187 210 116 115 28 42 C44 88 58 135 73 182 C84 220 97 258 107 296 C110 306 113 315 115 325 C117 331 116 341 108 341 C100 341 95 331 92 326 C86 318 81 309 75 301 C64 285 54 269 42 254 C31 240 19 225 5 215 C1 212 -7 206 -10 212 C-19 226 4 275 10 285 C18 298 29 314 42 323 C46 326 57 333 61 328 C65 322 59 314 63 308 C69 302 75 308 76 314 C78 322 78 331 73 337 C65 350 47 346 36 339 C21 330 10 316 1 302 C-16 277 -40 222 -24 202 C-13 188 5 195 16 203 C46 225 66 260 88 290 C85 280 79 261 73 241 C57 188 45 147 28 95 C22 75 14 54 8 34 C6 29 5 23 2 19 C-3 14 -9 10 -14 6 C-30 -7 -46 -19 -62 -31 C-84 -47 -106 -63 -127 -79 C-146 -94 -163 -111 -177 -131 C-190 -150 -202 -178 -189 -200 C-177 -219 -153 -221 -134 -215 C-112 -208 -92 -193 -76 -177 C-60 -160 -46 -139 -35 -118 C-23 -94 -12 -69 -2 -43 C3 -30 7 -17 12 -4 C14 2 16 8 21 13 C25 18 30 22 35 26 C119 98 184 180 253 267 C258 273 262 278 266 284 C269 288 271 295 257 300 L257 300 Z M-57 -123 C-73 -152 -96 -178 -126 -194 C-139 -201 -159 -208 -171 -196 C-184 -183 -176 -161 -169 -148 C-152 -116 -124 -97 -96 -76 C-67 -54 -37 -32 -8 -10 C-21 -49 -36 -87 -57 -123 L-57 -123 Z " />
<glyph glyph-name="h" unicode="h" horiz-adv-x="255" d="M164 737 C165 743 163 747 157 747 C152 747 150 742 150 741 C149 740 146 730 145 728 C107 615 99 591 62 481 C42 424 19 360 1 303 C-7 275 -16 246 -21 218 C-23 208 -27 190 -17 183 C-6 176 6 191 12 198 C33 219 50 242 70 264 C89 285 113 309 130 319 C130 307 127 294 124 280 C121 267 118 250 119 237 C120 226 124 215 136 212 C148 209 162 214 173 220 C194 232 220 252 239 267 C245 271 256 280 261 285 C266 289 264 295 255 300 C255 300 248 295 244 292 C224 276 194 253 173 239 C165 234 152 227 142 228 C132 229 135 248 136 254 C138 266 140 278 143 292 C146 306 149 321 146 328 C136 351 104 322 95 313 C76 296 60 278 43 259 C27 240 12 220 -6 203 C-4 216 -3 230 10 275 C20 309 34 348 45 381 C95 531 104 554 159 724 C161 729 162 732 164 737 L164 737 Z " />
<glyph glyph-name="i" unicode="i" horiz-adv-x="146" d="M146 300 C146 300 69 246 34 229 C24 224 15 219 7 222 C-1 225 1 240 2 247 C6 267 14 292 24 320 C30 337 33 344 37 356 C39 361 43 368 42 374 C41 378 35 381 31 379 C27 376 26 370 24 365 C17 347 10 330 4 313 C-4 290 -11 265 -14 240 C-15 229 -14 216 -4 209 C5 203 17 206 27 209 C53 217 77 234 100 249 C116 260 133 270 148 282 C152 284 159 291 146 300 L146 300 Z M46 425 C56 425 55 439 47 440 C36 442 36 425 46 425 L46 425 Z " />
<glyph glyph-name="j" unicode="j" horiz-adv-x="165" d="M165 300 C165 300 129 263 121 255 C80 213 38 172 -6 134 C-20 122 -34 108 -49 97 C-45 109 -41 121 -37 133 C-18 187 -1 242 16 296 C20 310 24 323 28 337 C30 344 31 351 33 358 C34 362 36 368 32 372 C20 381 16 355 15 350 C11 336 7 323 3 310 C-14 255 -31 200 -50 146 C-60 118 -65 104 -71 84 C-73 79 -74 74 -78 69 C-87 59 -98 50 -107 40 C-116 31 -124 22 -133 12 C-166 -26 -195 -69 -218 -114 C-230 -138 -241 -163 -247 -190 C-251 -209 -252 -235 -240 -242 C-237 -244 -235 -245 -232 -245 C-222 -246 -205 -229 -198 -220 C-171 -189 -152 -151 -135 -115 C-110 -64 -89 -12 -69 41 C-67 48 -65 55 -62 61 C-59 66 -55 69 -50 73 C-13 102 12 128 44 157 C64 175 85 195 104 214 C125 235 145 256 172 283 C176 287 176 295 165 300 L165 300 Z M-115 -31 C-124 -52 -133 -73 -143 -94 C-160 -130 -178 -167 -202 -199 C-207 -204 -227 -232 -232 -227 C-242 -224 -222 -164 -220 -160 C-206 -124 -187 -89 -166 -58 C-155 -41 -143 -26 -130 -11 C-118 4 -102 23 -88 36 C-103 -1 -107 -11 -115 -31 L-115 -31 Z M40 430 C31 430 30 415 40 415 C49 415 50 429 40 430 L40 430 Z " />
<glyph glyph-name="k" unicode="k" horiz-adv-x="237" d="M45 265 C49 248 53 231 59 215 C65 200 73 184 88 177 C118 163 152 195 172 214 C184 226 196 237 207 248 C218 258 230 270 242 280 C251 288 246 295 237 300 C237 300 206 269 186 250 C174 239 163 227 150 216 C139 207 127 196 113 192 C80 181 71 228 66 250 C64 255 63 259 62 264 C61 267 61 269 61 272 C63 277 70 280 75 283 C86 291 97 300 107 311 C115 321 125 335 126 348 C126 354 124 360 118 362 C112 364 105 362 100 359 C87 351 77 338 68 327 C58 314 49 301 40 287 C22 259 5 231 -12 202 C-2 239 10 276 12 281 C40 375 55 424 85 517 C103 579 123 626 148 716 C150 721 151 727 153 732 C155 736 158 739 154 743 C152 746 147 746 144 745 C140 742 138 736 137 732 C135 726 133 721 131 716 C110 646 106 641 84 571 C54 477 27 383 -3 290 C-10 266 -17 243 -24 219 C-28 207 -31 196 -34 184 C-36 177 -42 162 -34 157 C-24 150 -16 166 -11 172 C-5 182 1 193 7 203 C20 223 32 244 45 265 L45 265 Z M68 299 C74 307 80 316 87 324 C90 328 93 331 97 335 C99 337 106 345 108 344 C104 334 98 326 91 318 C87 314 83 311 79 307 C76 304 72 300 68 299 L68 299 Z " />
<glyph glyph-name="l" unicode="l" horiz-adv-x="219" d="M219 300 C219 300 189 275 174 263 C152 245 130 226 106 209 C89 197 52 171 31 194 C21 204 18 219 16 232 C14 247 14 262 15 276 C17 306 22 335 29 363 C43 420 61 476 79 532 C98 588 102 596 122 652 C131 677 143 711 152 733 C154 737 156 744 149 747 C142 750 138 743 136 738 C130 725 125 711 120 698 C99 641 95 633 76 576 C57 520 38 464 23 407 C8 353 -6 298 -2 240 C-1 227 2 214 8 202 C12 191 20 181 31 175 C42 169 55 168 66 171 C95 177 118 196 139 213 C162 231 203 265 226 283 C230 287 232 291 219 300 L219 300 Z " />
<glyph glyph-name="m" unicode="m" horiz-adv-x="470" d="M470 300 C470 300 455 289 440 277 C427 267 414 258 405 251 C385 236 367 220 350 222 C333 224 344 261 346 271 C348 284 359 323 332 318 C323 316 314 309 306 303 C278 284 254 260 227 239 C219 233 210 225 201 223 C184 219 210 305 212 313 C225 354 246 404 248 444 C248 452 246 461 238 464 C230 468 220 465 213 461 C161 431 111 367 74 319 C47 284 22 246 -8 212 C-7 223 -4 236 -1 246 C11 285 20 309 31 341 C32 345 35 349 33 354 C32 357 29 359 25 358 C17 357 15 342 13 336 C-1 296 -16 260 -24 218 C-25 209 -26 200 -21 195 C-17 190 -11 191 -6 193 C0 196 5 203 9 207 C14 213 19 219 23 225 C42 250 61 276 80 301 C114 345 150 389 191 426 C201 434 211 442 222 447 C224 448 229 451 231 449 C232 448 232 444 232 443 C230 412 214 372 204 341 C198 321 152 199 202 206 C215 208 226 218 236 226 C258 244 279 262 301 280 C311 288 322 296 334 302 C333 291 331 281 329 270 C326 253 319 229 332 214 C345 200 366 207 381 215 C400 226 417 241 435 254 C444 260 467 277 476 284 C481 288 480 295 470 300 L470 300 Z " />
<glyph glyph-name="n" unicode="n" horiz-adv-x="268" d="M-8 227 C-9 227 0 252 1 255 C10 286 23 318 35 348 C37 354 43 362 36 365 C27 370 22 357 20 352 C4 315 -9 279 -21 242 C-24 233 -27 224 -29 214 C-30 208 -31 198 -22 195 C-10 192 8 220 14 228 C26 243 37 258 50 273 C67 293 87 314 108 334 C115 340 121 346 129 349 C130 343 129 332 127 324 C122 302 114 277 113 253 C112 241 112 226 122 216 C132 207 148 208 160 213 C173 217 184 225 195 232 C227 253 263 278 271 283 C277 287 279 293 268 300 C268 300 210 261 180 241 C169 234 157 227 144 226 C129 225 128 238 129 250 C131 278 142 305 145 333 C147 343 148 359 136 364 C125 369 112 359 104 352 C83 335 65 314 46 294 C27 272 10 249 -8 227 L-8 227 Z " />
<glyph glyph-name="o" unicode="o" horiz-adv-x="272" d="M272 300 C272 300 232 272 208 261 C186 252 157 243 135 255 C139 263 145 271 149 279 C153 287 157 296 160 304 C166 321 172 340 168 358 C164 373 152 385 136 383 C119 380 109 367 99 355 C99 360 99 365 95 370 C92 374 86 376 81 376 C69 377 56 370 46 363 C26 346 10 322 0 299 C-10 276 -17 251 -12 226 C-8 203 9 187 33 186 C57 185 80 197 98 212 C107 220 118 232 125 242 C125 242 138 233 157 233 C182 233 207 242 229 253 C240 259 263 273 275 282 C280 286 285 294 272 300 L272 300 Z M96 233 C85 222 72 212 58 207 C45 202 28 199 16 208 C4 217 2 233 3 247 C5 278 20 308 39 332 C48 343 58 353 71 359 C75 361 83 363 84 357 C85 351 88 345 95 348 C85 321 84 292 100 266 C104 260 108 255 112 251 C109 248 100 237 96 233 L96 233 Z M122 265 C107 279 102 301 105 321 C107 338 117 358 133 365 C144 370 150 362 152 353 C154 342 152 332 149 322 C146 312 142 302 138 293 C132 283 128 274 122 265 L122 265 Z " />
<glyph glyph-name="p" unicode="p" horiz-adv-x="250" d="M250 300 C250 300 234 287 231 284 C204 261 175 240 140 232 C144 240 150 247 155 255 C160 263 164 272 168 280 C176 298 183 316 183 335 C182 349 177 366 164 372 C150 379 134 372 122 364 C94 346 72 318 53 291 C11 232 -17 163 -45 97 C-47 97 -32 143 -30 148 C-19 185 -8 223 4 260 C10 278 16 296 21 315 C24 324 27 333 29 342 C31 347 38 354 31 359 C23 364 19 355 16 349 C13 340 10 331 7 322 C1 303 -5 284 -11 266 C-23 228 -35 191 -46 153 C-68 79 -91 4 -112 -71 C-123 -109 -133 -146 -144 -184 C-146 -193 -149 -202 -151 -211 C-152 -219 -157 -231 -153 -238 C-150 -243 -142 -244 -138 -239 C-136 -236 -136 -231 -135 -227 C-134 -223 -133 -218 -131 -214 C-121 -177 -113 -141 -101 -105 C-89 -68 -76 -31 -62 6 C-36 77 -8 149 27 217 C44 248 62 278 84 305 C95 319 107 332 120 343 C130 350 151 368 161 354 C171 340 165 318 160 304 C154 287 146 271 136 256 C132 249 127 242 122 235 C119 232 117 228 113 227 C108 226 104 226 99 225 C84 223 64 220 55 206 C51 200 51 192 55 187 C60 180 69 180 77 182 C93 185 108 197 120 208 C126 214 135 214 143 216 C152 218 160 221 168 224 C185 231 200 240 215 250 C222 255 229 261 236 267 C243 273 251 279 258 286 C262 291 258 296 250 300 L250 300 Z M69 198 C73 202 86 207 92 207 C87 202 75 197 69 198 L69 198 Z " />
<glyph glyph-name="q" unicode="q" horiz-adv-x="238" d="M238 300 C238 300 221 276 218 271 C186 226 155 180 123 135 C93 92 61 52 18 21 C26 50 37 79 48 107 C59 136 70 164 81 193 C91 219 100 244 110 270 C118 292 131 326 133 345 C134 350 128 353 123 353 C118 352 115 348 112 343 C105 332 98 321 91 310 C77 286 63 263 49 240 C42 229 34 218 26 209 C19 200 10 191 0 186 C-28 173 -14 228 -11 239 C-3 262 8 284 22 304 C29 313 36 322 45 331 C53 338 62 347 74 348 C72 344 70 340 71 336 C72 333 76 330 79 331 C87 332 89 346 88 352 C83 371 57 361 47 354 C20 335 1 304 -13 276 C-21 260 -28 243 -31 226 C-34 211 -37 191 -27 178 C-19 166 -4 166 8 172 C22 179 34 192 44 205 C66 233 84 265 102 296 C79 232 53 169 30 107 C11 55 -6 3 -22 -50 C-30 -76 -38 -103 -44 -129 C-50 -155 -57 -182 -56 -208 C-56 -220 -54 -233 -46 -241 C-39 -249 -29 -250 -20 -245 C2 -236 15 -211 24 -190 C45 -143 51 -88 34 -38 C30 -26 24 -14 21 -2 C20 4 26 7 30 10 C35 13 40 17 44 21 C65 36 82 56 99 75 C133 116 161 162 192 205 C208 228 232 262 248 286 C250 290 247 298 238 300 L238 300 Z M27 -113 C25 -143 16 -172 2 -199 C-5 -210 -13 -225 -26 -230 C-40 -237 -40 -213 -40 -204 C-40 -172 -30 -139 -22 -108 C-13 -76 -4 -44 7 -12 C11 -20 13 -28 16 -36 C25 -62 29 -86 27 -113 L27 -113 Z " />
<glyph glyph-name="r" unicode="r" horiz-adv-x="170" d="M75 436 C66 448 48 446 36 439 C6 423 -15 384 -22 356 C-26 340 -27 322 -19 307 C-13 297 0 289 16 281 C29 274 46 267 45 251 C43 215 22 182 18 143 C16 130 21 116 36 118 C53 120 64 134 74 146 C86 161 97 174 111 193 C134 224 151 246 176 281 C181 288 185 294 170 300 C145 265 94 198 69 165 C62 157 44 133 36 134 C27 136 54 213 56 220 C60 236 64 254 56 269 C48 284 33 291 18 297 C28 308 37 319 47 333 C56 345 63 359 69 373 C76 390 87 417 75 436 L75 436 Z M4 305 C-15 318 -9 347 -2 365 C5 383 16 400 30 414 C36 420 45 427 54 429 C64 430 65 419 64 412 C62 392 52 372 42 355 C31 338 19 322 4 305 L4 305 Z " />
<glyph glyph-name="s" unicode="s" horiz-adv-x="223" d="M60 182 C57 195 54 208 49 221 C38 247 26 264 17 292 C38 315 52 333 69 357 C84 379 98 403 108 428 C116 447 127 483 103 496 C80 509 54 484 40 468 C23 449 11 427 2 403 C-8 376 -13 346 -8 318 C-3 290 10 265 22 240 C31 221 41 201 44 180 C45 173 46 171 40 167 C15 149 -9 131 -33 113 C-55 97 -77 80 -94 59 C-107 41 -119 14 -103 -5 C-85 -26 -54 -17 -34 -6 C-12 5 7 22 21 43 C37 65 50 91 57 117 C60 129 63 141 62 162 C65 164 71 169 74 171 C121 209 179 244 226 283 C230 286 234 293 223 300 C200 283 155 249 131 233 C108 216 84 199 60 182 L60 182 Z M46 151 C44 118 31 86 13 59 C-2 36 -22 17 -47 6 C-58 1 -75 -6 -86 1 C-97 8 -95 24 -90 34 C-84 47 -74 57 -64 67 C-53 77 -40 87 -28 96 C-4 115 21 134 46 151 L46 151 Z M11 309 C2 341 8 373 19 403 C29 427 43 450 61 467 C68 474 81 485 92 483 C104 480 101 463 99 455 C94 427 78 402 64 379 C48 354 31 331 11 309 L11 309 Z " />
<glyph glyph-name="t" unicode="t" horiz-adv-x="192" d="M234 559 C234 569 224 572 215 574 C204 576 192 577 180 578 C155 580 131 580 107 581 C127 631 144 685 167 734 C170 738 173 742 170 746 C167 750 163 750 160 748 C156 746 154 741 152 736 C137 702 99 606 88 581 C36 581 -17 577 -70 570 C-74 570 -80 570 -83 566 C-85 562 -83 557 -80 556 C-75 553 -69 555 -64 556 C-15 560 34 565 83 565 C67 520 44 460 31 418 C10 350 -16 261 -10 196 C-8 175 -1 147 23 143 C47 139 70 160 87 175 C107 193 127 212 146 231 C164 249 179 265 198 284 C201 287 204 293 192 300 C153 261 108 213 64 177 C55 170 44 162 32 159 C7 155 6 196 5 212 C3 266 36 378 63 458 C77 498 85 520 102 565 C136 565 171 564 207 559 C210 558 213 558 216 557 C219 556 221 554 224 553 C229 551 232 554 234 559 L234 559 Z " />
<glyph glyph-name="u" unicode="u" horiz-adv-x="246" d="M127 311 C126 306 121 281 120 277 C118 264 116 252 115 239 C115 229 115 217 121 208 C133 190 155 200 168 209 C189 223 206 242 224 258 C233 267 243 275 252 284 C255 287 259 293 246 300 C246 300 200 259 191 250 C183 242 174 234 165 227 C159 222 147 211 138 214 C130 217 131 236 132 242 C132 254 135 266 137 278 C139 291 142 303 145 315 C147 321 149 327 150 334 C151 338 153 343 149 347 C141 358 131 344 126 337 C118 327 111 316 103 306 C89 286 75 265 60 246 C47 227 33 207 14 193 C11 191 6 187 2 188 C-2 188 -3 193 -3 196 C-5 208 -3 220 -1 232 C3 257 11 281 19 305 C23 317 27 328 31 340 C34 346 43 363 33 367 C28 369 25 365 23 361 C21 356 19 351 17 345 C12 334 8 322 4 311 C-4 288 -11 265 -16 241 C-19 229 -20 217 -20 204 C-20 195 -19 183 -11 176 C5 161 28 182 39 194 C73 229 99 272 127 311 L127 311 Z " />
<glyph glyph-name="v" unicode="v" horiz-adv-x="302" d="M-13 227 C-13 210 -11 188 4 177 C30 158 69 193 87 210 C113 233 132 257 153 285 C159 276 164 266 173 258 C191 242 215 238 238 245 C262 252 283 268 304 282 C308 284 312 293 302 300 C302 300 281 286 276 283 C257 271 236 256 213 258 C191 259 175 276 167 295 C166 298 164 299 166 302 C167 305 169 307 171 310 C180 325 192 341 201 356 C227 395 255 454 261 492 C263 503 263 516 258 526 C253 534 244 537 234 535 C214 529 198 505 187 488 C161 446 144 395 142 346 C142 333 143 320 146 308 C147 302 134 286 131 282 C112 258 81 221 52 201 C43 195 33 188 22 188 C0 188 4 228 5 241 C7 267 14 292 21 316 C25 328 29 341 32 353 C34 358 36 364 33 369 C31 372 26 373 23 370 C18 367 19 361 18 356 C16 350 10 335 5 318 C-1 297 -10 275 -13 227 L-13 227 Z M159 323 C157 357 163 390 174 423 C184 450 196 477 215 499 C219 503 236 525 243 518 C251 511 244 486 242 478 C234 449 220 422 206 397 C192 371 178 346 159 323 L159 323 Z " />
<glyph glyph-name="w" unicode="w" horiz-adv-x="410" d="M349 534 C324 537 297 502 283 476 C261 438 247 391 245 347 C244 326 246 310 249 292 C239 273 208 240 200 232 C184 217 168 202 148 191 C141 187 131 182 123 184 C114 186 112 198 111 206 C107 240 121 276 132 307 C134 312 136 318 138 323 C139 328 142 333 142 338 C142 348 132 349 126 344 C117 336 110 326 102 317 C87 299 71 280 55 262 C40 245 26 225 9 211 C6 209 -2 202 -4 204 C-7 207 -6 217 -5 220 C-4 231 -2 242 2 253 C8 276 17 298 26 319 C29 325 31 330 33 335 C34 339 38 345 36 349 C33 353 28 354 24 351 C21 348 20 342 18 338 C8 317 -2 296 -9 273 C-16 252 -24 229 -22 206 C-21 197 -16 188 -6 187 C4 186 13 193 20 199 C29 207 36 216 44 224 C52 233 60 242 67 251 C83 269 97 287 113 305 C106 280 97 255 95 229 C93 210 93 184 110 172 C127 161 149 172 164 181 C201 204 230 239 257 273 C264 263 270 254 279 247 C289 240 300 236 312 235 C337 235 357 247 377 260 C394 270 403 276 416 285 C420 288 422 294 410 300 C410 300 358 264 337 256 C317 249 297 250 282 266 C276 272 272 280 268 287 C275 297 282 304 289 315 C314 350 336 388 353 427 C361 447 368 468 371 490 C373 509 369 530 349 534 L349 534 Z M263 308 C258 344 263 381 274 416 C284 446 297 475 317 499 C322 505 342 526 351 517 C360 508 354 484 351 474 C344 443 330 414 315 386 C307 372 299 359 290 345 C282 333 274 318 263 308 L263 308 Z " />
<glyph glyph-name="x" unicode="x" horiz-adv-x="174" d="M-3 253 C-1 239 -1 227 6 213 C13 201 26 192 39 191 C70 188 96 207 118 226 C139 244 160 263 181 285 C186 290 184 294 174 300 C159 286 121 251 102 234 C92 226 81 217 69 212 C58 208 44 205 33 209 C21 214 17 227 15 238 C14 247 10 270 17 279 C36 302 56 323 78 347 C91 361 99 370 105 373 C110 375 116 374 116 382 C117 388 111 392 106 391 C95 389 84 377 74 367 C55 348 34 328 16 306 C17 325 20 344 23 357 C25 365 26 369 26 372 C26 376 21 378 17 377 C13 376 11 372 11 368 C4 340 0 310 -2 283 C-4 279 -7 275 -9 272 C-43 225 -88 161 -113 109 C-116 102 -121 92 -114 85 C-109 80 -97 83 -99 91 C-101 101 -95 110 -90 119 C-64 166 -36 210 -3 253 L-3 253 Z " />
<glyph glyph-name="y" unicode="y" horiz-adv-x="265" d="M265 300 C236 268 206 233 177 202 C141 164 106 125 69 88 C83 125 100 170 111 200 C125 238 139 277 153 316 C156 324 159 333 162 342 C163 348 165 356 160 361 C148 372 131 349 125 342 C101 315 77 286 52 260 C39 247 25 232 13 236 C1 241 9 270 10 277 C14 295 20 311 27 328 C33 345 40 362 45 379 C47 383 48 390 45 392 C38 397 34 392 32 386 C27 372 15 345 8 325 C-2 298 -19 247 -1 227 C20 204 58 241 72 257 C96 284 119 311 143 338 C138 323 129 299 125 288 C95 207 75 142 41 63 C39 58 36 54 32 50 C22 41 13 31 4 22 C-15 4 -33 -15 -51 -34 C-68 -52 -85 -70 -100 -89 C-119 -114 -158 -168 -134 -184 C-107 -202 -63 -150 -51 -137 C-20 -100 3 -61 22 -20 C41 21 42 30 54 50 C89 87 126 123 161 161 C178 179 261 270 272 282 C278 289 276 296 265 300 L265 300 Z M-24 -70 C-40 -96 -63 -130 -86 -151 C-98 -162 -117 -177 -124 -172 C-131 -167 -114 -137 -108 -128 C-91 -102 -71 -81 -48 -55 C-42 -49 9 6 21 17 C6 -16 -4 -39 -24 -70 L-24 -70 Z " />
<glyph glyph-name="z" unicode="z" horiz-adv-x="303" d="M-39 80 C-39 81 -13 112 -10 116 C34 170 77 224 118 281 C127 294 136 307 144 321 C151 332 161 349 155 362 C149 376 130 374 115 370 C77 360 29 331 7 309 C2 304 -5 298 2 293 C9 288 15 296 19 300 C36 314 117 363 138 357 C141 356 140 353 140 351 C135 328 95 277 72 247 C30 191 -13 137 -58 83 C-67 72 -106 32 -106 24 C-106 14 -96 14 -91 18 C-81 26 -63 41 -50 52 C-36 62 -24 71 -10 81 C46 122 105 161 165 199 C211 228 253 252 307 283 C313 286 312 296 303 300 C287 291 155 212 133 198 C74 160 17 121 -39 80 L-39 80 Z " />
<glyph glyph-name="braceleft" unicode="&#x7b;" horiz-adv-x="254" d="M326 737 C325 745 313 745 307 743 C301 741 295 738 289 734 C265 716 249 686 235 660 C204 601 187 536 164 474 C152 444 138 415 118 390 C108 377 96 366 85 354 C77 345 70 332 84 324 C91 321 99 321 106 318 C113 316 108 309 106 305 C100 290 94 274 88 259 C76 228 64 197 55 165 C46 133 38 100 34 67 C29 35 25 0 34 -32 C38 -46 46 -58 57 -68 C64 -75 81 -92 92 -81 C97 -75 93 -68 86 -67 C82 -67 80 -67 77 -64 C74 -62 71 -59 68 -56 C57 -45 51 -34 48 -19 C41 14 47 50 53 83 C58 115 66 147 76 179 C86 211 99 243 112 274 C115 282 118 290 121 298 C124 304 126 311 126 318 C125 334 105 335 93 338 C93 340 98 344 100 346 C103 349 105 352 108 354 C114 360 119 365 124 371 C167 421 184 484 205 545 C216 576 227 608 242 638 C255 666 271 694 293 716 C298 721 306 729 313 729 C316 730 319 728 321 729 C324 730 326 733 326 737 L326 737 Z " />
<glyph glyph-name="bar" unicode="&#x7c;" horiz-adv-x="264" d="M272 767 C265 768 263 761 262 756 C260 749 258 743 256 736 C241 693 228 649 213 606 C156 433 100 260 50 85 C34 27 17 -32 3 -91 C4 -96 6 -103 12 -103 C18 -102 19 -96 20 -92 C26 -63 35 -34 42 -6 C100 203 163 404 229 603 C244 645 259 688 271 730 C273 737 275 745 276 752 C278 757 279 765 272 767 L272 767 Z " />
<glyph glyph-name="braceright" unicode="&#x7d;" horiz-adv-x="254" d="M228 643 C231 660 234 676 234 693 C234 707 233 723 224 734 C220 739 215 742 209 744 C205 746 197 748 193 744 C188 739 193 734 198 732 C204 731 209 729 212 724 C220 711 218 692 217 677 C215 662 212 646 208 630 C201 599 191 568 181 537 C171 506 159 474 153 442 C151 429 148 415 152 402 C155 390 163 381 173 373 C161 363 152 354 146 341 C140 326 138 311 134 296 C130 280 127 264 123 249 C115 217 107 186 96 155 C76 97 50 38 9 -9 C-1 -21 -12 -33 -24 -44 C-29 -49 -35 -55 -41 -60 C-44 -62 -46 -64 -49 -65 C-51 -66 -53 -67 -54 -69 C-58 -75 -50 -82 -44 -80 C-37 -79 -32 -73 -27 -69 C-15 -58 -4 -46 7 -34 C29 -11 47 13 63 40 C78 67 92 96 102 125 C114 156 124 187 132 218 C140 249 147 281 155 312 C158 325 161 339 171 350 C178 358 196 367 187 381 C183 386 176 390 172 396 C169 401 167 406 166 412 C165 427 170 442 173 456 C189 519 215 580 228 643 L228 643 Z " />
<glyph glyph-name="asciitilde" unicode="&#x7e;" horiz-adv-x="198" d="M108 291 C105 302 106 318 96 326 C86 334 74 327 66 320 C61 317 56 313 52 308 C49 305 45 300 46 295 C47 290 52 288 57 290 C61 292 63 298 67 301 C71 305 77 310 82 312 C87 314 87 310 88 306 C91 296 91 281 101 276 C112 271 123 280 131 286 C137 290 143 294 149 298 C153 301 161 304 162 309 C164 314 161 319 156 320 C151 321 145 316 141 313 C131 306 120 298 108 291 L108 291 Z " />
</font>
</svg>
