<?xml version="1.0" encoding="UTF-8"?>
<svg xmlns="http://www.w3.org/2000/svg" xmlns:xlink="http://www.w3.org/1999/xlink" version="1.2" >
<font id="Oliviare italic">
<font-face  font-family="Oliviare" units-per-em="1000" ascent="750" descent="-250" font-style="italic" font-weight="400" font-stretch="normal" slope="-7" cap-height="700" x-height="500" underline-position="-75" underline-thickness="50" />
<missing-glyph  horiz-adv-x="195" d="" />
<glyph glyph-name="NULL" d="" />
<glyph glyph-name="CR" unicode="&#xd;" horiz-adv-x="195" d="" />
<glyph glyph-name="space" unicode="&#x20;" horiz-adv-x="195" d="" />
<glyph glyph-name="exclam" unicode="&#x21;" horiz-adv-x="172" d="M146 52 C150 85 133 108 98 108 C60 108 38 82 34 49 C30 19 47 -6 82 -6 C120 -6 142 19 146 52 L146 52 Z M102 510 L68 167 L142 167 L198 510 L102 510 Z " />
<glyph glyph-name="quotedbl" unicode="&#x22;" horiz-adv-x="338" d="M138 507 C132 504 128 502 126 500 C125 462 159 401 70 341 L98 297 C155 324 211 376 221 457 C225 490 211 513 176 513 C158 513 146 510 138 507 L138 507 Z M288 507 C282 504 278 502 276 500 C275 462 309 401 220 341 L248 297 C305 324 361 376 371 457 C375 490 361 513 326 513 C308 513 296 510 288 507 L288 507 Z " />
<glyph glyph-name="numbersign" unicode="&#x23;" horiz-adv-x="460" d="M414 445 L354 445 L328 343 L236 343 L262 445 L202 445 L176 343 L93 343 L77 284 L161 284 L132 167 L54 167 L39 107 L117 107 L91 0 L151 0 L177 107 L269 107 L243 0 L303 0 L329 107 L409 107 L423 167 L344 167 L373 284 L447 284 L463 343 L389 343 L414 445 Z M192 167 L221 284 L313 284 L284 167 L192 167 Z " />
<glyph glyph-name="dollar" unicode="&#x24;" horiz-adv-x="342" d="M276 582 L214 582 L207 523 C136 511 84 463 77 406 C69 334 114 298 193 266 C236 250 261 240 256 200 C251 159 224 138 174 138 C154 138 128 148 106 159 C94 166 80 172 67 181 L26 114 C41 103 88 76 151 70 L143 0 L205 0 L213 73 C290 89 338 147 345 206 C353 276 314 306 244 336 C188 358 163 376 168 416 C172 448 204 460 237 460 C258 460 283 452 302 444 C313 439 325 434 335 429 L374 490 C363 498 320 519 269 525 L276 582 L276 582 Z " />
<glyph glyph-name="percent" unicode="&#x25;" horiz-adv-x="629" d="M295 315 C305 396 278 445 200 445 C122 445 77 388 67 309 C58 229 85 180 163 180 C241 180 286 239 295 315 L295 315 Z M143 314 C149 359 159 392 189 392 C224 392 225 356 220 311 C214 266 204 233 174 233 C139 233 138 269 143 314 L143 314 Z M438 442 L179 2 L250 2 L509 442 L438 442 Z M618 135 C628 216 601 265 523 265 C445 265 401 208 391 129 C382 49 409 0 487 0 C565 0 609 59 618 135 L618 135 Z M466 134 C471 179 483 212 513 212 C547 212 549 176 544 131 C538 86 527 53 497 53 C463 53 460 89 466 134 L466 134 Z " />
<glyph glyph-name="ampersand" unicode="&#x26;" horiz-adv-x="458" d="M326 344 L388 344 C389 419 323 445 272 445 C180 445 138 393 131 339 C128 317 132 294 140 271 C102 247 49 200 40 126 C30 42 92 -6 161 -6 C227 -6 278 21 321 57 C343 37 365 16 389 -5 L440 53 L375 116 C398 141 430 183 443 220 L366 221 C355 199 345 180 328 162 C260 231 214 286 220 335 C223 359 240 375 271 375 C326 374 326 344 326 344 L326 344 Z M170 216 C195 177 233 141 273 103 C247 82 221 69 194 69 C149 69 125 95 130 137 C135 175 154 201 170 216 L170 216 Z " />
<glyph glyph-name="quotesingle" unicode="&#x27;" horiz-adv-x="210" d="M150 506 C143 504 140 502 137 500 C137 462 170 401 82 341 L109 296 C167 324 223 376 233 457 C237 490 223 513 188 513 C170 513 158 509 150 506 L150 506 Z " />
<glyph glyph-name="parenleft" unicode="&#x28;" horiz-adv-x="285" d="M285 688 C225 649 109 538 85 345 C61 148 150 38 201 0 L254 52 C213 87 150 182 170 344 C190 505 276 600 326 636 L285 688 L285 688 Z " />
<glyph glyph-name="parenright" unicode="&#x29;" horiz-adv-x="286" d="M85 0 C143 38 261 148 285 345 C309 538 218 649 169 688 L116 636 C155 600 219 505 199 344 C179 182 92 87 44 52 L85 0 L85 0 Z " />
<glyph glyph-name="asterisk" unicode="&#x2a;" horiz-adv-x="340" d="M267 513 L195 513 L191 429 L118 462 L88 393 L168 373 L102 307 L156 264 L211 339 L248 264 L312 307 L263 373 L351 393 L337 462 L250 427 L267 513 L267 513 Z " />
<glyph glyph-name="plus" unicode="&#x2b;" horiz-adv-x="393" d="M85 300 L77 234 L188 234 L174 115 L245 115 L259 234 L371 234 L379 300 L267 300 L281 414 L210 414 L196 300 L85 300 L85 300 Z " />
<glyph glyph-name="comma" unicode="&#x2c;" horiz-adv-x="194" d="M87 49 C81 47 77 45 75 42 C75 5 108 -56 20 -117 L47 -161 C104 -133 161 -81 171 0 C175 33 161 56 126 56 C108 56 96 52 87 49 L87 49 Z " />
<glyph glyph-name="hyphen" unicode="&#x2d;" horiz-adv-x="323" d="M91 300 L84 237 L297 237 L304 300 L91 300 L91 300 Z " />
<glyph glyph-name="period" unicode="&#x2e;" horiz-adv-x="200" d="M164 52 C168 85 152 108 117 108 C78 108 57 82 53 49 C49 19 65 -6 100 -6 C139 -6 160 19 164 52 L164 52 Z " />
<glyph glyph-name="slash" unicode="&#x2f;" horiz-adv-x="370" d="M335 642 L18 0 L108 0 L425 642 L335 642 L335 642 Z " />
<glyph glyph-name="zero" unicode="0" horiz-adv-x="428" d="M419 243 C438 394 400 480 276 480 C147 480 81 381 63 231 C44 79 84 -6 207 -6 C337 -6 401 94 419 243 L419 243 Z M158 240 C171 345 196 413 258 413 C333 413 337 334 324 234 C311 129 287 59 224 59 C149 59 146 140 158 240 L158 240 Z " />
<glyph glyph-name="one" unicode="1" horiz-adv-x="287" d="M295 478 L230 478 C167 418 120 401 68 378 L90 326 C121 335 167 351 196 377 L150 0 L237 0 L295 478 L295 478 Z " />
<glyph glyph-name="two" unicode="2" horiz-adv-x="381" d="M87 439 L109 380 C159 400 190 415 229 415 C263 415 284 391 279 352 C273 302 245 269 155 179 C136 160 58 89 39 69 L31 0 L344 0 L352 69 L149 69 L226 144 C311 228 366 287 374 352 C386 451 328 482 256 482 C197 482 130 458 87 439 L87 439 Z " />
<glyph glyph-name="three" unicode="3" horiz-adv-x="359" d="M355 375 C362 437 321 480 233 480 C172 480 131 464 80 443 L102 384 C151 401 175 413 213 413 C248 413 266 397 262 366 C256 312 136 272 136 272 L129 213 C133 213 169 222 203 222 C238 222 265 190 259 145 C252 87 206 59 161 59 C126 59 96 75 52 96 L45 33 C69 9 111 -6 156 -6 C288 -6 339 71 348 146 C355 201 327 254 266 273 C298 287 347 316 355 375 L355 375 Z " />
<glyph glyph-name="four" unicode="4" horiz-adv-x="381" d="M330 197 L364 478 L278 478 L33 180 L27 131 L236 131 L220 0 L306 0 L322 131 L382 131 L390 197 L330 197 L330 197 Z M128 197 L265 371 L244 197 L128 197 L128 197 Z " />
<glyph glyph-name="five" unicode="5" horiz-adv-x="352" d="M348 153 C358 234 314 301 230 301 C184 301 162 293 154 287 L183 407 L342 407 L351 476 L117 476 L62 240 L95 213 C100 214 132 234 190 234 C235 234 261 205 254 153 C247 90 221 59 164 59 C128 59 91 71 55 96 L48 33 C70 11 106 -4 158 -6 C283 -12 338 70 348 153 L348 153 Z " />
<glyph glyph-name="six" unicode="6" horiz-adv-x="390" d="M359 398 L367 458 C359 467 333 478 296 478 C150 478 79 365 63 236 C46 95 76 -6 201 -6 C309 -6 376 62 387 152 C399 251 352 308 265 308 C214 308 179 281 158 260 C170 342 201 411 285 411 C311 411 337 406 359 398 L359 398 Z M152 208 C159 214 200 242 239 242 C291 242 305 203 299 151 C292 96 267 58 216 58 C160 58 143 105 152 208 L152 208 Z " />
<glyph glyph-name="seven" unicode="7" horiz-adv-x="339" d="M376 478 L75 478 L67 409 L269 409 L74 0 L167 0 L369 423 L376 478 L376 478 Z " />
<glyph glyph-name="eight" unicode="8" horiz-adv-x="359" d="M37 117 C27 33 95 -6 181 -6 C271 -6 347 44 356 122 C363 176 324 223 279 249 C324 277 364 315 371 367 C378 431 322 480 244 480 C160 480 88 428 80 364 C74 310 103 270 144 244 C95 216 44 178 37 117 L37 117 Z M193 53 C145 53 118 83 122 120 C128 163 168 191 209 213 C236 191 272 155 267 119 C263 83 231 53 193 53 L193 53 Z M234 419 C267 419 288 397 284 366 C279 321 248 300 217 283 C191 299 161 326 166 368 C170 401 200 419 234 419 L234 419 Z " />
<glyph glyph-name="nine" unicode="9" horiz-adv-x="420" d="M106 74 L98 14 C114 2 150 -6 169 -6 C315 -6 386 107 401 235 C419 377 389 478 264 478 C156 478 89 410 78 320 C66 221 113 164 200 164 C251 164 287 190 305 210 C293 128 265 60 180 60 C154 60 127 65 106 74 L106 74 Z M312 263 C305 257 265 229 226 229 C174 229 160 270 166 321 C173 375 198 413 249 413 C305 413 321 366 312 263 L312 263 Z " />
<glyph glyph-name="colon" unicode="&#x3a;" horiz-adv-x="195" d="M202 395 C206 428 189 451 154 451 C116 451 94 426 90 393 C86 363 103 337 138 337 C176 337 198 363 202 395 L202 395 Z M168 119 C172 152 155 175 120 175 C82 175 60 149 56 116 C52 86 69 61 104 61 C142 61 164 86 168 119 L168 119 Z " />
<glyph glyph-name="semicolon" unicode="&#x3b;" horiz-adv-x="199" d="M90 168 C85 166 81 164 78 161 C78 124 111 63 24 2 L50 -42 C108 -14 163 38 173 119 C177 152 165 175 129 175 C111 175 99 171 90 168 L90 168 Z M206 395 C210 428 193 451 158 451 C120 451 98 426 94 393 C90 363 107 337 142 337 C180 337 202 363 206 395 L206 395 Z " />
<glyph glyph-name="less" unicode="&#x3c;" horiz-adv-x="364" d="M318 81 L357 151 L173 239 C185 244 204 250 373 324 L352 394 L83 270 L75 207 L318 81 L318 81 Z " />
<glyph glyph-name="equal" unicode="&#x3d;" horiz-adv-x="351" d="M79 330 L71 263 L343 263 L351 330 L79 330 Z M63 199 L55 132 L327 132 L335 199 L63 199 Z " />
<glyph glyph-name="greater" unicode="&#x3e;" horiz-adv-x="363" d="M42 139 L63 69 L336 195 L344 258 L105 382 L67 312 L247 227 C232 222 213 214 42 139 L42 139 Z " />
<glyph glyph-name="question" unicode="&#x3f;" horiz-adv-x="322" d="M342 411 C352 491 301 523 214 523 C163 523 118 504 74 486 L97 426 C142 446 162 457 194 457 C228 457 248 436 244 400 C236 340 123 278 110 173 L172 156 C187 193 215 225 248 261 C289 306 335 353 342 411 L342 411 Z M187 58 C191 91 174 114 139 114 C100 114 79 88 75 55 C72 25 88 0 123 0 C162 0 183 25 187 58 L187 58 Z " />
<glyph glyph-name="at" unicode="&#x40;" horiz-adv-x="690" d="M511 279 L530 438 C515 442 500 445 485 448 C459 454 427 458 400 458 C303 458 228 382 216 279 C203 178 234 112 319 112 C379 112 415 141 437 198 C444 147 467 112 522 112 C585 112 656 186 677 303 C710 490 590 579 446 579 C285 579 105 469 80 265 C54 55 179 -6 313 -6 C352 -6 390 2 419 11 C435 16 452 22 468 29 L453 82 C439 76 424 71 410 67 C384 59 350 53 320 53 C158 53 131 160 144 268 C165 433 304 519 430 519 C548 519 640 450 612 299 C600 235 569 172 536 172 C502 172 504 222 511 279 L511 279 Z M432 294 C422 229 382 169 339 169 C295 169 294 224 302 286 C310 354 342 402 401 402 C415 402 436 397 444 394 L432 294 Z " />
<glyph glyph-name="A" unicode="A" horiz-adv-x="472" d="M262 508 L5 0 L95 0 L158 133 L340 133 L371 0 L467 0 L342 476 C331 519 305 510 262 508 L262 508 Z M325 200 L190 200 C232 286 264 363 284 408 C290 366 305 288 325 200 L325 200 Z " />
<glyph glyph-name="B" unicode="B" horiz-adv-x="402" d="M102 508 L40 0 L187 0 C319 0 391 57 402 143 C409 198 381 241 323 265 C368 283 392 329 398 378 C408 462 350 510 252 510 C215 510 158 508 102 508 L102 508 Z M183 445 C195 445 212 445 233 445 C306 445 322 406 318 367 C312 325 284 292 221 292 L164 292 L183 445 Z M156 228 C171 228 189 228 212 228 C291 228 310 187 305 145 C300 99 269 65 200 65 L136 65 L156 228 Z " />
<glyph glyph-name="C" unicode="C" horiz-adv-x="397" d="M389 410 L436 459 C415 487 381 513 320 513 C170 513 86 404 67 246 C46 81 104 -6 239 -6 C277 -6 311 0 335 7 C349 11 362 14 374 20 L361 83 C353 81 309 58 264 58 C168 58 153 149 166 254 C179 360 219 443 303 443 C339 443 363 434 389 410 L389 410 Z " />
<glyph glyph-name="D" unicode="D" horiz-adv-x="476" d="M102 508 L40 0 L177 -1 C356 -1 449 91 469 258 C490 424 420 510 250 510 C209 510 160 508 102 508 L102 508 Z M184 442 C194 442 208 442 231 442 C350 442 384 366 370 250 C355 129 302 67 197 67 C164 67 149 67 138 67 L184 442 Z " />
<glyph glyph-name="E" unicode="E" horiz-adv-x="374" d="M102 508 L40 0 L353 0 L361 69 L137 69 L157 231 L332 231 L340 299 L165 299 L183 440 L396 440 L404 508 L102 508 L102 508 Z " />
<glyph glyph-name="F" unicode="F" horiz-adv-x="355" d="M102 508 L40 0 L130 0 L158 232 L333 232 L341 300 L166 300 L184 440 L396 440 L404 508 L102 508 L102 508 Z " />
<glyph glyph-name="G" unicode="G" horiz-adv-x="447" d="M307 246 L300 192 L356 192 L354 178 C346 108 286 65 240 65 C169 65 152 140 166 253 C178 358 218 443 303 443 C342 443 379 428 403 402 L454 459 C431 486 388 513 321 513 C170 513 86 401 67 246 C48 95 89 -6 215 -6 C272 -6 321 17 349 59 C349 57 345 22 343 5 L421 0 L444 192 L451 246 L307 246 L307 246 Z " />
<glyph glyph-name="H" unicode="H" horiz-adv-x="469" d="M367 231 L339 0 L429 0 L491 508 L401 508 L375 298 L166 298 L192 508 L102 508 L40 0 L130 0 L158 231 L367 231 L367 231 Z " />
<glyph glyph-name="I" unicode="I" horiz-adv-x="169" d="M101 508 L39 0 L129 0 L191 508 L101 508 L101 508 Z " />
<glyph glyph-name="J" unicode="J" horiz-adv-x="255" d="M277 508 L187 508 L141 138 C141 138 141 138 141 137 C139 128 127 75 29 75 L20 0 C20 0 73 -3 126 16 C175 33 223 68 231 138 L277 508 L277 508 Z " />
<glyph glyph-name="K" unicode="K" horiz-adv-x="452" d="M437 0 L262 283 L471 508 L367 508 L165 288 L192 508 L102 508 L40 0 L130 0 L164 283 L332 0 L437 0 L437 0 Z " />
<glyph glyph-name="L" unicode="L" horiz-adv-x="340" d="M102 508 L40 0 L320 0 L328 69 L138 69 L192 508 L102 508 L102 508 Z " />
<glyph glyph-name="M" unicode="M" horiz-adv-x="600" d="M519 365 C514 316 475 0 475 0 L560 0 L622 508 L521 508 L521 506 L313 114 L203 508 L102 508 L40 0 L125 0 C125 0 163 313 169 365 C181 315 270 0 270 0 L333 0 C333 0 495 316 519 365 L519 365 Z " />
<glyph glyph-name="N" unicode="N" horiz-adv-x="470" d="M402 508 L365 154 C350 184 333 216 173 508 L102 508 L40 0 L130 0 L166 363 C182 332 202 294 355 0 L430 0 L492 508 L402 508 L402 508 Z " />
<glyph glyph-name="O" unicode="O" horiz-adv-x="499" d="M497 257 C516 415 466 513 316 513 C163 513 81 403 62 246 C42 87 93 -6 243 -6 C396 -6 478 101 497 257 L497 257 Z M160 254 C173 362 211 443 297 443 C399 443 410 350 398 249 C385 143 348 64 261 64 C159 64 147 152 160 254 L160 254 Z " />
<glyph glyph-name="P" unicode="P" horiz-adv-x="391" d="M102 507 L40 0 L130 0 L154 198 L206 198 C330 198 402 263 413 356 C425 451 375 509 253 509 C217 509 159 507 102 507 L102 507 Z M184 444 C196 444 213 444 234 444 C306 444 322 399 317 353 C311 303 281 265 219 265 L162 265 L184 444 Z " />
<glyph glyph-name="Q" unicode="Q" horiz-adv-x="494" d="M495 -36 L472 28 C394 -7 339 -21 294 -2 C415 20 480 119 497 257 C516 415 466 513 316 513 C163 513 81 403 62 246 C46 121 75 36 161 6 C275 -123 403 -94 495 -36 L495 -36 Z M298 443 C400 443 411 350 399 249 C386 143 348 64 262 64 C160 64 148 152 161 254 C174 362 211 443 298 443 L298 443 Z " />
<glyph glyph-name="R" unicode="R" horiz-adv-x="423" d="M415 370 C426 458 376 509 253 509 C215 509 160 507 102 507 L40 0 L130 0 L156 219 L177 219 C251 219 269 158 319 0 L417 0 C365 103 368 205 306 244 C375 264 408 311 415 370 L415 370 Z M184 444 L233 444 C306 444 323 403 318 359 C312 310 276 285 221 285 L164 285 L184 444 Z " />
<glyph glyph-name="S" unicode="S" horiz-adv-x="372" d="M404 473 C389 483 331 513 260 513 C167 513 94 452 85 378 C74 290 123 256 208 218 C251 200 279 183 273 138 C268 92 239 65 186 65 C164 65 135 77 110 88 C95 95 81 103 67 113 L27 43 C45 32 106 -6 184 -6 C293 -6 362 70 372 148 C382 230 339 264 263 296 C204 320 179 346 185 391 C189 426 222 443 258 443 C281 443 305 433 325 425 C337 420 348 414 359 408 L404 473 L404 473 Z " />
<glyph glyph-name="T" unicode="T" horiz-adv-x="379" d="M79 508 L64 440 L199 440 L145 0 L234 0 L288 440 L420 440 L423 508 L79 508 L79 508 Z " />
<glyph glyph-name="U" unicode="U" horiz-adv-x="467" d="M191 508 L102 508 L62 186 C50 82 86 -6 227 -6 C376 -6 437 82 449 186 L489 508 L399 508 L360 193 C350 112 312 64 245 64 C179 64 141 100 152 193 L191 508 L191 508 Z " />
<glyph glyph-name="V" unicode="V" horiz-adv-x="456" d="M264 0 L515 508 L423 508 L243 120 C236 159 223 232 162 508 L65 508 L192 0 L264 0 L264 0 Z " />
<glyph glyph-name="W" unicode="W" horiz-adv-x="651" d="M441 0 L508 0 L711 508 L620 508 L486 142 C482 171 477 210 422 508 L354 508 L201 147 C199 177 196 212 155 508 L64 508 L144 0 L210 0 L369 367 L441 0 Z " />
<glyph glyph-name="X" unicode="X" horiz-adv-x="443" d="M2 0 L106 0 L247 211 C256 188 265 165 337 0 L440 0 L315 266 L488 508 L386 508 L261 321 C252 344 243 366 181 508 L79 508 L192 267 L2 0 L2 0 Z " />
<glyph glyph-name="Y" unicode="Y" horiz-adv-x="418" d="M186 195 L163 0 L253 0 L276 191 L476 508 L379 508 L243 280 L165 508 L67 508 L186 195 L186 195 Z " />
<glyph glyph-name="Z" unicode="Z" horiz-adv-x="380" d="M20 0 L360 0 L368 70 L143 69 L406 454 L408 508 L94 508 L85 438 L293 440 L26 54 L20 0 L20 0 Z " />
<glyph glyph-name="bracketleft" unicode="&#x5b;" horiz-adv-x="242" d="M295 679 L123 679 L40 0 L212 0 L220 66 L130 66 L197 612 L287 612 L295 679 L295 679 Z " />
<glyph glyph-name="backslash" unicode="&#x5c;" horiz-adv-x="370" d="M351 0 L191 641 L101 641 L261 0 L351 0 L351 0 Z " />
<glyph glyph-name="bracketright" unicode="&#x5d;" horiz-adv-x="253" d="M203 0 L286 679 L113 679 L105 612 L195 612 L128 66 L38 66 L30 0 L203 0 L203 0 Z " />
<glyph glyph-name="asciicircum" unicode="&#x5e;" horiz-adv-x="373" d="M50 241 L126 227 L238 422 C242 408 245 390 299 231 L381 241 L280 513 L217 513 L50 241 L50 241 Z " />
<glyph glyph-name="underscore" unicode="&#x5f;" horiz-adv-x="454" d="M51 63 L44 0 L419 0 L426 63 L51 63 L51 63 Z " />
<glyph glyph-name="grave" unicode="&#x60;" horiz-adv-x="261" d="M225 379 L267 418 L156 561 L92 507 C117 470 150 439 177 415 C193 403 210 391 225 379 L225 379 Z " />
<glyph glyph-name="a" unicode="a" horiz-adv-x="376" d="M379 356 C363 360 346 364 331 367 C301 372 267 378 237 378 C131 378 48 294 34 180 C20 67 55 -7 149 -6 C237 -5 276 85 277 88 L273 6 L335 0 L379 356 L379 356 Z M274 202 C265 128 219 55 170 55 C116 55 119 119 128 188 C137 262 164 317 239 317 C254 317 278 311 287 309 L274 202 L274 202 Z " />
<glyph glyph-name="b" unicode="b" horiz-adv-x="390" d="M106 542 L41 16 C58 11 73 8 90 5 C118 -1 154 -6 184 -6 C290 -6 373 78 387 192 C401 305 366 378 272 378 C221 378 187 356 164 314 L192 542 L106 542 Z M146 170 C155 244 201 317 250 317 C304 317 302 254 293 185 C284 110 256 55 181 55 C165 55 143 60 133 62 L146 170 Z " />
<glyph glyph-name="c" unicode="c" horiz-adv-x="322" d="M286 282 L341 328 C321 359 292 378 244 378 C147 378 63 306 47 175 C34 66 73 -6 189 -6 C222 -6 248 0 267 6 C279 9 289 12 298 17 L283 71 C275 67 265 65 256 63 C241 59 222 56 208 56 C173 56 127 71 141 187 C156 302 206 312 236 312 C261 312 273 299 286 282 L286 282 Z " />
<glyph glyph-name="d" unicode="d" horiz-adv-x="385" d="M325 542 L304 373 C285 376 264 378 246 378 C141 378 57 294 43 180 C29 67 65 -6 158 -6 C222 -6 260 24 286 84 L288 5 L345 0 L411 542 L325 542 L325 542 Z M283 202 C274 128 228 56 179 56 C125 56 128 119 137 188 C146 262 174 317 248 317 C263 317 287 311 296 309 L283 202 L283 202 Z " />
<glyph glyph-name="e" unicode="e" horiz-adv-x="354" d="M247 378 C145 378 57 309 41 175 C28 66 65 -6 181 -6 C220 -6 255 2 282 12 C298 17 312 22 326 29 L311 82 C298 77 285 72 272 68 C250 62 222 56 200 56 C142 56 129 94 129 139 C261 141 350 201 359 273 C366 332 336 378 247 378 L247 378 Z M132 193 C143 253 167 320 233 320 C260 320 277 302 273 273 C269 238 227 196 132 193 L132 193 Z " />
<glyph glyph-name="f" unicode="f" horiz-adv-x="283" d="M299 459 L342 507 C327 525 306 540 267 540 C186 540 126 485 117 372 L61 372 L45 310 L113 310 L76 9 C72 -23 62 -73 -18 -111 L11 -169 C74 -139 148 -102 163 17 L199 310 L277 310 L294 372 L201 372 C201 372 207 470 265 473 C279 473 296 462 299 459 L299 459 Z " />
<glyph glyph-name="g" unicode="g" horiz-adv-x="388" d="M392 356 L380 358 C359 364 297 378 248 378 C142 378 59 294 45 180 C31 67 66 -6 159 -6 C220 -6 258 21 281 72 C280 63 279 54 276 40 C246 -90 181 -122 93 -68 L63 -133 C110 -162 180 -181 250 -139 C294 -111 324 -69 348 55 C354 96 360 128 364 160 L392 356 L392 356 Z M284 196 C273 125 228 55 181 55 C127 55 130 119 139 188 C148 262 175 317 249 317 C264 317 289 311 297 309 L284 196 L284 196 Z " />
<glyph glyph-name="h" unicode="h" horiz-adv-x="391" d="M167 326 L193 542 L106 542 L40 0 L127 0 L151 200 C162 268 213 312 254 312 C290 312 300 286 294 244 L265 0 L351 0 L381 250 C387 296 381 330 363 351 C346 370 322 379 288 379 C244 379 200 364 167 326 L167 326 Z " />
<glyph glyph-name="i" unicode="i" horiz-adv-x="196" d="M184 63 L165 63 C150 63 144 69 147 93 L182 378 L70 378 L63 321 L89 321 L60 84 C54 34 79 0 132 0 C150 0 186 0 186 0 L184 63 L184 63 Z M145 438 C181 438 201 462 205 492 C209 522 193 543 161 543 C125 543 105 520 102 489 C98 462 113 438 145 438 L145 438 Z " />
<glyph glyph-name="j" unicode="j" horiz-adv-x="201" d="M170 438 C205 438 226 462 230 492 C234 522 218 543 185 543 C150 543 130 520 127 489 C123 462 138 438 170 438 L170 438 Z M88 321 L114 321 L76 13 C72 -18 62 -69 -17 -107 L11 -165 C75 -135 148 -98 163 21 L207 376 L207 378 L95 378 L88 321 L88 321 Z " />
<glyph glyph-name="k" unicode="k" horiz-adv-x="373" d="M184 194 L183 186 L268 0 L367 0 L282 167 C299 173 315 181 329 191 C354 208 379 236 385 281 C393 343 349 380 287 380 C221 380 185 351 166 330 L192 544 L106 544 L40 0 L126 0 L155 241 C158 247 181 318 256 318 C283 318 300 304 296 274 C290 221 200 198 184 194 L184 194 Z " />
<glyph glyph-name="l" unicode="l" horiz-adv-x="226" d="M209 62 C209 62 179 62 169 62 C152 62 144 69 147 93 L202 542 L90 542 L83 486 L109 486 L60 84 C54 34 76 0 133 0 L212 0 L209 62 L209 62 Z " />
<glyph glyph-name="m" unicode="m" horiz-adv-x="582" d="M560 351 C545 370 522 379 490 379 C442 379 395 359 362 310 C353 351 331 379 280 379 C229 379 176 354 145 295 L146 378 L86 378 L40 0 L126 0 L148 182 C155 261 206 312 246 312 C278 312 285 286 279 244 L250 0 L337 0 L361 201 C372 270 419 312 455 312 C488 312 495 286 489 244 L460 0 L546 0 L576 250 C582 297 577 331 560 351 L560 351 Z " />
<glyph glyph-name="n" unicode="n" horiz-adv-x="386" d="M363 351 C346 370 321 379 288 379 C234 379 177 354 144 295 L145 378 L86 378 L40 0 L126 0 L148 182 C154 261 210 311 254 311 C289 311 299 284 294 242 L265 0 L351 0 L381 250 C387 296 381 330 363 351 L363 351 Z " />
<glyph glyph-name="o" unicode="o" horiz-adv-x="377" d="M379 193 C394 312 353 384 238 384 C124 384 56 298 42 184 C28 67 69 -6 184 -6 C299 -6 365 81 379 193 L379 193 Z M136 192 C145 264 166 320 223 320 C287 320 294 260 285 185 C276 113 256 58 199 58 C135 58 127 118 136 192 L136 192 Z " />
<glyph glyph-name="p" unicode="p" horiz-adv-x="391" d="M272 380 C207 380 169 346 144 287 L147 378 L86 378 L19 -167 L106 -167 L126 -1 C146 -4 165 -6 184 -6 C290 -6 373 78 387 192 C401 305 366 380 272 380 L272 380 Z M181 55 C166 55 143 60 134 62 L148 176 C159 247 202 317 250 317 C304 317 302 254 293 185 C284 110 256 55 181 55 L181 55 Z " />
<glyph glyph-name="q" unicode="q" horiz-adv-x="386" d="M325 -168 L389 356 C373 360 356 364 341 367 C311 372 277 380 247 380 C141 380 58 294 44 180 C30 67 65 -6 159 -6 C205 -6 240 11 265 44 L239 -168 L325 -168 Z M284 202 C275 128 229 56 180 56 C126 56 129 119 138 188 C147 262 175 317 249 317 C264 317 288 311 297 309 L284 202 Z " />
<glyph glyph-name="r" unicode="r" horiz-adv-x="267" d="M294 376 C285 378 273 380 262 380 C214 380 172 355 144 299 L146 378 L86 378 L40 0 L126 0 L151 207 C163 260 201 294 237 294 C252 294 260 291 273 286 L307 372 L294 376 L294 376 Z " />
<glyph glyph-name="s" unicode="s" horiz-adv-x="292" d="M280 369 C259 377 231 384 201 384 C129 384 68 336 61 279 C54 220 80 187 154 158 C188 143 204 122 201 96 C198 73 181 58 146 58 C126 58 104 67 84 76 C73 81 62 87 52 94 L16 30 C28 23 42 17 56 12 C80 3 113 -6 146 -6 C230 -6 284 49 291 106 C298 170 263 197 204 221 C165 237 146 260 150 287 C152 309 173 320 196 320 C215 320 236 314 253 308 C262 304 271 300 281 295 L314 355 C304 360 292 365 280 369 L280 369 Z " />
<glyph glyph-name="t" unicode="t" horiz-adv-x="296" d="M64 378 L56 317 L123 317 L94 79 C87 17 124 -6 181 -6 C208 -6 277 -6 277 -6 L271 58 C271 58 226 58 212 58 C195 58 178 63 181 89 L209 317 L291 317 L310 378 L217 378 L229 475 L158 475 L131 378 L64 378 L64 378 Z " />
<glyph glyph-name="u" unicode="u" horiz-adv-x="392" d="M311 378 L288 189 C282 110 227 58 183 58 C147 58 137 83 142 125 L173 378 L86 378 L55 123 C49 77 56 43 74 22 C91 3 115 -6 149 -6 C203 -6 258 17 292 75 L291 7 L352 0 L398 378 L311 378 L311 378 Z " />
<glyph glyph-name="v" unicode="v" horiz-adv-x="384" d="M392 378 L305 378 C304 348 306 323 302 291 C288 177 253 61 182 61 C146 61 136 89 142 131 L172 378 L86 378 L55 128 C50 83 56 49 74 28 C91 9 115 0 149 0 C289 0 363 79 390 300 C394 330 393 352 392 378 L392 378 Z " />
<glyph glyph-name="w" unicode="w" horiz-adv-x="569" d="M578 378 L490 378 C489 348 492 328 487 293 C473 179 457 62 388 62 C352 62 342 92 347 134 C350 159 357 219 364 274 C368 307 372 340 378 378 L292 378 L271 208 C258 104 227 62 182 62 C146 62 137 92 142 134 L172 378 L86 378 L55 128 C50 82 56 49 74 28 C91 9 115 0 149 0 C210 0 240 18 263 60 C266 48 272 38 280 28 C297 9 321 0 355 0 C493 0 548 80 576 302 C579 333 578 351 578 378 L578 378 Z " />
<glyph glyph-name="x" unicode="x" horiz-adv-x="381" d="M6 0 L102 0 C102 0 193 134 206 154 C214 134 272 0 272 0 L370 0 L273 201 C313 253 404 377 404 377 L307 377 L218 246 L167 377 L68 377 L155 202 L6 0 L6 0 Z " />
<glyph glyph-name="y" unicode="y" horiz-adv-x="392" d="M367 151 L399 378 L310 378 L284 164 C271 100 220 59 182 59 C147 59 137 84 142 126 L173 378 L86 378 L55 123 C49 77 56 43 74 22 C91 3 115 -6 149 -6 C200 -6 252 14 287 68 C259 -85 190 -125 97 -67 L67 -133 C114 -162 184 -181 254 -139 C306 -106 340 -51 366 139 C366 143 367 147 367 151 L367 151 Z " />
<glyph glyph-name="z" unicode="z" horiz-adv-x="326" d="M26 0 L298 0 L305 62 L137 60 L332 326 L331 378 L78 378 L70 315 L229 317 L32 51 L26 0 L26 0 Z " />
<glyph glyph-name="braceleft" unicode="&#x7b;" horiz-adv-x="289" d="M125 238 C119 193 102 140 95 86 C87 21 144 -19 257 8 L248 72 C189 52 180 81 183 98 C188 143 204 188 208 227 C214 271 211 310 161 343 C219 375 231 415 237 459 C242 498 237 543 243 588 C245 605 260 634 315 614 L340 678 C233 704 166 667 158 600 C152 546 156 493 151 449 C146 410 125 383 88 374 L81 312 C115 304 130 277 125 238 L125 238 Z " />
<glyph glyph-name="bar" unicode="&#x7c;" horiz-adv-x="182" d="M210 641 L128 641 L50 0 L132 0 L210 641 L210 641 Z " />
<glyph glyph-name="braceright" unicode="&#x7d;" horiz-adv-x="285" d="M28 8 C135 -19 202 21 210 86 C217 140 212 193 218 238 C223 277 244 304 280 312 L287 374 C254 383 239 410 244 449 C249 493 267 546 273 600 C281 667 224 703 111 678 L120 614 C179 634 187 605 185 588 C179 543 165 498 160 459 C155 416 157 374 207 343 C150 311 137 270 131 227 C127 188 130 143 125 98 C122 81 108 52 53 72 L28 8 L28 8 Z " />
<glyph glyph-name="asciitilde" unicode="&#x7e;" horiz-adv-x="391" d="M74 283 L101 248 C126 272 137 282 167 282 C213 282 230 237 288 237 C320 237 344 252 361 268 C372 277 381 288 388 299 L362 335 C337 311 325 300 295 300 C249 300 233 345 175 345 C142 345 117 329 100 314 C90 305 82 294 74 283 L74 283 Z " />
<glyph glyph-name="exclamdown" unicode="&#xa1;" horiz-adv-x="157" d="M78 460 C74 427 90 402 128 402 C163 402 186 425 190 458 C194 490 178 516 140 516 C104 516 82 490 78 460 L78 460 Z M82 342 L31 0 L128 0 L157 342 L82 342 Z " />
<glyph glyph-name="cent" unicode="&#xa2;" horiz-adv-x="317" d="M290 516 L230 516 L222 451 C139 439 72 374 58 258 C46 156 79 90 176 81 L166 -6 L226 -6 L237 82 C258 85 277 89 291 94 C298 96 306 100 312 102 L298 157 C292 156 285 154 280 152 C270 149 257 147 244 145 L273 380 C283 374 291 365 299 356 L354 403 C339 427 314 444 282 450 L290 516 Z M185 148 C160 158 141 189 151 269 C160 350 187 375 214 383 L185 148 Z " />
<glyph glyph-name="sterling" unicode="&#xa3;" horiz-adv-x="379" d="M136 77 C150 96 164 122 174 163 L180 192 L313 192 L333 261 L197 261 L212 331 C226 393 262 411 298 411 C321 411 338 404 352 395 C360 391 366 386 371 381 L415 447 C402 457 372 481 302 481 C210 481 139 419 122 326 L109 261 L60 262 L45 192 L95 192 L83 136 C76 105 65 86 54 72 C47 64 41 58 33 54 L47 0 L340 0 L348 71 L131 71 C132 73 135 75 136 77 L136 77 Z " />
<glyph glyph-name="currency" unicode="&#xa4;" horiz-adv-x="455" d="M44 125 L90 74 L160 142 C183 130 211 123 242 123 C274 123 303 131 328 143 L383 74 L441 125 L382 184 C409 213 425 248 430 290 C435 332 428 368 408 398 L480 456 L436 508 L364 439 C342 452 315 458 284 458 C252 458 224 451 198 438 L145 508 L86 456 L143 398 C117 368 100 332 95 290 C90 248 97 212 116 183 L44 125 Z M249 180 C189 180 153 231 161 294 C168 357 216 402 276 402 C338 402 374 351 366 288 C358 226 311 180 249 180 L249 180 Z " />
<glyph glyph-name="yen" unicode="&#xa5;" horiz-adv-x="449" d="M111 189 L201 189 L195 143 L112 143 L97 76 L187 76 L178 0 L268 0 L277 76 L369 76 L384 143 L285 143 L291 189 L383 189 L398 256 L330 256 L483 478 L387 478 L258 272 L181 478 L83 478 L181 256 L126 256 L111 189 Z " />
<glyph glyph-name="brokenbar" unicode="&#xa6;" horiz-adv-x="181" d="M207 636 L124 636 L89 354 L172 354 L207 636 Z M162 275 L79 275 L45 -6 L128 -6 L162 275 Z " />
<glyph glyph-name="section" unicode="&#xa7;" horiz-adv-x="388" d="M110 -54 C126 -59 150 -64 175 -64 C252 -64 308 -15 315 47 C319 76 310 101 296 123 C329 137 382 169 390 235 C406 363 218 396 228 478 C231 504 247 517 275 517 C290 517 306 512 319 508 C326 506 332 503 339 500 L372 559 C363 563 353 567 344 570 C327 575 304 580 280 580 C202 580 147 532 139 469 C136 440 144 416 159 393 C123 379 71 347 63 282 C47 153 236 121 226 39 C223 13 208 0 180 0 C164 0 148 3 135 8 C129 10 122 13 115 16 L82 -43 C91 -47 100 -50 110 -54 L110 -54 Z M200 347 C249 305 308 269 302 225 C298 191 272 175 253 169 C205 212 147 246 152 292 C156 325 181 340 200 347 L200 347 Z " />
<glyph glyph-name="dieresis" unicode="&#xa8;" horiz-adv-x="320" d="M192 475 C195 502 182 522 152 522 C120 522 101 502 98 473 C94 446 109 426 138 426 C170 426 188 447 192 475 L192 475 Z M342 475 C345 502 332 522 302 522 C270 522 251 502 248 473 C244 446 259 426 288 426 C320 426 338 447 342 475 L342 475 Z " />
<glyph glyph-name="copyright" unicode="&#xa9;" horiz-adv-x="592" d="M361 513 C208 513 86 406 68 254 C49 102 140 -5 292 -5 C446 -5 568 102 587 254 C605 406 513 513 361 513 L361 513 Z M302 50 C188 50 118 142 132 258 C147 375 238 458 352 458 C468 458 536 366 522 249 C508 133 418 50 302 50 L302 50 Z M396 342 L434 379 C423 393 404 408 367 408 C279 408 230 345 218 252 C207 157 240 106 319 106 C360 106 389 118 396 121 L386 172 C382 169 361 157 335 157 C296 157 284 203 291 257 C297 309 315 351 354 352 C382 353 394 344 396 342 L396 342 Z " />
<glyph glyph-name="ordfeminine" unicode="&#xaa;" horiz-adv-x="287" d="M278 506 C258 510 232 513 212 513 C137 513 81 457 71 379 C61 301 86 250 154 250 C190 250 216 265 233 295 L233 259 L283 254 L313 499 L278 506 L278 506 Z M233 403 C226 349 198 299 168 299 C138 299 140 341 146 384 C152 432 168 466 213 466 C222 466 232 464 240 462 L233 403 L233 403 Z " />
<glyph glyph-name="guillemotleft" unicode="&#xab;" horiz-adv-x="434" d="M217 136 L258 177 L176 300 L288 422 L257 463 C235 446 213 428 192 409 C155 377 110 337 76 300 C101 263 136 222 165 190 C181 171 199 153 217 136 L217 136 Z M382 136 L423 177 L340 300 L453 422 L422 463 C400 446 378 428 357 409 C320 377 275 337 241 300 C266 263 301 222 330 190 C346 171 364 153 382 136 L382 136 Z " />
<glyph glyph-name="registered" unicode="&#xae;" horiz-adv-x="419" d="M273 513 C171 513 89 442 76 340 C64 237 126 165 228 165 C329 165 412 237 424 340 C437 442 375 513 273 513 L273 513 Z M233 208 C161 208 116 267 125 342 C135 417 193 469 265 469 C340 469 383 410 374 336 C365 261 307 208 233 208 L233 208 Z M319 382 C323 415 304 435 257 435 C248 435 237 434 226 434 L200 434 L176 243 L216 243 L226 324 L230 324 C260 321 261 306 278 244 L316 244 C304 290 308 316 284 337 C303 349 317 363 319 382 L319 382 Z M237 411 L248 411 C274 411 279 394 277 379 C275 360 271 354 246 349 C241 348 231 347 229 347 L237 411 Z " />
<glyph glyph-name="degree" unicode="&#xb0;" horiz-adv-x="237" d="M187 513 C136 513 96 476 90 425 C83 374 114 337 165 337 C216 337 256 374 263 425 C269 476 238 513 187 513 L187 513 Z M170 381 C147 381 135 400 138 426 C141 454 158 469 181 469 C206 469 218 451 215 425 C211 397 195 381 170 381 L170 381 Z " />
<glyph glyph-name="plusminus" unicode="&#xb1;" horiz-adv-x="394" d="M86 300 L78 234 L189 234 L177 132 L65 132 L56 65 L350 65 L359 132 L248 132 L260 234 L372 234 L380 300 L268 300 L282 415 L211 415 L197 300 L86 300 L86 300 Z " />
<glyph glyph-name="acute" unicode="&#xb4;" horiz-adv-x="256" d="M81 425 L113 386 C131 397 150 410 168 422 C201 445 242 477 277 514 L225 568 L81 425 L81 425 Z " />
<glyph glyph-name="mu" unicode="&#xb5;" horiz-adv-x="391" d="M327 508 L301 301 C289 235 249 193 209 193 C175 193 154 217 157 255 L188 508 L102 508 L35 -33 L121 -33 L144 148 C159 135 179 129 201 129 C247 129 282 152 307 196 L301 148 L366 125 L413 508 L327 508 L327 508 Z " />
<glyph glyph-name="paragraph" unicode="&#xb6;" horiz-adv-x="408" d="M267 509 L267 509 C265 509 264 509 262 509 L262 509 L262 509 C152 508 87 450 75 355 C63 259 114 199 229 199 L259 447 L332 447 L278 0 L368 0 L422 447 L430 508 L267 509 L267 509 Z " />
<glyph glyph-name="cedilla" unicode="&#xb8;" horiz-adv-x="215" d="M130 0 L80 0 L55 -66 C84 -66 123 -75 120 -99 C119 -114 107 -122 80 -122 C63 -122 43 -116 33 -112 L16 -153 C32 -161 55 -166 79 -166 C121 -166 170 -150 177 -96 C181 -60 155 -40 116 -37 L130 0 L130 0 Z " />
<glyph glyph-name="ordmasculine" unicode="&#xba;" horiz-adv-x="283" d="M311 383 C320 464 292 513 208 513 C126 513 79 455 70 377 C60 296 89 248 172 248 C254 248 301 307 311 383 L311 383 Z M144 382 C150 429 162 463 197 463 C238 463 243 425 237 379 C231 332 218 298 183 298 C143 298 139 336 144 382 L144 382 Z " />
<glyph glyph-name="guillemotright" unicode="&#xbb;" horiz-adv-x="435" d="M219 177 L250 136 C272 153 294 171 316 190 C353 222 398 263 431 300 C407 337 372 377 343 409 C326 428 308 446 290 463 L249 422 L331 300 L219 177 Z M54 177 L85 136 C107 153 129 171 151 190 C188 222 233 263 266 300 C242 337 207 377 178 409 C161 428 143 446 125 463 L84 422 L166 300 L54 177 Z " />
<glyph glyph-name="onequarter" unicode="&#xbc;" horiz-adv-x="559" d="M213 439 L167 439 C146 422 122 408 101 399 C90 394 78 388 67 385 L87 337 C106 345 124 356 142 372 L118 176 L181 176 L213 439 Z M379 440 L120 0 L191 0 L451 440 L379 440 Z M516 110 L534 256 L473 256 L333 92 L329 62 L447 62 L440 0 L503 0 L510 62 L546 62 L552 110 L516 110 L516 110 Z M402 110 L462 183 L453 110 L402 110 L402 110 Z " />
<glyph glyph-name="onehalf" unicode="&#xbd;" horiz-adv-x="560" d="M211 439 L165 439 C136 415 101 395 65 385 L83 343 C101 349 122 356 140 372 L117 180 L180 180 L211 439 Z M378 440 L118 0 L190 0 L449 440 L378 440 Z M547 192 C553 241 524 262 473 262 C438 262 407 249 376 233 L394 186 C402 190 409 194 417 198 C430 204 446 210 460 210 C473 210 479 202 477 185 C474 162 457 143 416 103 C387 76 357 54 355 53 L349 0 L529 0 L535 53 L434 53 C448 62 459 71 467 78 C512 119 542 153 547 192 L547 192 Z " />
<glyph glyph-name="threequarters" unicode="&#xbe;" horiz-adv-x="584" d="M261 275 C265 303 252 326 224 338 C241 348 261 364 265 393 C269 430 244 455 193 455 C159 455 133 447 101 433 L118 385 C150 399 166 404 180 404 C192 404 197 395 196 384 C192 353 164 350 136 341 L132 302 L143 305 C150 305 159 307 172 307 C190 307 197 293 195 275 C192 250 173 239 155 239 C139 239 124 244 113 249 L93 260 L88 213 C103 197 125 188 151 188 C226 188 256 231 261 275 L261 275 Z M423 440 L163 0 L234 0 L494 440 L423 440 L423 440 Z M527 110 L545 256 L485 256 L344 92 L340 62 L458 62 L451 0 L514 0 L521 62 L558 62 L564 110 L527 110 L527 110 Z M414 110 L473 183 L464 110 L414 110 L414 110 Z " />
<glyph glyph-name="questiondown" unicode="&#xbf;" horiz-adv-x="322" d="M37 106 C27 26 78 -6 166 -6 C217 -6 261 13 304 32 L283 92 C236 71 217 60 185 60 C151 60 130 81 135 117 C142 177 256 239 269 344 L208 361 C192 325 163 292 132 257 C90 210 44 166 37 106 L37 106 Z M192 460 C188 427 204 404 240 404 C278 404 300 429 304 462 C308 492 291 518 256 518 C218 518 196 492 192 460 L192 460 Z " />
<glyph glyph-name="Agrave" unicode="&#xc0;" horiz-adv-x="472" d="M262 508 L5 0 L95 0 L158 133 L340 133 L371 0 L467 0 L342 476 C331 519 305 510 262 508 L262 508 Z M325 200 L190 200 C232 286 264 363 284 408 C290 366 305 288 325 200 L325 200 Z M360 579 L401 618 L291 761 L226 707 C252 670 285 639 312 615 C328 603 344 591 360 579 L360 579 Z " />
<glyph glyph-name="Aacute" unicode="&#xc1;" horiz-adv-x="472" d="M262 508 L5 0 L95 0 L158 133 L340 133 L371 0 L467 0 L342 476 C331 519 305 510 262 508 L262 508 Z M325 200 L190 200 C232 286 264 363 284 408 C290 366 305 288 325 200 L325 200 Z M218 625 L250 586 C269 597 287 610 306 622 C339 645 380 677 414 714 L363 768 L218 625 Z " />
<glyph glyph-name="Acircumflex" unicode="&#xc2;" horiz-adv-x="472" d="M262 508 L5 0 L95 0 L158 133 L340 133 L371 0 L467 0 L342 476 C331 519 305 510 262 508 L262 508 Z M325 200 L190 200 C232 286 264 363 284 408 C290 366 305 288 325 200 L325 200 Z M174 638 L202 598 C213 603 224 610 237 618 C259 632 287 650 319 675 C344 651 369 632 387 618 C398 610 410 603 418 598 L456 638 L332 779 L174 638 Z " />
<glyph glyph-name="Atilde" unicode="&#xc3;" horiz-adv-x="472" d="M262 508 L5 0 L95 0 L158 133 L340 133 L371 0 L467 0 L342 476 C331 519 305 510 262 508 L262 508 Z M325 200 L190 200 C232 286 264 363 284 408 C290 366 305 288 325 200 L325 200 Z M199 666 L192 610 C198 611 204 613 210 615 C221 617 237 620 254 620 C291 620 330 605 367 605 C384 605 398 608 411 614 C416 616 423 619 429 623 L436 679 C430 677 423 675 418 674 C406 671 392 668 375 668 C338 668 298 683 261 683 C244 683 229 680 217 674 C211 672 205 669 199 666 L199 666 Z " />
<glyph glyph-name="Adieresis" unicode="&#xc4;" horiz-adv-x="472" d="M262 508 L5 0 L95 0 L158 133 L340 133 L371 0 L467 0 L342 476 C331 519 305 510 262 508 L262 508 Z M325 200 L190 200 C232 286 264 363 284 408 C290 366 305 288 325 200 L325 200 Z M289 675 C293 702 279 722 249 722 C217 722 199 702 195 673 C192 646 206 626 235 626 C267 626 286 647 289 675 L289 675 Z M439 675 C443 702 429 722 399 722 C367 722 349 702 345 673 C342 646 356 626 385 626 C417 626 436 647 439 675 L439 675 Z " />
<glyph glyph-name="Aring" unicode="&#xc5;" horiz-adv-x="472" d="M262 508 L5 0 L95 0 L158 133 L340 133 L371 0 L467 0 L342 476 C331 519 305 510 262 508 L262 508 Z M325 200 L190 200 C232 286 264 363 284 408 C290 366 305 288 325 200 L325 200 Z M327 738 C283 738 247 707 242 663 C237 620 264 587 307 587 C351 587 387 620 392 663 C397 707 370 738 327 738 L327 738 Z M312 624 C291 624 281 640 284 663 C287 688 299 700 321 700 C342 700 353 686 350 663 C347 639 333 624 312 624 L312 624 Z " />
<glyph glyph-name="AE" unicode="&#xc6;" horiz-adv-x="668" d="M378 508 L9 0 L113 0 L205 133 L356 133 L340 0 L652 0 L660 68 L436 68 L456 231 L631 231 L639 300 L464 300 L482 440 L694 440 L702 508 L378 508 Z M251 200 L391 416 L364 200 L251 200 Z " />
<glyph glyph-name="Ccedilla" unicode="&#xc7;" horiz-adv-x="397" d="M389 410 L436 459 C415 487 381 513 320 513 C170 513 86 404 67 246 C46 81 104 -6 239 -6 C277 -6 311 0 335 7 C349 11 362 14 374 20 L361 83 C353 81 309 58 264 58 C168 58 153 149 166 254 C179 360 219 443 303 443 C339 443 363 434 389 410 L389 410 Z M216 0 L166 0 L141 -66 C170 -66 209 -75 206 -99 C205 -114 193 -122 166 -122 C149 -122 129 -116 119 -112 L102 -153 C118 -161 141 -166 165 -166 C207 -166 256 -150 263 -96 C267 -60 241 -40 202 -37 L216 0 Z " />
<glyph glyph-name="Egrave" unicode="&#xc8;" horiz-adv-x="374" d="M102 508 L40 0 L353 0 L361 69 L137 69 L157 231 L332 231 L340 299 L165 299 L183 440 L396 440 L404 508 L102 508 Z M311 579 L352 618 L242 761 L177 707 C203 670 236 639 263 615 C279 603 295 591 311 579 L311 579 Z " />
<glyph glyph-name="Eacute" unicode="&#xc9;" horiz-adv-x="374" d="M102 508 L40 0 L353 0 L361 69 L137 69 L157 231 L332 231 L340 299 L165 299 L183 440 L396 440 L404 508 L102 508 Z M169 625 L201 586 C220 597 238 610 257 622 C290 645 331 677 365 714 L314 768 L169 625 Z " />
<glyph glyph-name="Ecircumflex" unicode="&#xca;" horiz-adv-x="374" d="M102 508 L40 0 L353 0 L361 69 L137 69 L157 231 L332 231 L340 299 L165 299 L183 440 L396 440 L404 508 L102 508 Z M125 638 L153 598 C164 603 175 610 188 618 C210 632 238 650 270 675 C295 651 320 632 338 618 C349 610 361 603 369 598 L407 638 L283 779 L125 638 Z " />
<glyph glyph-name="Edieresis" unicode="&#xcb;" horiz-adv-x="374" d="M102 508 L40 0 L353 0 L361 69 L137 69 L157 231 L332 231 L340 299 L165 299 L183 440 L396 440 L404 508 L102 508 Z M240 675 C244 702 230 722 200 722 C168 722 150 702 146 673 C143 646 157 626 186 626 C218 626 237 647 240 675 L240 675 Z M390 675 C394 702 380 722 350 722 C318 722 300 702 296 673 C293 646 307 626 336 626 C368 626 387 647 390 675 L390 675 Z " />
<glyph glyph-name="Igrave" unicode="&#xcc;" horiz-adv-x="169" d="M101 508 L39 0 L129 0 L191 508 L101 508 Z M209 579 L250 618 L140 761 L75 707 C101 670 134 639 161 615 C177 603 193 591 209 579 L209 579 Z " />
<glyph glyph-name="Iacute" unicode="&#xcd;" horiz-adv-x="169" d="M101 508 L39 0 L129 0 L191 508 L101 508 Z M67 625 L99 586 C118 597 136 610 155 622 C188 645 229 677 263 714 L212 768 L67 625 Z " />
<glyph glyph-name="Icircumflex" unicode="&#xce;" horiz-adv-x="169" d="M101 508 L39 0 L129 0 L191 508 L101 508 Z M23 638 L51 598 C62 603 73 610 86 618 C108 632 136 650 168 675 C193 651 218 632 236 618 C247 610 259 603 267 598 L305 638 L181 779 L23 638 Z " />
<glyph glyph-name="Idieresis" unicode="&#xcf;" horiz-adv-x="169" d="M101 508 L39 0 L129 0 L191 508 L101 508 Z M138 675 C142 702 128 722 98 722 C66 722 48 702 44 673 C41 646 55 626 84 626 C116 626 135 647 138 675 L138 675 Z M288 675 C292 702 278 722 248 722 C216 722 198 702 194 673 C191 646 205 626 234 626 C266 626 285 647 288 675 L288 675 Z " />
<glyph glyph-name="Eth" unicode="&#xd0;" horiz-adv-x="491" d="M49 294 L40 227 L92 227 L65 0 L83 0 C94 -1 106 -1 119 -1 C142 -1 172 -1 202 -1 C382 -1 474 90 494 257 C514 423 445 509 275 509 C251 509 218 509 191 509 C175 508 159 508 142 508 L127 508 L101 294 L49 294 Z M209 441 C219 441 233 442 257 442 C375 442 409 365 395 249 C380 128 327 66 222 66 C190 66 175 66 163 67 L182 227 L316 227 L325 294 L191 294 L209 441 Z " />
<glyph glyph-name="Ntilde" unicode="&#xd1;" horiz-adv-x="470" d="M402 508 L365 154 C350 184 333 216 173 508 L102 508 L40 0 L130 0 L166 363 C182 332 202 294 355 0 L430 0 L492 508 L402 508 Z M197 654 L190 598 C195 599 201 601 208 603 C219 605 234 608 251 608 C288 608 327 593 364 593 C381 593 396 596 408 602 C414 604 420 607 427 611 L433 667 C427 665 421 663 416 662 C403 659 389 656 372 656 C335 656 296 671 259 671 C242 671 227 668 215 662 C209 660 202 657 197 654 L197 654 Z " />
<glyph glyph-name="Ograve" unicode="&#xd2;" horiz-adv-x="499" d="M497 257 C516 415 466 513 316 513 C163 513 81 403 62 246 C42 87 93 -6 243 -6 C396 -6 478 101 497 257 L497 257 Z M160 254 C173 362 211 443 297 443 C399 443 410 350 398 249 C385 143 348 64 261 64 C159 64 147 152 160 254 L160 254 Z M373 579 L414 618 L304 761 L239 707 C265 670 298 639 325 615 C341 603 357 591 373 579 L373 579 Z " />
<glyph glyph-name="Oacute" unicode="&#xd3;" horiz-adv-x="499" d="M497 257 C516 415 466 513 316 513 C163 513 81 403 62 246 C42 87 93 -6 243 -6 C396 -6 478 101 497 257 L497 257 Z M160 254 C173 362 211 443 297 443 C399 443 410 350 398 249 C385 143 348 64 261 64 C159 64 147 152 160 254 L160 254 Z M232 625 L264 586 C283 597 301 610 320 622 C353 645 394 677 428 714 L377 768 L232 625 Z " />
<glyph glyph-name="Ocircumflex" unicode="&#xd4;" horiz-adv-x="499" d="M497 257 C516 415 466 513 316 513 C163 513 81 403 62 246 C42 87 93 -6 243 -6 C396 -6 478 101 497 257 L497 257 Z M160 254 C173 362 211 443 297 443 C399 443 410 350 398 249 C385 143 348 64 261 64 C159 64 147 152 160 254 L160 254 Z M183 608 L211 568 C222 573 234 580 247 588 C268 602 297 620 329 645 C354 621 378 602 397 588 C408 580 419 573 427 568 L465 608 L341 749 L183 608 Z " />
<glyph glyph-name="Otilde" unicode="&#xd5;" horiz-adv-x="499" d="M497 257 C516 415 466 513 316 513 C163 513 81 403 62 246 C42 87 93 -6 243 -6 C396 -6 478 101 497 257 L497 257 Z M160 254 C173 362 211 443 297 443 C399 443 410 350 398 249 C385 143 348 64 261 64 C159 64 147 152 160 254 L160 254 Z M213 663 L206 607 C211 608 217 610 224 612 C235 614 250 617 267 617 C304 617 343 602 380 602 C397 602 412 605 425 611 C430 613 436 616 443 620 L450 676 C443 674 437 672 432 671 C420 668 405 665 388 665 C351 665 312 680 275 680 C258 680 243 677 231 671 C225 669 218 666 213 663 L213 663 Z " />
<glyph glyph-name="Odieresis" unicode="&#xd6;" horiz-adv-x="499" d="M497 257 C516 415 466 513 316 513 C163 513 81 403 62 246 C42 87 93 -6 243 -6 C396 -6 478 101 497 257 L497 257 Z M160 254 C173 362 211 443 297 443 C399 443 410 350 398 249 C385 143 348 64 261 64 C159 64 147 152 160 254 L160 254 Z M302 675 C306 702 292 722 262 722 C230 722 212 702 208 673 C205 646 219 626 248 626 C280 626 299 647 302 675 L302 675 Z M452 675 C456 702 442 722 412 722 C380 722 362 702 358 673 C355 646 369 626 398 626 C430 626 449 647 452 675 L452 675 Z " />
<glyph glyph-name="multiply" unicode="&#xd7;" horiz-adv-x="354" d="M123 376 L71 329 L154 233 L42 132 L85 82 L199 183 L287 83 L338 130 L251 230 L361 327 L317 378 L207 279 L123 376 L123 376 Z " />
<glyph glyph-name="Oslash" unicode="&#xd8;" horiz-adv-x="509" d="M375 507 C359 511 341 513 321 513 C168 513 86 402 67 245 C54 143 69 69 122 28 L97 -19 L168 -49 L192 -2 C210 -5 228 -6 248 -6 C401 -6 483 100 502 256 C514 358 498 434 446 476 L471 525 L400 554 L375 507 Z M165 254 C178 361 216 443 302 443 C316 443 328 441 338 438 L170 120 C158 155 158 201 165 254 L165 254 Z M398 385 C411 350 410 302 403 248 C390 142 353 63 266 63 C252 63 240 65 230 67 L398 385 Z " />
<glyph glyph-name="Ugrave" unicode="&#xd9;" horiz-adv-x="467" d="M191 508 L102 508 L62 186 C50 82 86 -6 227 -6 C376 -6 437 82 449 186 L489 508 L399 508 L360 193 C350 112 312 64 245 64 C179 64 141 100 152 193 L191 508 Z M357 579 L398 618 L288 761 L223 707 C249 670 282 639 309 615 C325 603 341 591 357 579 L357 579 Z " />
<glyph glyph-name="Uacute" unicode="&#xda;" horiz-adv-x="467" d="M191 508 L102 508 L62 186 C50 82 86 -6 227 -6 C376 -6 437 82 449 186 L489 508 L399 508 L360 193 C350 112 312 64 245 64 C179 64 141 100 152 193 L191 508 Z M216 625 L248 586 C267 597 285 610 304 622 C337 645 378 677 412 714 L361 768 L216 625 Z " />
<glyph glyph-name="Ucircumflex" unicode="&#xdb;" horiz-adv-x="467" d="M191 508 L102 508 L62 186 C50 82 86 -6 227 -6 C376 -6 437 82 449 186 L489 508 L399 508 L360 193 C350 112 312 64 245 64 C179 64 141 100 152 193 L191 508 Z M171 638 L199 598 C210 603 221 610 234 618 C256 632 284 650 316 675 C341 651 366 632 384 618 C395 610 407 603 415 598 L453 638 L329 779 L171 638 Z " />
<glyph glyph-name="Udieresis" unicode="&#xdc;" horiz-adv-x="467" d="M191 508 L102 508 L62 186 C50 82 86 -6 227 -6 C376 -6 437 82 449 186 L489 508 L399 508 L360 193 C350 112 312 64 245 64 C179 64 141 100 152 193 L191 508 Z M286 675 C290 702 276 722 246 722 C214 722 196 702 192 673 C189 646 203 626 232 626 C264 626 283 647 286 675 L286 675 Z M436 675 C440 702 426 722 396 722 C364 722 346 702 342 673 C339 646 353 626 382 626 C414 626 433 647 436 675 L436 675 Z " />
<glyph glyph-name="Yacute" unicode="&#xdd;" horiz-adv-x="418" d="M186 195 L163 0 L253 0 L276 191 L476 508 L379 508 L243 280 L165 508 L67 508 L186 195 Z M191 625 L223 586 C242 597 260 610 279 622 C312 645 353 677 387 714 L336 768 L191 625 Z " />
<glyph glyph-name="Thorn" unicode="&#xde;" horiz-adv-x="403" d="M102 508 L40 0 L130 0 L143 107 L195 107 C321 107 391 169 403 264 C415 361 365 417 242 417 C226 417 204 417 181 416 L192 508 L102 508 Z M173 352 C185 353 201 353 222 353 C295 353 311 307 306 261 C299 211 270 173 208 173 L151 173 L173 352 Z " />
<glyph glyph-name="germandbls" unicode="&#xdf;" horiz-adv-x="402" d="M298 301 C304 344 392 352 402 438 C410 499 366 555 247 541 C136 526 94 441 83 358 L66 216 L57 140 L33 -52 L119 -52 L142 136 L152 216 L170 364 C177 421 198 470 251 476 C285 478 319 467 314 430 C308 378 225 360 215 285 C201 168 313 177 305 107 C301 74 276 59 237 59 C225 59 211 64 200 69 C193 71 188 75 181 78 L148 21 C156 16 166 11 175 7 C193 1 216 -6 240 -6 C324 -6 385 43 393 113 C408 235 290 232 298 301 L298 301 Z " />
<glyph glyph-name="agrave" unicode="&#xe0;" horiz-adv-x="386" d="M389 356 C373 360 356 364 341 367 C311 372 277 378 247 378 C141 378 58 294 44 180 C30 67 65 -7 159 -6 C247 -5 286 85 287 88 L283 6 L345 0 L389 356 L389 356 Z M284 202 C275 128 229 55 180 55 C126 55 129 119 138 188 C147 262 174 317 249 317 C264 317 288 311 297 309 L284 202 L284 202 Z M292 379 L334 418 L223 561 L159 507 C184 470 217 439 244 415 C260 403 277 391 292 379 L292 379 Z " />
<glyph glyph-name="aacute" unicode="&#xe1;" horiz-adv-x="386" d="M389 356 C373 360 356 364 341 367 C311 372 277 378 247 378 C141 378 58 294 44 180 C30 67 65 -7 159 -6 C247 -5 286 85 287 88 L283 6 L345 0 L389 356 L389 356 Z M284 202 C275 128 229 55 180 55 C126 55 129 119 138 188 C147 262 174 317 249 317 C264 317 288 311 297 309 L284 202 L284 202 Z M151 425 L183 386 C201 397 220 410 238 422 C271 445 312 477 347 514 L295 568 L151 425 Z " />
<glyph glyph-name="acircumflex" unicode="&#xe2;" horiz-adv-x="386" d="M389 356 C373 360 356 364 341 367 C311 372 277 378 247 378 C141 378 58 294 44 180 C30 67 65 -7 159 -6 C247 -5 286 85 287 88 L283 6 L345 0 L389 356 L389 356 Z M284 202 C275 128 229 55 180 55 C126 55 129 119 138 188 C147 262 174 317 249 317 C264 317 288 311 297 309 L284 202 L284 202 Z M106 438 L134 398 C145 403 157 410 170 418 C192 432 220 450 252 475 C277 451 302 432 320 418 C331 410 342 403 350 398 L388 438 L265 579 L106 438 Z " />
<glyph glyph-name="atilde" unicode="&#xe3;" horiz-adv-x="386" d="M389 356 C373 360 356 364 341 367 C311 372 277 378 247 378 C141 378 58 294 44 180 C30 67 65 -7 159 -6 C247 -5 286 85 287 88 L283 6 L345 0 L389 356 L389 356 Z M284 202 C275 128 229 55 180 55 C126 55 129 119 138 188 C147 262 174 317 249 317 C264 317 288 311 297 309 L284 202 L284 202 Z M137 506 L130 450 C135 451 141 453 147 455 C159 457 174 460 191 460 C228 460 267 445 304 445 C321 445 336 448 348 454 C353 456 360 459 366 463 L373 519 C367 517 361 515 356 514 C343 511 329 508 312 508 C275 508 236 523 199 523 C182 523 166 520 155 514 C148 512 142 509 137 506 L137 506 Z " />
<glyph glyph-name="adieresis" unicode="&#xe4;" horiz-adv-x="386" d="M389 356 C373 360 356 364 341 367 C311 372 277 378 247 378 C141 378 58 294 44 180 C30 67 65 -7 159 -6 C247 -5 286 85 287 88 L283 6 L345 0 L389 356 L389 356 Z M284 202 C275 128 229 55 180 55 C126 55 129 119 138 188 C147 262 174 317 249 317 C264 317 288 311 297 309 L284 202 L284 202 Z M222 475 C225 502 212 522 182 522 C150 522 131 502 128 473 C124 446 139 426 168 426 C200 426 218 447 222 475 L222 475 Z M372 475 C375 502 362 522 332 522 C300 522 281 502 278 473 C274 446 289 426 318 426 C350 426 368 447 372 475 L372 475 Z " />
<glyph glyph-name="aring" unicode="&#xe5;" horiz-adv-x="386" d="M389 356 C373 360 356 364 341 367 C311 372 277 378 247 378 C141 378 58 294 44 180 C30 67 65 -7 159 -6 C247 -5 286 85 287 88 L283 6 L345 0 L389 356 L389 356 Z M284 202 C275 128 229 55 180 55 C126 55 129 119 138 188 C147 262 174 317 249 317 C264 317 288 311 297 309 L284 202 L284 202 Z M260 538 C216 538 180 507 174 463 C169 420 196 387 239 387 C283 387 319 420 324 463 C330 507 303 538 260 538 L260 538 Z M245 424 C224 424 214 440 216 463 C219 488 232 500 254 500 C275 500 285 486 282 463 C279 439 266 424 245 424 L245 424 Z " />
<glyph glyph-name="ae" unicode="&#xe6;" horiz-adv-x="585" d="M363 352 C339 363 297 379 243 379 C137 379 54 295 40 181 C26 68 61 -6 155 -6 C211 -6 248 18 272 64 C291 18 333 -6 402 -6 C440 -6 475 2 503 11 C518 16 533 21 547 28 L531 82 C518 77 505 72 492 69 C470 62 442 56 421 56 C362 56 349 94 349 140 C481 142 571 202 580 275 C588 335 557 382 467 382 C428 382 394 372 363 352 L363 352 Z M307 301 C283 268 268 228 262 177 C260 159 258 141 259 126 C240 84 210 55 176 55 C122 55 125 119 134 188 C143 263 172 318 246 318 C272 318 291 310 307 301 L307 301 Z M353 195 C363 255 388 322 454 322 C481 322 497 304 493 275 C489 241 448 197 353 195 L353 195 Z " />
<glyph glyph-name="ccedilla" unicode="&#xe7;" horiz-adv-x="322" d="M286 282 L341 328 C321 359 292 378 244 378 C147 378 63 306 47 175 C34 66 73 -6 189 -6 C222 -6 248 0 267 6 C279 9 289 12 298 17 L283 71 C275 67 265 65 256 63 C241 59 222 56 208 56 C173 56 127 71 141 187 C156 302 206 312 236 312 C261 312 273 299 286 282 L286 282 Z M179 0 L129 0 L104 -66 C133 -66 172 -75 169 -99 C168 -114 156 -122 129 -122 C112 -122 92 -116 82 -112 L65 -153 C81 -161 104 -166 128 -166 C170 -166 219 -150 226 -96 C230 -60 204 -40 165 -37 L179 0 Z " />
<glyph glyph-name="egrave" unicode="&#xe8;" horiz-adv-x="354" d="M247 378 C145 378 57 309 41 175 C28 66 65 -6 181 -6 C220 -6 255 2 282 12 C298 17 312 22 326 29 L311 82 C298 77 285 72 272 68 C250 62 222 56 200 56 C142 56 129 94 129 139 C261 141 350 201 359 273 C366 332 336 378 247 378 L247 378 Z M132 193 C143 253 167 320 233 320 C260 320 277 302 273 273 C269 238 227 196 132 193 L132 193 Z M276 379 L318 418 L207 561 L143 507 C168 470 201 439 228 415 C244 403 261 391 276 379 L276 379 Z " />
<glyph glyph-name="eacute" unicode="&#xe9;" horiz-adv-x="354" d="M247 378 C145 378 57 309 41 175 C28 66 65 -6 181 -6 C220 -6 255 2 282 12 C298 17 312 22 326 29 L311 82 C298 77 285 72 272 68 C250 62 222 56 200 56 C142 56 129 94 129 139 C261 141 350 201 359 273 C366 332 336 378 247 378 L247 378 Z M132 193 C143 253 167 320 233 320 C260 320 277 302 273 273 C269 238 227 196 132 193 L132 193 Z M135 425 L167 386 C185 397 204 410 222 422 C255 445 296 477 331 514 L279 568 L135 425 Z " />
<glyph glyph-name="ecircumflex" unicode="&#xea;" horiz-adv-x="354" d="M247 378 C145 378 57 309 41 175 C28 66 65 -6 181 -6 C220 -6 255 2 282 12 C298 17 312 22 326 29 L311 82 C298 77 285 72 272 68 C250 62 222 56 200 56 C142 56 129 94 129 139 C261 141 350 201 359 273 C366 332 336 378 247 378 L247 378 Z M132 193 C143 253 167 320 233 320 C260 320 277 302 273 273 C269 238 227 196 132 193 L132 193 Z M90 438 L118 398 C129 403 141 410 154 418 C176 432 204 450 236 475 C261 451 286 432 304 418 C315 410 326 403 334 398 L372 438 L249 579 L90 438 Z " />
<glyph glyph-name="edieresis" unicode="&#xeb;" horiz-adv-x="354" d="M247 378 C145 378 57 309 41 175 C28 66 65 -6 181 -6 C220 -6 255 2 282 12 C298 17 312 22 326 29 L311 82 C298 77 285 72 272 68 C250 62 222 56 200 56 C142 56 129 94 129 139 C261 141 350 201 359 273 C366 332 336 378 247 378 L247 378 Z M132 193 C143 253 167 320 233 320 C260 320 277 302 273 273 C269 238 227 196 132 193 L132 193 Z M206 475 C209 502 196 522 166 522 C134 522 115 502 112 473 C108 446 123 426 152 426 C184 426 202 447 206 475 L206 475 Z M356 475 C359 502 346 522 316 522 C284 522 265 502 262 473 C258 446 273 426 302 426 C334 426 352 447 356 475 L356 475 Z " />
<glyph glyph-name="igrave" unicode="&#xec;" horiz-adv-x="196" d="M184 63 L165 63 C150 63 144 69 147 93 L182 378 L70 378 L63 321 L89 321 L60 84 C54 34 79 0 132 0 C150 0 186 0 186 0 L184 63 L184 63 Z M200 402 L242 441 L131 584 L67 530 C92 493 125 462 152 438 C168 426 184 414 200 402 L200 402 Z " />
<glyph glyph-name="iacute" unicode="&#xed;" horiz-adv-x="196" d="M184 63 L165 63 C150 63 144 69 147 93 L182 378 L70 378 L63 321 L89 321 L60 84 C54 34 79 0 132 0 C150 0 186 0 186 0 L184 63 L184 63 Z M57 437 L89 398 C108 409 126 422 145 434 C178 457 219 489 253 526 L202 580 L57 437 Z " />
<glyph glyph-name="icircumflex" unicode="&#xee;" horiz-adv-x="196" d="M184 63 L165 63 C150 63 144 69 147 93 L182 378 L70 378 L63 321 L89 321 L60 84 C54 34 79 0 132 0 C150 0 186 0 186 0 L184 63 L184 63 Z M11 438 L39 398 C50 403 62 410 75 418 C97 432 125 450 157 475 C182 451 207 432 225 418 C236 410 247 403 255 398 L293 438 L170 579 L11 438 Z " />
<glyph glyph-name="idieresis" unicode="&#xef;" horiz-adv-x="196" d="M184 63 L165 63 C150 63 144 69 147 93 L182 378 L70 378 L63 321 L89 321 L60 84 C54 34 79 0 132 0 C150 0 186 0 186 0 L184 63 L184 63 Z M127 475 C130 502 117 522 87 522 C55 522 36 502 33 473 C29 446 44 426 73 426 C105 426 123 447 127 475 L127 475 Z M277 475 C280 502 267 522 237 522 C205 522 186 502 183 473 C179 446 194 426 223 426 C255 426 273 447 277 475 L277 475 Z " />
<glyph glyph-name="eth" unicode="&#xf0;" horiz-adv-x="393" d="M186 -6 C301 -6 367 77 381 189 C392 283 383 367 349 436 L421 451 L394 504 L319 484 C299 511 276 532 249 550 L199 496 L236 465 L178 453 L213 402 L273 418 C282 396 292 372 299 344 C283 356 260 366 230 366 C123 366 58 286 45 181 C31 73 71 -6 186 -6 L186 -6 Z M139 188 C147 254 166 305 223 305 C287 305 295 250 287 182 C279 117 257 51 200 51 C136 51 130 121 139 188 L139 188 Z " />
<glyph glyph-name="ntilde" unicode="&#xf1;" horiz-adv-x="386" d="M363 351 C346 370 321 379 288 379 C234 379 177 354 144 295 L145 378 L86 378 L40 0 L126 0 L148 182 C154 261 210 311 254 311 C289 311 299 284 294 242 L265 0 L351 0 L381 250 C387 296 381 330 363 351 L363 351 Z M137 506 L130 450 C135 451 141 453 147 455 C159 457 174 460 191 460 C228 460 267 445 304 445 C321 445 336 448 348 454 C353 456 360 459 366 463 L373 519 C367 517 361 515 356 514 C343 511 329 508 312 508 C275 508 236 523 199 523 C182 523 166 520 155 514 C148 512 142 509 137 506 L137 506 Z " />
<glyph glyph-name="ograve" unicode="&#xf2;" horiz-adv-x="377" d="M379 193 C394 312 353 384 238 384 C124 384 56 298 42 184 C28 67 69 -6 184 -6 C299 -6 365 81 379 193 L379 193 Z M136 192 C145 264 166 320 223 320 C287 320 294 260 285 185 C276 113 256 58 199 58 C135 58 127 118 136 192 L136 192 Z M288 406 L330 445 L220 588 L155 534 C181 497 214 466 241 442 C256 430 273 418 288 406 L288 406 Z " />
<glyph glyph-name="oacute" unicode="&#xf3;" horiz-adv-x="377" d="M379 193 C394 312 353 384 238 384 C124 384 56 298 42 184 C28 67 69 -6 184 -6 C299 -6 365 81 379 193 L379 193 Z M136 192 C145 264 166 320 223 320 C287 320 294 260 285 185 C276 113 256 58 199 58 C135 58 127 118 136 192 L136 192 Z M148 435 L180 396 C198 407 217 420 236 432 C268 455 309 487 344 524 L292 578 L148 435 Z " />
<glyph glyph-name="ocircumflex" unicode="&#xf4;" horiz-adv-x="377" d="M379 193 C394 312 353 384 238 384 C124 384 56 298 42 184 C28 67 69 -6 184 -6 C299 -6 365 81 379 193 L379 193 Z M136 192 C145 264 166 320 223 320 C287 320 294 260 285 185 C276 113 256 58 199 58 C135 58 127 118 136 192 L136 192 Z M101 438 L129 398 C140 403 152 410 165 418 C187 432 215 450 247 475 C272 451 297 432 315 418 C326 410 337 403 345 398 L383 438 L260 579 L101 438 Z " />
<glyph glyph-name="otilde" unicode="&#xf5;" horiz-adv-x="377" d="M379 193 C394 312 353 384 238 384 C124 384 56 298 42 184 C28 67 69 -6 184 -6 C299 -6 365 81 379 193 L379 193 Z M136 192 C145 264 166 320 223 320 C287 320 294 260 285 185 C276 113 256 58 199 58 C135 58 127 118 136 192 L136 192 Z M133 506 L126 450 C131 451 137 453 143 455 C155 457 170 460 187 460 C224 460 263 445 300 445 C317 445 332 448 344 454 C349 456 356 459 362 463 L369 519 C363 517 357 515 352 514 C339 511 325 508 308 508 C271 508 232 523 195 523 C178 523 162 520 151 514 C144 512 138 509 133 506 L133 506 Z " />
<glyph glyph-name="odieresis" unicode="&#xf6;" horiz-adv-x="377" d="M379 193 C394 312 353 384 238 384 C124 384 56 298 42 184 C28 67 69 -6 184 -6 C299 -6 365 81 379 193 L379 193 Z M136 192 C145 264 166 320 223 320 C287 320 294 260 285 185 C276 113 256 58 199 58 C135 58 127 118 136 192 L136 192 Z M217 475 C220 502 207 522 177 522 C145 522 126 502 123 473 C119 446 134 426 163 426 C195 426 213 447 217 475 L217 475 Z M367 475 C370 502 357 522 327 522 C295 522 276 502 273 473 C269 446 284 426 313 426 C345 426 363 447 367 475 L367 475 Z " />
<glyph glyph-name="oslash" unicode="&#xf8;" horiz-adv-x="369" d="M284 378 C268 381 253 383 232 383 C118 383 50 297 36 184 C27 114 39 61 71 29 L46 -13 L102 -40 L125 0 C142 -4 159 -6 178 -6 C292 -6 359 81 373 192 C382 262 370 315 338 348 L363 389 L308 416 L284 378 Z M126 191 C135 264 160 321 217 321 C228 321 239 320 248 318 L121 110 C119 131 122 156 126 191 L126 191 Z M288 267 C291 245 287 218 283 185 C274 114 249 56 192 56 C179 56 169 57 162 59 L288 267 Z " />
<glyph glyph-name="ugrave" unicode="&#xf9;" horiz-adv-x="392" d="M311 378 L288 189 C282 110 227 58 183 58 C147 58 137 83 142 125 L173 378 L86 378 L55 123 C49 77 56 43 74 22 C91 3 115 -6 149 -6 C203 -6 258 17 292 75 L291 7 L352 0 L398 378 L311 378 L311 378 Z M295 379 L337 418 L226 561 L162 507 C187 470 220 439 247 415 C263 403 280 391 295 379 L295 379 Z " />
<glyph glyph-name="uacute" unicode="&#xfa;" horiz-adv-x="392" d="M311 378 L288 189 C282 110 227 58 183 58 C147 58 137 83 142 125 L173 378 L86 378 L55 123 C49 77 56 43 74 22 C91 3 115 -6 149 -6 C203 -6 258 17 292 75 L291 7 L352 0 L398 378 L311 378 L311 378 Z M154 425 L186 386 C204 397 223 410 241 422 C274 445 315 477 350 514 L298 568 L154 425 Z " />
<glyph glyph-name="ucircumflex" unicode="&#xfb;" horiz-adv-x="392" d="M311 378 L288 189 C282 110 227 58 183 58 C147 58 137 83 142 125 L173 378 L86 378 L55 123 C49 77 56 43 74 22 C91 3 115 -6 149 -6 C203 -6 258 17 292 75 L291 7 L352 0 L398 378 L311 378 L311 378 Z M109 438 L137 398 C148 403 160 410 173 418 C195 432 223 450 255 475 C280 451 305 432 323 418 C334 410 345 403 353 398 L391 438 L268 579 L109 438 Z " />
<glyph glyph-name="udieresis" unicode="&#xfc;" horiz-adv-x="392" d="M311 378 L288 189 C282 110 227 58 183 58 C147 58 137 83 142 125 L173 378 L86 378 L55 123 C49 77 56 43 74 22 C91 3 115 -6 149 -6 C203 -6 258 17 292 75 L291 7 L352 0 L398 378 L311 378 L311 378 Z M225 475 C228 502 215 522 185 522 C153 522 134 502 131 473 C127 446 142 426 171 426 C203 426 221 447 225 475 L225 475 Z M375 475 C378 502 365 522 335 522 C303 522 284 502 281 473 C277 446 292 426 321 426 C353 426 371 447 375 475 L375 475 Z " />
<glyph glyph-name="yacute" unicode="&#xfd;" horiz-adv-x="392" d="M367 151 L399 378 L310 378 L284 164 C271 100 220 59 182 59 C147 59 137 84 142 126 L173 378 L86 378 L55 123 C49 77 56 43 74 22 C91 3 115 -6 149 -6 C200 -6 252 14 287 68 C259 -85 190 -125 97 -67 L67 -133 C114 -162 184 -181 254 -139 C306 -106 340 -51 366 139 C366 143 367 147 367 151 L367 151 Z M154 425 L186 386 C204 397 223 410 241 422 C274 445 315 477 350 514 L298 568 L154 425 Z " />
<glyph glyph-name="thorn" unicode="&#xfe;" horiz-adv-x="396" d="M186 494 L213 710 L127 710 L40 0 L126 0 L146 166 C166 164 185 161 204 161 C309 161 394 245 408 359 C421 472 386 545 292 545 C245 545 210 528 186 494 L186 494 Z M168 343 C178 415 223 484 271 484 C325 484 322 421 314 352 C305 277 276 222 202 222 C186 222 162 227 154 230 L168 343 Z " />
<glyph glyph-name="ydieresis" unicode="&#xff;" horiz-adv-x="392" d="M367 151 L399 378 L310 378 L284 164 C271 100 220 59 182 59 C147 59 137 84 142 126 L173 378 L86 378 L55 123 C49 77 56 43 74 22 C91 3 115 -6 149 -6 C200 -6 252 14 287 68 C259 -85 190 -125 97 -67 L67 -133 C114 -162 184 -181 254 -139 C306 -106 340 -51 366 139 C366 143 367 147 367 151 L367 151 Z M225 475 C228 502 215 522 185 522 C153 522 134 502 131 473 C127 446 142 426 171 426 C203 426 221 447 225 475 L225 475 Z M375 475 C378 502 365 522 335 522 C303 522 284 502 281 473 C277 446 292 426 321 426 C353 426 371 447 375 475 L375 475 Z " />
<glyph glyph-name="Cacute" unicode="&#x106;" horiz-adv-x="397" d="M389 410 L436 459 C415 487 381 513 320 513 C170 513 86 404 67 246 C46 81 104 -6 239 -6 C277 -6 311 0 335 7 C349 11 362 14 374 20 L361 83 C353 81 309 58 264 58 C168 58 153 149 166 254 C179 360 219 443 303 443 C339 443 363 434 389 410 L389 410 Z M182 625 L214 586 C233 597 251 610 270 622 C303 645 344 677 378 714 L327 768 L182 625 Z " />
<glyph glyph-name="cacute" unicode="&#x107;" horiz-adv-x="322" d="M286 282 L341 328 C321 359 292 378 244 378 C147 378 63 306 47 175 C34 66 73 -6 189 -6 C222 -6 248 0 267 6 C279 9 289 12 298 17 L283 71 C275 67 265 65 256 63 C241 59 222 56 208 56 C173 56 127 71 141 187 C156 302 206 312 236 312 C261 312 273 299 286 282 L286 282 Z M120 425 L152 386 C170 397 189 410 207 422 C240 445 281 477 316 514 L264 568 L120 425 Z " />
<glyph glyph-name="Ccaron" unicode="&#x10c;" horiz-adv-x="397" d="M389 410 L436 459 C415 487 381 513 320 513 C170 513 86 404 67 246 C46 81 104 -6 239 -6 C277 -6 311 0 335 7 C349 11 362 14 374 20 L361 83 C353 81 309 58 264 58 C168 58 153 149 166 254 C179 360 219 443 303 443 C339 443 363 434 389 410 L389 410 Z M183 759 L145 719 L268 578 L427 719 L399 759 C389 754 376 747 363 739 C342 725 312 706 281 682 C255 707 232 725 213 739 C202 747 192 754 183 759 L183 759 Z " />
<glyph glyph-name="ccaron" unicode="&#x10d;" horiz-adv-x="322" d="M286 282 L341 328 C321 359 292 378 244 378 C147 378 63 306 47 175 C34 66 73 -6 189 -6 C222 -6 248 0 267 6 C279 9 289 12 298 17 L283 71 C275 67 265 65 256 63 C241 59 222 56 208 56 C173 56 127 71 141 187 C156 302 206 312 236 312 C261 312 273 299 286 282 L286 282 Z M121 567 L83 527 L207 386 L365 527 L337 567 C328 562 315 555 302 547 C280 533 251 514 220 490 C194 515 170 533 152 547 C141 555 131 562 121 567 L121 567 Z " />
<glyph glyph-name="Dcaron" unicode="&#x10e;" horiz-adv-x="476" d="M102 508 L40 0 L177 -1 C356 -1 449 91 469 258 C490 424 420 510 250 510 C209 510 160 508 102 508 L102 508 Z M184 442 C194 442 208 442 231 442 C350 442 384 366 370 250 C355 129 302 67 197 67 C164 67 149 67 138 67 L184 442 Z M223 759 L185 719 L308 578 L467 719 L439 759 C429 754 416 747 403 739 C382 725 352 706 321 682 C295 707 272 725 253 739 C242 747 232 754 223 759 L223 759 Z " />
<glyph glyph-name="Edotaccent" unicode="&#x116;" horiz-adv-x="374" d="M102 508 L40 0 L353 0 L361 69 L137 69 L157 231 L332 231 L340 299 L165 299 L183 440 L396 440 L404 508 L102 508 Z M322 657 C326 690 310 713 275 713 C236 713 215 688 211 655 C207 625 223 599 258 599 C297 599 318 625 322 657 L322 657 Z " />
<glyph glyph-name="edotaccent" unicode="&#x117;" horiz-adv-x="354" d="M247 378 C145 378 57 309 41 175 C28 66 65 -6 181 -6 C220 -6 255 2 282 12 C298 17 312 22 326 29 L311 82 C298 77 285 72 272 68 C250 62 222 56 200 56 C142 56 129 94 129 139 C261 141 350 201 359 273 C366 332 336 378 247 378 L247 378 Z M132 193 C143 253 167 320 233 320 C260 320 277 302 273 273 C269 238 227 196 132 193 L132 193 Z M288 457 C292 490 275 513 240 513 C201 513 180 488 176 455 C173 425 188 399 223 399 C262 399 284 425 288 457 L288 457 Z " />
<glyph glyph-name="Ecaron" unicode="&#x11a;" horiz-adv-x="374" d="M102 508 L40 0 L353 0 L361 69 L137 69 L157 231 L332 231 L340 299 L165 299 L183 440 L396 440 L404 508 L102 508 Z M172 759 L134 719 L257 578 L416 719 L388 759 C378 754 365 747 352 739 C331 725 301 706 270 682 C244 707 221 725 202 739 C191 747 181 754 172 759 L172 759 Z " />
<glyph glyph-name="ecaron" unicode="&#x11b;" horiz-adv-x="354" d="M247 378 C145 378 57 309 41 175 C28 66 65 -6 181 -6 C220 -6 255 2 282 12 C298 17 312 22 326 29 L311 82 C298 77 285 72 272 68 C250 62 222 56 200 56 C142 56 129 94 129 139 C261 141 350 201 359 273 C366 332 336 378 247 378 L247 378 Z M132 193 C143 253 167 320 233 320 C260 320 277 302 273 273 C269 238 227 196 132 193 L132 193 Z M139 566 L101 526 L225 385 L383 526 L355 566 C345 561 333 554 320 546 C298 532 268 513 238 489 C212 514 188 532 170 546 C159 554 148 561 139 566 L139 566 Z " />
<glyph glyph-name="Lslash" unicode="&#x141;" horiz-adv-x="370" d="M168 68 L191 256 L259 317 L221 362 L202 345 L222 508 L132 508 L101 255 L29 191 L67 146 L90 166 L70 0 L350 0 L358 68 L168 68 L168 68 Z " />
<glyph glyph-name="lslash" unicode="&#x142;" horiz-adv-x="248" d="M234 62 C234 62 204 62 194 62 C177 62 169 70 172 93 L192 254 L263 317 L224 362 L203 343 L227 542 L115 542 L108 485 L134 485 L106 257 L32 191 L70 146 L95 168 L85 85 C79 35 101 0 158 0 L238 0 L234 62 L234 62 Z " />
<glyph glyph-name="Nacute" unicode="&#x143;" horiz-adv-x="470" d="M402 508 L365 154 C350 184 333 216 173 508 L102 508 L40 0 L130 0 L166 363 C182 332 202 294 355 0 L430 0 L492 508 L402 508 Z M218 625 L250 586 C269 597 287 610 306 622 C339 645 380 677 414 714 L363 768 L218 625 Z " />
<glyph glyph-name="nacute" unicode="&#x144;" horiz-adv-x="386" d="M363 351 C346 370 321 379 288 379 C234 379 177 354 144 295 L145 378 L86 378 L40 0 L126 0 L148 182 C154 261 210 311 254 311 C289 311 299 284 294 242 L265 0 L351 0 L381 250 C387 296 381 330 363 351 L363 351 Z M152 425 L184 386 C202 397 221 410 239 422 C272 445 313 477 348 514 L296 568 L152 425 Z " />
<glyph glyph-name="Ncaron" unicode="&#x147;" horiz-adv-x="470" d="M402 508 L365 154 C350 184 333 216 173 508 L102 508 L40 0 L130 0 L166 363 C182 332 202 294 355 0 L430 0 L492 508 L402 508 Z M220 759 L182 719 L305 578 L464 719 L436 759 C426 754 413 747 400 739 C379 725 349 706 318 682 C292 707 269 725 250 739 C239 747 229 754 220 759 L220 759 Z " />
<glyph glyph-name="OE" unicode="&#x152;" horiz-adv-x="653" d="M317 -2 L631 -2 L640 66 L416 66 L436 230 L611 230 L619 299 L444 299 L461 438 L674 438 L683 506 L389 506 C374 509 354 513 327 513 C174 513 92 402 73 245 C53 87 104 -6 254 -6 C273 -6 296 -4 317 -2 L317 -2 Z M326 68 C308 66 287 63 273 63 C171 63 159 152 172 254 C185 361 222 443 309 443 C338 443 357 438 371 433 L326 68 Z " />
<glyph glyph-name="oe" unicode="&#x153;" horiz-adv-x="574" d="M362 351 C338 362 296 377 242 377 C136 377 52 293 39 180 C25 67 60 -6 154 -6 C210 -6 247 17 271 63 C290 18 332 -7 401 -7 C439 -7 474 1 502 10 C517 15 532 20 546 27 L529 81 C517 76 504 72 491 68 C469 61 441 55 420 55 C361 55 348 93 348 139 C480 141 570 201 579 274 C587 334 556 381 466 381 C427 381 393 371 362 351 L362 351 Z M306 299 C282 267 267 227 261 176 C259 158 257 141 258 125 C239 83 209 54 175 54 C121 54 124 118 132 187 C142 262 170 317 244 317 C270 317 289 309 306 299 L306 299 Z M352 194 C362 254 387 321 453 321 C480 321 496 303 492 274 C488 239 447 196 352 194 L352 194 Z " />
<glyph glyph-name="Racute" unicode="&#x154;" horiz-adv-x="423" d="M415 370 C426 458 376 509 253 509 C215 509 160 507 102 507 L40 0 L130 0 L156 219 L177 219 C251 219 269 158 319 0 L417 0 C365 103 368 205 306 244 C375 264 408 311 415 370 L415 370 Z M184 444 L233 444 C306 444 323 403 318 359 C312 310 276 285 221 285 L164 285 L184 444 Z M195 625 L227 586 C246 597 264 610 283 622 C316 645 357 677 391 714 L340 768 L195 625 Z " />
<glyph glyph-name="racute" unicode="&#x155;" horiz-adv-x="267" d="M294 376 C285 378 273 380 262 380 C214 380 172 355 144 299 L146 378 L86 378 L40 0 L126 0 L151 207 C163 260 201 294 237 294 C252 294 260 291 273 286 L307 372 L294 376 L294 376 Z M93 425 L125 386 C143 397 162 410 180 422 C213 445 254 477 289 514 L237 568 L93 425 Z " />
<glyph glyph-name="Rcaron" unicode="&#x158;" horiz-adv-x="423" d="M415 370 C426 458 376 509 253 509 C215 509 160 507 102 507 L40 0 L130 0 L156 219 L177 219 C251 219 269 158 319 0 L417 0 C365 103 368 205 306 244 C375 264 408 311 415 370 L415 370 Z M184 444 L233 444 C306 444 323 403 318 359 C312 310 276 285 221 285 L164 285 L184 444 Z M196 759 L158 719 L281 578 L440 719 L412 759 C402 754 389 747 376 739 C355 725 325 706 294 682 C268 707 245 725 226 739 C215 747 205 754 196 759 L196 759 Z " />
<glyph glyph-name="rcaron" unicode="&#x159;" horiz-adv-x="267" d="M294 376 C285 378 273 380 262 380 C214 380 172 355 144 299 L146 378 L86 378 L40 0 L126 0 L151 207 C163 260 201 294 237 294 C252 294 260 291 273 286 L307 372 L294 376 L294 376 Z M94 559 L56 519 L180 378 L338 519 L310 559 C301 554 288 547 275 539 C253 525 224 506 193 482 C167 507 143 525 125 539 C114 547 104 554 94 559 L94 559 Z " />
<glyph glyph-name="Sacute" unicode="&#x15a;" horiz-adv-x="372" d="M404 473 C389 483 331 513 260 513 C167 513 94 452 85 378 C74 290 123 256 208 218 C251 200 279 183 273 138 C268 92 239 65 186 65 C164 65 135 77 110 88 C95 95 81 103 67 113 L27 43 C45 32 106 -6 184 -6 C293 -6 362 70 372 148 C382 230 339 264 263 296 C204 320 179 346 185 391 C189 426 222 443 258 443 C281 443 305 433 325 425 C337 420 348 414 359 408 L404 473 Z M169 625 L201 586 C220 597 238 610 257 622 C290 645 331 677 365 714 L314 768 L169 625 Z " />
<glyph glyph-name="sacute" unicode="&#x15b;" horiz-adv-x="292" d="M280 369 C259 377 231 384 201 384 C129 384 68 336 61 279 C54 220 80 187 154 158 C188 143 204 122 201 96 C198 73 181 58 146 58 C126 58 104 67 84 76 C73 81 62 87 52 94 L16 30 C28 23 42 17 56 12 C80 3 113 -6 146 -6 C230 -6 284 49 291 106 C298 170 263 197 204 221 C165 237 146 260 150 287 C152 309 173 320 196 320 C215 320 236 314 253 308 C262 304 271 300 281 295 L314 355 C304 360 292 365 280 369 L280 369 Z M105 425 L137 386 C155 397 174 410 192 422 C225 445 266 477 301 514 L249 568 L105 425 Z " />
<glyph glyph-name="Scaron" unicode="&#x160;" horiz-adv-x="372" d="M404 473 C389 483 331 513 260 513 C167 513 94 452 85 378 C74 290 123 256 208 218 C251 200 279 183 273 138 C268 92 239 65 186 65 C164 65 135 77 110 88 C95 95 81 103 67 113 L27 43 C45 32 106 -6 184 -6 C293 -6 362 70 372 148 C382 230 339 264 263 296 C204 320 179 346 185 391 C189 426 222 443 258 443 C281 443 305 433 325 425 C337 420 348 414 359 408 L404 473 Z M168 759 L130 719 L253 578 L412 719 L384 759 C374 754 361 747 348 739 C327 725 297 706 266 682 C240 707 217 725 198 739 C187 747 177 754 168 759 L168 759 Z " />
<glyph glyph-name="scaron" unicode="&#x161;" horiz-adv-x="292" d="M280 369 C259 377 231 384 201 384 C129 384 68 336 61 279 C54 220 80 187 154 158 C188 143 204 122 201 96 C198 73 181 58 146 58 C126 58 104 67 84 76 C73 81 62 87 52 94 L16 30 C28 23 42 17 56 12 C80 3 113 -6 146 -6 C230 -6 284 49 291 106 C298 170 263 197 204 221 C165 237 146 260 150 287 C152 309 173 320 196 320 C215 320 236 314 253 308 C262 304 271 300 281 295 L314 355 C304 360 292 365 280 369 L280 369 Z M103 559 L65 519 L189 378 L347 519 L319 559 C310 554 297 547 284 539 C262 525 233 506 202 482 C176 507 152 525 134 539 C123 547 113 554 103 559 L103 559 Z " />
<glyph glyph-name="Tcaron" unicode="&#x164;" horiz-adv-x="379" d="M79 508 L64 440 L199 440 L145 0 L234 0 L288 440 L420 440 L423 508 L79 508 Z M174 759 L136 719 L259 578 L418 719 L390 759 C380 754 367 747 354 739 C333 725 303 706 272 682 C246 707 223 725 204 739 C193 747 183 754 174 759 L174 759 Z " />
<glyph glyph-name="uring" unicode="&#x16f;" horiz-adv-x="392" d="M311 378 L288 189 C282 110 227 58 183 58 C147 58 137 83 142 125 L173 378 L86 378 L55 123 C49 77 56 43 74 22 C91 3 115 -6 149 -6 C203 -6 258 17 292 75 L291 7 L352 0 L398 378 L311 378 L311 378 Z M263 538 C219 538 183 507 177 463 C172 420 199 387 242 387 C286 387 322 420 327 463 C333 507 306 538 263 538 L263 538 Z M248 424 C227 424 217 440 219 463 C222 488 235 500 257 500 C278 500 288 486 285 463 C282 439 269 424 248 424 L248 424 Z " />
<glyph glyph-name="Ydieresis" unicode="&#x178;" horiz-adv-x="418" d="M186 195 L163 0 L253 0 L276 191 L476 508 L379 508 L243 280 L165 508 L67 508 L186 195 Z M262 675 C266 702 252 722 222 722 C190 722 172 702 168 673 C165 646 179 626 208 626 C240 626 259 647 262 675 L262 675 Z M412 675 C416 702 402 722 372 722 C340 722 322 702 318 673 C315 646 329 626 358 626 C390 626 409 647 412 675 L412 675 Z " />
<glyph glyph-name="Zacute" unicode="&#x179;" horiz-adv-x="380" d="M20 0 L360 0 L368 70 L143 69 L406 454 L408 508 L94 508 L85 438 L293 440 L26 54 L20 0 Z M173 625 L205 586 C224 597 242 610 261 622 C294 645 335 677 369 714 L318 768 L173 625 Z " />
<glyph glyph-name="Zdotaccent" unicode="&#x17b;" horiz-adv-x="380" d="M20 0 L360 0 L368 70 L143 69 L406 454 L408 508 L94 508 L85 438 L293 440 L26 54 L20 0 Z M325 657 C329 690 313 713 278 713 C239 713 218 688 214 655 C210 625 226 599 261 599 C300 599 321 625 325 657 L325 657 Z " />
<glyph glyph-name="zdotaccent" unicode="&#x17c;" horiz-adv-x="326" d="M26 0 L298 0 L305 62 L137 60 L332 326 L331 378 L78 378 L70 315 L229 317 L32 51 L26 0 Z M274 457 C278 490 261 513 226 513 C187 513 166 488 162 455 C159 425 174 399 209 399 C248 399 270 425 274 457 L274 457 Z " />
<glyph glyph-name="Zcaron" unicode="&#x17d;" horiz-adv-x="380" d="M20 0 L360 0 L368 70 L143 69 L406 454 L408 508 L94 508 L85 438 L293 440 L26 54 L20 0 Z M172 759 L134 719 L257 578 L416 719 L388 759 C378 754 365 747 352 739 C331 725 301 706 270 682 C244 707 221 725 202 739 C191 747 181 754 172 759 L172 759 Z " />
<glyph glyph-name="zcaron" unicode="&#x17e;" horiz-adv-x="326" d="M26 0 L298 0 L305 62 L137 60 L332 326 L331 378 L78 378 L70 315 L229 317 L32 51 L26 0 Z M120 559 L82 519 L206 378 L364 519 L336 559 C327 554 314 547 301 539 C279 525 250 506 219 482 C193 507 169 525 151 539 C140 547 130 554 120 559 L120 559 Z " />
<glyph glyph-name="circumflex" unicode="&#x2c6;" horiz-adv-x="342" d="M83 438 L111 398 C122 403 134 410 147 418 C169 432 197 450 229 475 C254 451 279 432 297 418 C308 410 319 403 327 398 L365 438 L242 579 L83 438 L83 438 Z " />
<glyph glyph-name="caron" unicode="&#x2c7;" horiz-adv-x="348" d="M137 559 L99 519 L223 378 L381 519 L353 559 C344 554 331 547 318 539 C296 525 267 506 236 482 C210 507 186 525 168 539 C157 547 147 554 137 559 L137 559 Z " />
<glyph glyph-name="dotaccent" unicode="&#x2d9;" horiz-adv-x="193" d="M207 457 C211 490 194 513 159 513 C120 513 99 488 95 455 C92 425 107 399 142 399 C181 399 203 425 207 457 L207 457 Z " />
<glyph glyph-name="ring" unicode="&#x2da;" horiz-adv-x="212" d="M173 538 C129 538 93 507 87 463 C82 420 109 387 152 387 C196 387 232 420 237 463 C243 507 216 538 173 538 L173 538 Z M158 424 C137 424 127 440 129 463 C132 488 145 500 167 500 C188 500 198 486 195 463 C192 439 179 424 158 424 L158 424 Z " />
<glyph glyph-name="tilde" unicode="&#x2dc;" horiz-adv-x="335" d="M110 506 L103 450 C108 451 114 453 120 455 C132 457 147 460 164 460 C201 460 240 445 277 445 C294 445 309 448 321 454 C326 456 333 459 339 463 L346 519 C340 517 334 515 329 514 C316 511 302 508 285 508 C248 508 209 523 172 523 C155 523 139 520 128 514 C121 512 115 509 110 506 L110 506 Z " />
<glyph glyph-name="quoteleft" unicode="&#x2018;" horiz-adv-x="183" d="M154 303 C160 306 163 308 167 310 C166 348 134 408 221 469 L194 513 C137 486 81 434 71 353 C67 320 80 297 115 297 C133 297 145 300 154 303 L154 303 Z " />
<glyph glyph-name="quoteright" unicode="&#x2019;" horiz-adv-x="237" d="M150 506 C143 504 140 502 137 500 C137 462 170 401 82 341 L109 296 C167 324 223 376 233 457 C237 490 223 513 188 513 C170 513 158 509 150 506 L150 506 Z " />
<glyph glyph-name="quotedblleft" unicode="&#x201c;" horiz-adv-x="339" d="M309 303 C314 305 318 308 321 310 C320 347 288 408 375 469 L348 513 C291 485 235 434 225 353 C221 320 234 296 269 296 C287 296 299 300 309 303 L309 303 Z M159 303 C164 305 168 308 171 310 C170 347 138 408 225 469 L198 513 C141 485 85 434 75 353 C71 320 84 296 119 296 C137 296 149 300 159 303 L159 303 Z " />
<glyph glyph-name="quotedblright" unicode="&#x201d;" horiz-adv-x="348" d="M138 507 L138 507 C132 504 128 502 126 500 C125 462 159 401 70 341 L98 297 C155 324 211 376 221 457 C225 490 211 513 176 513 C158 513 146 510 138 507 L138 507 Z M288 507 C282 504 278 502 276 500 C275 462 309 401 220 341 L248 297 C305 324 361 376 371 457 C375 490 361 513 326 513 C308 513 296 510 288 507 L288 507 Z " />
<glyph glyph-name="ellipsis" unicode="&#x2026;" horiz-adv-x="600" d="M164 52 C168 85 152 108 117 108 C78 108 57 82 53 49 C49 19 65 -6 100 -6 C139 -6 160 19 164 52 L164 52 Z M364 52 C368 85 352 108 317 108 C278 108 257 82 253 49 C249 19 265 -6 300 -6 C339 -6 360 19 364 52 L364 52 Z M564 52 C568 85 552 108 517 108 C478 108 457 82 453 49 C449 19 465 -6 500 -6 C539 -6 560 19 564 52 L564 52 Z " />
<glyph glyph-name="guilsinglleft" unicode="&#x2039;" horiz-adv-x="249" d="M207 136 L248 177 L165 300 L278 422 L247 463 C225 446 203 428 182 409 C145 377 100 337 66 300 C91 263 126 223 155 190 C171 171 189 153 207 136 L207 136 Z " />
<glyph glyph-name="guilsinglright" unicode="&#x203a;" horiz-adv-x="260" d="M114 463 L73 422 L156 300 L43 177 L74 136 C97 154 118 171 141 190 C178 223 222 263 256 300 C231 337 197 377 168 409 C150 428 133 446 114 463 L114 463 Z " />
<glyph glyph-name="Euro" unicode="&#x20ac;" horiz-adv-x="405" d="M87 324 L70 256 L106 256 C105 249 104 243 103 236 C102 227 101 218 100 210 L74 212 L56 143 L102 143 C116 49 174 0 258 0 C293 0 324 6 348 12 C361 16 374 19 384 24 L373 86 C365 84 324 67 281 67 C237 67 212 96 200 143 L330 143 L349 210 L195 210 C195 221 196 232 197 244 L199 256 L359 256 L378 322 L216 322 C238 380 273 419 318 419 C350 419 371 406 391 382 L442 436 C422 462 391 487 334 487 C237 487 160 422 123 322 L87 324 L87 324 Z " />
</font>
</svg>
