<?xml version="1.0" encoding="UTF-8"?>
<svg xmlns="http://www.w3.org/2000/svg" xmlns:xlink="http://www.w3.org/1999/xlink" version="1.2" >
<font id="Oliviare">
<font-face  font-family="Oliviare" units-per-em="1000" ascent="750" descent="-250" font-style="normal" font-weight="400" font-stretch="normal" cap-height="700" x-height="500" underline-position="-75" underline-thickness="50" />
<missing-glyph  horiz-adv-x="195" d="" />
<glyph glyph-name="NULL" d="" />
<glyph glyph-name="CR" unicode="&#xd;" horiz-adv-x="195" d="" />
<glyph glyph-name="space" unicode="&#x20;" horiz-adv-x="195" d="" />
<glyph glyph-name="exclam" unicode="&#x21;" horiz-adv-x="172" d="M140 52 C140 85 120 108 85 108 C47 108 28 82 28 49 C28 19 48 -6 83 -6 C121 -6 140 19 140 52 L140 52 Z M40 510 L48 167 L122 167 L136 510 L40 510 Z " />
<glyph glyph-name="quotedbl" unicode="&#x22;" horiz-adv-x="338" d="M76 507 C71 504 67 502 65 500 C69 462 110 401 29 341 L62 297 C116 324 165 376 165 457 C165 490 149 513 114 513 C96 513 84 510 76 507 L76 507 Z M226 507 C221 504 217 502 215 500 C219 462 260 401 179 341 L212 297 C266 324 315 376 315 457 C315 490 299 513 264 513 C246 513 234 510 226 507 L226 507 Z " />
<glyph glyph-name="numbersign" unicode="&#x23;" horiz-adv-x="460" d="M360 445 L300 445 L286 343 L194 343 L208 445 L148 445 L134 343 L51 343 L43 284 L127 284 L112 167 L34 167 L26 107 L104 107 L91 0 L151 0 L164 107 L256 107 L243 0 L303 0 L316 107 L396 107 L403 167 L324 167 L339 284 L413 284 L421 343 L347 343 L360 445 Z M172 167 L187 284 L279 284 L264 167 L172 167 Z " />
<glyph glyph-name="dollar" unicode="&#x24;" horiz-adv-x="342" d="M205 582 L143 582 L143 523 C74 511 28 463 28 406 C28 334 78 298 161 266 C206 250 232 240 232 200 C232 159 208 138 158 138 C138 138 110 148 87 159 C74 166 59 172 45 181 L13 114 C29 103 79 76 143 70 L143 0 L205 0 L205 73 C280 89 320 147 320 206 C320 276 277 306 203 336 C145 358 117 376 117 416 C117 448 148 460 181 460 C202 460 228 452 248 444 C260 439 272 434 283 429 L314 490 C302 498 257 519 205 525 L205 582 L205 582 Z " />
<glyph glyph-name="percent" unicode="&#x25;" horiz-adv-x="629" d="M257 315 C257 396 224 445 146 445 C68 445 30 388 30 309 C30 229 63 180 141 180 C219 180 257 239 257 315 L257 315 Z M105 314 C105 359 111 392 141 392 C176 392 182 356 182 311 C182 266 176 233 146 233 C111 233 105 269 105 314 L105 314 Z M384 442 L179 2 L250 2 L455 442 L384 442 Z M602 135 C602 216 569 265 491 265 C413 265 376 208 376 129 C376 49 409 0 487 0 C565 0 602 59 602 135 L602 135 Z M450 134 C450 179 457 212 487 212 C521 212 528 176 528 131 C528 86 521 53 491 53 C457 53 450 89 450 134 L450 134 Z " />
<glyph glyph-name="ampersand" unicode="&#x26;" horiz-adv-x="458" d="M284 344 L346 344 C338 419 269 445 218 445 C126 445 90 393 90 339 C90 317 96 294 107 271 C72 247 25 200 25 126 C25 42 93 -6 162 -6 C228 -6 276 21 315 57 C339 37 364 16 390 -5 L434 53 L361 116 C381 141 408 183 416 220 L339 221 C331 199 323 180 309 162 C232 231 179 286 179 335 C179 359 194 375 225 375 C281 374 284 344 284 344 L284 344 Z M144 216 C174 177 216 141 261 103 C237 82 213 69 186 69 C141 69 114 95 114 137 C114 175 130 201 144 216 L144 216 Z " />
<glyph glyph-name="quotesingle" unicode="&#x27;" horiz-adv-x="210" d="M88 506 C82 504 79 502 76 500 C81 462 121 401 41 341 L73 296 C128 324 177 376 177 457 C177 490 161 513 126 513 C108 513 96 509 88 506 L88 506 Z " />
<glyph glyph-name="parenleft" unicode="&#x28;" horiz-adv-x="285" d="M201 688 C146 649 43 538 43 345 C43 148 146 38 201 0 L248 52 C203 87 128 182 128 344 C128 505 203 600 248 636 L201 688 L201 688 Z " />
<glyph glyph-name="parenright" unicode="&#x29;" horiz-adv-x="286" d="M85 0 C139 38 243 148 243 345 C243 538 139 649 85 688 L38 636 C82 600 157 505 157 344 C157 182 82 87 38 52 L85 0 L85 0 Z " />
<glyph glyph-name="asterisk" unicode="&#x2a;" horiz-adv-x="340" d="M205 513 L133 513 L139 429 L62 462 L40 393 L123 373 L65 307 L124 264 L170 339 L216 264 L275 307 L218 373 L303 393 L281 462 L198 427 L205 513 L205 513 Z " />
<glyph glyph-name="plus" unicode="&#x2b;" horiz-adv-x="393" d="M49 300 L49 234 L160 234 L160 115 L231 115 L231 234 L343 234 L343 300 L231 300 L231 414 L160 414 L160 300 L49 300 L49 300 Z " />
<glyph glyph-name="comma" unicode="&#x2c;" horiz-adv-x="194" d="M81 49 C76 47 72 45 70 42 C75 5 115 -56 35 -117 L67 -161 C121 -133 171 -81 171 0 C171 33 155 56 120 56 C102 56 90 52 81 49 L81 49 Z " />
<glyph glyph-name="hyphen" unicode="&#x2d;" horiz-adv-x="323" d="M55 300 L55 237 L268 237 L268 300 L55 300 L55 300 Z " />
<glyph glyph-name="period" unicode="&#x2e;" horiz-adv-x="200" d="M158 52 C158 85 139 108 104 108 C65 108 47 82 47 49 C47 19 66 -6 101 -6 C140 -6 158 19 158 52 L158 52 Z " />
<glyph glyph-name="slash" unicode="&#x2f;" horiz-adv-x="370" d="M257 642 L18 0 L108 0 L347 642 L257 642 L257 642 Z " />
<glyph glyph-name="zero" unicode="0" horiz-adv-x="428" d="M390 243 C390 394 342 480 218 480 C89 480 35 381 35 231 C35 79 85 -6 208 -6 C338 -6 390 94 390 243 L390 243 Z M129 240 C129 345 146 413 208 413 C283 413 296 334 296 234 C296 129 280 59 217 59 C142 59 129 140 129 240 L129 240 Z " />
<glyph glyph-name="one" unicode="1" horiz-adv-x="287" d="M237 478 L172 478 C116 418 71 401 22 378 L50 326 C80 335 124 351 150 377 L150 0 L237 0 L237 478 L237 478 Z " />
<glyph glyph-name="two" unicode="2" horiz-adv-x="381" d="M34 439 L63 380 C110 400 140 415 179 415 C213 415 236 391 236 352 C236 302 212 269 134 179 C117 160 48 89 31 69 L31 0 L344 0 L344 69 L141 69 L209 144 C284 228 331 287 331 352 C331 451 269 482 197 482 C138 482 74 458 34 439 L34 439 Z " />
<glyph glyph-name="three" unicode="3" horiz-adv-x="359" d="M309 375 C309 437 263 480 175 480 C114 480 75 464 26 443 L55 384 C102 401 125 413 163 413 C198 413 218 397 218 366 C218 312 103 272 103 272 L103 213 C107 213 142 222 176 222 C211 222 242 190 242 145 C242 87 199 59 154 59 C119 59 87 75 41 96 L41 33 C68 9 112 -6 157 -6 C289 -6 331 71 331 146 C331 201 296 254 233 273 C263 287 309 316 309 375 L309 375 Z " />
<glyph glyph-name="four" unicode="4" horiz-adv-x="381" d="M306 197 L306 478 L220 478 L11 180 L11 131 L220 131 L220 0 L306 0 L306 131 L366 131 L366 197 L306 197 L306 197 Z M104 197 L220 371 L220 197 L104 197 L104 197 Z " />
<glyph glyph-name="five" unicode="5" horiz-adv-x="352" d="M330 153 C330 234 278 301 194 301 C148 301 127 293 119 287 L134 407 L293 407 L293 476 L59 476 L33 240 L69 213 C74 214 104 234 162 234 C207 234 236 205 236 153 C236 90 214 59 157 59 C121 59 83 71 44 96 L44 33 C69 11 107 -4 159 -6 C285 -12 330 70 330 153 L330 153 Z " />
<glyph glyph-name="six" unicode="6" horiz-adv-x="390" d="M311 398 L311 458 C302 467 275 478 238 478 C92 478 35 365 35 236 C35 95 77 -6 202 -6 C310 -6 369 62 369 152 C369 251 315 308 228 308 C177 308 145 281 127 260 C129 342 151 411 235 411 C261 411 288 406 311 398 L311 398 Z M127 208 C133 214 171 242 210 242 C262 242 281 203 281 151 C281 96 260 58 209 58 C153 58 131 105 127 208 L127 208 Z " />
<glyph glyph-name="seven" unicode="7" horiz-adv-x="339" d="M318 478 L17 478 L17 409 L219 409 L74 0 L167 0 L318 423 L318 478 L318 478 Z " />
<glyph glyph-name="eight" unicode="8" horiz-adv-x="359" d="M23 117 C23 33 96 -6 182 -6 C272 -6 342 44 342 122 C342 176 297 223 249 249 C290 277 326 315 326 367 C326 431 264 480 186 480 C102 480 36 428 36 364 C36 310 70 270 115 244 C69 216 23 178 23 117 L23 117 Z M187 53 C139 53 108 83 108 120 C108 163 145 191 183 213 C213 191 253 155 253 119 C253 83 225 53 187 53 L187 53 Z M183 419 C216 419 240 397 240 366 C240 321 212 300 183 283 C155 299 121 326 121 368 C121 401 149 419 183 419 L183 419 Z " />
<glyph glyph-name="nine" unicode="9" horiz-adv-x="420" d="M97 74 L97 14 C114 2 151 -6 170 -6 C316 -6 373 107 373 235 C373 377 331 478 206 478 C98 478 39 410 39 320 C39 221 93 164 180 164 C231 164 264 190 280 210 C278 128 258 60 173 60 C147 60 120 65 97 74 L97 74 Z M280 263 C274 257 237 229 198 229 C146 229 127 270 127 321 C127 375 148 413 199 413 C255 413 277 366 280 263 L280 263 Z " />
<glyph glyph-name="colon" unicode="&#x3a;" horiz-adv-x="195" d="M154 395 C154 428 134 451 99 451 C61 451 42 426 42 393 C42 363 62 337 97 337 C135 337 154 363 154 395 L154 395 Z M154 119 C154 152 134 175 99 175 C61 175 42 149 42 116 C42 86 62 61 97 61 C135 61 154 86 154 119 L154 119 Z " />
<glyph glyph-name="semicolon" unicode="&#x3b;" horiz-adv-x="199" d="M70 168 C65 166 61 164 59 161 C63 124 104 63 24 2 L56 -42 C110 -14 159 38 159 119 C159 152 144 175 108 175 C90 175 79 171 70 168 L70 168 Z M158 395 C158 428 138 451 103 451 C65 451 46 426 46 393 C46 363 66 337 101 337 C139 337 158 363 158 395 L158 395 Z " />
<glyph glyph-name="less" unicode="&#x3c;" horiz-adv-x="364" d="M309 81 L339 151 L144 239 C156 244 174 250 334 324 L304 394 L50 270 L50 207 L309 81 L309 81 Z " />
<glyph glyph-name="equal" unicode="&#x3d;" horiz-adv-x="351" d="M39 330 L39 263 L311 263 L311 330 L39 330 Z M39 199 L39 132 L311 132 L311 199 L39 199 Z " />
<glyph glyph-name="greater" unicode="&#x3e;" horiz-adv-x="363" d="M25 139 L55 69 L313 195 L313 258 L59 382 L29 312 L220 227 C205 222 187 214 25 139 L25 139 Z " />
<glyph glyph-name="question" unicode="&#x3f;" horiz-adv-x="322" d="M292 411 C292 491 237 523 150 523 C99 523 57 504 15 486 L45 426 C88 446 106 457 138 457 C172 457 195 436 195 400 C195 340 89 278 89 173 L153 156 C164 193 188 225 216 261 C252 306 292 353 292 411 L292 411 Z M180 58 C180 91 161 114 126 114 C87 114 69 88 69 55 C69 25 88 0 123 0 C162 0 180 25 180 58 L180 58 Z " />
<glyph glyph-name="at" unicode="&#x40;" horiz-adv-x="690" d="M477 279 L477 438 C461 442 446 445 430 448 C404 454 371 458 344 458 C247 458 182 382 182 279 C182 178 221 112 306 112 C366 112 398 141 413 198 C426 147 454 112 509 112 C572 112 634 186 640 303 C650 490 519 579 375 579 C214 579 48 469 48 265 C48 55 180 -6 314 -6 C353 -6 390 2 418 11 C434 16 450 22 465 29 L443 82 C430 76 416 71 402 67 C377 59 344 53 314 53 C152 53 112 160 112 268 C112 433 241 519 367 519 C485 519 585 450 576 299 C572 235 548 172 515 172 C481 172 477 222 477 279 L477 279 Z M396 294 C394 229 362 169 319 169 C275 169 267 224 267 286 C267 354 293 402 352 402 C366 402 388 397 396 394 L396 294 Z " />
<glyph glyph-name="A" unicode="A" horiz-adv-x="472" d="M200 508 L5 0 L95 0 L142 133 L324 133 L371 0 L467 0 L284 476 C268 519 243 510 200 508 L200 508 Z M301 200 L166 200 C197 286 220 363 234 408 C246 366 270 288 301 200 L301 200 Z " />
<glyph glyph-name="B" unicode="B" horiz-adv-x="402" d="M40 508 L40 0 L187 0 C319 0 385 57 385 143 C385 198 352 241 291 265 C334 283 352 329 352 378 C352 462 288 510 190 510 C153 510 96 508 40 508 L40 508 Z M129 445 C141 445 158 445 179 445 C252 445 273 406 273 367 C273 325 249 292 186 292 L129 292 L129 445 Z M129 228 C144 228 162 228 185 228 C264 228 288 187 288 145 C288 99 262 65 193 65 L129 65 L129 228 Z " />
<glyph glyph-name="C" unicode="C" horiz-adv-x="397" d="M339 410 L380 459 C356 487 319 513 258 513 C108 513 37 404 37 246 C37 81 105 -6 240 -6 C278 -6 311 0 335 7 C348 11 361 14 372 20 L351 83 C344 81 302 58 257 58 C161 58 135 149 135 254 C135 360 165 443 249 443 C285 443 310 434 339 410 L339 410 Z " />
<glyph glyph-name="D" unicode="D" horiz-adv-x="476" d="M40 508 L40 0 L178 -1 C357 -1 438 91 438 258 C438 424 358 510 188 510 C147 510 98 508 40 508 L40 508 Z M130 442 C140 442 154 442 177 442 C296 442 340 366 340 250 C340 129 294 67 189 67 C156 67 141 67 130 67 L130 442 Z " />
<glyph glyph-name="E" unicode="E" horiz-adv-x="374" d="M40 508 L40 0 L353 0 L353 69 L129 69 L129 231 L304 231 L304 299 L129 299 L129 440 L342 440 L342 508 L40 508 L40 508 Z " />
<glyph glyph-name="F" unicode="F" horiz-adv-x="355" d="M40 508 L40 0 L130 0 L130 232 L305 232 L305 300 L130 300 L130 440 L342 440 L342 508 L40 508 L40 508 Z " />
<glyph glyph-name="G" unicode="G" horiz-adv-x="447" d="M277 246 L277 192 L333 192 L333 178 C333 108 279 65 233 65 C162 65 135 140 135 253 C135 358 164 443 249 443 C288 443 327 428 354 402 L398 459 C372 486 326 513 259 513 C108 513 37 401 37 246 C37 95 90 -6 216 -6 C273 -6 319 17 342 59 C343 57 343 22 343 5 L421 0 L421 192 L421 246 L277 246 L277 246 Z " />
<glyph glyph-name="H" unicode="H" horiz-adv-x="469" d="M339 231 L339 0 L429 0 L429 508 L339 508 L339 298 L130 298 L130 508 L40 508 L40 0 L130 0 L130 231 L339 231 L339 231 Z " />
<glyph glyph-name="I" unicode="I" horiz-adv-x="169" d="M39 508 L39 0 L129 0 L129 508 L39 508 L39 508 Z " />
<glyph glyph-name="J" unicode="J" horiz-adv-x="255" d="M215 508 L125 508 L125 138 C125 138 125 138 125 137 C124 128 118 75 20 75 L20 0 C20 0 74 -3 125 16 C171 33 215 68 215 138 L215 508 L215 508 Z " />
<glyph glyph-name="K" unicode="K" horiz-adv-x="452" d="M437 0 L228 283 L409 508 L305 508 L130 288 L130 508 L40 508 L40 0 L130 0 L130 283 L332 0 L437 0 L437 0 Z " />
<glyph glyph-name="L" unicode="L" horiz-adv-x="340" d="M40 508 L40 0 L320 0 L320 69 L130 69 L130 508 L40 508 L40 508 Z " />
<glyph glyph-name="M" unicode="M" horiz-adv-x="600" d="M475 365 C476 316 475 0 475 0 L560 0 L560 508 L459 508 L459 506 L300 114 L141 508 L40 508 L40 0 L125 0 C125 0 125 313 125 365 C143 315 270 0 270 0 L333 0 C333 0 457 316 475 365 L475 365 Z " />
<glyph glyph-name="N" unicode="N" horiz-adv-x="470" d="M340 508 L347 154 C328 184 307 216 111 508 L40 508 L40 0 L130 0 L122 363 C142 332 166 294 355 0 L430 0 L430 508 L340 508 L340 508 Z " />
<glyph glyph-name="O" unicode="O" horiz-adv-x="499" d="M466 257 C466 415 404 513 254 513 C101 513 32 403 32 246 C32 87 94 -6 244 -6 C397 -6 466 101 466 257 L466 257 Z M129 254 C129 362 157 443 243 443 C345 443 368 350 368 249 C368 143 341 64 254 64 C152 64 129 152 129 254 L129 254 Z " />
<glyph glyph-name="P" unicode="P" horiz-adv-x="391" d="M40 507 L40 0 L130 0 L130 198 L182 198 C306 198 370 263 370 356 C370 451 313 509 191 509 C155 509 97 507 40 507 L40 507 Z M130 444 C142 444 159 444 180 444 C252 444 274 399 274 353 C274 303 249 265 187 265 L130 265 L130 444 Z " />
<glyph glyph-name="Q" unicode="Q" horiz-adv-x="494" d="M500 -36 L469 28 C395 -7 342 -21 295 -2 C413 20 466 119 466 257 C466 415 404 513 254 513 C101 513 32 403 32 246 C32 121 71 36 161 6 C291 -123 415 -94 500 -36 L500 -36 Z M244 443 C346 443 369 350 369 249 C369 143 341 64 255 64 C153 64 130 152 130 254 C130 362 157 443 244 443 L244 443 Z " />
<glyph glyph-name="R" unicode="R" horiz-adv-x="423" d="M370 370 C370 458 314 509 191 509 C153 509 98 507 40 507 L40 0 L130 0 L130 219 L151 219 C225 219 250 158 319 0 L417 0 C353 103 343 205 277 244 C343 264 370 311 370 370 L370 370 Z M130 444 L179 444 C252 444 274 403 274 359 C274 310 242 285 187 285 L130 285 L130 444 Z " />
<glyph glyph-name="S" unicode="S" horiz-adv-x="372" d="M346 473 C330 483 269 513 198 513 C105 513 39 452 39 378 C39 290 92 256 182 218 C227 200 257 183 257 138 C257 92 232 65 179 65 C157 65 126 77 100 88 C84 95 69 103 54 113 L22 43 C42 32 107 -6 185 -6 C294 -6 354 70 354 148 C354 230 307 264 227 296 C165 320 137 346 137 391 C137 426 168 443 204 443 C227 443 252 433 273 425 C286 420 298 414 309 408 L346 473 L346 473 Z " />
<glyph glyph-name="T" unicode="T" horiz-adv-x="379" d="M17 508 L10 440 L145 440 L145 0 L234 0 L234 440 L366 440 L361 508 L17 508 L17 508 Z " />
<glyph glyph-name="U" unicode="U" horiz-adv-x="467" d="M129 508 L40 508 L40 186 C40 82 87 -6 228 -6 C377 -6 427 82 427 186 L427 508 L337 508 L337 193 C337 112 305 64 238 64 C172 64 129 100 129 193 L129 508 L129 508 Z " />
<glyph glyph-name="V" unicode="V" horiz-adv-x="456" d="M264 0 L453 508 L361 508 L229 120 C217 159 195 232 100 508 L3 508 L192 0 L264 0 L264 0 Z " />
<glyph glyph-name="W" unicode="W" horiz-adv-x="651" d="M441 0 L508 0 L649 508 L558 508 L469 142 C462 171 452 210 360 508 L292 508 L183 147 C178 177 170 212 93 508 L2 508 L144 0 L210 0 L324 367 L441 0 Z " />
<glyph glyph-name="X" unicode="X" horiz-adv-x="443" d="M2 0 L106 0 L222 211 C233 188 245 165 337 0 L440 0 L283 266 L426 508 L324 508 L222 321 C210 344 199 366 119 508 L17 508 L160 267 L2 0 L2 0 Z " />
<glyph glyph-name="Y" unicode="Y" horiz-adv-x="418" d="M163 195 L163 0 L253 0 L253 191 L414 508 L317 508 L209 280 L103 508 L5 508 L163 195 L163 195 Z " />
<glyph glyph-name="Z" unicode="Z" horiz-adv-x="380" d="M20 0 L360 0 L360 70 L135 69 L351 454 L346 508 L32 508 L32 438 L239 440 L20 54 L20 0 L20 0 Z " />
<glyph glyph-name="bracketleft" unicode="&#x5b;" horiz-adv-x="242" d="M212 679 L40 679 L40 0 L212 0 L212 66 L122 66 L122 612 L212 612 L212 679 L212 679 Z " />
<glyph glyph-name="backslash" unicode="&#x5c;" horiz-adv-x="370" d="M351 0 L113 641 L23 641 L261 0 L351 0 L351 0 Z " />
<glyph glyph-name="bracketright" unicode="&#x5d;" horiz-adv-x="253" d="M203 0 L203 679 L30 679 L30 612 L120 612 L120 66 L30 66 L30 0 L203 0 L203 0 Z " />
<glyph glyph-name="asciicircum" unicode="&#x5e;" horiz-adv-x="373" d="M21 241 L99 227 L187 422 C192 408 198 390 271 231 L352 241 L218 513 L155 513 L21 241 L21 241 Z " />
<glyph glyph-name="underscore" unicode="&#x5f;" horiz-adv-x="454" d="M44 63 L44 0 L419 0 L419 63 L44 63 L44 63 Z " />
<glyph glyph-name="grave" unicode="&#x60;" horiz-adv-x="261" d="M179 379 L216 418 L88 561 L30 507 C60 470 97 439 127 415 C144 403 162 391 179 379 L179 379 Z " />
<glyph glyph-name="a" unicode="a" horiz-adv-x="376" d="M336 356 C319 360 302 364 286 367 C256 372 221 378 191 378 C85 378 12 294 12 180 C12 67 56 -7 150 -6 C238 -5 266 85 267 88 L273 6 L335 0 L336 356 L336 356 Z M250 202 C250 128 213 55 164 55 C110 55 105 119 105 188 C105 262 126 317 201 317 C216 317 240 311 250 309 L250 202 L250 202 Z " />
<glyph glyph-name="b" unicode="b" horiz-adv-x="390" d="M40 542 L40 16 C57 11 73 8 90 5 C119 -1 155 -6 185 -6 C291 -6 364 78 364 192 C364 305 320 378 226 378 C175 378 144 356 126 314 L126 542 L40 542 Z M126 170 C126 244 163 317 212 317 C266 317 271 254 271 185 C271 110 250 55 175 55 C159 55 136 60 126 62 L126 170 Z " />
<glyph glyph-name="c" unicode="c" horiz-adv-x="322" d="M252 282 L301 328 C277 359 246 378 198 378 C101 378 26 306 26 175 C26 66 74 -6 190 -6 C223 -6 248 0 267 6 C278 9 288 12 296 17 L275 71 C267 67 258 65 249 63 C234 59 216 56 202 56 C167 56 119 71 119 187 C119 302 168 312 198 312 C223 312 237 299 252 282 L252 282 Z " />
<glyph glyph-name="d" unicode="d" horiz-adv-x="385" d="M259 542 L259 373 C239 376 218 378 200 378 C95 378 21 294 21 180 C21 67 66 -6 159 -6 C223 -6 258 24 276 84 L288 5 L345 0 L345 542 L259 542 L259 542 Z M259 202 C259 128 222 56 173 56 C119 56 114 119 114 188 C114 262 136 317 210 317 C225 317 249 311 259 309 L259 202 L259 202 Z " />
<glyph glyph-name="e" unicode="e" horiz-adv-x="354" d="M201 378 C99 378 20 309 20 175 C20 66 66 -6 182 -6 C221 -6 255 2 281 12 C296 17 310 22 323 29 L301 82 C289 77 277 72 264 68 C243 62 216 56 194 56 C136 56 118 94 112 139 C244 141 326 201 326 273 C326 332 290 378 201 378 L201 378 Z M109 193 C112 253 128 320 194 320 C221 320 240 302 240 273 C240 238 203 196 109 193 L109 193 Z " />
<glyph glyph-name="f" unicode="f" horiz-adv-x="288" d="M212 474 C232 474 245 463 248 460 L285 509 C268 527 243 542 206 541 C125 539 72 487 77 373 L22 373 L12 312 L80 312 L80 0 L165 0 L166 312 L244 312 L254 373 L161 373 C161 373 155 474 212 474 L212 474 Z " />
<glyph glyph-name="g" unicode="g" horiz-adv-x="388" d="M349 356 L337 358 C315 364 251 378 202 378 C96 378 23 294 23 180 C23 67 67 -6 160 -6 C221 -6 256 21 273 72 C273 63 273 54 272 40 C258 -90 196 -122 102 -68 L80 -133 C130 -162 203 -181 268 -139 C308 -111 333 -69 342 55 C343 96 345 128 345 160 L349 356 L349 356 Z M260 196 C258 125 222 55 175 55 C121 55 116 119 116 188 C116 262 137 317 211 317 C226 317 251 311 260 309 L260 196 L260 196 Z " />
<glyph glyph-name="h" unicode="h" horiz-adv-x="391" d="M127 326 L127 542 L40 542 L40 0 L127 0 L127 200 C130 268 175 312 216 312 C252 312 265 286 265 244 L265 0 L351 0 L351 250 C351 296 341 330 320 351 C301 370 276 379 242 379 C198 379 156 364 127 326 L127 326 Z " />
<glyph glyph-name="i" unicode="i" horiz-adv-x="196" d="M177 63 L158 63 C143 63 136 69 136 93 L136 378 L24 378 L24 321 L50 321 L50 84 C50 34 79 0 132 0 C150 0 186 0 186 0 L177 63 L177 63 Z M92 438 C128 438 145 462 145 492 C145 522 127 543 95 543 C59 543 42 520 42 489 C42 462 60 438 92 438 L92 438 Z " />
<glyph glyph-name="j" unicode="j" horiz-adv-x="201" d="M117 438 C152 438 170 462 170 492 C170 522 152 543 119 543 C84 543 67 520 67 489 C67 462 85 438 117 438 L117 438 Z M49 321 L75 321 L75 13 C75 -18 71 -69 -3 -107 L32 -165 C92 -135 161 -98 161 21 L161 376 L161 378 L49 378 L49 321 L49 321 Z " />
<glyph glyph-name="k" unicode="k" horiz-adv-x="370" d="M209 185 C209 185 312 241 351 372 L268 372 C230 270 126 189 126 189 L126 542 L40 542 L40 0 L126 0 L126 181 L266 0 L364 0 L209 185 Z " />
<glyph glyph-name="l" unicode="l" horiz-adv-x="226" d="M202 62 C202 62 172 62 162 62 C145 62 136 69 136 93 L136 542 L24 542 L24 486 L50 486 L50 84 C50 34 76 0 133 0 L212 0 L202 62 L202 62 Z " />
<glyph glyph-name="m" unicode="m" horiz-adv-x="582" d="M517 351 C500 370 476 379 444 379 C396 379 351 359 324 310 C310 351 285 379 234 379 C183 379 133 354 109 295 L100 378 L40 378 L40 0 L126 0 L126 182 C123 261 168 312 208 312 C240 312 250 286 250 244 L250 0 L337 0 L337 201 C339 270 381 312 417 312 C450 312 460 286 460 244 L460 0 L546 0 L546 250 C546 297 537 331 517 351 L517 351 Z " />
<glyph glyph-name="n" unicode="n" horiz-adv-x="386" d="M320 351 C301 370 275 379 242 379 C188 379 134 354 108 295 L99 378 L40 378 L40 0 L126 0 L126 182 C122 261 172 311 216 311 C251 311 265 284 265 242 L265 0 L351 0 L351 250 C351 296 341 330 320 351 L320 351 Z " />
<glyph glyph-name="o" unicode="o" horiz-adv-x="377" d="M356 193 C356 312 306 384 191 384 C77 384 20 298 20 184 C20 67 70 -6 185 -6 C300 -6 356 81 356 193 L356 193 Z M113 192 C113 264 127 320 184 320 C248 320 263 260 263 185 C263 113 249 58 192 58 C128 58 113 118 113 192 L113 192 Z " />
<glyph glyph-name="p" unicode="p" horiz-adv-x="391" d="M226 380 C161 380 127 346 109 287 L101 378 L40 378 L40 -167 L127 -167 L127 -1 C147 -4 166 -6 185 -6 C291 -6 364 78 364 192 C364 305 320 380 226 380 L226 380 Z M175 55 C160 55 136 60 127 62 L127 176 C129 247 164 317 212 317 C266 317 271 254 271 185 C271 110 250 55 175 55 L175 55 Z " />
<glyph glyph-name="q" unicode="q" horiz-adv-x="386" d="M346 -168 L346 356 C329 360 312 364 296 367 C266 372 231 380 201 380 C95 380 22 294 22 180 C22 67 66 -6 160 -6 C206 -6 239 11 260 44 L260 -168 L346 -168 Z M260 202 C260 128 223 56 174 56 C120 56 115 119 115 188 C115 262 137 317 211 317 C226 317 250 311 260 309 L260 202 Z " />
<glyph glyph-name="r" unicode="r" horiz-adv-x="267" d="M248 376 C239 378 227 380 216 380 C168 380 129 355 108 299 L100 378 L40 378 L40 0 L126 0 L126 207 C132 260 165 294 201 294 C216 294 225 291 238 286 L262 372 L248 376 L248 376 Z " />
<glyph glyph-name="s" unicode="s" horiz-adv-x="292" d="M235 369 C213 377 184 384 154 384 C82 384 27 336 27 279 C27 220 58 187 135 158 C171 143 190 122 190 96 C190 73 174 58 139 58 C119 58 96 67 75 76 C64 81 52 87 41 94 L13 30 C26 23 40 17 55 12 C80 3 114 -6 147 -6 C231 -6 278 49 278 106 C278 170 239 197 177 221 C136 237 115 260 115 287 C115 309 134 320 157 320 C176 320 198 314 216 308 C225 304 235 300 245 295 L271 355 C260 360 248 365 235 369 L235 369 Z " />
<glyph glyph-name="t" unicode="t" horiz-adv-x="296" d="M18 378 L18 317 L85 317 L85 79 C85 17 125 -6 182 -6 C209 -6 278 -6 278 -6 L264 58 C264 58 219 58 205 58 C188 58 171 63 171 89 L171 317 L253 317 L264 378 L171 378 L171 475 L100 475 L85 378 L18 378 L18 378 Z " />
<glyph glyph-name="u" unicode="u" horiz-adv-x="392" d="M265 378 L265 189 C269 110 220 58 176 58 C140 58 127 83 127 125 L127 378 L40 378 L40 123 C40 77 51 43 72 22 C91 3 116 -6 150 -6 C204 -6 256 17 283 75 L291 7 L352 0 L352 378 L265 378 L265 378 Z " />
<glyph glyph-name="v" unicode="v" horiz-adv-x="351" d="M267 378 C267 378 187 155 179 130 C170 159 93 378 93 378 L6 378 L147 0 L210 0 L350 378 L267 378 L267 378 Z " />
<glyph glyph-name="w" unicode="w" horiz-adv-x="538" d="M444 378 C444 378 382 142 379 127 C375 142 301 378 301 378 L237 378 C237 378 163 142 159 128 C155 142 93 378 93 378 L6 378 L121 0 L185 0 C185 0 266 237 267 243 C269 237 353 0 353 0 L417 0 L532 378 L444 378 L444 378 Z " />
<glyph glyph-name="x" unicode="x" horiz-adv-x="381" d="M6 0 L102 0 C102 0 177 134 188 154 C198 134 272 0 272 0 L370 0 L249 201 C282 253 358 377 358 377 L261 377 L188 246 L121 377 L22 377 L131 202 L6 0 L6 0 Z " />
<glyph glyph-name="y" unicode="y" horiz-adv-x="392" d="M349 151 L353 378 L264 378 L264 164 C259 100 213 59 175 59 C140 59 127 84 127 126 L127 378 L40 378 L40 123 C40 77 51 43 72 22 C91 3 116 -6 150 -6 C201 -6 251 14 279 68 C270 -85 206 -125 106 -67 L84 -133 C134 -162 207 -181 272 -139 C320 -106 347 -51 349 139 C349 143 349 147 349 151 L349 151 Z " />
<glyph glyph-name="z" unicode="z" horiz-adv-x="326" d="M26 0 L298 0 L298 62 L130 60 L292 326 L285 378 L32 378 L32 315 L191 317 L26 51 L26 0 L26 0 Z " />
<glyph glyph-name="braceleft" unicode="&#x7b;" horiz-adv-x="289" d="M96 238 C96 193 85 140 85 86 C85 21 147 -19 257 8 L240 72 C183 52 171 81 171 98 C171 143 181 188 181 227 C181 271 173 310 119 343 C173 375 181 415 181 459 C181 498 171 543 171 588 C171 605 183 634 240 614 L257 678 C147 704 85 667 85 600 C85 546 96 493 96 449 C96 410 78 383 43 374 L43 312 C78 304 96 277 96 238 L96 238 Z " />
<glyph glyph-name="bar" unicode="&#x7c;" horiz-adv-x="182" d="M132 641 L50 641 L50 0 L132 0 L132 641 L132 641 Z " />
<glyph glyph-name="braceright" unicode="&#x7d;" horiz-adv-x="285" d="M28 8 C138 -19 200 21 200 86 C200 140 189 193 189 238 C189 277 207 304 242 312 L242 374 C207 383 189 410 189 449 C189 493 200 546 200 600 C200 667 138 703 28 678 L45 614 C102 634 113 605 113 588 C113 543 104 498 104 459 C104 416 112 374 165 343 C112 311 104 270 104 227 C104 188 113 143 113 98 C113 81 102 52 45 72 L28 8 L28 8 Z " />
<glyph glyph-name="asciitilde" unicode="&#x7e;" horiz-adv-x="391" d="M40 283 L71 248 C93 272 103 282 133 282 C179 282 201 237 259 237 C291 237 314 252 329 268 C338 277 346 288 352 299 L321 335 C299 311 289 300 259 300 C213 300 191 345 133 345 C100 345 77 329 62 314 C53 305 46 294 40 283 L40 283 Z " />
<glyph glyph-name="exclamdown" unicode="&#xa1;" horiz-adv-x="157" d="M22 460 C22 427 41 402 79 402 C114 402 134 425 134 458 C134 490 115 516 77 516 C41 516 22 490 22 460 L22 460 Z M41 342 L31 0 L128 0 L116 342 L41 342 Z " />
<glyph glyph-name="cent" unicode="&#xa2;" horiz-adv-x="317" d="M227 516 L167 516 L167 451 C86 439 27 374 27 258 C27 156 68 90 167 81 L167 -6 L227 -6 L227 82 C248 85 267 89 280 94 C287 96 294 100 300 102 L279 157 C273 156 267 154 262 152 C252 149 239 147 227 145 L227 380 C238 374 247 365 256 356 L305 403 C287 427 260 444 227 450 L227 516 Z M167 148 C141 158 118 189 118 269 C118 350 141 375 167 383 L167 148 Z " />
<glyph glyph-name="sterling" unicode="&#xa3;" horiz-adv-x="379" d="M127 77 C139 96 150 122 154 163 L157 192 L290 192 L301 261 L165 261 L172 331 C178 393 212 411 248 411 C271 411 289 404 304 395 C312 391 319 386 325 381 L361 447 C346 457 313 481 243 481 C151 481 88 419 82 326 L77 261 L28 262 L22 192 L72 192 L67 136 C64 105 55 86 46 72 C40 64 34 58 27 54 L47 0 L340 0 L340 71 L123 71 C124 73 126 75 127 77 L127 77 Z " />
<glyph glyph-name="currency" unicode="&#xa4;" horiz-adv-x="455" d="M29 125 L81 74 L143 142 C168 130 196 123 227 123 C259 123 287 131 311 143 L374 74 L426 125 L360 184 C383 213 395 248 395 290 C395 332 383 368 360 398 L425 456 L374 508 L311 439 C287 452 259 458 228 458 C196 458 169 451 145 438 L83 508 L31 456 L95 398 C72 368 60 332 60 290 C60 248 71 212 94 183 L29 125 Z M227 180 C167 180 125 231 125 294 C125 357 167 402 227 402 C289 402 331 351 331 288 C331 226 289 180 227 180 L227 180 Z " />
<glyph glyph-name="yen" unicode="&#xa5;" horiz-adv-x="449" d="M88 189 L178 189 L178 143 L95 143 L88 76 L178 76 L178 0 L268 0 L268 76 L360 76 L367 143 L268 143 L268 189 L360 189 L367 256 L299 256 L425 478 L329 478 L225 272 L123 478 L25 478 L150 256 L95 256 L88 189 Z " />
<glyph glyph-name="brokenbar" unicode="&#xa6;" horiz-adv-x="181" d="M129 636 L46 636 L46 354 L129 354 L129 636 Z M129 275 L46 275 L46 -6 L129 -6 L129 275 Z " />
<glyph glyph-name="section" unicode="&#xa7;" horiz-adv-x="388" d="M117 -54 C134 -59 158 -64 183 -64 C260 -64 310 -15 310 47 C310 76 298 101 281 123 C313 137 362 169 362 235 C362 363 170 396 170 478 C170 504 184 517 212 517 C227 517 244 512 257 508 C264 506 271 503 278 500 L304 559 C294 563 284 567 275 570 C257 575 233 580 209 580 C131 580 82 532 82 469 C82 440 93 416 111 393 C77 379 29 347 29 282 C29 153 222 121 222 39 C222 13 208 0 180 0 C164 0 148 3 135 8 C128 10 121 13 114 16 L88 -43 C97 -47 107 -50 117 -54 L117 -54 Z M158 347 C212 305 275 269 275 225 C275 191 251 175 233 169 C179 212 117 246 117 292 C117 325 140 340 158 347 L158 347 Z " />
<glyph glyph-name="dieresis" unicode="&#xa8;" horiz-adv-x="320" d="M134 475 C134 502 118 522 88 522 C56 522 40 502 40 473 C40 446 57 426 86 426 C118 426 134 447 134 475 L134 475 Z M284 475 C284 502 268 522 238 522 C206 522 190 502 190 473 C190 446 207 426 236 426 C268 426 284 447 284 475 L284 475 Z " />
<glyph glyph-name="copyright" unicode="&#xa9;" horiz-adv-x="592" d="M299 513 C146 513 37 406 37 254 C37 102 141 -5 293 -5 C447 -5 556 102 556 254 C556 406 451 513 299 513 L299 513 Z M296 50 C182 50 101 142 101 258 C101 375 182 458 296 458 C412 458 492 366 492 249 C492 133 412 50 296 50 L296 50 Z M355 342 L388 379 C375 393 354 408 317 408 C229 408 188 345 188 252 C188 157 227 106 306 106 C347 106 375 118 382 121 L365 172 C362 169 342 157 316 157 C277 157 260 203 260 257 C260 309 272 351 311 352 C339 353 352 344 355 342 L355 342 Z " />
<glyph glyph-name="ordfeminine" unicode="&#xaa;" horiz-adv-x="287" d="M216 506 C196 510 170 513 150 513 C75 513 25 457 25 379 C25 301 56 250 124 250 C160 250 184 265 197 295 L202 259 L252 254 L252 499 L216 506 L216 506 Z M184 403 C184 349 162 299 132 299 C102 299 99 341 99 384 C99 432 111 466 156 466 C165 466 176 464 184 462 L184 403 L184 403 Z " />
<glyph glyph-name="guillemotleft" unicode="&#xab;" horiz-adv-x="434" d="M201 136 L237 177 L140 300 L237 422 L201 463 C181 446 161 428 142 409 C109 377 69 337 40 300 C69 263 109 222 142 190 C161 171 181 153 201 136 L201 136 Z M366 136 L402 177 L304 300 L402 422 L366 463 C346 446 326 428 307 409 C274 377 234 337 205 300 C234 263 274 222 307 190 C326 171 346 153 366 136 L366 136 Z " />
<glyph glyph-name="registered" unicode="&#xae;" horiz-adv-x="419" d="M211 513 C109 513 35 442 35 340 C35 237 106 165 208 165 C309 165 383 237 383 340 C383 442 313 513 211 513 L211 513 Z M208 208 C136 208 84 267 84 342 C84 417 136 469 208 469 C283 469 333 410 333 336 C333 261 282 208 208 208 L208 208 Z M273 382 C273 415 251 435 204 435 C195 435 184 434 173 434 L147 434 L147 243 L187 243 L187 324 L191 324 C221 321 224 306 249 244 L287 244 C269 290 270 316 243 337 C261 349 273 363 273 382 L273 382 Z M187 411 L198 411 C224 411 231 394 231 379 C231 360 228 354 204 349 C199 348 189 347 187 347 L187 411 Z " />
<glyph glyph-name="degree" unicode="&#xb0;" horiz-adv-x="237" d="M125 513 C74 513 38 476 38 425 C38 374 73 337 124 337 C175 337 211 374 211 425 C211 476 176 513 125 513 L125 513 Z M124 381 C101 381 86 400 86 426 C86 454 101 469 124 469 C149 469 163 451 163 425 C163 397 149 381 124 381 L124 381 Z " />
<glyph glyph-name="plusminus" unicode="&#xb1;" horiz-adv-x="394" d="M50 300 L50 234 L161 234 L161 132 L49 132 L49 65 L343 65 L343 132 L232 132 L232 234 L344 234 L344 300 L232 300 L232 415 L161 415 L161 300 L50 300 L50 300 Z " />
<glyph glyph-name="acute" unicode="&#xb4;" horiz-adv-x="256" d="M29 425 L66 386 C83 397 100 410 117 422 C147 445 184 477 214 514 L156 568 L29 425 L29 425 Z " />
<glyph glyph-name="mu" unicode="&#xb5;" horiz-adv-x="391" d="M265 508 L265 301 C261 235 226 193 186 193 C152 193 128 217 126 255 L126 508 L40 508 L40 -33 L126 -33 L126 148 C143 135 164 129 186 129 C232 129 264 152 283 196 L283 148 L351 125 L351 508 L265 508 L265 508 Z " />
<glyph glyph-name="paragraph" unicode="&#xb6;" horiz-adv-x="408" d="M205 509 L205 509 C203 509 202 509 200 509 L200 509 L200 509 C90 508 32 450 32 355 C32 259 90 199 205 199 L205 447 L278 447 L278 0 L368 0 L368 447 L368 508 L205 509 L205 509 Z " />
<glyph glyph-name="cedilla" unicode="&#xb8;" horiz-adv-x="215" d="M130 0 L80 0 L64 -66 C93 -66 133 -75 133 -99 C133 -114 122 -122 95 -122 C78 -122 58 -116 47 -112 L35 -153 C52 -161 76 -166 100 -166 C142 -166 189 -150 189 -96 C189 -60 160 -40 121 -37 L130 0 L130 0 Z " />
<glyph glyph-name="ordmasculine" unicode="&#xba;" horiz-adv-x="283" d="M264 383 C264 464 230 513 146 513 C64 513 24 455 24 377 C24 296 59 248 142 248 C224 248 264 307 264 383 L264 383 Z M98 382 C98 429 106 463 141 463 C182 463 191 425 191 379 C191 332 182 298 147 298 C107 298 98 336 98 382 L98 382 Z " />
<glyph glyph-name="guillemotright" unicode="&#xbb;" horiz-adv-x="435" d="M198 177 L234 136 C254 153 274 171 293 190 C326 222 366 263 395 300 C366 337 326 377 293 409 C274 428 254 446 234 463 L198 422 L295 300 L198 177 Z M33 177 L69 136 C89 153 109 171 128 190 C161 222 201 263 230 300 C201 337 161 377 128 409 C109 428 89 446 69 463 L33 422 L130 300 L33 177 Z " />
<glyph glyph-name="onequarter" unicode="&#xbc;" horiz-adv-x="559" d="M160 439 L114 439 C95 422 72 408 53 399 C42 394 31 388 20 385 L46 337 C64 345 81 356 97 372 L97 176 L160 176 L160 439 Z M325 440 L120 0 L191 0 L397 440 L325 440 Z M503 110 L503 256 L442 256 L322 92 L322 62 L440 62 L440 0 L503 0 L503 62 L539 62 L539 110 L503 110 L503 110 Z M389 110 L440 183 L440 110 L389 110 L389 110 Z " />
<glyph glyph-name="onehalf" unicode="&#xbd;" horiz-adv-x="560" d="M158 439 L112 439 C86 415 53 395 18 385 L41 343 C59 349 79 356 95 372 L95 180 L158 180 L158 439 Z M324 440 L118 0 L190 0 L395 440 L324 440 Z M524 192 C524 241 492 262 441 262 C406 262 377 249 348 233 L372 186 C379 190 386 194 393 198 C405 204 421 210 435 210 C448 210 455 202 455 185 C455 162 440 143 404 103 C378 76 351 54 349 53 L349 0 L529 0 L529 53 L428 53 C441 62 451 71 458 78 C498 119 524 153 524 192 L524 192 Z " />
<glyph glyph-name="threequarters" unicode="&#xbe;" horiz-adv-x="584" d="M228 275 C228 303 212 326 183 338 C199 348 217 364 217 393 C217 430 189 455 138 455 C104 455 79 447 48 433 L71 385 C102 399 117 404 131 404 C143 404 149 395 149 384 C149 353 122 350 95 341 L95 302 L106 305 C113 305 122 307 135 307 C153 307 162 293 162 275 C162 250 144 239 126 239 C110 239 95 244 83 249 L62 260 L62 213 C79 197 102 188 128 188 C203 188 228 231 228 275 L228 275 Z M369 440 L163 0 L234 0 L440 440 L369 440 L369 440 Z M514 110 L514 256 L454 256 L333 92 L333 62 L451 62 L451 0 L514 0 L514 62 L551 62 L551 110 L514 110 L514 110 Z M401 110 L451 183 L451 110 L401 110 L401 110 Z " />
<glyph glyph-name="questiondown" unicode="&#xbf;" horiz-adv-x="322" d="M24 106 C24 26 79 -6 167 -6 C218 -6 260 13 301 32 L272 92 C228 71 210 60 178 60 C144 60 121 81 121 117 C121 177 227 239 227 344 L164 361 C153 325 128 292 101 257 C65 210 24 166 24 106 L24 106 Z M136 460 C136 427 155 404 191 404 C229 404 248 429 248 462 C248 492 228 518 193 518 C155 518 136 492 136 460 L136 460 Z " />
<glyph glyph-name="Agrave" unicode="&#xc0;" horiz-adv-x="472" d="M200 508 L5 0 L95 0 L142 133 L324 133 L371 0 L467 0 L284 476 C268 519 243 510 200 508 L200 508 Z M301 200 L166 200 C197 286 220 363 234 408 C246 366 270 288 301 200 L301 200 Z M289 579 L326 618 L198 761 L140 707 C170 670 207 639 237 615 C254 603 272 591 289 579 L289 579 Z " />
<glyph glyph-name="Aacute" unicode="&#xc1;" horiz-adv-x="472" d="M200 508 L5 0 L95 0 L142 133 L324 133 L371 0 L467 0 L284 476 C268 519 243 510 200 508 L200 508 Z M301 200 L166 200 C197 286 220 363 234 408 C246 366 270 288 301 200 L301 200 Z M142 625 L179 586 C196 597 213 610 230 622 C260 645 297 677 327 714 L269 768 L142 625 Z " />
<glyph glyph-name="Acircumflex" unicode="&#xc2;" horiz-adv-x="472" d="M200 508 L5 0 L95 0 L142 133 L324 133 L371 0 L467 0 L284 476 C268 519 243 510 200 508 L200 508 Z M301 200 L166 200 C197 286 220 363 234 408 C246 366 270 288 301 200 L301 200 Z M96 638 L129 598 C139 603 150 610 162 618 C182 632 208 650 237 675 C265 651 292 632 312 618 C324 610 336 603 345 598 L378 638 L237 779 L96 638 Z " />
<glyph glyph-name="Atilde" unicode="&#xc3;" horiz-adv-x="472" d="M200 508 L5 0 L95 0 L142 133 L324 133 L371 0 L467 0 L284 476 C268 519 243 510 200 508 L200 508 Z M301 200 L166 200 C197 286 220 363 234 408 C246 366 270 288 301 200 L301 200 Z M118 666 L118 610 C123 611 129 613 135 615 C146 617 161 620 178 620 C215 620 256 605 293 605 C310 605 324 608 336 614 C341 616 347 619 353 623 L353 679 C347 677 341 675 336 674 C324 671 310 668 293 668 C256 668 215 683 178 683 C161 683 146 680 135 674 C129 672 123 669 118 666 L118 666 Z " />
<glyph glyph-name="Adieresis" unicode="&#xc4;" horiz-adv-x="472" d="M200 508 L5 0 L95 0 L142 133 L324 133 L371 0 L467 0 L284 476 C268 519 243 510 200 508 L200 508 Z M301 200 L166 200 C197 286 220 363 234 408 C246 366 270 288 301 200 L301 200 Z M207 675 C207 702 191 722 161 722 C129 722 113 702 113 673 C113 646 130 626 159 626 C191 626 207 647 207 675 L207 675 Z M357 675 C357 702 341 722 311 722 C279 722 263 702 263 673 C263 646 280 626 309 626 C341 626 357 647 357 675 L357 675 Z " />
<glyph glyph-name="Aring" unicode="&#xc5;" horiz-adv-x="472" d="M200 508 L5 0 L95 0 L142 133 L324 133 L371 0 L467 0 L284 476 C268 519 243 510 200 508 L200 508 Z M301 200 L166 200 C197 286 220 363 234 408 C246 366 270 288 301 200 L301 200 Z M237 738 C193 738 161 707 161 663 C161 620 192 587 235 587 C279 587 311 620 311 663 C311 707 280 738 237 738 L237 738 Z M236 624 C215 624 203 640 203 663 C203 688 214 700 236 700 C257 700 269 686 269 663 C269 639 257 624 236 624 L236 624 Z " />
<glyph glyph-name="AE" unicode="&#xc6;" horiz-adv-x="668" d="M316 508 L9 0 L113 0 L189 133 L340 133 L340 0 L652 0 L652 68 L428 68 L428 231 L603 231 L603 300 L428 300 L428 440 L640 440 L640 508 L316 508 Z M227 200 L340 416 L340 200 L227 200 Z " />
<glyph glyph-name="Ccedilla" unicode="&#xc7;" horiz-adv-x="397" d="M339 410 L380 459 C356 487 319 513 258 513 C108 513 37 404 37 246 C37 81 105 -6 240 -6 C278 -6 311 0 335 7 C348 11 361 14 372 20 L351 83 C344 81 302 58 257 58 C161 58 135 149 135 254 C135 360 165 443 249 443 C285 443 310 434 339 410 L339 410 Z M216 0 L166 0 L150 -66 C179 -66 219 -75 219 -99 C219 -114 208 -122 181 -122 C164 -122 144 -116 133 -112 L121 -153 C138 -161 162 -166 186 -166 C228 -166 275 -150 275 -96 C275 -60 246 -40 207 -37 L216 0 Z " />
<glyph glyph-name="Egrave" unicode="&#xc8;" horiz-adv-x="374" d="M40 508 L40 0 L353 0 L353 69 L129 69 L129 231 L304 231 L304 299 L129 299 L129 440 L342 440 L342 508 L40 508 Z M240 579 L277 618 L149 761 L91 707 C121 670 158 639 188 615 C205 603 223 591 240 579 L240 579 Z " />
<glyph glyph-name="Eacute" unicode="&#xc9;" horiz-adv-x="374" d="M40 508 L40 0 L353 0 L353 69 L129 69 L129 231 L304 231 L304 299 L129 299 L129 440 L342 440 L342 508 L40 508 Z M93 625 L130 586 C147 597 164 610 181 622 C211 645 248 677 278 714 L220 768 L93 625 Z " />
<glyph glyph-name="Ecircumflex" unicode="&#xca;" horiz-adv-x="374" d="M40 508 L40 0 L353 0 L353 69 L129 69 L129 231 L304 231 L304 299 L129 299 L129 440 L342 440 L342 508 L40 508 Z M47 638 L80 598 C90 603 101 610 113 618 C133 632 159 650 188 675 C216 651 243 632 263 618 C275 610 287 603 296 598 L329 638 L188 779 L47 638 Z " />
<glyph glyph-name="Edieresis" unicode="&#xcb;" horiz-adv-x="374" d="M40 508 L40 0 L353 0 L353 69 L129 69 L129 231 L304 231 L304 299 L129 299 L129 440 L342 440 L342 508 L40 508 Z M158 675 C158 702 142 722 112 722 C80 722 64 702 64 673 C64 646 81 626 110 626 C142 626 158 647 158 675 L158 675 Z M308 675 C308 702 292 722 262 722 C230 722 214 702 214 673 C214 646 231 626 260 626 C292 626 308 647 308 675 L308 675 Z " />
<glyph glyph-name="Igrave" unicode="&#xcc;" horiz-adv-x="169" d="M39 508 L39 0 L129 0 L129 508 L39 508 Z M138 579 L175 618 L47 761 L-11 707 C19 670 56 639 86 615 C103 603 121 591 138 579 L138 579 Z " />
<glyph glyph-name="Iacute" unicode="&#xcd;" horiz-adv-x="169" d="M39 508 L39 0 L129 0 L129 508 L39 508 Z M-9 625 L28 586 C45 597 62 610 79 622 C109 645 146 677 176 714 L118 768 L-9 625 Z " />
<glyph glyph-name="Icircumflex" unicode="&#xce;" horiz-adv-x="169" d="M39 508 L39 0 L129 0 L129 508 L39 508 Z M-55 638 L-22 598 C-12 603 -1 610 11 618 C31 632 57 650 86 675 C114 651 141 632 161 618 C173 610 185 603 194 598 L227 638 L86 779 L-55 638 Z " />
<glyph glyph-name="Idieresis" unicode="&#xcf;" horiz-adv-x="169" d="M39 508 L39 0 L129 0 L129 508 L39 508 Z M56 675 C56 702 40 722 10 722 C-22 722 -38 702 -38 673 C-38 646 -21 626 8 626 C40 626 56 647 56 675 L56 675 Z M206 675 C206 702 190 722 160 722 C128 722 112 702 112 673 C112 646 129 626 158 626 C190 626 206 647 206 675 L206 675 Z " />
<glyph glyph-name="Eth" unicode="&#xd0;" horiz-adv-x="491" d="M13 294 L13 227 L65 227 L65 0 L83 0 C95 -1 107 -1 120 -1 C143 -1 173 -1 203 -1 C383 -1 463 90 463 257 C463 423 383 509 213 509 C189 509 156 509 129 509 C113 508 97 508 80 508 L65 508 L65 294 L13 294 Z M155 441 C165 441 179 442 203 442 C321 442 365 365 365 249 C365 128 319 66 214 66 C182 66 167 66 155 67 L155 227 L289 227 L289 294 L155 294 L155 441 Z " />
<glyph glyph-name="Ntilde" unicode="&#xd1;" horiz-adv-x="470" d="M340 508 L347 154 C328 184 307 216 111 508 L40 508 L40 0 L130 0 L122 363 C142 332 166 294 355 0 L430 0 L430 508 L340 508 Z M117 654 L117 598 C122 599 128 601 134 603 C145 605 160 608 177 608 C214 608 255 593 292 593 C309 593 323 596 335 602 C340 604 346 607 352 611 L352 667 C346 665 340 663 335 662 C323 659 309 656 292 656 C255 656 214 671 177 671 C160 671 145 668 134 662 C128 660 122 657 117 654 L117 654 Z " />
<glyph glyph-name="Ograve" unicode="&#xd2;" horiz-adv-x="499" d="M466 257 C466 415 404 513 254 513 C101 513 32 403 32 246 C32 87 94 -6 244 -6 C397 -6 466 101 466 257 L466 257 Z M129 254 C129 362 157 443 243 443 C345 443 368 350 368 249 C368 143 341 64 254 64 C152 64 129 152 129 254 L129 254 Z M302 579 L339 618 L211 761 L153 707 C183 670 220 639 250 615 C267 603 285 591 302 579 L302 579 Z " />
<glyph glyph-name="Oacute" unicode="&#xd3;" horiz-adv-x="499" d="M466 257 C466 415 404 513 254 513 C101 513 32 403 32 246 C32 87 94 -6 244 -6 C397 -6 466 101 466 257 L466 257 Z M129 254 C129 362 157 443 243 443 C345 443 368 350 368 249 C368 143 341 64 254 64 C152 64 129 152 129 254 L129 254 Z M156 625 L193 586 C210 597 227 610 244 622 C274 645 311 677 341 714 L283 768 L156 625 Z " />
<glyph glyph-name="Ocircumflex" unicode="&#xd4;" horiz-adv-x="499" d="M466 257 C466 415 404 513 254 513 C101 513 32 403 32 246 C32 87 94 -6 244 -6 C397 -6 466 101 466 257 L466 257 Z M129 254 C129 362 157 443 243 443 C345 443 368 350 368 249 C368 143 341 64 254 64 C152 64 129 152 129 254 L129 254 Z M109 608 L142 568 C152 573 163 580 175 588 C195 602 221 620 250 645 C278 621 305 602 325 588 C337 580 349 573 358 568 L391 608 L250 749 L109 608 Z " />
<glyph glyph-name="Otilde" unicode="&#xd5;" horiz-adv-x="499" d="M466 257 C466 415 404 513 254 513 C101 513 32 403 32 246 C32 87 94 -6 244 -6 C397 -6 466 101 466 257 L466 257 Z M129 254 C129 362 157 443 243 443 C345 443 368 350 368 249 C368 143 341 64 254 64 C152 64 129 152 129 254 L129 254 Z M132 663 L132 607 C137 608 143 610 149 612 C160 614 175 617 192 617 C229 617 270 602 307 602 C324 602 338 605 350 611 C355 613 361 616 367 620 L367 676 C361 674 355 672 350 671 C338 668 324 665 307 665 C270 665 229 680 192 680 C175 680 160 677 149 671 C143 669 137 666 132 663 L132 663 Z " />
<glyph glyph-name="Odieresis" unicode="&#xd6;" horiz-adv-x="499" d="M466 257 C466 415 404 513 254 513 C101 513 32 403 32 246 C32 87 94 -6 244 -6 C397 -6 466 101 466 257 L466 257 Z M129 254 C129 362 157 443 243 443 C345 443 368 350 368 249 C368 143 341 64 254 64 C152 64 129 152 129 254 L129 254 Z M220 675 C220 702 204 722 174 722 C142 722 126 702 126 673 C126 646 143 626 172 626 C204 626 220 647 220 675 L220 675 Z M370 675 C370 702 354 722 324 722 C292 722 276 702 276 673 C276 646 293 626 322 626 C354 626 370 647 370 675 L370 675 Z " />
<glyph glyph-name="multiply" unicode="&#xd7;" horiz-adv-x="354" d="M77 376 L31 329 L126 233 L26 132 L75 82 L177 183 L277 83 L323 130 L223 230 L321 327 L271 378 L173 279 L77 376 L77 376 Z " />
<glyph glyph-name="Oslash" unicode="&#xd8;" horiz-adv-x="509" d="M313 507 C297 511 279 513 259 513 C106 513 37 402 37 245 C37 143 61 69 119 28 L100 -19 L175 -49 L193 -2 C211 -5 229 -6 249 -6 C402 -6 471 100 471 256 C471 358 445 434 388 476 L407 525 L332 554 L313 507 Z M134 254 C134 361 162 443 248 443 C262 443 274 441 285 438 L156 120 C139 155 134 201 134 254 L134 254 Z M351 385 C369 350 373 302 373 248 C373 142 346 63 259 63 C245 63 233 65 222 67 L351 385 Z " />
<glyph glyph-name="Ugrave" unicode="&#xd9;" horiz-adv-x="467" d="M129 508 L40 508 L40 186 C40 82 87 -6 228 -6 C377 -6 427 82 427 186 L427 508 L337 508 L337 193 C337 112 305 64 238 64 C172 64 129 100 129 193 L129 508 Z M286 579 L323 618 L195 761 L137 707 C167 670 204 639 234 615 C251 603 269 591 286 579 L286 579 Z " />
<glyph glyph-name="Uacute" unicode="&#xda;" horiz-adv-x="467" d="M129 508 L40 508 L40 186 C40 82 87 -6 228 -6 C377 -6 427 82 427 186 L427 508 L337 508 L337 193 C337 112 305 64 238 64 C172 64 129 100 129 193 L129 508 Z M140 625 L177 586 C194 597 211 610 228 622 C258 645 295 677 325 714 L267 768 L140 625 Z " />
<glyph glyph-name="Ucircumflex" unicode="&#xdb;" horiz-adv-x="467" d="M129 508 L40 508 L40 186 C40 82 87 -6 228 -6 C377 -6 427 82 427 186 L427 508 L337 508 L337 193 C337 112 305 64 238 64 C172 64 129 100 129 193 L129 508 Z M93 638 L126 598 C136 603 147 610 159 618 C179 632 205 650 234 675 C262 651 289 632 309 618 C321 610 333 603 342 598 L375 638 L234 779 L93 638 Z " />
<glyph glyph-name="Udieresis" unicode="&#xdc;" horiz-adv-x="467" d="M129 508 L40 508 L40 186 C40 82 87 -6 228 -6 C377 -6 427 82 427 186 L427 508 L337 508 L337 193 C337 112 305 64 238 64 C172 64 129 100 129 193 L129 508 Z M204 675 C204 702 188 722 158 722 C126 722 110 702 110 673 C110 646 127 626 156 626 C188 626 204 647 204 675 L204 675 Z M354 675 C354 702 338 722 308 722 C276 722 260 702 260 673 C260 646 277 626 306 626 C338 626 354 647 354 675 L354 675 Z " />
<glyph glyph-name="Yacute" unicode="&#xdd;" horiz-adv-x="418" d="M163 195 L163 0 L253 0 L253 191 L414 508 L317 508 L209 280 L103 508 L5 508 L163 195 Z M115 625 L152 586 C169 597 186 610 203 622 C233 645 270 677 300 714 L242 768 L115 625 Z " />
<glyph glyph-name="Thorn" unicode="&#xde;" horiz-adv-x="403" d="M40 508 L40 0 L130 0 L130 107 L182 107 C308 107 371 169 371 264 C371 361 314 417 191 417 C175 417 153 417 130 416 L130 508 L40 508 Z M130 352 C142 353 158 353 179 353 C252 353 274 307 274 261 C274 211 249 173 187 173 L130 173 L130 352 Z " />
<glyph glyph-name="germandbls" unicode="&#xdf;" horiz-adv-x="402" d="M262 301 C262 344 349 352 349 438 C349 499 298 555 181 541 C72 526 40 441 40 358 L40 216 L40 140 L40 -52 L126 -52 L126 136 L126 216 L126 364 C126 421 141 470 193 476 C227 478 262 467 262 430 C262 378 181 360 181 285 C181 168 292 177 292 107 C292 74 269 59 230 59 C218 59 204 64 192 69 C185 71 179 75 172 78 L146 21 C155 16 165 11 175 7 C193 1 217 -6 241 -6 C325 -6 380 43 380 113 C380 235 262 232 262 301 L262 301 Z " />
<glyph glyph-name="agrave" unicode="&#xe0;" horiz-adv-x="386" d="M346 356 C329 360 312 364 296 367 C266 372 231 378 201 378 C95 378 22 294 22 180 C22 67 66 -7 160 -6 C248 -5 276 85 277 88 L283 6 L345 0 L346 356 L346 356 Z M260 202 C260 128 223 55 174 55 C120 55 115 119 115 188 C115 262 136 317 211 317 C226 317 250 311 260 309 L260 202 L260 202 Z M246 379 L283 418 L155 561 L97 507 C127 470 164 439 194 415 C211 403 229 391 246 379 L246 379 Z " />
<glyph glyph-name="aacute" unicode="&#xe1;" horiz-adv-x="386" d="M346 356 C329 360 312 364 296 367 C266 372 231 378 201 378 C95 378 22 294 22 180 C22 67 66 -7 160 -6 C248 -5 276 85 277 88 L283 6 L345 0 L346 356 L346 356 Z M260 202 C260 128 223 55 174 55 C120 55 115 119 115 188 C115 262 136 317 211 317 C226 317 250 311 260 309 L260 202 L260 202 Z M99 425 L136 386 C153 397 170 410 187 422 C217 445 254 477 284 514 L226 568 L99 425 Z " />
<glyph glyph-name="acircumflex" unicode="&#xe2;" horiz-adv-x="386" d="M346 356 C329 360 312 364 296 367 C266 372 231 378 201 378 C95 378 22 294 22 180 C22 67 66 -7 160 -6 C248 -5 276 85 277 88 L283 6 L345 0 L346 356 L346 356 Z M260 202 C260 128 223 55 174 55 C120 55 115 119 115 188 C115 262 136 317 211 317 C226 317 250 311 260 309 L260 202 L260 202 Z M53 438 L86 398 C96 403 107 410 119 418 C139 432 165 450 194 475 C222 451 249 432 269 418 C281 410 293 403 302 398 L335 438 L194 579 L53 438 Z " />
<glyph glyph-name="atilde" unicode="&#xe3;" horiz-adv-x="386" d="M346 356 C329 360 312 364 296 367 C266 372 231 378 201 378 C95 378 22 294 22 180 C22 67 66 -7 160 -6 C248 -5 276 85 277 88 L283 6 L345 0 L346 356 L346 356 Z M260 202 C260 128 223 55 174 55 C120 55 115 119 115 188 C115 262 136 317 211 317 C226 317 250 311 260 309 L260 202 L260 202 Z M75 506 L75 450 C80 451 86 453 92 455 C103 457 118 460 135 460 C172 460 213 445 250 445 C267 445 281 448 293 454 C298 456 304 459 310 463 L310 519 C304 517 298 515 293 514 C281 511 267 508 250 508 C213 508 172 523 135 523 C118 523 103 520 92 514 C86 512 80 509 75 506 L75 506 Z " />
<glyph glyph-name="adieresis" unicode="&#xe4;" horiz-adv-x="386" d="M346 356 C329 360 312 364 296 367 C266 372 231 378 201 378 C95 378 22 294 22 180 C22 67 66 -7 160 -6 C248 -5 276 85 277 88 L283 6 L345 0 L346 356 L346 356 Z M260 202 C260 128 223 55 174 55 C120 55 115 119 115 188 C115 262 136 317 211 317 C226 317 250 311 260 309 L260 202 L260 202 Z M164 475 C164 502 148 522 118 522 C86 522 70 502 70 473 C70 446 87 426 116 426 C148 426 164 447 164 475 L164 475 Z M314 475 C314 502 298 522 268 522 C236 522 220 502 220 473 C220 446 237 426 266 426 C298 426 314 447 314 475 L314 475 Z " />
<glyph glyph-name="aring" unicode="&#xe5;" horiz-adv-x="386" d="M346 356 C329 360 312 364 296 367 C266 372 231 378 201 378 C95 378 22 294 22 180 C22 67 66 -7 160 -6 C248 -5 276 85 277 88 L283 6 L345 0 L346 356 L346 356 Z M260 202 C260 128 223 55 174 55 C120 55 115 119 115 188 C115 262 136 317 211 317 C226 317 250 311 260 309 L260 202 L260 202 Z M194 538 C150 538 118 507 118 463 C118 420 149 387 192 387 C236 387 268 420 268 463 C268 507 237 538 194 538 L194 538 Z M193 424 C172 424 160 440 160 463 C160 488 171 500 193 500 C214 500 226 486 226 463 C226 439 214 424 193 424 L193 424 Z " />
<glyph glyph-name="ae" unicode="&#xe6;" horiz-adv-x="585" d="M320 352 C295 363 251 379 197 379 C91 379 18 295 18 181 C18 68 62 -6 156 -6 C212 -6 246 18 265 64 C289 18 334 -6 403 -6 C441 -6 475 2 502 11 C517 16 531 21 544 28 L521 82 C509 77 497 72 484 69 C463 62 436 56 415 56 C356 56 338 94 332 140 C464 142 547 202 547 275 C547 335 511 382 421 382 C382 382 349 372 320 352 L320 352 Z M271 301 C251 268 241 228 241 177 C241 159 241 141 244 126 C230 84 204 55 170 55 C116 55 111 119 111 188 C111 263 133 318 207 318 C233 318 253 310 271 301 L271 301 Z M330 195 C332 255 349 322 415 322 C442 322 460 304 460 275 C460 241 424 197 330 195 L330 195 Z " />
<glyph glyph-name="ccedilla" unicode="&#xe7;" horiz-adv-x="322" d="M252 282 L301 328 C277 359 246 378 198 378 C101 378 26 306 26 175 C26 66 74 -6 190 -6 C223 -6 248 0 267 6 C278 9 288 12 296 17 L275 71 C267 67 258 65 249 63 C234 59 216 56 202 56 C167 56 119 71 119 187 C119 302 168 312 198 312 C223 312 237 299 252 282 L252 282 Z M179 0 L129 0 L113 -66 C142 -66 182 -75 182 -99 C182 -114 171 -122 144 -122 C127 -122 107 -116 96 -112 L84 -153 C101 -161 125 -166 149 -166 C191 -166 238 -150 238 -96 C238 -60 209 -40 170 -37 L179 0 Z " />
<glyph glyph-name="egrave" unicode="&#xe8;" horiz-adv-x="354" d="M201 378 C99 378 20 309 20 175 C20 66 66 -6 182 -6 C221 -6 255 2 281 12 C296 17 310 22 323 29 L301 82 C289 77 277 72 264 68 C243 62 216 56 194 56 C136 56 118 94 112 139 C244 141 326 201 326 273 C326 332 290 378 201 378 L201 378 Z M109 193 C112 253 128 320 194 320 C221 320 240 302 240 273 C240 238 203 196 109 193 L109 193 Z M230 379 L267 418 L139 561 L81 507 C111 470 148 439 178 415 C195 403 213 391 230 379 L230 379 Z " />
<glyph glyph-name="eacute" unicode="&#xe9;" horiz-adv-x="354" d="M201 378 C99 378 20 309 20 175 C20 66 66 -6 182 -6 C221 -6 255 2 281 12 C296 17 310 22 323 29 L301 82 C289 77 277 72 264 68 C243 62 216 56 194 56 C136 56 118 94 112 139 C244 141 326 201 326 273 C326 332 290 378 201 378 L201 378 Z M109 193 C112 253 128 320 194 320 C221 320 240 302 240 273 C240 238 203 196 109 193 L109 193 Z M83 425 L120 386 C137 397 154 410 171 422 C201 445 238 477 268 514 L210 568 L83 425 Z " />
<glyph glyph-name="ecircumflex" unicode="&#xea;" horiz-adv-x="354" d="M201 378 C99 378 20 309 20 175 C20 66 66 -6 182 -6 C221 -6 255 2 281 12 C296 17 310 22 323 29 L301 82 C289 77 277 72 264 68 C243 62 216 56 194 56 C136 56 118 94 112 139 C244 141 326 201 326 273 C326 332 290 378 201 378 L201 378 Z M109 193 C112 253 128 320 194 320 C221 320 240 302 240 273 C240 238 203 196 109 193 L109 193 Z M37 438 L70 398 C80 403 91 410 103 418 C123 432 149 450 178 475 C206 451 233 432 253 418 C265 410 277 403 286 398 L319 438 L178 579 L37 438 Z " />
<glyph glyph-name="edieresis" unicode="&#xeb;" horiz-adv-x="354" d="M201 378 C99 378 20 309 20 175 C20 66 66 -6 182 -6 C221 -6 255 2 281 12 C296 17 310 22 323 29 L301 82 C289 77 277 72 264 68 C243 62 216 56 194 56 C136 56 118 94 112 139 C244 141 326 201 326 273 C326 332 290 378 201 378 L201 378 Z M109 193 C112 253 128 320 194 320 C221 320 240 302 240 273 C240 238 203 196 109 193 L109 193 Z M148 475 C148 502 132 522 102 522 C70 522 54 502 54 473 C54 446 71 426 100 426 C132 426 148 447 148 475 L148 475 Z M298 475 C298 502 282 522 252 522 C220 522 204 502 204 473 C204 446 221 426 250 426 C282 426 298 447 298 475 L298 475 Z " />
<glyph glyph-name="igrave" unicode="&#xec;" horiz-adv-x="196" d="M177 63 L158 63 C143 63 136 69 136 93 L136 378 L24 378 L24 321 L50 321 L50 84 C50 34 79 0 132 0 C150 0 186 0 186 0 L177 63 L177 63 Z M151 402 L188 441 L60 584 L2 530 C32 493 69 462 99 438 C116 426 134 414 151 402 L151 402 Z " />
<glyph glyph-name="iacute" unicode="&#xed;" horiz-adv-x="196" d="M177 63 L158 63 C143 63 136 69 136 93 L136 378 L24 378 L24 321 L50 321 L50 84 C50 34 79 0 132 0 C150 0 186 0 186 0 L177 63 L177 63 Z M4 437 L41 398 C58 409 75 422 92 434 C122 457 159 489 189 526 L131 580 L4 437 Z " />
<glyph glyph-name="icircumflex" unicode="&#xee;" horiz-adv-x="196" d="M177 63 L158 63 C143 63 136 69 136 93 L136 378 L24 378 L24 321 L50 321 L50 84 C50 34 79 0 132 0 C150 0 186 0 186 0 L177 63 L177 63 Z M-42 438 L-9 398 C1 403 12 410 24 418 C44 432 70 450 99 475 C127 451 154 432 174 418 C186 410 198 403 207 398 L240 438 L99 579 L-42 438 Z " />
<glyph glyph-name="idieresis" unicode="&#xef;" horiz-adv-x="196" d="M177 63 L158 63 C143 63 136 69 136 93 L136 378 L24 378 L24 321 L50 321 L50 84 C50 34 79 0 132 0 C150 0 186 0 186 0 L177 63 L177 63 Z M69 475 C69 502 53 522 23 522 C-9 522 -25 502 -25 473 C-25 446 -8 426 21 426 C53 426 69 447 69 475 L69 475 Z M219 475 C219 502 203 522 173 522 C141 522 125 502 125 473 C125 446 142 426 171 426 C203 426 219 447 219 475 L219 475 Z " />
<glyph glyph-name="eth" unicode="&#xf0;" horiz-adv-x="393" d="M187 -6 C302 -6 358 77 358 189 C358 283 338 367 296 436 L366 451 L333 504 L260 484 C237 511 211 532 182 550 L139 496 L179 465 L123 453 L164 402 L222 418 C234 396 247 372 257 344 C240 356 216 366 186 366 C79 366 23 286 23 181 C23 73 72 -6 187 -6 L187 -6 Z M116 188 C116 254 129 305 186 305 C250 305 265 250 265 182 C265 117 251 51 194 51 C130 51 116 121 116 188 L116 188 Z " />
<glyph glyph-name="ntilde" unicode="&#xf1;" horiz-adv-x="386" d="M320 351 C301 370 275 379 242 379 C188 379 134 354 108 295 L99 378 L40 378 L40 0 L126 0 L126 182 C122 261 172 311 216 311 C251 311 265 284 265 242 L265 0 L351 0 L351 250 C351 296 341 330 320 351 L320 351 Z M75 506 L75 450 C80 451 86 453 92 455 C103 457 118 460 135 460 C172 460 213 445 250 445 C267 445 281 448 293 454 C298 456 304 459 310 463 L310 519 C304 517 298 515 293 514 C281 511 267 508 250 508 C213 508 172 523 135 523 C118 523 103 520 92 514 C86 512 80 509 75 506 L75 506 Z " />
<glyph glyph-name="ograve" unicode="&#xf2;" horiz-adv-x="377" d="M356 193 C356 312 306 384 191 384 C77 384 20 298 20 184 C20 67 70 -6 185 -6 C300 -6 356 81 356 193 L356 193 Z M113 192 C113 264 127 320 184 320 C248 320 263 260 263 185 C263 113 249 58 192 58 C128 58 113 118 113 192 L113 192 Z M239 406 L276 445 L148 588 L90 534 C120 497 157 466 187 442 C204 430 222 418 239 406 L239 406 Z " />
<glyph glyph-name="oacute" unicode="&#xf3;" horiz-adv-x="377" d="M356 193 C356 312 306 384 191 384 C77 384 20 298 20 184 C20 67 70 -6 185 -6 C300 -6 356 81 356 193 L356 193 Z M113 192 C113 264 127 320 184 320 C248 320 263 260 263 185 C263 113 249 58 192 58 C128 58 113 118 113 192 L113 192 Z M95 435 L132 396 C149 407 166 420 183 432 C213 455 250 487 280 524 L222 578 L95 435 Z " />
<glyph glyph-name="ocircumflex" unicode="&#xf4;" horiz-adv-x="377" d="M356 193 C356 312 306 384 191 384 C77 384 20 298 20 184 C20 67 70 -6 185 -6 C300 -6 356 81 356 193 L356 193 Z M113 192 C113 264 127 320 184 320 C248 320 263 260 263 185 C263 113 249 58 192 58 C128 58 113 118 113 192 L113 192 Z M48 438 L81 398 C91 403 102 410 114 418 C134 432 160 450 189 475 C217 451 244 432 264 418 C276 410 288 403 297 398 L330 438 L189 579 L48 438 Z " />
<glyph glyph-name="otilde" unicode="&#xf5;" horiz-adv-x="377" d="M356 193 C356 312 306 384 191 384 C77 384 20 298 20 184 C20 67 70 -6 185 -6 C300 -6 356 81 356 193 L356 193 Z M113 192 C113 264 127 320 184 320 C248 320 263 260 263 185 C263 113 249 58 192 58 C128 58 113 118 113 192 L113 192 Z M71 506 L71 450 C76 451 82 453 88 455 C99 457 114 460 131 460 C168 460 209 445 246 445 C263 445 277 448 289 454 C294 456 300 459 306 463 L306 519 C300 517 294 515 289 514 C277 511 263 508 246 508 C209 508 168 523 131 523 C114 523 99 520 88 514 C82 512 76 509 71 506 L71 506 Z " />
<glyph glyph-name="odieresis" unicode="&#xf6;" horiz-adv-x="377" d="M356 193 C356 312 306 384 191 384 C77 384 20 298 20 184 C20 67 70 -6 185 -6 C300 -6 356 81 356 193 L356 193 Z M113 192 C113 264 127 320 184 320 C248 320 263 260 263 185 C263 113 249 58 192 58 C128 58 113 118 113 192 L113 192 Z M159 475 C159 502 143 522 113 522 C81 522 65 502 65 473 C65 446 82 426 111 426 C143 426 159 447 159 475 L159 475 Z M309 475 C309 502 293 522 263 522 C231 522 215 502 215 473 C215 446 232 426 261 426 C293 426 309 447 309 475 L309 475 Z " />
<glyph glyph-name="oslash" unicode="&#xf8;" horiz-adv-x="369" d="M238 378 C222 381 206 383 185 383 C71 383 14 297 14 184 C14 114 32 61 68 29 L48 -13 L107 -40 L125 0 C143 -4 160 -6 179 -6 C293 -6 350 81 350 192 C350 262 332 315 296 348 L316 389 L257 416 L238 378 Z M103 191 C103 264 121 321 178 321 C189 321 200 320 209 318 L108 110 C103 131 103 156 103 191 L103 191 Z M256 267 C261 245 261 218 261 185 C261 114 243 56 186 56 C173 56 163 57 155 59 L256 267 Z " />
<glyph glyph-name="ugrave" unicode="&#xf9;" horiz-adv-x="392" d="M265 378 L265 189 C269 110 220 58 176 58 C140 58 127 83 127 125 L127 378 L40 378 L40 123 C40 77 51 43 72 22 C91 3 116 -6 150 -6 C204 -6 256 17 283 75 L291 7 L352 0 L352 378 L265 378 L265 378 Z M249 379 L286 418 L158 561 L100 507 C130 470 167 439 197 415 C214 403 232 391 249 379 L249 379 Z " />
<glyph glyph-name="uacute" unicode="&#xfa;" horiz-adv-x="392" d="M265 378 L265 189 C269 110 220 58 176 58 C140 58 127 83 127 125 L127 378 L40 378 L40 123 C40 77 51 43 72 22 C91 3 116 -6 150 -6 C204 -6 256 17 283 75 L291 7 L352 0 L352 378 L265 378 L265 378 Z M102 425 L139 386 C156 397 173 410 190 422 C220 445 257 477 287 514 L229 568 L102 425 Z " />
<glyph glyph-name="ucircumflex" unicode="&#xfb;" horiz-adv-x="392" d="M265 378 L265 189 C269 110 220 58 176 58 C140 58 127 83 127 125 L127 378 L40 378 L40 123 C40 77 51 43 72 22 C91 3 116 -6 150 -6 C204 -6 256 17 283 75 L291 7 L352 0 L352 378 L265 378 L265 378 Z M56 438 L89 398 C99 403 110 410 122 418 C142 432 168 450 197 475 C225 451 252 432 272 418 C284 410 296 403 305 398 L338 438 L197 579 L56 438 Z " />
<glyph glyph-name="udieresis" unicode="&#xfc;" horiz-adv-x="392" d="M265 378 L265 189 C269 110 220 58 176 58 C140 58 127 83 127 125 L127 378 L40 378 L40 123 C40 77 51 43 72 22 C91 3 116 -6 150 -6 C204 -6 256 17 283 75 L291 7 L352 0 L352 378 L265 378 L265 378 Z M167 475 C167 502 151 522 121 522 C89 522 73 502 73 473 C73 446 90 426 119 426 C151 426 167 447 167 475 L167 475 Z M317 475 C317 502 301 522 271 522 C239 522 223 502 223 473 C223 446 240 426 269 426 C301 426 317 447 317 475 L317 475 Z " />
<glyph glyph-name="yacute" unicode="&#xfd;" horiz-adv-x="392" d="M349 151 L353 378 L264 378 L264 164 C259 100 213 59 175 59 C140 59 127 84 127 126 L127 378 L40 378 L40 123 C40 77 51 43 72 22 C91 3 116 -6 150 -6 C201 -6 251 14 279 68 C270 -85 206 -125 106 -67 L84 -133 C134 -162 207 -181 272 -139 C320 -106 347 -51 349 139 C349 143 349 147 349 151 L349 151 Z M102 425 L139 386 C156 397 173 410 190 422 C220 445 257 477 287 514 L229 568 L102 425 Z " />
<glyph glyph-name="thorn" unicode="&#xfe;" horiz-adv-x="396" d="M126 494 L126 710 L40 710 L40 0 L126 0 L126 166 C146 164 166 161 185 161 C290 161 364 245 364 359 C364 472 320 545 226 545 C179 545 146 528 126 494 L126 494 Z M126 343 C128 415 164 484 212 484 C266 484 271 421 271 352 C271 277 249 222 175 222 C159 222 135 227 126 230 L126 343 Z " />
<glyph glyph-name="ydieresis" unicode="&#xff;" horiz-adv-x="392" d="M349 151 L353 378 L264 378 L264 164 C259 100 213 59 175 59 C140 59 127 84 127 126 L127 378 L40 378 L40 123 C40 77 51 43 72 22 C91 3 116 -6 150 -6 C201 -6 251 14 279 68 C270 -85 206 -125 106 -67 L84 -133 C134 -162 207 -181 272 -139 C320 -106 347 -51 349 139 C349 143 349 147 349 151 L349 151 Z M167 475 C167 502 151 522 121 522 C89 522 73 502 73 473 C73 446 90 426 119 426 C151 426 167 447 167 475 L167 475 Z M317 475 C317 502 301 522 271 522 C239 522 223 502 223 473 C223 446 240 426 269 426 C301 426 317 447 317 475 L317 475 Z " />
<glyph glyph-name="Cacute" unicode="&#x106;" horiz-adv-x="397" d="M339 410 L380 459 C356 487 319 513 258 513 C108 513 37 404 37 246 C37 81 105 -6 240 -6 C278 -6 311 0 335 7 C348 11 361 14 372 20 L351 83 C344 81 302 58 257 58 C161 58 135 149 135 254 C135 360 165 443 249 443 C285 443 310 434 339 410 L339 410 Z M106 625 L143 586 C160 597 177 610 194 622 C224 645 261 677 291 714 L233 768 L106 625 Z " />
<glyph glyph-name="cacute" unicode="&#x107;" horiz-adv-x="322" d="M252 282 L301 328 C277 359 246 378 198 378 C101 378 26 306 26 175 C26 66 74 -6 190 -6 C223 -6 248 0 267 6 C278 9 288 12 296 17 L275 71 C267 67 258 65 249 63 C234 59 216 56 202 56 C167 56 119 71 119 187 C119 302 168 312 198 312 C223 312 237 299 252 282 L252 282 Z M68 425 L105 386 C122 397 139 410 156 422 C186 445 223 477 253 514 L195 568 L68 425 Z " />
<glyph glyph-name="Ccaron" unicode="&#x10c;" horiz-adv-x="397" d="M339 410 L380 459 C356 487 319 513 258 513 C108 513 37 404 37 246 C37 81 105 -6 240 -6 C278 -6 311 0 335 7 C348 11 361 14 372 20 L351 83 C344 81 302 58 257 58 C161 58 135 149 135 254 C135 360 165 443 249 443 C285 443 310 434 339 410 L339 410 Z M90 759 L57 719 L198 578 L339 719 L306 759 C297 754 285 747 273 739 C253 725 226 706 198 682 C169 707 143 725 123 739 C111 747 100 754 90 759 L90 759 Z " />
<glyph glyph-name="ccaron" unicode="&#x10d;" horiz-adv-x="322" d="M252 282 L301 328 C277 359 246 378 198 378 C101 378 26 306 26 175 C26 66 74 -6 190 -6 C223 -6 248 0 267 6 C278 9 288 12 296 17 L275 71 C267 67 258 65 249 63 C234 59 216 56 202 56 C167 56 119 71 119 187 C119 302 168 312 198 312 C223 312 237 299 252 282 L252 282 Z M52 567 L19 527 L160 386 L301 527 L268 567 C259 562 247 555 235 547 C215 533 188 514 160 490 C131 515 105 533 85 547 C73 555 62 562 52 567 L52 567 Z " />
<glyph glyph-name="Dcaron" unicode="&#x10e;" horiz-adv-x="476" d="M40 508 L40 0 L178 -1 C357 -1 438 91 438 258 C438 424 358 510 188 510 C147 510 98 508 40 508 L40 508 Z M130 442 C140 442 154 442 177 442 C296 442 340 366 340 250 C340 129 294 67 189 67 C156 67 141 67 130 67 L130 442 Z M130 759 L97 719 L238 578 L379 719 L346 759 C337 754 325 747 313 739 C293 725 266 706 238 682 C209 707 183 725 163 739 C151 747 140 754 130 759 L130 759 Z " />
<glyph glyph-name="Edotaccent" unicode="&#x116;" horiz-adv-x="374" d="M40 508 L40 0 L353 0 L353 69 L129 69 L129 231 L304 231 L304 299 L129 299 L129 440 L342 440 L342 508 L40 508 Z M242 657 C242 690 223 713 188 713 C149 713 131 688 131 655 C131 625 150 599 185 599 C224 599 242 625 242 657 L242 657 Z " />
<glyph glyph-name="edotaccent" unicode="&#x117;" horiz-adv-x="354" d="M201 378 C99 378 20 309 20 175 C20 66 66 -6 182 -6 C221 -6 255 2 281 12 C296 17 310 22 323 29 L301 82 C289 77 277 72 264 68 C243 62 216 56 194 56 C136 56 118 94 112 139 C244 141 326 201 326 273 C326 332 290 378 201 378 L201 378 Z M109 193 C112 253 128 320 194 320 C221 320 240 302 240 273 C240 238 203 196 109 193 L109 193 Z M232 457 C232 490 213 513 178 513 C139 513 121 488 121 455 C121 425 140 399 175 399 C214 399 232 425 232 457 L232 457 Z " />
<glyph glyph-name="Ecaron" unicode="&#x11a;" horiz-adv-x="374" d="M40 508 L40 0 L353 0 L353 69 L129 69 L129 231 L304 231 L304 299 L129 299 L129 440 L342 440 L342 508 L40 508 Z M79 759 L46 719 L187 578 L328 719 L295 759 C286 754 274 747 262 739 C242 725 215 706 187 682 C158 707 132 725 112 739 C100 747 89 754 79 759 L79 759 Z " />
<glyph glyph-name="ecaron" unicode="&#x11b;" horiz-adv-x="354" d="M201 378 C99 378 20 309 20 175 C20 66 66 -6 182 -6 C221 -6 255 2 281 12 C296 17 310 22 323 29 L301 82 C289 77 277 72 264 68 C243 62 216 56 194 56 C136 56 118 94 112 139 C244 141 326 201 326 273 C326 332 290 378 201 378 L201 378 Z M109 193 C112 253 128 320 194 320 C221 320 240 302 240 273 C240 238 203 196 109 193 L109 193 Z M70 566 L37 526 L178 385 L319 526 L286 566 C277 561 265 554 253 546 C233 532 206 513 178 489 C149 514 123 532 103 546 C91 554 80 561 70 566 L70 566 Z " />
<glyph glyph-name="Lslash" unicode="&#x141;" horiz-adv-x="370" d="M160 68 L160 256 L221 317 L177 362 L160 345 L160 508 L70 508 L70 255 L6 191 L50 146 L70 166 L70 0 L350 0 L350 68 L160 68 L160 68 Z " />
<glyph glyph-name="lslash" unicode="&#x142;" horiz-adv-x="248" d="M227 62 C227 62 197 62 187 62 C170 62 161 70 161 93 L161 254 L225 317 L180 362 L161 343 L161 542 L49 542 L49 485 L75 485 L75 257 L9 191 L53 146 L75 168 L75 85 C75 35 101 0 158 0 L238 0 L227 62 L227 62 Z " />
<glyph glyph-name="Nacute" unicode="&#x143;" horiz-adv-x="470" d="M340 508 L347 154 C328 184 307 216 111 508 L40 508 L40 0 L130 0 L122 363 C142 332 166 294 355 0 L430 0 L430 508 L340 508 Z M142 625 L179 586 C196 597 213 610 230 622 C260 645 297 677 327 714 L269 768 L142 625 Z " />
<glyph glyph-name="nacute" unicode="&#x144;" horiz-adv-x="386" d="M320 351 C301 370 275 379 242 379 C188 379 134 354 108 295 L99 378 L40 378 L40 0 L126 0 L126 182 C122 261 172 311 216 311 C251 311 265 284 265 242 L265 0 L351 0 L351 250 C351 296 341 330 320 351 L320 351 Z M100 425 L137 386 C154 397 171 410 188 422 C218 445 255 477 285 514 L227 568 L100 425 Z " />
<glyph glyph-name="Ncaron" unicode="&#x147;" horiz-adv-x="470" d="M340 508 L347 154 C328 184 307 216 111 508 L40 508 L40 0 L130 0 L122 363 C142 332 166 294 355 0 L430 0 L430 508 L340 508 Z M127 759 L94 719 L235 578 L376 719 L343 759 C334 754 322 747 310 739 C290 725 263 706 235 682 C206 707 180 725 160 739 C148 747 137 754 127 759 L127 759 Z " />
<glyph glyph-name="OE" unicode="&#x152;" horiz-adv-x="653" d="M318 -2 L632 -2 L632 66 L408 66 L408 230 L583 230 L583 299 L408 299 L408 438 L621 438 L621 506 L327 506 C312 509 292 513 265 513 C112 513 43 402 43 245 C43 87 105 -6 255 -6 C274 -6 297 -4 318 -2 L318 -2 Z M318 68 C300 66 280 63 266 63 C164 63 141 152 141 254 C141 361 168 443 255 443 C284 443 304 438 318 433 L318 68 Z " />
<glyph glyph-name="oe" unicode="&#x153;" horiz-adv-x="574" d="M319 351 C294 362 250 377 196 377 C90 377 17 293 17 180 C17 67 61 -6 155 -6 C211 -6 245 17 264 63 C288 18 333 -7 402 -7 C440 -7 474 1 501 10 C516 15 530 20 543 27 L520 81 C508 76 496 72 483 68 C462 61 435 55 414 55 C355 55 337 93 331 139 C463 141 546 201 546 274 C546 334 510 381 420 381 C381 381 348 371 319 351 L319 351 Z M270 299 C250 267 240 227 240 176 C240 158 240 141 243 125 C229 83 203 54 169 54 C115 54 110 118 110 187 C110 262 132 317 206 317 C232 317 252 309 270 299 L270 299 Z M329 194 C331 254 348 321 414 321 C441 321 459 303 459 274 C459 239 423 196 329 194 L329 194 Z " />
<glyph glyph-name="Racute" unicode="&#x154;" horiz-adv-x="423" d="M370 370 C370 458 314 509 191 509 C153 509 98 507 40 507 L40 0 L130 0 L130 219 L151 219 C225 219 250 158 319 0 L417 0 C353 103 343 205 277 244 C343 264 370 311 370 370 L370 370 Z M130 444 L179 444 C252 444 274 403 274 359 C274 310 242 285 187 285 L130 285 L130 444 Z M119 625 L156 586 C173 597 190 610 207 622 C237 645 274 677 304 714 L246 768 L119 625 Z " />
<glyph glyph-name="racute" unicode="&#x155;" horiz-adv-x="267" d="M248 376 C239 378 227 380 216 380 C168 380 129 355 108 299 L100 378 L40 378 L40 0 L126 0 L126 207 C132 260 165 294 201 294 C216 294 225 291 238 286 L262 372 L248 376 L248 376 Z M41 425 L78 386 C95 397 112 410 129 422 C159 445 196 477 226 514 L168 568 L41 425 Z " />
<glyph glyph-name="Rcaron" unicode="&#x158;" horiz-adv-x="423" d="M370 370 C370 458 314 509 191 509 C153 509 98 507 40 507 L40 0 L130 0 L130 219 L151 219 C225 219 250 158 319 0 L417 0 C353 103 343 205 277 244 C343 264 370 311 370 370 L370 370 Z M130 444 L179 444 C252 444 274 403 274 359 C274 310 242 285 187 285 L130 285 L130 444 Z M103 759 L70 719 L211 578 L352 719 L319 759 C310 754 298 747 286 739 C266 725 239 706 211 682 C182 707 156 725 136 739 C124 747 113 754 103 759 L103 759 Z " />
<glyph glyph-name="rcaron" unicode="&#x159;" horiz-adv-x="267" d="M248 376 C239 378 227 380 216 380 C168 380 129 355 108 299 L100 378 L40 378 L40 0 L126 0 L126 207 C132 260 165 294 201 294 C216 294 225 291 238 286 L262 372 L248 376 L248 376 Z M26 559 L-7 519 L134 378 L275 519 L242 559 C233 554 221 547 209 539 C189 525 162 506 134 482 C105 507 79 525 59 539 C47 547 36 554 26 559 L26 559 Z " />
<glyph glyph-name="Sacute" unicode="&#x15a;" horiz-adv-x="372" d="M346 473 C330 483 269 513 198 513 C105 513 39 452 39 378 C39 290 92 256 182 218 C227 200 257 183 257 138 C257 92 232 65 179 65 C157 65 126 77 100 88 C84 95 69 103 54 113 L22 43 C42 32 107 -6 185 -6 C294 -6 354 70 354 148 C354 230 307 264 227 296 C165 320 137 346 137 391 C137 426 168 443 204 443 C227 443 252 433 273 425 C286 420 298 414 309 408 L346 473 Z M93 625 L130 586 C147 597 164 610 181 622 C211 645 248 677 278 714 L220 768 L93 625 Z " />
<glyph glyph-name="sacute" unicode="&#x15b;" horiz-adv-x="292" d="M235 369 C213 377 184 384 154 384 C82 384 27 336 27 279 C27 220 58 187 135 158 C171 143 190 122 190 96 C190 73 174 58 139 58 C119 58 96 67 75 76 C64 81 52 87 41 94 L13 30 C26 23 40 17 55 12 C80 3 114 -6 147 -6 C231 -6 278 49 278 106 C278 170 239 197 177 221 C136 237 115 260 115 287 C115 309 134 320 157 320 C176 320 198 314 216 308 C225 304 235 300 245 295 L271 355 C260 360 248 365 235 369 L235 369 Z M53 425 L90 386 C107 397 124 410 141 422 C171 445 208 477 238 514 L180 568 L53 425 Z " />
<glyph glyph-name="Scaron" unicode="&#x160;" horiz-adv-x="372" d="M346 473 C330 483 269 513 198 513 C105 513 39 452 39 378 C39 290 92 256 182 218 C227 200 257 183 257 138 C257 92 232 65 179 65 C157 65 126 77 100 88 C84 95 69 103 54 113 L22 43 C42 32 107 -6 185 -6 C294 -6 354 70 354 148 C354 230 307 264 227 296 C165 320 137 346 137 391 C137 426 168 443 204 443 C227 443 252 433 273 425 C286 420 298 414 309 408 L346 473 Z M75 759 L42 719 L183 578 L324 719 L291 759 C282 754 270 747 258 739 C238 725 211 706 183 682 C154 707 128 725 108 739 C96 747 85 754 75 759 L75 759 Z " />
<glyph glyph-name="scaron" unicode="&#x161;" horiz-adv-x="292" d="M235 369 C213 377 184 384 154 384 C82 384 27 336 27 279 C27 220 58 187 135 158 C171 143 190 122 190 96 C190 73 174 58 139 58 C119 58 96 67 75 76 C64 81 52 87 41 94 L13 30 C26 23 40 17 55 12 C80 3 114 -6 147 -6 C231 -6 278 49 278 106 C278 170 239 197 177 221 C136 237 115 260 115 287 C115 309 134 320 157 320 C176 320 198 314 216 308 C225 304 235 300 245 295 L271 355 C260 360 248 365 235 369 L235 369 Z M35 559 L2 519 L143 378 L284 519 L251 559 C242 554 230 547 218 539 C198 525 171 506 143 482 C114 507 88 525 68 539 C56 547 45 554 35 559 L35 559 Z " />
<glyph glyph-name="Tcaron" unicode="&#x164;" horiz-adv-x="379" d="M17 508 L10 440 L145 440 L145 0 L234 0 L234 440 L366 440 L361 508 L17 508 Z M81 759 L48 719 L189 578 L330 719 L297 759 C288 754 276 747 264 739 C244 725 217 706 189 682 C160 707 134 725 114 739 C102 747 91 754 81 759 L81 759 Z " />
<glyph glyph-name="uring" unicode="&#x16f;" horiz-adv-x="392" d="M265 378 L265 189 C269 110 220 58 176 58 C140 58 127 83 127 125 L127 378 L40 378 L40 123 C40 77 51 43 72 22 C91 3 116 -6 150 -6 C204 -6 256 17 283 75 L291 7 L352 0 L352 378 L265 378 L265 378 Z M197 538 C153 538 121 507 121 463 C121 420 152 387 195 387 C239 387 271 420 271 463 C271 507 240 538 197 538 L197 538 Z M196 424 C175 424 163 440 163 463 C163 488 174 500 196 500 C217 500 229 486 229 463 C229 439 217 424 196 424 L196 424 Z " />
<glyph glyph-name="Ydieresis" unicode="&#x178;" horiz-adv-x="418" d="M163 195 L163 0 L253 0 L253 191 L414 508 L317 508 L209 280 L103 508 L5 508 L163 195 Z M180 675 C180 702 164 722 134 722 C102 722 86 702 86 673 C86 646 103 626 132 626 C164 626 180 647 180 675 L180 675 Z M330 675 C330 702 314 722 284 722 C252 722 236 702 236 673 C236 646 253 626 282 626 C314 626 330 647 330 675 L330 675 Z " />
<glyph glyph-name="Zacute" unicode="&#x179;" horiz-adv-x="380" d="M20 0 L360 0 L360 70 L135 69 L351 454 L346 508 L32 508 L32 438 L239 440 L20 54 L20 0 Z M97 625 L134 586 C151 597 168 610 185 622 C215 645 252 677 282 714 L224 768 L97 625 Z " />
<glyph glyph-name="Zdotaccent" unicode="&#x17b;" horiz-adv-x="380" d="M20 0 L360 0 L360 70 L135 69 L351 454 L346 508 L32 508 L32 438 L239 440 L20 54 L20 0 Z M245 657 C245 690 226 713 191 713 C152 713 134 688 134 655 C134 625 153 599 188 599 C227 599 245 625 245 657 L245 657 Z " />
<glyph glyph-name="zdotaccent" unicode="&#x17c;" horiz-adv-x="326" d="M26 0 L298 0 L298 62 L130 60 L292 326 L285 378 L32 378 L32 315 L191 317 L26 51 L26 0 Z M218 457 C218 490 199 513 164 513 C125 513 107 488 107 455 C107 425 126 399 161 399 C200 399 218 425 218 457 L218 457 Z " />
<glyph glyph-name="Zcaron" unicode="&#x17d;" horiz-adv-x="380" d="M20 0 L360 0 L360 70 L135 69 L351 454 L346 508 L32 508 L32 438 L239 440 L20 54 L20 0 Z M79 759 L46 719 L187 578 L328 719 L295 759 C286 754 274 747 262 739 C242 725 215 706 187 682 C158 707 132 725 112 739 C100 747 89 754 79 759 L79 759 Z " />
<glyph glyph-name="zcaron" unicode="&#x17e;" horiz-adv-x="326" d="M26 0 L298 0 L298 62 L130 60 L292 326 L285 378 L32 378 L32 315 L191 317 L26 51 L26 0 Z M52 559 L19 519 L160 378 L301 519 L268 559 C259 554 247 547 235 539 C215 525 188 506 160 482 C131 507 105 525 85 539 C73 547 62 554 52 559 L52 559 Z " />
<glyph glyph-name="circumflex" unicode="&#x2c6;" horiz-adv-x="342" d="M30 438 L63 398 C73 403 84 410 96 418 C116 432 142 450 171 475 C199 451 226 432 246 418 C258 410 270 403 279 398 L312 438 L171 579 L30 438 L30 438 Z " />
<glyph glyph-name="caron" unicode="&#x2c7;" horiz-adv-x="348" d="M69 559 L36 519 L177 378 L318 519 L285 559 C276 554 264 547 252 539 C232 525 205 506 177 482 C148 507 122 525 102 539 C90 547 79 554 69 559 L69 559 Z " />
<glyph glyph-name="dotaccent" unicode="&#x2d9;" horiz-adv-x="193" d="M151 457 C151 490 132 513 97 513 C58 513 40 488 40 455 C40 425 59 399 94 399 C133 399 151 425 151 457 L151 457 Z " />
<glyph glyph-name="ring" unicode="&#x2da;" horiz-adv-x="212" d="M107 538 C63 538 31 507 31 463 C31 420 62 387 105 387 C149 387 181 420 181 463 C181 507 150 538 107 538 L107 538 Z M106 424 C85 424 73 440 73 463 C73 488 84 500 106 500 C127 500 139 486 139 463 C139 439 127 424 106 424 L106 424 Z " />
<glyph glyph-name="tilde" unicode="&#x2dc;" horiz-adv-x="335" d="M48 506 L48 450 C53 451 59 453 65 455 C76 457 91 460 108 460 C145 460 186 445 223 445 C240 445 254 448 266 454 C271 456 277 459 283 463 L283 519 C277 517 271 515 266 514 C254 511 240 508 223 508 C186 508 145 523 108 523 C91 523 76 520 65 514 C59 512 53 509 48 506 L48 506 Z " />
<glyph glyph-name="quoteleft" unicode="&#x2018;" horiz-adv-x="183" d="M117 303 C123 306 126 308 129 310 C124 348 84 408 164 469 L132 513 C78 486 28 434 28 353 C28 320 44 297 79 297 C97 297 109 300 117 303 L117 303 Z " />
<glyph glyph-name="quoteright" unicode="&#x2019;" horiz-adv-x="237" d="M88 506 C82 504 79 502 76 500 C81 462 121 401 41 341 L73 296 C128 324 177 376 177 457 C177 490 161 513 126 513 C108 513 96 509 88 506 L88 506 Z " />
<glyph glyph-name="quotedblleft" unicode="&#x201c;" horiz-adv-x="339" d="M272 303 C277 305 281 308 283 310 C278 347 238 408 318 469 L286 513 C232 485 182 434 182 353 C182 320 198 296 233 296 C251 296 263 300 272 303 L272 303 Z M122 303 C127 305 131 308 133 310 C128 347 88 408 168 469 L136 513 C82 485 32 434 32 353 C32 320 48 296 83 296 C101 296 113 300 122 303 L122 303 Z " />
<glyph glyph-name="quotedblright" unicode="&#x201d;" horiz-adv-x="348" d="M76 507 L76 507 C71 504 67 502 65 500 C69 462 110 401 29 341 L62 297 C116 324 165 376 165 457 C165 490 149 513 114 513 C96 513 84 510 76 507 L76 507 Z M226 507 C221 504 217 502 215 500 C219 462 260 401 179 341 L212 297 C266 324 315 376 315 457 C315 490 299 513 264 513 C246 513 234 510 226 507 L226 507 Z " />
<glyph glyph-name="ellipsis" unicode="&#x2026;" horiz-adv-x="600" d="M158 52 C158 85 139 108 104 108 C65 108 47 82 47 49 C47 19 66 -6 101 -6 C140 -6 158 19 158 52 L158 52 Z M358 52 C358 85 339 108 304 108 C265 108 247 82 247 49 C247 19 266 -6 301 -6 C340 -6 358 19 358 52 L358 52 Z M558 52 C558 85 539 108 504 108 C465 108 447 82 447 49 C447 19 466 -6 501 -6 C540 -6 558 19 558 52 L558 52 Z " />
<glyph glyph-name="guilsinglleft" unicode="&#x2039;" horiz-adv-x="249" d="M191 136 L227 177 L129 300 L227 422 L191 463 C171 446 151 428 132 409 C99 377 59 337 30 300 C59 263 99 223 132 190 C151 171 171 153 191 136 L191 136 Z " />
<glyph glyph-name="guilsinglright" unicode="&#x203a;" horiz-adv-x="260" d="M58 463 L22 422 L120 300 L22 177 L58 136 C79 154 98 171 118 190 C151 223 190 263 220 300 C190 337 151 377 118 409 C98 428 79 446 58 463 L58 463 Z " />
<glyph glyph-name="Euro" unicode="&#x20ac;" horiz-adv-x="405" d="M48 324 L39 256 L75 256 C75 249 75 243 75 236 C75 227 75 218 75 210 L48 212 L39 143 L85 143 C110 49 174 0 258 0 C293 0 324 6 347 12 C360 16 372 19 382 24 L363 86 C355 84 316 67 273 67 C229 67 201 96 183 143 L313 143 L324 210 L170 210 C168 221 168 232 168 244 L168 256 L328 256 L339 322 L177 322 C192 380 222 419 267 419 C299 419 322 406 345 382 L389 436 C366 462 332 487 275 487 C178 487 109 422 84 322 L48 324 L48 324 Z " />
</font>
</svg>
