<?xml version="1.0" encoding="UTF-8"?>
<svg xmlns="http://www.w3.org/2000/svg" xmlns:xlink="http://www.w3.org/1999/xlink" version="1.2" >
<font id="Fallen Attena">
<font-face  font-family="Fallen Attena" units-per-em="1000" ascent="750" descent="-250" font-style="normal" font-weight="400" font-stretch="normal" cap-height="700" x-height="500" underline-position="-75" underline-thickness="50" />
<missing-glyph  horiz-adv-x="163" d="" />
<glyph glyph-name="NULL" d="" />
<glyph glyph-name="nonmarkingreturn" unicode="&#xd;" horiz-adv-x="163" d="" />
<glyph glyph-name="space" unicode="&#x20;" horiz-adv-x="163" d="" />
<glyph glyph-name="dollar" unicode="&#x24;" horiz-adv-x="353" d="M303 468 Q329 451 327 419 Q327 397 318 378 Q313 366 302 363 Q300 363 299 363 Q298 363 296 365 Q295 367 292.5 367 Q290 367 288 368 Q281 371 280 373.5 Q279 376 281 381 Q283 395 284 408 Q285 421 281 435 Q280 438 279 440.5 Q278 443 277 446 L275 446 Q275 445 274.5 444.5 Q274 444 274 443 Q261 412 249 382 Q237 352 224 321 Q222 315 226 311 Q240 298 251.5 284.5 Q263 271 273 255 Q281 241 286.5 226.5 Q292 212 292 195 Q293 181 290.5 166.5 Q288 152 280 138 Q274 126 261 118 Q247 108 231.5 101 Q216 94 199 90 Q184 88 170 89 Q156 90 142 96 L130 102 Q127 103 125 100 Q115 78 106 53 L106 52 Q104 48 102 48 Q101 48 100 49 Q99 50 97 51 Q92 49 85 54.5 Q78 60 79 67 Q80 73 80.5 78.5 Q81 84 83 90 Q85 97 86.5 103.5 Q88 110 90 116 Q92 121 88 123 Q68 141 60 160 Q49 185 56 208 Q57 211 59 219 Q62 230 71.5 235 Q81 240 92 238 Q93 238 94 237.5 Q95 237 96 237 Q102 237 102 231 Q108 231 108 226 Q106 218 102 216 Q97 213 97 206 L100 194 Q102 189 103.5 183.5 Q105 178 107 172 Q108 174 108.5 174.5 Q109 175 110 177 Q123 209 135.5 240.5 Q148 272 161 304 Q162 308 160 311 Q139 334 132 359 Q127 376 130.5 392.5 Q134 409 142 424 Q168 470 224 484 Q227 485 230.5 485 Q234 485 238 486 Q241 486 244 490 Q247 497 250.5 504 Q254 511 257 518 Q260 524 268 523 L268 517 Q269 519 269 520 Q269 521 270 523 Q273 522 275.5 522 Q278 522 280 520 Q284 519 288 513 Q289 510 289 502 Q288 497 287 491 Q286 485 285 480 L303 468 Z M157 413 Q150 403 149 395 L151 395 L157 413 Z M272 168 Q270 164 266 154 Q275 160 272 168 Z M191 413 Q179 403 181 388 Q184 394 186.5 400 Q189 406 192 413 L191 413 Z M209 409 Q193 395 190 373 Q191 372 192 372 Q199 390 209 409 Z M103 68 Q107 77 110.5 86.5 Q114 96 118 105 Q118 106 116 106 Q113 96 109.5 87 Q106 78 102 68 L103 68 Z M118 161 Q132 194 145.5 227 Q159 260 173 293 L172 294 Q158 261 144.5 228 Q131 195 117 161 L118 161 Z M136 143 Q142 157 148 169.5 Q154 182 160 196 Q168 215 176 233.5 Q184 252 192 271 Q193 273 193 276 Q193 276 191 277 Q191 276 189 272 Q180 250 170.5 228 Q161 206 151 183 Q146 173 142 163.5 Q138 154 134 144 Q133 143 133 140 Q133 139 134 139 Q136 141 136 143 Z M223 198 Q224 212 221 227 Q215 248 202 264 L145 138 L146 138 L149 138 Q163 142 175.5 148 Q188 154 200 162 Q218 175 223 198 Z M214 324 Q217 330 225.5 348.5 Q234 367 242 387.5 Q250 408 256.5 425 Q263 442 263 445 Q260 442 260 440 Q255 429 251.5 418.5 Q248 408 243 397 Q235 380 228 363 Q221 346 213 329 Q213 326 212 324 L214 324 Z M309 379 Q311 382 311.5 385 Q312 388 313 390 L312 391 L312 389 Q310 386 308 380 Q308 380 309 379 Z " />
<glyph glyph-name="percent" unicode="&#x25;" horiz-adv-x="477" d="M124 105 Q126 109 130 115 Q129 116 129 116 Q127 114 125 111.5 Q123 109 121 106 Q119 108 117.5 108.5 Q116 109 114 111 Q111 109 104 116 Q98 123 103 134 Q111 152 115.5 162.5 Q120 173 125 181 Q130 189 136.5 198.5 Q143 208 155 223 Q175 249 194.5 275.5 Q214 302 234 328 Q257 357 281 385.5 Q305 414 329 443 Q341 457 353.5 471 Q366 485 378 499 Q380 501 382.5 503 Q385 505 387 507 Q392 512 399 508 Q401 507 403.5 507.5 Q406 508 408 507 L410 507 Q411 506 412 505.5 Q413 505 414 503 Q416 500 419 498 Q422 496 420 491 Q418 486 417 481 Q416 476 414 471 Q406 453 395 436.5 Q384 420 372 403 Q354 379 335.5 355.5 Q317 332 299 308 Q270 270 241.5 232.5 Q213 195 184 157 Q177 148 170 140 Q163 132 154 125 Q148 120 143 115 Q138 110 133 105 Q128 101 124 105 Z M366 419 Q378 434 389 449 Q400 464 409 481 Q410 483 410 484.5 Q410 486 411 488 L366 419 Z M173 168 Q181 178 188.5 188 Q196 198 204 209 L203 209 Q195 199 188 189 Q181 179 173 168 Z M263 286 Q262 287 262 287 Q259 282 255.5 278 Q252 274 249 270 L250 269 Q255 276 263 286 Z M219 463 Q234 459 243 445.5 Q252 432 250 416 Q244 380 217 356 Q199 338 177 338 Q169 338 166 340 Q146 348 132 356 Q115 367 108.5 383 Q102 399 104 418 Q109 456 137 479 Q160 499 190 491 Q205 488 216 477 Q221 472 219 463 Z M155 397 Q156 393 156 387 Q158 376 160 375.5 Q162 375 170 380 Q185 388 194.5 401.5 Q204 415 209 432 Q212 439 212 446 Q212 459 199 456 Q197 455 194 454.5 Q191 454 189 452 Q160 433 155 397 Z M148 419 Q153 426 156 432.5 Q159 439 163 447 Q150 437 148 419 Z M226 386 Q236 394 236 405 Q234 400 231.5 395.5 Q229 391 226 386 Z M122 432 Q123 431 124 431 Q126 435 127 438 Q128 441 130 445 Q129 445 129 446 Q127 442 125.5 438.5 Q124 435 122 432 Z M351 132 Q341 132 329 137 Q326 139 322.5 140.5 Q319 142 316 144 Q297 152 289.5 166.5 Q282 181 288 201 Q301 248 346 276 Q360 284 376 278 Q379 276 380 275 Q382 273 386 267 L387 267 Q388 267 388 266.5 Q388 266 389 266 Q407 266 420 253 Q445 235 435 203 Q425 176 407.5 157.5 Q390 139 361 132 L351 132 Z M330 177 L330 175 Q331 169 332 168 Q333 167 339 169 Q383 184 394 230 Q395 234 395 242 Q393 246 391 247 Q389 249 386 249.5 Q383 250 381 252 Q378 257 376.5 255.5 Q375 254 373 252 Q354 236 341 212 Q337 204 333.5 195.5 Q330 187 330 177 Z M343 233 Q328 218 325 199 Q330 208 334 216.5 Q338 225 343 233 Z M423 204 Q420 199 417 193 Q414 187 411 182 Q423 192 423 204 Z M308 216 L307 217 Q305 212 301 204 Q302 203 303 203 Q304 209 308 216 Z " />
<glyph glyph-name="ampersand" unicode="&#x26;" horiz-adv-x="489" d="M460 314 Q461 318 463 320 L464 321 Q466 317 466 315 Q466 297 460 280.5 Q454 264 443 251.5 Q432 239 416.5 230.5 Q401 222 383 220 Q380 219 377 219 Q374 219 370 218 Q366 218 366 214 Q364 191 358.5 170.5 Q353 150 340 131 Q331 117 320 106 Q309 95 297 85 Q267 58 231 54 Q207 51 183.5 53.5 Q160 56 138 68 Q130 72 121.5 76 Q113 80 105 85 Q83 98 70 117 Q57 136 50 160 Q32 227 61 291 Q82 339 134 351 Q136 352 138.5 352 Q141 352 143 353 L151 353 Q149 357 149 357 Q128 388 139 426 Q156 482 212 513 Q255 535 305 534 Q335 532 365 520 Q409 500 409 453 Q409 410 383 378 Q380 374 376.5 371 Q373 368 370 364 Q365 359 358 363 Q356 365 353 366 Q350 367 347 369 Q341 374 345 381 Q350 389 354.5 397.5 Q359 406 363 415 Q372 439 371 462 Q371 473 364 487 Q361 492 356 492 Q328 496 299 487 Q276 479 256.5 467 Q237 455 222 436 Q215 428 211 419.5 Q207 411 203 402 Q198 389 202.5 372.5 Q207 356 222 348 Q226 346 229.5 343.5 Q233 341 237 339 Q239 337 242 334.5 Q245 332 247 330 Q249 326 251 318 Q251 314 249 306 Q246 296 237 298 Q229 300 221.5 301 Q214 302 206 304 Q189 307 174.5 303.5 Q160 300 148.5 292.5 Q137 285 129 274 Q121 263 117 251 Q96 191 122 132 Q126 122 132 114 Q138 106 150 104 Q167 101 180 102 Q207 104 228 117 Q249 130 267 149 Q297 181 303 220 Q303 225 299 226 Q288 227 279 226 Q270 225 260 220 Q238 209 234 187 Q234 184 234.5 180.5 Q235 177 235 174 Q235 166 234 163 Q233 159 228 161 Q222 165 219 166 Q211 168 206 179 Q199 196 205 214 Q211 232 226 243 Q240 253 255 256 Q270 259 287 257 Q298 256 308.5 255.5 Q319 255 330 255 Q391 257 422 309 Q428 318 436 326 Q439 330 443 329.5 Q447 329 451 328 Q452 328 452.5 327.5 Q453 327 455 327 Q460 325 460.5 324 Q461 323 460 318 Q460 317 459 316 Q460 315 460 314 Z M211 447 Q210 448 210 448 Q192 430 191 410 Q200 429 211 447 Z M120 287 Q111 281 107.5 272.5 Q104 264 102 254 Q107 262 111 270.5 Q115 279 120 287 Z M344 177 Q339 167 334.5 158 Q330 149 325 140 Q341 155 344 177 Z M71 264 Q73 269 75.5 274.5 Q78 280 81 286 Q81 288 82 289 Q73 280 71 264 Z M158 422 L159 422 Q162 427 164.5 433 Q167 439 169 444 Q168 444 168 445 Q159 433 158 422 Z M382 392 Q391 401 393 415 Q390 409 387.5 403 Q385 397 382 392 Z M454 290 Q453 290 452 291 Q450 286 448 282.5 Q446 279 444 274 Q445 274 445 273 Q447 278 449.5 281.5 Q452 285 454 290 Z M79 265 L80 264 Q82 268 83.5 272 Q85 276 87 280 Q85 281 85 281 Q83 276 82 272.5 Q81 269 79 265 Z M166 420 L168 420 Q170 423 170.5 426.5 Q171 430 173 434 L171 434 Q170 430 166 420 Z M86 266 L88 266 Q89 269 90.5 272.5 Q92 276 93 280 L92 280 Q90 276 86 266 Z M314 188 Q314 189 313 189 L307 174 Q308 173 308 173 L314 188 Z M229 201 Q230 201 230 200 Q232 203 233.5 206.5 Q235 210 237 213 L236 214 Q234 210 232.5 207 Q231 204 229 201 Z M173 421 Q174 421 174 420.5 Q174 420 175 420 Q177 424 177.5 427 Q178 430 180 434 L179 434 Q177 431 176 427.5 Q175 424 173 421 Z " />
<glyph glyph-name="quotesingle" unicode="&#x27;" horiz-adv-x="195" d="M107 640 L104 643 Q90 652 88.5 664.5 Q87 677 96 691 Q103 699 115 698 Q131 696 141 687 Q151 678 158 664 Q162 656 160 644 Q155 626 147 614 Q136 600 126 586.5 Q116 573 105 560 Q100 555 94.5 551.5 Q89 548 83 544 Q81 542 79.5 542 Q78 542 77 545 Q77 546 74 546 Q71 548 68 548.5 Q65 549 63 551 Q54 555 57 565 Q60 581 69 591 Q77 602 85 611.5 Q93 621 101 632 Q103 634 107 640 Z M146 638 Q144 634 142 630.5 Q140 627 138 623 Q143 628 144.5 630 Q146 632 146 638 Z " />
<glyph glyph-name="parenleft" unicode="&#x28;" horiz-adv-x="272" d="M42 125 Q47 150 52 169.5 Q57 189 62.5 206 Q68 223 75 241.5 Q82 260 91 284 Q108 323 128 363 Q148 403 173 439.5 Q198 476 228.5 506.5 Q259 537 297 557 Q309 560 315.5 558 Q322 556 330 552 Q342 545 339 530 Q337 527 332 527 Q311 522 289 498.5 Q267 475 246.5 445.5 Q226 416 210 386.5 Q194 357 185 341 Q148 271 123.5 192.5 Q99 114 91 43 Q91 38 90 24.5 Q89 11 88.5 -3.5 Q88 -18 89.5 -30 Q91 -42 95 -43 L97 -45 Q99 -52 94 -56 Q89 -60 83 -58 Q64 -50 53.5 -30 Q43 -10 39 16 Q35 42 36 70.5 Q37 99 42 125 Z M243 463 Q234 455 222.5 437 Q211 419 198 397 Q185 375 172 350 Q159 325 149 303 Q139 281 132.5 263.5 Q126 246 126 238 Q171 356 243 463 Z M96 246 Q118 306 147 363 Q131 335 118 306.5 Q105 278 96 246 Z M107 258 Q108 257 108 257 Q113 270 118 282.5 Q123 295 128 308 L127 308 Q122 296 117 283.5 Q112 271 107 258 Z M118 270 L119 270 Q124 281 128 292 Q132 303 137 314 L136 314 Q131 303 127 292 Q123 281 118 270 Z " />
<glyph glyph-name="parenright" unicode="&#x29;" horiz-adv-x="265" d="M259 432 Q258 401 246.5 360 Q235 319 218 273.5 Q201 228 179.5 183 Q158 138 137 99.5 Q116 61 97 32.5 Q78 4 66 -8 Q52 -23 33.5 -35 Q15 -47 -5 -49 Q-17 -51 -34 -48 Q-51 -45 -56 -34 Q-58 -32 -57 -25.5 Q-56 -19 -53 -17 Q-41 -8 -27 -1 Q-13 6 -1 14 Q12 23 33 55.5 Q54 88 78 133 Q102 178 126 230 Q150 282 168.5 332 Q187 382 197.5 424.5 Q208 467 206 491 Q204 508 202 523.5 Q200 539 195 555 Q194 559 193.5 563 Q193 567 197 569 Q205 573 214.5 567 Q224 561 227 555 Q243 531 251 501 Q255 485 257 468.5 Q259 452 259 432 Z M59 8 Q60 8 60 7 Q61 8 61 8.5 Q61 9 62 10 Q87 39 104 75 Q129 123 152.5 171 Q176 219 200 268 Q208 285 214.5 303.5 Q221 322 229 340 L229 343 Q224 332 220.5 322.5 Q217 313 212 303 L134 141 Q117 107 99.5 74 Q82 41 60 10 Q60 8 59 8 Z M75 86 L75 85 Q76 89 79 92 Q93 120 106.5 147 Q120 174 134 202 Q149 233 163.5 264 Q178 295 192 326 Q196 334 198.5 343.5 Q201 353 205 361 Q204 362 203 362 Q190 326 174.5 291.5 Q159 257 142 223 Q125 188 108.5 154 Q92 120 75 86 Z M211 338 L210 339 Q202 321 194.5 303.5 Q187 286 179 269 L180 268 Q188 285 195.5 303 Q203 321 211 338 Z M188 302 L189 302 Q194 313 198.5 324.5 Q203 336 208 348 L207 348 Q202 337 197.5 325.5 Q193 314 188 302 Z " />
<glyph glyph-name="asterisk" unicode="&#x2a;" horiz-adv-x="273" d="M255 521 Q260 518 260 510 Q260 503 251 499 Q241 495 231.5 491.5 Q222 488 212 486 Q204 483 196.5 481.5 Q189 480 181 478 Q179 478 178 477.5 Q177 477 175 477 Q177 473 178 472 Q188 459 195.5 445 Q203 431 211 416 Q214 410 209 404 Q204 399 201 403 Q197 408 193.5 412 Q190 416 185 421 Q180 427 175 433.5 Q170 440 165 446 Q164 447 163 449 Q162 446 160 442 Q149 411 133 386 Q130 380 125 377 Q119 371 114 377 L120 383 Q118 382 117.5 381.5 Q117 381 115 380 Q110 377 108 383 Q108 387 104 387 Q104 388 105 389 Q98 391 102 397 Q107 407 109 417 Q111 427 114 437 Q116 443 118 449.5 Q120 456 122 463 Q120 462 117 462 Q104 459 91.5 456.5 Q79 454 67 452 Q66 452 65 451 Q54 448 47 458 Q45 460 41 466 Q39 471 45 474 Q49 476 53 477.5 Q57 479 61 480 Q76 485 91 489 Q106 493 121 498 Q122 499 123 499 Q124 499 126 500 Q124 504 124 504 Q116 518 107.5 530.5 Q99 543 91 556 Q87 563 86 570 Q84 573 88 577 Q90 579 95 577 Q99 574 103 571.5 Q107 569 109 565 Q117 554 125 543.5 Q133 533 141 522 L144 519 L146 519 L155 540 Q161 553 167.5 566 Q174 579 180 592 Q181 594 184 597 Q190 605 196 597 L199 594 Q203 595 207 588 Q211 581 208.5 575 Q206 569 204 562 Q201 551 197 541 Q193 531 189 521 Q189 519 188 518 Q191 518 191 518 Q201 520 211 521.5 Q221 523 231 525 L234 525 Q241 529 245.5 527 Q250 525 255 521 Z " />
<glyph glyph-name="plus" unicode="&#x2b;" horiz-adv-x="391" d="M243 285 Q241 283 240 281 Q235 267 229.5 253.5 Q224 240 218 226 Q212 212 205.5 197.5 Q199 183 193 169 Q191 167 190.5 165 Q190 163 188 161 Q187 159 186.5 157 Q186 155 182 157 Q176 160 179 165 Q176 164 175 161 L174 161 Q175 163 175 168 Q173 164 172 163 L171 163 Q170 165 170 169 Q168 167 168 165 Q160 173 161 179 Q162 186 162.5 192 Q163 198 164 204 Q166 225 173 243.5 Q180 262 188 281 Q188 282 188.5 283 Q189 284 189 285 Q189 285 189 287 L183 287 Q169 288 155.5 288.5 Q142 289 128 289 Q117 289 107.5 293.5 Q98 298 89 303 Q88 303 86 305 Q85 307 84 309 Q83 311 83 313 Q83 317 90 317 Q101 318 112.5 318.5 Q124 319 136 320 Q153 321 169 321 Q185 321 202 321 Q207 321 208 325 Q217 343 225.5 361 Q234 379 244 396 Q249 405 254.5 413 Q260 421 266 429 Q271 436 278 435 Q280 434 286 432 Q286 432 289 432 L289 429 Q293 433 298 427 Q299 426 300 425.5 Q301 425 302 423 Q304 421 304 419 Q304 409 303 404 Q298 384 291 364.5 Q284 345 276 326 Q275 324 274.5 322.5 Q274 321 273 319 Q278 319 279 318 Q296 316 312.5 314 Q329 312 346 310 Q357 308 364 300 Q367 297 364 288 Q362 285 357 287 Q351 287 345 287 Q339 287 332 286 Q321 286 309.5 285.5 Q298 285 286 284 Q281 284 275 284 Q269 284 263 285 Q259 285 257 281 Q249 260 240.5 239.5 Q232 219 224 198 Q219 187 212.5 176.5 Q206 166 199 155 Q197 153 196 153 Q193 152 189 154 Q186 156 189 159 Q199 173 206 189 Q213 205 219 222 Q224 236 230 250.5 Q236 265 242 279 Q244 283 244 284 Q243 285 243 285 Z M256 319 Q258 319 263.5 331 Q269 343 275 358 Q281 373 286 386 Q291 399 291 402 Q283 381 274 360.5 Q265 340 256 319 Z M265 402 Q264 402 264 403 Q254 382 244.5 361.5 Q235 341 224 321 Q226 320 226 320 Q236 340 245.5 361 Q255 382 265 402 Z M211 286 L209 286 Q201 270 195 254 Q189 238 184 221 Q191 237 197.5 253 Q204 269 211 286 Z M192 223 L193 223 Q200 238 206 253.5 Q212 269 218 285 L217 285 Q211 270 204.5 254.5 Q198 239 192 223 Z M204 237 L205 237 Q210 249 215 261 Q220 273 225 285 Q224 285 224 286 Q219 273 214 261 Q209 249 204 237 Z M240 321 L241 321 Q244 328 247 334.5 Q250 341 254 349 L253 349 Q247 337 240 321 Z " />
<glyph glyph-name="hyphen" unicode="&#x2d;" horiz-adv-x="378" d="M324 305 Q326 303 326.5 301.5 Q327 300 328 299 Q327 294 326 290.5 Q325 287 320 285 Q320 285 316 285 L305 285 Q298 284 291.5 283 Q285 282 278 282 Q261 282 245 282.5 Q229 283 213 283 L162 283 Q157 283 151 283.5 Q145 284 139 285 Q129 286 120 290.5 Q111 295 103 300 Q102 301 101 301.5 Q100 302 99 303 Q97 305 95.5 307.5 Q94 310 96 313 Q97 316 99.5 316 Q102 316 104 317 Q127 320 150.5 322 Q174 324 197 324 Q215 323 232.5 323.5 Q250 324 267 323 Q279 322 290 320.5 Q301 319 312 314 Q320 311 322 306 Q323 306 324 305 Z " />
<glyph glyph-name="comma" unicode="&#x2c;" horiz-adv-x="292" d="M110 -11 Q108 -13 103 -11 Q100 -9 96.5 -7 Q93 -5 91 -3 Q85 3 89 10 Q89 14 92 17 Q102 31 111 45.5 Q120 60 131 74 Q136 82 142.5 89 Q149 96 156 104 Q157 105 157.5 106 Q158 107 160 108 Q151 118 153 132 Q154 144 164 155 Q171 162 183 161 Q189 159 195.5 158.5 Q202 158 209 157 Q217 156 221.5 152 Q226 148 231 143 Q235 139 235.5 135 Q236 131 236 126 Q234 118 231.5 110 Q229 102 224 95 Q207 74 189 54.5 Q171 35 150 18 Q142 12 135 5 Q128 -2 121 -9 Q120 -10 119.5 -11 Q119 -12 118 -13 Q116 -19 112 -15 Q110 -15 110 -11 Z M211 104 Q215 107 218.5 110.5 Q222 114 221 120 Q219 116 216 112 Q213 108 211 104 Z " />
<glyph glyph-name="period" unicode="&#x2e;" horiz-adv-x="164" d="M57 113 Q58 118 59 122.5 Q60 127 62 132 Q65 142 69 144.5 Q73 147 82 145 Q85 145 85 145 Q91 150 97 148 Q103 146 108 143 Q117 139 127 129 Q133 124 135 112 Q135 93 126 78 Q113 59 95 70 L83 76 Q58 86 57 113 Z " />
<glyph glyph-name="slash" unicode="&#x2f;" horiz-adv-x="461" d="M451 556 Q454 545 450 537 Q445 528 440 519 Q435 510 429 502 Q412 478 395.5 454.5 Q379 431 362 408 Q336 375 309.5 342 Q283 309 257 276 Q229 241 198 205 Q178 181 157 157 Q136 133 116 109 Q105 96 94.5 84.5 Q84 73 73 61 Q70 58 64 54 Q57 49 51 58 Q52 61 56 65 Q56 66 55 67 L49 64 Q46 69 43.5 73.5 Q41 78 39 83 Q33 94 40 106 Q42 109 43 111.5 Q44 114 46 117 Q76 155 106 194 Q136 233 166 271 Q202 317 236 359 Q261 388 285 417.5 Q309 447 335 476 Q355 499 374.5 520.5 Q394 542 417 562 Q420 564 423.5 566.5 Q427 569 430 571 Q437 573 439 570 Q440 569 442 564 Q445 565 447.5 562 Q450 559 451 556 Z " />
<glyph glyph-name="zero" unicode="0" horiz-adv-x="310" d="M18 200 Q19 231 25.5 258 Q32 285 43 311 Q76 382 131 429 Q142 438 155 445 Q168 452 182 456 Q201 460 222 452 Q227 449 230.5 445 Q234 441 239 437 Q242 434 244 434 Q258 432 271 418.5 Q284 405 286 388 Q288 376 287 363.5 Q286 351 284 338 Q278 292 260 249 Q252 231 241.5 214 Q231 197 220 181 Q210 168 200.5 155.5 Q191 143 180 131 Q158 107 129 100 Q108 95 89 104 Q84 107 77.5 110 Q71 113 66 116 Q25 138 19 185 Q18 190 18 194 Q18 198 18 200 Z M241 420 Q241 419 240 419 L231 422 Q228 424 224.5 425 Q221 426 219 428 Q213 433 209 429 Q204 426 199.5 422.5 Q195 419 192 414 Q180 398 169 383 Q158 368 147 351 Q120 312 101.5 269 Q83 226 81 177 Q79 160 85 146 Q89 138 92.5 136 Q96 134 104 136 Q118 139 129 145.5 Q140 152 151 160 Q167 174 179 190 Q191 206 202 223 Q214 244 222 267 Q230 290 237 313 Q242 333 246 352.5 Q250 372 248 392 Q248 407 241 420 Z M153 387 Q144 379 132 361.5 Q120 344 108.5 324 Q97 304 89 286 Q81 268 81 259 Q89 275 97 291 Q105 307 113 324 Q121 341 131.5 356.5 Q142 372 153 387 Z M47 266 Q55 282 61.5 298 Q68 314 76 331 Q66 315 59 299 Q52 283 47 266 Z M218 193 Q229 210 239.5 226.5 Q250 243 255 262 Q246 245 237 228 Q228 211 218 193 Z M83 312 Q82 312 82 312.5 Q82 313 81 313 Q77 302 73 292 Q69 282 64 271 Q65 271 66 270 Q71 281 74.5 291 Q78 301 83 312 Z M56 268 Q57 268 58 267 Q62 278 65.5 287.5 Q69 297 73 307 L72 307 Q67 297 63.5 287.5 Q60 278 56 268 Z " />
<glyph glyph-name="one" unicode="1" horiz-adv-x="200" d="M94 366 L52 333 Q48 329 45 328 Q35 321 32 322 Q29 323 20 328 Q12 332 19 338 Q39 356 59.5 373.5 Q80 391 100 410 Q110 418 118.5 428 Q127 438 135 448 Q140 453 142.5 458.5 Q145 464 149 469 Q153 474 155 475 Q157 476 163 476 L163 472 Q165 473 167 475 Q172 473 176 472 Q180 471 184 467 Q189 462 190 457 Q191 452 190 447 Q189 435 185.5 424.5 Q182 414 177 403 Q162 366 146.5 330 Q131 294 117 258 Q105 229 94.5 200.5 Q84 172 73 144 Q71 139 68 135 Q65 131 62 126 Q60 122 59 118.5 Q58 115 56 110 Q54 104 48 108 Q45 110 39 112 Q26 118 25 131 Q22 151 26 170 Q30 189 36 208 Q60 287 93 364 Q94 365 94 366 Z M53 127 Q57 135 59 140 Q63 151 67 161 Q71 171 75 182 Q91 229 109 274 Q127 319 147 364 Q154 380 160.5 395 Q167 410 174 425 Q174 427 174.5 428 Q175 429 175 430 Q176 432 176 434 Q139 359 110.5 282 Q82 205 53 127 Z M131 400 Q127 396 119.5 380.5 Q112 365 103 344 Q94 323 84 298.5 Q74 274 66.5 252.5 Q59 231 54 215 Q49 199 49 194 Q66 248 86.5 298.5 Q107 349 131 400 Z M84 259 Q97 289 109 318.5 Q121 348 134 378 Q120 349 107.5 319 Q95 289 84 259 Z M75 251 Q86 276 95.5 300.5 Q105 325 115 350 Q104 326 93.5 301.5 Q83 277 75 251 Z " />
<glyph glyph-name="two" unicode="2" horiz-adv-x="261" d="M36 143 Q44 145 50.5 146 Q57 147 64 149 Q81 152 97 152.5 Q113 153 129 151 Q140 149 150.5 149 Q161 149 172 152 Q177 154 181.5 153.5 Q186 153 191 152 Q191 152 194 147 L194 146 L196 147 Q200 139 194 135 Q180 123 167 124 Q156 125 145 126 Q134 127 123 127 Q94 128 67.5 122.5 Q41 117 17 101 Q11 96 6 92.5 Q1 89 -3 83 Q-10 75 -18 79 L-15 85 L-16 85 Q-20 80 -23.5 82 Q-27 84 -31 86 Q-47 93 -42 111 Q-39 121 -33 132 Q-18 162 3 188 Q24 214 50 236 Q70 253 91 270.5 Q112 288 132 305 Q146 317 159 330 Q172 343 183 359 Q191 373 197.5 388.5 Q204 404 206 421 Q207 434 203 448 Q201 454 194 454 Q176 455 157 445 Q134 431 119 408 Q108 389 113 365 Q114 363 113.5 360 Q113 357 113 355 Q111 353 108 353 Q105 355 101.5 356 Q98 357 95 359 Q86 366 84 380 Q82 397 87.5 412.5 Q93 428 102.5 440.5 Q112 453 125.5 462.5 Q139 472 153 477 Q173 484 199 478 Q225 472 241 450 Q255 430 256 406.5 Q257 383 248.5 360.5 Q240 338 226 317.5 Q212 297 196 284 Q177 267 158 252 Q139 237 119 222 Q99 206 81 190 Q63 174 46 155 Q44 152 41.5 149 Q39 146 36 143 Z M215 327 Q225 337 230 348 Q235 359 238 373 Q232 361 226.5 349.5 Q221 338 215 327 Z M203 363 Q204 363 205 362 Q207 369 210 375 Q213 381 215 388 L214 388 Q211 382 208.5 375.5 Q206 369 203 363 Z M12 134 Q13 133 14 133 Q18 137 20.5 141.5 Q23 146 26 151 Q26 152 25 152 Q22 147 19 143 Q16 139 12 134 Z M109 405 Q110 405 110 404 Q112 408 114 411.5 Q116 415 118 419 L117 419 Q115 416 113 412.5 Q111 409 109 405 Z M-29 110 Q-28 110 -27 109 Q-25 113 -24.5 116 Q-24 119 -22 122 Q-25 118 -29 110 Z " />
<glyph glyph-name="three" unicode="3" horiz-adv-x="282" d="M176 282 Q179 279 182 276.5 Q185 274 187 272 Q217 245 212 205 Q208 177 193.5 156 Q179 135 157 118 Q146 110 133.5 107 Q121 104 107 102 Q98 101 89 101 Q80 101 72 104 Q62 109 52.5 113 Q43 117 35 123 Q1 146 6 190 Q9 215 24 230 Q37 242 54 236 Q58 235 60.5 231.5 Q63 228 61 224 Q59 222 58 222 Q48 219 44 206 Q41 195 40 183 Q39 171 44 160 Q46 155 49 150.5 Q52 146 54 141 Q56 138 63 138 Q104 141 128 171 Q136 181 142.5 191 Q149 201 153 213 Q161 236 152 258 Q148 267 137 272 Q129 274 123 277.5 Q117 281 110 285 Q108 286 107 287.5 Q106 289 104 291 Q101 296 106 301 Q112 305 116 307 Q140 320 164 339 Q180 353 190.5 369.5 Q201 386 204 407 Q207 427 194 440 Q191 443 185 445 Q160 446 141 426 Q129 415 123 399 Q115 382 126 367 Q129 361 126 356 Q126 350 121 353 Q117 355 113 357 Q109 359 105 361 Q98 366 95.5 373 Q93 380 91 388 Q91 397 93 401 Q99 426 113.5 444 Q128 462 154 469 Q169 473 183 469.5 Q197 466 210 459 Q221 454 229 446 Q237 438 244 429 Q260 406 254 377 Q246 335 217 307 Q209 299 200 294 Q191 289 180 284 Q178 282 176 282 Z M239 369 Q234 360 230 351.5 Q226 343 221 335 Q236 349 239 369 Z M194 192 Q190 184 186 176.5 Q182 169 178 161 Q183 168 188.5 174.5 Q194 181 194 192 Z M126 420 Q125 420 125 421 Q123 417 121.5 414 Q120 411 118 407 L119 407 Q120 408 120 409 Q122 412 123 414.5 Q124 417 126 420 Z " />
<glyph glyph-name="four" unicode="4" horiz-adv-x="283" d="M242 488 Q243 485 242 485 L242 482 Q243 483 245 487 Q249 486 252 484.5 Q255 483 257 478 Q262 478 262.5 475 Q263 472 263 469 Q264 465 263.5 462 Q263 459 263 455 Q259 432 252 410 Q245 388 237 365 Q229 343 221 321.5 Q213 300 204 278 Q202 276 201 272 Q205 272 206 271 Q214 268 222.5 266 Q231 264 239 260 Q243 258 247 255 Q251 252 255 249 Q258 246 257 240 Q256 234 251 232 Q248 231 244 233 Q243 233 242.5 233.5 Q242 234 240 234 Q228 235 216 235 Q204 235 192 236 Q187 236 186 232 Q177 209 167.5 185.5 Q158 162 149 139 Q146 131 142.5 123.5 Q139 116 134 110 Q127 101 128 93 Q128 90 127 88 Q127 82 121 85 Q118 87 114 88.5 Q110 90 106 92 Q95 98 93 113 Q89 162 107 206 Q110 214 112.5 221 Q115 228 119 236 Q117 236 116 236.5 Q115 237 113 237 L56 237 Q50 237 44.5 237 Q39 237 33 238 Q26 239 17 243 Q5 248 0 253 Q-16 263 -5 276 Q2 285 10.5 293.5 Q19 302 27 311 Q48 332 70.5 351 Q93 370 116 390 Q142 411 166 433.5 Q190 456 213 481 L216 484 Q220 489 225.5 489.5 Q231 490 238 488 L240 488 L242 488 Z M37 275 Q38 274 38 273 Q48 275 54 275 Q73 275 92 275.5 Q111 276 130 276 Q135 276 137 281 Q149 308 159.5 335 Q170 362 181 389 Q182 391 183 393.5 Q184 396 185 398 Q184 399 184 399 Q151 364 113 334.5 Q75 305 37 275 Z M243 425 Q229 387 214.5 350 Q200 313 185 275 Q186 275 191 285.5 Q196 296 202.5 311.5 Q209 327 216 345 Q223 363 229 379.5 Q235 396 239 408.5 Q243 421 243 425 Z M155 277 Q172 317 188 356.5 Q204 396 220 436 Q219 437 219 437 Q218 436 213 424 Q208 412 201 395 Q194 378 185.5 358 Q177 338 170.5 320.5 Q164 303 159.5 290.5 Q155 278 155 277 Z M122 112 L124 112 Q132 127 137 142.5 Q142 158 148 174 Q154 189 160.5 204.5 Q167 220 173 235 L171 237 Q170 235 169.5 234.5 Q169 234 168 232 Q160 212 153.5 192.5 Q147 173 139 153 Q136 146 133 139.5 Q130 133 128 126 Q126 122 122 112 Z M168 277 L170 277 Q184 312 198 347 Q212 382 226 417 L225 418 L168 277 Z M113 170 Q120 187 126.5 203 Q133 219 139 236 L137 236 Q131 219 124 203 Q117 187 113 170 Z M128 175 L130 175 Q135 190 141.5 205 Q148 220 153 235 L152 236 Q146 220 140 205 Q134 190 128 175 Z M162 278 Q163 277 164 277 Q170 291 175.5 305.5 Q181 320 186 335 L185 335 Q180 321 174 306.5 Q168 292 162 278 Z M120 170 L122 170 Q126 179 128.5 188.5 Q131 198 135 207 Q135 208 134 208 Q130 198 127 189 Q124 180 120 170 Z " />
<glyph glyph-name="six" unicode="6" horiz-adv-x="245" d="M199 336 L202 342 L199 339 Q194 337 193 339.5 Q192 342 188 342 Q182 345 185 351 L194 375 Q196 383 197 391 Q198 399 200 407 Q200 410 199.5 412.5 Q199 415 199 419 Q196 417 193.5 416 Q191 415 189 413 Q179 404 169 395.5 Q159 387 150 377 Q133 357 117 337 Q101 317 88 294 Q87 291 86 288.5 Q85 286 84 283 Q85 284 85.5 284 Q86 284 87 286 Q98 297 111 304 Q124 311 141 313 Q170 316 187 296 Q192 291 193 285 Q194 279 195 273 Q197 259 195 246 Q193 233 189 219 Q180 187 162.5 159 Q145 131 119 109 Q114 104 107.5 100.5 Q101 97 94 93 Q76 84 57 95 Q52 98 47 100 Q27 108 17 122 Q7 136 2 156 Q-1 170 -1 183.5 Q-1 197 1 211 Q6 261 27 302.5 Q48 344 80 381 Q91 394 103 405.5 Q115 417 129 428 Q138 435 148 440.5 Q158 446 170 448 Q201 451 219 430 Q226 423 226 411 Q227 373 208 340 Q206 336 204 335.5 Q202 335 199 336 Z M52 178 Q51 165 51.5 153.5 Q52 142 57 131 Q59 126 59.5 125.5 Q60 125 65 127 Q71 130 77 133 Q83 136 88 140 Q140 179 160 245 Q162 256 163.5 266 Q165 276 163 287 Q161 292 158 291 Q138 288 124 278 Q101 261 86 239 Q71 217 60 191 Q59 189 59 184 Q60 177 52 178 Z M102 341 Q96 335 87 321.5 Q78 308 70.5 293 Q63 278 58 265 Q53 252 53 247 Q58 258 64 270 Q70 282 76 294 Q82 306 89 318 Q96 330 102 341 Z M26 255 Q31 268 37 280.5 Q43 293 48 306 Q40 294 34.5 281.5 Q29 269 26 255 Z M176 204 Q169 192 162.5 180.5 Q156 169 149 157 Q157 168 164 179 Q171 190 176 204 Z M45 283 Q44 284 44 284 Q42 278 39.5 272.5 Q37 267 35 261 L36 261 Q38 266 40.5 272 Q43 278 45 283 Z M42 265 Q43 264 43 264 Q45 269 47.5 275 Q50 281 52 286 Q52 287 51 287 Q49 281 46.5 275.5 Q44 270 42 265 Z M70 226 Q70 227 69 227 Q65 217 59 207 L60 207 Q63 212 65.5 216.5 Q68 221 70 226 Z " />
<glyph glyph-name="five" unicode="5" horiz-adv-x="277" d="M62 271 Q64 275 65.5 278 Q67 281 69 284 L68 285 Q64 279 63 277 Q61 272 57 275 Q52 277 48 278.5 Q44 280 42 285 Q40 288 38 294 Q36 319 46 340 Q57 363 67.5 386 Q78 409 91 432 Q93 437 98 443 Q104 452 108.5 454 Q113 456 124 453 Q130 451 136.5 449 Q143 447 150 445 Q168 439 190 444 Q201 446 211.5 449 Q222 452 232 458 Q241 463 253 458 Q259 456 260 451 Q261 446 256 442 Q251 437 245 434 Q239 431 234 429 Q213 419 192 418.5 Q171 418 149 425 Q147 426 146 426 Q145 426 144 427 Q138 409 131.5 391.5 Q125 374 119 356 Q123 358 126 359 Q129 360 133 361 Q162 371 188 351 Q203 340 210 325.5 Q217 311 220 294 Q224 272 220 251 Q216 230 206 210 Q186 168 155 137 Q146 128 136 121 Q126 114 114 109 Q90 99 64 112 Q60 114 56.5 115.5 Q53 117 49 119 Q10 138 1 182 Q0 190 2 198 Q4 206 7 214 Q12 225 19.5 233 Q27 241 37 248 Q44 253 52.5 251.5 Q61 250 66 243 Q68 241 67 238 Q66 235 63 234 Q59 232 58 230 Q42 210 38 186 Q38 176 40 172 Q42 166 45.5 160 Q49 154 53 149 Q57 144 59.5 143.5 Q62 143 68 145 Q86 153 98 164 Q122 187 139.5 213 Q157 239 168 271 Q173 284 174.5 296.5 Q176 309 173 322 Q172 325 171 328 Q170 331 169 334 Q168 339 161 339 Q153 337 145 335 Q137 333 129 328 Q121 323 114 317.5 Q107 312 100 307 Q98 305 97 303.5 Q96 302 94 300 Q92 295 89.5 291 Q87 287 84 284 Q81 280 77.5 277 Q74 274 70 271 Q68 270 66 270.5 Q64 271 62 271 Z M102 421 Q99 418 91.5 401.5 Q84 385 75.5 366.5 Q67 348 60.5 332 Q54 316 54 313 Q66 339 78 366.5 Q90 394 102 421 Z M96 342 Q98 343 103 354 Q108 365 114 378.5 Q120 392 124.5 404.5 Q129 417 130 422 Q122 402 113 382 Q104 362 96 342 Z M167 173 Q178 188 188 202.5 Q198 217 202 235 Q194 220 185 204.5 Q176 189 167 173 Z M101 389 L100 389 Q92 372 84.5 354 Q77 336 69 319 L70 319 Q78 336 85.5 353.5 Q93 371 101 389 Z M33 204 Q34 203 34 203 Q37 209 40 215 Q43 221 47 227 Q46 227 46 227.5 Q46 228 45 228 L33 204 Z M58 306 L59 306 Q62 312 64.5 318.5 Q67 325 69 331 Q69 332 68 332 Q63 318 58 306 Z M180 252 L178 252 Q176 247 174.5 243 Q173 239 171 234 Q171 233 172 233 Q175 242 180 252 Z " />
<glyph glyph-name="seven" unicode="7" horiz-adv-x="266" d="M262 471 Q266 473 272 470.5 Q278 468 279 463 Q286 462 284 452 Q280 439 269 426 Q255 410 241 394.5 Q227 379 213 363 Q180 328 151 290 Q122 252 95 212 Q83 195 71.5 177 Q60 159 50 140 Q43 129 36 121 Q30 113 34 107 Q36 105 35 101 Q34 97 32 95 Q29 92 27 95 Q22 97 18.5 99 Q15 101 11 103 Q0 110 0 126 Q0 132 0 137.5 Q0 143 1 149 Q2 158 7 167 Q42 238 87.5 301 Q133 364 190 420 Q193 423 196 426 Q199 429 202 433 Q197 434 193.5 434.5 Q190 435 185 436 Q175 438 165.5 440.5 Q156 443 145 445 Q114 449 89 426 Q87 424 85.5 422.5 Q84 421 82 423 Q83 424 83 425 Q83 426 84 427 L83 427 Q80 423 78 425 Q76 427 74 428 Q67 432 72 437 Q78 445 81 448 Q95 459 109.5 462.5 Q124 466 139 464 Q153 462 167 459.5 Q181 457 195 455 Q223 453 246 469 Q248 471 251.5 472 Q255 473 258 474 Q259 474 259.5 473 Q260 472 262 471 Z M186 355 L183 352 Q151 317 123.5 279 Q96 241 70 202 Q60 185 50.5 168.5 Q41 152 31 135 Q30 133 30 131 Q30 129 29 127 L30 127 Q97 247 186 355 Z M62 235 Q59 232 52 220 Q45 208 37.5 194.5 Q30 181 24 169.5 Q18 158 17 154 L62 235 Z M37 168 Q36 169 36 169 Q33 164 30.5 158.5 Q28 153 25 148 L26 148 Q29 153 31.5 158 Q34 163 37 168 Z M33 171 L32 171 Q27 163 22 152 L23 152 Q25 157 27.5 161.5 Q30 166 33 171 Z " />
<glyph glyph-name="eight" unicode="8" horiz-adv-x="266" d="M164 282 Q166 280 167 278 Q168 276 170 274 Q182 259 182 237 Q182 223 179.5 209 Q177 195 170 182 Q142 124 86 100 Q71 94 57 96 Q43 98 30 104 Q25 106 17 110 Q-6 121 -14.5 140.5 Q-23 160 -19 184 Q-10 239 36 278 Q44 285 52.5 290 Q61 295 69 301 Q73 303 74 304 Q74 305 73 306 Q56 320 58 345 Q59 371 69.5 393 Q80 415 97 435 Q116 457 139 467 Q160 477 179.5 476.5 Q199 476 219 469 Q233 464 242.5 454.5 Q252 445 260 433 Q268 419 268 405 Q268 391 263 375 Q242 321 189 294 Q184 292 179 289.5 Q174 287 169 285 Q168 284 164 282 Z M88 344 Q86 326 91 319 Q94 312 102 315 Q117 322 131.5 328 Q146 334 160 342 Q200 361 218 404 Q224 419 220 433 Q217 448 203 449 Q197 449 191 449.5 Q185 450 179 449 Q158 445 142 433.5 Q126 422 114 407 Q102 392 95.5 375 Q89 358 88 344 Z M144 272 L141 272 Q130 267 120 262.5 Q110 258 100 253 Q60 232 39 192 Q26 169 27 147 Q28 135 33 130.5 Q38 126 52 126 Q54 126 55.5 126.5 Q57 127 59 127 Q75 131 91.5 142 Q108 153 121.5 168.5 Q135 184 143 203.5 Q151 223 151 245 Q151 258 144 272 Z M49 231 Q41 223 34.5 214 Q28 205 26 194 Q32 203 38 212 Q44 221 49 231 Z M232 348 Q238 354 243 360.5 Q248 367 249 376 Q244 369 240.5 362.5 Q237 356 232 348 Z M2 208 Q3 208 4 207 Q6 212 9 217.5 Q12 223 14 228 L13 228 Q10 223 7.5 218 Q5 213 2 208 Z M93 388 L94 388 Q98 394 101.5 399.5 Q105 405 109 411 Q108 412 107 412 Q103 406 100 400 Q97 394 93 388 Z M151 164 L152 163 Q154 168 157 172 Q160 176 163 181 Q162 182 162 182 Q159 177 156 173 Q153 169 151 164 Z M16 217 L15 218 Q11 210 9 205 L10 205 L16 217 Z " />
<glyph glyph-name="nine" unicode="9" horiz-adv-x="288" d="M159 248 Q136 234 113 230 Q102 227 87 234 Q84 236 80.5 237.5 Q77 239 73 241 Q56 249 48.5 262.5 Q41 276 39 293 Q37 319 44 341.5 Q51 364 63 387 Q88 433 131 465 Q144 473 157.5 479 Q171 485 186 484 Q217 483 237 466.5 Q257 450 260 420 Q262 401 260 383 Q258 365 253 346 Q231 252 171 169 Q146 132 103 117 Q90 112 77 110 Q64 108 51 112 Q37 116 23.5 122.5 Q10 129 0 140 Q-21 163 -1 189 Q3 194 6.5 198 Q10 202 15 207 Q26 219 40 213 Q42 212 42.5 210.5 Q43 209 45 208 Q48 207 47 205.5 Q46 204 46 202 Q45 201 44.5 200 Q44 199 43 198 Q26 183 25 162 Q25 154 28 150 Q32 141 43 143 Q69 148 88.5 160.5 Q108 173 125 193 Q135 205 142.5 218 Q150 231 158 245 Q158 246 159 248 Z M89 285 Q89 279 89 273 Q89 267 90 261 Q90 257 95 258 Q109 260 122 265.5 Q135 271 146 280 Q159 289 169.5 301 Q180 313 190 325 Q194 331 196 336 Q207 369 212 404 Q214 424 209 444 Q208 450 202 447 Q183 442 170 431 Q103 373 89 285 Z M221 283 Q207 254 192 225.5 Q177 197 157 171 Q180 196 194 225 Q208 254 221 283 Z M92 344 Q102 361 112 378.5 Q122 396 133 414 Q118 398 108 380.5 Q98 363 92 344 Z M189 277 Q181 261 173.5 245.5 Q166 230 158 215 Q168 229 175.5 244.5 Q183 260 189 277 Z M87 394 Q79 384 73.5 373.5 Q68 363 65 351 Q70 362 75.5 372.5 Q81 383 87 394 Z M82 361 L83 360 Q85 365 87.5 370 Q90 375 92 380 L91 380 Q89 375 86.5 370.5 Q84 366 82 361 Z M84 375 L83 376 Q81 371 78.5 366.5 Q76 362 74 357 L75 357 L84 375 Z " />
<glyph glyph-name="colon" unicode="&#x3a;" horiz-adv-x="203" d="M188 373 Q187 346 169 328 Q157 316 140 324 Q132 328 127 330 Q112 338 106 352 Q100 366 105 383 Q109 392 114 399 Q119 408 128 405 Q133 404 143 404 Q155 404 165.5 400 Q176 396 183 386 Q185 382 186 378.5 Q187 375 188 373 Z M33 199 Q34 204 34.5 208.5 Q35 213 37 218 Q41 226 49 225 Q54 225 57 228 Q60 231 65 231 Q81 232 95 221.5 Q109 211 107 191 Q105 185 104 179 Q103 173 100 167 Q89 143 65 156 L59 159 Q45 164 39.5 174.5 Q34 185 33 199 Z " />
<glyph glyph-name="semicolon" unicode="&#x3b;" horiz-adv-x="212" d="M49 172 Q44 177 41 178 Q29 188 35 202 Q38 210 42 216 Q46 222 53 227 Q61 231 64 231 Q83 232 96.5 221 Q110 210 110 190 Q109 179 106.5 168.5 Q104 158 98 148 Q87 132 74.5 117.5 Q62 103 47 91 Q40 86 32 82 Q24 78 16 73 Q15 72 12 72 Q10 76 6.5 76 Q3 76 0 78 Q-13 86 -6 98 Q-1 110 7.5 120 Q16 130 25 139 Q32 147 38 155 Q44 163 49 172 Z M95 168 Q94 168 94 168.5 Q94 169 93 169 Q91 165 88.5 161 Q86 157 83 152 Q84 152 84.5 151.5 Q85 151 86 151 Q88 156 90.5 159.5 Q93 163 95 168 Z M156 325 Q147 330 137 333.5 Q127 337 120 346 Q115 355 116 363 Q119 380 123 391 Q127 399 137 398 Q143 397 149.5 396.5 Q156 396 163 395 Q176 394 186 382 Q193 375 192 368 Q190 341 167 329 Q163 326 156 325 Z " />
<glyph glyph-name="less" unicode="&#x3c;" horiz-adv-x="320" d="M343 443 Q345 434 336 423 Q333 420 330 417 Q327 414 323 412 Q307 401 291 392.5 Q275 384 258 376 Q222 359 186 341 Q150 323 114 306 Q107 302 98.5 298 Q90 294 85 290 Q87 289 89 287.5 Q91 286 93 285 Q116 271 135.5 255 Q155 239 173 221 Q180 214 185.5 206.5 Q191 199 197 191 Q201 186 199.5 181 Q198 176 194 171 Q189 164 185 171 Q183 172 183 172 Q169 179 158 190 Q147 200 135.5 208.5 Q124 217 113 227 Q98 241 81.5 252 Q65 263 48 274 Q43 276 40 279 Q37 282 33 285 Q29 289 27 296 Q24 306 33 314 L42 320 Q68 337 95.5 351.5 Q123 366 151 379 Q188 396 224 413.5 Q260 431 297 448 Q306 452 314 453 Q322 454 331 452 Q334 452 334 451 Q339 448 339 445 Q339 442 343 443 Z " />
<glyph glyph-name="equal" unicode="&#x3d;" horiz-adv-x="346" d="M318 352 Q322 348 320 342 Q320 337 313 337 Q302 335 292.5 332.5 Q283 330 272 328 Q261 326 249.5 324.5 Q238 323 227 322 Q207 321 188 320.5 Q169 320 151 319 L81 319 Q67 319 54 321.5 Q41 324 29 332 Q23 336 21 339 Q14 346 24 348 Q32 350 36 350 Q76 355 115.5 357 Q155 359 195 361 Q201 362 206.5 362.5 Q212 363 218 363 L288 363 Q296 362 304 360.5 Q312 359 318 352 Z M259 257 Q265 257 271 255 Q277 253 282 247 Q285 245 285 242 Q285 239 285 237 Q283 231 278 231 Q272 230 266 229 Q260 228 254 228 Q239 226 224 225.5 Q209 225 194 224 L125 224 Q103 224 81.5 223.5 Q60 223 38 224 Q12 224 -13 227 Q-19 229 -24.5 231.5 Q-30 234 -36 237 L-38 239 Q-46 247 -35 249 Q-28 250 -21.5 250.5 Q-15 251 -9 252 Q45 256 97.5 257 Q150 258 204 259 Q218 259 231.5 258.5 Q245 258 259 257 Z " />
<glyph glyph-name="greater" unicode="&#x3e;" horiz-adv-x="369" d="M-13 170 L-19 165 Q-20 167 -22.5 167 Q-25 167 -22 172 L-24 170 L-25 170 Q-28 170 -30 171 L-30 173 Q-34 173 -34 174 Q-40 182 -33 189 Q-30 191 -26.5 193.5 Q-23 196 -20 198 L30 228 Q68 254 109 275.5 Q150 297 191 319 Q197 322 202.5 325.5 Q208 329 213 332 L219 335 Q214 339 210 341.5 Q206 344 201 347 Q175 364 148 381 Q121 398 94 415 Q88 420 82 424 Q76 428 72 434 L70 437 Q66 442 70 447 Q72 449 75.5 449 Q79 449 82 449 Q95 447 105 441.5 Q115 436 126 431 Q166 413 203 390.5 Q240 368 275 344 Q280 342 283 338.5 Q286 335 290 332 Q292 330 292 329 Q295 323 292.5 314 Q290 305 284 301 Q271 293 258.5 286 Q246 279 232 272 Q198 256 165 240 Q132 224 97 209 Q74 199 50 189.5 Q26 180 3 169 L-7 164 Q-9 163 -14 163 Q-13 164 -13 165 Q-13 166 -12 168 L-12 169 Q-12 170 -13 170 Z " />
<glyph glyph-name="question" unicode="&#x3f;" horiz-adv-x="410" d="M368 507 Q382 489 385 469.5 Q388 450 383 428 Q378 408 368 393 Q358 378 344 364 Q327 348 311 333 Q295 318 279 302 Q256 280 233 257.5 Q210 235 190 209 Q185 203 181 196.5 Q177 190 172 184 Q168 178 164 172.5 Q160 167 156 162 Q153 157 150.5 153.5 Q148 150 145 145 Q141 139 136 142 Q133 144 135 147 Q136 149 138 155 L137 155 Q136 153 132 149 Q132 147 129 147 Q125 149 121.5 151.5 Q118 154 114 157 Q105 163 105 177 L105 202 Q105 211 108 219.5 Q111 228 116 236 Q126 251 137 264.5 Q148 278 160 291 Q184 317 209 340.5 Q234 364 260 388 Q273 399 284.5 411 Q296 423 306 437 Q326 465 318 495 Q314 511 298 514 Q272 518 245 512 Q218 507 196.5 493 Q175 479 158 459 Q153 453 149.5 447 Q146 441 144 433 Q140 415 151 398 Q158 388 152 375 Q150 367 143 371 Q140 372 138 373.5 Q136 375 133 377 Q128 380 123 382.5 Q118 385 113 389 Q96 402 90.5 421 Q85 440 91 461 Q96 477 104.5 489 Q113 501 124 512 Q172 559 236 563 Q256 565 274.5 561 Q293 557 311 550 Q347 536 368 507 Z M110 462 Q112 466 114 469 Q116 472 118 476 Q108 470 110 462 Z M155 477 L154 477 Q148 472 143 465.5 Q138 459 137 450 L155 477 Z M126 207 Q130 212 133 218 Q136 224 139 230 L138 230 Q134 225 130 220 Q126 215 125 207 L126 207 Z M132 202 Q133 202 134 201 L140 216 Q140 216 139 217 Q137 213 135.5 209.5 Q134 206 132 202 Z M139 197 Q141 202 143.5 206.5 Q146 211 148 216 L147 217 Q145 212 142 207.5 Q139 203 137 198 Q138 197 139 197 Z M142 164 Q157 187 171 209.5 Q185 232 203 253 Q183 233 167 211.5 Q151 190 142 164 Z M338 387 Q346 395 353.5 402.5 Q361 410 363 423 Q357 413 351 404 Q345 395 338 387 Z M87 132 Q108 127 121 112 Q129 104 127 94 Q125 77 115 64 Q110 57 100 54 Q90 51 80 59 Q75 63 69.5 65.5 Q64 68 59 72 Q49 81 49 96 Q51 100 52 103.5 Q53 107 55 110 Q60 115 63.5 120 Q67 125 72 130 Q76 133 79.5 133 Q83 133 87 132 Z " />
<glyph glyph-name="at" unicode="&#x40;" horiz-adv-x="466" d="M279 169 Q277 159 268.5 150 Q260 141 251 138 Q210 124 176.5 126 Q143 128 111 148 Q93 158 80.5 174 Q68 190 60 208.5 Q52 227 48.5 247 Q45 267 46 286 Q50 341 82 388 Q125 445 187 476 Q249 507 318 495 Q330 492 342 489 Q354 486 365 481 Q402 465 417 438.5 Q432 412 428 374 Q425 333 408 299.5 Q391 266 362 237 Q354 229 346 223 Q338 217 328 212 Q307 202 291 213 Q288 215 282 217 Q271 222 263.5 228.5 Q256 235 251 247 Q248 244 246 243 Q240 237 234 231.5 Q228 226 220 221 Q200 207 178 220 Q174 222 170 224 Q166 226 162 228 Q127 245 129 285 Q131 314 146 340 Q154 356 164.5 370.5 Q175 385 189 396 Q226 427 273 411 Q278 409 282 406.5 Q286 404 290 402 L296 396 Q299 401 301.5 404.5 Q304 408 307 412 Q312 420 319 420 Q324 420 323 415 L323 413 Q327 417 328 419 L329 419 L329 414 L333 418 L334 418 L334 413 Q338 419 344 413 Q345 412 345 409 Q345 407 344.5 405 Q344 403 344 401 Q344 402 345 402.5 Q346 403 346 404 Q347 406 347.5 406.5 Q348 407 349 409 Q355 403 353 398 Q351 393 349.5 387 Q348 381 346 376 Q338 356 329 336 Q320 316 312 295 Q308 285 305.5 275 Q303 265 300 254 Q299 253 299 249 Q303 251 304 251 Q318 259 329 270 Q340 281 348 294 Q379 340 380 392 Q381 416 371 437 Q365 449 352 452 Q328 458 303.5 459 Q279 460 254 452 Q236 446 220 436 Q204 426 189 415 Q181 409 172 402.5 Q163 396 155 388 Q129 365 115 330 Q102 299 100 265 Q100 218 124 181 Q136 163 161 163 Q185 163 209 171 Q220 175 230 178 Q240 181 250 184 Q255 186 258.5 184.5 Q262 183 266 182 L268 182 Q272 182 275.5 177 Q279 172 279 169 Z M182 253 Q190 255 196 259 Q202 263 208 267 Q239 294 263 328 Q268 336 272 344.5 Q276 353 276 363 L276 381 Q275 388 268 386 Q251 383 237 371 Q215 354 202.5 332 Q190 310 182 284 Q178 269 182 253 Z M204 357 Q194 345 186.5 331.5 Q179 318 175 302 Q183 316 190 329.5 Q197 343 204 357 Z M128 381 Q106 357 99 324 Q107 338 113.5 352 Q120 366 128 381 Z M380 275 Q400 298 408 332 Q401 318 394 303.5 Q387 289 380 275 Z M320 343 Q311 331 306 317.5 Q301 304 297 290 Q303 304 308.5 316.5 Q314 329 320 343 Z M70 331 Q71 331 71 330.5 Q71 330 72 330 Q76 338 79 346.5 Q82 355 86 363 L84 363 Q81 355 77.5 347 Q74 339 70 331 Z M148 309 Q149 309 149 308 Q152 315 155 321 Q158 327 161 334 Q160 334 159 335 Q156 328 153.5 322 Q151 316 148 309 Z M383 329 Q382 330 381 330 Q379 325 377 320.5 Q375 316 373 311 L375 311 Q377 316 379 320 Q381 324 383 329 Z M87 350 Q86 350 86 351 Q84 346 82.5 341.5 Q81 337 79 333 L80 332 Q82 337 83.5 341 Q85 345 87 350 Z M94 353 L93 353 Q90 344 86 336 L87 336 Q89 340 90.5 344 Q92 348 94 353 Z " />
<glyph glyph-name="A" unicode="A" horiz-adv-x="809" d="M559 207 Q563 206 569 204 Q604 199 633 210.5 Q662 222 687 246 Q695 254 703 262 Q711 270 719 278 Q725 284 728 288 Q740 300 759 293 Q771 288 768 275 Q765 257 754 241 Q735 215 713 195 Q671 159 613 159 Q582 159 557 170 Q551 172 547 173 L544 167 Q534 138 525.5 109.5 Q517 81 512 51 Q508 27 505.5 2.5 Q503 -22 502 -48 Q502 -55 502 -61.5 Q502 -68 504 -75 Q507 -92 519 -98 Q527 -103 534 -99 Q554 -91 568 -83 Q578 -76 585 -80 Q588 -82 591.5 -81.5 Q595 -81 597 -85 Q596 -87 596 -89 Q596 -91 594 -94 Q596 -92 597.5 -91 Q599 -90 601 -89 Q604 -93 600 -101 L588 -128 Q582 -134 578 -136 Q557 -147 537 -139 Q521 -134 506 -126.5 Q491 -119 477 -108 Q447 -84 445 -44 Q444 -27 445.5 -11 Q447 5 449 22 Q454 66 465.5 108.5 Q477 151 493 193 Q494 194 494 198 Q460 219 426.5 240 Q393 261 358 283 Q356 281 354.5 279.5 Q353 278 351 276 Q333 253 314 231 Q295 209 273 189 Q250 167 224 146 Q209 133 192 123.5 Q175 114 158 107 Q146 102 133.5 99 Q121 96 108 99 Q91 103 75.5 110.5 Q60 118 48 129 Q36 140 30 153.5 Q24 167 21 182 Q18 196 19 210.5 Q20 225 23 239 Q31 275 49 304 Q67 333 99 353 Q118 365 137.5 370.5 Q157 376 179 377 Q208 378 235.5 372 Q263 366 291 356 Q301 353 310.5 349 Q320 345 330 340 Q332 342 336 348 Q359 382 381 415 Q403 448 425 482 Q449 519 473.5 554.5 Q498 590 525 625 Q559 668 604 698 Q618 707 631 714 Q644 721 660 723 Q684 728 704 719.5 Q724 711 738 692 Q744 684 746 675.5 Q748 667 748 658 Q749 641 746 625 Q743 609 738 592 Q730 563 718 535.5 Q706 508 693 481 Q688 468 681.5 456 Q675 444 668 433 Q647 395 628 355.5 Q609 316 590 277 Q583 263 577 248 Q571 233 564 219 Q562 216 561.5 213.5 Q561 211 559 207 Z M528 237 Q524 235 526 230 Q526 233 528 237 Q528 239 529 241.5 Q530 244 531 246 Q536 251 536 259 Q542 263 542 271 Q544 276 545.5 279.5 Q547 283 549 287 Q551 291 551.5 294 Q552 297 554 300 Q558 304 559.5 308.5 Q561 313 563 318 L561 318 L555 300 Q551 292 549 287 Q545 284 544 280 Q543 276 542 271 L536 259 Q535 254 531 246 L528 237 Z M684 566 Q683 564 681.5 562.5 Q680 561 679 559 Q675 551 671.5 542.5 Q668 534 664 525 Q664 524 662 520 Q665 520 665 522 Q670 532 674 541.5 Q678 551 683 562 Q684 563 684 566 Q687 569 688 573 Q689 577 691 582 L689 582 Q687 578 686.5 574 Q686 570 684 566 Z M488 496 L482 490 Q465 464 448.5 439 Q432 414 415 389 Q414 387 414 386.5 Q414 386 413 384 Q415 386 416 386.5 Q417 387 418 389 Q435 414 451.5 439 Q468 464 485 490 Q487 492 487 493 Q487 494 488 496 Q493 501 496 506.5 Q499 512 504 517 Q503 518 502.5 518 Q502 518 501 519 Q498 513 494.5 507 Q491 501 488 496 Z M507 232 Q509 235 511 239 Q533 294 558.5 347 Q584 400 610 454 Q626 485 641 515.5 Q656 546 670 578 Q685 614 694 650 Q696 658 698 670 Q698 675 697.5 679 Q697 683 694 688 L690 688 Q670 682 652 669 Q633 656 617 640.5 Q601 625 587 608 Q560 575 536 540 Q512 505 488 470 Q462 432 436 394.5 Q410 357 384 319 Q383 317 382.5 315 Q382 313 380 311 Q412 292 443.5 271.5 Q475 251 507 232 Z M309 312 Q305 314 305 314 Q285 322 265 327.5 Q245 333 223 334 Q206 335 189 332.5 Q172 330 156 322 Q114 300 92 261 Q82 243 76.5 224 Q71 205 72 184 Q74 161 83 145 Q87 138 95 139 Q100 141 104.5 141.5 Q109 142 114 144 Q146 156 175 177 Q185 185 194.5 192.5 Q204 200 213 208 Q239 230 261.5 255.5 Q284 281 306 307 Q307 308 309 312 Z M718 569 Q717 569 716 570 Q714 564 713 562 Q702 538 690.5 514 Q679 490 668 467 Q650 431 631 395 Q612 359 595 323 Q583 298 572 272.5 Q561 247 550 221 Q549 219 548.5 217.5 Q548 216 547 214 Q550 215 552 219 Q575 276 602 330 Q629 384 658 438 Q672 464 685 491.5 Q698 519 710 547 Q715 559 718 569 Z M92 285 Q91 285 91 285.5 Q91 286 90 286 Q83 278 78.5 268.5 Q74 259 72 248 Q77 258 82 267 Q87 276 92 285 Z M748 256 L749 255 Q758 264 761 276 Q760 276 759 277 Q756 272 753 266.5 Q750 261 748 256 Z M600 396 L601 396 Q605 404 607 409 L606 409 Q602 401 600 396 Z M53 274 Q52 275 51 275 L45 263 Q47 262 47 262 L53 274 Z M587 365 Q585 366 585 366 Q583 363 582.5 360.5 Q582 358 580 355 L581 355 Q583 357 584 360 Q585 363 587 365 Z M520 541 Q519 541 518 542 Q516 540 515 537 Q514 534 512 532 Q513 532 513 531 Q515 533 516.5 535.5 Q518 538 520 541 Z M532 170 L531 170 Q531 169 530.5 168 Q530 167 530 166 L531 166 Q531 167 531.5 167.5 Q532 168 532 170 Z " />
<glyph glyph-name="B" unicode="B" horiz-adv-x="767" d="M553 170 Q558 205 552.5 238.5 Q547 272 536 306 Q532 305 529.5 304 Q527 303 524 302 Q505 296 489.5 294.5 Q474 293 456 294 Q432 294 411.5 306.5 Q391 319 381 337.5 Q371 356 375 377 Q379 398 404 416 Q417 424 431.5 427 Q446 430 461 428 Q485 426 508.5 413 Q532 400 549 381 Q565 396 579 413 Q593 430 604 450 Q618 480 623 519 Q628 558 620 593 Q612 628 589.5 654 Q567 680 527 684 Q501 688 477 685 Q453 682 428 676 Q376 664 333 636.5 Q290 609 255 569 L234 545 Q232 542 230.5 538.5 Q229 535 232 531 Q233 529 232 527.5 Q231 526 231 524 Q229 519 225 521 Q220 524 215.5 526 Q211 528 206 532 Q199 537 197.5 543.5 Q196 550 198 558 Q208 596 235 624 Q301 690 391 714 Q441 728 488 726 Q535 724 578 703 Q621 680 646.5 643.5 Q672 607 679 565 Q686 523 675.5 480 Q665 437 638 400 Q625 383 612 366.5 Q599 350 582 336 Q577 331 580 325 Q593 286 602 250.5 Q611 215 608 176 Q621 178 640.5 185 Q660 192 681 205 Q702 218 723 238 Q744 258 760 286 L767 300 Q776 299 782.5 296 Q789 293 785 285 Q782 276 770.5 255.5 Q759 235 738 212.5 Q717 190 686 171.5 Q655 153 614 147 Q606 145 605 144 Q604 143 603 136 Q595 94 579.5 56 Q564 18 535 -15 Q482 -77 403 -95 Q356 -106 315 -84 Q312 -82 309.5 -81 Q307 -80 304 -79 Q248 -53 236 6 Q232 35 238 62 Q244 89 258 110.5 Q272 132 294 145.5 Q316 159 343 162 Q402 170 452.5 167.5 Q503 165 553 170 Z M547 136 Q517 136 487 134 Q457 132 427 130 Q410 129 394 127.5 Q378 126 361 121 Q336 115 317.5 100 Q299 85 289.5 64.5 Q280 44 280.5 19.5 Q281 -5 295 -31 Q313 -66 353 -61 Q399 -57 440 -30 Q529 30 547 136 Z M517 357 Q514 365 508.5 370.5 Q503 376 498 382 Q478 397 457 390.5 Q436 384 426 368 Q422 362 422.5 354.5 Q423 347 426 341 Q432 333 445 333 Q458 333 467 335 Q493 341 517 357 Z M546 23 Q556 32 564.5 49 Q573 66 573 74 L546 23 Z M656 460 Q651 450 645.5 440 Q640 430 635 420 Q651 436 656 460 Z M292 89 L290 91 Q286 86 282.5 80.5 Q279 75 278 68 Q279 67 280 67 Q283 73 286 78.5 Q289 84 292 89 Z M418 367 Q420 372 423 377 Q415 374 418 367 Z M224 547 L225 546 Q230 551 229 557 Q226 552 224 547 Z M628 462 L627 462 Q627 461 625 459 Q626 458 626 458 Q628 460 628 462 Z M546 73 L544 75 Q544 73 543.5 72.5 Q543 72 543 70 L544 70 Q544 71 546 73 Z M124 339 Q104 340 83.5 326.5 Q63 313 53 299 Q27 260 21 211 Q19 194 23.5 179 Q28 164 37.5 152.5 Q47 141 61 135.5 Q75 130 92 132 Q134 140 161 170 Q174 185 184.5 201 Q195 217 205 234 Q227 268 243.5 304 Q260 340 275 377 Q292 422 312.5 464.5 Q333 507 359 547 Q373 568 387.5 587.5 Q402 607 416 627 Q421 633 425.5 638 Q430 643 435 648 Q440 655 449.5 654 Q459 653 465 645 Q467 643 465 641 Q463 634 460 631 Q433 596 410 559 Q387 522 369 480 Q352 442 337 402.5 Q322 363 308 322 Q292 277 271 236 Q250 195 222 157 Q209 139 192 123 Q156 89 104 91 Q94 91 85 93.5 Q76 96 67 100 Q59 104 51 108 Q43 112 35 116 Q12 127 -2 146 Q-16 163 -19.5 191.5 Q-23 220 -17 250 Q-11 280 4 307.5 Q19 335 41 350 Q71 371 107 362 Q111 360 114.5 358 Q118 356 122 354 Q127 350 126.5 348 Q126 346 124 339 Z M270 328 Q272 330 274 334 L273 335 Q272 333 271.5 331.5 Q271 330 270 328 Q270 326 269 325 Q268 324 267 322 Q268 322 268 321.5 Q268 321 269 321 Q270 324 270 328 Z M295 320 Q281 285 263.5 252 Q246 219 227 187 Q250 218 266.5 251 Q283 284 295 320 Z M45 306 Q31 290 28 272 Q32 280 36 288.5 Q40 297 45 306 Z M265 313 L264 313 Q263 311 262 309.5 Q261 308 260 306 Q261 305 262 305 Q263 307 265 313 Z M255 294 Q256 293 256 293 Q256 294 256.5 294.5 Q257 295 257 297 Q255 295 255 294 Z M303 408 L302 408 Q302 408 300 404 L301 404 Q301 406 303 408 Z " />
<glyph glyph-name="C" unicode="C" horiz-adv-x="722" d="M230 380 Q212 345 201.5 308.5 Q191 272 190 233 Q190 209 196 183 Q202 157 213 133 Q224 109 241 89 Q258 69 280 56 Q297 47 315 44 Q333 41 352 41 Q384 43 413.5 52 Q443 61 472 75 Q518 99 554.5 132.5 Q591 166 623 205 Q627 210 630.5 214 Q634 218 638 222 Q646 230 655 223 Q658 221 660 216.5 Q662 212 660 208 L654 196 Q634 165 610.5 137 Q587 109 558 86 Q535 67 505.5 49 Q476 31 444 19 Q412 7 378 3 Q344 -1 311 7 Q261 18 228.5 44 Q196 70 176 96 Q153 127 140 163 Q122 212 126.5 265 Q131 318 149 369 Q153 380 157 390 Q161 400 166 411 L157 417 Q143 425 129 432.5 Q115 440 101 448 Q42 485 23 549 Q17 567 19 589.5 Q21 612 29.5 634 Q38 656 53 672.5 Q68 689 88 695 Q114 701 135 682 Q140 677 137 670 Q135 664 130 666 Q125 668 122 666 Q119 664 117 660 L87 615 Q68 585 77 551 Q84 525 98 505 Q112 485 135 471 Q144 466 153.5 460.5 Q163 455 172 450 Q175 448 177.5 447.5 Q180 447 183 445 Q186 449 190 455 Q219 501 253 542 Q287 583 329 618 Q361 644 395.5 663 Q430 682 469 693 Q492 699 514.5 701.5 Q537 704 560 702 Q587 699 610.5 689 Q634 679 653 658 Q670 640 675.5 613 Q681 586 676 560 Q671 536 657.5 518 Q644 500 626 486 Q596 462 550.5 442 Q505 422 455 407.5 Q405 393 354.5 386 Q304 379 263 382 Q258 383 252 383.5 Q246 384 241 385 Q234 386 230 380 Z M657 547 Q655 543 652.5 540 Q650 537 650 532 Q650 532 651 531 Q653 535 655 538.5 Q657 542 659 546 Q658 547 657 547 Z M401 588 Q359 556 325.5 517 Q292 478 261 435 Q261 432 258 428 Q260 428 262 427.5 Q264 427 266 427 Q281 428 296.5 428 Q312 428 327 430 Q359 433 399.5 441 Q440 449 479.5 463 Q519 477 554 498.5 Q589 520 609 550 Q637 590 620 636 Q612 656 593 657 Q569 659 546.5 655.5 Q524 652 501 644 Q449 624 401 588 Z M276 484 L281 489 Q280 489 280 489.5 Q280 490 279 490 L276 484 Z M239 434 Q239 434 237 430 Q242 429 243 431 Q244 433 245 435 Q252 446 259 456 Q266 466 273 477 Q275 481 276 484 Q273 481 273 482 Q264 470 255.5 458 Q247 446 239 434 Z M215 390 Q205 371 201 352 L219 388 Q215 390 215 390 Z M195 391 Q195 389 193 385 L194 385 Q195 386 195.5 387 Q196 388 197 389 L195 391 Z M40 621 Q44 623 48.5 633 Q53 643 55 646 Q50 642 46 633 Q42 624 40 621 Z M93 647 Q82 639 76 628 Q70 617 70 609 Q76 619 82 628.5 Q88 638 93 647 Z M182 374 Q183 375 183.5 376 Q184 377 185 378 L183 380 Q182 378 182 377 Q182 376 181 374 L182 374 Z M183 401 Q178 394 175 386 Q172 378 169 370 Q170 369 171 369 Q175 377 178.5 384.5 Q182 392 186 400 Q185 401 183 401 Z " />
<glyph glyph-name="D" unicode="D" horiz-adv-x="833" d="M780 601 Q796 569 803 527 Q810 485 809.5 438 Q809 391 801 342 Q793 293 778.5 247 Q764 201 743 161 Q722 121 696 93 Q673 66 643.5 45 Q614 24 580.5 12.5 Q547 1 511 1 Q475 1 439 16 Q381 42 334 80 Q325 88 315.5 95.5 Q306 103 295 111 Q282 97 269 83.5 Q256 70 242 58 Q225 42 205.5 31.5 Q186 21 165 13 Q141 5 114.5 7 Q88 9 65 17 Q48 23 30 36 Q12 49 -1 67 Q-14 85 -20.5 108 Q-27 131 -21 158 Q-12 190 8 210 Q28 230 66 237 Q104 241 138.5 231 Q173 221 199 208 Q229 192 254 172 Q278 202 295.5 236.5 Q313 271 327 307 Q344 350 361.5 393 Q379 436 396 479 Q418 531 447 577 Q455 590 465 599.5 Q475 609 486 620 Q494 627 505 626 Q516 625 524 617 Q528 612 528.5 609.5 Q529 607 527 602 Q524 595 521.5 588 Q519 581 516 574 Q514 568 511.5 561 Q509 554 506 549 Q477 502 456.5 453 Q436 404 417 353 Q405 320 392 287.5 Q379 255 365 223 Q354 199 340.5 177 Q327 155 312 133 Q338 114 363.5 95 Q389 76 418 61 Q437 51 461 46 Q487 42 513.5 48.5 Q540 55 565 69 Q590 83 611.5 102 Q633 121 650 141 Q679 177 702 233 Q725 289 738 350.5 Q751 412 751 473 Q751 534 735 582 Q721 625 685.5 649 Q650 673 605 682 Q560 691 512.5 685.5 Q465 680 428 664 Q382 645 345 615 Q308 585 278 545 Q274 540 270.5 535 Q267 530 263 525 Q262 525 261.5 524.5 Q261 524 260 524 Q247 528 245.5 531.5 Q244 535 252 546 Q284 595 327 632 Q362 660 399.5 679.5 Q437 699 482 707 Q524 714 569 711.5 Q614 709 659 696 Q699 683 729.5 660 Q760 637 780 601 Z M485 547 Q462 511 446 472 Q438 451 429.5 430 Q421 409 413 389 Q412 386 412 381 Q413 383 414.5 386 Q416 389 417 391 Q431 429 448 466 Q465 503 485 538 Q502 568 514 597 Q515 599 515 600 Q515 601 516 602 Q513 600 512 597.5 Q511 595 509 592 Q503 581 497.5 569.5 Q492 558 485 547 Z M431 515 Q429 510 427.5 505 Q426 500 424 495 Q428 499 429.5 504 Q431 509 434 514 Q433 514 432.5 514.5 Q432 515 431 515 Z M389 416 Q388 414 388 410 Q389 412 389.5 412.5 Q390 413 391 415 Q399 433 406.5 451 Q414 469 422 488 Q422 489 422.5 490.5 Q423 492 423 494 Q422 492 421 491 Q420 490 419 488 L389 416 Z M384 399 Q375 387 374 375 Q377 381 379.5 387 Q382 393 384 399 Z M368 362 Q365 354 362.5 346 Q360 338 357 330 Q363 341 367 351.5 Q371 362 374 373 Q372 370 368 362 Z M356 328 Q353 320 350 311.5 Q347 303 343 295 Q353 309 356 328 Z M339 284 Q334 277 331.5 270 Q329 263 326 255 Q330 262 333.5 269 Q337 276 339 284 Z M314 168 Q312 166 312 164 Q312 164 314 163 Q314 165 316 167 Q326 181 335 194 Q344 207 350 223 Q366 261 380.5 298.5 Q395 336 410 374 Q411 376 411 380 Q410 378 409 376.5 Q408 375 407 373 Q401 357 394.5 341 Q388 325 382 309 Q368 272 352 236.5 Q336 201 314 168 Z M32 188 Q28 186 22 177.5 Q16 169 16 164 Q18 171 23.5 177 Q29 183 32 188 Z M230 141 Q232 144 234 146 Q236 148 238 151 Q217 166 194 178 Q174 189 150 197.5 Q126 206 103 208 L87 208 Q58 206 39.5 185 Q21 164 19 134 Q16 84 63 57 Q77 49 92 50 Q132 55 165 80.5 Q198 106 230 141 Z M304 150 Q305 152 305 152.5 Q305 153 306 155 L305 155 Q303 153 303 152 Q303 151 304 150 Z M717 223 Q717 221 716.5 219.5 Q716 218 716 216 Q720 218 717 223 Z M708 201 Q709 201 710 200 Q714 210 715 215 Q712 212 711 208.5 Q710 205 708 201 Z M710 139 Q737 171 750 215 Q740 196 730 177 Q720 158 710 139 Z " />
<glyph glyph-name="E" unicode="E" horiz-adv-x="587" d="M265 419 Q270 405 279 393 Q288 381 297 370 Q308 359 327.5 349.5 Q347 340 361 340 Q368 339 367 332 Q376 330 375 324.5 Q374 319 372 314 Q367 303 357.5 303.5 Q348 304 339 308 Q327 313 315 319 Q303 325 291 331 Q283 335 278 335 Q237 339 201.5 327.5 Q166 316 137 287 Q109 257 94 218 Q79 179 76.5 138.5 Q74 98 85 59 Q96 20 119 -11 Q155 -50 198.5 -57.5 Q242 -65 283.5 -50.5 Q325 -36 360 -5.5 Q395 25 415 63 Q425 84 426.5 105.5 Q428 127 419 147 Q413 161 397 160 Q374 158 358 145 Q342 132 328 118 Q322 113 316.5 108.5 Q311 104 304 109 Q297 113 300 120 Q307 134 317.5 146 Q328 158 339 169 Q366 190 394.5 185.5 Q423 181 440 166 Q486 125 479 64 Q473 14 439 -30 Q410 -67 365 -87 Q320 -107 273 -110 Q208 -113 158.5 -93 Q109 -73 76 -36.5 Q43 0 27 51 Q11 102 14 162 Q17 203 31.5 240.5 Q46 278 71 307.5 Q96 337 130 355.5 Q164 374 205 377 Q214 378 223 378.5 Q232 379 241 379 Q233 390 227 402 Q221 414 216 426 Q187 435 160.5 449 Q134 463 108 478 Q89 490 75.5 506 Q62 522 51 542 Q32 584 41.5 623 Q51 662 77 691 Q85 699 95.5 699 Q106 699 114 691 Q120 687 116 680 Q99 665 89.5 641.5 Q80 618 79 593 Q78 568 87 544 Q96 520 116 504 Q136 487 160 475 Q184 463 210 458 Q203 504 216.5 544 Q230 584 257.5 615.5 Q285 647 323 669 Q361 691 402.5 703 Q444 715 486.5 715 Q529 715 565 703 Q608 686 625 645 Q635 620 627.5 593 Q620 566 606 546 Q585 516 556.5 494 Q528 472 495 457 Q462 442 426.5 433 Q391 424 357 419 Q327 415 304.5 416 Q282 417 265 419 Z M39 213 Q39 209 38 206 Q36 200 37 200 Q38 203 41.5 214 Q45 225 47 230 Q44 226 42.5 222 Q41 218 39 213 Z M259 447 Q301 446 342 451 Q383 456 421 471 Q442 481 473 500.5 Q504 520 529 545.5 Q554 571 565.5 599.5 Q577 628 559 656 Q555 665 545 666 Q485 671 430 651 Q375 631 330 598 Q313 584 297 566.5 Q281 549 270.5 530 Q260 511 256.5 490 Q253 469 259 447 Z M84 260 Q79 255 73.5 245 Q68 235 63.5 223.5 Q59 212 56 201.5 Q53 191 53 186 Q57 203 66.5 224.5 Q76 246 84 260 Z M249 515 Q255 528 260.5 540.5 Q266 553 274 567 Q265 556 258 543 Q251 530 249 515 Z M423 -36 Q432 -26 440.5 -15.5 Q449 -5 451 11 Q445 -4 439.5 -13 Q434 -22 423 -36 Z M591 549 Q593 548 593 548 Q598 555 603 562 Q608 569 608 579 Q603 571 599.5 564 Q596 557 591 549 Z M24 203 Q26 214 29.5 222.5 Q33 231 36 240 Q31 233 28 222.5 Q25 212 24 203 Z M234 564 Q228 558 223 544 Q218 530 219 524 Q222 531 226.5 544.5 Q231 558 234 564 Z M430 39 Q426 33 420.5 26.5 Q415 20 415 19 Q422 23 425.5 29.5 Q429 36 430 39 Z " />
<glyph glyph-name="F" unicode="F" horiz-adv-x="712" d="M826 674 Q838 659 840 642.5 Q842 626 842 624 Q841 599 830.5 582 Q820 565 802.5 555 Q785 545 763.5 541.5 Q742 538 720 539 Q676 542 633 551 Q627 553 625.5 552 Q624 551 621 546 Q607 526 596.5 504.5 Q586 483 575 460 Q556 419 541.5 377 Q527 335 513 292 Q538 290 561.5 290.5 Q585 291 610 290 Q633 289 645 285 Q657 281 649 265 Q611 263 576 262 Q541 261 503 262 Q491 224 477.5 189.5 Q464 155 450 118 Q433 75 408.5 28 Q384 -19 350.5 -60 Q317 -101 274 -129.5 Q231 -158 177 -164 Q141 -168 110.5 -159 Q80 -150 57.5 -133 Q35 -116 20.5 -91.5 Q6 -67 2 -40 Q-2 -14 1.5 18 Q5 50 20 76 Q29 92 46.5 109.5 Q64 127 86 139.5 Q108 152 133 155 Q158 158 183 145 Q189 141 182 131 Q171 137 160.5 134.5 Q150 132 139 126 Q119 115 101 94 Q83 73 71.5 48 Q60 23 55.5 -3.5 Q51 -30 58 -53.5 Q65 -77 83.5 -95 Q102 -113 137 -120 Q154 -124 172.5 -119 Q191 -114 208.5 -103.5 Q226 -93 241.5 -80 Q257 -67 269 -54 Q289 -33 305.5 -10 Q322 13 338 38 Q364 81 385 126 Q406 171 424 219 Q428 230 431.5 239.5 Q435 249 439 260 Q397 261 351 260 Q328 259 319 263.5 Q310 268 312 279 Q313 287 359 288 Q379 289 397 289 Q415 289 442 289 Q450 289 453 297 Q464 328 476 358 Q488 388 499 418 Q513 458 531.5 494.5 Q550 531 572 566 Q545 577 515.5 587 Q486 597 457 606 Q421 616 381 613.5 Q341 611 304.5 596.5 Q268 582 239 555 Q210 528 196 488 Q188 465 195 445 Q202 425 218 408 Q231 395 251 398 Q268 403 284 415.5 Q300 428 312 444 Q321 454 335 450 Q348 447 345 434 Q345 431 343 427 Q336 412 324 399.5 Q312 387 297 379 Q282 371 264.5 369 Q247 367 231 373 Q212 380 196 392.5 Q180 405 169 422 Q158 439 153.5 460 Q149 481 153 504 Q158 530 173.5 553.5 Q189 577 211 595.5 Q233 614 259 627.5 Q285 641 311 647 Q360 659 411 649 Q462 639 514 622 Q532 616 550.5 610.5 Q569 605 586 600 Q596 597 602 605 Q625 633 649 656.5 Q673 680 708 696 Q722 703 738.5 705 Q755 707 771 704.5 Q787 702 801 694.5 Q815 687 826 674 Z M189 496 Q193 504 196.5 512 Q200 520 204 528 Q204 529 203 529 Q190 513 189 496 Z M60 75 Q50 60 44 41 Q45 41 45 40.5 Q45 40 46 40 Q50 48 54 56.5 Q58 65 62 74 Q61 74 60 75 Z M529 453 Q527 450 526 447.5 Q525 445 524 442 L525 442 Q527 444 527.5 447 Q528 450 530 452 L529 453 Z M522 434 Q521 434 521 434.5 Q521 435 520 435 Q519 431 518 427.5 Q517 424 516 421 Q519 424 520 427 Q521 430 522 434 Z M511 408 Q516 413 516 420 Q514 417 513.5 414 Q513 411 511 408 Z M508 399 Q504 394 503 389 Q502 384 500 379 Q506 387 508 399 Z M497 368 Q495 363 493.5 358.5 Q492 354 490 349 Q495 357 497 368 Z M486 338 Q481 331 478.5 323 Q476 315 474 307 Q483 320 486 338 Z M474 305 Q470 302 468 292 L470 292 Q471 295 471.5 298.5 Q472 302 474 305 Z M456 260 Q445 232 434.5 204 Q424 176 413 148 Q416 153 423.5 169.5 Q431 186 438 205 Q445 224 450.5 240 Q456 256 456 260 Z M486 261 Q458 193 432 128 Q406 63 368 -5 Q371 -5 371 -3 Q377 6 386 21 Q395 36 408.5 64.5 Q422 93 440.5 140 Q459 187 486 261 Z M500 292 Q522 358 546.5 420.5 Q571 483 606 543 Q606 544 604 544 Q600 540 599 536 Q585 513 573 490 Q561 467 552 442 Q538 406 525 369.5 Q512 333 499 297 Q499 297 499 293 L500 292 Z M798 644 Q800 656 793.5 667.5 Q787 679 769 677 Q753 676 735 666 Q703 650 676 620 Q669 613 662 604 Q655 595 648 587 Q671 584 697.5 583.5 Q724 583 748 591 Q774 599 784.5 614 Q795 629 798 644 Z M821 598 Q826 600 829 606.5 Q832 613 831 617 Q829 612 827.5 607.5 Q826 603 821 598 Z " />
<glyph glyph-name="G" unicode="G" horiz-adv-x="782" d="M782 300 Q797 297 802.5 290.5 Q808 284 807 274.5 Q806 265 799.5 253.5 Q793 242 784 230 Q770 211 748 186 Q726 161 699.5 134 Q673 107 641.5 81.5 Q610 56 576.5 37.5 Q543 19 508.5 9 Q474 -1 441 4 Q434 5 427 -3 Q410 -25 393 -45.5 Q376 -66 357 -86 Q323 -122 283 -143 Q269 -150 252.5 -154.5 Q236 -159 218.5 -160 Q201 -161 183.5 -157.5 Q166 -154 152 -144 Q131 -129 113 -113 Q93 -93 91.5 -67 Q90 -41 107 -18 Q122 1 145 12 Q171 25 198 30.5 Q225 36 254 36 Q279 35 303.5 34 Q328 33 354 32 L361 32 Q376 52 392 73.5 Q408 95 422 117 Q399 105 375.5 92.5 Q352 80 327 71 Q310 64 292.5 60.5 Q275 57 257 59 Q234 60 210 69.5 Q186 79 165 94 Q144 109 127.5 129.5 Q111 150 103 174 Q87 221 92.5 273 Q98 325 112 376 Q119 399 128.5 420.5 Q138 442 149 463 Q120 471 93 489 Q66 507 47.5 532.5 Q29 558 24 589 Q19 620 36 654 Q47 677 67 698 Q87 719 113 727 Q129 732 143 725 Q148 723 149 720 Q158 709 145 707 Q128 703 115 694 Q102 685 91 672 Q76 653 67 631.5 Q58 610 60 585 Q62 568 72 554 Q82 540 96.5 529 Q111 518 127.5 510 Q144 502 159 496 Q164 493 166 494 Q168 495 172 500 Q214 564 278 614 Q342 664 427 681 Q453 685 479 686.5 Q505 688 529.5 682.5 Q554 677 576 664.5 Q598 652 616 628 Q647 586 625 536 Q618 521 607.5 509.5 Q597 498 583 487 Q528 445 460 431 Q392 417 319 422 Q305 422 289 424 Q273 426 257 429 Q241 432 227 435 Q213 438 203 441 Q187 413 172.5 376.5 Q158 340 150 301 Q142 262 142.5 223.5 Q143 185 158 153 Q172 123 204 115 Q248 106 290.5 120.5 Q333 135 374 159 Q430 194 477 240.5 Q524 287 569 344 Q574 351 580 358.5 Q586 366 593.5 371 Q601 376 609.5 377 Q618 378 627 372 L627 371 Q630 370 633 369.5 Q636 369 635 365 Q635 362 634 359 Q633 356 632 354 L632 352 Q634 354 636 355.5 Q638 357 640 359 Q642 353 639 345 Q634 331 627 320 Q620 309 611 294 Q585 250 561.5 207 Q538 164 510 122 Q495 101 482 80 Q469 59 455 37 Q484 39 511 52 Q538 65 568 87 Q604 113 641.5 149 Q679 185 711 219 Q747 259 782 300 Z M608 532 Q604 528 600.5 524 Q597 520 594 516 Q594 515 595 514 Q605 521 608 532 Z M522 641 Q478 643 429.5 628.5 Q381 614 341 588 Q306 565 278.5 537 Q251 509 228 477 Q260 469 293.5 468.5 Q327 468 359 470 Q381 471 414 476.5 Q447 482 480 493.5 Q513 505 540 522 Q567 539 579 563 Q587 577 587.5 592 Q588 607 579 621 Q574 629 567 632 Q556 637 545 638.5 Q534 640 522 641 Z M284 562 Q273 553 266 546.5 Q259 540 252.5 532.5 Q246 525 239 516.5 Q232 508 222 495 Q223 494 218 487.5 Q213 481 214 481 Q231 501 249 521.5 Q267 542 284 562 Z M246 563 Q244 561 236.5 552.5 Q229 544 220 533.5 Q211 523 203.5 512.5 Q196 502 194 495 Q195 497 203 507 Q211 517 220 529 Q229 541 237 551 Q245 561 246 563 Z M108 696 Q100 691 94.5 686 Q89 681 87 677 Q86 677 85 674 Q84 671 82 668 Q80 664 77 660 Q78 661 82.5 666.5 Q87 672 92.5 678 Q98 684 102.5 689.5 Q107 695 108 696 Z M495 173 Q495 172 483 154.5 Q471 137 457 116.5 Q443 96 431 79 Q419 62 418 61 Q419 61 425 69 Q431 77 439.5 89.5 Q448 102 458 116 Q468 130 476 142.5 Q484 155 489.5 163.5 Q495 172 495 173 Z M464 145 Q458 137 448.5 123 Q439 109 428.5 93 Q418 77 408 62 Q398 47 391 37 Q391 36 390 35 Q387 32 389 31 Q411 60 430.5 90 Q450 120 471 150 Q470 150 468 147.5 Q466 145 464 145 Z M144 -27 Q141 -30 138.5 -32.5 Q136 -35 134 -37 Q132 -40 131 -42 Q128 -47 129 -47 Q132 -43 142.5 -32.5 Q153 -22 156 -19 Q151 -21 150 -22 Q149 -23 144 -27 Z M245 -82 Q272 -65 295 -42 Q318 -19 338 7 Q321 8 305.5 8.5 Q290 9 273 9 Q247 8 223 2.5 Q199 -3 176 -15 Q168 -20 160.5 -25.5 Q153 -31 146 -38 Q129 -57 130 -81 Q132 -104 155 -110 Q178 -115 201.5 -104.5 Q225 -94 245 -82 Z M329 -86 Q337 -82 350 -69.5 Q363 -57 375.5 -42.5 Q388 -28 398 -15 Q408 -2 411 3 Q390 -18 371 -42 Q352 -66 329 -86 Z M413 38 Q414 39 424.5 54 Q435 69 447 87 Q459 105 469.5 120 Q480 135 481 136 Q480 136 469 121 Q458 106 445.5 88 Q433 70 422.5 55 Q412 40 412 39 L413 38 Z M434 32 Q441 43 447.5 53 Q454 63 461 73 L488 115 Q495 126 502 136 Q509 146 516 157 Q531 178 542 198 Q541 198 541 198.5 Q541 199 540 199 Q513 157 485.5 116.5 Q458 76 431 34 Q432 34 434 32 Z " />
<glyph glyph-name="H" unicode="H" horiz-adv-x="793" d="M841 683 Q860 680 858 663 Q856 647 852 634 Q845 615 838 596.5 Q831 578 823 560 Q807 525 791 490 Q775 455 760 420 Q731 351 704 280.5 Q677 210 656 137 Q645 99 636.5 60 Q628 21 623 -19 Q621 -36 621 -52 Q621 -68 626 -84 Q633 -102 642 -113 Q649 -122 661 -119 Q675 -116 685.5 -109.5 Q696 -103 706 -94 Q709 -90 714 -88 Q720 -88 728 -91 Q729 -91 729 -93 Q729 -95 730 -97 Q730 -97 734 -95 Q737 -100 733 -106 Q730 -114 725 -121 Q721 -126 717 -131 Q713 -136 709 -141 Q696 -155 672.5 -154 Q649 -153 623 -142 Q609 -136 596 -124.5 Q583 -113 572.5 -98 Q562 -83 556.5 -65 Q551 -47 552 -28 Q554 10 560.5 46.5 Q567 83 576 119 Q587 165 602.5 210.5 Q618 256 635 301 Q579 300 524.5 295 Q470 290 414 286 L384 283 Q377 282 373.5 282 Q370 282 368.5 281 Q367 280 366 277 Q365 274 362 268 Q350 240 338 212.5 Q326 185 313 157 Q303 135 289 108.5 Q275 82 256.5 59.5 Q238 37 214.5 22 Q191 7 161 8 Q141 8 120.5 16 Q100 24 83 35 Q67 46 57.5 62 Q48 78 44.5 96.5 Q41 115 42.5 134.5 Q44 154 50 172 Q61 207 80.5 236 Q100 265 131 286 Q136 289 141.5 290.5 Q147 292 154 290 Q157 289 163 285 Q166 283 166 281.5 Q166 280 164 275 Q156 276 149 269 Q125 245 107 217 Q89 189 81 154 Q76 131 79.5 106 Q83 81 99 61 Q115 43 140 48 Q159 52 177 65 Q200 83 217.5 107 Q235 131 250 160 Q264 187 276.5 214.5 Q289 242 303 269 Q304 271 304 272.5 Q304 274 306 277 Q295 277 285.5 277 Q276 277 267 276 Q259 276 251.5 278.5 Q244 281 239 286 Q235 293 249 293 Q263 295 278 296 Q293 297 308 298 Q315 298 320 307 Q337 346 353 385.5 Q369 425 386 464 Q400 496 415.5 527.5 Q431 559 448 590 Q417 602 385.5 612 Q354 622 321 629 Q286 638 246 641 Q201 646 164 631.5 Q127 617 95 588 Q54 551 40 500 Q35 485 34.5 470 Q34 455 39 440 Q44 426 52.5 415 Q61 404 75 398 Q97 388 117 397 Q136 405 151 416.5 Q166 428 180 442 Q184 447 187.5 451 Q191 455 196 460 Q202 466 210 464 Q226 462 219 450 Q214 437 207 427 Q196 412 182.5 400.5 Q169 389 153 380 Q121 361 83 375 Q78 377 74 378.5 Q70 380 66 382 Q33 395 16.5 423.5 Q0 452 5 487 Q8 513 18 536 Q28 559 44 580 Q66 609 93.5 629 Q121 649 156 660 Q172 665 188 667 Q204 669 220 668 Q266 666 310 657 Q354 648 398 635 Q413 631 427.5 627 Q442 623 457 619 Q463 617 464.5 618 Q466 619 469 624 Q486 647 504 671 Q522 695 551 709 Q581 725 615 717.5 Q649 710 670 679 Q676 670 679 658 Q682 646 680.5 633.5 Q679 621 672.5 609 Q666 597 655 589 Q623 568 586 568 Q566 568 547.5 570.5 Q529 573 509 577 Q499 579 497 577.5 Q495 576 490 568 Q466 523 446 476 Q426 429 407 381 Q400 362 392.5 343.5 Q385 325 378 305 Q420 308 460.5 311.5 Q501 315 543 318 Q562 320 581.5 320 Q601 320 621 321 L637 321 Q643 321 646 328 Q649 336 652 344.5 Q655 353 659 361 Q682 412 704 463 Q726 514 749 565 Q752 571 762 591.5 Q772 612 785 634 Q798 656 811.5 672 Q825 688 834 685 Q836 684 837.5 684 Q839 684 841 683 Z M666 628 Q665 627 663 623 Q664 623 665 622 Q667 626 667 628 L666 628 Z M562 672 Q548 661 535 643 Q522 625 514 609 Q527 607 542 606 Q557 605 572 607 Q587 609 600.5 615.5 Q614 622 623 634 Q632 645 633 658.5 Q634 672 627 683 Q622 692 613.5 693 Q605 694 596 691 Q587 688 577.5 682.5 Q568 677 562 672 Z M39 519 Q41 522 43 528 Q42 529 41 529 Q39 523 37 520 Q38 520 39 519 Z M88 199 Q86 194 84 190.5 Q82 187 80 182 Q81 181 82 181 Q85 189 90 198 Q89 199 88 199 Z M354 281 Q326 220 312.5 192 Q299 164 293 151.5 Q287 139 284.5 134 Q282 129 276 116 Q283 131 293 150.5 Q303 170 313.5 192 Q324 214 334.5 237 Q345 260 354 281 Z M483 578 Q446 512 417 442 Q388 372 364 304 L483 578 Z M708 425 Q705 420 698 404.5 Q691 389 684 371.5 Q677 354 672 339.5 Q667 325 667 322 Q677 348 687 373.5 Q697 399 708 425 Z M671 292 Q671 292 669.5 288 Q668 284 666 279.5 Q664 275 662.5 271 Q661 267 661 267 Q661 267 655.5 248.5 Q650 230 643.5 207.5 Q637 185 631.5 166.5 Q626 148 626 147 Q626 147 629.5 158 Q633 169 638 185 Q643 201 648.5 219.5 Q654 238 659 254 Q664 270 667.5 280.5 Q671 291 671 292 Z M658 301 Q653 293 643.5 268.5 Q634 244 624.5 217 Q615 190 608.5 166.5 Q602 143 602 139 Q616 179 630 219 Q644 259 658 301 Z M612 142 Q614 144 614 146 L656 275 Q656 274 649 253.5 Q642 233 633.5 208.5 Q625 184 618 163.5 Q611 143 611 142 L612 142 Z M637 129 Q650 174 665.5 216.5 Q681 259 698 304 Q691 291 684 272.5 Q677 254 664 219 Q656 196 648.5 174 Q641 152 637 129 Z M833 621 Q833 622 835.5 627.5 Q838 633 841 639.5 Q844 646 845.5 651.5 Q847 657 846 658 Q842 650 839 642 Q836 634 832 626 Q812 581 792.5 538 Q773 495 753 450 Q739 416 723.5 380 Q708 344 700 309 Q706 323 711.5 338 Q717 353 723 367 Q740 406 758 449.5 Q776 493 793 532 Q799 546 803.5 556.5 Q808 567 812.5 576.5 Q817 586 822 596.5 Q827 607 833 621 Z " />
<glyph glyph-name="I" unicode="I" horiz-adv-x="511" d="M621 664 Q635 650 634.5 632 Q634 614 624 597.5 Q614 581 598 568.5 Q582 556 565 553 Q553 551 541 553 Q529 555 517 558 Q509 560 504 561 L498 552 Q484 524 470.5 495.5 Q457 467 446 438 Q434 406 422.5 374.5 Q411 343 399 311 Q382 264 364.5 219 Q347 174 324 130 Q312 106 298.5 83.5 Q285 61 268 41 Q229 -7 175 -29 Q136 -46 99 -30 Q93 -29 88 -26 Q31 -6 13 53 Q5 81 9.5 111 Q14 141 27 168 Q40 195 60.5 218 Q81 241 106 255 Q118 264 133 254 Q139 250 135 243 Q130 243 126.5 240 Q123 237 119 234 Q96 214 80 187 Q64 160 54 130 Q49 115 47 99.5 Q45 84 48 68 Q54 27 90 5 Q97 1 106 2 Q122 5 139 15 Q194 47 228 105 Q248 137 264 170.5 Q280 204 295 239 Q313 282 330.5 324.5 Q348 367 366 410 Q385 454 406 496.5 Q427 539 453 579 Q435 590 416.5 599 Q398 608 379 616 Q363 623 347 626 Q331 629 314 626 Q288 621 268.5 601 Q249 581 248 556 Q247 542 251.5 529 Q256 516 263 504 Q269 493 281 495 Q286 497 292 495 Q298 493 300 488 Q302 483 292 479.5 Q282 476 277 478 Q271 480 265.5 481.5 Q260 483 255 486 Q242 493 233.5 505.5 Q225 518 221 533 Q217 548 217.5 564 Q218 580 224 594 Q245 642 296 649 Q331 655 369 642 Q385 636 397.5 631 Q410 626 420.5 621 Q431 616 442 610 Q453 604 467 597 Q474 607 483.5 620 Q493 633 503.5 644.5 Q514 656 526.5 665.5 Q539 675 553 678 Q592 689 621 664 Z M71 187 Q68 184 64.5 177 Q61 170 57 162 Q53 154 50.5 146.5 Q48 139 47 135 Q50 142 57 156.5 Q64 171 71 187 Z M480 542 Q481 543 481 546 Q478 544 476 540 Q465 517 454 494.5 Q443 472 433 449 Q420 417 408 385 Q396 353 384 321 Q364 269 339 210 Q314 151 288 102 Q286 97 291 105 Q296 113 299 118 Q303 125 306.5 131 Q310 137 314 144 Q336 185 353 227 Q370 269 386 312 Q407 371 429 428.5 Q451 486 480 542 Z M522 579 Q536 576 549.5 580.5 Q563 585 573.5 594 Q584 603 590.5 615.5 Q597 628 597 642 Q597 644 596.5 646.5 Q596 649 596 651 Q592 661 581 656 Q570 651 564 646 Q549 632 538 616 Q527 600 516 581 Q520 579 522 579 Z M611 597 Q612 597 614 600 Q616 603 618.5 607 Q621 611 622 614.5 Q623 618 623 619 Q622 617 617 608 Q612 599 611 597 Z " />
<glyph glyph-name="J" unicode="J" horiz-adv-x="651" d="M697 698 Q713 683 712 663 Q709 627 683 605 Q665 589 644 581.5 Q623 574 600 572 Q595 572 591 571.5 Q587 571 582 572 Q574 573 571 565 Q563 548 555 531 Q547 514 539 497 Q524 462 509.5 426 Q495 390 481 353 Q436 231 381 114 Q379 108 377 104 Q397 100 416.5 98.5 Q436 97 456 101 Q469 103 481.5 106 Q494 109 506 114 Q541 128 568 150.5 Q595 173 618 202 Q625 212 631 221.5 Q637 231 644 241 Q649 249 651 249 Q653 249 661 248 Q665 248 667.5 244 Q670 240 669 236 Q669 235 668 234 Q651 182 618 144.5 Q585 107 532 87 Q501 75 469 72.5 Q437 70 405 75 Q397 77 390 77.5 Q383 78 375 80 Q373 81 371 81 Q369 81 366 82 Q364 79 363.5 76.5 Q363 74 361 71 Q347 42 332.5 12.5 Q318 -17 301 -45 Q291 -62 281 -77.5 Q271 -93 260 -108 Q237 -141 199 -165 Q164 -188 124 -189 Q117 -189 113 -188 Q81 -182 55 -166 Q48 -161 43 -155.5 Q38 -150 33 -144 Q12 -112 9 -76 Q2 23 87 78 Q149 118 225 118 Q244 118 262 117 Q280 116 299 114 Q307 113 309 114.5 Q311 116 315 124 Q326 148 337 172 Q348 196 359 220 Q379 262 396.5 304 Q414 346 431 389 Q450 438 472 484.5 Q494 531 520 576 L524 584 Q518 586 516 587 Q502 594 488.5 600 Q475 606 461 613 Q443 622 425 631 Q407 640 388 649 Q363 661 330 663 Q306 665 286.5 655 Q267 645 253 626 Q216 575 242 519 Q243 516 244.5 513.5 Q246 511 248 508 Q257 494 273 498 Q300 504 326 520 L335 526 Q341 530 348 529 Q355 528 360 523 Q362 519 361 518 Q359 510 356 507 Q348 495 336 491 Q327 487 318 484 Q309 481 299 478 Q280 472 260 480 Q239 486 227.5 500 Q216 514 209 534 Q202 555 203.5 577 Q205 599 214 618.5 Q223 638 238 653.5 Q253 669 273 677 Q288 683 303.5 684 Q319 685 334 683 Q351 681 366 677 Q381 673 396 666 Q416 657 435.5 647.5 Q455 638 475 629 Q487 623 498.5 617.5 Q510 612 523 607 Q526 605 535 603 Q537 605 538 607 Q539 609 540 611 Q550 625 559.5 639 Q569 653 578 667 Q592 686 608 699 Q630 718 655.5 715 Q681 712 697 698 Z M431 347 Q428 338 424.5 329 Q421 320 417 311 L419 311 Q422 320 425.5 328.5 Q429 337 433 346 Q432 346 431 347 Z M222 -48 Q264 18 296 86 Q296 86 298 92 Q294 93 287 93 Q273 95 258 95.5 Q243 96 227 97 Q159 97 102 58 Q79 43 63 22 Q44 -4 39 -33.5 Q34 -63 41 -94 Q47 -121 67 -143 Q79 -157 95 -153 Q130 -144 156 -123 Q176 -107 192 -88 Q208 -69 222 -48 Z M287 -37 Q306 -8 322 22 Q338 52 352 83 Q351 83 351 83.5 Q351 84 350 84 Q349 84 347 82 Q332 53 317 23 Q302 -7 287 -37 Z M559 565 Q560 567 561 568.5 Q562 570 560 573 Q558 570 557.5 568 Q557 566 555 564 Q534 522 515 479.5 Q496 437 480 393 Q453 321 423.5 251.5 Q394 182 362 113 Q360 109 359 105 Q364 108 364.5 109 Q365 110 367 114 Q384 153 401.5 191.5 Q419 230 436 269 Q451 305 464.5 341 Q478 377 492 413 Q507 452 524 489.5 Q541 527 559 565 Z M677 657 Q681 669 677 681 Q673 693 661 689 Q657 687 653 684.5 Q649 682 646 680 Q637 674 630.5 666.5 Q624 659 619 651 Q612 640 605.5 628.5 Q599 617 593 606 Q591 602 590 599 Q595 600 598 600.5 Q601 601 604 602 Q618 605 631.5 610.5 Q645 616 656 625 Q671 639 677 657 Z " />
<glyph glyph-name="K" unicode="K" horiz-adv-x="669" d="M816 707 Q826 701 818 689 Q813 693 809.5 690.5 Q806 688 804 684 Q793 673 785 658 Q777 643 769 626 Q736 557 709 502 Q682 447 647.5 404 Q613 361 562.5 328 Q512 295 432 269 Q456 257 478.5 243.5 Q501 230 519 210 Q539 189 551 164.5 Q563 140 568 112 Q574 85 574.5 57.5 Q575 30 574 2 Q573 -20 573 -41.5 Q573 -63 576 -85 Q578 -95 581 -105 Q584 -115 589 -124 Q595 -132 600 -131 Q605 -130 609 -133 Q613 -136 617 -138 Q618 -139 618 -142 Q620 -156 604 -158 Q595 -158 586 -155 Q579 -153 572 -150.5 Q565 -148 558 -145 Q543 -139 533.5 -128 Q524 -117 517 -103 Q505 -78 505 -50 Q504 -27 504.5 -4 Q505 19 505 42 Q506 70 503.5 97.5 Q501 125 492 151 Q479 192 444 219 Q405 249 356 255 L353 255 Q352 253 351 250.5 Q350 248 349 245 Q341 225 332.5 206 Q324 187 315 167 Q292 113 255 70 Q239 51 220 36 Q201 21 176 12 Q142 0 105 11 Q100 13 96 14.5 Q92 16 87 18 Q45 32 25.5 64 Q6 96 11 139 Q14 163 22 185.5 Q30 208 41 230 Q51 247 66 259 Q81 271 98 279 Q108 285 119 279 Q126 275 124 271 Q110 263 98 254 Q86 245 78 233 Q44 186 41 128 Q39 104 48 84 Q57 64 79 50 Q104 33 133 45 Q166 58 191 86 Q220 119 241 160 Q255 186 265.5 212.5 Q276 239 287 266 Q288 268 288 271 Q286 272 283.5 273 Q281 274 279 275 Q271 278 264 286 Q257 299 271 302 Q276 303 280 302.5 Q284 302 289 302 L301 302 L307 317 Q321 352 335 387.5 Q349 423 364 458 Q378 488 392 517.5 Q406 547 420 577 Q422 579 424 585 Q422 585 418 587 Q389 592 362 599.5 Q335 607 308 617 Q287 625 266.5 631 Q246 637 224 640 Q204 642 184.5 640.5 Q165 639 146 629 Q139 625 133 621 Q127 617 122 612 Q57 553 60 465 Q60 442 69 421 Q73 409 81 400 Q90 386 108 391 Q116 394 122.5 396.5 Q129 399 136 404 Q154 415 170 429 Q177 434 185 433 Q198 430 192 419 Q190 416 185 411 Q160 386 129 376 Q112 370 95 376 L86 379 Q60 388 48 414 Q33 450 34 486 Q37 556 83 611 Q127 666 201 661 Q224 659 245.5 654 Q267 649 289 642 Q310 635 331 628 Q352 621 374 615 Q387 611 400 609.5 Q413 608 427 605 Q436 602 441 612 Q452 629 464 645.5 Q476 662 490 676 Q507 692 527.5 704 Q548 716 574 711 Q596 706 608.5 689 Q621 672 616 646 Q609 624 594 610 Q579 596 558 588 Q544 583 529.5 582 Q515 581 501 581 Q488 581 485 579 Q482 577 477 566 Q460 531 445 495.5 Q430 460 416 424 Q411 411 407 401 Q403 391 400 382 Q397 373 393 363 Q389 353 384 340 Q384 339 382 334 Q380 329 378.5 323.5 Q377 318 375 313 Q373 308 373 306 Q408 316 441.5 325.5 Q475 335 510 355 Q542 374 565 394 Q588 414 606 435 Q624 456 639 479.5 Q654 503 670 530 Q693 571 716 612 Q739 653 768 691 Q773 699 784 706 Q799 716 816 707 Z M499 607 Q498 605 497.5 604 Q497 603 496 601 Q511 600 526.5 603 Q542 606 554 612 Q581 628 589 654 Q592 666 590 674 Q585 686 580 688 Q575 690 564 684 Q544 672 533 657 Q524 645 515.5 632 Q507 619 499 607 Z M339 255 Q339 257 338 258 Q336 258 336 257 Q324 230 312 203 Q300 176 289 148 Q305 174 316.5 201 Q328 228 339 255 Z M359 306 Q360 308 360.5 309.5 Q361 311 362 313 Q386 380 412 445.5 Q438 511 469 575 Q469 578 470 579 Q469 580 468 580 Q466 576 464 572.5 Q462 569 460 564 Q429 501 404 437.5 Q379 374 355 309 Q354 307 354.5 305.5 Q355 304 354 302 Q357 304 359 306 Z M702 513 Q704 518 709.5 526.5 Q715 535 717 539 Q717 540 714.5 536.5 Q712 533 709 528.5 Q706 524 703.5 519.5 Q701 515 701 514 L702 513 Z " />
<glyph glyph-name="L" unicode="L" horiz-adv-x="727" d="M349 439 Q363 468 378 497 Q393 526 411 553 Q442 596 480 632.5 Q518 669 565 680 Q589 685 611 680 Q633 675 652 658 Q671 639 674 615 Q677 591 669.5 567.5 Q662 544 647 523 Q632 502 616 489 Q578 457 534 437 Q490 417 440 410 Q432 409 422.5 408.5 Q413 408 405 408 Q396 408 393 400 Q379 366 366 333 Q353 300 339 266 Q325 229 309.5 194 Q294 159 276 124 Q345 96 405 96 Q465 96 518.5 116.5 Q572 137 620 173.5 Q668 210 713 255 Q726 265 739 258 Q747 254 746 246.5 Q745 239 742 233 Q698 163 635 113.5 Q572 64 492 55 Q432 48 372.5 60 Q313 72 262 101 Q248 79 230.5 60 Q213 41 191 28 Q152 8 116 12.5 Q80 17 45 42 Q17 64 8 96 Q-1 128 7 156 Q15 184 39 201.5 Q63 219 102 214 Q134 208 162 193.5 Q190 179 220 159 Q239 191 254.5 225 Q270 259 285 293 Q298 324 312 354.5 Q326 385 338 416 Q321 423 304.5 429 Q288 435 272 444 Q252 455 235.5 469.5 Q219 484 207 504 Q195 524 190 547.5 Q185 571 192 592 Q201 619 218 639.5 Q235 660 258 676 Q270 683 280 679 Q284 677 288 674 Q294 668 286 663 Q263 649 248 629 Q233 609 223 584 Q216 565 219 547 Q222 529 231 512 Q245 487 270 469 Q284 458 306.5 449 Q329 440 349 439 Z M353 407 Q338 375 325.5 348 Q313 321 302 292 Q293 272 284.5 253.5 Q276 235 269 215 Q280 234 288.5 254 Q297 274 305 294 Q319 326 330.5 353 Q342 380 353 407 Z M409 435 Q435 437 462.5 443.5 Q490 450 512 458 Q543 470 573 497.5 Q603 525 621.5 556.5 Q640 588 641.5 615.5 Q643 643 617 655 Q597 653 581 647 Q565 641 548 630 Q497 592 462 538 Q446 513 433 488 Q420 463 409 435 Z M208 138 Q192 148 177.5 157.5 Q163 167 148 176 Q144 179 139 180.5 Q134 182 129 184 Q96 192 71.5 175.5 Q47 159 40 123 Q38 104 46 89.5 Q54 75 65 64 Q82 49 101.5 51 Q121 53 138 64 Q161 78 177 96.5 Q193 115 208 138 Z M262 133 Q300 197 326.5 267.5 Q353 338 382 407 Q372 388 364 368 Q356 348 348 328 Q328 278 307 229.5 Q286 181 262 133 Z M394 435 Q398 448 406.5 466.5 Q415 485 424.5 502.5 Q434 520 442.5 533.5 Q451 547 456 552 Q450 545 440.5 528 Q431 511 421.5 492.5 Q412 474 404 457.5 Q396 441 394 435 Z M251 178 Q254 184 259 192.5 Q264 201 265 208 Q260 197 255.5 189.5 Q251 182 251 178 Z M48 163 Q38 156 38 144 Q41 149 43.5 153.5 Q46 158 48 163 Z M378 462 L377 463 Q375 459 375 459 Q376 459 376 458 Q378 462 378 462 Z " />
<glyph glyph-name="M" unicode="M" horiz-adv-x="723" d="M843 658 Q844 649 839 640 Q815 605 793.5 569 Q772 533 752 496 Q673 354 617 200 Q603 161 591 122 Q579 83 571 42 Q566 19 564 -3.5 Q562 -26 564 -49 Q565 -73 576 -97 Q583 -116 600 -131 Q604 -134 605 -140 Q606 -146 603 -150 Q601 -152 597 -154 Q595 -154 594 -153.5 Q593 -153 591 -153 Q530 -134 513 -71 Q508 -54 507.5 -36 Q507 -18 508 0 Q510 37 518 72.5 Q526 108 537 143 Q557 209 579.5 272.5 Q602 336 630 399 Q647 437 665 474.5 Q683 512 705 547 L708 553 Q703 552 699 548 Q658 516 623.5 479.5 Q589 443 558 401 Q521 353 488 303 Q455 253 426 199 Q412 172 399.5 144.5 Q387 117 375 89 Q372 82 369 75.5 Q366 69 362 62 Q360 58 354 52 Q350 47 343 50 Q338 54 332 56 Q326 58 321 61 Q311 64 307 72 Q304 76 304 83 Q308 107 310 131 Q312 155 314 179 Q314 193 314.5 208 Q315 223 315 237 Q316 279 315.5 319.5 Q315 360 313 402 Q312 411 312 420.5 Q312 430 311 439 Q311 441 310.5 442 Q310 443 309 445 Q308 441 307 439 Q306 437 305 435 Q280 358 243.5 288 Q207 218 161 152 Q147 132 130.5 113 Q114 94 96 77 Q78 62 54 49 Q11 30 -32 46 Q-40 49 -47.5 52.5 Q-55 56 -63 60 Q-87 72 -100 91.5 Q-113 111 -119 137 Q-122 148 -121.5 160 Q-121 172 -119 183 Q-115 202 -109 219.5 Q-103 237 -92 253 Q-87 261 -82 268 Q-77 275 -70 281 Q-40 311 1 299 Q10 296 17 289 Q21 285 19 279 Q18 274 11 274 Q-6 273 -18.5 265 Q-31 257 -42 245 Q-55 230 -62 212.5 Q-69 195 -74 176 Q-77 164 -77 152 Q-79 136 -74 122.5 Q-69 109 -60 96 Q-42 69 -11 77 Q1 78 12 85 Q29 93 42.5 104.5 Q56 116 69 130 Q109 174 142 227 Q152 244 161.5 260.5 Q171 277 181 294 Q220 366 244 440.5 Q268 515 280 596 Q282 613 283.5 629.5 Q285 646 284 663 Q282 672 284 683 Q285 696 300 695 Q304 695 307.5 694 Q311 693 316 692 Q332 688 340 672 Q343 667 344.5 660.5 Q346 654 348 648 Q356 621 360 594 Q364 567 367 540 Q372 493 373 446.5 Q374 400 375 353 Q376 325 374.5 297.5 Q373 270 372 242 L372 233 Q373 232 374 232 Q378 238 379 241 Q411 299 448 353 Q485 407 527 458 Q566 506 611.5 545.5 Q657 585 708 620 Q722 631 737 640 Q752 649 767 659 Q773 664 779 667.5 Q785 671 791 676 Q799 682 808 679 Q815 676 822 676 Q833 677 835 665 Q840 665 841.5 664 Q843 663 843 658 Z M-58 241 Q-65 235 -69.5 224.5 Q-74 214 -76 203 Q-71 214 -67 222.5 Q-63 231 -58 241 Z M262 444 Q261 442 261 441.5 Q261 441 260 439 L261 439 Q262 440 262 441 Q262 442 263 443 Q263 444 262 444 Z M256 429 Q256 427 255.5 426 Q255 425 255 423 L258 429 L256 429 Z M243 388 Q241 383 238.5 377 Q236 371 234 365 Q238 370 239.5 376 Q241 382 243 388 Z M233 363 Q229 356 226 349 Q226 348 228 348 Q229 353 233 363 Z M182 207 L180 209 Q178 205 174 199 Q175 199 175 198.5 Q175 198 176 198 L182 207 Z M187 217 Q260 325 294 446 Q274 386 246.5 329 Q219 272 187 217 Z M360 82 Q383 141 411 197 Q439 253 473 307 Q469 303 468 301 Q434 252 408 200 Q382 148 360 93 Q358 87 358 83 Q358 83 360 82 Z M480 315 Q482 319 482 319 L481 320 Q479 316 479 316 Q479 316 480 315 Z M576 209 Q576 211 576.5 211.5 Q577 212 577 214 L576 214 Q576 213 575.5 212 Q575 211 575 210 Q575 209 576 209 Z M581 224 Q582 226 582 230 L579 224 L581 224 Z M583 231 Q584 233 584.5 234.5 Q585 236 586 238 Q601 275 616 312 Q631 349 646 386 Q646 388 648 392 Q644 391 644 387 Q627 350 612.5 313.5 Q598 277 584 239 Q583 236 583 231 Z M590 166 Q591 165 592 165 Q593 168 595 176 Q593 173 592 170.5 Q591 168 590 166 Z M808 619 Q810 621 812 627 Q812 627 811 628 Q809 626 808.5 625 Q808 624 806 622 Q777 574 749 526.5 Q721 479 697 428 Q670 373 646.5 317 Q623 261 603 203 Q602 200 600 192 Q601 194 602 195.5 Q603 197 604 199 Q630 274 663 346 Q696 418 733 489 Q750 522 769 554.5 Q788 587 808 619 Z " />
<glyph glyph-name="N" unicode="N" horiz-adv-x="744" d="M838 653 Q843 648 843 640.5 Q843 633 838 627 Q837 625 833 621 Q804 591 785 555 Q775 538 765.5 520 Q756 502 746 484 Q731 456 719.5 426.5 Q708 397 697 367 Q685 337 673.5 306.5 Q662 276 650 245 Q639 218 629 191.5 Q619 165 609 138 Q598 108 586 78 Q574 48 560 19 Q556 11 552 4 Q548 -3 543 -11 Q542 -13 540.5 -15 Q539 -17 537 -19 Q531 -23 527 -20 Q522 -17 517.5 -16 Q513 -15 508 -13 Q486 -7 485 14 Q483 25 482.5 35.5 Q482 46 481 57 Q480 82 479 106 Q478 130 473 155 Q468 178 462 200.5 Q456 223 446 244 Q430 282 414.5 320 Q399 358 383 396 Q379 404 376 413 Q373 422 370 431 Q369 432 366 438 Q365 433 363 431 Q355 410 347.5 389 Q340 368 331 348 Q314 306 295 265.5 Q276 225 255 184 Q223 121 183 65 Q157 29 122 0 Q108 -11 91 -19 Q66 -30 38 -21 Q31 -19 25 -16.5 Q19 -14 13 -12 Q-9 -4 -21.5 12 Q-34 28 -42 49 Q-61 101 -39 152 Q-31 167 -22 181 Q-13 195 0 207 Q14 220 30 221.5 Q46 223 63 218 Q66 217 69 215.5 Q72 214 74 212 Q79 207 76 203 Q75 200 70 198 L63 198 Q48 198 35 187 Q14 167 1.5 142 Q-11 117 -12 88 Q-12 48 16 17 Q30 2 47 9 Q68 18 83 33 Q97 46 109.5 60 Q122 74 133 89 Q180 159 216 232 Q240 281 260.5 331 Q281 381 299 432 Q312 470 319.5 508.5 Q327 547 332 587 Q334 599 336 607 Q338 613 343 615 Q348 617 354 615 Q356 613 357 614 Q362 616 366 615 Q370 614 375 613 Q378 612 380.5 608.5 Q383 605 386 602 Q390 606 392 600 Q393 595 395 587 Q398 551 406 516 Q414 481 425 447 Q435 419 446 392.5 Q457 366 469 340 Q481 312 493 284 Q505 256 517 228 Q527 204 532 179.5 Q537 155 540 129 Q540 124 541 121 Q541 121 542 119 Q544 120 544.5 122 Q545 124 546 126 Q554 149 563 173 Q572 197 580 221 Q600 277 618.5 331.5 Q637 386 657 442 Q674 489 695.5 532.5 Q717 576 745 618 Q750 626 755.5 632 Q761 638 766 645 Q769 649 772 651.5 Q775 654 778 656 Q785 661 792 664 Q799 667 808 665 Q814 663 820.5 663 Q827 663 832 658 Q832 656 831.5 653.5 Q831 651 831 648 Q833 650 834.5 651 Q836 652 838 653 Z M-4 148 Q-10 143 -12.5 136 Q-15 129 -14 123 Q-9 138 -4 148 Z M315 427 Q318 431 319 435 Q322 443 324.5 451.5 Q327 460 329 468 Q329 470 329.5 471 Q330 472 330 474 Q325 463 321.5 451.5 Q318 440 315 429 L315 427 Z M315 426 Q311 419 309 412 Q307 405 305 398 Q307 402 311 412 Q312 415 313 418.5 Q314 422 315 426 Z M357 455 Q358 457 358 458.5 Q358 460 359 462 Q333 387 301 316.5 Q269 246 234 175 Q235 175 235 174.5 Q235 174 236 174 Q238 178 240.5 182 Q243 186 245 191 Q270 238 291.5 286 Q313 334 333 383 Q341 400 346 418.5 Q351 437 357 455 Z M670 425 Q667 418 664 411 Q661 404 660 396 Q665 403 666.5 410.5 Q668 418 670 425 Z M659 395 Q657 389 655.5 383.5 Q654 378 652 372 Q659 384 659 395 Z M651 371 Q644 358 645 349 Q647 354 648 359.5 Q649 365 651 371 Z M636 329 Q634 324 632 320 Q630 316 628 311 Q629 311 630 310 Q632 315 633.5 319.5 Q635 324 637 329 Q636 329 636 329 Z M610 260 L612 260 Q616 270 617 275 L616 275 L610 260 Z M593 213 Q591 209 591 205 L592 205 Q593 208 595 212 Q594 213 593 213 Z M580 178 Q578 170 576 167 Q577 166 578 166 Q579 172 582 177 Q581 178 580 178 Z M681 359 Q698 406 716.5 452 Q735 498 760 542 Q761 544 761 545 Q761 546 762 548 Q761 547 760 546.5 Q759 546 758 544 Q744 518 730.5 492.5 Q717 467 707 439 Q696 410 685 380.5 Q674 351 663 322 Q649 284 634 246 Q619 208 605 170 Q591 132 576.5 95 Q562 58 545 21 Q545 19 544 18 Q548 21 550 24 Q557 39 564 54 Q571 69 577 84 Q590 117 602 149.5 Q614 182 626 215 Q640 251 653.5 287 Q667 323 681 359 Z M762 549 Q766 552 768 560 Q766 558 764 555.5 Q762 553 762 549 Z " />
<glyph glyph-name="O" unicode="O" horiz-adv-x="642" d="M92 349 Q57 364 35.5 391 Q14 418 0 450 Q-2 456 -4.5 462 Q-7 468 -5 475 Q8 478 16 466 Q19 461 22 456 Q25 451 27 446 Q42 419 62 396 Q74 381 94 373 Q96 371 99 371 L101 371 Q103 373 103.5 375.5 Q104 378 106 380 Q120 409 135 436.5 Q150 464 170 489 Q199 526 233.5 554.5 Q268 583 311 603 Q362 627 418 630 Q437 631 454.5 627.5 Q472 624 488 615 Q543 585 534 523 Q529 491 512 467 Q476 412 416 380 Q383 362 349 349 Q315 336 278 328 Q222 318 164 327 Q158 327 154 328 Q153 325 151 321 Q131 270 127 216 Q124 186 124 155 Q123 111 140 67 Q144 56 151 44 Q157 32 167 25 Q177 18 189 13 Q197 10 204 10 Q211 10 218 11 Q239 14 260 22 Q299 37 333 60 Q367 83 398 112 Q421 135 442.5 160.5 Q464 186 483 213 Q497 235 509 257 Q521 279 529 304 Q540 337 549 370 Q552 380 553 390 Q554 400 556 410 Q558 418 559.5 419 Q561 420 569 419 Q579 418 583.5 414 Q588 410 592 402 Q594 396 595 390 Q596 384 597 377 Q597 365 595 352.5 Q593 340 590 328 Q568 235 510 154 Q446 68 362 8 Q346 -3 329 -12.5 Q312 -22 293 -29 Q237 -50 182 -24 Q174 -19 166 -15.5 Q158 -12 150 -8 Q124 5 106.5 25 Q89 45 78 72 Q54 134 62 201 Q64 219 66.5 236.5 Q69 254 71 272 Q73 289 78 305.5 Q83 322 89 339 Q91 345 92 349 Z M166 357 Q169 356 171 355.5 Q173 355 175 355 Q191 355 206.5 356 Q222 357 237 360 Q267 365 295.5 375.5 Q324 386 352 399 Q410 424 455 471 Q475 489 486 518 Q498 548 482 578 Q476 590 464 590 Q453 589 443 589 Q433 589 423 587 Q393 582 365.5 569.5 Q338 557 312 540 Q263 507 227.5 462.5 Q192 418 169 364 Q167 360 166 357 Z M150 358 Q151 359 151.5 359 Q152 359 153 360 Q164 383 176 406.5 Q188 430 202 453 Q197 449 188 435.5 Q179 422 171 407 Q163 392 156.5 378 Q150 364 150 358 Z M513 183 Q546 225 561 274 Q551 251 539 228.5 Q527 206 513 183 Z M118 367 Q120 365 120 365 Q125 374 128.5 383 Q132 392 137 401 Q135 401 135 402 Q130 393 126.5 384 Q123 375 118 367 Z M505 479 Q506 479 506 478.5 Q506 478 507 478 Q510 483 512.5 487.5 Q515 492 516 498 Q513 493 510.5 488.5 Q508 484 505 479 Z M140 329 Q138 330 138 330 L135 321 L136 320 Q138 326 140 329 Z M109 339 Q108 339 107 340 Q106 336 104 330 Q105 329 105 329 Q107 331 107.5 334 Q108 337 109 339 Z M133 364 L134 363 Q134 365 134.5 365.5 Q135 366 135 367 L134 367 Q134 366 133.5 365.5 Q133 365 133 364 Z M530 268 L531 268 Q532 269 532 270 Q532 271 533 272 Q532 272 532 273 Q531 271 531 270.5 Q531 270 530 268 Z " />
<glyph glyph-name="P" unicode="P" horiz-adv-x="743" d="M493 546 Q490 541 487.5 535.5 Q485 530 482 525 Q467 499 455.5 471 Q444 443 433 415 Q414 368 397 322 Q380 276 363 229 Q349 187 328.5 143.5 Q308 100 278 59 Q252 26 219 6.5 Q186 -13 146 -23 Q129 -27 107 -20 Q100 -16 93 -15 Q70 -9 54.5 7.5 Q39 24 30.5 45 Q22 66 21 90 Q20 114 27 136 Q34 159 44.5 178.5 Q55 198 72 215 Q84 226 99 233 Q114 240 131 241 Q137 241 147 239 Q151 239 157 235 Q161 233 161 225 Q159 219 154 219 Q128 215 112.5 199.5 Q97 184 86 164 Q78 150 72 135 Q66 120 64 103 Q58 63 80 29 Q82 25 89 18 Q98 8 112 11 Q154 22 184 49.5 Q214 77 236 119 Q253 154 268.5 190 Q284 226 298 264 Q338 370 391 475 Q399 489 407 503 Q415 517 425 530 Q433 541 444 549 Q455 557 466 564 Q472 568 481 566 Q490 564 493 559 Q497 555 493 546 Z M72 160 Q67 152 64 144 Q61 136 60 128 Q67 142 72 160 Z M324 278 Q322 274 321 270.5 Q320 267 318 262 L320 262 Q322 266 323 269.5 Q324 273 326 278 L324 278 Z M456 501 Q457 503 457 503.5 Q457 504 458 506 Q457 506 457 506.5 Q457 507 456 507 Q453 501 450 495.5 Q447 490 444 484 Q426 439 407.5 396 Q389 353 372 308 Q353 260 335 212 Q317 164 294 119 Q293 118 293 115 Q296 117 297.5 120 Q299 123 301 125 Q315 152 327.5 179 Q340 206 350 235 Q374 303 400.5 369 Q427 435 456 501 Z M719 540 Q731 499 728 444.5 Q725 390 706.5 338.5 Q688 287 653 248 Q618 209 566 199 Q542 194 515 199 Q488 204 465 218 Q456 223 448.5 231.5 Q441 240 439.5 246.5 Q438 253 444 255 Q450 257 467 250 Q488 242 509 238 Q530 234 548.5 237.5 Q567 241 583.5 253 Q600 265 614 288 Q638 332 653 377 Q668 422 669 473 Q669 505 662 539 Q655 573 635 600 Q619 621 595 625 Q527 640 461 614.5 Q395 589 341 541 Q321 522 303.5 501.5 Q286 481 270 458 Q265 449 259 442 Q254 437 251 436.5 Q248 436 240 440 Q232 443 236 450 Q240 461 245 469 Q277 523 326 569 Q362 601 409.5 627.5 Q457 654 513 658 Q547 660 578.5 655 Q610 650 637 636.5 Q664 623 685.5 599.5 Q707 576 719 540 Z M675 394 Q673 386 671 378.5 Q669 371 666 362 Q671 370 674 379 Q677 388 675 394 Z M669 289 Q683 312 693.5 337 Q704 362 707 389 L669 289 Z " />
<glyph glyph-name="Q" unicode="Q" horiz-adv-x="685" d="M659 422 Q662 405 663.5 389 Q665 373 660 353 Q652 311 639.5 271 Q627 231 609 191 Q581 131 539 83 Q521 63 503 45 Q485 27 465 10 Q460 3 461 -2 Q466 -28 471 -53.5 Q476 -79 485 -103 Q493 -124 508 -145 Q514 -154 525 -154 Q528 -155 536 -155 Q544 -155 552 -156 Q560 -157 566 -160 Q572 -163 572 -169 Q572 -177 568.5 -183 Q565 -189 560 -195 Q554 -203 541 -200 Q528 -197 518 -195 Q476 -184 450.5 -156 Q425 -128 413 -85 Q409 -71 407 -57.5 Q405 -44 401 -31 Q341 -55 293 -50 Q245 -45 212 -17 Q179 11 161.5 56.5 Q144 102 146 159 Q147 191 150.5 219.5 Q154 248 162 280 Q163 282 163.5 285.5 Q164 289 165 293 Q158 294 153.5 296 Q149 298 142 300 Q125 305 109.5 313.5 Q94 322 80 333 Q39 368 35.5 417 Q32 466 57 516 Q65 534 78 544 Q87 552 98 552.5 Q109 553 117 546 Q120 543 120.5 538.5 Q121 534 117 532 Q105 524 99 513.5 Q93 503 88 492 Q77 463 75 431 Q75 398 94.5 369 Q114 340 147 328 Q154 326 160 324.5 Q166 323 174 323 Q193 368 214.5 415.5 Q236 463 270 506 Q294 537 332.5 567.5 Q371 598 414.5 616 Q458 634 503 632.5 Q548 631 586 598 Q604 582 608 559 Q612 536 606 511.5 Q600 487 586 464 Q572 441 556 425 Q511 385 456 356.5 Q401 328 342 309 Q313 300 282.5 293.5 Q252 287 223 287 Q215 242 210.5 199 Q206 156 210 111 Q212 90 217 68.5 Q222 47 235 27 Q245 10 261.5 2.5 Q278 -5 298 -4 Q344 -2 382 21 Q389 25 389.5 27 Q390 29 388 35 Q383 62 376 85 Q371 101 359 117 Q347 133 329 137 Q313 137 297 129 Q294 128 291 127 Q288 126 286 127 Q277 128 269 134 Q264 137 264.5 140.5 Q265 144 268 148.5 Q271 153 276.5 156.5 Q282 160 287 163 Q302 170 318.5 170 Q335 170 351.5 164.5 Q368 159 383 149 Q398 139 409 128 Q433 105 446 69 Q473 91 495.5 116 Q518 141 537 169 Q552 192 563.5 216.5 Q575 241 584 267 Q595 296 602.5 326.5 Q610 357 616 388 Q617 392 618.5 399 Q620 406 622.5 413 Q625 420 629 425 Q633 430 639 431 L644 431 Q651 432 652.5 429 Q654 426 659 422 Z M590 509 Q588 502 584.5 495 Q581 488 577 481 Q591 494 590 509 Z M560 521 Q560 520 559.5 519 Q559 518 559 517 L560 516 Q561 517 561 518 L561 521 L560 521 Z M386 557 Q330 519 293.5 457 Q257 395 237 329 Q303 340 368 372 Q433 404 486 451 Q506 468 525.5 492.5 Q545 517 550 546 Q551 555 550.5 564 Q550 573 545 581 Q542 585 529.5 590 Q517 595 496 595 Q475 595 447 587 Q419 579 386 557 Z M278 451 Q272 444 262.5 426.5 Q253 409 244 389 Q235 369 228.5 351.5 Q222 334 223 328 Q246 391 278 451 Z M89 515 Q80 503 79 493 Q87 503 89 515 Z M78 486 Q78 488 78.5 489 Q79 490 79 492 Q78 490 77 489 Q76 488 76 486 L78 486 Z M195 332 Q197 337 199 343 Q201 349 203 354 Q202 354 201 355 Q199 349 197 343.5 Q195 338 193 333 Q194 333 194 332.5 Q194 332 195 332 Z M597 262 Q597 261 596.5 260 Q596 259 596 258 L597 257 Q597 259 597.5 259.5 Q598 260 598 262 L597 262 Z M591 245 Q591 245 589 241 L590 241 Q592 243 592 245 L591 245 Z M579 162 Q598 189 609.5 218.5 Q621 248 630 278 Q619 249 607 219.5 Q595 190 579 162 Z " />
<glyph glyph-name="R" unicode="R" horiz-adv-x="745" d="M560 252 Q575 241 584.5 226.5 Q594 212 601 195 Q608 175 610 154.5 Q612 134 611 114 Q609 69 606.5 25.5 Q604 -18 606 -63 Q607 -71 609.5 -78 Q612 -85 614 -93 Q616 -97 618.5 -100.5 Q621 -104 623 -108 Q628 -113 633 -110 Q639 -106 645 -107.5 Q651 -109 656 -110 Q660 -110 662 -115 Q665 -115 665 -116 Q668 -120 667.5 -124 Q667 -128 665 -131 Q660 -143 650 -144 Q644 -146 633 -145 Q622 -144 603 -137 Q580 -129 566 -112.5 Q552 -96 544 -73 Q532 -32 535.5 12.5 Q539 57 543 100 Q545 129 543.5 157 Q542 185 532 213 Q531 219 525 227 Q519 234 512.5 238 Q506 242 496 242 Q482 242 462.5 247.5 Q443 253 434 266 Q430 270 431.5 273.5 Q433 277 437 279 Q441 281 446.5 282 Q452 283 455 284 Q472 286 488.5 288.5 Q505 291 522 296 Q534 301 545.5 307 Q557 313 567 321 Q624 366 659 433 Q669 454 676 477.5 Q683 501 685 525.5 Q687 550 684.5 574.5 Q682 599 674 622 Q669 636 661.5 647 Q654 658 641 666 Q636 668 632 670 Q628 672 623 674 Q599 680 574.5 680.5 Q550 681 526 676 Q473 666 428 642 Q383 618 343 583 Q296 544 264 497 Q261 491 257 488.5 Q253 486 243 491 Q234 494 236 503 Q238 508 239.5 512 Q241 516 243 520 Q267 567 313.5 606.5 Q360 646 416 671.5 Q472 697 531 705 Q590 713 641 698 Q670 689 690 672 Q710 655 723 632 Q736 609 742.5 582 Q749 555 750 527 Q752 445 709 378 Q683 335 647 301.5 Q611 268 560 252 Z M702 400 Q724 430 729 469 L702 400 Z M696 481 Q694 474 692 467.5 Q690 461 688 454 Q688 453 690 453 Q696 466 696 481 Z M500 539 Q491 521 482.5 503 Q474 485 466 466 Q446 420 427.5 374.5 Q409 329 389 282 Q374 247 358.5 213 Q343 179 323 147 Q311 126 296 104.5 Q281 83 262.5 65.5 Q244 48 220 35 Q196 22 166 18 Q135 13 109 25 Q104 27 98.5 28.5 Q93 30 88 32 Q31 53 15 115 Q9 134 10.5 156.5 Q12 179 19 200 Q26 221 38.5 239.5 Q51 258 69 270 Q84 281 100 285.5 Q116 290 135 286 Q140 285 143.5 283 Q147 281 151 279 Q154 276 154 268 Q153 265 151 264.5 Q149 264 147 263 Q103 252 82 213 Q70 193 64.5 172.5 Q59 152 62 129 Q65 99 87 74 Q101 57 123 62 Q171 73 205 105.5 Q239 138 264 181 Q282 213 298 246 Q314 279 328 314 Q342 346 354.5 379 Q367 412 380 444 Q397 487 418.5 531.5 Q440 576 476 612 Q480 616 487 616 Q492 616 495.5 615.5 Q499 615 503 614 Q511 613 509 604 Q507 598 505 594 Q483 545 460 497.5 Q437 450 417 399 Q395 343 372 288 Q349 233 321 179 Q319 176 317 172.5 Q315 169 313 165 Q315 165 315 164 Q318 169 320.5 173 Q323 177 326 182 Q344 215 359.5 249 Q375 283 389 318 L467 504 L476 522 Q486 541 494.5 560 Q503 579 510 599 Q511 601 511.5 603 Q512 605 514 608 Q515 606 516 605 Q517 604 517 603 L517 595 Q513 581 510 567 Q507 553 500 539 Z M394 428 Q392 424 391 421 Q390 418 388 414 Q389 414 389 413.5 Q389 413 390 413 Q394 423 396 427 Q395 428 394 428 Z M69 213 Q54 197 56 181 Q59 189 62.5 197 Q66 205 69 213 Z " />
<glyph glyph-name="S" unicode="S" horiz-adv-x="512" d="M626 629 Q635 613 634.5 595 Q634 577 627.5 559 Q621 541 610 524.5 Q599 508 587 496 Q547 453 490.5 424 Q434 395 374 385 Q345 380 320.5 380.5 Q296 381 267 383 Q270 368 276 353.5 Q282 339 290 325 Q303 299 318 274 Q333 249 349 224 Q358 209 367 194 Q376 179 384 163 Q406 118 405.5 64.5 Q405 11 384.5 -36 Q364 -83 324 -117 Q284 -151 229 -158 Q175 -165 126.5 -146.5 Q78 -128 45.5 -94 Q13 -60 1 -14 Q-11 32 9 80 Q26 122 60 149.5 Q94 177 126 194 Q134 199 144.5 196.5 Q155 194 161 186 Q169 177 156 173 Q154 173 150 171 Q121 154 98.5 131.5 Q76 109 62 78 Q47 43 49.5 12 Q52 -19 67.5 -42.5 Q83 -66 108 -81 Q133 -96 162.5 -99 Q192 -102 223.5 -92.5 Q255 -83 283 -57 Q303 -37 317 -10 Q331 17 337.5 46 Q344 75 341.5 105.5 Q339 136 327 163 Q320 178 312 192.5 Q304 207 295 221 Q279 248 263 275 Q247 302 234 331 Q227 345 220.5 361 Q214 377 210 393 Q200 396 179 402 Q158 408 133 418.5 Q108 429 83.5 445 Q59 461 42 484.5 Q25 508 20 540.5 Q15 573 30 616 Q55 678 116 707 Q131 713 141 707 Q142 706 142.5 706 Q143 706 144 705 Q153 696 144 689 Q141 685 137 682 Q133 679 129 676 Q106 659 90 639 Q79 623 71.5 605 Q64 587 62.5 568 Q61 549 67 530.5 Q73 512 88 496 Q113 471 142 455.5 Q171 440 206 431 Q207 468 219 500 Q231 532 252 561 Q271 586 296 608.5 Q321 631 350.5 649 Q380 667 412.5 678 Q445 689 478 690 Q529 692 567.5 678.5 Q606 665 626 629 Z M86 649 Q80 644 76.5 638 Q73 632 70 626 Q82 638 86 649 Z M82 130 Q68 118 59 96 Q65 102 73 114 Q81 126 82 130 Z M39 108 Q40 110 41 111.5 Q42 113 43 115 Q43 116 42 116 Q41 114 40 112.5 Q39 111 38 109 L39 108 Z M319 -43 Q329 -38 331 -22 L319 -43 Z M364 -40 Q356 -51 348.5 -62.5 Q341 -74 333 -85 Q346 -77 352.5 -65 Q359 -53 364 -40 Z M315 561 Q301 549 290.5 534.5 Q280 520 273 503 Q284 517 294 532 Q304 547 315 561 Z M246 516 Q251 524 254.5 530 Q258 536 262 543 Q248 529 246 516 Z M544 523 Q552 532 561 543 Q570 554 576.5 566.5 Q583 579 586 592 Q589 605 586 619 Q584 631 574 634 Q556 639 538 642 Q520 645 502 642 Q377 621 301 521 Q285 500 273.5 474 Q262 448 264 420 Q277 418 303.5 418 Q330 418 349 421 Q402 429 453 455 Q504 481 544 523 Z M584 512 Q602 525 606 543 Q601 535 595.5 527.5 Q590 520 584 512 Z " />
<glyph glyph-name="T" unicode="T" horiz-adv-x="517" d="M723 632 Q729 629 729 623 Q730 618 729 607 Q728 596 711 582 Q684 562 647 560 Q610 558 575 572 L517 594 Q502 555 485.5 508.5 Q469 462 451 413 Q428 353 403.5 292.5 Q379 232 341 174 Q327 152 310 132.5 Q293 113 273 96 Q243 69 201.5 54.5 Q160 40 116 56 Q111 58 106 60 Q101 62 96 64 Q67 74 50 94 Q33 114 27 139 Q21 164 25 191.5 Q29 219 41 244 Q53 269 73 289.5 Q93 310 119 320 Q150 332 180 313 Q184 309 182.5 303.5 Q181 298 176 297 Q133 286 110 258 Q87 230 75 191 Q65 157 77 128 Q82 114 91 104 Q100 94 115 90 Q139 84 163 94 Q187 104 208.5 122 Q230 140 248 162 Q266 184 278 202 Q297 231 311.5 261.5 Q326 292 340 324 Q365 381 387.5 437.5 Q410 494 430 553 Q436 571 444 589 Q452 607 460 626 Q377 681 278 687 Q240 689 200 677.5 Q160 666 132 634 Q117 616 104 592.5 Q91 569 84.5 543 Q78 517 80 491.5 Q82 466 98 444 Q104 435 115 437 Q136 441 150.5 452 Q165 463 182 480 Q192 492 205 486 Q209 484 208 481.5 Q207 479 208 476 L212 480 Q215 477 213.5 472 Q212 467 210 462 Q189 418 142 407 Q125 403 106.5 408 Q88 413 72.5 426 Q57 439 47 460.5 Q37 482 37 511 Q38 543 48.5 575 Q59 607 77.5 634.5 Q96 662 122.5 683 Q149 704 183 715 Q219 726 259 725.5 Q299 725 340 715.5 Q381 706 420.5 689.5 Q460 673 495 653 Q514 641 535 630 Q556 619 579 612 Q594 607 607 608.5 Q620 610 632.5 615 Q645 620 657.5 627 Q670 634 684 640 Q689 643 694 643 Q699 643 704 642 Q720 636 718.5 630 Q717 624 714 616 L723 632 Z M97 609 Q84 592 82 583.5 Q80 575 77 562 L97 609 Z M47 219 Q46 219 45 220 Q43 214 43 211 L44 211 L47 219 Z M82 236 Q75 231 70.5 220.5 Q66 210 68 203 L82 236 Z M413 450 Q425 477 435 505 Q445 533 454 562 L452 562 L413 450 Z M454 519 Q452 519 449.5 511 Q447 503 449 502 L454 519 Z M491 559 Q496 570 498 580.5 Q500 591 499 592 Q496 580 487 558 Q478 536 473 522 Q468 509 464 496.5 Q460 484 455 471 Q444 445 433.5 418.5 Q423 392 412 365 Q398 329 382.5 293 Q367 257 347 219 Q356 230 363.5 244 Q371 258 378 272 Q392 305 406 338 Q420 371 433 404 Q442 425 449 444 Q456 463 462.5 481 Q469 499 476 518 Q483 537 491 559 Z " />
<glyph glyph-name="U" unicode="U" horiz-adv-x="619" d="M619 234 Q628 228 634 223.5 Q640 219 637 207 Q631 184 616 158 Q601 132 582 108.5 Q563 85 542.5 65 Q522 45 504 34 Q480 18 449 31 L432 38 Q403 46 388.5 68.5 Q374 91 369 120 Q351 101 329 78 Q307 55 281.5 36 Q256 17 227 7 Q198 -3 166 5 Q149 9 132.5 15 Q116 21 101 31 Q78 46 69 71 Q54 109 52 153.5 Q50 198 57 245 Q64 292 80 338.5 Q96 385 117 426 Q132 455 148 482.5 Q164 510 181 537 Q183 539 185 544 Q183 544 182 544.5 Q181 545 179 545 Q132 554 87 577 L17 615 Q4 622 -9 624 Q-22 626 -36 624 Q-59 621 -84 608 Q-99 600 -111 589 Q-123 578 -130 563 L-132 560 L-141 563 Q-152 567 -148 578 Q-144 590 -137 599.5 Q-130 609 -121 617 Q-61 665 11 641 Q23 636 34.5 630.5 Q46 625 57 619 Q71 613 83 606 Q95 599 109 592 Q132 581 156.5 576 Q181 571 207 575 Q221 577 240 574 Q243 574 249 570 Q251 568 252.5 566.5 Q254 565 257 564 Q260 562 260 555 Q261 546 256 535 Q236 496 215.5 457 Q195 418 176.5 378 Q158 338 143.5 295.5 Q129 253 121 207 Q115 172 116.5 136 Q118 100 135 67 Q142 51 147 48 Q152 45 170 48 Q193 53 213 62.5 Q233 72 251 86 Q273 102 291 120.5 Q309 139 325 161 Q363 212 394 271 L400 282 Q432 373 475 461 Q518 549 559 646 Q566 660 570.5 664.5 Q575 669 582 668 Q585 670 591 668.5 Q597 667 600 665 Q609 661 608 656 Q608 653 607.5 647.5 Q607 642 608 645 L612 657 Q621 656 619 646 Q617 633 613 622 Q587 554 558 486 Q529 418 496 340 Q492 331 488 322 Q484 313 479 304 Q442 226 430 138 Q426 112 435 86 Q437 81 439.5 77 Q442 73 445 69 Q448 63 455 66 Q476 73 496 91.5 Q516 110 534.5 134 Q553 158 570 183 Q587 208 601 229 Q607 235 611 235.5 Q615 236 619 234 Z M460 298 Q450 287 450 274 Q453 281 455.5 286.5 Q458 292 461 297 L460 298 Z M170 411 Q153 380 140.5 348 Q128 316 120 281 L118 273 Q121 274 121 278 Q130 310 142.5 340 Q155 370 170 399 Q187 433 204.5 466 Q222 499 240 533 L244 541 L242 543 L238 535 L170 411 Z M118 340 L119 340 L121 344 L120 344 L118 340 Z M111 360 Q110 361 109 361 Q101 341 94.5 321.5 Q88 302 84 281 L111 360 Z M109 331 Q108 331 108.5 334 Q109 337 109 336 L107 326 L109 331 Z M106 325 Q103 319 99 305.5 Q95 292 96 286 L106 325 Z M104 296 L104 292 L106 302 L104 296 Z M107 303 Q111 310 112.5 317 Q114 324 116 332 L107 303 Z M609 170 Q613 175 616.5 182 Q620 189 623 195.5 Q626 202 627 206.5 Q628 211 627 211 L609 170 Z " />
<glyph glyph-name="V" unicode="V" horiz-adv-x="669" d="M746 648 Q748 613 735 585 L698 511 Q655 429 609.5 348.5 Q564 268 513 190 Q490 154 465.5 119 Q441 84 413 51 Q401 37 388 25.5 Q375 14 360 4 Q342 -7 324 -9 Q306 -11 287 -1 Q284 1 280.5 2 Q277 3 274 5 Q245 15 228.5 36 Q212 57 206 86 Q201 109 200.5 132.5 Q200 156 202 179 Q207 257 229.5 330 Q252 403 290 472 Q300 489 311.5 506.5 Q323 524 336 545 Q313 553 291 563 Q269 573 249 591 Q237 602 223.5 612.5 Q210 623 195 630 Q180 637 162.5 638.5 Q145 640 126 634 Q108 629 90 615 Q72 601 60 583 Q48 565 45.5 544 Q43 523 57 504 Q64 492 79 491 Q95 490 108.5 495.5 Q122 501 139 501 Q149 502 153 493 Q156 485 149 478 Q135 464 113.5 461.5 Q92 459 72 467 Q67 469 63 471 Q59 473 54 475 Q31 485 19 506.5 Q7 528 10 552 Q15 593 44 624 Q73 655 113 663 Q175 673 229 639 Q241 631 255 621 Q269 611 300 588 Q307 582 318 580 Q329 578 341 579 Q353 580 363.5 584 Q374 588 382 594 Q386 597 394 598 Q402 599 410.5 598 Q419 597 425.5 593.5 Q432 590 435 584 Q443 577 443 565.5 Q443 554 435 546 Q368 471 329 383.5 Q290 296 274 197 Q271 180 268.5 160.5 Q266 141 266 120.5 Q266 100 270 81 Q274 62 285 46 Q287 39 293 43 Q325 57 356 88 Q386 119 412.5 153.5 Q439 188 462 225 Q509 300 552 376.5 Q595 453 634 533 Q650 565 665.5 599.5 Q681 634 708 661 Q712 665 717.5 664 Q723 663 729 663 Q737 661 738 659.5 Q739 658 738 650 Q738 650 739 648 L744 654 L746 648 Z M53 587 Q52 588 51 588 Q49 584 47.5 580 Q46 576 44 572 Q44 572 46 571 L53 587 Z M372 497 Q343 448 315.5 396 Q288 344 274 288 L372 497 Z M283 410 Q258 361 244 306 L283 410 Z M274 361 Q272 361 272 362 Q270 358 270 356 L274 361 Z M255 310 Q258 315 259.5 320.5 Q261 326 263 332 Q265 335 265.5 338.5 Q266 342 267 345 L255 310 Z M264 320 Q266 320 266 319 L287 376 Q286 377 285 377 L264 320 Z M524 235 Q519 230 515.5 223.5 Q512 217 512 212 L524 235 Z M708 558 Q714 571 721.5 589 Q729 607 730 618 Q724 602 716 586.5 Q708 571 700 554 Q620 393 528 244 L524 236 L531 244 Q579 321 622.5 399 Q666 477 708 558 Z " />
<glyph glyph-name="W" unicode="W" horiz-adv-x="1028" d="M1157 651 Q1159 648 1160.5 642.5 Q1162 637 1160 633 Q1158 629 1155 631 Q1152 633 1150.5 631.5 Q1149 630 1147 628 Q1142 619 1135.5 610.5 Q1129 602 1121 593 Q1090 556 1065 514.5 Q1040 473 1014 430 Q1003 411 992 392 Q981 373 970 353 Q939 299 907 246.5 Q875 194 840 143 Q802 87 756 38 Q744 24 730.5 12 Q717 0 702 -10 Q675 -29 646 -36 Q621 -41 600 -31 Q595 -29 590 -26.5 Q585 -24 580 -22 Q560 -14 547 -1 Q534 12 525 30 Q517 46 513.5 63 Q510 80 508 97 L508 110 L506 110 Q503 107 501 103 Q469 49 421 1 Q411 -9 400 -17 Q389 -25 377 -33 Q360 -43 342 -44 Q324 -45 306 -35 Q301 -33 297 -31.5 Q293 -30 289 -28 Q253 -15 235 19 Q227 33 223 47 Q219 61 217 76 Q213 102 214.5 127 Q216 152 219 177 Q229 264 260.5 341.5 Q292 419 339 492 Q344 500 350 508.5 Q356 517 362 525 Q364 529 366 531 Q362 533 361 533 Q333 540 307 551 Q281 562 255 575 Q244 581 232.5 587 Q221 593 210 598 Q182 610 152 609 Q114 608 84 578 Q56 550 49 513 Q40 475 64 445 Q74 434 87 438 Q97 441 108 447 Q118 452 127 457.5 Q136 463 146 470 Q156 477 169 474 Q170 473 171.5 472.5 Q173 472 174 471 Q175 469 175 467.5 Q175 466 178 466 Q178 467 178.5 465.5 Q179 464 179 463 Q179 457 176 453 Q172 444 164 434 Q156 426 147 420 Q138 414 128 409 Q102 397 75 409 Q71 411 68 412 Q65 413 61 415 Q33 426 16.5 452 Q0 478 3 512 Q6 562 43 601 Q81 643 142 640 Q183 638 219 622 Q234 614 249.5 607.5 Q265 601 280 593 Q297 585 315 578 Q333 571 352 569 Q363 567 373.5 566.5 Q384 566 395 567 Q404 568 412 566.5 Q420 565 428 563 Q433 561 436 557 Q440 553 444 551 Q447 549 447.5 546 Q448 543 448 540 Q447 531 444.5 524 Q442 517 437 510 Q428 496 418.5 481.5 Q409 467 400 453 Q344 366 311 271 Q288 202 283 127 Q281 115 281 102.5 Q281 90 282 78 Q282 54 291 33 Q293 27 296 21.5 Q299 16 302 11 Q305 5 312 8 Q318 12 324 15 Q330 18 335 22 Q349 32 361 43.5 Q373 55 384 67 Q408 94 428 124 Q448 154 466 185 Q481 211 495 237.5 Q509 264 524 290 Q568 371 618 448 Q668 525 725 597 Q734 609 743.5 622 Q753 635 767 649 Q775 657 784 655 Q793 653 803 651 Q811 650 813.5 647.5 Q816 645 814 637 Q818 638 822 641 Q827 634 826 626.5 Q825 619 814 605 Q802 588 789.5 572 Q777 556 766 539 Q737 494 710 449.5 Q683 405 658 357 Q635 315 617 271.5 Q599 228 587 181 Q580 155 576.5 129.5 Q573 104 575 78 Q577 54 585 33 Q589 25 591 22 Q596 14 598 13.5 Q600 13 608 15 Q622 20 633.5 27 Q645 34 656 42 Q678 59 696.5 78 Q715 97 732 119 Q786 188 831 263 Q860 310 887.5 356.5 Q915 403 943 451 Q967 490 992.5 530 Q1018 570 1050 607 Q1063 624 1078.5 637 Q1094 650 1115 659 Q1125 664 1137 661.5 Q1149 659 1157 651 Z M649 372 Q641 364 629.5 342 Q618 320 607 294 Q596 268 587.5 243 Q579 218 578 205 Q592 249 610.5 289.5 Q629 330 649 370 L649 372 Z M44 532 Q48 540 51.5 547 Q55 554 58 562 L57 563 Q45 548 44 532 Z M281 294 Q286 302 289 310.5 Q292 319 294 327 Q284 313 281 294 Z M420 516 Q419 515 419 514.5 Q419 514 418 513 Q419 513 419 512 Q421 516 421 516 L420 516 Z M343 393 Q327 363 314 332 Q301 301 292 268 Q291 266 291 263.5 Q291 261 290 259 Q313 320 340.5 377.5 Q368 435 404 489 Q403 489 403 489.5 Q403 490 402 490 Q401 489 399 485 Q367 440 343 393 Z M294 328 Q296 331 298 337 Q298 337 296 338 Q296 334 294 328 Z M304 389 Q299 381 291.5 365.5 Q284 350 277 332 Q270 314 264.5 297.5 Q259 281 258 273 Q269 302 280.5 331 Q292 360 304 389 Z M268 279 Q268 278 270 278 L282 314 Q281 314 280 315 L268 279 Z M281 293 Q276 291 280 287 Q280 289 280.5 290 Q281 291 281 293 Z M510 148 Q511 150 511 152 Q511 154 512 156 Q512 156 510 157 Q502 142 493 127 Q484 112 475 98 Q478 96 478 99 Q486 111 494 123 Q502 135 510 148 Z M567 260 Q568 259 569 259 Q570 261 570 265 Q569 263 568.5 262.5 Q568 262 567 260 Z M571 267 Q572 268 574 272 L572 272 Q571 270 571 267 Z M832 166 Q833 165 834 165 Q836 167 836 170 Q835 169 834.5 168 Q834 167 832 166 Z M841 175 Q841 176 839 176 Q839 175 837 171 L841 175 Z M850 190 Q845 188 847 184 L850 190 Z M1068 547 Q1072 553 1073 556 Q1073 556 1072 557 Q1070 555 1069 553 Q1068 551 1066 549 Q1058 536 1050.5 524 Q1043 512 1035 499 Q1018 473 1002 446.5 Q986 420 971 393 Q942 343 912.5 294.5 Q883 246 853 197 L850 191 Q855 196 856 198 Q876 229 895 259.5 Q914 290 933 321 Q951 350 967.5 379.5 Q984 409 1001 438 Q1018 466 1034.5 493 Q1051 520 1068 547 Z " />
<glyph glyph-name="X" unicode="X" horiz-adv-x="724" d="M919 681 Q921 679 921 673 Q921 667 919 665 Q918 664 915 664 Q913 663 911 663 Q909 663 907 662 Q899 656 891 649 Q883 642 875 634 Q867 625 858.5 617.5 Q850 610 842 602 Q819 581 796 560.5 Q773 540 750 518 Q696 468 646 416 Q596 364 544 311 Q531 298 531 280 Q533 231 539.5 183.5 Q546 136 560 89 Q571 54 586 21.5 Q601 -11 623 -40 Q645 -73 677 -97 Q681 -101 685 -104 Q689 -107 693 -111 Q696 -115 698 -119 Q700 -119 701 -118 Q704 -123 704 -127.5 Q704 -132 703 -137 Q700 -149 690 -145 Q685 -143 681 -141.5 Q677 -140 672 -138 Q646 -128 625.5 -111 Q605 -94 587 -74 Q559 -43 539 -8 Q519 27 505 65 Q493 97 485 129 Q477 161 472 194 Q471 204 470 213.5 Q469 223 467 233 Q466 232 465 231.5 Q464 231 463 230 Q431 197 397 167.5 Q363 138 325 112 Q299 93 271 77 Q243 61 212 50 Q194 43 175 39 Q156 35 136 35 Q127 35 118.5 36 Q110 37 102 41 Q87 48 72.5 54.5 Q58 61 45 72 Q25 88 12.5 107.5 Q0 127 -4 152 Q-10 187 4 221 Q14 244 28.5 262 Q43 280 64 293 Q83 304 105 307 Q113 308 121 306.5 Q129 305 137 303 Q148 298 146 289 Q145 285 140 283 Q133 281 126.5 279.5 Q120 278 114 275 Q88 264 72.5 245 Q57 226 47 201 Q33 166 45 129 Q53 106 70 90 Q89 71 117 76 Q146 80 172.5 90.5 Q199 101 223 117 Q262 143 298.5 171.5 Q335 200 369 232 Q392 255 414 277 Q436 299 459 322 Q463 326 463 331 Q464 352 464.5 373 Q465 394 467 416 Q470 450 475 483 Q480 516 487 549 Q487 553 488 555 L472 555 Q460 556 448 559.5 Q436 563 425 568 Q397 580 371.5 595.5 Q346 611 320 628 Q286 651 248 660 Q213 668 183.5 652 Q154 636 141 603 Q136 590 137 577.5 Q138 565 142 551 Q144 543 147 536 Q150 529 156 523 Q175 499 203 508 Q212 511 221 514 Q230 517 238 522 Q249 527 263 522 Q266 522 266.5 519.5 Q267 517 265 515 Q267 516 267.5 516 Q268 516 270 517 Q274 511 269 504 Q265 499 260 496 Q241 484 220.5 480 Q200 476 178 485 Q167 490 157 494.5 Q147 499 139 507 Q124 518 116.5 534 Q109 550 104 567 Q99 589 104 608 Q109 627 119 642.5 Q129 658 142.5 669 Q156 680 170 685 Q188 693 206 693 Q224 693 242 688 Q271 681 297.5 669.5 Q324 658 350 643 Q364 634 379.5 626 Q395 618 409 610 Q424 601 439 599.5 Q454 598 471 601 Q479 603 488 604.5 Q497 606 505 608 Q516 612 523 608 Q527 606 531.5 606 Q536 606 541 605 Q551 603 553 592 Q566 592 563 579 Q561 570 559.5 562 Q558 554 556 546 Q551 529 549 511 Q547 493 545 476 Q543 461 541 446 Q539 431 537 416 Q537 409 536 404 Q538 406 539 406.5 Q540 407 541 408 Q574 443 607.5 477 Q641 511 675 546 Q698 570 722.5 593 Q747 616 773 637 Q791 652 809 664 Q824 674 840.5 680.5 Q857 687 874 693 Q890 699 907 690 Q911 688 914 685.5 Q917 683 919 681 Z M134 608 Q139 619 147 631 Q146 631 145 632 Q142 626 139 620 Q136 614 133 609 L134 608 Z M15 209 Q17 214 18.5 218.5 Q20 223 22 228 L21 228 Q19 223 17 218.5 Q15 214 13 209 L15 209 Z M56 241 Q41 226 36 201 Q45 221 56 241 Z M356 170 Q311 131 273 107.5 Q235 84 207 71 Q174 56 149 49 L138 46 Q165 48 197 62 Q229 76 257 93 Q290 112 322 137 L356 170 Z M381 217 Q317 160 270 129 Q223 98 192 84 Q156 67 131 64 L120 60 Q154 62 193 79.5 Q232 97 265 118 Q304 143 341 174 L381 217 Z " />
<glyph glyph-name="Y" unicode="Y" horiz-adv-x="797" d="M820 242 Q814 216 797 194 Q778 171 757.5 150.5 Q737 130 714 112 Q672 77 627 49 Q612 39 596 31.5 Q580 24 563 18 Q557 16 555 10 Q544 -13 533.5 -35.5 Q523 -58 509 -79 Q494 -102 475 -121 Q456 -140 432 -154 Q411 -168 387 -169 Q375 -170 363 -167 Q349 -162 336 -156.5 Q323 -151 310 -143 Q304 -138 299 -133.5 Q294 -129 289 -123 Q279 -108 273 -92 Q267 -76 268 -58 Q268 -22 293 0 Q319 23 351 29 Q368 32 385 34.5 Q402 37 419 39 Q438 41 456 43.5 Q474 46 492 52 Q497 52 497 56 Q511 88 524 119 Q537 150 550 182 Q551 183 550 184 L547 181 Q528 162 508.5 145 Q489 128 467 113 Q448 101 427.5 94 Q407 87 384 86 Q361 86 343 93 Q331 98 319 102.5 Q307 107 295 113 Q257 133 243 177 Q236 198 233 219 Q230 240 229 261 Q227 330 247 393 Q267 456 302 515 Q313 533 325 550.5 Q337 568 349 585 Q349 585 351 589 Q348 589 345.5 589.5 Q343 590 340 591 Q317 596 295 603.5 Q273 611 252 621 Q235 628 218.5 634.5 Q202 641 184 644 Q157 649 131 645 Q105 641 82 626 Q57 612 45 587 Q38 574 38.5 561 Q39 548 43 534 Q45 529 47.5 524 Q50 519 53 514 Q66 490 96 496 Q110 499 123 505.5 Q136 512 148 520 Q149 521 153 523 Q160 530 170 527 L173 527 Q178 525 179 524 Q180 523 178 518 Q180 519 182 521 Q187 516 182 508 L172 498 Q158 486 143 478 Q128 470 110 467 Q102 466 95 466.5 Q88 467 81 470 Q71 473 61 477 Q51 481 42 486 Q25 496 15.5 511 Q6 526 1 545 Q-8 580 5 607 Q18 634 46 653 Q74 672 104.5 677 Q135 682 168 676 Q194 671 219 662.5 Q244 654 268 644 Q304 627 343 623 Q351 622 359 622.5 Q367 623 375 622 Q382 621 388.5 620.5 Q395 620 402 618 Q405 617 407 615 Q409 613 412 611 Q412 610 413 609 Q422 604 421 594 Q420 581 413 566 L383 512 Q363 477 345.5 440.5 Q328 404 316 365 Q308 340 303 315 Q298 290 298 264 Q297 237 300 211 Q303 185 314 159 L317 153 Q322 142 329.5 138 Q337 134 348 133 Q368 133 386 139 Q404 145 421 156 Q450 175 475.5 198.5 Q501 222 524 249 Q562 294 593 342.5 Q624 391 650 444 Q668 481 685.5 518 Q703 555 720 593 L753 662 Q754 664 754.5 665.5 Q755 667 756 669 Q758 671 763 673 Q768 675 771 674 Q772 673 772 670 Q770 664 770 659 Q772 664 775 669 Q777 671 778 673 Q779 671 779 668 Q779 667 778 665 Q780 667 781 668.5 Q782 670 783 672 Q784 672 785 671 Q785 669 784.5 667.5 Q784 666 784 664 L785 664 Q788 670 789.5 670.5 Q791 671 796 666 Q798 664 798 661 Q796 656 795 652.5 Q794 649 792 645 Q789 637 786 629.5 Q783 622 781 614 Q792 637 803 661 Q809 657 807 651 Q806 646 805.5 642.5 Q805 639 804 635 Q789 595 774 555.5 Q759 516 744 477 Q722 422 700.5 368 Q679 314 656 259 Q639 217 622.5 175 Q606 133 589 90 Q589 90 587 86 Q591 87 593 89 Q616 100 637 113.5 Q658 127 678 141 Q735 179 775 233 Q780 238 784.5 244 Q789 250 794 255 Q796 257 800 257 Q801 258 801.5 257 Q802 256 803 256 Q805 257 808.5 256.5 Q812 256 814 254 Q815 253 815 249 Q812 242 809 235.5 Q806 229 803 223 Q802 221 802 220.5 Q802 220 801 218 Q808 225 810.5 233.5 Q813 242 818 250 L820 250 L820 242 Z M34 584 Q36 589 39 595 Q42 601 44 606 Q34 596 34 584 Z M261 365 Q271 391 280.5 416.5 Q290 442 300 468 Q296 463 289.5 448 Q283 433 276.5 416 Q270 399 265.5 384 Q261 369 261 365 Z M295 436 Q279 401 272 367 Q278 384 283.5 401.5 Q289 419 295 436 Z M309 451 Q306 447 301.5 435.5 Q297 424 292 411 Q287 398 283.5 386.5 Q280 375 280 372 Q288 392 295 411.5 Q302 431 309 451 Z M310 395 Q325 435 344.5 472 Q364 509 385 545 Q396 562 404 577 Q405 579 405 581 Q405 583 406 585 Q405 585 405 585.5 Q405 586 404 586 Q402 583 401 580.5 Q400 578 398 575 Q387 557 377 538.5 Q367 520 356 501 Q318 439 299 369 Q298 365 297 361 Q296 357 295 353 L310 395 Z M287 -41 Q288 -39 289 -36 Q290 -33 291 -31 Q290 -31 289 -30 Q287 -36 285 -40 Q286 -41 287 -41 Z M321 -34 Q311 -39 313 -50 Q315 -45 317 -41.5 Q319 -38 321 -34 Z M460 -22 Q463 -17 465.5 -12 Q468 -7 471 -2 Q466 -2 462.5 -2 Q459 -2 454 -3 Q437 -5 420 -6.5 Q403 -8 386 -11 Q355 -16 333 -39 Q321 -54 321 -69 Q320 -83 325 -95 Q330 -107 337 -118 Q343 -127 354 -123 Q365 -120 374 -114.5 Q383 -109 392 -103 Q435 -69 460 -22 Z M662 369 Q660 364 658.5 360 Q657 356 655 352 Q655 351 656 351 Q660 359 663 368 L662 369 Z M608 253 Q606 249 605 245 Q604 241 602 237 Q602 236 603 236 Q605 241 606 244.5 Q607 248 609 252 Q609 253 608 253 Z M492 -72 Q507 -54 518 -33.5 Q529 -13 538 10 Q533 7 532 6 Q523 -14 513 -33.5 Q503 -53 492 -72 Z M544 74 Q547 84 551 90 L549 90 L543 75 Q543 75 544 74 Z M522 60 Q541 103 558 145.5 Q575 188 592 232 Q581 211 573 189.5 Q565 168 556 146 Q547 125 538 103.5 Q529 82 520 61 Q521 61 522 60 Z M581 181 Q581 182 580 182 Q577 173 573 165 L574 165 Q576 169 577.5 173 Q579 177 581 181 Z M560 111 Q577 153 593 193 Q609 233 626 275 L624 275 Q608 234 592 193.5 Q576 153 559 112 L560 111 Z M563 76 Q568 76 570 82 Q581 108 591.5 135 Q602 162 613 188 Q633 239 654 290 Q675 341 695 392 Q695 395 697 397 L696 398 Q694 394 693 393 Q682 373 673.5 351.5 Q665 330 657 309 Q634 252 610.5 194.5 Q587 137 564 80 Q564 79 563.5 78.5 Q563 78 563 76 Z " />
<glyph glyph-name="Z" unicode="Z" horiz-adv-x="679" d="M779 45 Q779 29 773.5 11 Q768 -7 758 -21 Q715 -75 650 -85 Q615 -90 577.5 -82.5 Q540 -75 505 -58 Q447 -31 398 13 Q372 36 346.5 59 Q321 82 295 105 Q294 106 293 106 Q292 106 291 107 Q283 99 274.5 90 Q266 81 257 72 Q235 51 211 32.5 Q187 14 159 1 Q145 -5 131 -9.5 Q117 -14 101 -12 Q86 -10 72 -7 Q58 -4 44 4 Q13 19 6 52 Q-1 85 8.5 113.5 Q18 142 39 168 Q60 194 86.5 202.5 Q113 211 145 209 Q166 207 185.5 201.5 Q205 196 225 188 Q233 185 241 181.5 Q249 178 257 174 Q258 176 258.5 176.5 Q259 177 260 179 Q282 210 301 241.5 Q320 273 339 305 Q366 352 395.5 396.5 Q425 441 457 483 Q482 515 509 543.5 Q536 572 565 599 Q566 600 566.5 601 Q567 602 569 603 Q566 603 563.5 603.5 Q561 604 559 604 Q524 604 488 615 Q456 623 424.5 631.5 Q393 640 361 648 Q344 653 326 656 Q308 659 290 658 Q210 655 169 587 Q158 570 152.5 550.5 Q147 531 149 511 Q149 500 151.5 490 Q154 480 161 472 Q176 454 198 461 Q214 467 227 476 Q240 485 253 496 Q258 501 263.5 506 Q269 511 274 516 Q279 522 284 522.5 Q289 523 295 522 Q296 522 299 517 L301 519 Q306 512 301 506 Q297 500 293 493.5 Q289 487 284 481 Q272 467 257 456.5 Q242 446 225 440 Q208 432 189 437 Q183 439 177 440 Q171 441 165 443 Q124 457 118 500 Q114 525 118.5 549.5 Q123 574 134.5 596.5 Q146 619 163.5 637 Q181 655 203 666 Q226 677 249 681 Q272 685 297 683 Q320 681 341.5 676.5 Q363 672 386 667 Q411 661 436 655 Q461 649 486 642 Q515 634 544 636 Q573 638 602 646 Q613 650 624 653 Q635 656 646 659 Q649 661 652.5 660.5 Q656 660 660 660 Q662 660 664.5 659.5 Q667 659 669 660 Q673 660 677 657.5 Q681 655 681 651 L682 651 Q691 652 692 644 Q692 640 692.5 636.5 Q693 633 692 630 Q691 627 686 622 Q675 613 664 605 Q653 597 643 587 Q568 517 504 431 Q469 385 439 337 Q409 289 380 241 Q366 216 350 192 Q334 168 319 144 Q318 143 317 142.5 Q316 142 315 140 Q319 138 322 135.5 Q325 133 328 131 Q348 114 368 98 Q388 82 408 65 Q427 49 445.5 32.5 Q464 16 484 2 Q502 -9 520.5 -19.5 Q539 -30 559 -36 Q571 -40 583 -42 Q595 -44 607 -42 Q642 -37 676 -11.5 Q710 14 736 43 Q740 47 741 49 Q742 51 747.5 52.5 Q753 54 758.5 54.5 Q764 55 768 53.5 Q772 52 771 49 Q770 45 769 41 Q768 37 768 32 Q770 37 772 41.5 Q774 46 776 51 Q779 49 779 45 Z M144 542 Q146 550 148.5 557.5 Q151 565 153 573 L152 574 Q147 560 142 542 L144 542 Z M18 89 Q20 94 20.5 98.5 Q21 103 23 108 Q22 108 21 109 Q20 104 19 99 Q18 94 17 89 L18 89 Z M42 86 Q45 96 47.5 105.5 Q50 115 54 125 Q41 105 42 86 Z M207 111 Q215 119 222 127.5 Q229 136 237 145 Q235 147 234 147.5 Q233 148 232 149 Q218 155 205 161.5 Q192 168 178 174 Q164 180 150 179.5 Q136 179 122 174 Q108 170 98.5 162 Q89 154 81 144 Q50 108 51 65 Q51 43 66 28 Q73 23 81 24 Q94 27 106 33 Q118 39 129 46 Q152 59 170.5 75.5 Q189 92 207 111 Z " />
<glyph glyph-name="bracketleft" unicode="&#x5b;" horiz-adv-x="414" d="M94 35 L110 35 Q124 37 138 35 Q152 33 166 31 Q171 30 174.5 27.5 Q178 25 181 22 Q187 15 181 5 Q176 7 170.5 5.5 Q165 4 160 2 Q154 0 150 -1 Q136 -1 123 -1.5 Q110 -2 97 -2 Q82 -4 68 4 Q65 6 61.5 7.5 Q58 9 55 11 Q47 15 42 21 Q35 28 38 38 Q40 43 42 48.5 Q44 54 46 59 Q59 91 71.5 121.5 Q84 152 97 184 Q120 239 141 293.5 Q162 348 185 402 Q201 440 217.5 477 Q234 514 250 552 Q255 564 259.5 575.5 Q264 587 269 598 Q271 604 274 609.5 Q277 615 279 620 Q285 632 299 634 Q310 635 319.5 635 Q329 635 340 633 Q357 631 374.5 629.5 Q392 628 409 626 Q414 626 418 625 Q422 624 427 622 Q431 621 434 618.5 Q437 616 439 614 Q443 610 440.5 605 Q438 600 432 599 Q421 596 410 596 Q400 597 390.5 597.5 Q381 598 372 599 Q362 600 352.5 601 Q343 602 333 600 Q326 599 323 592 Q316 574 310 556 Q304 538 296 520 Q276 471 255.5 423 Q235 375 215 326 Q194 275 173.5 224 Q153 173 132 122 Q124 103 115.5 84 Q107 65 98 46 Q96 40 94 35 Z M150 275 Q152 276 154 280 Q153 281 152 281 Q152 280 150 274 L147 268 Q149 267 149 267 Q150 270 150 275 Z M163 307 Q165 313 167 316 Q169 320 170.5 324 Q172 328 174 333 Q175 335 175.5 338 Q176 341 177 343 Q179 346 181 352 L184 361 Q190 369 193.5 377.5 Q197 386 199 395 L205 407 Q206 413 210 420 Q215 424 215 433 L221 445 Q222 448 223 451 Q224 454 226 458 Q230 466 231 470 Q233 475 235 478.5 Q237 482 239 486 Q241 489 241.5 492.5 Q242 496 244 499 Q246 503 247.5 507 Q249 511 251 515 Q255 521 257 525 Q255 526 255 526 Q254 523 253 520 Q252 517 251 515 Q249 511 247.5 507 Q246 503 244 499 Q242 496 241.5 492.5 Q241 489 239 486 Q235 483 234 479 Q233 475 231 470 Q230 467 229 464 Q228 461 226 457 Q221 453 221 445 Q215 439 215 432 Q214 428 210 420 Q208 416 207 413 Q206 410 205 407 Q199 402 199 394 Q194 386 190.5 377.5 Q187 369 185 360 Q182 356 181 352 Q179 346 178 343 Q176 339 174 333 Q170 329 169 325 Q168 321 167 316 Q166 314 165 311.5 Q164 309 163 307 Q162 305 161.5 303.5 Q161 302 160 300 L162 300 Q162 302 162.5 303.5 Q163 305 163 307 Z M284 594 Q282 590 280 588 Q281 588 282 587 Q283 589 283 590.5 Q283 592 284 594 L287 600 Q286 601 285 601 Q285 599 284.5 597.5 Q284 596 284 594 Z M98 145 Q100 147 102 151 Q101 151 100 152 Q100 149 98 145 Q95 142 97 138 Q97 140 97.5 141.5 Q98 143 98 145 Z M116 190 Q118 196 120 199 Q121 202 124 208 L127 217 Q131 225 132 229 Q134 232 136 238 Q140 243 141.5 247.5 Q143 252 145 257 Q143 258 143 258 Q141 253 139.5 248 Q138 243 136 238 L133 229 L127 217 Q126 215 125.5 212 Q125 209 124 207 Q123 205 122 203 Q121 201 120 199 Q119 197 118 194.5 Q117 192 116 190 Q114 186 113 183 L115 183 Q115 185 115.5 186.5 Q116 188 116 190 Z M310 593 Q315 595 315 604 Q310 597 311 592 Q309 590 307 586 L309 586 Q310 588 310 593 Z M264 544 Q261 542 260.5 539 Q260 536 259 533 L260 533 Q262 538 264 544 Q266 548 268 550 Q267 550 266.5 550.5 Q266 551 265 551 Q265 549 264.5 547.5 Q264 546 264 544 Z M77 94 Q72 90 72 81 L66 69 Q64 65 62 63 Q64 63 64 62 Q65 64 65 65.5 Q65 67 66 69 Q68 72 69 75.5 Q70 79 72 82 Q73 86 77 94 Q79 97 79.5 100.5 Q80 104 82 107 Q86 110 86 118 Q85 115 84 112.5 Q83 110 82 107 Q80 104 79.5 100.5 Q79 97 77 94 Z M177 267 Q180 270 182 275 Q196 309 210 342.5 Q224 376 238 410 Q251 441 263.5 471.5 Q276 502 290 533 Q291 536 293 544 L296 550 Q295 551 294 551 Q294 549 293.5 547.5 Q293 546 293 544 Q291 541 289 537 Q285 529 282 521.5 Q279 514 275 506 Q252 449 228 391.5 Q204 334 180 277 Q178 271 178 267 Q176 265 175 263 Q174 261 173 259 Q159 226 146 193.5 Q133 161 119 129 Q110 107 100.5 85.5 Q91 64 82 42 Q80 40 80 38.5 Q80 37 79 35 L81 35 Q84 40 86.5 45 Q89 50 91 55 Q114 105 134 155 Q154 205 175 256 Q176 259 176.5 261.5 Q177 264 177 267 Z M107 164 L106 164 Q105 163 105 162 Q105 161 104 160 Q105 159 105 159 Q106 161 106 161.5 Q106 162 107 164 Z M93 129 Q92 130 92 130 Q90 130 90 128 L90 123 Q93 129 93 129 Z M61 54 Q60 54 59 55 Q59 52 57 50 Q58 50 58 49.5 Q58 49 59 49 Q59 50 61 54 Z " />
<glyph glyph-name="backslash" unicode="&#x5c;" horiz-adv-x="201" d="M167 96 Q168 80 168.5 64 Q169 48 170 32 Q170 24 169 21 Q167 13 156 14 Q156 20 155 23 L154 23 L151 17 Q145 19 140.5 20 Q136 21 131 23 Q118 28 115 40 L112 52 Q106 101 99.5 149 Q93 197 87 246 Q79 301 75 357 Q71 395 67.5 434 Q64 473 61 511 Q59 540 58 570 Q57 600 59 629 Q60 633 60.5 637 Q61 641 62 645 Q64 651 69 651 Q71 651 72 650 Q73 649 75 648 Q79 653 88 649 Q92 647 95 643.5 Q98 640 100 634 Q102 624 105 615 Q108 606 110 595 Q115 567 120 539 Q125 511 129 482 Q134 440 138.5 398 Q143 356 148 314 Q150 291 152.5 268 Q155 245 157 222 Q159 190 162 159 Q165 128 167 96 Z " />
<glyph glyph-name="bracketright" unicode="&#x5d;" horiz-adv-x="348" d="M275 601 Q267 603 262 603 Q256 604 249.5 604 Q243 604 235 605 Q224 606 213.5 610.5 Q203 615 193 620 L192 620 Q183 627 185 632 Q187 636 190 636 Q193 636 196 636 Q220 635 243.5 634 Q267 633 290 631 Q301 631 313 626 Q323 621 328.5 614 Q334 607 332 596 Q330 589 328.5 582 Q327 575 325 568 Q313 533 299 499 Q285 465 271 431 Q248 374 226 317 Q204 260 181 203 Q167 168 154.5 134.5 Q142 101 128 66 Q123 54 119 42 Q115 30 110 17 Q105 5 101.5 2 Q98 -1 85 0 Q70 2 55 1.5 Q40 1 25 1 Q0 1 -25 4 Q-33 4 -39.5 8 Q-46 12 -53 16 Q-56 18 -58 21 Q-61 29 -52 31 Q-35 34 -17 36.5 Q1 39 19 41 Q24 42 30 42 Q36 42 42 42 Q50 42 51.5 43 Q53 44 55 51 Q64 74 72.5 98 Q81 122 89 145 Q103 180 115.5 216 Q128 252 142 287 Q162 340 182.5 391.5 Q203 443 227 494 Q239 519 250.5 544 Q262 569 273 594 Q273 595 275 601 Z M175 301 Q176 303 177 305.5 Q178 308 179 310 L182 316 Q181 316 181 317 Q180 315 180 313.5 Q180 312 179 310 Q177 304 175 301 L172 295 Q173 295 173 294.5 Q173 294 174 294 Q174 296 174.5 297.5 Q175 299 175 301 Z M184 307 Q188 310 188 316 L191 325 Q193 328 195 334 Q196 336 197 336.5 Q198 337 199 339 Q198 339 198 339.5 Q198 340 197 340 Q196 338 196 337 Q196 336 195 334 Q193 328 192 325 Q190 323 189.5 320 Q189 317 188 315 Q187 313 186.5 311 Q186 309 184 306 L181 300 L183 300 Q184 302 184 307 Z M202 369 Q203 371 204 374 Q205 377 206 379 Q207 380 209 384 Q208 385 208 385 Q207 383 207 381.5 Q207 380 206 378 Q204 372 202 369 L199 363 L201 363 Q201 365 201.5 366 Q202 367 202 369 Z M211 375 Q212 377 213 379.5 Q214 382 215 384 L218 393 Q220 395 220.5 396 Q221 397 222 398 Q222 398 220 400 Q220 398 219.5 396.5 Q219 395 219 393 Q217 390 215 384 Q213 378 211 375 Q209 371 208 368 L210 368 Q210 370 210.5 371.5 Q211 373 211 375 Z M143 238 Q150 246 150 258 Q154 264 155 268 Q172 311 189.5 354 Q207 397 225 440 Q239 475 255 509.5 Q271 544 286 579 Q287 585 291 591 Q290 592 289 592 Q288 590 287 588.5 Q286 587 285 585 Q275 561 265 537.5 Q255 514 244 491 Q219 436 196.5 380.5 Q174 325 153 268 Q152 266 151.5 263 Q151 260 150 258 Q147 247 143 238 Q141 233 139.5 229.5 Q138 226 136 221 Q137 221 137 220 Q139 225 141 229 Q143 233 143 238 Z M120 173 Q113 163 111 150 Q110 148 109 147.5 Q108 147 108 145 Q103 132 98 120 Q93 108 88 95 Q88 91 87 89 Q83 83 84 76 Q85 81 87 89 L90 92 Q95 106 100 118.5 Q105 131 110 144 Q110 148 111 150 Q113 156 115.5 161.5 Q118 167 120 173 Q123 177 124 181.5 Q125 186 126 191 Q124 186 121.5 182 Q119 178 120 173 Z M116 76 Q117 78 118 79.5 Q119 81 120 83 Q133 117 145.5 150.5 Q158 184 172 218 Q173 220 173 222.5 Q173 225 174 227 Q175 229 176 231.5 Q177 234 178 236 Q199 287 219.5 338.5 Q240 390 261 442 Q273 472 285.5 501.5 Q298 531 310 561 Q311 564 312 567 Q313 570 314 574 L312 574 Q310 568 309 566 Q300 545 292 524.5 Q284 504 275 484 Q249 423 224.5 362 Q200 301 177 238 Q175 236 175 233 Q175 230 174 227 L171 224 Q157 189 144.5 154 Q132 119 118 84 Q117 82 117 80 Q117 78 116 76 Q113 72 112 68 Q111 64 110 59 Q112 63 114 67 Q116 71 116 76 Z M134 210 Q133 210 133 211 Q131 207 129 201 L130 200 Q132 204 134 210 Z M119 131 L118 131 Q118 131 116 127 L118 127 Q118 128 118.5 129 Q119 130 119 131 Z M75 57 L76 57 Q77 58 77 59 Q77 60 78 61 L77 61 Q77 61 75 57 Z M105 43 L104 43 Q103 42 103 41 Q103 40 102 39 L103 39 Q105 41 105 43 Z M231 421 L230 421 Q229 420 229 419 Q229 418 228 417 L229 416 Q230 418 230 418.5 Q230 419 231 421 Z M236 433 L235 433 Q235 433 233 429 L234 429 Q236 431 236 433 Z M217 403 L215 403 Q215 402 214.5 401 Q214 400 214 399 L215 398 Q215 399 217 403 Z " />
<glyph glyph-name="asciicircum" unicode="&#x5e;" horiz-adv-x="308" d="M178 607 Q176 605 174.5 603.5 Q173 602 171 600 Q156 587 142 574.5 Q128 562 113 548 Q109 544 105 540.5 Q101 537 96 533 Q88 527 82 532 Q76 536 73 537 Q58 544 68 555 Q75 563 81.5 571 Q88 579 96 587 Q112 604 127.5 619 Q143 634 162 646 Q167 649 171.5 652 Q176 655 181 654 Q190 653 198 651 Q206 649 214 643 Q227 631 227 611 Q229 582 223 557 Q219 545 218 533 Q217 531 216.5 529 Q216 527 215 525 Q212 519 206 522 L188 531 Q182 535 182 544 Q182 552 181.5 559 Q181 566 180 574 Q180 582 179.5 588.5 Q179 595 178 603 L178 607 Z " />
<glyph glyph-name="underscore" unicode="&#x5f;" horiz-adv-x="478" d="M243 132 Q216 132 188.5 132.5 Q161 133 133 133 Q128 133 124 133.5 Q120 134 115 134 Q107 135 101 138.5 Q95 142 88 145 Q86 145 86 147 Q82 153 82 155 Q83 158 89 158 Q111 160 132.5 161.5 Q154 163 176 164 Q202 165 228 164.5 Q254 164 280 165 Q292 165 304.5 165.5 Q317 166 329 166 Q346 166 363.5 166 Q381 166 398 165 Q405 165 413 162 Q426 157 421 146 Q421 145 418 142 Q405 140 392.5 137 Q380 134 368 132 Q360 131 353.5 131 Q347 131 340 130 L243 130 L243 132 Z " />
<glyph glyph-name="grave" unicode="&#x60;" horiz-adv-x="191" d="M72 644 Q77 643 82.5 642 Q88 641 92 637 Q106 624 119.5 610.5 Q133 597 145 583 Q150 578 149.5 572 Q149 566 147 561 Q144 554 136 560 Q132 562 129 564 Q126 566 121 568 Q111 571 106 578 Q96 592 86 606.5 Q76 621 66 636 Q61 644 72 644 Z " />
<glyph glyph-name="a" unicode="a" horiz-adv-x="361" d="M158 217 Q156 215 155.5 213.5 Q155 212 153 210 Q145 202 137.5 193.5 Q130 185 122 177 Q106 161 87 154 Q66 146 45 157 Q41 159 37.5 160.5 Q34 162 29 164 Q-11 183 -14 229 Q-16 246 -12.5 261.5 Q-9 277 -3 293 Q6 318 19 340 Q32 362 52 380 Q66 393 81 401.5 Q96 410 115 412 Q143 414 166.5 406 Q190 398 207 374 L207 373 Q208 372 209 372 Q211 374 211.5 376.5 Q212 379 214 381 Q220 392 226 402.5 Q232 413 238 424 Q244 434 252 431 Q257 430 265 428 Q267 427 267 427 Q275 426 276 424.5 Q277 423 276 416 L277 415 Q278 416 279 416.5 Q280 417 281 418 Q286 416 284 410 Q283 400 278 391 Q262 358 248.5 325 Q235 292 224 257 Q220 244 217.5 231.5 Q215 219 213 205 Q212 199 212.5 192.5 Q213 186 216 180 Q222 181 227 183.5 Q232 186 237 189 Q262 203 282.5 222 Q303 241 323 262 L361 300 Q371 295 374 289 Q377 283 375.5 277 Q374 271 370 266 Q366 261 364 258 Q354 246 344 234.5 Q334 223 323 211 Q309 195 293 181.5 Q277 168 260 156 Q257 154 254 152.5 Q251 151 247 149 Q229 139 212 149 Q204 153 199 155 Q168 170 162 204 Q161 207 161 210 Q161 213 160 216 Q159 216 158 217 Z M14 295 Q18 297 18.5 301 Q19 305 21 308 Q17 303 16.5 301.5 Q16 300 15 295 Q13 293 11 289 Q12 289 12 288.5 Q12 288 13 288 Q13 290 13.5 291.5 Q14 293 14 295 Z M44 191 Q48 192 51 192 Q54 192 56 194 Q63 199 70 203 Q77 207 84 212 Q115 238 139.5 268 Q164 298 184 332 Q187 335 187 339 Q185 347 183 354.5 Q181 362 178 370 Q173 384 158 382 L151 382 Q134 379 120 370.5 Q106 362 94 349 Q57 305 42 248 Q36 226 40 207 Q41 203 42 199.5 Q43 196 44 191 Z M69 337 Q68 338 68 338 Q57 324 49.5 308.5 Q42 293 38 276 Q46 291 53.5 306.5 Q61 322 69 337 Z M236 322 Q234 324 234 324 Q231 317 228 310.5 Q225 304 223 297 Q224 297 225 296 Q228 303 230.5 309.5 Q233 316 236 322 Z " />
<glyph glyph-name="b" unicode="b" horiz-adv-x="323" d="M148 216 L140 224 Q126 241 118.5 260 Q111 279 113 302 Q116 330 134 351 Q144 363 156.5 367.5 Q169 372 181 371 Q193 370 203.5 364.5 Q214 359 221 351 Q230 341 230 324 Q231 298 224.5 274.5 Q218 251 203 230 Q201 227 200 225.5 Q199 224 197 221 Q196 219 194 217 Q196 215 201 216 Q206 217 208 218 Q215 221 220.5 223 Q226 225 233 229 Q247 237 259 245.5 Q271 254 282 264 Q287 268 293.5 274 Q300 280 307 286 Q315 293 323 300 Q331 299 333.5 296 Q336 293 336 290 Q336 287 334.5 283.5 Q333 280 332 279 Q327 274 317.5 260.5 Q308 247 296 236 Q288 230 281.5 224 Q275 218 267 213 Q253 202 237 196 Q221 190 203 192 Q197 193 191.5 194 Q186 195 179 197 L173 191 Q164 180 154 169.5 Q144 159 132 151 Q121 143 106 136 Q87 127 66 137 Q61 139 55.5 142 Q50 145 45 147 Q13 164 0 202 Q-6 223 -5 242 Q-5 308 19 370 Q34 408 53.5 443.5 Q73 479 96 514 Q117 545 144 571 Q159 588 177 596 Q196 606 216 600 Q228 596 236 586 Q244 576 242 561 Q240 551 236.5 541.5 Q233 532 228 523 Q217 501 202.5 481.5 Q188 462 171 443 Q148 419 126 395.5 Q104 372 81 349 L75 340 Q55 288 50 229 Q48 203 57 182 Q62 170 66.5 167.5 Q71 165 83 170 Q97 175 109.5 183 Q122 191 133 201 Q137 205 140 208.5 Q143 212 148 216 Z M163 234 Q167 238 170 242 Q173 246 176 250 Q200 284 199 323 Q199 329 198.5 334.5 Q198 340 195 345 Q180 345 171 336 Q143 308 147 271 Q150 251 163 234 Z M110 416 Q111 416 111 415 Q118 422 124.5 429 Q131 436 137 443 Q154 462 169.5 481.5 Q185 501 197 523 Q208 542 211 561 Q212 563 211.5 565.5 Q211 568 211 572 Q203 567 197 561.5 Q191 556 186 550 Q179 541 172.5 532 Q166 523 160 512 Q147 489 135 466 Q123 443 111 420 Q110 419 110 416 Z M152 524 Q146 517 133 495.5 Q120 474 107.5 449.5 Q95 425 85 403.5 Q75 382 74 375 Q94 412 113 449 Q132 486 152 524 Z M30 352 L32 352 Q37 365 43 377.5 Q49 390 54 404 L52 404 Q45 392 40 379 Q35 366 30 352 Z M145 317 Q147 317 148 316 Q149 319 150.5 321 Q152 323 152 326 L151 327 Q149 325 148 322 Q147 319 145 317 Z M63 344 Q62 345 61 345 Q61 343 60.5 342.5 Q60 342 60 340 L61 339 Q61 342 63 344 Z M46 367 Q45 367 45 368 Q45 366 44.5 365.5 Q44 365 44 363 L45 363 Q45 364 45.5 364.5 Q46 365 46 367 Z M63 390 Q62 390 62 390.5 Q62 391 61 391 Q61 388 60 386 Q61 388 63 390 Z " />
<glyph glyph-name="c" unicode="c" horiz-adv-x="272" d="M161 374 Q156 372 153 372 Q150 372 148 371 Q103 354 75 322.5 Q47 291 38 243 Q37 238 37 233 Q37 228 37 223 Q39 203 54.5 194 Q70 185 84 187 Q94 189 101 191 Q166 212 220 258 Q225 263 234.5 270 Q244 277 252 284 Q262 292 272 300 Q286 298 287 289 Q288 280 277 268 Q275 265 267 257.5 Q259 250 248.5 240 Q238 230 225.5 218.5 Q213 207 201 198 Q166 172 123 158 Q95 148 65 161 Q57 164 49 168 Q41 172 33 176 Q23 182 13 190 Q-14 212 -12 252 Q-11 277 -0.5 301 Q10 325 26 345 Q42 365 62 380.5 Q82 396 103 404 Q139 417 175 402 Q183 398 189.5 392.5 Q196 387 201 380 Q210 368 207 353 Q203 329 182 313 Q169 303 157 311 Q154 313 150.5 314 Q147 315 144 317 Q134 323 141 333 Q146 339 149.5 345.5 Q153 352 157 359 Q159 361 159 365 Q159 369 161 374 Z M35 282 Q37 281 37 281 Q42 290 46 298.5 Q50 307 55 316 Q54 316 53 317 Q41 301 35 282 Z M188 339 Q189 338 189 338 Q190 341 193 342 L193 345 Q190 345 190 343 Q189 342 189 341 Q189 340 188 339 Z M12 293 Q13 293 13 292.5 Q13 292 14 292 Q14 295 16 297 Q15 297 14 298 Q14 295 12 293 Z " />
<glyph glyph-name="d" unicode="d" horiz-adv-x="384" d="M203 356 Q205 359 205.5 361.5 Q206 364 208 367 Q229 421 254 472.5 Q279 524 308 574 Q312 581 316 587 Q320 593 324 599 Q333 609 342 604 Q345 602 348.5 602.5 Q352 603 355 602 Q360 600 360 599 Q366 595 368 592 Q371 585 370 581 Q368 573 366.5 565.5 Q365 558 362 550 Q351 515 337 481.5 Q323 448 309 415 Q292 379 277 341.5 Q262 304 250 266 Q239 234 235 202 Q234 196 234 190.5 Q234 185 234 179 Q234 177 236 171 Q241 170 245 171.5 Q249 173 253 175 Q269 183 283.5 193.5 Q298 204 311 217 Q325 232 338 247.5 Q351 263 365 278 Q367 280 370 283 Q373 286 376 290 L384 300 Q401 299 400.5 291.5 Q400 284 398 279 Q393 272 388 264 Q383 256 378 250 Q366 233 354.5 217.5 Q343 202 329 187 Q319 176 308.5 166.5 Q298 157 287 147 Q282 143 276.5 140 Q271 137 266 135 Q252 128 234 136 Q227 139 221 142 Q215 145 208 148 Q171 167 170 206 Q169 208 169 210 Q169 212 168 215 Q165 212 162.5 209 Q160 206 158 204 Q144 189 129 175 Q114 161 97 150 Q91 147 85 143.5 Q79 140 73 138 Q57 131 40 140 Q36 142 33 144 Q30 146 26 148 Q3 156 -8 173 Q-19 190 -21 213 Q-22 226 -20 238.5 Q-18 251 -15 263 Q-6 291 8 315.5 Q22 340 42 361 Q64 384 90.5 391 Q117 398 147 391 Q180 385 200 359 Q200 359 203 356 Z M11 286 Q15 289 16 292.5 Q17 296 18 300 Q16 297 13.5 294 Q11 291 11 286 L8 280 Q9 280 10 279 Q10 281 10.5 282.5 Q11 284 11 286 Z M334 513 Q332 510 330.5 508 Q329 506 328 504 Q317 480 306.5 456 Q296 432 285 408 Q273 382 263 356.5 Q253 331 244 305 Q243 303 243 300.5 Q243 298 242 296 L243 296 Q245 302 246 304 Q254 324 262.5 344 Q271 364 279 384 Q292 414 304.5 443.5 Q317 473 331 502 Q332 505 332 507.5 Q332 510 333 513 L339 522 Q337 522 336 523 Q335 520 335 517.5 Q335 515 334 513 Z M43 187 Q48 190 52 192 Q56 194 61 197 Q79 208 95 221.5 Q111 235 125 250 Q141 266 154.5 283.5 Q168 301 181 320 Q182 322 183 324 Q184 326 183 328 Q181 337 177.5 345 Q174 353 168 360 Q166 362 163 363.5 Q160 365 158 365 Q116 371 86 341 Q69 322 60 299 Q44 266 41 226 Q38 206 43 187 Z M64 331 Q56 324 49.5 310.5 Q43 297 43 290 Q54 308 64 331 Z M236 341 Q237 340 237 340 Q239 344 239 345 L238 345 Q237 344 237 343 Q237 342 236 341 Z " />
<glyph glyph-name="asciitilde" unicode="&#x7e;" horiz-adv-x="315" d="M266 313 Q266 315 269 317 L270 317 Q270 316 270.5 315 Q271 314 271 312 Q270 310 269.5 307 Q269 304 267 302 Q256 287 241 277 Q226 267 206 265 Q188 264 170 272 Q157 279 145 285 Q133 291 121 299 Q99 313 76 301 Q69 297 63 293 Q57 289 51 284 Q49 282 47 281 Q45 280 41 283 Q39 285 35.5 286.5 Q32 288 29 290 Q20 296 26 304 Q36 321 54 330 Q66 336 78.5 336 Q91 336 103 333 Q114 330 123.5 324.5 Q133 319 143 314 Q149 310 155 306.5 Q161 303 167 300 Q176 294 190 297 Q196 300 202.5 302.5 Q209 305 214 308 Q226 314 240 322 Q246 326 252 325 Q258 324 263 322 Q267 321 265 314 Q265 313 266 313 Z " />
<glyph glyph-name="e" unicode="e" horiz-adv-x="302" d="M42 252 Q39 235 39 220 Q39 205 45 191 Q56 162 86 166 Q157 180 207.5 216.5 Q258 253 302 300 Q315 298 319.5 294 Q324 290 324 284 Q324 278 320.5 272 Q317 266 313 262 Q278 217 233 184 Q188 151 136 134 Q106 125 82 130 Q58 135 36 149 Q6 171 -4 201.5 Q-14 232 -9 264 Q-4 296 12.5 325.5 Q29 355 51 374 Q88 402 119 410.5 Q150 419 185 405 Q199 399 206 386.5 Q213 374 210 357 Q208 335 192 315 Q176 295 153.5 280 Q131 265 104 257 Q77 249 53 251 Q47 251 42 252 Z M21 311 Q20 311 20 311.5 Q20 312 19 312 Q17 309 15 302.5 Q13 296 12 294 Q13 293 14 293 Q14 295 16.5 301.5 Q19 308 21 311 Z M48 272 Q58 273 66 275 Q104 286 136.5 308 Q169 330 180 368 Q180 380 178.5 383 Q177 386 172 387 Q154 389 138 380 Q109 363 86.5 339 Q64 315 51 283 Q50 280 48 272 Z M40 292 Q40 291 40.5 291 Q41 291 41 290 Q46 299 50.5 307.5 Q55 316 60 324 Q58 325 58 325 Q51 318 47 309.5 Q43 301 40 292 Z " />
<glyph glyph-name="f" unicode="f" horiz-adv-x="195" d="M61 188 Q62 186 62 185 Q62 184 63 182 Q75 157 76.5 132 Q78 107 70 81 Q52 20 6 -21 Q-3 -30 -19 -37 Q-29 -43 -41 -36 Q-46 -34 -50 -32 Q-54 -30 -59 -28 Q-96 -12 -91 26 Q-88 46 -82 70 Q-46 199 10 324 L91 504 Q98 518 106 532 Q114 546 122 560 Q125 567 129.5 572 Q134 577 139 582 Q147 591 157 587 Q158 586 160 586 Q169 584 170.5 582 Q172 580 170 570 Q172 572 173 573.5 Q174 575 176 577 Q180 572 178 565 Q177 556 173 545 Q153 479 128.5 415.5 Q104 352 77 289 Q70 273 63.5 257 Q57 241 50 225 Q48 221 46 215 Q52 209 63 209 Q84 210 101 219 Q118 228 134 239 Q150 250 163 264 Q166 268 171.5 274 Q177 280 182 286 Q188 293 195 300 Q211 298 212 291.5 Q213 285 212 283 Q204 267 193.5 253.5 Q183 240 171.5 229.5 Q160 219 149.5 212 Q139 205 132 201 Q119 193 106 190 Q93 187 78 186 Q74 186 70 186.5 Q66 187 61 188 Z M-33 109 L-30 115 Q-31 115 -32 116 Q-32 114 -32.5 112.5 Q-33 111 -33 109 Q-34 107 -34.5 105.5 Q-35 104 -36 102 Q-35 102 -34 101 Q-34 103 -33.5 105 Q-33 107 -33 109 Z M-25 132 L-28 126 Q-28 125 -26 125 Q-26 127 -25.5 128.5 Q-25 130 -25 132 L-22 141 Q-21 143 -19 145 Q-14 160 -8 175 Q-2 190 3 205 Q4 207 4 211 Q9 218 9 224 Q10 227 11 230 Q12 233 14 237 Q15 240 19 246 Q17 248 17 248 Q15 240 14 237 Q9 232 9 224 Q4 219 4 211 Q2 209 1 207 Q-4 192 -9.5 177 Q-15 162 -21 147 Q-21 143 -22 141 L-25 132 Z M-6 204 Q-10 196 -11 192 Q-12 190 -12.5 187 Q-13 184 -14 182 Q-16 180 -18 176 Q-20 170 -22 164 Q-24 158 -26 153 Q-28 149 -28.5 145.5 Q-29 142 -31 137 Q-32 134 -33 130.5 Q-34 127 -35 123 L-38 114 Q-42 104 -43 99 Q-48 95 -46 87 L-43 99 Q-42 104 -38 114 L-35 123 Q-31 128 -31 138 Q-25 149 -21.5 160 Q-18 171 -15 182 Q-13 186 -11 192 Q-10 196 -6 204 L-3 210 Q-5 211 -5 211 Q-6 209 -6 204 Z M99 475 Q95 469 94 466 L19 295 Q-4 244 -22.5 192.5 Q-41 141 -58 87 Q-59 85 -59 83 Q-59 81 -60 79 Q-58 81 -56 87 Q-39 138 -20.5 188.5 Q-2 239 19 288 Q38 333 57 376 Q76 419 95 464 Q97 467 99 475 Q104 483 107.5 492 Q111 501 114 510 Q105 495 100 481 Q99 479 99 475 Z M34 182 Q31 176 30 173 Q19 145 9 117 Q-1 89 -12 60 Q-16 51 -18.5 42 Q-21 33 -24 24 Q-24 20 -25 16 Q-23 18 -21.5 18.5 Q-20 19 -18 21 Q27 62 41 122 Q46 148 38 172 Q36 178 34 182 Z M27 219 L29 219 Q30 219 32 221 Q69 306 103.5 390 Q138 474 167 562 Q164 557 161.5 551 Q159 545 157 539 Q136 484 114 429.5 Q92 375 69 320 Q59 297 49.5 274 Q40 251 30 228 Q28 225 27 219 Z M24 207 Q21 203 12 180 Q3 157 -7 129.5 Q-17 102 -24.5 77.5 Q-32 53 -33 46 Q-18 86 -4 125 Q10 164 24 203 Q24 203 24 207 Z M44 46 L45 45 Q56 59 57 73 Q53 66 50 59.5 Q47 53 44 46 Z M-38 91 Q-38 92 -39 92 Q-40 90 -40 89.5 Q-40 89 -41 87 L-40 87 Q-38 89 -38 91 Z M25 262 L24 263 Q24 263 22 259 L23 259 Q24 260 24 260.5 Q24 261 25 262 Z M6 236 L5 236 Q5 235 4.5 234 Q4 233 4 232 L5 232 Q5 233 5.5 234 Q6 235 6 236 Z M2 223 Q1 224 0 224 Q0 223 -2 219 L0 219 Q0 221 2 223 Z " />
<glyph glyph-name="g" unicode="g" horiz-adv-x="346" d="M346 300 Q358 299 362.5 295 Q367 291 367.5 285.5 Q368 280 365.5 274.5 Q363 269 362 266 Q350 244 341 231.5 Q332 219 316 200 Q291 170 261.5 148.5 Q232 127 194 116 Q188 114 185 107 Q174 85 162.5 64 Q151 43 139 22 Q122 -7 96 -27 Q75 -45 52 -50 Q36 -55 16 -47 Q9 -43 2.5 -40 Q-4 -37 -10 -34 Q-19 -30 -27 -23 Q-54 1 -44 37 Q-40 51 -32.5 61 Q-25 71 -14 79 Q-3 89 9.5 95.5 Q22 102 36 107 Q52 114 68.5 118 Q85 122 102 126 Q113 127 117 137 Q120 144 123 150 Q126 156 129 162 Q128 163 127 163 L116 152 Q109 146 101.5 141 Q94 136 85 133 Q67 127 50 136 Q43 139 37 142 Q31 145 24 148 Q1 159 -10.5 180 Q-22 201 -20 227 Q-12 309 46 364 Q62 380 80.5 389.5 Q99 399 121 401 Q148 404 171.5 396.5 Q195 389 214 368 Q216 364 218 361 Q220 366 221 368.5 Q222 371 224 373 Q229 381 233.5 388 Q238 395 243 403 Q249 412 260 409 Q263 409 267 407 Q269 406 272 406 Q276 405 280.5 404 Q285 403 287 397 Q287 397 289 396 Q294 394 294.5 391.5 Q295 389 295 385 Q294 380 293.5 375.5 Q293 371 292 366 Q287 344 279.5 323.5 Q272 303 263 283 Q250 254 237.5 225 Q225 196 213 167 Q211 165 208 156 Q212 158 214 158.5 Q216 159 218 160 Q244 174 265.5 193.5 Q287 213 304 237 Q308 242 315 252.5 Q322 263 329 274 Q337 286 346 300 Z M-9 41 Q-9 41 -7 39 Q-6 41 -5.5 43 Q-5 45 -4 47 Q-4 47 -5 48 Q-7 45 -9 41 Z M48 29 Q54 35 61.5 43.5 Q69 52 75 61 Q81 70 85 78 Q89 86 90 91 Q87 90 84.5 89.5 Q82 89 79 88 Q63 83 48 76.5 Q33 70 20 59 Q6 50 -1 35 Q-8 18 1 1 Q10 3 22.5 10 Q35 17 48 29 Z M20 275 Q20 276 22 280 Q21 280 20 281 Q19 279 19 278 Q19 277 18 275 L20 275 Z M9 270 Q12 278 15.5 285 Q19 292 22 299 Q17 294 13 286 Q9 278 9 270 Z M23 273 Q24 272 25 272 Q26 274 26 275 Q26 276 27 278 Q26 276 23 273 Z M27 279 Q28 281 29 282 Q30 283 31 285 L29 285 Q28 283 28 282 Q28 281 27 279 Z M74 326 Q68 321 62 312 Q56 303 51.5 293.5 Q47 284 44 275.5 Q41 267 41 263 L74 326 Z M123 224 Q134 237 143.5 250.5 Q153 264 163 278 Q172 289 180.5 301 Q189 313 198 325 Q203 330 200 336 Q198 344 195 350 Q192 356 187 362 Q182 370 170 370 Q155 371 140 364 Q111 351 89 322 Q75 303 65 282 Q55 261 48 238 Q46 230 45 221.5 Q44 213 42 205 Q43 199 44 193 Q45 187 47 181 Q49 173 58 175 Q69 178 78 184 Q92 191 103 201.5 Q114 212 123 224 Z M139 134 Q142 139 150 155 Q158 171 165.5 188.5 Q173 206 179.5 221 Q186 236 186 239 Q184 237 177 222 Q170 207 161.5 189 Q153 171 146.5 154.5 Q140 138 139 134 Z M183 209 Q183 210 182 210 Q181 209 181 208 Q181 207 180 205 L181 205 Q183 207 183 209 Z M188 223 Q187 222 186.5 221 Q186 220 185 219 L186 218 L187 218 Q188 220 188 220.5 Q188 221 189 223 L188 223 Z M118 26 Q135 43 146.5 64 Q158 85 169 107 Q164 109 163.5 107 Q163 105 161 103 Q150 84 140 65.5 Q130 47 119 29 Q119 28 118.5 27.5 Q118 27 118 26 Z M166 156 Q168 159 170 162.5 Q172 166 174 171 L175 171 Q175 172 175.5 173 Q176 174 176 175 Q184 190 194 210 Q204 230 213.5 250 Q223 270 230.5 288.5 Q238 307 241 318 L236 315 Q219 282 205 250 Q192 223 180 194.5 Q168 166 162 148 L165 154 L165 151 Q167 155 167 155 L166 156 Z M188 149 Q210 201 233.5 252 Q257 303 274 357 Q251 304 228.5 252 Q206 200 183 147 L184 146 Q185 147 186.5 147 Q188 147 188 149 Z " />
<glyph glyph-name="h" unicode="h" horiz-adv-x="354" d="M73 322 Q72 320 71 317 Q70 314 69 312 Q50 271 32 230.5 Q14 190 -5 149 Q-7 146 -9.5 139.5 Q-12 133 -15 127.5 Q-18 122 -22 118 Q-26 114 -30 116 L-30 121 L-31 121 Q-33 119 -34 119 Q-40 119 -45.5 124 Q-51 129 -52 135 Q-51 157 -44 175 Q-20 254 11 327 Q27 364 42 400.5 Q57 437 73 473 Q81 491 92.5 514 Q104 537 119.5 557 Q135 577 154 590 Q173 603 197 601 Q204 600 211 598.5 Q218 597 224 592 Q234 585 238 576 Q242 567 244 556 Q245 537 239 516 Q233 499 223 481 Q213 463 200 446 Q187 429 173.5 414 Q160 399 147 388 Q164 389 179 388 Q194 387 206 373 Q214 364 219 351 Q224 338 225.5 323 Q227 308 226 292.5 Q225 277 222 264 Q217 243 211.5 222.5 Q206 202 201 182 Q199 174 197.5 166.5 Q196 159 196 150 Q213 159 235 177.5 Q257 196 278.5 217.5 Q300 239 320 261 Q340 283 354 300 Q385 294 363 261 Q336 222 306 189 Q276 156 231 124 Q228 122 225.5 121 Q223 120 220 119 Q208 113 193 120 Q188 122 184 124 Q180 126 176 128 Q146 143 143 174 Q142 199 148 223 Q153 243 159 262.5 Q165 282 171 302 L180 341 Q181 346 181 355 Q180 362 178 364 Q176 366 168 366 Q146 366 130 356 Q118 349 106 341.5 Q94 334 84 323 Q81 321 78.5 322 Q76 323 73 322 Z M207 577 Q197 574 189.5 570 Q182 566 175 557 Q167 547 162 535.5 Q157 524 152 512 Q136 477 125.5 450 Q115 423 104 394 Q122 411 137 430.5 Q152 450 169 470 Q185 491 196 512 Q207 533 210 556 Q210 561 210 566 Q210 571 207 577 Z M64 344 Q66 343 66 343 Q74 354 79 367 Q84 380 90 393 Q96 406 102 418.5 Q108 431 113 445 Q119 458 124.5 471 Q130 484 136 497 Q141 510 146.5 523 Q152 536 157 549 Q150 541 146 532 Q126 484 105.5 437.5 Q85 391 64 344 Z M62 331 L61 331 Q39 281 18 232.5 Q-3 184 -25 134 Q-23 136 -16 150 Q-9 164 0.5 184 Q10 204 20.5 227.5 Q31 251 40 272 Q49 293 55 308 Q61 323 62 327 Q62 327 62 331 Z M230 512 Q229 512 228 513 Q226 509 224.5 506 Q223 503 222 499 Q223 499 224 498 Q226 502 227 505 Q228 508 230 512 Z M37 349 Q38 348 38 348 Q40 351 40.5 353.5 Q41 356 43 359 Q42 359 42 359.5 Q42 360 41 360 Q40 357 39 354.5 Q38 352 37 349 Z M29 325 L28 325 Q26 323 25.5 320 Q25 317 23 315 Q24 314 25 314 Q26 317 27 319.5 Q28 322 29 325 Z M3 262 L2 262 Q0 258 -1 255 L0 255 Q2 259 3 262 Z M-12 228 L-10 228 Q-9 230 -8.5 231.5 Q-8 233 -7 235 Q-8 236 -8 236 Q-11 232 -12 228 Z M183 284 L182 284 Q182 283 181.5 282 Q181 281 181 280 L182 280 Q182 281 182.5 282 Q183 283 183 284 Z M175 261 Q176 260 176 260 Q177 262 177 262.5 Q177 263 178 265 L177 265 Q175 263 175 261 Z M-15 216 L-16 216 Q-16 215 -16.5 214 Q-17 213 -17 212 L-16 211 Q-16 213 -15.5 213.5 Q-15 214 -15 216 Z " />
<glyph glyph-name="i" unicode="i" horiz-adv-x="196" d="M196 300 Q206 298 209.5 294.5 Q213 291 213.5 287 Q214 283 212 279.5 Q210 276 208 274 Q201 265 197 259.5 Q193 254 185 243 Q165 217 144 192 Q123 167 100 144 Q90 134 80 125 Q70 116 59 107 Q45 96 28 93 Q16 90 6 96 Q2 98 -1.5 99.5 Q-5 101 -9 103 Q-29 111 -37 127.5 Q-45 144 -43 164 Q-41 188 -34 211 Q-27 234 -18 257 Q-9 280 1.5 302.5 Q12 325 26 346 Q29 351 32.5 355 Q36 359 39 363 Q48 372 56 367 Q58 366 59 366 Q60 366 62 365 Q69 363 70 362 Q71 361 71 354 Q74 355 75 358 Q78 354 78 350.5 Q78 347 77 343 Q73 331 70 319.5 Q67 308 63 296 Q58 280 51.5 264 Q45 248 39 231 Q31 210 24.5 188.5 Q18 167 14 145 Q13 141 13 135 L13 127 Q21 129 24 131 Q31 135 37 138 Q43 141 49 146 Q76 166 99.5 190 Q123 214 145 240 Q150 246 159 256 Q168 266 176 276 Q186 287 196 300 Z M16 257 Q17 258 17 259 Q17 260 18 261 Q17 261 17 262 Q16 260 16 259.5 Q16 259 15 257 L16 257 Z M56 316 Q47 294 38.5 272.5 Q30 251 21 229 Q23 229 24 228 Q32 250 41 271.5 Q50 293 58 315 Q57 315 56 316 Z M25 309 Q21 304 16 293.5 Q11 283 6 271 Q1 259 -3 249 Q-7 239 -7 235 Q1 254 9 272.5 Q17 291 25 309 Z M6 246 Q6 248 6.5 248.5 Q7 249 7 251 L6 251 Q6 250 4 246 L6 246 Z M81 421 Q57 433 66 458 Q67 464 70 469 Q74 475 78 479.5 Q82 484 90 487 Q104 491 119 487 Q123 485 127 482 Q138 475 138 459 Q137 447 133 436 Q129 425 119 417 Q109 407 96 413 Q92 415 88.5 417 Q85 419 81 421 Z " />
<glyph glyph-name="j" unicode="j" horiz-adv-x="174" d="M76 406 Q52 419 61 444 Q62 447 63 449.5 Q64 452 66 455 Q69 461 73 465.5 Q77 470 85 472 Q101 478 114 472 Q116 471 118 470 Q120 469 122 468 Q129 463 131 457.5 Q133 452 133 445 Q133 419 115 403 Q104 393 92 399 Q87 401 83.5 402.5 Q80 404 76 406 Z M174 300 Q183 299 186.5 296 Q190 293 191 289 Q192 285 190.5 282 Q189 279 189 278 Q172 238 146.5 203 Q121 168 96 145 Q73 123 48 105 Q23 87 -8 77 Q-17 72 -19 66 Q-30 43 -39.5 20.5 Q-49 -2 -62 -23 Q-69 -34 -76.5 -45 Q-84 -56 -94 -65 Q-132 -101 -179 -78 Q-184 -76 -188.5 -73.5 Q-193 -71 -198 -69 Q-221 -58 -230.5 -39.5 Q-240 -21 -235 4 Q-227 39 -205.5 59 Q-184 79 -151 87 Q-140 90 -128 90.5 Q-116 91 -105 93 L-101 93 Q-90 94 -88 95.5 Q-86 97 -82 107 Q-70 136 -57.5 166 Q-45 196 -34 225 Q-22 254 -9 281.5 Q4 309 18 337 Q21 342 24 347.5 Q27 353 31 358 Q41 371 55 365 Q60 363 64.5 362 Q69 361 73 356 Q79 350 79 342 Q77 333 76.5 324 Q76 315 74 307 Q70 287 63 268.5 Q56 250 49 232 Q38 206 27 178 Q16 150 12 140 Q11 138 9 133 Q7 128 2 117 Q11 122 16 124 Q39 136 57.5 152 Q76 168 92 187 Q111 210 128 233.5 Q145 257 161 281 Q162 283 164.5 286 Q167 289 169 292 Q172 296 174 300 Z M-195 27 Q-199 21 -200 18 Q-200 17 -199.5 17 Q-199 17 -199 16 Q-196 21 -194 26 L-195 27 Z M-103 58 Q-102 59 -102.5 59.5 Q-103 60 -102 61 Q-103 62 -105 62 Q-115 61 -124.5 60 Q-134 59 -144 55 Q-181 42 -196 4 Q-203 -16 -195 -32 Q-190 -41 -186.5 -42.5 Q-183 -44 -174 -41 Q-166 -39 -162 -35 Q-157 -31 -153 -27.5 Q-149 -24 -145 -19 Q-131 -2 -121.5 18 Q-112 38 -103 58 Z M-63 101 Q-64 100 -64 98 Q-62 98 -61 99 Q-61 99 -59 103 Q-35 162 -10.5 220 Q14 278 39 337 L38 337 L38 338 Q9 280 -15 220.5 Q-39 161 -63 101 Z M1 231 Q5 234 3 239 Q2 237 2 235 Q2 233 1 231 Z M1 231 Q-4 224 -6.5 217 Q-9 210 -11 202 Q-6 208 -3.5 215.5 Q-1 223 1 231 Z M-20 182 Q-25 174 -31.5 159 Q-38 144 -43 130 Q-49 113 -56 95 Q-54 98 -52 102.5 Q-50 107 -48 111 L-44 121 L-27 162 Q-26 165 -24.5 168.5 Q-23 172 -22 175 Q-21 179 -20 182 Z M-65 55 Q-67 49 -69 47 Q-68 47 -67 46 Q-65 52 -64 54 L-65 55 Z M-99 20 Q-96 23 -92.5 29.5 Q-89 36 -86 42.5 Q-83 49 -81 54.5 Q-79 60 -80 63 Q-85 52 -89.5 41.5 Q-94 31 -99 20 Z M-88 -30 Q-82 -25 -73.5 -12 Q-65 1 -57 16.5 Q-49 32 -43 46 Q-37 60 -36 67 Q-40 67 -40.5 64.5 Q-41 62 -42 60 Q-52 38 -62.5 16 Q-73 -6 -87 -26 Q-87 -28 -88 -30 Z M-29 137 Q-27 143 -24 148 Q-22 153 -19.5 158 Q-17 163 -15 167 Q-13 172 -11 177 Q-9 182 -7 187.5 Q-5 193 -2 199 Q3 213 11 231 Q18 249 23.5 261 Q29 273 32.5 282.5 Q36 292 39.5 300.5 Q43 309 46 319 L34 296 L-49 95 L-29 137 Z M-13 118 Q-1 148 11.5 178.5 Q24 209 36 239 Q41 250 44.5 261 Q48 272 53 283 Q54 285 54 287.5 Q54 290 55 292 L53 292 Q35 247 16.5 201.5 Q-2 156 -21 111 Q-20 110 -19.5 110 Q-19 110 -18 109 Q-14 115 -13 118 Z " />
<glyph glyph-name="k" unicode="k" horiz-adv-x="384" d="M51 234 Q50 232 49 229.5 Q48 227 47 225 Q40 211 33.5 197 Q27 183 20 169 Q17 161 13.5 154.5 Q10 148 6 141 Q4 138 2.5 135.5 Q1 133 -1 131 Q-7 127 -11 130 Q-9 136 -9 139 L-9 140 Q-11 137 -15 133 Q-19 135 -22.5 136 Q-26 137 -29 139 Q-39 143 -39 155 Q-40 165 -39 175 Q-24 233 -4 286 Q16 339 39 393 Q53 425 67.5 456.5 Q82 488 99 518 Q110 536 121.5 553 Q133 570 148 585 Q162 598 178.5 610 Q195 622 215 619 Q226 618 236 615 Q246 612 256 604 Q270 590 269 573 Q268 556 262 540 Q252 509 230 481 Q210 454 188 429.5 Q166 405 142 382 Q138 377 132.5 372.5 Q127 368 125 362 Q138 367 150 371.5 Q162 376 176 377 Q195 378 212 373 Q229 368 244 354 Q261 340 261 320 Q259 279 230.5 251 Q202 223 166 215 Q161 213 157 213.5 Q153 214 148 212 Q162 193 171 174 Q173 168 176.5 162 Q180 156 183 149 Q188 143 195 144 Q202 144 210 147 Q240 161 270.5 186.5 Q301 212 327 238 Q356 268 384 301 Q396 299 400 294.5 Q404 290 404 284 Q404 278 400 271 Q396 264 392 258 Q381 241 362.5 219.5 Q344 198 322 178 Q300 158 277.5 142 Q255 126 237 119 Q223 114 210.5 113.5 Q198 113 184 121 Q183 122 182 122 Q164 128 152 140.5 Q140 153 131 170 Q123 185 116.5 194 Q110 203 105 211 Q103 212 101 213 Q99 214 97 214 Q85 217 74 222.5 Q63 228 51 234 Z M-16 198 L-13 204 Q1 240 15 276 Q29 312 43 347 Q44 349 46 355 Q43 353 41 349 Q38 341 35 334.5 Q32 328 29 320 L-13 212 Q-15 209 -15 205 Q-15 201 -16 198 Q-18 194 -19 191 L-17 191 Q-17 196 -16 198 Z M60 254 Q69 252 75.5 253 Q82 254 90 255 Q153 259 194 306 Q200 314 205 323 Q210 332 210 342 Q210 351 201 351 Q196 351 190 350.5 Q184 350 179 349 Q157 344 138 336 Q119 328 101 317 Q94 313 90 310.5 Q86 308 83.5 305 Q81 302 78.5 297.5 Q76 293 73 285 Q69 277 66 269.5 Q63 262 60 254 Z M129 418 Q135 425 140.5 431 Q146 437 151 443 Q177 475 200 509 Q223 543 227 577 Q219 575 213.5 568 Q208 561 203 556 Q178 525 160.5 489.5 Q143 454 129 418 Z M165 528 Q163 529 163 529 Q139 491 121.5 450.5 Q104 410 87 368 Q109 405 124.5 445.5 Q140 486 162 523 Q163 524 165 528 Z M59 297 Q57 295 52 284 Q47 273 40 257 Q33 241 25 222.5 Q17 204 10.5 187.5 Q4 171 -0.5 159 Q-5 147 -5 145 Q-1 150 2 158 Q16 190 30.5 223 Q45 256 59 289 Q61 291 61 294 Q61 295 59 297 Z M49 361 Q53 371 58.5 383.5 Q64 396 68 407 Q72 418 74.5 425 Q77 432 76 432 Q68 414 58.5 394.5 Q49 375 49 361 Z M240 518 Q241 517 242 517 Q246 524 249 530 Q252 536 254 544 L253 545 Q250 538 247 531.5 Q244 525 240 518 Z M239 291 Q241 293 243.5 297 Q246 301 245 305 Q241 295 239 291 Z " />
<glyph glyph-name="l" unicode="l" horiz-adv-x="241" d="M78 484 Q98 514 121 540.5 Q144 567 174 581 Q197 592 223 581 Q235 575 238.5 563 Q242 551 239.5 537.5 Q237 524 231.5 510.5 Q226 497 220 489 Q206 467 189.5 447 Q173 427 156 407 Q138 387 120 367 Q102 347 84 326 Q80 322 77 316 Q69 292 62.5 267.5 Q56 243 54 217 Q52 202 52.5 187 Q53 172 58 158 Q61 150 63 149 Q65 148 73 150 Q91 155 104 165 Q145 193 176.5 230.5 Q208 268 240 300 Q253 298 257 292 Q261 286 260.5 278 Q260 270 255.5 261.5 Q251 253 246 247 Q215 205 180.5 169.5 Q146 134 102 114 Q80 107 58 117 Q49 122 41 125 Q15 136 3 164 Q-9 203 -6 246.5 Q-3 290 9 332.5 Q21 375 39.5 414.5 Q58 454 78 484 Z M60 370 Q53 363 53 352 Q52 350 51 349 Q50 348 49 346 Q51 346 51 345 Q52 347 52 348.5 Q52 350 53 352 L59 370 Q61 374 65 380 Q64 381 62 381 Q61 378 61 375.5 Q61 373 60 370 Z M42 343 Q46 348 47.5 353.5 Q49 359 51 364 Q50 364 49.5 364.5 Q49 365 48 365 Q46 360 45 354 Q44 348 42 343 L39 337 Q40 336 41 336 Q41 338 41.5 339.5 Q42 341 42 343 Z M212 545 Q181 511 155.5 474.5 Q130 438 111 395 Q130 414 149.5 438.5 Q169 463 186 484 Q202 505 210 525 Q212 530 213 534.5 Q214 539 212 545 Z M73 347 Q73 348 73.5 348.5 Q74 349 74 350 Q89 385 105 417.5 Q121 450 141 482 Q133 474 121 455 Q109 436 98.5 415 Q88 394 80.5 375 Q73 356 73 347 Z M26 322 Q35 345 43.5 367 Q52 389 61 412 Q49 391 40.5 368 Q32 345 26 322 Z " />
<glyph glyph-name="m" unicode="m" horiz-adv-x="478" d="M485 270 Q476 258 466 244.5 Q456 231 439 212 Q422 193 405.5 178.5 Q389 164 372 150 Q367 147 363 144 Q359 141 354 139 Q341 132 327 140 Q323 142 319.5 143.5 Q316 145 311 147 Q282 161 279 195 Q277 214 281 232 Q285 250 291 268 Q300 292 310 316 Q320 340 330 364 Q332 368 332 372 Q331 371 330 370.5 Q329 370 328 369 Q308 358 291 343.5 Q274 329 260 312 Q233 282 210 248.5 Q187 215 167 180 Q161 171 156 161 Q151 151 145 142 Q142 137 141 137 Q133 134 133 144 Q131 140 125 142 Q121 144 117.5 146 Q114 148 111 150 Q103 155 101 168 Q100 177 102 186.5 Q104 196 107 205 Q114 228 123 249.5 Q132 271 141 293 Q149 311 156 329.5 Q163 348 171 367 Q171 370 172 373 Q170 371 168 370.5 Q166 370 164 368 Q150 359 139.5 347.5 Q129 336 119 324 Q90 288 65.5 250.5 Q41 213 18 174 Q14 167 11.5 160 Q9 153 6 146 Q3 139 -2 132 Q-8 124 -16 130 Q-14 135 -12 138.5 Q-10 142 -8 147 Q-8 148 -9 148 Q-12 143 -15 139.5 Q-18 136 -20 133 Q-25 135 -29 136.5 Q-33 138 -37 140 Q-52 149 -51 164 Q-49 179 -45 192 Q-32 224 -19 256 Q-6 288 8 320 Q15 337 22.5 354 Q30 371 38 388 Q40 392 42.5 395.5 Q45 399 47 403 Q51 408 60 408 Q60 408 64 406 Q67 407 67 403 L71 407 L71 402 L72 402 Q73 406 77 403 Q79 401 81.5 399.5 Q84 398 86 395 Q88 392 88 385 Q87 378 86.5 372 Q86 366 84 359 Q79 344 75 329.5 Q71 315 67 300 Q66 299 66 296 Q67 297 67.5 298 Q68 299 70 300 Q86 322 103 343 Q120 364 140 382 Q148 390 159 398 Q169 405 183 403 Q204 400 214 384.5 Q224 369 221 350 Q219 338 216.5 326 Q214 314 211 303 Q210 299 209 296 Q208 293 208 289 Q210 293 210 293 Q227 313 244.5 332.5 Q262 352 282 369 Q293 378 304.5 385.5 Q316 393 328 400 Q354 414 376 395 Q386 385 386 371 Q385 345 375 318 Q369 300 362 282 Q355 264 349 247 Q343 230 338 214 Q333 198 331 181 Q330 176 330 166 Q333 168 334.5 168 Q336 168 338 169 Q348 176 363.5 187.5 Q379 199 398 216 Q416 234 430.5 249.5 Q445 265 456 276 Q468 289 478 300 Q496 295 494 286.5 Q492 278 485 270 Z M-31 178 Q-8 232 13.5 285.5 Q35 339 57 393 Q55 391 48.5 375.5 Q42 360 32 337 Q22 314 11.5 287.5 Q1 261 -8.5 237.5 Q-18 214 -24.5 197.5 Q-31 181 -31 178 Z M175 331 Q163 298 148.5 267 Q134 236 124 203 Q136 235 150.5 266.5 Q165 298 175 331 Z M-21 180 Q-6 217 9 253.5 Q24 290 38 327 Q38 328 37 328 Q23 291 7.5 254.5 Q-8 218 -21 180 Z M308 267 Q309 267 309 266 Q319 289 328 312.5 Q337 336 347 359 Q345 360 345 360 Q335 337 326 313.5 Q317 290 308 267 Z M178 312 Q177 313 177 313 Q166 287 155 261 Q144 235 133 209 L134 209 Q145 235 156 260.5 Q167 286 178 312 Z M196 303 Q189 287 182.5 271 Q176 255 169 239 L171 239 Q179 254 185 270 Q191 286 196 303 Z M-5 207 Q-5 206 -4 206 Q6 231 16 255.5 Q26 280 36 305 L35 305 Q24 280 14.5 256 Q5 232 -5 207 Z M29 247 L31 247 Q39 263 45 280 Q51 297 56 314 Q49 297 42.5 280.5 Q36 264 29 247 Z M177 295 Q176 296 176 296 Q168 276 159.5 257.5 Q151 239 143 219 L144 218 Q152 238 160.5 257 Q169 276 177 295 Z M364 323 Q363 323 363 323.5 Q363 324 362 324 Q356 308 350 292.5 Q344 277 338 260 L339 260 Q346 276 352 291.5 Q358 307 364 323 Z M320 278 Q321 277 322 277 Q328 294 334.5 309.5 Q341 325 348 342 Q347 343 346 343 Q340 326 333.5 310 Q327 294 320 278 Z " />
<glyph glyph-name="n" unicode="n" horiz-adv-x="333" d="M61 398 Q59 392 59 389 Q61 391 61.5 393.5 Q62 396 64 398 Q66 394 66 394 Q67 395 67.5 395 Q68 395 69 397 L69 390 Q71 392 71 395 Q78 394 79 383 Q80 385 80.5 385.5 Q81 386 82 388 Q86 384 86 375 Q84 364 82 353 Q80 342 75 331 Q69 316 62.5 301 Q56 286 49 271 Q49 270 48.5 269 Q48 268 48 266 Q52 271 55 275 Q58 279 62 284 Q76 303 89.5 321.5 Q103 340 119 357 Q131 370 143.5 381 Q156 392 171 401 Q189 412 209 404 Q229 394 232 375 Q234 362 232.5 350.5 Q231 339 229 327 Q224 307 218.5 288 Q213 269 208 250 Q203 233 199.5 216.5 Q196 200 194 183 L194 174 Q201 177 206 180 Q215 188 223.5 194.5 Q232 201 240 209 Q248 216 263 231.5 Q278 247 294 262 Q312 280 333 300 Q348 298 347 290.5 Q346 283 340 276 Q323 256 298.5 228 Q274 200 257 180 Q246 168 234 157 Q229 152 223 149 Q217 146 211 143 Q199 137 187 145 Q179 149 175 150 Q150 161 145 190 Q142 208 144 224.5 Q146 241 151 258 Q158 282 165.5 305 Q173 328 180 351 Q182 358 184.5 365 Q187 372 189 380 L188 380 Q187 380 183 378 Q172 373 163.5 366 Q155 359 147 351 Q131 336 117.5 318.5 Q104 301 92 282 Q69 247 45.5 211 Q22 175 -1 139 Q-5 132 -8 125 Q-14 116 -21 122 Q-20 124 -19 127 Q-18 130 -17 132 L-18 133 Q-20 129 -22 127 Q-25 123 -29 126 Q-36 129 -43 133 Q-55 141 -52 154 Q-50 165 -47.5 175.5 Q-45 186 -41 197 Q-24 245 -3.5 290 Q17 335 40 380 Q44 388 47 392 Q52 400 61 398 Z M-4 214 Q-8 208 -9 204 Q-11 199 -13 193.5 Q-15 188 -17 183 Q-16 182 -16 182 Q-14 187 -12 192 Q-10 197 -8 202 Q-7 205 -6.5 208.5 Q-6 212 -5 215 Q-2 221 0.5 226.5 Q3 232 6 239 L4 239 Q2 233 0 227 Q-2 221 -4 214 Z M74 361 Q73 361 72 362 Q57 324 40.5 287.5 Q24 251 11 212 Q13 217 15 221 Q17 225 19 229 Q30 256 42 282.5 Q54 309 65 335 Q67 342 69.5 348.5 Q72 355 74 361 Z M30 326 Q10 286 -6.5 245.5 Q-23 205 -36 162 Q-21 204 -4.5 244.5 Q12 285 30 326 Z M194 341 L193 341 Q187 323 181 305 Q175 287 169 268 L170 268 Q176 286 182 304 Q188 322 194 341 Z M200 272 Q201 271 201 271 Q203 280 206 288.5 Q209 297 211 306 L210 306 Q208 297 205 288.5 Q202 280 200 272 Z M38 344 L39 344 Q43 352 46 359 Q49 366 53 374 Q52 375 52 375 Q48 367 45 359.5 Q42 352 38 344 Z M-29 165 Q-28 164 -28 164 Q-26 170 -24 175 Q-22 180 -20 186 L-21 186 Q-23 181 -25 175.5 Q-27 170 -29 165 Z " />
<glyph glyph-name="braceright" unicode="&#x7d;" horiz-adv-x="259" d="M204 319 Q212 317 217.5 313 Q223 309 228 304 Q233 300 230 290.5 Q227 281 221 279 Q219 278 216 277.5 Q213 277 211 276 Q169 269 143 233 Q137 224 131.5 214.5 Q126 205 122 195 Q112 172 103 150 Q94 128 85 105 Q76 84 66.5 63.5 Q57 43 43 24 Q23 -7 -6 -27 Q-20 -37 -36 -39.5 Q-52 -42 -69 -39 Q-78 -37 -87 -32.5 Q-96 -28 -104 -24 Q-109 -21 -113 -12 Q-115 -8 -112.5 -5 Q-110 -2 -105 -3 Q-99 -3 -93.5 -0.5 Q-88 2 -83 5 Q-48 25 -25.5 55 Q-3 85 13 120 Q21 138 28 156 Q35 174 43 192 Q49 206 55.5 218.5 Q62 231 69 244 Q88 278 124 300 Q126 301 128 302 Q130 303 133 305 Q128 308 125 311 Q122 314 119 316 Q99 336 104 365 Q105 373 106.5 379.5 Q108 386 110 393 Q120 425 133 455 Q146 485 159 514 Q165 527 169.5 539.5 Q174 552 179 565 Q181 570 181 576 Q181 582 181 587 Q181 594 173 595 Q171 595 168 595.5 Q165 596 163 596 Q155 595 148 598.5 Q141 602 134 605 Q133 605 133 605.5 Q133 606 132 606 Q126 610 127 614 Q129 619 135 619 Q159 622 180 618 Q201 613 216 600 Q231 585 232 568 Q235 529 221 492 L185 402 Q180 388 176 375.5 Q172 363 167 349 Q165 341 165 335 Q165 327 175 325 Q183 323 189.5 321.5 Q196 320 204 319 Z M79 187 L76 178 Q77 181 81 187 L79 187 Z M71 207 Q58 182 48.5 156 Q39 130 28 104 Q31 109 38 124.5 Q45 140 52.5 157.5 Q60 175 65.5 189.5 Q71 204 71 207 Z M75 177 Q73 174 72.5 171.5 Q72 169 70 167 L73 167 Q73 169 75 177 Z M67 159 Q66 157 64 151 L66 151 Q67 153 69 159 L67 159 Z M62 142 Q61 142 61 142.5 Q61 143 60 143 Q60 141 58 135 L59 135 Q60 137 60.5 138.5 Q61 140 62 142 Z M119 220 Q121 225 123.5 229.5 Q126 234 128 239 Q123 237 120.5 233 Q118 229 116 225 Q110 212 103.5 199 Q97 186 92 172 Q79 140 65 107.5 Q51 75 33 44 L33 42 L34 41 Q36 43 37 45 Q38 47 40 49 Q45 59 51 68.5 Q57 78 62 89 Q68 100 73 112.5 Q78 125 83 137 Q91 158 99.5 179 Q108 200 119 220 Z M172 496 Q178 505 181.5 514.5 Q185 524 188 534 Q183 526 179.5 517 Q176 508 172 499 L172 496 Z M128 384 Q139 411 149 437 Q159 463 170 489 Q171 491 171 492 Q171 493 172 495 Q169 493 167 490 Q157 467 147 443.5 Q137 420 129 396 Q128 393 127.5 389.5 Q127 386 126 383 Q127 384 128 384 Z M161 437 Q161 433 160 431 L163 437 L161 437 Z M146 415 Q146 413 145.5 412 Q145 411 145 409 L148 415 L146 415 Z M137 389 Q137 388 138 388 Q139 390 139 394 Q137 390 137 389 Z M147 394 Q147 395 147.5 396 Q148 397 148 399 Q147 398 145 394 L147 394 Z M152 410 Q155 413 155 418 Q153 412 152 410 Z M214 514 Q208 504 199 483.5 Q190 463 181.5 441 Q173 419 167 401 Q161 383 161 379 Q174 414 188.5 446.5 Q203 479 214 514 Z " />
<glyph glyph-name="o" unicode="o" horiz-adv-x="316" d="M178 227 Q195 219 211 225 Q225 229 239.5 237 Q254 245 265 254 Q276 262 285 270 Q294 278 301 285 L316 300 Q332 298 332 291.5 Q332 285 327 277 Q314 260 292 240 Q270 220 242 206 Q223 198 205 199 Q187 200 169 208 Q165 211 161 207 Q148 191 134 177 Q120 163 103 152 Q95 147 86.5 144 Q78 141 68 143 Q66 144 64.5 144 Q63 144 61 145 Q52 149 43.5 153 Q35 157 27 162 Q-4 181 -7 219 Q-12 269 4.5 310.5 Q21 352 59 384 Q73 395 88 403 Q103 411 120 414 Q150 420 178 401 Q185 396 192 396 Q208 394 219 384.5 Q230 375 232 365 Q236 349 231 331 Q226 313 218.5 296 Q211 279 202 264 Q196 254 190 245 Q184 236 178 227 Z M134 361 Q132 360 130 358 Q102 341 83 309 Q69 287 61.5 263 Q54 239 52 213 Q50 195 57 181 Q59 175 63 178 Q68 180 73 181.5 Q78 183 83 185 Q100 193 113.5 204 Q127 215 139 228 Q128 242 123 259 Q118 276 117 294 Q114 329 134 361 Z M160 252 Q163 257 166 261 Q169 265 172 269 Q182 284 190 300 Q198 316 202 334 Q204 342 205.5 349.5 Q207 357 205 365 Q203 371 201.5 372 Q200 373 194 370 Q178 362 168 344 Q155 322 154 299 Q152 288 154 276 Q156 264 160 252 Z M81 336 Q57 312 49 276 Q57 291 65 306 Q73 321 81 336 Z M18 288 Q23 297 26.5 306 Q30 315 34 324 Q28 316 24 307.5 Q20 299 18 288 Z M151 331 Q152 331 152 330 Q156 337 159 343 Q162 349 166 356 Q165 356 165 356.5 Q165 357 164 357 Q161 350 157.5 344 Q154 338 151 331 Z M45 312 Q44 313 43 313 Q41 307 38 301 Q35 295 33 289 Q34 289 34 288.5 Q34 288 35 288 Q37 294 39.5 300 Q42 306 45 312 Z M26 289 Q27 289 27 288.5 Q27 288 28 288 Q30 294 32.5 299.5 Q35 305 37 311 L35 311 Q33 306 30.5 300 Q28 294 26 289 Z M202 278 Q203 278 203 277 Q206 283 208.5 288.5 Q211 294 214 299 Q211 294 208 289.5 Q205 285 203 280 Q202 279 202 278 Z " />
<glyph glyph-name="bar" unicode="&#x7c;" horiz-adv-x="245" d="M223 593 Q229 585 228 574 Q226 564 223.5 554.5 Q221 545 218 535 Q209 508 200.5 480.5 Q192 453 181 426 Q166 387 150.5 348 Q135 309 119 269 Q111 248 102 226.5 Q93 205 84 184 Q71 155 58.5 126 Q46 97 33 68 Q26 53 19.5 38.5 Q13 24 6 10 Q4 8 2.5 5 Q1 2 -1 0 Q-6 -7 -15 1 Q-14 3 -12 9 Q-12 9 -13 10 L-18 5 Q-23 10 -26 13.5 Q-29 17 -33 21 Q-42 30 -39 43 L-36 55 L33 238 Q44 264 54 290 Q64 316 75 342 Q90 377 104.5 412.5 Q119 448 135 483 Q147 511 160 537 Q173 563 189 589 Q191 592 193.5 595.5 Q196 599 199 601 Q204 606 208 603 Q209 603 212 598 Q219 601 223 593 Z " />
<glyph glyph-name="braceleft" unicode="&#x7b;" horiz-adv-x="317" d="M146 296 Q154 288 156.5 279.5 Q159 271 157 260 Q154 240 146 219 Q136 193 126.5 168.5 Q117 144 107 118 Q99 98 93.5 77.5 Q88 57 86 35 Q84 25 85.5 15.5 Q87 6 95 -2 Q97 -5 97 -11.5 Q97 -18 94 -21 Q91 -26 85 -24 Q76 -19 66 -15 Q56 -11 47 -4 Q36 7 33 20 Q29 31 29.5 43 Q30 55 32 66 Q37 98 47 128.5 Q57 159 70 189 Q78 207 85 224.5 Q92 242 100 260 Q102 264 103 267.5 Q104 271 106 276 Q101 277 94 277 Q85 277 78 281 Q74 283 70.5 284.5 Q67 286 63 288 Q60 290 56.5 292.5 Q53 295 51 298 Q42 309 55 314 Q59 316 62.5 316.5 Q66 317 70 319 Q84 323 94.5 329.5 Q105 336 115 345 Q138 367 155.5 391 Q173 415 189 442 Q197 456 203.5 469 Q210 482 218 496 Q227 513 236.5 529 Q246 545 256 562 Q269 584 287 602 Q308 622 332.5 626.5 Q357 631 384 623 Q387 622 389.5 619.5 Q392 617 394 615 Q398 613 396 606 Q394 601 389 601 Q384 601 378.5 600.5 Q373 600 368 599 Q340 594 323 574 Q301 548 287 519 Q279 503 272.5 487.5 Q266 472 259 456 Q248 431 236 407 Q224 383 208 361 Q183 323 150 299 Q148 298 146 296 Z M72 149 Q70 146 66 138 Q68 138 69 137 Q71 145 72 150 L75 159 Q81 165 83 177 L92 195 Q94 199 94.5 203 Q95 207 97 211 Q100 219 103.5 226 Q107 233 111 241 Q112 243 112 244.5 Q112 246 113 248 Q109 241 106 234.5 Q103 228 100 221 Q99 219 98.5 216 Q98 213 97 211 Q92 203 88.5 194.5 Q85 186 83 177 Q81 172 79 168 Q77 164 75 159 Q74 155 72 149 Z M135 227 Q134 225 132 223 Q123 200 113.5 176.5 Q104 153 95 130 Q95 129 94.5 127.5 Q94 126 94 123 Q96 127 96 127 Q106 150 115 172.5 Q124 195 133 218 Q134 220 134 222.5 Q134 225 135 227 L138 233 Q137 233 136 234 Q136 232 135.5 230.5 Q135 229 135 227 Z M296 556 Q295 556 295 557 L289 548 Q281 533 273 518 Q265 503 258 487 Q245 460 232 432.5 Q219 405 202 379 Q201 378 201 377.5 Q201 377 200 376 Q204 379 206 382 Q218 398 227.5 415.5 Q237 433 245 451 Q256 477 268.5 502.5 Q281 528 295 552 Q295 553 295.5 553.5 Q296 554 296 556 Z " />
<glyph glyph-name="z" unicode="z" horiz-adv-x="326" d="M12 287 Q13 289 13 290.5 Q13 292 14 294 Q12 292 11 290.5 Q10 289 8 291 Q0 296 -0.5 297 Q-1 298 1 303 Q11 326 30 349 Q44 365 59.5 378 Q75 391 95 400 Q104 405 113 408 Q122 411 132 411 Q164 412 189 394.5 Q214 377 220 343 Q224 323 220 304 Q216 285 206 268 Q188 235 156 215 Q155 215 155 214 Q164 205 169.5 194 Q175 183 179 171 Q181 171 185 173 Q206 183 227 198 Q248 213 262 226 Q273 236 283.5 249 Q294 262 304 273 Q315 286 326 300 Q345 295 344 287 Q343 279 337 269 Q327 255 314 240 Q301 225 286.5 211 Q272 197 257 184.5 Q242 172 227 163 Q218 157 208.5 153 Q199 149 189 145 Q181 141 180 133 Q177 88 150 52 Q115 5 61 -11 Q51 -13 42 -15.5 Q33 -18 22 -18 Q17 -18 13 -17.5 Q9 -17 5 -15 Q-4 -11 -13.5 -7 Q-23 -3 -32 3 Q-46 13 -51 26.5 Q-56 40 -54 57 Q-52 83 -38 100 Q-24 117 -2 128 Q14 136 31.5 141 Q49 146 66 148 Q98 151 128 157 Q132 157 132 160 Q133 170 132.5 180 Q132 190 128 201 Q126 206 121 205 L97 205 Q91 206 84 210 Q79 212 75 214.5 Q71 217 66 220 Q63 222 61 227 Q59 233 66 236 Q71 237 75.5 237.5 Q80 238 85 240 Q107 244 125 262 Q141 276 151.5 294 Q162 312 166 333 Q169 354 163 373 Q161 381 158.5 383 Q156 385 149 385 Q122 386 97 374 Q46 345 19 293 Q18 292 18 291 Q18 290 17 289 Q16 288 15 288 Q14 288 12 287 Z M125 129 Q123 129 122 128.5 Q121 128 119 128 Q111 127 103 126 Q95 125 87 124 Q71 122 55 118.5 Q39 115 25 108 Q-4 94 -17 68 Q-27 44 -14 22 Q-10 15 -3 16 Q2 17 5.5 18 Q9 19 14 21 Q92 45 123 123 Q125 127 125 129 Z M141 64 Q150 73 155 83 Q160 93 163 106 Q158 95 152.5 85 Q147 75 141 64 Z M186 265 Q193 271 199.5 283 Q206 295 208 306 Q206 299 200 289 Q194 279 186 265 Z M139 117 Q138 117 137 118 Q135 113 133.5 109 Q132 105 130 100 Q131 100 132 99 Q134 104 135.5 108 Q137 112 139 117 Z M-16 84 L-18 84 Q-20 81 -21.5 77.5 Q-23 74 -25 71 L-24 70 Q-22 73 -20 76.5 Q-18 80 -16 84 Z M176 306 L175 307 Q173 301 170 294 L171 294 Q175 302 176 306 Z " />
<glyph glyph-name="y" unicode="y" horiz-adv-x="332" d="M74 410 Q79 413 79.5 413 Q80 413 81 410 Q85 412 85 412 Q86 411 86 409 L87 408 Q89 412 92 410 Q94 408 96 407 Q98 406 98 403 Q98 399 99 396 Q101 398 101 398.5 Q101 399 102 401 Q107 397 105 390 Q100 366 90 347 Q79 326 70 305 Q61 284 53 261 Q44 232 38 204 Q35 187 43 173 Q46 168 52 169 Q68 174 79 182 Q94 193 107 207 Q120 221 131 235 Q137 243 143 250.5 Q149 258 155 266 Q164 277 169.5 289 Q175 301 180 313 Q188 334 197 354.5 Q206 375 215 395 Q217 399 218.5 402 Q220 405 222 409 Q224 414 227.5 414.5 Q231 415 235 415 Q237 415 237 412 Q237 410 236.5 407.5 Q236 405 236 403 Q238 406 238.5 408.5 Q239 411 241 415 Q243 413 243 412.5 Q243 412 244 411 Q246 413 251.5 411 Q257 409 259 405 Q259 401 263 402 L264 401 Q265 399 265 399 Q266 393 266.5 387.5 Q267 382 266 377 Q260 333 243 286 Q230 254 217.5 222.5 Q205 191 192 159 L189 153 Q191 154 192.5 154 Q194 154 196 155 Q219 165 237 180 Q255 195 272 212 Q291 232 306 256.5 Q321 281 332 300 Q346 298 348 293 Q350 288 347 281 Q345 276 342.5 271.5 Q340 267 338 263 Q318 226 291.5 195.5 Q265 165 228 143 Q207 130 179 124 Q175 124 175 119 Q165 99 155 80 Q145 61 133 42 Q113 7 80 -11 Q63 -21 45 -22 Q27 -23 9 -13 Q2 -10 -4.5 -7 Q-11 -4 -17 1 Q-41 16 -44 44 Q-45 53 -41.5 60.5 Q-38 68 -33 76 Q-26 86 -17 93 Q-8 100 3 105 Q28 116 53.5 124 Q79 132 106 137 Q110 137 113 142 Q116 151 119.5 160 Q123 169 127 178 Q128 179 128 181 Q127 181 125 179 Q119 174 113.5 168 Q108 162 103 157 Q93 145 77 139 Q61 132 43 140 Q35 145 24 149 Q2 160 -9.5 181 Q-21 202 -19 226 Q-17 244 -12.5 260.5 Q-8 277 -2 294 Q7 319 17.5 343 Q28 367 42 390 L54 405 Q60 414 71 414 Q75 414 74 410 Z M97 109 L95 109 Q74 103 54 96.5 Q34 90 15 79 Q-2 69 -10 53 Q-15 43 -12 34.5 Q-9 26 -1 18 Q5 12 13 14 Q21 16 24 18 Q31 22 37.5 26 Q44 30 49 35 Q66 50 76.5 69 Q87 88 97 108 L97 109 Z M170 146 Q175 157 180.5 169 Q186 181 190 192 Q203 223 215 253.5 Q227 284 238 316 Q240 324 240 325 Q223 281 204.5 236 Q186 191 170 146 Z M40 268 Q53 297 66.5 326.5 Q80 356 94 386 L93 387 Q90 386 89 383 Q85 375 81 366 Q77 357 72 348 Q52 306 40 268 Z M161 121 Q156 121 154 117 Q144 98 134 79.5 Q124 61 113 42 L113 40 Q129 57 139.5 78 Q150 99 161 121 Z M149 144 Q150 146 156 159 Q162 172 169 190 Q176 208 184.5 229 Q193 250 200 268 Q207 286 211.5 298.5 Q216 311 216 312 Q199 270 182.5 228 Q166 186 149 144 Z M132 142 Q133 141 134 141 Q144 165 153.5 189 Q163 213 171 238 Q160 214 151 190 Q142 166 132 142 Z M143 146 Q144 146 144 145 Q157 177 169.5 208.5 Q182 240 195 272 Q194 272 194 272.5 Q194 273 193 273 Q180 241 168 209.5 Q156 178 143 146 Z M7 268 Q18 292 27.5 316 Q37 340 48 363 Q35 340 25 317 Q15 294 7 268 Z M53 342 Q52 343 51 343 Q45 328 39 313.5 Q33 299 27 284 L28 284 Q34 298 40.5 313 Q47 328 53 342 Z M43 335 Q42 336 42 336 Q36 322 30.5 308 Q25 294 19 280 Q20 279 20 279 Q26 293 31.5 307 Q37 321 43 335 Z M106 87 L107 86 Q111 93 114 100 Q117 107 121 114 Q120 114 120 115 Q112 101 106 87 Z " />
<glyph glyph-name="x" unicode="x" horiz-adv-x="347" d="M91 375 Q88 371 84.5 368 Q81 365 78 362 Q44 327 21 289 Q19 287 18.5 286 Q18 285 17 284 Q14 279 10 282 Q8 283 6.5 284 Q5 285 3 286 Q-7 291 -1 299 Q8 312 16.5 324.5 Q25 337 34 349 Q48 366 62 381 Q76 396 92 411 Q96 414 99.5 414.5 Q103 415 106 415 Q142 409 148 374 Q151 360 152 344.5 Q153 329 152 314 L152 308 Q155 311 157 312 Q175 327 192.5 342.5 Q210 358 229 372 Q241 382 254 390 Q267 398 280 406 Q286 410 290.5 409 Q295 408 300 406 Q301 406 301 401 Q303 401 304 402 Q306 399 304.5 396.5 Q303 394 301 392 Q299 390 299 390 Q263 359 227.5 328.5 Q192 298 156 267 Q150 263 150 256 Q150 239 150 223 Q150 207 155 192 Q157 183 161 176 Q166 168 170.5 166 Q175 164 186 166 Q212 173 241 192 Q258 204 272.5 218.5 Q287 233 301 248 Q306 253 313.5 262.5 Q321 272 329 280 Q338 290 347 300 Q361 298 360 291 Q359 284 356 279 Q349 270 344.5 264 Q340 258 333 249 Q318 229 301 210.5 Q284 192 265 175 Q253 164 239.5 154.5 Q226 145 210 138 Q179 127 157 140 Q155 142 151 144 Q131 152 119.5 166 Q108 180 101 199 L95 217 Q93 215 92 214.5 Q91 214 90 213 Q72 198 54 183 Q36 168 17 153 Q3 142 -14 131 Q-16 129 -18 128 Q-20 127 -22 128 Q-29 131 -36 136 Q-38 138 -37.5 140 Q-37 142 -35 144 Q-29 150 -23 156 Q-17 162 -11 167 Q13 189 37.5 210.5 Q62 232 86 253 Q89 256 89 259 Q90 279 90.5 299 Q91 319 91 339 Q92 347 92 356 Q92 365 93 374 Q92 374 91 375 Z M40 325 L39 326 Q35 321 32 316 Q29 311 25 306 L26 306 Q33 317 40 325 Z " />
<glyph glyph-name="p" unicode="p" horiz-adv-x="317" d="M-65 22 L-67 20 Q-70 22 -73 23 Q-76 24 -74 29 Q-77 26 -78 24 Q-80 28 -80 28 Q-84 24 -85 29 L-85 30 Q-91 32 -93 36 Q-95 40 -95 45 Q-95 50 -93 60 Q-90 81 -83.5 100.5 Q-77 120 -69 140 Q-50 190 -29 238 Q-8 286 15 334 Q23 351 31 368 Q39 385 47 402 Q49 404 50 407 Q51 410 53 412 Q57 418 66 418 Q68 417 69.5 416.5 Q71 416 73 415 L76 415 Q77 415 77 413 Q82 415 84 413 Q86 411 88 406 Q92 409 94 402 Q94 398 94 393.5 Q94 389 93 385 Q91 374 87.5 363.5 Q84 353 81 342 Q81 340 80.5 339 Q80 338 80 336 Q81 338 82 339 Q83 340 84 342 Q98 358 112.5 373 Q127 388 146 399 Q151 403 157 406 Q163 409 170 409 Q190 410 205.5 399 Q221 388 227 365 Q231 350 230 335 Q229 320 225 306 Q220 286 212.5 269 Q205 252 196 235 Q195 234 195 233 Q195 232 194 231 Q201 229 207.5 229.5 Q214 230 221 231 Q258 240 284 265 Q289 270 295 276.5 Q301 283 306 288 Q311 294 317 300 Q330 299 331 293 Q332 287 329 282 Q324 273 315 261.5 Q306 250 299 244 Q284 230 267 219.5 Q250 209 228 206 Q218 205 208 206.5 Q198 208 188 210 Q183 212 178 207 Q152 169 113 147 Q93 136 71 132 Q63 130 56.5 130.5 Q50 131 42 136 Q39 138 33 140 Q13 151 13 170 Q12 172 12 172 L12 173 Q11 171 10 170.5 Q9 170 9 168 Q-5 135 -19 102 Q-33 69 -44 34 Q-45 32 -46 29.5 Q-47 27 -48 24 Q-49 22 -49.5 21.5 Q-50 21 -51 19 Q-55 13 -60 16 Q-62 17 -62.5 18.5 Q-63 20 -65 22 Z M32 214 L33 214 Q37 216 43 222 Q89 254 144 241 Q149 241 151 244 Q162 261 170.5 278.5 Q179 296 186 315 Q188 322 190 328.5 Q192 335 193 343 Q198 365 191 384 Q190 389 184 388 Q179 386 173.5 384 Q168 382 163 379 Q145 369 130 355.5 Q115 342 102 326 Q88 309 76.5 290.5 Q65 272 54 252 Q48 243 43 233.5 Q38 224 32 214 Z M137 224 Q135 224 134.5 224.5 Q134 225 133 225 Q84 228 52 193 Q40 182 38 165 Q37 155 47 156 L48 157 Q77 165 98 183 Q119 201 137 224 Z M61 399 Q60 398 60 397 Q60 396 59 395 Q52 380 45.5 365 Q39 350 33 335 Q17 300 1 264.5 Q-15 229 -30 193 Q-41 169 -50 144 Q-59 119 -69 94 Q-71 89 -72 85 Q-73 81 -75 76 Q-45 159 -9 238.5 Q27 318 61 399 Z M82 382 Q69 352 56.5 321 Q44 290 31 259 Q35 263 43 280 Q51 297 59 317 Q67 337 74 355.5 Q81 374 82 382 Z M183 232 Q205 267 215 302 Q207 285 199 267.5 Q191 250 183 232 Z M-63 90 Q-62 90 -61 89 Q-59 94 -58 98.5 Q-57 103 -55 108 L-56 108 Q-58 103 -59.5 99 Q-61 95 -63 90 Z " />
<glyph glyph-name="q" unicode="q" horiz-adv-x="340" d="M189 147 Q190 145 190 144.5 Q190 144 191 142 Q196 131 202 120 Q221 81 212 40 Q207 18 199 -2 Q191 -22 177 -40 Q172 -48 166 -54 Q160 -60 153 -66 Q134 -82 114 -70 Q109 -66 102.5 -63.5 Q96 -61 91 -58 Q78 -50 73 -37.5 Q68 -25 67 -9 Q66 11 69.5 31.5 Q73 52 78 72 Q86 104 97 134.5 Q108 165 121 195 Q122 197 122 198 Q122 199 123 201 L122 202 Q121 201 120.5 200 Q120 199 119 198 Q110 190 101.5 182.5 Q93 175 84 167 Q69 156 54 150 Q42 146 32 150 Q24 154 15.5 158 Q7 162 -1 167 Q-30 184 -28 221 Q-27 240 -21 257 Q-15 274 -6 291 Q12 323 36.5 349 Q61 375 94 392 Q139 418 182 404 Q198 398 209 386 Q210 385 211 384.5 Q212 384 213 383 Q216 388 218.5 392 Q221 396 224 400 Q229 407 234 414 Q239 421 244 428 Q249 435 257 435 Q262 435 261 431 Q263 432 266 435 L266 429 Q267 431 269 433 Q271 431 271 431 Q278 433 281 426 Q281 426 284 423 Q286 421 286 419 Q286 415 286 411 Q286 407 285 402 Q279 381 270.5 360.5 Q262 340 251 320 Q238 294 225 268.5 Q212 243 199 217 Q194 206 189.5 196 Q185 186 180 175 Q179 174 179 173 Q179 172 178 170 Q186 170 189 171 Q201 173 211 179 Q221 185 232 192 Q272 218 301 253 Q315 270 327 284 Q334 292 340 300 Q359 298 360 290.5 Q361 283 356 276 Q350 268 344 261 Q338 254 324 237 Q295 200 258 175 Q243 164 224 153 Q210 145 195 147 L189 147 Z M32 191 Q34 192 34.5 192 Q35 192 37 193 Q45 197 52.5 200.5 Q60 204 67 209 Q92 226 113.5 245.5 Q135 265 155 288 Q167 300 175 314 Q181 323 186 332.5 Q191 342 196 352 Q197 353 197 356 Q195 361 193.5 366 Q192 371 190 376 Q187 385 176 385 Q158 386 142 379 Q121 370 105 354 Q76 327 58.5 294.5 Q41 262 32 225 Q30 217 30 208.5 Q30 200 32 191 Z M165 139 Q165 137 163 133 Q153 107 145 80.5 Q137 54 132 27 Q130 16 128.5 4.5 Q127 -7 125 -18 L125 -33 Q139 -26 153.5 -6.5 Q168 13 178 43 Q186 69 181.5 92.5 Q177 116 165 139 Z M169 185 Q171 189 171 189 Q183 213 194.5 236.5 Q206 260 218 283 Q231 309 244 335 Q257 361 268 387 Q268 389 268.5 389.5 Q269 390 269 392 L268 392 Q245 339 217 289 Q189 239 169 185 Z M73 338 Q59 321 48.5 304 Q38 287 32 268 Q42 285 52 302.5 Q62 320 73 338 Z M210 309 Q209 309 208 310 L163 217 L164 216 Q175 239 186.5 262.5 Q198 286 210 309 Z M129 170 Q138 190 147 209.5 Q156 229 165 249 L164 250 Q153 230 145 210 Q137 190 129 170 Z M149 200 L150 200 Q159 219 168 237 Q177 255 186 274 Q185 274 185 274.5 Q185 275 184 275 Q176 256 167 237.5 Q158 219 149 200 Z M18 299 Q18 300 17 300 Q12 292 7.5 283.5 Q3 275 1 266 Q6 274 10 282.5 Q14 291 18 299 Z M171 -33 Q184 -20 190 0 Q185 -8 180.5 -16.5 Q176 -25 171 -33 Z M19 287 L18 288 L9 270 L10 269 L19 287 Z M27 290 L26 291 Q22 284 19 277 L20 277 Q22 280 23.5 283.5 Q25 287 27 290 Z " />
<glyph glyph-name="r" unicode="r" horiz-adv-x="272" d="M63 347 Q69 345 77 344.5 Q85 344 92 342 Q115 337 132 332.5 Q149 328 158 306 Q161 297 159.5 288 Q158 279 156 270 Q151 257 145 242 Q139 227 133.5 213 Q128 199 123.5 186 Q119 173 119 165 Q151 177 176 201 Q201 225 229 253 Q233 258 240 265.5 Q247 273 254 281 Q262 290 271 300 Q285 298 286 292 Q287 286 283 280 Q263 245 242 219 Q221 193 201.5 175 Q182 157 165.5 146 Q149 135 139 132 Q122 127 110 135 Q106 138 98 142 Q80 150 71 168 Q62 186 65 207 Q68 226 75 242 Q82 258 94 278 Q95 280 99 285.5 Q103 291 106 297.5 Q109 304 110 309.5 Q111 315 107 317 Q93 321 81 324 Q69 327 56 330 Q45 313 31 296.5 Q17 280 9 270 Q4 268 4.5 271.5 Q5 275 0 275 Q-5 277 -9 278.5 Q-13 280 -10 285 Q-2 298 11 315 Q24 332 32 343 Q14 357 10 364 Q-2 380 1.5 399.5 Q5 419 19 432 Q33 443 48.5 441 Q64 439 74 429 Q82 421 83 410 Q84 399 81 387.5 Q78 376 72.5 365.5 Q67 355 63 347 Z M43 361 Q51 374 54.5 387.5 Q58 401 60 412 Q60 422 51 418 Q36 411 32 397 Q27 377 43 361 Z M90 232 Q98 248 106 263 Q114 278 121 295 Q113 279 104 264 Q95 249 90 232 Z M115 214 L116 213 Q119 217 123 225.5 Q127 234 131 242.5 Q135 251 137.5 258.5 Q140 266 140 268 Q133 254 127 241 Q121 228 115 214 Z M127 277 L126 277 Q120 266 114.5 254 Q109 242 104 231 L105 231 Q111 242 116.5 253.5 Q122 265 127 277 Z M118 271 Q112 262 107 252.5 Q102 243 99 232 Q104 242 108.5 251.5 Q113 261 118 271 Z " />
<glyph glyph-name="s" unicode="s" horiz-adv-x="277" d="M107 227 Q112 250 105.5 272.5 Q99 295 94 305 Q84 323 80.5 329.5 Q77 336 77 349 Q56 328 41.5 308 Q27 288 11 267 Q7 262 1 265 Q-5 268 -10 271 Q-13 273 -13 276.5 Q-13 280 -11 282 Q2 304 19 327 Q37 353 56 374.5 Q75 396 102 410 Q134 426 168 411 Q180 404 185 397.5 Q190 391 191.5 386 Q193 381 192 377.5 Q191 374 190 372 Q188 366 184 370 Q181 372 174.5 379 Q168 386 157 384 Q151 382 145 378.5 Q139 375 134 370 Q129 365 126.5 358.5 Q124 352 126 346 Q129 330 137.5 317.5 Q146 305 154 291 Q161 277 163 262.5 Q165 248 165 232 Q165 227 164.5 221 Q164 215 163 209 Q182 212 198 221.5 Q214 231 228.5 243.5 Q243 256 255 271 Q267 286 277 300 Q293 298 294 292.5 Q295 287 291 282 Q280 265 264 243.5 Q248 222 225 205 Q209 194 194 190.5 Q179 187 162 187 Q159 188 156 184 Q150 167 137 151 Q124 135 107.5 124 Q91 113 72 109.5 Q53 106 35 115 Q18 123 6 132 Q-6 141 -11 160 Q-14 182 -5 197.5 Q4 213 19 222 Q34 231 52.5 234 Q71 237 88 233 Q93 231 97.5 230 Q102 229 107 227 Z M45 212 Q25 205 17.5 186 Q10 167 24 150 Q29 146 37 147 Q40 148 48 151 Q56 154 66 161 Q76 168 85.5 179 Q95 190 100 207 Q100 211 98 212 Q91 214 80.5 216 Q70 218 45 212 Z M122 154 Q129 159 135 168 Q141 177 142 188 Q137 177 132.5 169.5 Q128 162 122 154 Z M131 377 Q126 375 121.5 370.5 Q117 366 119 361 Q120 366 123.5 369.5 Q127 373 131 377 Z " />
<glyph glyph-name="t" unicode="t" horiz-adv-x="193" d="M205 280 Q185 248 166 222.5 Q147 197 122 171 Q97 144 69 133 Q62 130 56 128.5 Q50 127 43 129 Q39 130 35.5 131.5 Q32 133 28 135 Q13 141 3 148 Q-20 164 -22 195 Q-23 212 -20 229 Q-17 246 -12 263 Q-2 295 10.5 326 Q23 357 37 388 Q45 405 52.5 421.5 Q60 438 68 455 Q68 455 70 459 L65 459 Q57 460 48 460 Q39 460 31 462 Q17 464 10 473 Q5 478 12 480 Q14 480 15.5 480.5 Q17 481 19 481 Q35 482 50 482.5 Q65 483 81 484 Q83 484 87 488 Q96 504 105.5 519 Q115 534 124 549 L136 564 Q140 570 149 570 Q151 569 153 568.5 Q155 568 157 567 L157 566 Q158 566 160 568 Q160 565 161 564 Q166 569 170 562 Q171 561 171 559 Q178 557 178 552.5 Q178 548 177 543 Q175 536 173.5 529.5 Q172 523 170 516 Q168 511 165.5 505.5 Q163 500 161 494 Q161 493 159 489 L165 489 Q179 487 192.5 486 Q206 485 220 483 Q233 481 239 475 Q242 471 240 465 Q239 464 234 464 Q222 463 210 463.5 Q198 464 186 464 Q177 463 168 463 Q159 463 151 462 Q146 462 146 459 Q120 408 97.5 357.5 Q75 307 56 254 Q42 219 39 185 L39 165 Q43 167 45.5 167 Q48 167 50 168 Q67 174 80.5 183.5 Q94 193 107 204 Q115 212 130 228 Q145 244 159 260 Q176 278 193 300 Q208 298 209 292 Q210 286 205 280 Z M39 254 L40 254 Q60 307 83 358.5 Q106 410 132 461 Q127 461 125 456 Q105 418 87.5 378.5 Q70 339 54 298 Q49 287 46 276 Q43 265 39 254 Z M92 458 Q67 411 45.5 362.5 Q24 314 7 263 Q27 314 48 362 Q69 410 92 458 Z M86 415 Q70 381 55 346 Q40 311 27 275 Q42 310 57 345 Q72 380 86 415 Z M18 269 L66 386 Q52 357 40 328 Q28 299 18 269 Z M141 489 L143 487 Q144 489 145 489.5 Q146 490 147 491 Q151 502 155 511.5 Q159 521 163 532 Q164 534 164 535 Q164 536 165 538 L164 538 Q159 525 153 513 Q147 501 141 489 Z " />
<glyph glyph-name="u" unicode="u" horiz-adv-x="341" d="M350 267 Q326 232 301.5 199 Q277 166 245 140 Q240 135 234.5 132 Q229 129 224 126 Q212 119 198 126 Q193 129 188 131 Q183 133 178 135 Q143 152 140 191 Q139 197 139.5 203 Q140 209 140 215 Q129 202 117.5 189.5 Q106 177 92 166 Q80 158 67 152.5 Q54 147 40 155 Q35 157 31 159 Q27 161 22 163 Q-10 179 -17 210 Q-21 228 -16 250.5 Q-11 273 -2 294.5 Q7 316 18 336 Q29 356 38 370 Q44 379 51 387.5 Q58 396 65 404 Q73 412 80 411 Q85 410 88.5 409.5 Q92 409 97 408 Q101 406 101 402 Q100 400 100.5 399.5 Q101 399 101 397 Q103 399 103 399.5 Q103 400 104 401 L106 401 Q106 399 106.5 397 Q107 395 107 393 Q105 387 103.5 381 Q102 375 99 370 Q93 356 86 343 Q79 330 73 317 Q61 292 52 267 Q43 242 38 215 Q37 209 36.5 202.5 Q36 196 38 189 Q41 184 46 185 Q62 190 73 198 Q90 210 104 224.5 Q118 239 131 254 Q145 271 157 286.5 Q169 302 177 320 Q187 342 198.5 363 Q210 384 224 404 Q225 406 225.5 406.5 Q226 407 227 409 Q231 414 233.5 415 Q236 416 243 415 Q243 411 242 408 Q245 413 247 414 Q253 412 255 412 Q259 412 261 410 Q263 408 265 406 L265 405 Q273 402 273 397 Q273 392 272 387 Q271 373 266 359 Q261 348 257 337 Q253 326 248 315 Q239 293 232.5 276.5 Q226 260 217 238 Q212 221 204.5 199.5 Q197 178 200 161 Q220 169 236.5 181 Q253 193 267 208 Q275 217 285.5 229.5 Q296 242 306.5 255.5 Q317 269 326.5 281 Q336 293 341 301 Q358 299 357.5 288.5 Q357 278 350 267 Z M261 380 Q259 381 259 381 Q258 380 258 379 Q252 367 246.5 355 Q241 343 236 331 Q225 308 215.5 285.5 Q206 263 198 240 Q196 235 195.5 230.5 Q195 226 193 222 Q198 232 203 247 Q214 271 224.5 295 Q235 319 246 343 Q251 352 254 361.5 Q257 371 261 380 Z M98 392 Q79 360 61 327.5 Q43 295 35 257 Q47 293 64 326 Q81 359 98 392 Z M32 328 Q24 312 17 295.5 Q10 279 6 262 Q13 279 19 295 Q25 311 32 328 Z M179 242 Q181 241 181 241 Q186 254 191 267 Q196 280 201 293 L200 293 L179 242 Z M172 238 Q173 237 173 237 Q177 248 180.5 258 Q184 268 188 278 Q187 279 187 279 Q183 268 179.5 258 Q176 248 172 238 Z M163 237 Q164 236 164 236 Q166 241 167.5 246 Q169 251 171 256 L170 257 Q168 252 166.5 247 Q165 242 163 237 Z M35 303 L33 303 Q31 295 28 288.5 Q25 282 23 275 L24 274 Q27 282 29.5 288.5 Q32 295 35 303 Z M15 271 Q16 271 17 270 Q19 276 21 282 Q23 288 25 294 L24 294 Q22 288 19.5 282.5 Q17 277 15 271 Z " />
<glyph glyph-name="v" unicode="v" horiz-adv-x="340" d="M83 377 Q85 380 87 383 Q89 386 91 389 Q93 383 93 381 Q92 371 88 358 Q83 347 78 337.5 Q73 328 68 317 Q56 289 47 261 Q38 233 33 204 Q31 195 30 185.5 Q29 176 31 167 Q33 157 35 156 Q37 155 46 157 Q58 159 68.5 163.5 Q79 168 90 175 Q122 195 150 225 Q153 227 152 231 Q138 260 140.5 287.5 Q143 315 156 342 Q164 362 184 378 Q205 394 228 386 Q240 382 246.5 372.5 Q253 363 251 351 Q249 334 243 319 Q237 304 229 289 Q211 254 186 225 Q183 221 186 217 Q201 199 225 204 Q242 208 257 216.5 Q272 225 286 236 Q297 245 305.5 256 Q314 267 323 278 Q325 280 327.5 283.5 Q330 287 333 291 Q337 295 340 300 Q351 298 353 293 Q355 288 351 281 L337 260 Q317 232 290.5 209 Q264 186 231 182 Q214 180 197.5 187.5 Q181 195 172 204 Q171 205 163 197 Q155 189 149 184 Q127 164 105 146 Q86 130 63 126 Q44 123 29 131 Q25 133 21.5 134.5 Q18 136 14 138 Q-20 154 -22 194 Q-22 238 -5.5 285.5 Q11 333 35 368 Q40 374 45 380.5 Q50 387 55 393 Q63 399 68 398 Q70 397 73.5 397.5 Q77 398 79 395 Q80 395 80 395 Q83 396 85.5 394 Q88 392 87 389 Q85 381 83 377 Q80 372 77 366 Q74 360 71 354 Q60 335 52.5 315 Q45 295 38 275 Q37 274 37 271 Q41 281 44.5 291 Q48 301 53 311 Q59 324 65.5 336.5 Q72 349 78 362 Q80 366 80.5 369.5 Q81 373 83 377 Z M172 251 Q175 252 175 254 Q184 268 193 282 Q202 296 211 310 Q223 329 226 352 Q226 356 226.5 359.5 Q227 363 225 367 Q210 364 198 349 Q168 313 171 262 Q171 260 171.5 257 Q172 254 172 251 Z M11 279 Q18 294 24 309.5 Q30 325 37 341 Q28 327 22 311 Q16 295 11 279 Z M185 345 L184 345 Q181 340 178.5 334.5 Q176 329 173 323 L174 322 Q177 328 180 333.5 Q183 339 185 345 Z M33 317 L32 317 Q30 311 27 304.5 Q24 298 22 291 L23 291 Q25 297 28 303.5 Q31 310 33 317 Z M31 300 L32 300 Q34 305 36.5 311 Q39 317 41 322 Q40 322 40 323 Q38 317 35.5 311.5 Q33 306 31 300 Z " />
<glyph glyph-name="w" unicode="w" horiz-adv-x="484" d="M228 404 Q229 405 229.5 406 Q230 407 232 409 Q233 408 233 408 Q233 404 232 401 Q234 403 236 407 L238 407 L238 404 Q244 406 246.5 403.5 Q249 401 251 397 Q258 396 258 388 Q258 375 255 363 Q250 346 244 329 Q238 312 233 295 Q227 275 221 255 Q215 235 209 215 Q206 204 204 193 Q202 182 203 171 Q204 159 205.5 158.5 Q207 158 217 161 Q234 166 248.5 175.5 Q263 185 276 197 Q282 202 287 207 Q292 212 297 217 Q298 217 298 221 Q272 276 292 336 Q301 365 324 388 Q346 409 375 397 Q396 388 397 365 Q399 346 395 328.5 Q391 311 385 293 Q379 273 369 256 Q359 239 347 222 Q345 220 343.5 217.5 Q342 215 340 212 Q349 202 363 205 Q374 207 383.5 211 Q393 215 403 220 Q423 232 438 247 Q453 262 467 280 Q471 286 477 292 Q481 296 484 300 Q498 299 500.5 291 Q503 283 500 278 Q495 270 489 261 Q477 244 463 228.5 Q449 213 432 201 Q415 189 395 181 Q369 172 344 185 Q340 187 336 189 Q332 191 327 193 Q323 189 317 181 Q293 151 265 131 Q245 117 222 116 Q216 116 210 118 Q204 120 199 122 Q194 124 190.5 126.5 Q187 129 182 131 Q143 147 138 191 Q137 194 137 202 Q135 200 134.5 199 Q134 198 133 197 Q123 184 113.5 171 Q104 158 93 146 Q86 138 76 131 Q62 120 46 126 Q37 131 27.5 135 Q18 139 10 144 Q-22 163 -22 202 Q-22 234 -11 267 Q4 321 33 372 Q37 378 41 383.5 Q45 389 50 394 Q56 402 67 402 Q71 402 70 398 Q72 399 73.5 400 Q75 401 77 398 L81 400 L81 396 L82 396 L86 398 Q91 395 92 391 Q93 389 93 387 Q93 385 94 383 L97 389 Q101 385 100 379 Q98 373 97 367 Q96 361 94 355 Q86 332 77.5 309 Q69 286 61 263 Q54 244 50 225 Q46 206 44 186 Q44 181 44.5 176 Q45 171 45 166 Q48 168 50.5 169 Q53 170 55 171 Q84 190 106 220 Q130 252 150 282 Q153 285 155 291 Q164 317 174.5 341 Q185 365 199 388 Q202 393 205 396.5 Q208 400 211 405 Q217 411 225 409 Q225 409 228 404 Z M368 375 Q357 371 347 355.5 Q337 340 330.5 321 Q324 302 322 283 Q320 264 325 252 L326 252 Q328 256 331 259 Q347 280 357.5 303 Q368 326 370 353 Q372 366 368 375 Z M89 376 Q87 375 80 360 Q73 345 65.5 326.5 Q58 308 52 290.5 Q46 273 46 268 Q57 294 67.5 321 Q78 348 89 376 Z M48 361 Q35 340 26 317.5 Q17 295 10 271 Q20 294 29 316 Q38 338 48 361 Z M204 264 Q205 264 205 263.5 Q205 263 206 263 L242 365 Q242 366 240 366 L204 264 Z M31 283 Q38 300 44.5 316.5 Q51 333 58 350 Q41 318 31 283 Z M20 276 L21 276 Q28 292 34 307.5 Q40 323 46 340 L45 340 Q39 324 32.5 308.5 Q26 293 20 276 Z M322 328 Q327 337 332 346 Q337 355 342 364 Q335 356 329.5 347.5 Q324 339 322 328 Z M377 285 Q376 286 375 286 Q366 269 356 251 Q357 251 358 250 Q363 259 367.5 268 Q372 277 377 285 Z M190 281 Q190 280 191 280 L197 298 L196 298 Q194 293 193 289 Q192 285 190 281 Z M310 349 L309 349 L303 334 L304 334 L310 349 Z " />
<glyph glyph-name="quotedblleft" unicode="&#x201c;" horiz-adv-x="270" d="M142 692 L142 686 Q143 685 143 686 Q144 686 144 686.5 Q144 687 145 687 Q152 688 160 680 Q166 675 163 668 L160 662 Q149 643 137.5 625 Q126 607 112 590 Q109 587 105 581 Q107 576 108.5 572.5 Q110 569 111 565 Q113 554 108.5 542 Q104 530 94 524 Q87 520 78 521 Q71 523 64 524.5 Q57 526 50 528 Q42 530 36.5 537 Q31 544 33 554 Q39 578 52 597 Q61 611 71 624.5 Q81 638 92 651 Q102 662 113 670.5 Q124 679 135 689 Q136 690 142 692 Z M193 579 Q197 577 198 576 Q219 554 199 531 Q188 519 174 523 Q164 526 155.5 529 Q147 532 139 540 Q132 547 133 556 Q134 564 138 575 Q148 596 160.5 615.5 Q173 635 187 653 Q189 655 192 657.5 Q195 660 197 662 Q200 666 203.5 669 Q207 672 210 677 Q213 682 218 679 Q221 677 223.5 676 Q226 675 229 673 Q242 667 236 654 Q226 634 214 613 Q206 599 193 579 Z M171 613 Q167 607 163.5 601.5 Q160 596 157 591 Q165 596 171 613 Z " />
<glyph glyph-name="quoteleft" unicode="&#x2018;" horiz-adv-x="169" d="M95 595 Q97 594 97 593.5 Q97 593 98 592 Q125 574 106 545 Q99 535 87 537 Q71 539 61 548 Q51 557 44 571 Q40 579 42 591 Q47 609 55 621 Q66 635 76.5 648.5 Q87 662 98 675 Q102 680 107.5 683.5 Q113 687 119 692 Q124 694 125 690 Q126 690 126.5 689.5 Q127 689 128 689 Q131 687 134 686.5 Q137 686 140 684 Q148 679 145 670 Q142 656 133 644 Q125 633 117 623.5 Q109 614 101 603 Q99 601 95 595 Z M56 597 Q58 601 60 604.5 Q62 608 64 613 Q59 608 57.5 605.5 Q56 603 56 597 Z " />
<glyph glyph-name="quotedblright" unicode="&#x201d;" horiz-adv-x="285" d="M145 518 Q146 521 146 524 Q145 525 145 524 Q144 524 144 523.5 Q144 523 143 523 Q138 521 134.5 524 Q131 527 128 530 Q122 534 125 542 Q125 544 126 545 Q127 546 128 548 Q139 567 150.5 585 Q162 603 176 620 Q178 622 179.5 624.5 Q181 627 183 629 Q181 634 179 637.5 Q177 641 176 645 Q174 656 179 668 Q184 680 194 686 Q200 691 210 689 Q217 687 223.5 685.5 Q230 684 238 682 Q246 680 251.5 673 Q257 666 254 656 Q250 633 236 613 Q226 599 216.5 585.5 Q207 572 196 559 Q186 548 175 539 Q164 530 153 521 Q149 519 145 518 Z M94 631 Q93 632 92 632.5 Q91 633 90 634 Q68 656 89 678 Q99 691 114 687 Q123 683 132 680.5 Q141 678 148 670 Q157 663 154 654 Q153 649 152 644 Q151 639 149 634 Q139 614 127 594.5 Q115 575 100 557 L91 548 Q87 544 84 540.5 Q81 537 78 533 Q75 528 70 531 Q67 533 64.5 533.5 Q62 534 59 536 Q46 543 52 556 Q62 576 74 597 Q79 605 84 613.5 Q89 622 94 631 Z M117 597 Q121 603 124 608.5 Q127 614 131 619 Q121 614 117 597 Z " />
<glyph glyph-name="quoteright" unicode="&#x2019;" horiz-adv-x="177" d="M94 630 Q92 631 92 631.5 Q92 632 91 633 Q77 642 75 654.5 Q73 667 83 680 Q89 690 102 688 Q118 686 128 677 Q138 668 145 654 Q149 645 146 634 Q144 626 141.5 618.5 Q139 611 134 604 L92 550 Q87 545 81.5 541.5 Q76 538 70 534 Q68 532 66.5 532 Q65 532 64 535 Q64 536 61 536 Q58 538 55 538.5 Q52 539 50 541 Q41 545 44 555 Q47 570 56 582 Q64 592 72 601.5 Q80 611 88 622 Q90 624 94 630 Z M133 628 Q131 624 129 620.5 Q127 617 125 613 Q130 618 131.5 620 Q133 622 133 628 Z " />
<glyph glyph-name="exclam" unicode="&#x21;" horiz-adv-x="236" d="M226 486 Q235 481 237 472.5 Q239 464 237 455 Q235 441 230 427 Q225 413 220 399 Q208 364 193 331 Q178 298 164 264 Q156 247 149.5 230 Q143 213 136 196 Q131 184 124 174.5 Q117 165 109 155 Q107 152 106 152 Q101 152 99 153 Q98 153 98.5 155 Q99 157 99 158 Q101 161 102 163.5 Q103 166 104 169 Q102 165 99.5 162 Q97 159 95 155 Q92 156 88 158 L88 163 Q86 160 85 160 Q83 161 82 161 Q81 161 79 162 Q79 162 78 164 Q75 164 72 167 Q69 170 69 174 Q69 178 70 182 Q71 186 71 190 Q72 216 80 239 Q88 262 98 285 Q117 330 136.5 373 Q156 416 176 460 Q179 467 183.5 473.5 Q188 480 192 486 Q197 494 207 492 Q207 489 206 486 Q208 488 210 493 Q215 491 218.5 489.5 Q222 488 226 486 Z M197 431 Q192 418 186 405 Q180 392 175 378 L176 378 Q181 392 187 404.5 Q193 417 198 431 L197 431 Z M89 200 Q111 268 140 331.5 Q169 395 196 461 Q195 459 194 458 Q193 457 192 455 Q178 422 163.5 389.5 Q149 357 135 325 Q124 299 113.5 273.5 Q103 248 94 221 L88 200 L89 200 Z M93 188 Q101 211 109 233 Q117 255 125 278 L124 278 Q116 255 107.5 233.5 Q99 212 91 189 Q92 189 93 188 Z M99 190 Q110 219 121 247.5 Q132 276 143 305 L142 306 Q131 277 120 248.5 Q109 220 98 191 L99 190 Z M217 430 Q219 435 220.5 441 Q222 447 224 453 Q218 439 212 425 Q206 411 201 397 L177 340 Q171 326 165 312.5 Q159 299 153 285 Q147 271 141.5 256.5 Q136 242 130 228 Q125 214 118.5 200 Q112 186 106 172 Q109 175 109 174 Q113 182 117 188.5 Q121 195 124 202 Q135 228 146 254.5 Q157 281 168 307 Q180 338 192.5 368.5 Q205 399 217 430 Z M61 143 Q80 143 91 131 Q97 125 95 112 Q94 104 91.5 96 Q89 88 82 82 Q72 72 59 79 Q54 81 50 83 Q46 85 41 87 Q28 94 31 106 Q33 117 37 124 Q41 131 46 136 Q52 143 61 143 Z " />
<glyph glyph-name="quotedbl" unicode="&#x22;" horiz-adv-x="309" d="M143 525 Q144 528 144 531 L142 531 Q142 530 141 530 Q136 529 132.5 531.5 Q129 534 125 537 Q120 541 123 549 L126 555 Q137 574 148.5 592 Q160 610 174 627 Q178 633 181 636 Q179 641 177 644.5 Q175 648 174 652 Q172 663 177 675 Q182 687 192 693 Q199 697 208 696 Q215 694 221.5 692.5 Q228 691 236 689 Q244 687 249 680 Q254 673 252 663 Q248 640 234 620 Q224 606 214.5 592.5 Q205 579 194 566 Q184 555 173 546.5 Q162 538 151 528 Q147 526 143 525 Z M92 638 Q91 639 90 639.5 Q89 640 88 641 Q66 662 87 685 Q98 698 112 694 Q121 691 130 688 Q139 685 146 677 Q155 670 152 661 Q151 656 150 651.5 Q149 647 147 642 Q127 599 98 564 Q96 562 93.5 559.5 Q91 557 89 555 Q85 551 82 547.5 Q79 544 76 540 Q72 536 68 538 Q65 540 62 540.5 Q59 541 57 543 Q44 550 50 563 Q55 573 60.5 583 Q66 593 72 604 Q77 612 82 620.5 Q87 629 92 638 Z M115 604 Q119 610 122 615.5 Q125 621 129 626 Q119 621 115 604 Z " />
<glyph glyph-name="numbersign" unicode="&#x23;" horiz-adv-x="432" d="M291 260 Q301 259 310.5 258.5 Q320 258 329 256 Q334 255 338 254.5 Q342 254 347 252 Q353 249 358 242 Q362 238 358 231.5 Q354 225 349 225 Q348 225 344 227 Q344 228 345 228 Q328 227 310.5 227 Q293 227 276 226 Q272 226 271 222 Q266 215 261.5 208.5 Q257 202 251 196 Q246 191 242.5 185.5 Q239 180 235 175 Q233 169 230 172 Q229 172 229 173.5 Q229 175 228 176 Q227 173 222 175 Q220 177 219 177 Q211 181 212 190 Q214 195 215 198.5 Q216 202 218 207 Q220 212 220.5 215.5 Q221 219 223 224 Q221 224 220 224.5 Q219 225 218 225 Q205 225 193 224.5 Q181 224 168 225 Q164 225 161 221 Q157 213 151 206 Q145 199 139 192 Q136 189 134 185 Q131 177 124 182 Q121 184 115 186 Q102 192 108 205 Q110 210 112 215.5 Q114 221 116 227 Q110 228 105 229 Q100 230 95 231 Q79 234 66 241 Q64 243 64 243 Q63 245 62 246.5 Q61 248 61 250 Q61 251 63 252 Q65 253 67 253 Q72 254 77 254 Q82 254 87 254 L126 254 Q128 254 131 257 Q142 274 151.5 290 Q161 306 171 323 Q172 324 172 324.5 Q172 325 173 326 Q167 327 161 327.5 Q155 328 149 328 Q138 329 129 332 Q120 335 111 340 Q111 341 110 341 Q109 341 109 342 Q108 344 106.5 346.5 Q105 349 106 351 Q106 354 109 354 Q112 354 114 354 Q133 355 151 355.5 Q169 356 188 357 Q194 357 197 362 Q205 374 214 386.5 Q223 399 231 411 Q234 415 236.5 417.5 Q239 420 244 420 Q248 419 254 417 Q258 417 258 417 Q260 415 262 413 Q264 411 266 409 Q267 407 266.5 405.5 Q266 404 266 402 Q261 393 257.5 384 Q254 375 250 366 Q248 362 246 359 L251 359 Q261 359 270 359 Q279 359 289 360 Q294 360 295 364 Q303 375 311 386 Q319 397 327 408 Q329 411 332 414 Q335 417 340 416 Q347 416 353 413 Q358 411 360 406 Q361 403 359 397 Q356 389 352.5 381.5 Q349 374 346 366 Q344 364 344 361 Q349 360 353.5 359.5 Q358 359 363 358 Q370 356 376.5 354.5 Q383 353 389 351 Q393 350 396 347.5 Q399 345 402 342 Q404 340 403.5 336 Q403 332 401 330 Q398 327 397 329 Q392 332 387.5 331.5 Q383 331 378 330 Q369 329 360.5 328.5 Q352 328 344 326 L327 326 Q326 326 323 323 Q315 308 307 292.5 Q299 277 291 262 L291 260 Z M273 325 L269 325 Q259 326 249 325.5 Q239 325 229 326 Q227 326 223 322 L187 262 Q186 260 185.5 259.5 Q185 259 184 257 L186 257 Q198 258 210 258 Q222 258 234 259 Q238 259 240 263 Q247 276 253 288.5 Q259 301 266 313 Q270 321 273 325 Z M170 256 Q172 256 173 257 Q184 274 194 291 Q204 308 215 325 Q213 325 206 315 Q199 305 191.5 293 Q184 281 177.5 270 Q171 259 170 256 Z M313 325 Q312 325 312 326 Q303 309 294.5 293 Q286 277 277 260 L279 260 Q288 276 296.5 292 Q305 308 313 325 Z M288 324 Q287 324 287 324.5 Q287 325 286 325 Q278 308 269.5 292.5 Q261 277 252 261 Q253 260 254 260 Q262 276 270.5 292 Q279 308 288 324 Z M261 225 Q260 225 259 226 Q253 215 245 204.5 Q237 194 232 182 Q240 193 246.5 203.5 Q253 214 261 225 Z M255 396 Q250 387 244.5 378 Q239 369 233 359 Q237 360 245 374 Q253 388 255 396 Z M351 398 Q346 388 341 379 Q336 370 331 361 Q334 363 342 377 Q350 391 351 398 Z M153 224 Q152 224 152 224.5 Q152 225 151 225 Q146 218 141 211 Q136 204 131 197 Q132 197 132 196 Q137 203 142.5 210 Q148 217 153 224 Z " />
</font>
</svg>
