<?xml version="1.0" encoding="UTF-8"?>
<svg xmlns="http://www.w3.org/2000/svg" xmlns:xlink="http://www.w3.org/1999/xlink" version="1.2" >
<font id="Borming">
<font-face  font-family="Borming" units-per-em="1000" ascent="750" descent="-250" font-style="normal" font-weight="400" font-stretch="normal" cap-height="700" x-height="500" underline-position="-75" underline-thickness="50" />
<missing-glyph  horiz-adv-x="209" d="" />
<glyph glyph-name="NULL" d="" />
<glyph glyph-name="nonmarkingreturn" unicode="&#xd;" horiz-adv-x="209" d="" />
<glyph glyph-name="space" unicode="&#x20;" horiz-adv-x="209" d="" />
<glyph glyph-name="dollar" unicode="&#x24;" horiz-adv-x="273" d="M97 57 Q102 60 102 55 Q102 49 99 46 Q90 39 89 29 Q86 10 96 -4 Q97 -6 100 -6 Q116 -2 129 11 Q140 22 147.5 34 Q155 46 160 60 Q163 70 166 79 Q169 88 169 98 Q172 127 155 146 Q152 149 149 149 Q142 151 135 153 Q128 155 120 157 Q109 162 99 166 Q89 170 81 178 Q67 188 64 206 Q62 219 65 231 Q68 243 73 255 Q82 279 105 294 Q107 296 108.5 296.5 Q110 297 112 299 Q114 299 114 302 Q112 319 112 336.5 Q112 354 112 371 Q112 375 113 378 Q115 383 120 381 L121 381 Q124 381 124 381 L125 380 L125 379 L125 374 Q127 376 127 379 Q128 380 129 380 L130 379 Q130 376 131 375 Q131 376 131.5 377 Q132 378 132 380 Q134 379 133.5 377.5 Q133 376 134 374 L135 375 Q136 380 141 377 Q144 374 144 368 Q144 367 145 366 Q145 367 147 371 Q152 366 150 360 Q150 346 149.5 332.5 Q149 319 149 305 Q149 302 152 301 Q177 297 191 275 Q195 270 196.5 265 Q198 260 200 255 Q200 250 198 244 Q198 241 195 241 Q190 241 190 244 Q188 244 187.5 244.5 Q187 245 186 245 Q184 247 181 247.5 Q178 248 176 250 Q171 252 168 259 Q166 263 163.5 267 Q161 271 159 275 Q158 277 155 277 Q136 277 123 262 Q104 240 101 210 Q101 205 103 195 Q105 187 112 186 Q117 184 121.5 183 Q126 182 131 180 Q140 178 148.5 176 Q157 174 165 169 Q184 158 196 142.5 Q208 127 211 105 Q213 95 211.5 85 Q210 75 208 65 Q199 25 171 -8 Q165 -15 158 -20.5 Q151 -26 142 -30 Q140 -31 140 -33 Q142 -50 143 -65.5 Q144 -81 146 -98 Q146 -103 146.5 -106.5 Q147 -110 147 -115 Q147 -119 145 -127 Q143 -136 135 -130 L135 -128 Q134 -127 134 -123 Q133 -125 133 -125 Q131 -130 129 -126 L128 -126 Q122 -126 124 -120 Q123 -122 121 -124 Q120 -122 120 -120 Q119 -121 118.5 -121 Q118 -121 117 -123 Q116 -121 116 -120 Q116 -119 115 -117 L113 -119 L113 -118 Q106 -111 106 -105 Q106 -91 106 -78 Q106 -65 105 -51 Q105 -47 105 -43 Q105 -39 106 -36 Q106 -34 103 -32 Q96 -28 89.5 -25.5 Q83 -23 76 -18 Q64 -9 58 7 Q52 23 57 38 Q58 42 62 48 Q64 51 67 54 Q70 57 72 61 Q79 68 88 65 Q90 64 91 64 Q92 64 94 63 Q98 61 97 57 Z M172 11 Q190 32 195 55 Q192 49 189.5 43.5 Q187 38 184 33 Q181 28 178 22.5 Q175 17 172 11 Z M112 263 Q107 258 103.5 250.5 Q100 243 98 237 Q102 244 105.5 250 Q109 256 112 263 Z M175 65 L163 38 Q168 45 170.5 51.5 Q173 58 175 65 Z M87 258 L86 258 Q84 253 82.5 249.5 Q81 246 79 241 L80 241 Q82 245 83.5 249 Q85 253 87 258 Z M90 46 Q84 42 85 36 Q86 40 90 46 Z M85 243 Q85 242 86 242 L89 251 L88 251 Q86 245 85 243 Z " />
<glyph glyph-name="percent" unicode="&#x25;" horiz-adv-x="202" d="M171 362 Q170 361 170 359 Q172 361 174 362 L174 360 Q175 360 175 360.5 Q175 361 176 361 L176 358 Q179 361 180 360 Q184 358 183 354 Q181 350 180 347 L181 347 Q182 349 183 351 Q184 353 185 355 Q189 353 187 350 Q186 345 185 340 Q184 335 182 330 Q162 266 143 202 Q124 138 106 72 Q98 41 90 9.5 Q82 -22 74 -54 Q69 -72 63.5 -90 Q58 -108 51 -127 Q51 -128 50.5 -128.5 Q50 -129 50 -130 Q47 -135 43 -131 Q42 -130 43 -129 Q43 -127 43.5 -126 Q44 -125 44 -123 Q43 -125 42 -126.5 Q41 -128 40 -130 Q38 -128 36 -128 Q34 -128 35 -124 Q33 -126 33 -127 Q31 -125 31 -125 Q21 -121 22 -109 Q25 -90 29 -71 Q33 -52 38 -34 Q45 -10 50.5 14 Q56 38 63 62 Q71 88 79 113 Q87 138 95 164 Q107 202 119 240 Q131 278 144 316 Q150 333 158 353 Q159 355 159.5 355.5 Q160 356 161 358 Q164 363 171 362 Z M66 270 Q68 272 70 274 Q72 276 74 278 Q93 305 85 339 Q83 345 77 350 Q75 351 73 357 Q71 363 78 363 Q81 362 84.5 362 Q88 362 91 361 Q106 357 114 342 Q122 325 120 302 Q117 273 100 255 Q94 249 90 247 Q79 241 67 247 Q64 249 61 249.5 Q58 250 56 252 Q35 262 30 286 Q26 316 40 346 Q41 347 41 347.5 Q41 348 42 349 Q46 355 54 352 Q57 352 59 351 Q61 351 62.5 350 Q64 349 66 348 Q70 348 67 345 L61 330 L61 328 Q63 333 65.5 336.5 Q68 340 70 345 Q73 342 72 339 Q71 336 71 333.5 Q71 331 69 329 Q61 306 62 286 Q62 278 66 270 Z M100 270 Q106 275 108 284 Q106 280 104 277 Q102 274 100 270 Z M49 340 L48 340 Q47 338 46.5 336 Q46 334 45 332 Q47 338 49 340 Z M117 -10 Q116 -14 115 -17 Q114 -20 113 -23 L114 -23 L117 -14 Q118 -12 118 -12 Q119 -11 120 -11 L120 -12 Q120 -15 118 -21 Q119 -19 120 -16.5 Q121 -14 122 -11 L123 -12 Q123 -16 122 -18 L123 -18 Q123 -17 123.5 -16 Q124 -15 124 -14 Q125 -12 127 -13 Q131 -15 130 -19 L130 -25 Q131 -23 131.5 -21.5 Q132 -20 133 -18 Q136 -21 135 -24 L132 -48 Q131 -55 131 -62 Q131 -69 130 -77 Q130 -78 130.5 -78.5 Q131 -79 131 -81 L133 -79 Q135 -76 136.5 -73.5 Q138 -71 140 -68 Q148 -51 150 -29 Q150 -20 145 -15 Q145 -14 143 -10 Q143 -4 148 -4 Q155 -5 161.5 -6.5 Q168 -8 173 -13 Q183 -22 183 -35 Q182 -51 178.5 -66 Q175 -81 166 -95 Q158 -110 143 -111 Q138 -112 131 -109 Q127 -107 124 -105.5 Q121 -104 117 -102 Q95 -91 95 -65 Q95 -39 105 -18 Q105 -17 105.5 -16.5 Q106 -16 106 -14 Q110 -9 117 -10 Z M168 -73 Q166 -76 164 -79.5 Q162 -83 160 -87 Q164 -84 165 -80.5 Q166 -77 168 -73 Z " />
<glyph glyph-name="ampersand" unicode="&#x26;" horiz-adv-x="356" d="M253 54 Q264 70 272 83 Q277 90 281 96 Q285 102 290 109 Q292 113 300 113 Q299 112 299 109 Q302 113 303 111 Q304 111 305 112 Q305 111 305.5 110.5 Q306 110 306 109 Q307 111 310 110 Q313 107 312 106 Q311 100 307 95 Q297 78 287 61.5 Q277 45 267 28 Q266 27 266 26.5 Q266 26 265 25 L266 25 Q266 26 266.5 26 Q267 26 267 27 Q278 44 287.5 59.5 Q297 75 307 92 L313 104 Q314 104 314 104.5 Q314 105 315 105 Q316 104 316 103 Q318 100 317 97.5 Q316 95 315 92 Q310 84 306 77.5 Q302 71 298 63 L271 18 Q270 16 270 14 Q297 -50 316 -115 Q317 -118 317.5 -120.5 Q318 -123 318 -126 Q319 -130 317 -134 Q316 -136 314 -136 Q312 -136 311 -134 Q310 -133 310 -133 Q308 -133 307 -132 Q305 -132 303.5 -131 Q302 -130 300 -129 Q297 -128 293 -122 Q288 -114 285 -106 Q282 -98 279 -90 Q273 -71 266.5 -52 Q260 -33 253 -14 Q253 -13 252 -11 Q251 -13 250 -14 Q237 -34 224 -52.5 Q211 -71 196 -89 Q185 -103 172.5 -114.5 Q160 -126 145 -134 Q137 -139 129 -142 Q121 -145 112 -146 Q100 -148 89 -143 L65 -131 Q54 -123 48.5 -113 Q43 -103 38 -91 Q31 -67 34 -38 Q36 -11 43.5 14 Q51 39 61 64 Q75 98 90 131 Q105 164 121 197 Q127 208 132.5 219.5 Q138 231 144 242 Q146 244 144 247 Q129 282 113.5 317.5 Q98 353 84 388 Q74 411 66 434.5 Q58 458 52 482 Q49 494 47 506.5 Q45 519 45 532 Q46 552 52.5 569 Q59 586 74 600 Q96 621 129 627 Q165 633 197 616 Q215 607 226.5 592.5 Q238 578 246 559 Q252 542 254.5 524 Q257 506 257 488 Q257 464 253 441 Q249 418 243 395 Q235 364 223.5 335 Q212 306 199 277 Q194 267 189.5 257 Q185 247 180 236 L180 232 L249 64 Q250 62 251 59.5 Q252 57 253 54 Z M161 278 L161 279 Q163 282 164 285.5 Q165 289 167 292 Q179 318 189.5 345 Q200 372 208 400 Q215 423 219 445.5 Q223 468 224 492 Q224 510 222 527.5 Q220 545 213 562 Q209 573 203.5 582 Q198 591 188 598 Q186 601 182 601 Q154 609 125 595 Q80 572 77 522 Q77 510 79 498 Q81 486 83 475 Q95 430 113 388 Q124 362 135.5 335.5 Q147 309 159 283 Q159 282 161 278 Z M164 200 Q163 199 163 198 Q149 169 134.5 139.5 Q120 110 107 79 Q98 56 89.5 33.5 Q81 11 74 -13 Q69 -30 67 -46 Q65 -62 67 -79 Q68 -89 70.5 -98 Q73 -107 79 -115 Q85 -124 95 -121 Q106 -119 115 -114 Q124 -109 133 -102 Q148 -91 160.5 -78 Q173 -65 184 -50 Q198 -32 210.5 -13 Q223 6 235 25 Q236 28 235 29 Q221 61 208 92.5 Q195 124 182 156 Q177 167 173 178 Q169 189 164 200 Z M159 211 L158 211 Q137 166 116.5 122.5 Q96 79 79 32 Q80 32 80 34 Q91 63 103.5 91 Q116 119 130 148 Q137 163 144 178 Q151 193 159 208 L159 211 Z M175 244 L176 244 Q187 270 198.5 295.5 Q210 321 219 347 Q217 342 215.5 338 Q214 334 212 329 L176 248 Q175 247 175 244 Z M64 43 Q77 75 91 106 Q105 137 119 169 Q104 138 90 106.5 Q76 75 64 43 Z M199 342 Q191 322 182.5 303.5 Q174 285 166 265 Q175 284 183.5 303 Q192 322 199 342 Z M223 -39 Q230 -30 236.5 -21 Q243 -12 249 -2 L248 -2 Q242 -11 235.5 -20 Q229 -29 223 -39 Z M88 575 Q83 570 80 565 Q77 560 76 553 Q79 559 82 564.5 Q85 570 88 575 Z M122 174 Q124 178 126 182 Q128 186 130 190 L129 190 Q127 186 125.5 182.5 Q124 179 122 174 Z M141 213 L141 214 Q139 210 137.5 206.5 Q136 203 134 199 L140 211 Q141 213 141 213 Z M60 561 Q60 560 61 560 Q62 563 63 565.5 Q64 568 65 571 Q63 569 62.5 566 Q62 563 60 561 Z " />
<glyph glyph-name="quotesingle" unicode="&#x27;" horiz-adv-x="100" d="M48 540 L45 540 Q43 541 42.5 541.5 Q42 542 40 543 Q32 546 32 556 Q33 570 34 585 Q35 600 37 614 L37 616 Q39 623 48 623 Q48 620 47 619 L50 622 Q52 623 51 621.5 Q50 620 52 621 Q52 622 54 620 Q58 622 60 617 Q61 616 61 616 Q64 614 64 612 L64 598 L58 550 Q58 547 56 541 Q56 537 52 537 Q48 537 48 540 Z " />
<glyph glyph-name="parenleft" unicode="&#x28;" horiz-adv-x="199" d="M166 606 Q167 609 170 610 Q172 607 171 606 Q171 601 170 599 Q157 582 147.5 563.5 Q138 545 129 526 Q115 495 104.5 464 Q94 433 87 400 Q69 310 67.5 219 Q66 128 79 39 Q84 3 95 -31 Q106 -65 123 -97 Q125 -102 127.5 -106.5 Q130 -111 132 -116 Q136 -121 134 -128 Q132 -135 127 -130 Q126 -129 125 -129 Q124 -129 123 -128 Q119 -127 113 -123 Q109 -120 106 -116 Q96 -102 87.5 -87 Q79 -72 73 -55 Q58 -19 50 18 Q42 55 39 92.5 Q36 130 36.5 167 Q37 204 38 240 Q43 320 56 394.5 Q69 469 103 539 Q110 554 116.5 568.5 Q123 583 132 597 Q134 600 137 603.5 Q140 607 142 611 Q148 619 158 616 Q160 615 161 615 Q162 615 163 614 Q169 613 167 608 Q166 607 166 606 Z M158 595 Q140 569 127.5 541 Q115 513 104 484 Q116 513 128.5 540.5 Q141 568 158 595 Z " />
<glyph glyph-name="asterisk" unicode="&#x2a;" horiz-adv-x="242" d="M130 413 Q137 420 143 426 Q149 432 155 437 Q161 443 166 443 Q169 442 171.5 441.5 Q174 441 177 440 Q182 438 179 435 L181 435 Q182 435 182 436 Q184 434 184 432 Q183 430 182.5 428 Q182 426 180 424 Q172 416 164 407.5 Q156 399 148 391 L149 390 Q156 390 163 390 Q170 390 177 389 Q182 389 192 391 Q193 391 193.5 390.5 Q194 390 195 390 Q197 390 198 389.5 Q199 389 200 389 L201 388 Q207 388 206 382 Q207 383 207.5 383 Q208 383 209 384 Q212 380 210.5 376 Q209 372 205 370 Q203 369 199 369 L161 369 L146 369 L148 367 Q156 359 165 351.5 Q174 344 182 336 Q184 335 186 333 Q188 331 188 326 Q186 321 185 320.5 Q184 320 179 322 Q167 327 158 335 Q149 343 139 351 Q137 353 134.5 355 Q132 357 129 359 Q129 354 128.5 349.5 Q128 345 128 340 Q127 332 127 325 Q127 318 127 310 Q126 308 126 307 Q126 306 125 304 Q123 299 120 302 Q121 302 118 305 L116 303 Q113 306 111 307 Q111 306 110 306 L110 307 Q101 310 101 321 Q101 326 100.5 331 Q100 336 100 341 L100 344 L98 342 L74 318 Q72 316 70 314 Q68 312 66 310 Q63 308 58 310 Q59 311 60 313 Q57 311 55.5 311.5 Q54 312 52 313 Q50 315 48.5 315 Q47 315 45 316 Q39 322 44 327 Q52 335 60.5 344 Q69 353 78 362 L80 364 L77 364 Q72 363 68 363 Q64 363 60 363 Q54 361 50 365 Q48 367 45.5 367.5 Q43 368 41 369 Q35 373 34 376 Q31 381 38 383 Q43 384 46.5 384 Q50 384 54 385 Q62 386 70 386.5 Q78 387 86 388 Q86 389 88 389 Q87 390 86.5 390 Q86 390 85 391 Q65 406 50 421 Q48 423 47.5 424.5 Q47 426 45 428 Q42 431 44 434 Q46 438 51 436 Q53 436 59 434 Q61 433 62.5 432.5 Q64 432 66 430 Q72 425 78 420 Q84 415 90 410 Q92 408 94.5 406 Q97 404 100 402 L100 406 Q101 414 101 422 Q101 430 101 438 Q101 440 101.5 441.5 Q102 443 102 445 Q103 452 112 451 Q112 447 111 446 L112 446 Q112 447 112.5 447.5 Q113 448 113 449 L115 451 L115 449 Q115 447 115 447 Q117 449 117 450 L118 450 L118 446 Q119 447 119 449 Q125 449 125 443 Q127 445 127.5 444 Q128 443 129 442 Q130 438 130 431 Q131 426 130.5 422 Q130 418 130 413 Z " />
<glyph glyph-name="parenright" unicode="&#x29;" horiz-adv-x="140" d="M31 613 L34 613 L38 613 Q39 612 40 611.5 Q41 611 43 609 L43 608 Q44 607 45 608 Q46 608 46 607 Q46 605 47 605 Q49 600 50.5 595 Q52 590 54 585 Q64 556 72 528 Q80 500 86 471 Q96 418 101 366 Q104 337 105 307 Q106 277 106 247 Q105 216 103.5 185 Q102 154 98 123 Q95 99 92.5 75 Q90 51 86 27 Q81 -4 74.5 -33.5 Q68 -63 57 -92 Q54 -100 50.5 -107.5 Q47 -115 43 -123 Q40 -129 35 -126 Q39 -118 43 -109.5 Q47 -101 50 -93 L49 -93 Q47 -98 45 -102 Q43 -106 41 -111 L35 -123 Q33 -125 32 -124 Q32 -124 28 -122 Q27 -122 27 -121 L24 -121 L24 -118 Q23 -121 21 -117 Q18 -114 20 -109 Q22 -105 22.5 -101.5 Q23 -98 25 -94 Q27 -85 29 -76 Q31 -67 33 -58 Q38 -36 43.5 -14 Q49 8 52 31 Q58 61 61 95 Q63 112 65 128 Q67 144 69 161 Q71 177 71.5 192 Q72 207 73 222 Q75 244 75 265.5 Q75 287 74 309 Q73 341 71 372.5 Q69 404 64 436 Q53 499 37 558 Q34 570 30.5 582 Q27 594 23 606 L23 609 Q22 614 27 614 Q31 616 31 613 Z " />
<glyph glyph-name="plus" unicode="&#x2b;" horiz-adv-x="200" d="M161 228 Q161 227 160.5 226.5 Q160 226 160 224 Q158 221 156 222 Q154 222 152 222.5 Q150 223 148 223 Q138 223 129 222.5 Q120 222 110 222 L108 222 L108 220 Q108 209 108 199.5 Q108 190 109 179 L109 153 L109 143 Q107 140 105 141 Q102 141 102 145 Q102 143 100 143 Q98 145 95.5 145.5 Q93 146 91 148 Q87 151 87 155 Q85 171 84.5 186.5 Q84 202 83 217 L83 220 Q80 220 77.5 219.5 Q75 219 73 219 Q67 219 61.5 218.5 Q56 218 50 217 Q46 217 44 219 Q42 221 40.5 221 Q39 221 37 222 Q35 224 33 225 Q31 226 29 228 Q23 236 33 236 Q38 237 43.5 237.5 Q49 238 54 238 Q61 239 67 239.5 Q73 240 80 240 L82 240 L82 244 Q81 256 81 268.5 Q81 281 81 293 L81 298 Q82 303 84 304 Q86 305 91 305 Q91 303 90.5 302 Q90 301 90 299 Q91 300 91 300.5 Q91 301 92 302 Q92 302 94 304 L94 302 L94 300 Q95 301 95 302 Q95 303 96 304 Q96 301 97 300 Q97 301 97.5 301.5 Q98 302 98 303 Q103 302 103 295 Q105 297 105 298 Q108 295 108 291 Q108 286 108 281 Q108 276 107 271 L107 241 L111 241 Q119 241 126.5 241 Q134 241 142 240 Q147 240 152 237 Q154 237 157 234 L161 230 L161 228 Z " />
<glyph glyph-name="comma" unicode="&#x2c;" horiz-adv-x="102" d="M46 -73 Q46 -72 47 -71 Q47 -70 47.5 -69.5 Q48 -69 49 -71 L53 -71 Q57 -71 59 -75 Q61 -77 62 -77 Q63 -78 63 -79 Q65 -87 65 -91 Q66 -101 65 -110.5 Q64 -120 62 -131 Q60 -141 59 -150.5 Q58 -160 56 -171 Q56 -173 55.5 -175 Q55 -177 55 -179 Q55 -184 51 -184 Q49 -184 47 -179 L45 -181 Q44 -180 43 -179.5 Q42 -179 41 -178 Q40 -177 37 -177 L36 -177 Q29 -170 29 -164 L32 -125 Q33 -113 33.5 -100.5 Q34 -88 36 -75 Q36 -67 44 -69 Q45 -69 45 -71 Q45 -71 45 -73 L46 -73 Z " />
<glyph glyph-name="hyphen" unicode="&#x2d;" horiz-adv-x="213" d="M159 222 Q141 222 123 221 Q105 220 86 218 Q81 217 77.5 217 Q74 217 69 216 Q65 216 64 218 Q63 218 62 219 Q59 220 55 222 Q53 223 52 224.5 Q51 226 49 228 Q47 233 53 235 Q58 236 66 236 Q83 238 98.5 238.5 Q114 239 131 240 Q137 240 143 239.5 Q149 239 155 237 Q157 236 157.5 235.5 Q158 235 160 234 Q160 233 160.5 233 Q161 233 161 232 Q163 232 163 230 Q163 225 162 223 Q161 222 161 222 Q160 222 160 221 Q159 221 159 222 Z " />
<glyph glyph-name="period" unicode="&#x2e;" horiz-adv-x="134" d="M87 -121 Q86 -123 85.5 -126 Q85 -129 84 -131 Q80 -139 71 -134 Q69 -132 67 -131.5 Q65 -131 63 -130 Q53 -127 49.5 -118.5 Q46 -110 51 -101 Q53 -96 60 -98 Q63 -98 65.5 -98.5 Q68 -99 71 -100 Q74 -101 80 -105 Q85 -108 85 -112 Q85 -116 87 -121 Z " />
<glyph glyph-name="slash" unicode="&#x2f;" horiz-adv-x="194" d="M182 569 Q180 563 179 557 Q178 551 176 546 L152 432 L137 351 L125 282 Q123 266 120 250.5 Q117 235 115 219 Q112 199 108.5 180 Q105 161 101 141 Q97 117 93 92.5 Q89 68 84 44 Q79 17 74.5 -10.5 Q70 -38 65 -65 Q64 -73 62.5 -80 Q61 -87 59 -95 Q58 -100 58 -105.5 Q58 -111 57 -117 L57 -127 Q57 -130 54 -130 Q51 -130 50 -127 L47 -127 Q45 -125 42.5 -124.5 Q40 -124 38 -122 Q36 -121 34 -117 Q33 -115 33 -112 Q33 -109 32 -107 Q32 -98 33 -93 Q34 -66 37.5 -39.5 Q41 -13 46 14 Q56 65 65.5 116.5 Q75 168 84 219 Q91 256 97 292.5 Q103 329 110 366 Q115 394 120.5 421 Q126 448 133 475 Q138 496 142.5 516.5 Q147 537 152 558 Q153 563 154 567 Q155 571 157 576 Q159 581 167 581 Q164 576 163 570 Q165 573 166 576 Q167 579 169 581 L169 577 Q170 578 170 578.5 Q170 579 171 580 Q171 579 172 579 Q171 578 171 576 Q173 578 173 579 Q178 578 177 573 Q176 571 176 567 Q177 569 177.5 571 Q178 573 180 575 Q180 574 182 572 L182 569 Z " />
<glyph glyph-name="zero" unicode="0" horiz-adv-x="311" d="M282 169 Q282 161 281.5 147.5 Q281 134 280 120 Q279 106 278.5 93 Q278 80 277 72 Q271 16 251 -40 Q240 -72 222 -94 Q214 -105 203.5 -114.5 Q193 -124 179 -130 Q155 -141 130 -128 Q125 -125 119 -122.5 Q113 -120 108 -117 Q97 -111 88 -102 Q79 -93 72 -82 Q56 -54 47 -17 Q38 20 34.5 61.5 Q31 103 32.5 147 Q34 191 38 232.5 Q42 274 48.5 310 Q55 346 61 373 Q74 426 95 472 Q103 488 111.5 502 Q120 516 131 529 Q135 534 138.5 538 Q142 542 147 546 Q165 561 188 555 Q192 555 198 553 Q204 551 208 547.5 Q212 544 216 540 Q217 540 217 539.5 Q217 539 218 539 Q220 537 224 535 Q229 531 233 526.5 Q237 522 240 517 Q243 512 246 507 Q249 502 252 497 Q268 459 273 421 Q278 383 280 345 Q282 321 282.5 300 Q283 279 283 258.5 Q283 238 282.5 216 Q282 194 282 169 Z M196 527 Q194 527 190 525 Q185 523 181 519.5 Q177 516 173 512 Q165 504 159 495.5 Q153 487 148 478 Q127 442 115 403 Q106 376 100.5 348.5 Q95 321 90 293 Q85 254 81 214 Q77 174 75.5 134 Q74 94 77 54.5 Q80 15 90 -23 Q93 -35 97 -47 Q101 -59 107 -70 Q114 -82 125 -95 Q132 -100 137 -98 Q142 -96 146 -94.5 Q150 -93 154 -91 Q177 -75 190 -53 Q198 -39 203.5 -24 Q209 -9 214 7 Q222 36 226.5 65.5 Q231 95 233 125 Q237 188 236 249.5 Q235 311 228 376 Q224 407 221.5 438 Q219 469 208 498 Q205 506 202 512.5 Q199 519 196 527 Z M154 507 Q137 485 126 460.5 Q115 436 107 410 Q116 436 128 460 Q140 484 154 507 Z M245 -21 Q233 -53 216 -82 Q228 -69 234 -53.5 Q240 -38 245 -21 Z M112 479 Q104 465 97.5 448.5 Q91 432 86 416 Q92 432 98.5 447.5 Q105 463 112 479 Z M223 -11 Q219 -22 215 -31.5 Q211 -41 206 -52 Q213 -42 216.5 -32 Q220 -22 223 -11 Z M114 462 L114 463 Q110 454 106.5 445 Q103 436 100 428 L100 427 Q104 436 107.5 445 Q111 454 114 462 Z M106 454 Q103 446 100 438.5 Q97 431 94 423 Q98 432 100.5 439.5 Q103 447 106 454 Z M228 -18 L227 -18 Q225 -23 223.5 -27.5 Q222 -32 220 -37 L221 -37 Q223 -32 224.5 -27.5 Q226 -23 228 -18 Z M230 -26 L229 -26 Q227 -30 226 -34 Q225 -38 223 -42 L223 -43 Q225 -38 226.5 -34.5 Q228 -31 230 -26 Z " />
<glyph glyph-name="one" unicode="1" horiz-adv-x="145" d="M95 -129 Q93 -133 92 -133 Q91 -134 90 -133 Q89 -132 87 -132 Q84 -130 80.5 -128.5 Q77 -127 74 -125 Q69 -121 68 -116 Q63 -104 63 -94 Q62 -83 61.5 -71 Q61 -59 61 -47 Q60 -31 60 -16 Q60 -1 59 15 Q59 37 58.5 59 Q58 81 58 103 Q58 125 58 146.5 Q58 168 59 190 Q59 200 59 210 Q59 220 60 230 Q61 243 61 255.5 Q61 268 62 282 Q63 292 63 302 Q63 312 64 323 L67 374 L70 410 Q71 423 71.5 435.5 Q72 448 73 462 Q74 473 74 485 Q74 497 75 509 L75 511 Q73 509 72 508.5 Q71 508 70 507 Q67 504 63.5 501 Q60 498 57 495 Q54 492 50 493 Q47 493 49 496 Q50 497 50 497.5 Q50 498 51 499 Q46 493 41 498 Q42 498 42 500 L39 497 L39 501 Q37 498 35 500 Q34 502 32 504 Q28 508 31 513 Q44 531 59 543 Q61 545 62 545.5 Q63 546 65 548 Q73 554 82 551 Q85 550 87.5 550 Q90 550 93 549 Q94 548 95 548 Q96 548 97 547 Q111 537 112 524 Q118 495 116 461 Q116 456 116 450 Q116 444 115 439 Q115 425 114.5 410.5 Q114 396 113 382 L110 340 L107 280 Q107 272 107 263 Q107 254 106 246 Q105 228 104.5 210.5 Q104 193 104 175 L104 107 L104 55 Q104 35 104.5 16.5 Q105 -2 105 -21 Q105 -33 105.5 -44.5 Q106 -56 106 -67 L109 -109 Q109 -121 106 -133 Q103 -139 97 -137 Q94 -135 95 -133 L95 -129 Z " />
<glyph glyph-name="two" unicode="2" horiz-adv-x="275" d="M87 -92 L102 -89 Q118 -87 133.5 -84 Q149 -81 166 -79 Q178 -78 190.5 -77.5 Q203 -77 215 -79 Q219 -80 222.5 -80.5 Q226 -81 231 -83 Q233 -84 235 -85 Q237 -86 239 -88 L239 -89 Q246 -95 242 -103 Q242 -106 239 -106 Q231 -105 221 -108 Q215 -110 209 -111.5 Q203 -113 197 -114 Q189 -116 181.5 -117 Q174 -118 166 -119 Q143 -122 120.5 -125.5 Q98 -129 75 -134 Q67 -136 62 -136 Q56 -137 52 -133 Q51 -132 51 -132 Q48 -130 44.5 -129.5 Q41 -129 38 -127 Q36 -126 34.5 -125 Q33 -124 31 -123 Q29 -121 28 -120 Q27 -119 25 -117 Q19 -110 25 -102 Q31 -92 37.5 -82 Q44 -72 51 -62 Q61 -47 68.5 -31.5 Q76 -16 83 0 Q99 39 115 78 Q131 117 146 157 Q157 184 165.5 211 Q174 238 181 267 Q186 287 190 307.5 Q194 328 197 349 Q199 363 200.5 377.5 Q202 392 204 406 Q206 420 207 435 Q208 450 207 464 Q205 493 193 517 Q190 524 181 524 Q154 523 134 504 Q126 496 119.5 486.5 Q113 477 108 466 Q93 438 90 404 Q90 401 89 399 Q89 396 86 396 Q84 396 82 398 Q81 399 81 399 Q75 401 73 402 Q63 406 61 418 Q58 442 65 463 Q73 493 94 521 Q117 548 150 554 Q167 557 187 550 Q227 538 241 497 Q248 477 248 455 Q249 438 247.5 420.5 Q246 403 244 386 Q242 372 240 357.5 Q238 343 236 328 Q231 291 222.5 254.5 Q214 218 202 182 Q191 148 179 115 Q167 82 153 50 Q142 22 130 -5.5 Q118 -33 104 -60 Q100 -67 96.5 -74 Q93 -81 88 -88 Q88 -89 87.5 -89.5 Q87 -90 87 -92 Z M71 -94 L71 -95 Q74 -92 74 -92 Q83 -78 90.5 -64 Q98 -50 106 -36 Q127 12 146.5 59 Q166 106 183 155 Q185 160 186.5 165.5 Q188 171 190 176 Q189 176 189 174 Q178 144 166.5 114 Q155 84 143 54 Q131 25 118 -3.5 Q105 -32 91 -60 Q86 -68 81 -77 Q76 -86 71 -94 Z M173 195 Q162 165 150.5 134.5 Q139 104 127 75 Q115 45 102.5 15 Q90 -15 76 -44 Q82 -36 96 -3.5 Q110 29 126 68 Q142 107 155.5 143 Q169 179 173 195 Z M165 142 Q151 106 135.5 68.5 Q120 31 105 -6 Q106 -5 110.5 6 Q115 17 121.5 32.5 Q128 48 135.5 66.5 Q143 85 149.5 100.5 Q156 116 160 127.5 Q164 139 165 142 Z M107 10 Q124 50 140.5 89.5 Q157 129 171 170 Q156 129 140 89.5 Q124 50 107 10 Z M92 454 Q98 465 104 476.5 Q110 488 116 499 Q99 478 92 454 Z M86 485 L85 485 Q83 480 80 474 Q77 468 75 462 L76 462 Q78 468 81 473.5 Q84 479 86 485 Z " />
<glyph glyph-name="three" unicode="3" horiz-adv-x="269" d="M134 280 Q135 279 135.5 279 Q136 279 137 278 Q165 264 188 242 Q230 203 242 145 Q248 121 248 95 Q248 84 248.5 72 Q249 60 248 48 Q246 19 240 -8 Q234 -35 220 -61 Q212 -75 203.5 -88 Q195 -101 183 -112 Q168 -127 152 -132 Q128 -141 105 -132 Q96 -129 87.5 -125 Q79 -121 70 -116 Q57 -109 50 -97.5 Q43 -86 39 -72 Q35 -60 34.5 -48 Q34 -36 35 -23 Q35 -16 35.5 -10 Q36 -4 36 3 Q36 6 38 10 Q40 15 41.5 15.5 Q43 16 48 15 Q48 12 46 8 L47 7 Q49 11 49 13 L51 15 Q52 13 52 13 Q51 11 51 9 L54 15 Q54 14 55 14 Q54 12 54 8 Q55 10 55 11 Q55 12 56 13 Q62 13 61 7 Q61 4 62 2 Q62 3 62.5 3.5 Q63 4 63 5 Q63 6 63.5 6.5 Q64 7 64 8 L65 8 Q66 6 66 5.5 Q66 5 67 3 L67 -18 Q69 -31 70 -43.5 Q71 -56 74 -69 Q76 -76 78.5 -82 Q81 -88 85 -94 Q91 -104 104 -102 Q123 -99 141 -83 Q155 -71 165 -56 Q175 -41 183 -24 Q196 6 201 38 Q206 73 204 106 Q203 128 199.5 148 Q196 168 187 188 Q176 213 158.5 232 Q141 251 116 263 Q112 265 108.5 268 Q105 271 101 273 Q96 276 93 285 Q90 292 95 300 Q98 305 101 309.5 Q104 314 108 319 Q125 342 142 362 Q156 380 166.5 399.5 Q177 419 183 442 Q189 467 182 490 Q180 493 178.5 496 Q177 499 175 503 Q173 506 169 506 Q158 507 147.5 503.5 Q137 500 126 495 Q94 477 77 444 Q72 436 68.5 427.5 Q65 419 64 410 Q63 406 63.5 403 Q64 400 64 396 Q63 394 63 392.5 Q63 391 62 389 Q60 384 56 388 Q54 389 52 390 Q50 391 48 392 Q40 394 37.5 399 Q35 404 33 411 Q31 421 33 430 Q35 439 38 448 Q44 465 52.5 479.5 Q61 494 74 505 Q88 517 102.5 524.5 Q117 532 135 534 Q166 539 192 520 Q230 494 225 446 Q223 421 214.5 398.5 Q206 376 192 355 Q181 338 169 321.5 Q157 305 143 289 L134 280 Z M208 412 Q200 393 190 375.5 Q180 358 169 341 Q182 358 192.5 374.5 Q203 391 208 412 Z M225 -20 Q221 -28 218 -35.5 Q215 -43 211 -51 Q207 -59 203 -65.5 Q199 -72 194 -80 Q206 -67 213 -52 Q220 -37 225 -20 Z M82 470 Q75 462 69.5 452.5 Q64 443 61 432 Q66 442 71.5 451 Q77 460 82 470 Z M190 -42 Q194 -38 198.5 -26 Q203 -14 203 -10 Q200 -18 196.5 -26 Q193 -34 190 -42 Z M178 395 Q183 402 185.5 409 Q188 416 190 424 Q187 416 184 409 Q181 402 178 395 Z M54 459 L53 459 Q51 455 49.5 451 Q48 447 46 443 Q47 442 47 442 Q49 447 50.5 450.5 Q52 454 54 459 Z M204 -36 L205 -36 Q207 -32 208.5 -28.5 Q210 -25 212 -20 L211 -20 Q209 -24 207.5 -28 Q206 -32 204 -36 Z M203 -28 L203 -29 Q205 -26 205.5 -23 Q206 -20 208 -17 L207 -17 Q206 -20 205 -22.5 Q204 -25 203 -28 Z M128 290 Q125 286 126 285 L127 285 Q127 287 127.5 287.5 Q128 288 128 290 Z " />
<glyph glyph-name="four" unicode="4" horiz-adv-x="287" d="M225 546 Q226 546 226 546.5 Q226 547 227 547 Q231 546 233 539 Q233 540 233.5 540 Q234 540 234 541 Q237 539 237 535 Q238 531 238 522 Q238 504 237.5 485.5 Q237 467 237 448 Q236 437 235.5 425.5 Q235 414 235 402 L232 318 Q231 310 231 302 Q231 294 230 286 Q230 269 229.5 252 Q229 235 228 218 L228 214 Q233 215 236.5 215.5 Q240 216 244 216 Q251 216 252 215 L257 215 Q259 214 260 214 Q261 214 263 213 Q267 211 266 207 Q269 207 270 208 Q272 206 272 201 Q272 192 261 189 Q253 187 245.5 185.5 Q238 184 230 182 Q227 181 227 178 Q226 165 226 152.5 Q226 140 225 127 Q224 113 223.5 98.5 Q223 84 223 70 Q222 59 222 48 Q222 37 221 26 Q221 14 220.5 2.5 Q220 -9 219 -21 Q218 -38 217 -53.5 Q216 -69 214 -86 Q213 -101 213 -116 Q213 -131 212 -146 Q212 -153 211 -156 Q211 -160 208 -161 Q205 -161 202 -158 Q201 -157 200.5 -157 Q200 -157 199 -156 Q196 -156 192 -154 Q185 -151 183 -145.5 Q181 -140 180 -133 Q178 -125 178 -117 Q178 -109 177 -101 Q176 -88 175.5 -75.5 Q175 -63 175 -50 L175 -6 Q175 -1 175 4 Q175 9 176 14 Q176 26 176.5 38 Q177 50 177 62 L180 119 Q181 130 181.5 142 Q182 154 183 166 L183 172 Q179 171 176 170.5 Q173 170 170 170 Q162 168 153 167.5 Q144 167 135 165 Q127 163 119 162.5 Q111 162 103 160 Q95 159 87 158.5 Q79 158 71 160 Q66 161 62.5 162.5 Q59 164 55 166 Q50 168 45 171 Q23 181 23 206 Q23 217 25 227 Q27 237 29 247 Q36 280 44.5 313 Q53 346 61 378 Q71 417 80 456 Q89 495 99 534 Q100 538 100.5 541.5 Q101 545 103 550 Q105 557 113 555 Q115 553 115 552 Q115 552 117 554 Q117 554 119 552 Q120 553 121 553 Q121 552 122 550 Q122 555 125 552 L130 547 L131 546 Q133 546 133.5 544.5 Q134 543 135 541 Q136 532 135 522 Q131 505 128 488 Q125 471 120 454 Q111 413 101 373.5 Q91 334 82 294 Q77 273 73 252.5 Q69 232 64 212 Q63 208 63 205 Q63 202 62 198 L62 191 Q93 196 123.5 199.5 Q154 203 184 208 Q185 210 185 213 Q186 227 186.5 240 Q187 253 187 267 Q188 280 188.5 292 Q189 304 189 317 Q190 331 190.5 343.5 Q191 356 192 370 Q193 384 193.5 396.5 Q194 409 195 423 Q197 437 198 450.5 Q199 464 200 478 Q201 490 202 502 Q203 514 204 526 Q205 530 205 534 Q205 538 206 543 Q208 551 217 549 Q219 548 223 548 L225 546 Z " />
<glyph glyph-name="six" unicode="6" horiz-adv-x="309" d="M178 620 Q179 619 179 617 Q181 619 182 619 L186 615 Q188 613 188 613 Q192 612 191 606 Q191 602 189 596 Q179 575 172 556 Q156 517 143 478 Q130 439 119 398 Q105 349 95.5 300 Q86 251 78 200 Q73 167 70.5 133.5 Q68 100 67 66 L67 62 Q68 64 68 65.5 Q68 67 69 69 Q83 125 113 168 Q118 176 125 183 Q132 190 141 195 Q165 209 194 201 Q228 191 247 158 Q255 145 258.5 132 Q262 119 265 105 Q270 82 270 59 Q270 36 268 13 Q263 -34 246 -76 Q238 -96 225.5 -111 Q213 -126 195 -137 Q173 -151 145 -153 Q131 -153 120 -149 Q112 -145 104 -142 Q96 -139 88 -134 Q60 -117 49 -84 Q44 -70 40.5 -56 Q37 -42 35 -28 Q32 -5 30.5 17.5 Q29 40 30 63 Q31 81 31.5 99 Q32 117 34 135 Q36 154 37.5 172 Q39 190 42 208 Q46 232 49.5 255.5 Q53 279 58 302 Q69 359 84.5 413.5 Q100 468 119 522 Q127 543 134.5 563.5 Q142 584 153 604 Q155 608 156.5 611 Q158 614 160 617 Q163 623 170 621 Q172 621 176 619 Q178 620 178 620 Z M73 -43 L74 -44 Q76 -54 78.5 -63.5 Q81 -73 84 -83 Q89 -102 101 -114 Q111 -124 123 -124 Q147 -124 167 -110 Q182 -99 192 -86 Q202 -73 209 -57 Q223 -25 228 9.5 Q233 44 231 79 Q230 94 227.5 108.5 Q225 123 220 138 Q217 146 213 153.5 Q209 161 204 168 Q199 174 193 173 Q190 173 188 172 Q168 169 153 151 Q141 136 132 118 Q101 56 84 -15 Q83 -20 82.5 -24 Q82 -28 82 -33 L82 -42 Q80 -45 77 -45 Q75 -43 73 -43 Z M98 63 Q107 87 117.5 109.5 Q128 132 142 154 Q125 134 115.5 110.5 Q106 87 98 63 Z M183 602 Q171 579 162 556.5 Q153 534 146 514 Q154 534 163.5 556.5 Q173 579 183 602 Z M224 -95 Q232 -87 236 -76.5 Q240 -66 244 -55 Q235 -75 224 -95 Z M162 599 Q160 596 155.5 585.5 Q151 575 146 563 Q141 551 137 541 Q133 531 133 530 Q140 547 147 564.5 Q154 582 162 599 Z M106 134 Q99 123 94.5 111 Q90 99 85 86 L106 134 Z M107 116 Q104 110 101.5 103.5 Q99 97 96 91 Q97 91 97 90 Q99 97 102 103 Q105 109 107 116 Z M217 -69 Q222 -58 225 -49 Q220 -60 217 -69 Z M92 90 L93 90 Q95 95 97 100.5 Q99 106 101 111 L100 111 Q98 106 96 100.5 Q94 95 92 90 Z " />
<glyph glyph-name="five" unicode="5" horiz-adv-x="275" d="M62 169 Q59 168 57 170 Q55 171 53.5 171 Q52 171 50 173 L44 176 L38 182 Q35 185 35 193 Q35 204 35 214.5 Q35 225 36 236 Q37 247 37.5 257 Q38 267 40 277 Q41 285 41.5 294 Q42 303 43 311 L46 338 Q46 350 46.5 361.5 Q47 373 48 385 Q49 391 49 397.5 Q49 404 49 410 Q49 421 49 433 Q49 445 50 456 Q51 467 51.5 478 Q52 489 53 500 Q53 503 55 509 Q56 517 66 522 Q76 527 86 530 Q96 533 107 536 Q133 542 156 541 Q170 541 187 536 Q191 534 191 531 Q196 529 195 525 Q194 514 182 511 Q170 508 158 505.5 Q146 503 134 500 Q126 498 117.5 495 Q109 492 101 490 Q94 488 94 482 Q93 475 92.5 468 Q92 461 92 453 Q91 430 91 406.5 Q91 383 90 360 Q89 343 88 326 Q87 309 85 292 Q84 279 83.5 266.5 Q83 254 81 241 Q81 238 80.5 235.5 Q80 233 80 230 Q82 231 85 234 Q95 241 105 247 Q115 253 126 257 Q162 269 193 250 Q218 235 229 206 Q234 194 236 182 Q238 170 240 158 Q242 144 242.5 130.5 Q243 117 242 103 Q239 31 211 -34 Q203 -54 193 -73 Q183 -92 170 -109 Q164 -117 157 -123.5 Q150 -130 140 -133 Q124 -140 108 -134 Q100 -131 92.5 -127.5 Q85 -124 78 -120 Q64 -112 56.5 -99.5 Q49 -87 44 -72 Q41 -63 41 -51 Q39 -11 48 26 Q50 30 51.5 34 Q53 38 55 42 Q57 46 65 46 Q64 45 64 43 Q65 43 65 43.5 Q65 44 66 44 Q66 45 68 45 L68 43 Q69 44 69.5 44 Q70 44 71 45 L71 42 Q73 45 75 43 Q79 41 77 38 Q74 33 73 27 Q76 31 80 39 L81 39 Q81 37 81.5 36 Q82 35 82 33 Q82 31 81 29 Q80 27 80 25 Q78 20 77 16 Q76 12 75 7 Q70 -26 73 -55 Q74 -66 77 -77 Q80 -88 88 -98 Q94 -106 97.5 -106.5 Q101 -107 109 -103 Q117 -99 124 -90 Q149 -57 165.5 -20.5 Q182 16 190 57 Q192 67 193 77 Q194 87 195 97 Q197 111 197.5 124 Q198 137 197 151 Q196 167 194.5 182 Q193 197 188 212 Q186 217 184 220.5 Q182 224 180 229 Q178 232 172 232 Q155 232 142 225 Q116 214 93 188 Q88 183 84 178 Q80 173 75 168 Q71 162 66 165 Q62 167 62 169 Z M214 3 Q209 -9 203.5 -22 Q198 -35 191 -49 Q184 -62 177 -74 Q170 -86 163 -98 Q169 -92 177.5 -78.5 Q186 -65 193.5 -49.5 Q201 -34 207 -19.5 Q213 -5 214 3 Z M192 11 Q182 -15 169 -44 Q177 -31 182 -17 Q187 -3 192 11 Z M186 -32 L187 -32 Q190 -24 193 -16 Q196 -8 200 0 L199 0 Q196 -8 192.5 -16 Q189 -24 186 -32 Z M196 5 Q193 -2 190.5 -8.5 Q188 -15 185 -22 L186 -22 Q189 -15 191.5 -8.5 Q194 -2 196 5 Z " />
<glyph glyph-name="seven" unicode="7" horiz-adv-x="259" d="M78 -129 Q77 -131 76 -131.5 Q75 -132 74 -134 Q72 -133 71 -132 Q70 -131 68 -130 Q64 -130 64 -129 Q64 -129 60 -127 Q52 -122 53 -113 Q53 -92 56 -72 Q58 -59 60 -46 Q62 -33 64 -20 Q66 -6 68.5 9 Q71 24 73 38 Q76 57 79 76 Q82 95 87 113 Q92 136 96.5 158.5 Q101 181 106 204 Q116 243 127 281.5 Q138 320 149 358 Q160 397 172 436.5 Q184 476 195 515 Q197 525 199.5 535 Q202 545 204 556 L204 558 L189 558 Q175 557 160 556.5 Q145 556 131 555 Q120 554 109.5 553 Q99 552 88 551 Q85 551 81.5 551 Q78 551 74 552 Q71 552 67 555 Q64 557 60.5 558.5 Q57 560 54 562 Q53 563 50 568 Q48 573 54 573 Q59 575 65 575.5 Q71 576 76 577 L133 583 Q164 586 196 586 Q204 586 210.5 584 Q217 582 224 580 Q226 579 228 578 Q230 577 232 576 Q236 573 239 569 Q245 563 245 554 Q244 547 243.5 540 Q243 533 242 526 Q237 500 229.5 474.5 Q222 449 215 423 Q200 372 185.5 321.5 Q171 271 157 219 Q148 188 141 157 Q134 126 128 94 L110 -8 Q106 -30 103 -51.5 Q100 -73 96 -95 Q94 -105 91 -114.5 Q88 -124 86 -133 Q84 -137 83 -137 Q79 -137 77 -136 L77 -132 Q77 -131 77.5 -130.5 Q78 -130 78 -129 Z " />
<glyph glyph-name="eight" unicode="8" horiz-adv-x="279" d="M236 500 Q237 482 235 464.5 Q233 447 230 429 Q218 354 197 283 Q189 259 182.5 235 Q176 211 169 188 Q167 184 165.5 180.5 Q164 177 163 174 Q162 171 163 169 Q172 158 180.5 146.5 Q189 135 197 124 Q209 107 218.5 89.5 Q228 72 233 53 Q239 34 239.5 16 Q240 -2 237 -20 Q231 -62 202 -94 Q182 -118 157 -131 Q151 -133 144.5 -135 Q138 -137 130 -138 Q119 -140 108 -135 Q100 -131 92.5 -128 Q85 -125 77 -120 Q63 -113 55.5 -102.5 Q48 -92 43 -78 Q39 -66 38 -54 Q37 -42 38 -30 Q40 -10 44.5 9.5 Q49 29 57 48 Q68 80 82.5 111 Q97 142 112 173 Q113 174 113 175 Q113 176 114 177 Q118 180 114 184 Q103 200 94.5 216 Q86 232 79 249 Q70 271 67 294 Q65 314 65.5 332.5 Q66 351 68 370 Q72 397 77.5 423 Q83 449 92 475 Q100 495 109 513.5 Q118 532 132 549 Q135 554 139 557.5 Q143 561 148 565 Q163 580 187 573 Q224 563 232 524 Q234 518 234.5 512 Q235 506 236 500 Z M139 203 L140 203 Q140 205 140 205 Q143 216 146 227 Q149 238 152 249 Q161 281 170 313 Q179 345 186 377 Q192 407 197 438 Q202 469 200 501 Q200 522 193 539 Q191 546 190 546.5 Q189 547 182 543 Q176 540 172 535.5 Q168 531 163 526 Q154 513 147 499.5 Q140 486 133 471 Q118 435 111.5 397.5 Q105 360 104 320 Q102 274 121 235 Q126 227 130 219 Q134 211 139 203 Z M139 147 Q139 146 138.5 145.5 Q138 145 138 144 Q130 124 122.5 104 Q115 84 107 64 Q99 45 92.5 26.5 Q86 8 81 -12 Q77 -28 76 -43 Q75 -58 79 -74 Q82 -91 91 -101 Q95 -105 99 -104 Q110 -102 118.5 -97.5 Q127 -93 136 -86 Q147 -78 155.5 -67 Q164 -56 172 -44 Q198 1 186 58 Q180 83 167 104.5 Q154 126 139 147 Z M134 156 L133 156 Q132 155 132 154.5 Q132 154 131 153 L104 84 L80 21 Q78 16 77 10.5 Q76 5 75 0 L75 3 Q80 15 84 27 Q88 39 93 51 Q103 77 112.5 102 Q122 127 133 153 Q133 154 133.5 154.5 Q134 155 134 156 Z M150 523 Q136 504 127 483 Q118 462 112 439 Q119 462 128.5 482.5 Q138 503 150 523 Z M223 -26 Q221 -31 219 -36.5 Q217 -42 215 -47 Q212 -52 209.5 -57.5 Q207 -63 204 -68 Q212 -60 217.5 -47.5 Q223 -35 223 -26 Z M56 8 Q70 51 86 88 Q77 69 69 49 Q61 29 56 8 Z M94 444 Q98 455 102 466 Q106 477 110 488 Q105 477 101 466 Q97 455 94 444 Z M156 178 L157 178 Q161 186 163.5 194.5 Q166 203 168 211 Q165 203 162.5 194.5 Q160 186 156 178 Z M192 -36 Q196 -32 197 -27 Q198 -22 199 -17 Q197 -22 195.5 -26.5 Q194 -31 192 -36 Z M89 97 L89 96 Q93 108 100 121 L99 121 Q97 115 94 109 Q91 103 89 97 Z M67 17 Q68 16 69 16 Q71 23 73 29 Q75 35 77 42 Q74 36 72 29.5 Q70 23 67 17 Z M68 31 Q66 26 65 21.5 Q64 17 62 12 Q62 11 63 11 Q64 16 65.5 21 Q67 26 68 31 Z " />
<glyph glyph-name="nine" unicode="9" horiz-adv-x="274" d="M220 324 Q217 316 214.5 309 Q212 302 210 294 Q189 229 165.5 165.5 Q142 102 116 39 Q105 13 95 -13 Q85 -39 74 -65 Q68 -77 62.5 -89 Q57 -101 52 -112 Q50 -117 49 -120.5 Q48 -124 46 -128 Q44 -132 44 -133 Q42 -135 41 -133 Q40 -133 39 -132 Q38 -132 36 -130 L35 -130 Q33 -130 32 -129 L31 -129 Q29 -127 27 -125.5 Q25 -124 23 -121 Q22 -118 22 -112 L31 -82 Q35 -71 37.5 -60.5 Q40 -50 44 -39 Q51 -20 58.5 -2 Q66 16 73 35 Q91 78 108 120.5 Q125 163 141 208 Q149 231 156 252.5 Q163 274 171 297 Q172 298 172 300 Q169 298 166.5 296 Q164 294 161 292 Q145 281 126 281 Q123 282 119.5 282 Q116 282 113 284 Q105 287 97 290.5 Q89 294 82 298 Q67 307 58.5 319.5 Q50 332 44 348 Q41 359 40 371 Q39 383 39 395 Q40 412 43.5 428 Q47 444 52 460 Q58 478 66 494 Q74 510 86 524 Q96 537 110 545 Q136 562 170 552 Q193 545 207.5 531 Q222 517 231 496 Q245 461 245 418 Q244 386 238.5 356 Q233 326 223 296 Q205 239 185 182.5 Q165 126 143 69 Q129 37 116.5 5 Q104 -27 91 -59 Q87 -68 82.5 -76.5 Q78 -85 74 -93 Q69 -103 64 -113 Q59 -123 54 -134 L52 -136 Q50 -140 46 -136 Q44 -135 45 -134 Q46 -133 46 -132 Q57 -108 68 -82 Q79 -62 86.5 -42 Q94 -22 102 -2 Q119 39 134.5 78.5 Q150 118 165 160 Q178 195 189.5 230.5 Q201 266 214 301 Q216 306 216.5 310.5 Q217 315 219 320 Q219 321 219.5 321.5 Q220 322 220 323 L220 324 Z M193 393 Q196 394 196 398 Q199 422 199 448 Q198 461 197 473 Q196 485 191 497 Q189 504 186.5 510.5 Q184 517 179 523 Q174 526 171 526 Q159 526 152 522 Q138 516 125 502 Q112 488 103 471 Q94 454 87 435 Q81 417 78.5 398.5 Q76 380 78 360 Q80 349 83 338.5 Q86 328 94 319 Q100 310 109 313 Q120 315 128.5 320.5 Q137 326 145 333 Q156 344 163.5 356 Q171 368 177 382 Q178 384 180 390 Q183 394 191 394 Q192 394 192 393.5 Q192 393 193 393 Z M197 331 L196 331 Q196 330 195.5 329.5 Q195 329 195 328 Q193 320 190.5 311.5 Q188 303 185 295 Q162 226 137 159.5 Q112 93 85 27 Q58 -37 35 -105 Q34 -107 34 -108.5 Q34 -110 33 -112 L34 -112 L34 -110 Q39 -97 43.5 -84.5 Q48 -72 53 -60 Q65 -28 77.5 3 Q90 34 103 65 Q126 122 146 178.5 Q166 235 186 293 Q189 303 191.5 312 Q194 321 197 331 Z M201 308 Q201 307 200.5 306.5 Q200 306 200 305 Q186 263 172 222.5 Q158 182 142 141 Q122 87 100.5 34.5 Q79 -18 58 -72 Q57 -73 57 -74 Q96 21 133.5 115 Q171 209 201 308 Z M127 114 Q148 166 166 217.5 Q184 269 201 323 Q183 270 165 218 Q147 166 127 114 Z M105 495 Q84 466 77 435 Q83 451 90 466 Q97 481 105 495 Z M60 445 Q64 459 71 476 Q63 463 60 445 Z M75 462 L75 463 Q73 459 72 456 Q71 453 69 449 L70 449 Q72 452 72.5 455.5 Q73 459 75 462 Z M189 381 L188 381 L182 369 L183 369 L189 381 Z M61 -54 L60 -54 Q57 -59 56 -66 Q57 -62 61 -54 Z M65 448 Q67 451 69 457 L68 457 L65 448 Z " />
<glyph glyph-name="colon" unicode="&#x3a;" horiz-adv-x="119" d="M43 196 Q44 197 44 200 Q46 208 56 207 Q58 207 58.5 206.5 Q59 206 61 206 Q69 205 78 196 Q81 194 81 190 Q81 181 77 174 Q72 169 65 173 Q63 175 61 175.5 Q59 176 57 177 Q44 182 43 196 Z M67 272 Q68 273 68 273.5 Q68 274 69 275 Q77 274 75 266 L72 260 L73 260 Q75 262 75.5 264.5 Q76 267 78 269 Q81 266 81 261 Q80 259 80 257 Q80 255 79 253 Q74 242 63 248 Q61 250 58 250.5 Q55 251 53 253 Q45 257 43.5 265 Q42 273 44 278 Q47 283 53 281 Q56 281 62 279 Q64 279 65 278 Q67 277 67 272 Z " />
<glyph glyph-name="semicolon" unicode="&#x3b;" horiz-adv-x="105" d="M55 145 Q53 141 53 141 Q52 141 48 143 Q48 144 49 146 Q47 144 47 143 L46 143 L46 146 Q45 146 45 145.5 Q45 145 44 145 Q43 146 43 148 Q43 147 42.5 147 Q42 147 42 146 Q41 147 41 147 Q38 150 38 157 Q39 165 39 172.5 Q39 180 39 188 Q39 193 39 197 Q39 201 40 206 Q40 213 48 213 L49 212 Q49 210 50 209 Q50 210 50.5 210.5 Q51 211 51 213 Q53 211 53 210 Q54 211 54 212 Q56 210 56 210 Q57 211 58 210 Q61 210 63 205 Q64 205 66 203 Q66 201 66.5 200 Q67 199 67 197 Q67 191 66.5 185.5 Q66 180 65 174 Q65 168 64.5 162 Q64 156 63 150 Q63 147 61 141 Q61 141 58 138 Q55 138 55 142 L55 144 L55 145 Z M51 285 Q53 286 55 284 Q57 286 57 285 Q57 284 58 284 Q65 284 67 276 Q67 277 68 277 L68 278 Q71 276 71 272 Q71 267 68 261 Q66 254 58 260 Q56 262 53 262 Q51 264 48 265 Q45 266 43 268 Q35 272 39 281 Q39 283 42 286 Q44 287 49 287 L50 286 Q50 285 51 285 Z " />
<glyph glyph-name="less" unicode="&#x3c;" horiz-adv-x="233" d="M188 285 Q189 286 190 286.5 Q191 287 193 289 Q196 285 191 278 Q180 264 163 255 Q145 244 127 233.5 Q109 223 91 212 Q88 210 85 208.5 Q82 207 78 205 Q83 203 87.5 201 Q92 199 97 196 Q114 186 131 176.5 Q148 167 164 155 Q178 147 183 137 Q186 132 185 129.5 Q184 127 182 123 Q182 120 177 123 L170 130 Q168 131 167.5 132 Q167 133 165 134 Q162 136 158 139 Q154 142 150 145 Q131 156 112 166 Q93 176 73 185 Q69 186 66 188.5 Q63 191 59 193 Q56 195 52.5 198.5 Q49 202 46 204 Q37 216 48 225 Q55 230 62 233.5 Q69 237 76 241 Q98 252 118.5 264.5 Q139 277 159 291 Q161 293 163.5 294.5 Q166 296 168 297 Q173 301 179 299 Q181 299 182.5 298 Q184 297 186 296 Q187 295 188 294.5 Q189 294 191 292 L191 291 Q190 289 190 289 Q190 288 189 287.5 Q188 287 187 285 L188 285 Z " />
<glyph glyph-name="equal" unicode="&#x3d;" horiz-adv-x="221" d="M139 215 Q146 215 152.5 215 Q159 215 166 214 Q172 214 178 211 Q181 210 185 206 Q187 204 186.5 201 Q186 198 184 197 Q183 196 181 196 Q179 196 176.5 196.5 Q174 197 172 197 Q143 197 115 194 Q101 193 86 191.5 Q71 190 57 188 Q51 188 49 190 Q47 192 44.5 192.5 Q42 193 40 194 Q38 195 34 199 Q33 205 38 206 Q49 208 61 209 Q73 210 85 211 Q99 213 112 213.5 Q125 214 139 215 Z M180 255 Q184 255 184 251 Q183 246 182 245 Q181 244 176 244 Q167 243 158 243 Q149 243 140 242 L59 239 Q56 237 52 241 Q51 242 49.5 242.5 Q48 243 46 244 Q40 245 37 250 Q35 252 36 254.5 Q37 257 40 257 Q48 258 55.5 258.5 Q63 259 71 259 Q94 260 115.5 260.5 Q137 261 159 261 Q168 263 176 260 Q181 258 180 255 Z " />
<glyph glyph-name="greater" unicode="&#x3e;" horiz-adv-x="208" d="M52 129 L57 134 L56 134 Q55 132 50 130 Q49 131 46 133 Q46 134 48 136 Q44 134 44 134 L44 135 Q44 137 46 137 L45 138 Q45 138 41 136 Q42 137 42 137.5 Q42 138 43 139 Q43 140 44 141 Q40 139 40 139 Q34 144 41 151 Q49 157 56 163 Q63 169 71 176 L131 230 Q131 231 133 233 Q132 234 131 234.5 Q130 235 129 236 Q106 253 86 270 Q82 273 78.5 276 Q75 279 72 282 Q70 284 70 285.5 Q70 287 69 288 Q69 294 74 293 Q79 293 83 290.5 Q87 288 90 286 Q104 276 116.5 266.5 Q129 257 143 247 Q149 241 153 240 Q159 235 164 226 Q166 223 166 215 Q162 206 155 198 Q141 187 128.5 176 Q116 165 102 156 Q91 148 80.5 141 Q70 134 59 127 Q56 126 52 129 Z M138 197 L139 197 Q142 200 145.5 203 Q149 206 152 209 Q153 210 153 212 L138 197 Z " />
<glyph glyph-name="question" unicode="&#x3f;" horiz-adv-x="264" d="M146 613 Q151 612 157 611.5 Q163 611 169 609 Q189 603 202.5 590.5 Q216 578 226 561 Q248 522 243 475 Q241 446 234.5 418.5 Q228 391 220 363 Q210 334 198.5 305 Q187 276 175 247 Q158 209 143 170 Q128 131 115 91 Q107 69 101.5 47 Q96 25 90 2 Q87 -10 83.5 -21.5 Q80 -33 76 -44 Q74 -49 73.5 -53.5 Q73 -58 71 -62 Q71 -63 68 -66 Q62 -68 64 -61 L64 -58 Q64 -59 63.5 -59.5 Q63 -60 63 -61 L61 -63 Q57 -61 55 -59 Q55 -60 54 -60 Q54 -59 53.5 -59 Q53 -59 53 -58 Q50 -58 50 -57 Q49 -56 47 -56 Q43 -50 44 -44 Q45 -38 45.5 -31.5 Q46 -25 47 -18 Q55 32 69 78.5 Q83 125 101 172 Q114 203 126.5 233.5 Q139 264 151 295 Q161 319 170 343 Q179 367 187 391 Q202 434 208 481 Q213 517 203 549 Q200 557 196 565 Q192 573 186 580 Q178 589 164 591 Q142 594 120 583 Q64 556 38 502 Q36 498 36 496 Q34 493 36 490 Q38 489 37.5 485.5 Q37 482 35 481 Q34 480 34 480 L33 480 Q28 482 23 484 Q18 486 14 490 Q8 496 10 503 Q12 508 12.5 512 Q13 516 15 520 Q29 549 50 570 Q71 591 100 605 Q108 609 116.5 610.5 Q125 612 133 613 L135 613 L146 613 Z M94 121 L96 123 Q108 156 121 189 Q134 222 148 254 Q158 280 168 305.5 Q178 331 188 357 Q189 359 189 361 L189 360 Q181 340 172.5 319 Q164 298 156 278 L102 143 Q100 137 98 131.5 Q96 126 94 121 Q93 117 91 111 L91 110 Q92 113 92.5 115.5 Q93 118 94 121 Z M207 353 L206 352 Q195 325 184.5 297.5 Q174 270 163 243 Q150 212 137.5 181.5 Q125 151 114 119 L114 117 Q125 147 136.5 175.5 Q148 204 160 233 Q171 259 180.5 284.5 Q190 310 201 336 Q203 341 204 344.5 Q205 348 207 353 Z M47 531 Q42 525 38 518.5 Q34 512 32 504 L47 531 Z M181 313 L180 313 Q178 308 176.5 304 Q175 300 173 295 Q175 300 177 304 Q179 308 181 313 Z M176 312 Q178 315 178.5 318 Q179 321 181 324 L180 324 Q179 321 178 318 Q177 315 176 312 Z M55 -90 Q56 -89 56 -87 Q61 -88 62 -96 Q63 -95 63 -94 Q63 -93 64 -92 L65 -92 Q65 -94 65.5 -95 Q66 -96 66 -97 L66 -114 L66 -129 Q66 -131 65.5 -132.5 Q65 -134 65 -136 Q64 -138 62 -138 Q60 -138 59 -136 Q58 -135 58 -135 Q56 -135 56 -135 Q53 -134 47 -130 Q41 -128 41 -120 Q40 -112 40 -105 Q40 -98 39 -90 Q39 -82 48 -84 Q48 -85 49 -86 L49 -89 Q51 -85 51 -85 Q52 -86 52 -86.5 Q52 -87 53 -88 Q53 -87 54 -86 L55 -86 L55 -90 Z " />
<glyph glyph-name="at" unicode="&#x40;" horiz-adv-x="335" d="M202 204 Q198 196 197 192 Q192 184 188 176 Q184 168 177 160 L168 151 Q159 147 151 150 Q144 154 137 157 Q118 166 116 189 Q114 235 136 272 Q138 277 141.5 280.5 Q145 284 148 288 Q162 302 180 297 Q184 295 188 294.5 Q192 294 195 291 Q197 289 197 288 Q199 290 199.5 291.5 Q200 293 202 294 Q203 295 208 295 Q208 295 211 292 Q213 296 215 293 Q216 295 217 293 Q218 291 220 292 Q221 293 223.5 291 Q226 289 226 287 Q226 286 227 284 Q228 286 228 286 L229 286 Q230 284 231 282.5 Q232 281 232 279 L232 248 Q232 240 232 231 Q232 222 233 214 Q233 208 234 202.5 Q235 197 237 191 Q237 189 238 187 Q244 193 246 196 Q251 203 254.5 211 Q258 219 261 227 Q273 262 271 299 Q269 326 259 348 Q255 361 243 371 Q230 384 211 384 Q186 386 165.5 377 Q145 368 128 351 Q97 320 85 279 Q77 254 73 229 Q69 204 70 178 Q71 160 74 141.5 Q77 123 85 106 Q89 99 93 92 Q97 85 102 80 Q121 59 148 62 Q179 65 201 82 Q208 87 212.5 93.5 Q217 100 222 108 Q226 114 230 120 Q234 126 237 133 Q240 137 248 137 Q247 135 247 133.5 Q247 132 246 130 Q247 131 249 135 Q250 136 251 136 L251 134 L251 132 Q251 132 253 136 L254 136 L254 132 Q255 133 255 133.5 Q255 134 256 135 Q263 132 261 127 Q260 125 259.5 123 Q259 121 258 119 L259 119 Q261 124 264 129 Q267 126 266 122 Q266 119 264 113 Q261 105 258 98 Q255 91 251 84 Q237 57 205 43 Q183 33 163 33 Q148 32 130 38 Q121 43 111.5 47 Q102 51 93 56 Q76 66 66 80 Q56 94 48 111 Q42 125 39 139 Q36 153 34 167 Q33 178 32.5 188.5 Q32 199 33 210 Q36 246 46 277 Q51 293 57.5 308 Q64 323 72 337 Q92 368 119 388 Q168 421 223 404 Q265 390 288 355 Q297 341 301 325 Q305 309 307 292 Q309 266 303.5 240.5 Q298 215 287 191 Q284 183 279.5 176 Q275 169 267 164 Q252 154 238 163 Q236 165 232.5 166 Q229 167 226 169 Q217 174 212 181.5 Q207 189 204 198 Q203 200 203 201 Q203 202 202 203 L202 204 Z M152 187 L154 187 Q168 206 176 227 Q184 248 192 270 Q186 268 184 267 Q179 264 176.5 260.5 Q174 257 172 253 Q165 242 161 230.5 Q157 219 155 207 Q154 202 153.5 197 Q153 192 152 187 Z M80 291 Q85 302 91 313 Q97 324 103 335 Q95 325 89.5 314 Q84 303 80 291 Z M180 178 Q182 180 185.5 186 Q189 192 192 198.5 Q195 205 197 210.5 Q199 216 199 218 Q194 208 189.5 198 Q185 188 180 178 Z M153 236 Q157 244 160.5 251 Q164 258 168 266 Q163 261 159 253.5 Q155 246 153 236 Z M241 84 Q247 92 250.5 100.5 Q254 109 258 117 L257 117 Q253 109 249.5 101 Q246 93 241 84 Z M287 213 Q281 201 274 185 Q280 191 282 198.5 Q284 206 287 213 Z M62 294 Q63 293 63 293 Q66 300 68.5 306 Q71 312 74 318 Q73 318 73 319 Q70 312 67.5 306 Q65 300 62 294 Z M143 261 L142 262 Q140 257 138 252 Q136 247 134 242 L135 242 Q137 247 139 251.5 Q141 256 143 261 Z M263 204 L264 204 Q266 208 266.5 211 Q267 214 269 218 Q267 214 266 211 Q265 208 263 204 Z M180 214 L181 213 Q182 216 183 219 Q184 222 185 224 Q183 222 182.5 219 Q182 216 180 214 Z " />
<glyph glyph-name="A" unicode="A" horiz-adv-x="303" d="M52 -141 Q47 -139 47 -137 L44 -137 Q40 -135 34 -131 Q26 -127 26 -118 Q25 -105 26 -90 Q30 -55 33 -21 Q36 13 41 48 Q44 77 49.5 105 Q55 133 60 162 Q70 212 79.5 261 Q89 310 98 360 Q106 399 114 438 Q122 477 131 515 Q136 539 141.5 562.5 Q147 586 153 610 Q153 611 152.5 611.5 Q152 612 153 614 Q155 621 163 621 Q165 621 171 619 Q178 626 182 620 Q184 622 184.5 621 Q185 620 187 620 Q191 620 193.5 617.5 Q196 615 198 613 Q201 610 202 608 Q204 603 205 597.5 Q206 592 208 586 Q212 566 215 545.5 Q218 525 220 505 Q223 482 225.5 459 Q228 436 230 413 Q232 387 234.5 362 Q237 337 240 311 Q242 275 246 241 Q248 225 249.5 209.5 Q251 194 252 177 L258 126 L264 66 Q266 51 267 36 Q268 21 270 5 Q272 -12 273.5 -28 Q275 -44 277 -61 Q277 -79 280 -97 Q280 -102 280.5 -107 Q281 -112 282 -117 Q282 -120 281.5 -123.5 Q281 -127 282 -130 Q280 -134 277 -134 Q274 -133 271 -129 Q271 -131 266 -129 Q264 -127 262 -127 Q260 -127 258 -125 Q252 -122 250 -115 Q245 -104 244 -96 Q241 -88 238.5 -79.5 Q236 -71 234 -62 Q233 -60 233.5 -57.5 Q234 -55 233 -53 Q232 -50 232 -43 Q227 -23 226 -5 Q224 6 223 17 Q222 28 220 39 Q219 49 218.5 58.5 Q218 68 216 78 Q214 89 213.5 100.5 Q213 112 211 123 Q211 127 210.5 130 Q210 133 210 137 Q210 140 207 139 Q190 138 172.5 137.5 Q155 137 137 136 Q129 135 121 135 Q113 135 105 134 Q102 134 101 131 Q99 117 96 103.5 Q93 90 90 76 Q85 50 80 23.5 Q75 -3 70 -30 Q66 -52 63 -74 Q60 -96 57 -119 Q56 -126 57 -135 Q57 -140 53 -141 L52 -141 Z M179 534 Q179 535 178 535 L178 532 Q176 521 173.5 510.5 Q171 500 169 489 Q160 439 150.5 389 Q141 339 132 288 Q126 258 120 228 Q114 198 109 167 Q109 163 112 165 Q128 167 144.5 167.5 Q161 168 178 167 Q185 167 191 167 Q197 167 204 166 Q206 166 206 169 L203 199 Q202 211 201 222.5 Q200 234 198 246 Q197 257 196.5 267 Q196 277 194 288 Q193 297 193 306 Q193 315 191 324 Q190 339 189 354.5 Q188 370 187 386 Q185 417 183.5 447.5 Q182 478 180 509 Q180 516 179.5 522 Q179 528 179 534 Z " />
<glyph glyph-name="B" unicode="B" horiz-adv-x="363" d="M148 285 Q153 283 159 280.5 Q165 278 170 275 Q217 250 256 221 Q284 201 304 178 Q320 160 330.5 139.5 Q341 119 345 93 Q347 81 346.5 69 Q346 57 342 43 Q333 11 309 -18 Q295 -33 280.5 -46.5 Q266 -60 249 -71 Q223 -88 196 -101 Q169 -114 141 -123 Q124 -128 107.5 -132 Q91 -136 74 -138 Q60 -140 48 -138 Q42 -136 42 -132 Q42 -127 48 -121 Q51 -118 51 -115 Q50 -105 50 -95.5 Q50 -86 49 -76 Q48 -53 47 -29.5 Q46 -6 44 17 Q43 28 43 38.5 Q43 49 42 60 Q42 73 42 85 Q42 97 41 109 L41 154 Q41 168 40.5 181.5 Q40 195 40 209 L40 266 Q39 277 39 288.5 Q39 300 39 311 Q39 335 39 358.5 Q39 382 41 406 Q41 415 41.5 423.5 Q42 432 43 441 Q45 457 47 472.5 Q49 488 51 504 Q53 515 54 525.5 Q55 536 57 547 Q59 560 69 568 Q71 569 72.5 570 Q74 571 76 572 Q78 574 79 574 Q82 577 83 579 Q85 579 85 581 Q88 590 96 595 Q99 598 105 602 Q113 610 118 610 Q121 611 127 611 Q143 611 159 611 Q175 611 191 609 Q226 608 256 587 Q276 575 289 556 Q297 545 302 532 Q307 519 309 505 Q311 490 310 473.5 Q309 457 302 440 Q292 414 273 389 Q258 370 238 350 Q221 335 203.5 322.5 Q186 310 168 299 Q157 293 145 286 Q146 286 146.5 285.5 Q147 285 148 285 Z M249 -40 Q256 -35 261.5 -29.5 Q267 -24 273 -17 Q295 9 296 37 Q298 52 295.5 65 Q293 78 288 91 Q274 125 245 152 Q233 164 220 173.5 Q207 183 193 192 Q179 202 164 210.5 Q149 219 134 227 Q125 232 116.5 238 Q108 244 99 250 Q94 251 93 256 Q88 261 93 272 Q97 281 107 288 Q130 307 153 318 Q179 332 202 349 Q213 359 223.5 369.5 Q234 380 242 393 Q258 416 261 443 Q264 464 259.5 481 Q255 498 244 513 Q234 527 220.5 536.5 Q207 546 190 553 Q148 571 99 577 Q97 577 95 576.5 Q93 576 91 576 Q90 576 90 573 L90 555 Q89 546 88.5 537 Q88 528 88 519 Q88 499 87.5 479.5 Q87 460 87 440 L87 303 Q87 278 87 254 Q87 230 88 206 L88 86 Q88 65 88.5 44.5 Q89 24 89 3 Q89 -10 89.5 -23 Q90 -36 89 -49 Q89 -60 88.5 -72 Q88 -84 87 -95 Q87 -98 90 -98 Q101 -96 111 -94.5 Q121 -93 132 -91 Q135 -89 138.5 -89 Q142 -89 144 -88 Q172 -80 198 -68.5 Q224 -57 249 -40 Z M325 116 Q321 133 311 146.5 Q301 160 289 171 Q312 145 325 116 Z M291 522 Q288 540 273 552 L291 522 Z M301 101 Q298 114 291 122 Q293 117 296 111.5 Q299 106 301 101 Z M263 516 L262 516 Q266 508 267 504 L268 505 Q267 508 266 510.5 Q265 513 263 516 Z " />
<glyph glyph-name="C" unicode="C" horiz-adv-x="340" d="M306 94 Q307 95 309 95 Q311 94 311.5 94 Q312 94 314 93 Q319 93 321 87 L321 88 Q322 87 322.5 87 Q323 87 324 86 Q327 78 326 72 Q324 61 322.5 51.5 Q321 42 319 32 Q315 15 311 -1 Q307 -17 302 -34 Q295 -53 286 -70.5 Q277 -88 264 -104 Q252 -119 236 -129 Q204 -146 173 -134 Q162 -130 153 -125.5 Q144 -121 134 -116 Q111 -102 91 -76 Q76 -56 66 -33 Q56 -10 50 14 Q41 45 38 77 Q37 88 36.5 98.5 Q36 109 35 120 Q34 133 34 145 Q34 157 34 170 Q34 182 34.5 193.5 Q35 205 36 217 Q37 231 38 246 Q39 261 41 275 Q46 317 54.5 357 Q63 397 76 437 Q97 500 134 557 Q142 569 150 580 Q158 591 169 601 Q187 618 212 622 Q228 623 243 619 Q281 608 292 567 Q294 558 295 549 Q296 540 296 531 Q297 495 293 459 Q292 454 291 450 Q290 446 289 441 Q287 438 284 438 Q281 439 281 444 Q280 441 278.5 441 Q277 441 275 443 Q271 444 267 447 Q263 451 262 453 Q258 461 258 473 Q257 487 256.5 501 Q256 515 256 529 Q255 541 254 552.5 Q253 564 250 575 Q248 578 247.5 581 Q247 584 245 587 Q244 590 240 590 Q225 587 213 578 Q203 571 195 562 Q187 553 180 543 Q165 520 153 495 Q141 470 131 444 Q111 389 100 328 Q97 311 94.5 294 Q92 277 90 260 Q85 227 84 194 Q83 161 84 127 Q85 106 86.5 85 Q88 64 92 42 Q95 24 99 6.5 Q103 -11 110 -28 Q116 -45 124.5 -59.5 Q133 -74 146 -87 Q157 -99 167 -102 Q175 -104 182 -102 Q199 -99 212 -86 Q223 -77 231.5 -65.5 Q240 -54 248 -41 Q262 -18 271.5 6.5 Q281 31 288 57 Q292 68 295 83 L295 90 Q295 96 301 96 Q305 96 306 94 Z M117 439 Q128 470 143 498.5 Q158 527 175 556 Q155 529 141.5 499.5 Q128 470 117 439 Z M293 -28 Q287 -42 279.5 -55.5 Q272 -69 264 -83 Q275 -71 281.5 -57 Q288 -43 293 -28 Z M121 507 Q112 491 104.5 474 Q97 457 92 440 Q99 456 106 473 Q113 490 121 507 Z M109 455 L109 454 Q112 462 115.5 469.5 Q119 477 122 485 Q122 486 121 486 Q118 478 115 470.5 Q112 463 109 455 Z M101 447 L102 447 Q104 453 106.5 459.5 Q109 466 111 472 Q106 462 101 447 Z " />
<glyph glyph-name="D" unicode="D" horiz-adv-x="383" d="M361 313 Q362 267 353 215 Q340 138 305 65 Q290 37 273 11.5 Q256 -14 235 -37 Q221 -53 205 -66.5 Q189 -80 172 -92 Q158 -102 144.5 -111 Q131 -120 118 -129 Q114 -132 109.5 -134 Q105 -136 100 -138 Q89 -145 78 -138 Q75 -136 71.5 -134 Q68 -132 64 -130 Q63 -130 60 -127 Q56 -121 52 -120 Q47 -116 45 -108 Q43 -98 43 -92 Q41 -69 40.5 -47 Q40 -25 39 -2 Q36 19 35.5 40 Q35 61 35 83 L35 133 Q36 145 36 157 Q36 169 36 180 Q38 208 39 235 Q40 262 40 290 Q42 313 42.5 336 Q43 359 44 382 Q44 407 44.5 431.5 Q45 456 46 481 Q47 499 47 516.5 Q47 534 48 552 Q48 561 49 566 Q49 567 47 569 Q47 569 45 573 Q40 578 46 583 Q49 586 55 590 Q71 598 86.5 600.5 Q102 603 119 605 Q144 605 170 599 Q228 587 273 545 Q309 511 330 465 Q340 444 347 421.5 Q354 399 357 376 Q359 361 360 345.5 Q361 330 361 313 Z M77 -109 Q78 -109 78 -108.5 Q78 -108 79 -108 L80 -107 Q97 -96 112 -84.5 Q127 -73 141 -61 Q156 -47 169.5 -33 Q183 -19 197 -4 Q210 11 221.5 27.5 Q233 44 243 61 Q260 90 272.5 119.5 Q285 149 294 181 Q300 204 305 227.5 Q310 251 312 275 Q313 287 314 299 Q315 311 315 323 Q315 340 314 356.5 Q313 373 310 390 Q307 412 301 432.5 Q295 453 287 473 Q278 493 266 510.5 Q254 528 238 542 Q230 549 221.5 555 Q213 561 203 565 Q171 577 134 575 Q122 574 110.5 571.5 Q99 569 88 566 Q86 565 86 562 Q87 557 87 551.5 Q87 546 87 540 Q89 498 87 454 Q87 434 87 413.5 Q87 393 85 373 L82 295 Q82 278 81.5 261 Q81 244 80 227 Q80 207 80 187 Q80 167 79 147 Q78 127 77.5 108 Q77 89 77 69 Q77 51 76.5 33 Q76 15 76 -3 Q77 -27 77 -51 Q77 -75 77 -99 L77 -109 Z M257 12 Q280 41 296 73.5 Q312 106 323 141 Q309 106 293 74 Q277 42 257 12 Z M298 145 Q292 130 285 114 Q278 98 272 84 Q281 98 287 113.5 Q293 129 298 145 Z M303 129 Q301 123 298.5 116.5 Q296 110 293 104 L294 104 Q296 110 298.5 116.5 Q301 123 303 129 Z " />
<glyph glyph-name="E" unicode="E" horiz-adv-x="340" d="M89 568 Q89 561 90 558 Q93 529 93 503 Q92 492 92 480.5 Q92 469 92 457 Q91 444 90.5 430.5 Q90 417 90 403 Q90 390 89 378 Q88 366 88 353 Q88 336 87.5 320 Q87 304 87 287 L87 247 Q86 244 90 244 Q102 245 114 246.5 Q126 248 138 249 Q156 250 175 250.5 Q194 251 213 253 Q219 252 226 252 Q233 252 240 250 Q242 249 243.5 248 Q245 247 247 246 Q248 245 248 244 Q251 241 251 242 Q254 238 250 231 Q250 230 247 230 Q242 230 236.5 229.5 Q231 229 226 229 Q218 228 212 228 Q206 228 200 226 Q188 225 176 224 Q164 223 153 221 Q142 220 130 219.5 Q118 219 107 218 Q102 217 98 217 Q94 217 89 216 Q86 217 86 213 Q86 201 85.5 189.5 Q85 178 85 166 Q84 146 83.5 126 Q83 106 83 86 Q82 71 82 56 Q82 41 81 25 Q81 11 81 -3 Q81 -17 80 -31 Q80 -44 80.5 -57.5 Q81 -71 84 -84 Q84 -90 88 -100 Q91 -109 103 -111 Q108 -111 113 -111.5 Q118 -112 123 -113 Q148 -112 172 -109.5 Q196 -107 221 -102 Q239 -98 257.5 -94.5 Q276 -91 294 -88 Q297 -86 300 -86 Q303 -86 307 -85 Q312 -84 315.5 -85 Q319 -86 324 -88 Q325 -87 326.5 -88 Q328 -89 329 -90 Q329 -91 329.5 -91 Q330 -91 330 -92 Q333 -95 333 -94 Q337 -105 326 -107 Q309 -112 292 -116.5 Q275 -121 258 -126 Q237 -133 216.5 -137 Q196 -141 175 -141 Q161 -141 146.5 -141.5 Q132 -142 118 -140 Q111 -140 105 -138.5 Q99 -137 94 -135 Q88 -131 80 -129 Q48 -115 39 -79 Q37 -72 36.5 -65 Q36 -58 35 -50 Q33 -42 33.5 -35 Q34 -28 34 -20 Q32 -3 35 12 Q34 18 34.5 24.5 Q35 31 35 37 Q35 45 35.5 52.5 Q36 60 36 68 Q36 76 37 82.5 Q38 89 37 97 Q37 104 37.5 111 Q38 118 39 126 L39 148 Q41 156 40.5 165 Q40 174 40 182 Q41 187 41 197 Q41 205 41.5 211.5 Q42 218 41 225 L41 229 Q37 232 41 236 Q42 237 42 239 Q42 246 42 252.5 Q42 259 43 267 Q43 276 43 285 Q43 294 44 303 L44 329 Q44 337 44.5 345.5 Q45 354 45 362 Q46 370 46 376.5 Q46 383 46 390 Q47 399 47 407.5 Q47 416 48 425 Q49 441 49.5 457 Q50 473 52 489 Q52 509 52 530 Q52 551 53 571 L53 573 Q54 575 51 577 Q44 579 42 582 Q37 589 45 591 Q47 593 53 593 Q57 593 60 593.5 Q63 594 66 594 Q85 595 103 596 Q121 597 140 598 Q157 600 173 600 Q189 600 206 601 L253 601 Q260 600 267 599.5 Q274 599 280 597 Q282 596 284 595 Q286 594 288 592 Q289 592 289.5 591.5 Q290 591 291 591 Q293 589 293 584.5 Q293 580 291 578 Q290 578 289.5 577.5 Q289 577 288 577 Q281 578 274.5 578.5 Q268 579 262 578 Q245 577 228.5 576.5 Q212 576 195 575 Q185 574 175 573 Q165 572 155 571 Q138 571 122.5 570.5 Q107 570 91 570 Q90 569 90 569 Q90 568 89 568 Z " />
<glyph glyph-name="F" unicode="F" horiz-adv-x="254" d="M86 560 Q86 555 86.5 550.5 Q87 546 88 541 Q90 522 91 504 Q92 486 91 467 Q90 456 90.5 444.5 Q91 433 90 421 Q90 401 89 381.5 Q88 362 88 341 Q87 326 86.5 311 Q86 296 86 281 Q86 275 86 269 Q86 263 85 257 Q85 254 88 254 Q111 256 132 254 Q137 255 141 253.5 Q145 252 149 251 Q150 251 151 250 Q154 248 156 245 Q158 243 158 242 Q158 239 156 233 Q156 231 152 231 L119 228 Q111 227 103.5 227 Q96 227 88 225 Q85 225 85 221 Q84 211 84.5 201 Q85 191 84 180 Q83 162 83 143.5 Q83 125 82 107 Q82 84 82 61 Q82 38 80 15 Q80 -2 79 -19 Q78 -36 77 -53 Q77 -60 76.5 -67 Q76 -74 76 -82 Q76 -93 75.5 -103.5 Q75 -114 74 -125 Q74 -127 73.5 -129.5 Q73 -132 73 -134 Q73 -138 70 -138 Q65 -136 64 -134 L60 -134 Q58 -133 56.5 -132 Q55 -131 53 -130 Q43 -127 43 -117 Q42 -112 41.5 -107.5 Q41 -103 41 -98 Q40 -87 39.5 -76.5 Q39 -66 39 -55 Q38 -34 37.5 -12.5 Q37 9 36 31 Q36 42 35.5 53.5 Q35 65 36 76 Q36 83 36 89.5 Q36 96 37 104 Q37 115 37 126.5 Q37 138 38 149 Q37 162 38 177 L38 222 Q39 232 39 241.5 Q39 251 39 261 Q40 273 40 284.5 Q40 296 40 308 Q41 318 41 327.5 Q41 337 42 347 Q42 360 42.5 373 Q43 386 44 399 Q45 412 45.5 424.5 Q46 437 46 451 Q48 476 48.5 501 Q49 526 48 552 Q48 560 48.5 567 Q49 574 49 582 Q49 583 49.5 583.5 Q50 584 50 585 Q49 590 52.5 591 Q56 592 60 591 Q66 589 66 589 Q68 588 71 588 Q74 588 76 586 Q76 583 80 585 Q88 586 97 586.5 Q106 587 114 588 Q120 588 126 588.5 Q132 589 138 590 Q166 591 193 590 Q207 589 219.5 588.5 Q232 588 245 587 Q252 586 258 584.5 Q264 583 271 581 Q277 580 284 573 Q286 571 285.5 567 Q285 563 283 561 Q282 560 281 560 Q280 560 278 559 Q273 562 268.5 562.5 Q264 563 259 563 Q246 564 233.5 564 Q221 564 209 565 Q199 565 189.5 564.5 Q180 564 170 563 Q165 562 160 562 Q155 562 150 562 Q134 561 118.5 560.5 Q103 560 88 560 L86 560 Z " />
<glyph glyph-name="G" unicode="G" horiz-adv-x="330" d="M280 399 Q278 397 274 398 Q272 400 270.5 400 Q269 400 267 402 Q259 406 259 417 Q257 435 259 454 Q260 478 259 502.5 Q258 527 250 550 Q247 561 243 570 Q239 579 232 587 L231 588 Q225 596 217 598 Q209 600 201 599 Q187 597 176.5 592 Q166 587 156 579 Q142 568 131.5 554 Q121 540 112 524 Q98 499 88.5 472.5 Q79 446 74 418 Q70 399 67 379.5 Q64 360 62 340 Q59 310 57.5 279.5 Q56 249 57 218 Q57 199 57.5 180.5 Q58 162 59 144 Q61 115 64.5 87.5 Q68 60 73 32 Q78 10 84 -11.5 Q90 -33 101 -53 Q113 -77 130 -94 Q142 -104 153 -108 Q161 -111 173 -107 Q182 -105 189.5 -99.5 Q197 -94 204 -87 Q215 -76 221 -62 Q227 -48 231 -34 Q240 -3 243 29 Q245 43 246.5 55.5 Q248 68 249 82 Q251 100 253.5 117.5 Q256 135 255 153 Q255 156 254.5 156 Q254 156 252 156 Q229 154 206.5 151.5 Q184 149 161 147 Q154 146 147 145.5 Q140 145 133 145 Q129 144 121 146 Q119 146 117.5 147 Q116 148 114 149 Q112 150 109.5 151 Q107 152 105 153 Q99 156 96 162 Q92 169 100 171 L115 174 Q139 179 163.5 181 Q188 183 212 185 Q222 185 232 185.5 Q242 186 252 186 Q254 187 255.5 187 Q257 187 259 188 Q263 189 271 187 Q275 186 278 184.5 Q281 183 284 181 L285 179 Q286 178 287 178 Q292 176 290 171 Q290 169 288 163 L288 160 Q289 152 289.5 143 Q290 134 291 126 Q292 115 292.5 105 Q293 95 292 84 Q290 47 286 13 Q284 -4 281 -20 Q278 -36 273 -52 Q269 -67 263.5 -81 Q258 -95 249 -107 Q239 -121 227 -130 Q215 -139 198 -142 Q179 -145 161 -139 Q150 -135 139.5 -130 Q129 -125 119 -120 Q105 -112 94 -101 Q83 -90 73 -76 Q59 -57 50.5 -36.5 Q42 -16 35 6 Q24 40 19 81 Q17 93 16 105 Q15 117 14 130 Q12 139 12 148 Q12 157 11 165 Q11 178 10.5 190 Q10 202 10 215 L10 243 Q11 255 11.5 267.5 Q12 280 13 292 Q14 302 14.5 312 Q15 322 16 332 Q18 349 20.5 364.5 Q23 380 25 396 Q28 416 32.5 435 Q37 454 42 474 Q50 500 61 523.5 Q72 547 89 569 Q99 583 110.5 594.5 Q122 606 136 615 Q148 622 160 625.5 Q172 629 186 628 Q223 628 249 605 Q266 591 275 573.5 Q284 556 289 536 Q298 500 296 460 Q295 447 294 434 Q293 421 291 408 Q290 405 289.5 402.5 Q289 400 288 397 Q286 393 283 394 Q279 394 280 399 Z M116 550 Q104 535 96 518 Q88 501 82 483 Q89 501 97.5 517.5 Q106 534 116 550 Z M259 -63 Q255 -71 251 -78.5 Q247 -86 243 -94 Q250 -88 253 -79.5 Q256 -71 259 -63 Z M62 493 L63 493 Q66 501 69.5 508 Q73 515 76 523 Q75 524 75 524 Q72 516 68.5 508.5 Q65 501 62 493 Z M233 -66 L234 -66 Q235 -63 236 -60.5 Q237 -58 238 -55 Q236 -57 235.5 -60 Q235 -63 233 -66 Z " />
<glyph glyph-name="H" unicode="H" horiz-adv-x="301" d="M242 -115 Q240 -117 237.5 -115.5 Q235 -114 233 -112 Q231 -112 230 -111 L224 -108 Q222 -106 220.5 -104 Q219 -102 218 -100 Q216 -95 215.5 -90.5 Q215 -86 214 -81 L211 -39 Q210 -27 210 -16 Q210 -5 209 6 Q208 17 207.5 27 Q207 37 207 47 Q206 59 205.5 71 Q205 83 205 95 L205 172 Q205 186 205 200.5 Q205 215 206 229 L206 238 Q202 237 193 237 Q169 233 145 230 Q121 227 97 222 Q93 222 93 218 Q94 197 94 176.5 Q94 156 95 136 Q96 111 96.5 86.5 Q97 62 97 37 Q98 20 97.5 3.5 Q97 -13 97 -30 Q98 -47 98 -63 Q98 -79 99 -96 Q99 -104 100 -111.5 Q101 -119 102 -127 Q102 -132 99 -138 Q99 -140 95 -140 Q90 -140 90 -137 Q88 -136 86 -136 L74 -130 Q67 -126 65 -116 Q64 -111 63 -106.5 Q62 -102 61 -97 Q59 -82 58 -67 Q57 -52 56 -37 Q54 -26 53.5 -15 Q53 -4 51 7 Q50 16 50 24.5 Q50 33 49 42 Q48 56 48 69 Q48 82 47 96 Q46 107 46 116.5 Q46 126 45 137 Q45 151 44.5 166 Q44 181 43 195 L43 210 Q43 212 42.5 213.5 Q42 215 42 217 Q40 215 38.5 216 Q37 217 35 218 Q34 218 33 219 Q32 220 30 220 Q23 223 22 228 Q17 236 26 239 Q31 242 38 244 Q42 245 41 249 L41 302 Q41 313 41.5 323 Q42 333 42 344 Q43 354 43 364 Q43 374 44 385 Q46 399 46.5 413 Q47 427 49 441 Q51 457 52 472 Q53 487 55 503 L61 575 Q62 586 62 597 Q62 608 63 619 Q63 627 71 627 L73 627 Q75 625 77 626 Q79 627 81 625 L87 622 Q93 617 94.5 611.5 Q96 606 97 600 Q100 579 100 556 Q99 536 98.5 515 Q98 494 97 473 Q97 456 96.5 440 Q96 424 95 407 Q94 382 93.5 357.5 Q93 333 93 308 L93 259 Q93 256 96 257 Q113 259 129 261 Q145 263 162 265 Q172 266 182 265.5 Q192 265 203 265 Q207 265 207 269 Q208 280 208.5 292 Q209 304 209 315 Q210 322 210 328 Q210 334 211 340 Q211 348 211.5 356 Q212 364 213 372 Q213 380 213.5 386.5 Q214 393 214 400 Q215 409 215.5 417.5 Q216 426 217 434 Q218 440 218 446 Q218 452 219 457 Q220 464 220 470.5 Q220 477 221 484 Q222 491 222.5 498 Q223 505 224 512 Q225 520 226 528 Q227 536 228 544 Q229 555 229.5 565 Q230 575 230 586 Q231 591 231 596 Q231 601 232 606 L232 610 Q233 614 236.5 615.5 Q240 617 243 616 Q244 615 244 614.5 Q244 614 245 613 Q245 616 249 614 Q251 613 253.5 612.5 Q256 612 258 610 Q260 608 261.5 606.5 Q263 605 265 603 Q267 597 267 593 Q268 584 269 575.5 Q270 567 270 558 Q269 538 269 517.5 Q269 497 268 477 Q267 457 266.5 437 Q266 417 264 397 L261 322 Q261 308 260.5 294 Q260 280 260 266 Q258 263 262 261 Q266 261 265 257 Q270 256 269 251 Q268 246 267 245 Q266 244 261 242 Q259 242 259 239 Q259 231 258.5 222.5 Q258 214 258 206 Q257 174 256.5 142 Q256 110 255 78 Q255 49 254.5 21 Q254 -7 254 -35 Q254 -52 254.5 -69 Q255 -86 255 -103 Q255 -106 254.5 -109.5 Q254 -113 254 -116 Q253 -120 249 -120 Q243 -120 243 -115 L242 -115 Z " />
<glyph glyph-name="I" unicode="I" horiz-adv-x="132" d="M58 615 Q58 613 58.5 612 Q59 611 59 610 Q59 613 61 613 Q62 613 66 611 Q68 613 70 611 Q72 609 74 606 Q77 606 77 604 Q80 596 80 590 Q81 577 81.5 564 Q82 551 83 537 Q84 513 85 489 Q86 465 87 442 Q87 430 87 418.5 Q87 407 88 395 Q89 377 89.5 358.5 Q90 340 91 322 Q91 303 91.5 285 Q92 267 92 248 Q93 218 93.5 188 Q94 158 94 127 Q94 102 94.5 77.5 Q95 53 95 27 Q96 1 96 -25.5 Q96 -52 96 -78 Q96 -89 95.5 -99.5 Q95 -110 94 -121 Q94 -128 91 -134 Q89 -139 86 -139 Q83 -139 79 -137 L79 -135 L79 -130 Q78 -131 77.5 -132 Q77 -133 76 -134 L74 -134 Q72 -134 70 -132 Q67 -132 67 -128 Q65 -130 64 -130 L62 -128 L59 -128 Q57 -126 54.5 -123.5 Q52 -121 50 -118 Q49 -115 48 -112 Q47 -109 47 -107 Q44 -73 44 -38 Q44 -23 43.5 -7.5 Q43 8 43 23 Q42 49 42 74.5 Q42 100 42 126 Q42 142 41.5 157.5 Q41 173 41 189 L41 310 L41 361 Q41 369 41.5 376.5 Q42 384 42 392 L42 431 Q43 453 43 474.5 Q43 496 44 518 Q44 532 44 546.5 Q44 561 45 575 Q45 583 45.5 590 Q46 597 47 605 Q47 608 48 609 Q50 614 54 614 Q55 614 55 614.5 Q55 615 56 615 L58 615 Z " />
<glyph glyph-name="J" unicode="J" horiz-adv-x="249" d="M28 -31 Q30 -27 32 -29 Q34 -29 35 -30 L36 -30 Q39 -29 40 -31 Q41 -33 43 -35 Q45 -37 46 -36 L47 -37 Q48 -39 48 -39 Q50 -44 51 -47.5 Q52 -51 54 -55 Q56 -63 58.5 -70.5 Q61 -78 64 -86 Q65 -90 67.5 -93.5 Q70 -97 72 -100 Q76 -106 85 -106 Q104 -103 120 -86 Q128 -77 133.5 -65.5 Q139 -54 143 -42 Q147 -28 149.5 -13.5 Q152 1 154 16 Q156 30 157 45 Q158 60 159 75 Q161 101 161 126.5 Q161 152 161 178 L161 260 Q160 292 160 323 Q160 354 159 386 Q159 397 158.5 406.5 Q158 416 158 426 Q157 436 156.5 445.5 Q156 455 155 464 Q155 472 155 480.5 Q155 489 154 497 Q154 508 153.5 519.5 Q153 531 153 542 Q153 553 153 564 Q153 575 154 586 Q155 591 156.5 596.5 Q158 602 159 607 L159 608 Q164 616 173 616 Q172 614 172 613 Q172 612 171 610 Q171 608 170.5 607.5 Q170 607 170 605 Q172 607 172.5 610 Q173 613 176 615 Q177 615 177 614 Q176 612 176 610.5 Q176 609 175 607 L176 607 Q176 608 177 609 Q177 611 178 612 Q179 614 179 614 L180 614 Q180 612 179.5 611 Q179 610 179 608 Q179 607 180 607 Q180 609 180.5 609.5 Q181 610 181 611 Q181 613 182 613.5 Q183 614 184 612 Q189 610 188 607 Q187 605 187.5 604.5 Q188 604 188 602 L189 602 Q190 604 190 604.5 Q190 605 191 607 L192 607 Q192 605 192.5 604.5 Q193 604 193 602 Q195 595 195.5 589 Q196 583 197 576 Q198 572 198 566 L198 524 Q199 515 199 506 Q199 497 200 488 Q200 484 200 480 Q200 476 201 472 Q202 460 202.5 448 Q203 436 204 425 L204 412 Q204 376 204.5 340 Q205 304 205 268 Q205 252 204.5 237 Q204 222 204 206 Q204 189 203.5 172.5 Q203 156 202 139 Q202 124 201.5 108.5 Q201 93 200 78 Q198 58 196.5 38.5 Q195 19 193 -1 Q190 -22 186 -42.5 Q182 -63 175 -83 Q165 -110 144 -126 Q116 -146 86 -134 Q72 -129 57 -120 Q35 -107 27 -82 Q19 -61 17 -35 Q17 -30 19 -29 Q21 -27 27 -27 L27 -28 Q27 -29 27.5 -29.5 Q28 -30 28 -31 Z M155 -98 Q162 -93 164.5 -85.5 Q167 -78 169 -70 Q161 -84 155 -98 Z M151 -55 Q149 -60 147 -64.5 Q145 -69 143 -74 Q147 -70 148 -65 Q149 -60 151 -55 Z " />
<glyph glyph-name="K" unicode="K" horiz-adv-x="266" d="M209 589 Q209 590 210 590 Q211 590 211 591 Q211 590 211.5 590 Q212 590 212 589 L212 586 Q213 587 213 588 Q213 589 214 590 L215 590 L215 587 Q218 590 220 588 L223 585 Q223 585 225 581 Q226 583 228 581 Q230 575 230 573 Q231 563 231.5 553 Q232 543 232 532 Q233 520 233.5 507.5 Q234 495 234 482 Q234 461 232 440 Q230 419 227 398 Q223 378 219 358 Q215 338 210 318 Q204 298 197 279.5 Q190 261 179 244 Q163 217 141 199 Q139 197 136.5 195 Q134 193 131 191 Q133 190 134.5 190 Q136 190 138 189 Q174 172 191 136 Q197 124 200.5 111.5 Q204 99 206 85 Q208 72 210 60 Q212 48 212 34 Q213 23 213.5 13 Q214 3 214 -8 Q215 -23 215 -38.5 Q215 -54 215 -70 Q215 -81 215 -92 Q215 -103 214 -114 Q214 -119 213 -123.5 Q212 -128 210 -133 Q209 -140 202 -137 Q198 -137 200 -134 Q200 -134 200 -131 Q198 -133 197 -135 Q192 -133 188.5 -130.5 Q185 -128 180 -126 Q176 -123 175 -118 Q173 -114 172 -110 Q171 -106 170 -101 Q170 -92 169.5 -83 Q169 -74 169 -64 Q169 -51 169 -38 Q169 -25 168 -12 Q168 1 167.5 13 Q167 25 166 37 Q166 44 165.5 50.5 Q165 57 165 63 Q162 98 152 126 Q150 133 147 139 Q144 145 142 152 Q141 154 140 155.5 Q139 157 138 159 Q130 169 117 171 Q99 172 81 168 Q79 167 79 165 Q79 155 79.5 145.5 Q80 136 80 126 Q81 119 81 112.5 Q81 106 81 99 Q82 83 82 68 Q82 53 83 37 Q83 20 83.5 4 Q84 -12 85 -29 Q86 -37 86 -44 Q86 -51 86 -59 Q87 -73 87.5 -86 Q88 -99 88 -113 Q89 -117 87 -125 Q84 -134 76 -128 Q75 -126 75 -126 L75 -120 Q72 -123 71 -126 Q69 -124 68 -123.5 Q67 -123 65 -122 Q64 -122 64 -120 Q63 -119 63.5 -118.5 Q64 -118 63 -117 L60 -120 Q59 -119 59 -115 Q57 -119 57 -118 Q54 -118 54 -116 Q54 -114 54 -112 Q52 -114 52 -115 Q51 -115 51 -114 Q44 -107 44 -100 L44 -50 Q43 -36 42.5 -21.5 Q42 -7 42 8 Q41 19 41 30.5 Q41 42 40 53 L40 101 Q39 114 38.5 126.5 Q38 139 38 152 Q37 162 37 171 Q37 180 37 189 Q37 206 37.5 223 Q38 240 38 257 Q39 299 39.5 340.5 Q40 382 41 424 Q41 438 41.5 451.5 Q42 465 42 479 Q43 493 43.5 508 Q44 523 45 537 Q46 551 47 564.5 Q48 578 49 592 Q50 594 50 596 Q50 598 51 600 Q53 604 57 603 Q62 603 61 598 L61 597 Q63 601 63 601 Q63 602 63.5 602 Q64 602 64 603 Q65 602 65 601 L65 598 Q66 600 66 600.5 Q66 601 67 603 Q68 600 69 600 Q70 602 72 600 Q75 599 76 596 Q77 596 77 595.5 Q77 595 78 595 Q81 595 81 590 Q82 587 82 581 L82 524 Q82 505 81.5 487 Q81 469 81 451 Q81 421 81 390.5 Q81 360 80 330 Q80 302 79.5 274.5 Q79 247 79 220 L79 216 Q80 216 80 217 Q92 223 102.5 230 Q113 237 121 248 Q137 269 148 288 Q157 305 163.5 322.5 Q170 340 175 358 Q179 372 182.5 387 Q186 402 188 417 Q189 426 190 435 Q191 444 192 453 Q193 464 193.5 474 Q194 484 195 494 L195 533 Q195 543 195 552 Q195 561 194 570 Q194 576 196 584 Q198 594 206 592 L209 589 Z M198 314 Q193 305 189 295 Q185 285 180 274 Q175 264 169.5 254.5 Q164 245 159 236 Q174 253 183 273 Q192 293 198 314 Z M160 283 Q168 294 172 305.5 Q176 317 180 330 Q175 318 170 306 Q165 294 160 283 Z M185 312 Q185 313 184 313 Q182 307 179 301 Q176 295 174 289 Q175 289 175 288 Q177 294 180 300 Q183 306 185 312 Z M183 319 L182 320 Q180 315 178 310 Q176 305 174 300 L175 299 Q177 304 179 309 Q181 314 183 319 Z " />
<glyph glyph-name="L" unicode="L" horiz-adv-x="213" d="M45 582 Q46 584 46 585 Q46 586 47 587 L48 587 L48 584 Q49 585 49 585.5 Q49 586 50 587 Q51 586 51 585 Q55 587 58 582 Q58 579 60 580 Q62 580 62 577 Q64 569 64 565 Q64 553 64.5 541 Q65 529 65 516 Q65 485 65.5 454.5 Q66 424 65 392 Q65 357 64 321 Q63 285 62 249 Q62 217 61.5 185.5 Q61 154 61 122 Q61 101 60.5 80 Q60 59 61 38 Q61 15 61.5 -8 Q62 -31 63 -54 Q63 -65 63.5 -75.5 Q64 -86 65 -97 Q66 -101 66 -108 Q66 -110 69 -110 Q92 -108 114.5 -108 Q137 -108 160 -108 Q170 -108 179 -108.5 Q188 -109 197 -109 Q206 -111 212 -112 Q215 -114 215 -114 Q217 -115 220 -118 Q222 -120 222 -122 Q222 -124 221.5 -125 Q221 -126 221 -128 Q219 -130 217 -130 Q210 -130 203.5 -130 Q197 -130 190 -131 Q179 -131 169.5 -131.5 Q160 -132 150 -133 Q141 -133 131.5 -133.5 Q122 -134 113 -135 Q106 -136 99 -136 Q92 -136 85 -137 Q80 -138 74.5 -138 Q69 -138 63 -138 Q61 -139 57 -139 Q46 -139 40 -134 Q34 -132 32 -131 Q26 -127 25 -124 Q23 -119 27 -117 Q26 -113 26 -110 Q26 -107 25 -103 Q25 -89 25 -76.5 Q25 -64 24 -50 Q22 -33 22 -17.5 Q22 -2 21 14 Q20 39 20.5 63 Q21 87 22 111 Q22 125 22.5 138.5 Q23 152 23 166 Q24 188 24.5 210 Q25 232 26 255 Q26 266 26.5 277 Q27 288 28 299 Q30 329 30 358.5 Q30 388 30 418 Q31 444 31 470 Q31 496 32 522 Q33 536 33.5 550 Q34 564 35 578 L35 582 Q36 589 43 588 Q45 588 45 586 Q45 584 44 583 Q45 583 45 582 Z " />
<glyph glyph-name="M" unicode="M" horiz-adv-x="376" d="M74 590 Q75 590 76 591 Q76 590 76.5 589.5 Q77 589 77 588 Q77 589 77.5 589 Q78 589 78 590 L80 588 Q88 586 92 582 Q96 578 100 569 Q105 558 109 546.5 Q113 535 117 523 Q129 488 139.5 452.5 Q150 417 161 381 Q170 346 182 315 Q184 310 186 306.5 Q188 303 190 299 Q193 295 197 299 Q200 301 201.5 304 Q203 307 205 309 Q218 332 222 352 Q230 374 236 396 Q242 418 249 440 Q260 474 270.5 507.5 Q281 541 293 575 Q293 578 295 582 Q296 586 301 588 L307 588 Q308 588 308.5 587 Q309 586 311 585 Q311 587 312 587.5 Q313 588 315 586 L316 586 Q317 587 319 584 Q325 587 329 577 Q331 578 332.5 576.5 Q334 575 334 573 Q335 569 335.5 566 Q336 563 337 559 Q337 555 337.5 551 Q338 547 338 542 Q337 531 337.5 519 Q338 507 337 496 Q336 464 335.5 431.5 Q335 399 336 366 Q334 334 336 303 L336 246 Q337 233 337.5 221 Q338 209 338 197 L338 114 L335 -3 L332 -60 Q332 -65 332.5 -70 Q333 -75 333 -80 L327 -119 Q327 -122 325 -124 Q324 -126 323.5 -126 Q323 -126 322 -127 Q318 -127 318 -123 L318 -120 Q316 -122 315 -124 Q313 -122 311 -122 Q309 -122 310 -118 L307 -121 L307 -118 Q306 -118 305.5 -118.5 Q305 -119 304 -119 Q303 -117 303 -117 Q300 -114 300 -115 Q297 -111 296.5 -106.5 Q296 -102 294 -97 Q293 -91 293 -84.5 Q293 -78 292 -72 Q291 -62 292 -50 Q290 -24 292 2 Q293 31 293.5 58.5 Q294 86 294 115 Q295 129 296 141.5 Q297 154 296 168 Q297 182 296.5 195 Q296 208 296 221 Q295 229 295 235.5 Q295 242 294 249 Q295 263 295 276 Q295 289 295 303 L295 339 Q294 368 295 396.5 Q296 425 296 454 Q297 458 296.5 461.5 Q296 465 296 469 Q296 468 295.5 467.5 Q295 467 295 466 Q286 438 278.5 410.5 Q271 383 263 356 Q258 341 253.5 326.5 Q249 312 242 298 Q237 284 231 277 Q219 265 203 268 Q202 269 200 269 Q191 274 182 278 Q173 282 165 288 Q159 293 155 298.5 Q151 304 147 311 Q142 321 138.5 331 Q135 341 131 351 Q124 371 119 390 Q114 409 109 429 Q105 446 100.5 462 Q96 478 92 495 Q91 495 91 496 L91 493 Q90 466 89 439.5 Q88 413 88 386 Q86 352 85 318.5 Q84 285 83 252 Q82 225 82.5 199 Q83 173 82 146 Q83 132 83.5 118 Q84 104 83 90 Q84 66 83.5 42 Q83 18 82 -6 Q81 -30 80.5 -53.5 Q80 -77 79 -100 Q79 -117 75 -132 Q75 -133 74 -133.5 Q73 -134 73 -135 Q70 -144 62 -138 Q63 -136 64 -134.5 Q65 -133 66 -131 Q65 -130 65 -130 Q64 -132 61 -135 Q60 -136 57 -136 Q54 -133 54 -133 Q54 -131 55 -130 Q54 -131 53 -131.5 Q52 -132 51 -133 L51 -132 L51 -130 Q50 -130 49.5 -130.5 Q49 -131 48 -131 Q47 -130 47 -128 L45 -128 Q43 -128 43 -126 Q39 -121 38.5 -115.5 Q38 -110 38 -105 Q37 -94 37.5 -82 Q38 -70 38 -59 Q39 -41 40 -23 Q41 -5 41 13 Q42 44 41 75 Q41 85 41.5 94.5 Q42 104 41 114 Q42 123 41.5 132.5 Q41 142 41 151 Q39 179 40 207 Q41 235 41 263 Q41 276 42.5 310.5 Q44 345 46 382.5 Q48 420 50.5 452 Q53 484 54 492 Q55 510 56 527.5 Q57 545 58 563 Q59 568 60 573.5 Q61 579 63 585 Q64 591 70 591 Q71 591 72 590.5 Q73 590 74 590 Z M227 290 Q233 295 236 302.5 Q239 310 241 318 Q235 304 227 290 Z M217 308 Q221 313 223 319 Q225 325 227 331 Q221 320 217 308 Z " />
<glyph glyph-name="N" unicode="N" horiz-adv-x="284" d="M222 580 Q223 582 225 580 L227 580 Q228 579 228 576 Q229 578 229 580 Q234 578 236 575 Q237 573 237 573 Q241 573 241 569 Q242 566 242 563 Q242 560 243 558 Q243 540 243.5 522 Q244 504 244 486 Q244 459 243.5 431.5 Q243 404 243 376 L243 264 Q243 237 243.5 209.5 Q244 182 244 155 Q244 123 244.5 90.5 Q245 58 245 26 L245 -60 Q246 -69 246 -78 Q246 -87 247 -96 Q247 -106 247 -115.5 Q247 -125 245 -134 Q245 -136 244 -136 Q242 -144 236 -139 Q234 -138 232.5 -137.5 Q231 -137 229 -136 Q227 -135 225.5 -134.5 Q224 -134 222 -133 Q213 -128 213 -120 L210 -99 Q210 -94 209.5 -89.5 Q209 -85 209 -80 Q205 -35 206 8.5 Q207 52 206 97 Q205 135 205 172 Q205 209 204 247 Q204 254 201 260 Q194 270 189 281 Q184 292 179 303 Q167 329 155 354 Q143 379 131 404 Q119 428 107 451.5 Q95 475 82 498 Q82 498 80 502 L80 499 Q79 476 79 454.5 Q79 433 79 411 Q78 369 77.5 327.5 Q77 286 77 244 Q76 209 76 175.5 Q76 142 76 108 Q77 88 77.5 69 Q78 50 79 31 Q79 18 79.5 5.5 Q80 -7 81 -20 L84 -92 Q84 -100 83.5 -108.5 Q83 -117 81 -126 Q81 -127 79 -131 Q77 -139 70 -132 Q72 -128 72 -127 L72 -126 Q71 -127 70.5 -128 Q70 -129 69 -130 Q67 -132 66 -131 Q64 -129 62 -129 Q63 -128 63 -125 L60 -128 L60 -125 Q58 -127 58 -127 L57 -127 Q57 -126 56.5 -125.5 Q56 -125 56 -123 Q55 -124 54 -124 Q49 -120 49 -112 Q47 -96 46.5 -81 Q46 -66 44 -51 Q43 -41 43 -31.5 Q43 -22 42 -12 Q41 0 40.5 11.5 Q40 23 39 34 Q38 41 38 47 Q38 53 38 60 Q37 94 37 127.5 Q37 161 37 194 Q37 221 37 248 Q37 275 38 301 Q38 333 38.5 364 Q39 395 40 426 Q41 455 41 483 Q41 511 42 540 Q42 547 42.5 554 Q43 561 44 568 Q44 571 45 573 Q46 577 51 576 Q55 578 55 576 Q55 574 55 572 L57 574 Q58 575 58 576 Q59 575 59 574.5 Q59 574 60 573 Q60 574 60.5 574 Q61 574 61 575 Q61 575 63 573 Q67 574 71 570 Q71 566 73 567 Q74 567 75 566 Q80 553 87 541.5 Q94 530 102 518 Q119 490 135.5 461.5 Q152 433 167 403 Q175 386 184 368 Q193 350 202 332 Q202 331 204 329 L204 332 L204 427 Q204 441 204 456 Q204 471 205 486 Q205 501 205 515.5 Q205 530 206 545 L209 575 Q210 583 219 582 Q220 582 222 580 Z " />
<glyph glyph-name="O" unicode="O" horiz-adv-x="298" d="M251 246 L251 183 Q252 164 252 145.5 Q252 127 253 108 Q253 91 253.5 75 Q254 59 253 42 Q253 27 252 12 Q251 -3 249 -18 Q247 -32 245 -45.5 Q243 -59 239 -73 Q237 -82 232.5 -91 Q228 -100 223 -108 Q208 -132 176 -138 Q160 -141 146 -134 Q138 -130 129 -126.5 Q120 -123 112 -118 Q98 -110 88 -98 Q78 -86 70 -72 Q57 -48 52 -20 Q50 -9 48.5 1 Q47 11 45 22 Q44 27 44 32 Q44 37 43 42 Q42 72 41.5 102 Q41 132 41 161 Q41 175 41.5 188 Q42 201 43 215 Q43 226 43.5 237.5 Q44 249 45 261 Q46 274 46.5 286 Q47 298 48 311 Q49 322 50 334 Q51 346 52 357 Q53 370 53.5 382.5 Q54 395 56 409 Q57 418 58 427.5 Q59 437 61 446 Q63 455 64.5 464 Q66 473 68 481 Q75 511 89 538 Q102 560 127 570 Q131 573 137 573 Q142 572 147 573.5 Q152 575 157 573 Q166 572 177 568 Q182 566 186 563 Q190 560 195 556 Q206 547 212.5 535.5 Q219 524 224 512 Q232 492 237 472.5 Q242 453 244 432 Q247 412 247 392 Q250 360 250 328 Q251 309 251 289 Q251 269 251 246 Z M203 230 Q204 247 204 271 Q204 295 205 321 L205 364 Q204 378 203.5 392.5 Q203 407 202 422 Q201 430 200.5 439 Q200 448 199 456 Q197 471 192.5 484.5 Q188 498 183 512 Q180 521 176.5 529 Q173 537 167 545 L164 548 Q147 548 140 535 Q132 522 125.5 509 Q119 496 115 481 Q109 460 106 443 Q105 433 104 424 Q103 415 102 406 Q100 392 99 378 Q98 364 96 350 Q95 342 94.5 334 Q94 326 93 318 Q92 307 91 295.5 Q90 284 89 273 Q88 265 88 256.5 Q88 248 87 239 Q86 225 85.5 210 Q85 195 84 181 Q84 147 84 113 Q84 79 86 45 Q86 39 86.5 32.5 Q87 26 88 20 L94 -25 Q97 -45 105 -64 Q110 -73 114.5 -81.5 Q119 -90 127 -97 Q131 -100 135 -102.5 Q139 -105 144 -103 Q166 -100 177 -83 Q183 -75 186.5 -65.5 Q190 -56 192 -46 Q196 -32 197 -17.5 Q198 -3 199 11 Q200 28 201 45 Q202 62 202 79 Q203 114 203 149.5 Q203 185 203 230 Z M108 495 Q120 518 131 541 Q129 539 125.5 534 Q122 529 118.5 522 Q115 515 112 508 Q109 501 108 495 Z M227 -70 Q223 -78 220 -85 Q217 -92 213 -99 Q218 -96 222 -87.5 Q226 -79 227 -70 Z M101 532 Q96 526 90.5 512 Q85 498 85 494 Q89 503 92.5 512.5 Q96 522 101 532 Z M195 -80 Q199 -76 200 -72 Q201 -68 202 -63 Q200 -67 198.5 -71 Q197 -75 195 -80 Z M98 504 Q99 504 99 503 Q101 508 102.5 512 Q104 516 106 521 L105 521 Q102 512 98 504 Z M92 500 L93 500 Q95 504 96.5 508 Q98 512 100 517 L99 517 Q97 512 95.5 508.5 Q94 505 92 500 Z " />
<glyph glyph-name="P" unicode="P" horiz-adv-x="240" d="M84 190 L84 186 Q83 142 82.5 99 Q82 56 82 12 Q82 -14 81.5 -40.5 Q81 -67 81 -93 Q82 -112 76 -133 Q75 -135 75 -136 Q75 -137 74 -138 Q72 -142 69 -140 Q65 -140 66 -136 L66 -134 Q64 -136 63 -138 Q61 -136 57 -134 Q56 -133 54 -133 Q48 -131 45.5 -125.5 Q43 -120 42 -114 Q40 -105 40 -96 Q40 -87 40 -77 Q40 -45 39.5 -13.5 Q39 18 40 50 Q40 82 41 114.5 Q42 147 42 179 L45 332 Q46 370 46 406.5 Q46 443 48 481 Q48 496 48.5 511 Q49 526 50 542 Q52 550 52 555 Q52 558 57 560 Q62 561 65.5 562 Q69 563 74 564 Q115 567 147 544 Q161 534 170.5 520.5 Q180 507 186 491 Q191 478 193.5 465.5 Q196 453 198 439 Q200 425 201 411 Q202 397 201 383 Q200 372 199 361.5 Q198 351 196 340 Q193 307 183 279 Q179 264 173 249.5 Q167 235 157 222 Q144 206 127 196 Q122 194 118 193 Q114 192 109 191 Q104 191 98.5 190.5 Q93 190 88 189 Q87 189 86 189.5 Q85 190 84 190 Z M84 229 Q99 238 109 248 Q119 260 128 277 Q133 289 137.5 301 Q142 313 145 326 Q156 368 156 410 Q156 417 155.5 423.5 Q155 430 155 437 Q154 447 153.5 456.5 Q153 466 151 476 Q148 488 144 499 Q140 510 133 520 Q124 536 108 537 Q105 538 100 538 L81 538 Q82 460 82.5 383.5 Q83 307 84 229 Z M150 235 Q159 244 163.5 255 Q168 266 171 277 Q166 267 160.5 256.5 Q155 246 150 235 Z M138 266 Q143 272 145.5 279.5 Q148 287 150 295 Q147 287 144 280 Q141 273 138 266 Z M158 280 Q157 281 157 281 Q155 278 154.5 275 Q154 272 152 268 L153 268 Q154 272 158 280 Z M149 273 Q151 276 151.5 279 Q152 282 154 284 Q153 285 153 285 Q152 282 151 279 Q150 276 149 273 Z " />
<glyph glyph-name="Q" unicode="Q" horiz-adv-x="305" d="M220 -118 Q215 -121 211 -124 Q207 -127 202 -129 Q167 -144 133 -128 Q128 -125 122 -122.5 Q116 -120 111 -117 Q94 -110 82 -97 Q66 -81 56 -56 Q50 -42 46.5 -27 Q43 -12 41 4 Q36 39 35 72 Q34 134 35 197 Q35 209 35 221 Q35 233 36 245 Q37 258 37.5 271 Q38 284 40 297 L46 354 Q51 392 59.5 429 Q68 466 82 501 Q87 515 93.5 526.5 Q100 538 108 549 Q118 565 139 565 Q142 565 145.5 564 Q149 563 152 563 Q155 562 156 563 Q161 567 169 565 Q176 563 183 561.5 Q190 560 197 558 Q201 557 207 553 Q229 538 237 510 Q244 484 249 454 Q251 443 252 432.5 Q253 422 254 411 Q256 399 256 387.5 Q256 376 257 364 Q258 351 258 339 Q258 327 259 315 Q260 301 260.5 287.5 Q261 274 262 260 Q263 249 263.5 238 Q264 227 265 216 Q266 201 266 186 Q266 171 267 156 Q267 145 266.5 133 Q266 121 266 109 L263 61 Q262 47 261.5 33.5 Q261 20 259 6 Q257 -15 253 -36 Q249 -57 242 -77 Q240 -83 237 -90 Q236 -93 238 -95 Q246 -103 254 -111 Q262 -119 270 -127 Q278 -135 284.5 -143 Q291 -151 299 -159 Q302 -164 302 -167.5 Q302 -171 301 -176 Q300 -180 294 -178 Q291 -176 288.5 -175 Q286 -174 283 -172 Q272 -168 265 -161 Q258 -154 250 -147 Q242 -140 235.5 -133.5 Q229 -127 222 -121 Q220 -119 220 -118 Z M178 -76 Q176 -75 172 -71 Q164 -63 156 -54 Q148 -45 140 -37 Q138 -34 134 -26 Q132 -20 138 -20 Q144 -20 146 -21 Q154 -21 161 -26 Q168 -31 174 -36 L192 -51 Q192 -50 193 -49 Q195 -44 196 -38 Q197 -32 199 -27 Q208 4 211 37 Q211 45 211.5 51.5 Q212 58 213 65 Q214 74 214.5 82.5 Q215 91 215 100 L218 142 Q219 155 219.5 167 Q220 179 220 192 Q219 212 218.5 232.5 Q218 253 218 274 Q217 281 217 287.5 Q217 294 216 302 Q216 313 215.5 324.5 Q215 336 214 347 Q213 355 213 362 Q213 369 212 377 Q211 388 210.5 398.5 Q210 409 208 420 Q206 443 202 464 Q199 478 195.5 490.5 Q192 503 189 517 Q187 522 185.5 526.5 Q184 531 180 535 Q179 537 175 539 Q174 540 172 540 Q171 537 168.5 536.5 Q166 536 164 535 Q162 534 159.5 534 Q157 534 155 532 Q150 529 146 524 Q142 519 139 514 Q131 500 125.5 485 Q120 470 115 454 Q104 417 97.5 379 Q91 341 88 303 Q87 292 86.5 281.5 Q86 271 86 260 Q85 248 84.5 236 Q84 224 84 212 Q82 177 82.5 143.5 Q83 110 85 76 Q85 59 86 42.5 Q87 26 89 10 Q91 -4 93 -18 Q95 -32 99 -46 Q102 -56 106 -66 Q110 -76 118 -84 Q123 -89 128.5 -92.5 Q134 -96 142 -94 Q154 -92 164 -87 Q168 -85 171.5 -82.5 Q175 -80 178 -76 Z M138 531 Q126 519 120.5 504.5 Q115 490 110 474 Q115 489 122.5 503 Q130 517 138 531 Z M87 477 Q92 488 96 499 Q100 510 105 521 Q93 500 87 477 Z M233 -64 Q231 -68 229 -72 Q227 -76 225 -80 Q224 -82 227 -84 Q229 -79 230 -74 Q231 -69 233 -64 Z M105 508 L104 509 Q102 501 99 494.5 Q96 488 94 480 Q101 495 105 508 Z M112 513 L111 513 Q109 506 106 500 Q103 494 100 487 Q101 486 101 486 Q104 493 107 499.5 Q110 506 112 513 Z M209 -50 Q207 -53 205.5 -57.5 Q204 -62 205 -64 Q206 -60 207 -56.5 Q208 -53 209 -50 Z M218 -61 Q217 -63 216 -65 Q215 -67 214 -69 L215 -69 Q216 -67 218 -61 Z " />
<glyph glyph-name="R" unicode="R" horiz-adv-x="241" d="M62 -130 Q62 -131 61 -131 Q58 -128 56 -127 Q56 -126 55 -126 Q52 -126 51.5 -124 Q51 -122 49 -120 Q44 -110 44 -100 Q43 -85 42.5 -69.5 Q42 -54 41 -39 Q41 -29 40.5 -19.5 Q40 -10 40 0 Q40 35 40 71 Q40 107 39 142 Q39 165 39 187.5 Q39 210 40 233 Q40 297 40.5 360 Q41 423 41 487 Q41 504 41.5 521.5 Q42 539 42 556 Q42 561 42.5 567 Q43 573 43 579 Q43 581 42 582 Q39 588 45 592 Q50 595 55.5 596 Q61 597 66 598 Q78 599 89 596.5 Q100 594 111 591 Q123 587 133 580.5 Q143 574 153 566 Q173 549 185 527 Q197 505 204 479 Q210 458 210 435 Q211 422 211 410 Q211 398 211 385 Q210 362 207.5 338 Q205 314 199 291 Q194 273 186.5 256 Q179 239 168 224 Q161 215 153.5 206.5 Q146 198 136 192 L136 191 Q140 189 143.5 186 Q147 183 151 181 Q170 166 181.5 146.5 Q193 127 199 104 Q203 91 204.5 79 Q206 67 208 54 Q211 29 211 4.5 Q211 -20 211 -45 Q212 -59 212 -73.5 Q212 -88 213 -102 Q213 -109 213 -115 Q213 -121 211 -128 Q210 -129 210 -132 Q205 -141 197 -135 Q196 -135 196 -133 L196 -126 Q195 -128 194 -129 Q193 -130 192 -132 L191 -132 Q188 -130 184 -128 Q183 -127 183 -126 Q183 -124 182 -123 Q181 -125 179 -127 Q179 -125 177 -123 L176 -124 Q173 -124 171 -119 Q171 -120 170.5 -120 Q170 -120 170 -121 Q161 -112 160 -103 Q159 -98 159 -94 Q159 -90 159 -86 Q157 -58 157 -31 Q157 -4 156 24 Q156 48 153.5 71.5 Q151 95 144 118 Q138 144 122 162 Q122 163 121 163 Q118 168 113 169 Q108 170 103 170 Q98 170 93.5 169.5 Q89 169 84 168 Q82 168 82 165 L82 81 Q82 64 82.5 47.5 Q83 31 83 14 Q84 0 84 -12.5 Q84 -25 85 -38 Q86 -53 86.5 -67.5 Q87 -82 88 -97 Q88 -100 88 -103.5 Q88 -107 89 -111 Q89 -125 84 -134 Q81 -142 74 -137 Q72 -135 70 -135 Q68 -135 66 -133 Q64 -131 62 -130 Z M77 570 Q79 482 80 394.5 Q81 307 81 219 Q85 221 85 221 Q95 227 102.5 235 Q110 243 118 252 Q129 266 136.5 281 Q144 296 149 313 Q155 333 157 352.5 Q159 372 160 392 Q161 403 161 414.5 Q161 426 161 438 Q161 452 160 464.5 Q159 477 156 491 Q153 507 147.5 521.5 Q142 536 131 549 Q126 556 119.5 561.5 Q113 567 104 569 Q88 572 77 570 Z M159 236 Q163 240 167.5 247 Q172 254 176 262 Q180 270 182.5 277.5 Q185 285 185 289 L173 262 Q170 255 166 249 Q162 243 159 236 Z M161 303 Q158 294 154.5 285 Q151 276 147 267 Q153 275 156 284 Q159 293 161 303 Z M163 273 L164 273 Q166 278 167.5 282 Q169 286 171 291 L170 291 Q168 286 166.5 282 Q165 278 163 273 Z M159 278 Q159 277 160 277 Q162 282 163.5 286 Q165 290 167 295 L166 296 Q164 291 162.5 287 Q161 283 159 278 Z " />
<glyph glyph-name="S" unicode="S" horiz-adv-x="231" d="M183 407 Q182 405 180 403 L174 406 L173 406 Q173 407 171 407 Q169 408 167 410 Q163 416 163 419 L163 461 Q165 479 164 497 Q163 515 158 533 Q156 538 153.5 543 Q151 548 147 553 Q145 557 137 557 Q129 554 123 547 Q115 539 110.5 530 Q106 521 103 510 Q96 487 93 459 Q91 444 90 429.5 Q89 415 87 400 Q86 393 86 386.5 Q86 380 86 372 Q85 357 85 341.5 Q85 326 85 311 Q85 301 86 291.5 Q87 282 90 273 Q93 263 101 253 Q105 248 116 245 L140 239 Q158 235 175 221 Q182 214 187.5 207 Q193 200 196 191 Q198 184 199 177.5 Q200 171 201 164 Q203 147 203.5 129 Q204 111 204 94 Q204 82 204.5 70 Q205 58 205 47 Q204 34 204 21.5 Q204 9 203 -5 Q203 -20 201.5 -34.5 Q200 -49 198 -64 Q196 -75 193 -85 Q190 -95 185 -106 Q181 -113 175.5 -118 Q170 -123 164 -128 Q143 -145 118 -134 Q107 -130 97.5 -125.5 Q88 -121 78 -114 Q64 -104 56 -87 Q51 -75 48 -63.5 Q45 -52 44 -39 Q43 -28 42.5 -18.5 Q42 -9 42 2 Q42 11 43 19.5 Q44 28 45 36 L45 37 Q46 45 54 45 Q57 45 57 41 Q58 44 59 43.5 Q60 43 62 43 Q64 42 66.5 41.5 Q69 41 71 39 Q73 37 74.5 35.5 Q76 34 77 32 Q80 27 80 22 Q82 11 82.5 0 Q83 -11 84 -22 Q86 -39 88 -55 Q90 -71 96 -87 Q97 -89 97.5 -91.5 Q98 -94 100 -96 Q107 -106 116 -101 Q137 -90 144 -70 Q148 -61 149.5 -51.5 Q151 -42 152 -32 Q153 -24 153.5 -15 Q154 -6 154 2 Q155 7 155 11 Q155 15 155 20 Q155 49 155.5 79 Q156 109 155 138 Q155 161 152 187 Q152 192 150 197 Q148 202 146 207 Q144 209 143 210 Q142 211 139 211 Q112 217 84 233 Q50 252 42 293 Q39 307 39 321 Q39 335 40 349 L40 366 L43 417 Q46 445 49.5 472.5 Q53 500 60 527 Q65 548 75 564 Q80 573 91 582 Q103 593 123 591 Q129 590 135 588.5 Q141 587 147 585 Q154 583 160 579 Q166 575 171 570 Q184 559 190.5 546 Q197 533 200 517 Q203 502 202.5 487 Q202 472 200 457 Q198 446 196 434.5 Q194 423 192 412 Q192 410 191 407.5 Q190 405 189 403 L189 402 Q188 401 188 401 L183 401 L183 404 L183 407 Z M111 552 Q106 547 101 538.5 Q96 530 96 524 Q100 531 103.5 537.5 Q107 544 111 552 Z M173 -99 Q177 -97 180 -90.5 Q183 -84 182 -79 Q180 -84 177.5 -89 Q175 -94 173 -99 Z M75 531 L84 552 Q78 544 75 531 Z M81 532 Q85 540 86 545 L85 545 Q84 542 83 538.5 Q82 535 81 532 Z M91 544 Q91 545 90 545 Q89 542 88 539 Q87 536 86 532 Q90 540 91 544 Z M154 -82 Q157 -79 157.5 -76 Q158 -73 159 -69 Q157 -72 156.5 -75.5 Q156 -79 154 -82 Z " />
<glyph glyph-name="T" unicode="T" horiz-adv-x="209" d="M91 540 L81 540 Q76 539 70.5 538.5 Q65 538 60 538 Q54 538 48 537.5 Q42 537 36 537 Q31 537 26 537.5 Q21 538 16 540 Q10 541 5 545 Q3 547 0 547.5 Q-3 548 -5 550 Q-9 554 -9 559 Q-9 563 -5 565 Q-1 566 2 566.5 Q5 567 9 568 Q21 570 33 571 Q45 572 57 573 Q67 575 76.5 575.5 Q86 576 97 577 Q105 578 113 578.5 Q121 579 129 579 Q137 580 145.5 580.5 Q154 581 163 582 Q174 583 184.5 582 Q195 581 206 577 Q214 575 218 570 Q219 569 220.5 568.5 Q222 568 223 566 Q224 560 221 553 Q220 552 216 552 L213 552 Q208 549 203.5 549 Q199 549 194 548 Q183 547 172 546.5 Q161 546 150 544 Q145 544 139.5 543.5 Q134 543 129 543 L129 531 Q131 508 131 485 Q131 462 131 439 Q131 425 130.5 412.5 Q130 400 129 386 Q129 374 128.5 362 Q128 350 128 337 Q126 290 126 243 Q126 196 126 149 Q126 131 126 113 Q126 95 127 77 Q127 63 127 50 Q127 37 128 24 Q128 6 128.5 -12 Q129 -30 130 -47 L130 -49 L130 -102 Q131 -115 126 -131 L126 -132 Q122 -143 112 -136 Q108 -134 105 -133 Q103 -132 101 -131.5 Q99 -131 97 -129 Q88 -124 87 -117 Q83 -109 82 -100 Q81 -91 81 -82 L81 -28 L81 52 Q80 69 80 85.5 Q80 102 80 119 Q80 127 79.5 135 Q79 143 79 151 Q79 172 79 192.5 Q79 213 78 233 L78 277 Q79 294 79 310 Q79 326 80 343 Q80 354 80.5 365 Q81 376 81 387 L84 438 Q85 448 85 458 Q85 468 86 479 Q87 490 88 501.5 Q89 513 90 524 Q90 528 90.5 532 Q91 536 91 540 Z " />
<glyph glyph-name="U" unicode="U" horiz-adv-x="258" d="M38 585 Q39 588 40.5 587.5 Q42 587 43 586 Q46 585 48 584 Q50 583 52 581 Q56 578 57 574.5 Q58 571 59 567 Q62 550 62 535 Q63 486 63 437.5 Q63 389 64 341 Q65 286 65.5 232 Q66 178 68 124 Q68 107 69 91.5 Q70 76 71 59 Q73 34 75.5 9 Q78 -16 84 -41 Q87 -52 90.5 -62 Q94 -72 100 -81 Q105 -88 110 -94 Q115 -100 123 -103 Q137 -109 149 -100 Q158 -94 163 -83 Q169 -71 173 -58.5 Q177 -46 178 -32 Q180 -19 181 -6 Q182 7 183 21 Q185 56 184 89.5 Q183 123 182 158 Q183 172 183 185 Q183 198 183 211 Q183 225 183 239.5 Q183 254 184 268 Q184 295 184 322 Q184 349 182 376 Q182 390 182.5 403.5 Q183 417 183 431 L183 440 L183 471 Q183 482 182 492 Q181 502 181 513 L181 545 Q181 549 183 555 Q182 560 184 570 Q184 574 188 574 Q190 575 195 575 Q198 574 200.5 573.5 Q203 573 206 572 Q210 570 214 567 L215 566 Q219 564 220 561 Q221 558 223 555 Q224 550 225.5 546 Q227 542 227 537 Q228 530 228 523 Q228 516 228 508 Q228 503 228 498 Q228 493 229 488 L229 446 Q229 438 229 429.5 Q229 421 228 413 Q227 396 226.5 378.5 Q226 361 226 343 Q226 329 225.5 316 Q225 303 225 289 Q224 263 224 237.5 Q224 212 223 186 Q222 148 222 110.5 Q222 73 220 35 Q220 18 218.5 0.5 Q217 -17 215 -34 Q214 -68 203 -101 Q202 -114 192 -125 Q182 -136 166 -138 Q154 -140 143.5 -137 Q133 -134 122 -129 Q116 -126 110 -123.5 Q104 -121 99 -117 Q80 -106 68.5 -90.5 Q57 -75 50 -56 Q45 -45 43 -34 Q41 -23 39 -12 Q37 -2 36 8 Q35 18 33 29 Q32 35 32 40.5 Q32 46 32 52 Q30 97 29.5 142.5 Q29 188 28 233 Q28 256 27.5 279 Q27 302 28 325 Q27 352 27 379 Q27 406 27 433 Q28 464 27.5 494.5 Q27 525 28 556 Q27 562 27.5 568 Q28 574 28 580 Q29 587 35 588 Q38 588 38 585 Z M187 -109 Q192 -106 193 -102 Q194 -98 196 -93 Q194 -97 191.5 -100.5 Q189 -104 187 -109 Z M180 -77 L179 -77 Q175 -85 174 -90 L175 -90 Q176 -84 180 -77 Z " />
<glyph glyph-name="V" unicode="V" horiz-adv-x="287" d="M252 576 Q251 574 250.5 571 Q250 568 249 566 L250 566 Q251 568 251 569.5 Q251 571 252 573 L255 576 L255 572 Q255 570 254.5 569.5 Q254 569 254 567 L257 573 Q258 575 258 575 Q258 574 258.5 574 Q259 574 259 573 Q258 572 258 569 Q259 571 259.5 572 Q260 573 261 575 Q263 573 264 572.5 Q265 572 266 570 Q267 568 266.5 566.5 Q266 565 266 563 Q267 565 267.5 565.5 Q268 566 269 568 L270 569 Q270 567 270.5 566 Q271 565 271 563 L271 553 Q270 533 266.5 514 Q263 495 260 475 Q243 389 230 304 Q226 275 222.5 245 Q219 215 215 186 Q210 146 205 106 Q200 66 195 26 Q192 5 189.5 -16.5 Q187 -38 185 -59 Q183 -73 181.5 -86.5 Q180 -100 175 -114 Q172 -122 167 -131 Q161 -141 149 -136 Q144 -134 140.5 -132 Q137 -130 132 -128 Q122 -124 115 -111 Q106 -95 103 -75 Q100 -61 98 -46 Q96 -31 94 -17 Q90 5 87 26 Q84 47 81 69 Q77 89 74 109.5 Q71 130 67 150 Q65 167 62 184.5 Q59 202 56 219 Q54 236 51 252.5 Q48 269 46 286 L37 352 L31 406 Q29 421 27.5 436 Q26 451 24 466 Q22 483 19.5 500 Q17 517 15 534 Q13 542 12.5 549.5 Q12 557 10 565 Q10 567 9.5 568 Q9 569 10 571 Q10 574 13 575.5 Q16 577 18 575 Q19 575 19 572 Q20 575 23 574 Q25 573 26.5 573 Q28 573 30 571 Q36 566 39 559 Q43 547 45.5 534.5 Q48 522 51 510 Q56 481 59.5 453 Q63 425 67 397 Q70 373 73 349.5 Q76 326 80 303 Q84 277 88 250 Q92 223 97 197 Q101 171 105.5 144.5 Q110 118 115 92 Q119 68 122.5 43.5 Q126 19 130 -5 Q133 -22 136 -40 Q139 -58 141 -75 Q141 -77 141.5 -77.5 Q142 -78 142 -79 Q144 -73 144 -71 Q146 -57 148 -44 Q150 -31 152 -17 Q154 -1 156 14.5 Q158 30 160 45 L169 117 Q173 140 176 162 Q179 184 182 207 Q185 231 188 255 Q191 279 195 304 Q200 333 203.5 361 Q207 389 212 418 L227 511 Q229 519 230 527.5 Q231 536 233 544 Q234 550 235.5 555.5 Q237 561 239 567 Q239 568 241 572 Q244 579 252 576 Z M162 -117 Q165 -115 165.5 -112.5 Q166 -110 167 -108 Q165 -110 164.5 -111.5 Q164 -113 163 -115 Q163 -116 162 -117 Z " />
<glyph glyph-name="W" unicode="W" horiz-adv-x="462" d="M32 541 Q33 542 33 543 Q33 544 34 545 Q34 546 36 546 Q37 546 37 545.5 Q37 545 38 545 L38 542 Q36 537 36.5 531.5 Q37 526 37 521 Q40 499 42.5 477.5 Q45 456 47 434 Q50 408 53.5 381.5 Q57 355 60 329 Q64 305 67.5 281.5 Q71 258 74 234 Q78 211 81 189.5 Q84 168 88 145 Q91 122 94.5 99.5 Q98 77 102 54 Q107 26 111 -2 Q115 -30 120 -58 Q120 -61 121 -63 L121 -61 Q132 -37 143.5 -13 Q155 11 166 34 Q173 48 179 62 Q185 76 192 90 Q193 92 194 93.5 Q195 95 196 97 Q200 103 205 101 Q207 100 207 100 Q209 100 210 99.5 Q211 99 213 99 Q216 98 218.5 97.5 Q221 97 224 96 Q225 96 226 95 Q232 91 236 85 Q245 68 252 51 Q259 34 265 17 Q273 -6 280.5 -29.5 Q288 -53 296 -76 Q296 -78 297 -79 Q298 -75 298.5 -71 Q299 -67 300 -63 L318 21 Q324 48 329.5 75 Q335 102 340 129 L358 228 Q362 245 364.5 263 Q367 281 370 299 Q373 317 376 334.5 Q379 352 382 370 Q385 387 388 404 Q391 421 394 438 Q398 457 401.5 475.5 Q405 494 410 512 Q412 523 415 533 Q418 543 421 553 Q422 558 427 557 L431 557 L431 553 L431 551 Q432 552 432 555 Q434 555 434 557 Q436 555 436 555 Q437 556 437 557 L439 553 Q439 556 443 554 Q447 553 447 546 Q447 547 447.5 547.5 Q448 548 448 550 Q452 546 452 541 Q451 536 451 532 Q451 528 450 524 Q448 502 444.5 481 Q441 460 436 439 Q433 419 429.5 399 Q426 379 422 359 Q418 339 414.5 318 Q411 297 407 276 Q403 253 399.5 230.5 Q396 208 391 185 Q385 155 379 125 Q373 95 366 66 Q357 25 348 -14.5 Q339 -54 329 -95 Q327 -106 324.5 -116.5 Q322 -127 319 -138 Q319 -141 317 -145 Q315 -148 312 -147 Q311 -147 311 -147.5 Q311 -148 310 -148 Q305 -150 303 -146 Q302 -145 302.5 -144.5 Q303 -144 302 -143 Q302 -143 300 -145 Q298 -144 297 -143.5 Q296 -143 294 -142 Q294 -141 292 -141 Q284 -137 280.5 -130.5 Q277 -124 274 -116 Q268 -98 262 -80.5 Q256 -63 250 -45 Q242 -19 234 6 Q226 31 218 57 Q216 61 216 61 Q215 59 214.5 57 Q214 55 213 53 Q207 39 200.5 24.5 Q194 10 187 -4 Q173 -33 159 -62.5 Q145 -92 132 -122 L126 -134 Q124 -139 118 -136 Q120 -132 120 -131 Q124 -123 127.5 -114 Q131 -105 136 -96 L184 6 L211 69 Q212 70 212 73 Q212 72 211.5 72 Q211 72 211 71 Q200 42 186.5 14.5 Q173 -13 159 -41 Q151 -59 143 -77.5 Q135 -96 127 -114 Q125 -117 124.5 -120 Q124 -123 122 -126 L116 -135 Q114 -134 113.5 -133.5 Q113 -133 111 -132 Q111 -131 111.5 -130.5 Q112 -130 112 -129 Q110 -131 110 -132 L109 -132 Q109 -129 110 -127 Q108 -129 108 -129 Q107 -130 107 -130 Q106 -130 106 -128 L106 -126 Q106 -127 104 -129 Q104 -128 103.5 -128 Q103 -128 103 -127 Q100 -123 96 -120 Q93 -118 92 -114.5 Q91 -111 91 -107 Q92 -104 90 -97 Q85 -65 80.5 -34 Q76 -3 71 29 Q67 52 63.5 74.5 Q60 97 56 120 L44 198 Q41 218 38.5 237 Q36 256 33 276 Q31 294 28.5 311.5 Q26 329 24 346 Q22 362 20 377.5 Q18 393 16 409 Q14 422 13 434.5 Q12 447 10 461 Q9 477 8 492 Q7 507 7 523 Q6 528 7 533.5 Q8 539 8 544 Q8 544 10 548 Q13 556 22 553 Q24 552 25.5 552 Q27 552 29 551 Q30 551 30.5 550.5 Q31 550 33 550 Q34 549 34 547 Q32 543 31 542 L32 541 Z M146 -32 Q146 -33 145.5 -33 Q145 -33 145 -34 L124 -79 Q124 -80 123.5 -80.5 Q123 -81 123 -82 Q124 -82 124 -81 Q129 -70 134.5 -58 Q140 -46 145 -34 Q146 -34 146 -32 Q148 -30 148.5 -27.5 Q149 -25 151 -22 L150 -22 Q149 -24 148 -27 Q147 -30 146 -32 Z M168 14 Q168 15 168.5 15 Q169 15 169 16 Q177 32 183.5 47.5 Q190 63 198 79 L198 80 Q197 80 197 78 Q189 62 182.5 46.5 Q176 31 168 15 L168 14 Q166 11 165 8.5 Q164 6 163 4 Q165 6 165.5 8.5 Q166 11 168 14 Z M162 2 Q160 0 159.5 -2.5 Q159 -5 157 -8 L158 -8 Q159 -6 160 -3.5 Q161 -1 162 2 Z M156 -11 Q154 -13 153.5 -15.5 Q153 -18 151 -20 L152 -20 Q153 -18 154 -15.5 Q155 -13 156 -11 Z " />
<glyph glyph-name="X" unicode="X" horiz-adv-x="307" d="M265 570 Q264 568 264 567 Q264 566 263 564 L264 564 Q264 564 266 568 L267 569 Q268 568 268 568 L272 568 L273 567 Q280 569 280 561 Q285 562 285 557 Q285 548 284 544 Q281 527 276 512 Q271 497 265 481 Q251 449 238.5 418 Q226 387 212 355 Q202 331 193 306.5 Q184 282 174 257 L174 252 Q185 220 195.5 189 Q206 158 217 126 Q226 98 235 71 Q244 44 253 16 Q262 -10 272 -35 Q282 -60 292 -86 Q295 -93 297.5 -100.5 Q300 -108 302 -115 Q303 -119 302 -122.5 Q301 -126 300 -130 Q300 -135 296 -133 Q290 -133 289 -130 L289 -128 Q288 -128 286 -130 Q284 -128 282.5 -127.5 Q281 -127 279 -125 Q277 -125 276 -124 Q272 -122 271 -121 Q266 -119 262 -111 Q251 -93 241 -70 Q226 -32 213.5 5.5 Q201 43 189 81 Q180 110 171 138 Q162 166 153 194 Q153 196 152 197 Q151 195 151 195 Q133 145 115.5 95.5 Q98 46 83 -4 Q75 -27 69 -49.5 Q63 -72 55 -95 Q53 -105 50 -114 Q47 -123 44 -133 Q43 -135 43 -136 Q43 -137 42 -138 Q40 -142 37 -140 Q34 -140 35 -136 Q35 -134 35.5 -133.5 Q36 -133 36 -131 Q34 -133 33.5 -134.5 Q33 -136 31 -138 Q30 -136 27 -136 Q24 -136 26 -131 L23 -134 Q23 -132 22 -132 Q19 -134 19 -130 Q17 -130 16 -129 Q14 -127 12.5 -124.5 Q11 -122 12 -119 Q14 -110 15 -101.5 Q16 -93 17 -85 Q23 -49 33 -14.5 Q43 20 55 54 Q69 99 85 142.5 Q101 186 118 231 Q121 238 124 245 Q127 252 130 260 L130 265 Q119 300 108 335.5 Q97 371 86 406 Q80 428 74.5 450 Q69 472 63 494 Q60 506 56.5 518.5 Q53 531 49 544 Q48 546 48 551 Q46 557 53 557 Q57 557 57 556 Q60 556 60 556 Q63 556 65 555 Q66 555 68 553 Q76 548 79 540 Q83 532 86.5 523 Q90 514 93 505 Q104 476 113 446 Q122 416 131 386 Q136 370 141 354 Q146 338 151 322 Q151 321 151.5 321 Q152 321 152 320 Q153 321 153 322 Q171 371 190.5 418 Q210 465 231 513 Q235 523 238.5 532.5 Q242 542 247 552 Q249 557 253 565 Q257 571 265 570 Z M173 314 Q174 315 174 315.5 Q174 316 175 317 Q186 345 196.5 372 Q207 399 218 427 Q227 447 235.5 467.5 Q244 488 252 508 L255 514 Q253 509 251 505 Q249 501 247 496 Q230 455 213 415.5 Q196 376 181 335 Q179 330 177 324.5 Q175 319 173 314 Q172 312 171 309 Q170 306 169 304 L169 303 Q171 306 171.5 309 Q172 312 173 314 Z M268 519 Q265 513 256.5 493 Q248 473 237 446 Q226 419 214 389 Q202 359 192 333.5 Q182 308 175 290.5 Q168 273 168 271 L168 269 Q169 270 169 270.5 Q169 271 170 272 Q181 301 192.5 330.5 Q204 360 216 389 Q227 415 237 439.5 Q247 464 258 489 Q261 497 263.5 504 Q266 511 268 519 Z M159 301 Q159 303 160 304 Q171 333 182.5 362 Q194 391 206 420 Q219 452 232.5 483 Q246 514 257 546 Q257 547 258 548 Q233 486 206.5 425 Q180 364 159 301 Z M137 244 Q135 241 128.5 224.5 Q122 208 113.5 184.5 Q105 161 95.5 134.5 Q86 108 78 85 Q70 62 65 46 Q60 30 60 28 Q77 83 97 136.5 Q117 190 137 244 Z M147 213 Q133 177 120.5 141.5 Q108 106 96 69 L147 213 Z M161 293 Q175 331 190 367.5 Q205 404 219 442 Q203 405 189 368 Q175 331 161 293 Z M139 236 Q129 210 119 183 Q109 156 99 130 Q100 130 100 129 Q110 156 119.5 182.5 Q129 209 139 236 Z M255 525 L254 525 Q251 518 248.5 511.5 Q246 505 243 498 L244 497 Q246 505 249 511.5 Q252 518 255 525 Z M240 490 Q238 487 236 481 Q238 484 240 490 Z " />
<glyph glyph-name="Y" unicode="Y" horiz-adv-x="242" d="M117 -134 Q113 -136 110 -131 Q109 -132 109 -132 L103 -129 Q102 -128 101 -127.5 Q100 -127 99 -125 Q98 -123 97 -121 Q96 -119 96 -117 L94 -77 L93 -9 Q88 38 88 83.5 Q88 129 88 176 Q87 185 88 194.5 Q89 204 88 213 Q88 217 88.5 220.5 Q89 224 90 229 Q90 231 88 232 Q67 240 54 256.5 Q41 273 35 295 Q29 309 26 323 Q23 337 21 351 Q18 376 16.5 400.5 Q15 425 16 450 Q15 470 14.5 490.5 Q14 511 14 531 L13 545 Q13 548 16 550 Q17 551 22 551 Q23 551 23.5 550 Q24 549 26 551 Q27 549 27 549 Q29 551 30 548 Q35 551 38 541 Q39 542 39 544 Q40 543 40 543 Q42 539 42 538 L47 503 Q49 480 49.5 458.5 Q50 437 49 414 Q51 386 53.5 358.5 Q56 331 64 304 Q67 282 81 262 Q86 254 92 250 Q99 246 108 249 Q128 257 138 273 Q146 284 152 297 Q158 310 162 323 Q177 372 186 424 L196 537 Q198 547 199 557 Q200 567 201 577 L200 581 Q200 587 206 587 L210 587 L210 585 Q211 585 211.5 585.5 Q212 586 213 586 Q214 586 214.5 585.5 Q215 585 216 585 L217 585 Q223 584 224 579 Q226 580 229 577 Q229 576 229.5 575 Q230 574 230 572 Q229 559 228.5 547 Q228 535 226 523 L221 472 L213 416 Q210 381 201 345 Q196 327 191 308.5 Q186 290 176 273 Q167 251 150 236 Q144 232 138 228.5 Q132 225 124 223 Q122 223 122 221 Q122 216 122.5 212 Q123 208 124 203 Q123 168 123.5 133.5 Q124 99 125 64 Q127 35 127 5.5 Q127 -24 127 -54 Q129 -89 127 -124 Q127 -126 126.5 -128.5 Q126 -131 127 -133 Q125 -138 123 -138 Q120 -138 117 -135 L117 -134 Z M182 302 L163 264 Q169 272 173 282 Q177 292 182 302 Z " />
<glyph glyph-name="Z" unicode="Z" horiz-adv-x="282" d="M9 -119 Q7 -112 9 -106 Q11 -100 13 -94 Q17 -79 20.5 -64 Q24 -49 29 -35 Q45 15 60.5 63.5 Q76 112 93 161 Q112 219 132 276 Q152 333 172 391 Q183 421 197 450 Q211 479 227 508 L233 519 L230 519 Q219 518 209 518 Q199 518 188 518 Q181 517 174 516.5 Q167 516 160 516 Q143 516 126 515.5 Q109 515 92 515 L72 515 Q69 515 63 517 L56 520 Q54 522 52 522.5 Q50 523 48 525 Q45 528 45 531 Q45 536 49 536 Q53 538 64 540 Q80 542 95.5 542.5 Q111 543 127 544 Q139 544 151 544.5 Q163 545 175 545 Q213 547 246 538 Q252 536 255 532 L256 532 Q258 531 258.5 529.5 Q259 528 260 526 Q260 525 262 523 Q262 519 263 518 Q264 519 264 520 Q267 517 267 514 L262 503 L236 447 Q222 421 212 394 Q202 367 192 340 Q175 294 159 247.5 Q143 201 129 154 L91 25 Q84 3 77.5 -19 Q71 -41 63 -63 Q59 -74 54.5 -85.5 Q50 -97 45 -108 Q45 -109 44.5 -110 Q44 -111 44 -112 L54 -110 Q110 -96 167 -98 L222 -100 Q227 -100 232.5 -101 Q238 -102 244 -104 Q248 -105 250.5 -107.5 Q253 -110 255 -112 Q257 -114 256.5 -118 Q256 -122 254 -123 Q254 -124 250 -124 Q246 -124 238 -122 Q212 -122 185 -122 Q158 -122 132 -124 Q114 -126 97 -128.5 Q80 -131 63 -134 Q56 -136 49.5 -136.5 Q43 -137 37 -138 Q28 -140 20 -135 L9 -129 Q6 -127 6 -124 Q6 -121 9 -119 Z M182 337 L183 337 Q197 382 216.5 425 Q236 468 258 510 L255 508 L245 487 L219 435 L189 357 Q187 352 185.5 347 Q184 342 182 337 Z M175 368 L207 448 Q198 428 190 408 Q182 388 175 368 Z M36 -107 L37 -107 L58 -50 L57 -50 L36 -107 Z M43 -32 Q42 -32 42 -31 L39 -42 Q41 -36 43 -32 Z " />
<glyph glyph-name="bracketleft" unicode="&#x5b;" horiz-adv-x="148" d="M77 -113 Q83 -112 88.5 -111.5 Q94 -111 100 -110 Q102 -110 103.5 -109.5 Q105 -109 107 -110 Q109 -112 110.5 -111.5 Q112 -111 114 -112 Q119 -112 119 -118 Q120 -117 122 -117 Q124 -119 123.5 -123.5 Q123 -128 120 -130 Q119 -131 118 -131 Q109 -133 100 -134.5 Q91 -136 82 -135 Q79 -134 76 -133 Q73 -132 70 -131 L58 -125 Q51 -121 50 -114 Q46 -101 45 -92 Q40 -67 38 -42.5 Q36 -18 36 8 Q35 65 35.5 121.5 Q36 178 34 235 Q36 340 43 443 Q45 474 47 504.5 Q49 535 53 566 Q53 572 54 577.5 Q55 583 57 588 Q58 596 68 599 Q73 600 78.5 600.5 Q84 601 90 602 Q93 602 96.5 601 Q100 600 104 599 Q109 599 107 595 Q111 595 111 591 Q113 583 104 580 Q100 579 96.5 578 Q93 577 88 576 Q84 574 84 572 Q83 567 82.5 562.5 Q82 558 81 553 Q79 539 78 524 Q77 509 76 494 Q74 481 73.5 468.5 Q73 456 72 442 Q71 426 70.5 410 Q70 394 68 378 Q67 364 67 349.5 Q67 335 66 321 Q66 304 65.5 287 Q65 270 65 253 Q64 239 64.5 225.5 Q65 212 65 198 L65 134 Q66 118 65.5 102.5 Q65 87 65 72 Q65 51 65.5 30 Q66 9 67 -11 Q67 -28 68.5 -45.5 Q70 -63 72 -80 Q72 -88 74 -96.5 Q76 -105 77 -113 Z " />
<glyph glyph-name="backslash" unicode="&#x5c;" horiz-adv-x="187" d="M17 568 Q17 569 17.5 569 Q18 569 18 570 Q20 568 20.5 566.5 Q21 565 22 563 Q22 567 21 569 Q19 574 25 575 Q26 574 26 573.5 Q26 573 27 572 Q27 574 26 575 Q27 575 27 576 Q28 575 28 574.5 Q28 574 29 573 L29 577 Q31 575 32 572 Q33 569 35 566 Q34 570 32 576 Q38 577 41 571 Q43 567 44 563 Q45 559 47 554 Q52 533 56 512.5 Q60 492 65 471 Q79 415 89 362 Q95 325 101 288.5 Q107 252 114 215 Q123 163 132.5 112 Q142 61 152 10 Q157 -17 160.5 -43.5 Q164 -70 166 -97 L166 -111 Q166 -115 164 -121 Q162 -125 160 -126 Q158 -128 155.5 -128.5 Q153 -129 151 -131 Q149 -131 148 -132 Q146 -134 144 -134 Q141 -134 141 -131 L141 -121 Q140 -116 140 -110 Q140 -104 139 -99 L133 -69 Q128 -42 123.5 -15 Q119 12 114 40 Q109 64 105 88 Q101 112 96 137 Q93 157 89.5 176 Q86 195 83 215 Q81 231 78 246.5 Q75 262 73 278 L61 347 L46 428 Q40 457 34 485 Q28 513 22 541 Q20 547 19 553 Q18 559 17 565 L17 568 Z " />
<glyph glyph-name="bracketright" unicode="&#x5d;" horiz-adv-x="125" d="M64 585 Q60 586 54 586 Q44 586 39 590 Q36 592 33.5 592.5 Q31 593 29 595 Q26 596 25 599 Q22 604 29 606 Q52 606 75 597 Q91 592 91 578 L91 527 Q92 516 91.5 506.5 Q91 497 91 486 L91 413 Q91 391 91 369.5 Q91 348 92 327 Q92 307 91.5 287.5 Q91 268 92 248 Q92 232 92 216.5 Q92 201 93 185 L93 106 Q93 82 94 58.5 Q95 35 95 11 Q96 -9 96 -29.5 Q96 -50 97 -70 Q97 -82 97.5 -94 Q98 -106 97 -117 Q97 -119 96.5 -121.5 Q96 -124 96 -126 Q95 -132 89 -133 Q68 -139 47 -136 Q39 -134 36 -132 L24 -126 Q21 -125 19 -120 Q18 -116 23 -114 L32 -114 Q45 -114 54 -110 Q56 -110 57 -109.5 Q58 -109 60 -109 Q64 -108 64.5 -107.5 Q65 -107 65 -102 Q65 -94 65.5 -85.5 Q66 -77 65 -68 L62 55 L62 205 Q62 226 61.5 247 Q61 268 61 289 Q61 324 61 358.5 Q61 393 62 428 Q63 458 63 488 Q63 518 64 548 Q64 556 63.5 565 Q63 574 64 582 L64 585 Z " />
<glyph glyph-name="asciicircum" unicode="&#x5e;" horiz-adv-x="229" d="M36 462 Q38 467 41 472.5 Q44 478 46 484 Q44 479 42 476 Q40 473 38 468 L37 467 Q34 463 30 465 Q31 467 31 468 Q31 469 32 470 L31 470 Q31 469 29 465 Q28 466 28 466 Q29 467 29 468 Q29 469 30 470 L29 470 Q29 469 28 468 Q27 468 26 467 L26 470 Q26 471 28 475 L28 476 Q27 474 26 472.5 Q25 471 24 469 Q19 474 22 480 Q24 486 26 490 Q33 504 40 515.5 Q47 527 55 538 Q69 555 81 573 Q93 591 105 609 Q110 614 111 616 Q118 622 126 620 Q128 619 129.5 619 Q131 619 133 618 Q138 617 142.5 613 Q147 609 151 604 Q165 586 174 565 Q182 547 190 529 Q198 511 206 493 Q212 483 215 468 Q217 465 216.5 462.5 Q216 460 215 456 Q213 452 209 455 Q207 457 205.5 457.5 Q204 458 202 460 Q195 464 192 469 Q188 476 185 482.5 Q182 489 178 496 Q168 516 159 537 Q150 558 140 578 Q138 582 136.5 584.5 Q135 587 133 592 Q131 590 129 588.5 Q127 587 126 585 Q118 578 112 570 Q106 562 101 554 Q73 518 49 475 Q46 467 42 463 Q40 460 36 462 Z " />
<glyph glyph-name="underscore" unicode="&#x5f;" horiz-adv-x="222" d="M99 -108 Q115 -109 132 -109.5 Q149 -110 166 -111 Q174 -111 180 -114 Q182 -115 184 -116.5 Q186 -118 188 -120 Q189 -121 188.5 -124.5 Q188 -128 187 -129 Q186 -130 184 -130 Q178 -128 172 -128 Q166 -128 160 -128 L59 -128 L45 -128 Q44 -128 43.5 -127 Q43 -126 41 -126 Q40 -125 39 -125 Q33 -123 31 -121 Q29 -120 25 -116 Q23 -114 24.5 -111.5 Q26 -109 29 -109 Q31 -108 36 -108 L99 -108 Z " />
<glyph glyph-name="grave" unicode="&#x60;" horiz-adv-x="88" d="M31 613 Q33 616 36 613 Q38 615 38 614 Q38 613 39 613 Q41 613 42 612 Q44 612 45 611 Q53 605 61.5 591.5 Q70 578 72 569 Q73 564 73.5 560.5 Q74 557 75 553 Q77 550 76 547 Q75 544 74 541 Q71 538 70 538 Q66 538 65 541 Q65 542 64.5 542 Q64 542 64 543 Q63 542 63 540.5 Q63 539 62 538 Q60 537 57 540 Q54 543 50 547 Q46 550 41 557.5 Q36 565 31 573.5 Q26 582 22 590 Q18 598 17 603 Q17 605 16.5 606 Q16 607 16 609 Q16 617 24 615 L25 615 Q29 616 31 613 Z " />
<glyph glyph-name="a" unicode="a" horiz-adv-x="259" d="M234 -133 L232 -135 Q230 -134 228.5 -133.5 Q227 -133 225 -131 Q223 -131 222 -130 Q221 -130 220 -129 Q219 -128 218 -128 Q214 -126 213 -123 Q212 -120 210 -117 Q208 -109 208 -105 Q204 -88 201.5 -71 Q199 -54 196 -37 Q194 -23 192.5 -10.5 Q191 2 189 16 Q187 27 186 37 Q185 47 183 58 Q182 69 180.5 79 Q179 89 178 100 Q178 104 177.5 108 Q177 112 177 117 L177 121 Q172 120 168.5 119.5 Q165 119 161 118 Q150 116 138 114.5 Q126 113 115 111 Q109 110 103 110 Q97 110 91 109 Q89 109 89 107 Q87 96 85.5 86.5 Q84 77 82 67 Q73 11 58 -45 Q54 -59 52 -72 Q50 -85 48 -98 Q46 -106 44.5 -114 Q43 -122 41 -130 Q41 -132 40.5 -132.5 Q40 -133 40 -134 Q37 -139 33 -135 Q32 -134 33 -133 L33 -129 Q32 -130 31.5 -131 Q31 -132 29 -134 Q28 -132 25.5 -132 Q23 -132 24 -128 L23 -129 Q23 -130 22.5 -130 Q22 -130 22 -131 Q22 -128 21 -127 Q21 -127 19 -129 Q19 -128 18.5 -127 Q18 -126 18 -125 Q17 -125 17 -125.5 Q17 -126 16 -126 Q11 -121 11 -116 Q13 -105 12.5 -95.5 Q12 -86 14 -75 Q15 -61 16 -47.5 Q17 -34 19 -20 Q21 -1 22.5 17 Q24 35 27 53 Q32 83 37 113 Q42 143 47 172 Q53 202 58 232 Q63 262 68 292 Q73 321 78 350 Q83 379 89 408 Q95 434 101 458.5 Q107 483 113 509 Q115 520 118.5 531 Q122 542 126 553 Q126 554 126.5 555 Q127 556 127 557 Q132 565 140 562 Q142 561 145 561 Q148 560 152 558 Q156 557 156 552 Q157 553 157 554 Q161 553 161 548 Q167 527 172 505.5 Q177 484 182 462 Q185 448 186.5 435 Q188 422 190 408 Q193 396 194.5 383.5 Q196 371 198 359 Q203 334 204 312 Q206 300 208 287.5 Q210 275 212 262 Q213 251 214 240.5 Q215 230 216 219 Q218 208 219 196 Q220 184 222 172 Q223 163 224 153.5 Q225 144 226 135 Q228 126 228.5 116.5 Q229 107 230 98 Q230 83 233 68 Q234 60 235 51 Q236 42 237 34 Q237 26 238 18.5 Q239 11 239 3 Q240 -8 240 -20 Q240 -32 242 -43 Q243 -63 244 -83 Q245 -103 246 -123 Q246 -127 244 -135 Q243 -141 236 -137 Q234 -137 234 -133 Z M144 420 L143 420 Q129 351 118 282.5 Q107 214 95 145 Q115 147 134.5 149 Q154 151 174 153 Q166 220 159 286.5 Q152 353 144 420 Z " />
<glyph glyph-name="b" unicode="b" horiz-adv-x="312" d="M146 150 Q152 148 158 146 Q164 144 170 142 Q182 137 191.5 130 Q201 123 210 115 Q230 97 236 71 Q242 53 240 30 Q235 -30 201 -81 Q173 -123 128 -136 Q123 -138 118 -138 Q113 -138 108 -138 Q102 -137 96 -136.5 Q90 -136 84 -136 Q76 -135 69 -130 L67 -130 Q66 -132 65.5 -135 Q65 -138 61 -138 Q56 -138 55.5 -135.5 Q55 -133 55 -129 Q53 -131 53 -132 Q53 -133 52 -134 L51 -134 Q51 -133 46 -131 Q46 -131 44 -129 L44 -125 Q42 -129 42 -130 L41 -130 Q41 -126 40 -124 Q40 -126 38 -128 Q36 -127 36 -126 Q36 -125 36 -120 Q35 -122 33 -124 Q30 -121 27.5 -117 Q25 -113 27 -108 Q28 -106 27.5 -104 Q27 -102 27 -100 Q25 -49 25.5 1.5 Q26 52 27 103 L27 237 Q27 284 27 330 Q27 376 28 423 L28 507 Q29 520 29 533 Q29 546 31 559 Q31 563 32 564 Q36 570 43 569 Q43 569 47 569 Q65 571 83.5 569.5 Q102 568 120 565 Q135 562 150 558 Q165 554 179 549 Q207 538 232 516 Q244 507 257 492 Q270 478 279 462.5 Q288 447 293 429 Q296 416 296.5 403.5 Q297 391 296 378 Q294 350 284.5 325 Q275 300 260 276 Q251 261 240.5 247.5 Q230 234 218 220 Q210 211 201 201.5 Q192 192 183 184 Q166 167 148 152 Q148 152 146 150 Z M68 147 Q71 150 74 152.5 Q77 155 79 158 Q90 167 101.5 176.5 Q113 186 124 196 Q137 208 149.5 220.5 Q162 233 173 247 Q186 264 197.5 281 Q209 298 220 316 Q231 338 237.5 361.5 Q244 385 243 410 Q242 419 241 428 Q240 437 237 446 Q224 482 192 509 Q187 513 181.5 517 Q176 521 170 523 Q156 528 141.5 531.5 Q127 535 112 537 Q101 538 90.5 538.5 Q80 539 69 541 L66 541 Q68 442 67.5 344.5 Q67 247 68 147 Z M68 -104 L69 -104 Q77 -102 84.5 -99.5 Q92 -97 100 -94 Q131 -84 152 -55 Q160 -45 165.5 -34 Q171 -23 176 -11 Q184 8 188 28 Q192 48 190 69 Q189 92 172 109 Q161 121 146 121 Q138 122 130 120 Q122 118 114 116 Q109 114 104 112.5 Q99 111 94 109 Q90 108 85 111 Q86 113 86 113 Q81 113 81 113 Q75 117 72 117 Q71 117 71 118 Q70 118 69.5 118.5 Q69 119 68 119 L68 -104 Z M229 254 Q244 274 257 293.5 Q270 313 275 338 Q266 315 254.5 294.5 Q243 274 229 254 Z M189 -74 Q201 -62 208 -46.5 Q215 -31 219 -14 Q213 -29 205 -45 Q201 -53 197 -59.5 Q193 -66 189 -74 Z M178 -43 Q185 -33 189 -22 Q193 -11 196 0 Q191 -11 187 -21.5 Q183 -32 178 -43 Z M233 309 Q238 316 243.5 329.5 Q249 343 250 348 Q245 338 241.5 328.5 Q238 319 233 309 Z M195 -35 Q198 -30 200.5 -24.5 Q203 -19 204 -13 Q202 -19 199.5 -24.5 Q197 -30 195 -35 Z M260 337 Q259 338 259 338 Q257 333 255.5 329 Q254 325 252 320 Q254 325 256 329 Q258 333 260 337 Z M194 -24 Q194 -25 195 -25 L201 -7 Q197 -15 194 -24 Z M255 341 L254 341 Q253 337 249 327 L250 327 Q252 331 252.5 334 Q253 337 255 341 Z " />
<glyph glyph-name="c" unicode="c" horiz-adv-x="274" d="M228 74 Q229 76 229 77 Q230 78 230 78 Q234 76 236 76 Q240 78 244 70 Q245 69 247 69 Q248 66 249 63 Q250 60 250 57 Q255 22 253 -13 Q250 -54 234 -87 Q229 -98 222 -107 Q215 -116 205 -123 Q176 -146 143 -131 Q136 -128 129.5 -125 Q123 -122 116 -118 Q90 -103 74 -75 Q62 -54 53 -31 Q44 -8 37 16 Q31 36 27 56.5 Q23 77 20 98 Q18 110 17.5 122.5 Q17 135 15 147 Q12 192 12 237 Q13 251 13 264 Q13 277 15 291 Q16 321 21 351 Q26 387 33.5 423 Q41 459 55 493 Q68 527 86 552 Q101 575 119 589 Q142 605 171 599 Q180 597 188 593.5 Q196 590 204 584 Q216 575 222.5 563.5 Q229 552 233 538 Q235 528 236.5 519 Q238 510 238 500 Q240 477 238 455.5 Q236 434 233 412 Q232 409 231.5 405.5 Q231 402 230 399 Q230 394 226 395 Q222 395 222 400 Q221 399 221 398.5 Q221 398 220 397 Q218 398 217.5 398.5 Q217 399 215 400 Q214 401 213 401 Q212 401 211 402 Q206 406 204 411 Q202 416 201 421 Q200 431 200 440 Q200 449 200 459 Q199 469 199.5 478.5 Q200 488 199 498 Q198 512 196 526 Q194 540 189 553 Q188 559 184 564 Q183 568 177 568 Q165 567 153 558 Q142 549 133.5 538 Q125 527 118 515 Q94 472 81 420 Q76 402 72.5 383.5 Q69 365 67 346 Q65 334 64 321.5 Q63 309 61 296 L58 251 Q58 242 57.5 232.5 Q57 223 57 214 Q58 200 58 185 Q58 170 60 156 Q62 127 66 99 Q70 71 76 42 Q82 13 92 -15.5 Q102 -44 116 -70 Q120 -75 123.5 -81 Q127 -87 132 -92 Q133 -95 136 -96 Q141 -102 152 -100 Q166 -96 179 -83 Q191 -69 197.5 -53 Q204 -37 208 -20 Q210 -10 210.5 -0.5 Q211 9 212 19 L215 46 Q216 52 216 58.5 Q216 65 217 72 Q217 78 224 78 Q228 79 228 74 Z M124 544 Q118 539 111 527 Q104 515 97.5 502 Q91 489 86 476.5 Q81 464 81 457 Q89 480 100 501.5 Q111 523 124 544 Z M83 523 Q67 493 57 461 Q64 476 70.5 491.5 Q77 507 83 523 Z M234 -58 Q229 -67 225 -75.5 Q221 -84 217 -93 Q225 -85 228 -76.5 Q231 -68 234 -58 Z M88 510 Q79 494 72 472 Q80 490 88 510 Z M80 503 Q80 504 79 504 Q75 494 72 484.5 Q69 475 65 466 L65 465 Q69 475 72.5 484.5 Q76 494 80 503 Z M214 -46 L205 -67 Q209 -62 210.5 -56.5 Q212 -51 214 -46 Z " />
<glyph glyph-name="d" unicode="d" horiz-adv-x="299" d="M71 -139 Q68 -137 62 -135 L56 -132 Q55 -132 53 -130 Q51 -130 51 -128.5 Q51 -127 49 -126 Q48 -126 46 -121 L43 -124 Q43 -122 42.5 -121.5 Q42 -121 42 -119 Q41 -120 41 -120.5 Q41 -121 40 -122 Q37 -121 37.5 -119.5 Q38 -118 37 -116 Q36 -117 36 -117.5 Q36 -118 35 -119 L34 -118 Q33 -116 32 -114.5 Q31 -113 29 -111 Q29 -110 28.5 -108.5 Q28 -107 28 -105 Q27 -91 26.5 -77.5 Q26 -64 26 -50 Q25 -33 24.5 -16 Q24 1 24 18 Q23 26 23 32.5 Q23 39 23 46 Q23 62 22.5 77 Q22 92 22 108 L19 237 L19 330 Q18 378 18 425.5 Q18 473 17 521 Q17 530 17.5 538.5 Q18 547 18 556 Q18 559 17 560 Q15 565 18 568 Q20 572 20 573 Q23 580 31 577 L31 575 L31 574 Q33 576 33 576 Q34 577 34 577 Q37 575 40 577 Q45 577 47 578 Q89 584 129 572 Q161 562 185 547 Q225 522 247 478 Q258 455 266 432 Q274 409 278 384 Q281 364 282 345.5 Q283 327 282 307 Q281 291 280 276 Q279 261 277 245 Q273 213 268 182 Q263 151 257 120 Q251 88 242.5 56.5 Q234 25 222 -6 Q211 -29 200 -52 Q189 -75 174 -97 Q167 -106 160 -114 Q153 -122 144 -128 Q133 -137 116 -139 L86 -142 Q81 -143 75 -141 Q73 -141 71 -139 Z M53 548 Q54 547 54 545 Q55 532 55.5 519 Q56 506 56 493 Q58 467 58.5 440.5 Q59 414 60 388 Q61 373 61.5 358 Q62 343 62 328 Q63 315 63 302 Q63 289 64 276 Q64 264 64.5 252 Q65 240 65 227 Q66 212 66.5 197 Q67 182 67 167 Q67 154 67.5 141.5 Q68 129 68 117 Q69 103 69 89 Q69 75 69 61 Q70 47 70 33 Q70 19 70 5 Q71 -21 71 -47.5 Q71 -74 71 -100 L71 -106 Q74 -106 75 -105 Q104 -93 124 -67 Q148 -34 163 5 Q174 31 181.5 57 Q189 83 196 110 Q202 136 207.5 161 Q213 186 218 212 Q221 227 223.5 242 Q226 257 228 272 Q230 286 230.5 299.5 Q231 313 233 327 Q234 361 230 395 Q224 437 204 479 Q199 489 194 498 Q189 507 181 515 Q174 522 167 527.5 Q160 533 152 538 Q130 548 105 550 L67 550 Q63 550 53 548 Z M161 -88 L162 -88 Q164 -88 164 -86 Q170 -78 175.5 -69.5 Q181 -61 186 -53 Q198 -32 206.5 -10 Q215 12 222 35 Q222 36 223 37 Q210 3 195 -27 Q187 -43 179.5 -58.5 Q172 -74 161 -88 Z M159 -41 Q173 -20 181 3 Q189 26 196 50 Q181 2 159 -41 Z M180 -27 Q188 -13 193 0 Q198 13 203 27 Q197 14 191.5 0.5 Q186 -13 180 -27 Z M182 -10 Q193 13 199 34 Q194 23 190.5 12 Q187 1 182 -10 Z " />
<glyph glyph-name="e" unicode="e" horiz-adv-x="262" d="M82 527 Q82 517 82.5 508 Q83 499 83 490 Q85 475 83 458 Q84 441 84 425 Q84 409 84 393 Q83 351 84 310 Q83 296 83.5 282 Q84 268 85 254 Q85 249 85 243 Q85 237 86 231 Q91 232 95 232.5 Q99 233 104 233 Q113 234 122 234.5 Q131 235 140 235 Q150 236 162 235 Q167 235 172 234 Q177 233 182 232 Q187 231 187 226 Q193 224 193 219 Q192 218 192 218 Q190 212 188.5 210.5 Q187 209 181 208 Q172 206 163 204.5 Q154 203 145 201 Q138 200 131 199.5 Q124 199 117 198 Q109 197 102.5 196.5 Q96 196 88 195 L86 195 Q85 120 85 47 Q85 -26 85 -101 Q90 -101 93.5 -100.5 Q97 -100 101 -99 Q110 -98 118.5 -97.5 Q127 -97 135 -96 Q152 -95 169 -94.5 Q186 -94 203 -93 Q217 -91 229 -96 Q235 -98 235 -102 Q241 -103 240 -109 Q240 -112 239 -114 Q238 -118 234 -118 Q226 -120 219 -120.5 Q212 -121 204 -122 Q195 -123 186.5 -123.5 Q178 -124 170 -125 Q161 -126 151.5 -126.5 Q142 -127 133 -129 Q118 -131 103 -133 Q88 -135 73 -137 Q63 -139 56 -136 Q52 -135 44 -131 Q42 -129 39 -128 Q36 -127 34 -125 Q32 -123 30 -117 Q30 -113 35 -111 L38 -111 Q40 -110 42 -110 Q42 -107 41 -106 Q41 -102 40 -99 Q39 -96 39 -92 Q38 -75 38 -57 Q38 -39 38 -22 L38 101 Q39 130 39.5 160 Q40 190 41 219 Q41 236 40 253.5 Q39 271 39 288 Q40 298 39.5 307 Q39 316 40 326 Q40 343 40 360.5 Q40 378 41 396 Q42 419 42 442.5 Q42 466 44 489 Q44 501 44.5 513 Q45 525 46 537 Q46 538 44 542 Q39 550 49 553 Q57 555 63 555 Q77 556 90.5 556.5 Q104 557 118 558 Q129 559 139 559.5 Q149 560 160 559 Q176 559 191.5 558 Q207 557 223 556 Q228 556 238 552 Q240 552 241 550.5 Q242 549 244 548 Q245 547 246 547 Q248 543 248 543 Q249 538 246 533 Q246 531 243 531 Q233 531 228 530 Q220 530 212 529.5 Q204 529 196 529 Q181 528 166.5 528 Q152 528 137 528 Q129 527 120 527 Q111 527 102 526 Q97 526 93 526 Q89 526 85 527 L82 527 Z " />
<glyph glyph-name="f" unicode="f" horiz-adv-x="259" d="M92 293 Q107 295 122.5 296 Q138 297 153 299 Q167 299 176 295 Q178 295 179 293.5 Q180 292 182 291 Q182 290 183 290 Q186 290 186 286 Q186 284 184 276 Q183 275 182 275 Q171 273 161 270.5 Q151 268 140 266 Q131 264 122.5 263.5 Q114 263 106 261 Q102 260 98.5 260 Q95 260 91 259 L91 256 Q91 221 91 185 Q91 149 92 114 Q92 100 92 85.5 Q92 71 93 57 Q94 46 94 34.5 Q94 23 95 11 Q96 -3 96.5 -18.5 Q97 -34 97 -49 Q98 -62 98.5 -75 Q99 -88 98 -101 Q98 -109 97 -116.5 Q96 -124 95 -132 Q93 -136 93 -136 Q92 -139 89 -139.5 Q86 -140 84 -138 L84 -135 Q84 -133 83 -132 Q83 -133 80 -136 Q79 -134 76.5 -134 Q74 -134 73 -130 Q72 -131 72 -132 L71 -132 Q71 -131 70.5 -130.5 Q70 -130 70 -129 Q67 -130 66 -127 Q65 -127 65 -128 L62 -125 Q59 -121 57 -111 Q51 -86 51 -59 Q50 -44 49.5 -28.5 Q49 -13 48 3 Q48 11 48 20.5 Q48 30 47 38 Q47 55 46.5 71.5 Q46 88 45 105 L45 162 Q45 197 45 230.5 Q45 264 46 299 Q46 313 46 325.5 Q46 338 47 351 Q47 364 47.5 376.5 Q48 389 49 402 Q50 416 50 430 Q50 444 51 458 Q52 472 52.5 486.5 Q53 501 55 515 Q56 526 56.5 536 Q57 546 58 556 Q58 559 57 560 Q52 567 61 569 Q74 571 87 572 Q100 573 114 575 Q125 576 135.5 576.5 Q146 577 157 578 Q171 580 186 581 Q201 582 215 581 Q228 580 240.5 579 Q253 578 266 576 Q274 574 277 573 Q280 572 284 568 Q285 567 285 567 Q294 561 287 552 Q287 551 286 551 L284 551 L254 551 L214 551 Q203 550 193 549.5 Q183 549 173 548 Q163 547 154 546.5 Q145 546 136 546 Q125 545 115.5 545 Q106 545 96 545 Q95 545 94 544 Q96 481 94.5 418.5 Q93 356 92 293 Z " />
<glyph glyph-name="g" unicode="g" horiz-adv-x="259" d="M179 187 Q165 186 148 179 Q144 178 141 180 Q142 181 142 181.5 Q142 182 143 183 Q141 183 140 182.5 Q139 182 137 183 Q136 183 134 183 Q132 183 134 186 Q133 186 132.5 185.5 Q132 185 131 185 L131 187 L127 187 Q127 188 127.5 188.5 Q128 189 128 191 L125 188 Q124 190 122.5 192 Q121 194 121 197 Q120 199 124 203 Q126 205 130 207 Q138 211 147 214 Q156 217 165 219 Q188 223 210 217 Q213 216 215 215 Q217 214 219 213 Q221 211 222 209 Q229 207 226 200 L226 196 Q225 195 225 194 Q225 193 224 192 Q222 191 222 186 Q225 169 225 151 L225 98 Q225 80 225.5 61.5 Q226 43 226 25 Q225 2 222.5 -21 Q220 -44 213 -67 Q210 -78 206 -87.5 Q202 -97 196 -106 Q190 -114 183 -121 Q176 -128 166 -133 Q145 -143 125 -133 Q120 -131 114.5 -128.5 Q109 -126 104 -123 Q83 -113 68 -90 Q59 -76 53 -61.5 Q47 -47 42 -32 Q32 2 27 39 Q25 53 23.5 65.5 Q22 78 21 91 Q20 100 19.5 108.5 Q19 117 18 126 Q17 149 16.5 173 Q16 197 16 220 Q16 234 17 248.5 Q18 263 19 277 Q20 288 20.5 299.5 Q21 311 23 322 Q25 334 26 346.5 Q27 359 29 371 Q31 386 33.5 400.5 Q36 415 39 430 Q48 488 73 537 Q78 545 83 553 Q88 561 96 569 Q103 575 110.5 579 Q118 583 128 581 Q150 579 164 567 Q174 559 180 549.5 Q186 540 191 529 Q195 519 192 506 Q190 500 186 503 Q185 503 185 504 L184 505 Q183 506 180 506 Q178 507 176.5 507.5 Q175 508 173 510 Q168 513 165 518 Q160 525 156 532 Q152 539 147 546 Q145 549 142 547 Q132 539 123 527 Q114 513 107.5 497.5 Q101 482 96 465 Q90 448 86 430.5 Q82 413 79 395 Q77 379 75 363 Q73 347 71 331 Q69 318 68.5 306 Q68 294 66 282 Q61 229 63 178 Q63 167 63.5 156 Q64 145 65 134 Q66 126 66.5 117.5 Q67 109 68 100 Q69 89 70 77.5 Q71 66 72 55 Q76 32 80.5 9 Q85 -14 92 -37 Q97 -51 102 -64.5 Q107 -78 115 -91 L121 -100 Q122 -102 125 -102 Q138 -99 147 -90 Q156 -82 161.5 -71.5 Q167 -61 171 -50 Q175 -39 176.5 -28 Q178 -17 180 -6 Q183 17 182.5 40.5 Q182 64 182 87 Q182 98 182 109.5 Q182 121 181 132 Q181 145 180.5 157 Q180 169 179 182 L179 187 Z M120 542 Q106 527 99.5 509.5 Q93 492 87 474 Q93 492 102 508.5 Q111 525 120 542 Z M87 533 Q79 519 73.5 505.5 Q68 492 64 478 Q69 492 75 505.5 Q81 519 87 533 Z M188 -97 Q195 -91 197.5 -83 Q200 -75 202 -67 Q198 -75 195 -82 Q192 -89 188 -97 Z M77 486 L78 486 L93 522 L91 522 Q88 513 84.5 504 Q81 495 77 486 Z M85 517 L84 517 Q81 509 77.5 500 Q74 491 71 482 L72 481 Q75 490 78.5 499 Q82 508 85 517 Z M175 -74 L176 -74 Q178 -69 179.5 -65 Q181 -61 183 -56 L182 -56 Q180 -61 178.5 -65 Q177 -69 175 -74 Z " />
<glyph glyph-name="h" unicode="h" horiz-adv-x="314" d="M93 242 Q141 258 196 258 L196 276 Q197 293 197 309.5 Q197 326 197 343 Q198 357 198 370 Q198 383 199 397 Q200 411 200 425 Q200 439 201 453 Q203 473 204 491.5 Q205 510 207 530 Q208 534 208.5 538 Q209 542 210 546 Q212 554 220 552 Q222 552 222 549 Q221 548 221 545 Q221 547 223 549 Q224 551 224 551 Q225 551 225 549 L225 547 Q225 547 227 551 Q228 549 228 549 Q231 549 231 549 Q233 548 236 545 Q237 544 237.5 544 Q238 544 239 543 Q240 542 240 541 Q242 535 242 531 Q243 519 242.5 506.5 Q242 494 242 481 L242 384 L242 259 Q241 257 243 255 Q247 253 247 251 Q252 249 251 245 L251 243 Q250 238 249.5 237.5 Q249 237 244 236 Q243 236 243 235.5 Q243 235 242 235 L242 228 Q241 208 241 188 Q241 168 241 148 Q241 132 240.5 116.5 Q240 101 240 85 Q240 53 240 21.5 Q240 -10 239 -42 Q239 -55 238 -67.5 Q237 -80 236 -93 Q235 -100 235 -106.5 Q235 -113 234 -119 L231 -131 Q231 -137 226 -134 Q223 -134 223 -131 L223 -128 L221 -130 Q221 -131 220 -132 Q219 -130 216.5 -130 Q214 -130 215 -126 L212 -129 Q212 -127 211 -126 Q209 -127 207 -124 Q205 -123 205 -123 Q202 -120 201.5 -116.5 Q201 -113 200 -110 L194 -59 Q192 -40 192 -21.5 Q192 -3 191 15 Q191 37 191.5 58.5 Q192 80 192 102 Q192 117 192.5 132.5 Q193 148 194 164 Q194 179 194.5 194.5 Q195 210 195 225 L195 228 Q169 224 144.5 217.5 Q120 211 94 207 L94 204 Q94 187 94.5 170.5 Q95 154 95 137 Q96 124 96 112 Q96 100 97 88 Q98 72 98.5 56.5 Q99 41 100 26 Q100 16 100 6.5 Q100 -3 101 -12 Q101 -20 101 -29 Q101 -38 102 -46 Q102 -54 101.5 -61 Q101 -68 101 -76 L101 -80 Q101 -90 100.5 -100 Q100 -110 98 -120 Q98 -126 96 -134 Q94 -142 88 -137 Q89 -137 86 -134 Q85 -135 82 -134 Q80 -132 74 -130 Q65 -127 63 -116 Q61 -106 59 -96 Q57 -86 55 -75 Q53 -50 52.5 -25 Q52 0 51 25 Q50 43 49.5 60.5 Q49 78 49 95 Q48 112 48 129.5 Q48 147 47 164 L47 224 L47 311 Q47 323 47.5 335.5 Q48 348 48 361 Q49 375 50 387.5 Q51 400 52 414 Q53 424 53.5 434 Q54 444 55 454 Q57 473 58.5 491 Q60 509 64 528 Q66 536 68 540 Q71 547 79 546 Q81 546 81 544 Q82 547 83.5 545 Q85 543 87 545 L87 540 Q89 544 89 544 Q91 542 92 541.5 Q93 541 94 540 Q95 539 95 536 Q95 537 95.5 537.5 Q96 538 96 539 Q98 537 98.5 535 Q99 533 100 531 L100 508 Q99 491 98.5 474.5 Q98 458 97 441 L94 381 L94 360 Q93 349 93 339.5 Q93 330 93 319 L93 245 L93 242 Z " />
<glyph glyph-name="i" unicode="i" horiz-adv-x="125" d="M79 -131 Q79 -132 77 -134 Q75 -133 73.5 -132 Q72 -131 70 -130 L69 -130 Q67 -129 66.5 -128.5 Q66 -128 64 -127 Q56 -122 55 -115 Q54 -108 52 -100 Q50 -90 48.5 -81 Q47 -72 45 -62 Q44 -57 44 -52 Q44 -47 43 -41 Q40 -13 40 17 Q38 32 38 47 Q38 62 38 77 Q37 89 37.5 101.5 Q38 114 38 127 Q37 143 37.5 158.5 Q38 174 38 190 Q38 202 38 214 Q38 226 39 238 Q39 252 39 264.5 Q39 277 40 291 Q41 302 40.5 313.5 Q40 325 41 336 Q42 350 42 363.5 Q42 377 43 391 Q45 406 45 421 Q45 436 47 451 L50 508 Q51 511 51 514.5 Q51 518 52 521 Q54 527 56.5 528 Q59 529 64 529 Q64 527 63.5 525.5 Q63 524 63 522 L64 522 Q64 523 64.5 524 Q65 525 65 526 L67 528 Q67 527 67.5 527 Q68 527 68 526 L68 524 Q69 525 69 526 Q69 527 70 528 Q70 528 72 524 Q72 526 73 527 Q79 526 80 518 Q80 519 80.5 519.5 Q81 520 81 521 Q85 517 85 512 Q85 508 85.5 504 Q86 500 86 496 L86 398 Q85 384 85 369 Q85 354 85 340 L85 225 Q86 193 85.5 162 Q85 131 85 99 Q86 78 86 56.5 Q86 35 87 14 Q87 -14 90 -41 Q91 -49 91.5 -56.5 Q92 -64 92 -72 Q93 -85 92.5 -97.5 Q92 -110 91 -123 Q91 -127 89 -133 Q89 -137 85 -137 Q80 -137 80 -132 L79 -131 Z " />
<glyph glyph-name="j" unicode="j" horiz-adv-x="260" d="M172 570 Q173 570 173.5 570.5 Q174 571 175 571 Q176 570 176 569 L178 571 Q178 570 178.5 569 Q179 568 179 567 Q180 569 180 569 Q185 569 187 564 L188 564 Q191 561 191 561 Q193 555 193 552 Q195 538 195.5 525.5 Q196 513 197 499 Q198 482 198.5 464 Q199 446 199 428 Q200 412 200.5 397 Q201 382 202 366 Q203 354 203 341.5 Q203 329 204 316 L207 238 Q207 227 207 216 Q207 205 208 194 Q208 182 208.5 170 Q209 158 210 146 L210 129 Q211 111 211 93.5 Q211 76 211 59 Q211 48 211 38.5 Q211 29 210 19 Q209 -8 204 -34 Q199 -60 188 -85 Q182 -98 174 -109 Q166 -120 154 -128 Q141 -137 127 -138.5 Q113 -140 99 -132 Q96 -130 92.5 -129 Q89 -128 86 -126 Q53 -112 39 -75 Q27 -43 29 -8 Q31 3 32 15 Q33 27 35 39 Q35 41 36 43 Q37 50 48 49 Q48 47 47.5 46.5 Q47 46 47 45 Q47 44 46.5 43 Q46 42 46 41 L47 41 Q47 43 49 47 Q50 48 51 48 Q51 48 53 48 Q53 47 52 47 Q54 47 55 48 Q55 44 54 42 Q58 48 62 44 Q63 43 63 42 L63 36 Q64 38 64 38.5 Q64 39 65 41 L66 41 Q68 37 68 36 Q69 28 69 19.5 Q69 11 69 2 Q70 -5 70 -11.5 Q70 -18 70 -26 Q71 -40 73.5 -54 Q76 -68 82 -82 Q84 -88 87 -92.5 Q90 -97 95 -101 Q95 -102 98 -102 Q112 -99 121 -88 Q134 -75 141 -60 Q149 -41 154 -18 Q160 7 160 32 L160 92 Q160 105 160 117.5 Q160 130 159 142 Q159 153 158.5 164 Q158 175 157 186 Q157 195 156.5 204 Q156 213 156 222 Q155 254 155 285.5 Q155 317 155 349 Q155 367 155 385 Q155 403 156 420 Q156 443 156 466.5 Q156 490 157 513 Q157 524 157.5 535 Q158 546 158 557 Q159 560 159 562.5 Q159 565 160 567 Q164 575 171 572 Q172 571 172 570 Z M167 -95 Q176 -87 179.5 -76.5 Q183 -66 186 -56 Q181 -65 176.5 -75 Q172 -85 167 -95 Z M153 -68 Q158 -63 159 -57 Q160 -51 162 -45 Q160 -51 157.5 -57 Q155 -63 153 -68 Z M166 -66 L167 -66 Q169 -62 171 -56 Q169 -58 168.5 -61 Q168 -64 166 -66 Z M167 -53 L166 -53 L163 -62 L164 -62 L167 -53 Z " />
<glyph glyph-name="k" unicode="k" horiz-adv-x="268" d="M217 542 L217 539 Q219 543 222 540 L225 537 Q225 536 225 536 Q229 535 229 531 Q230 527 230.5 524 Q231 521 231 517 Q233 491 232.5 466 Q232 441 231 415 Q229 391 228.5 367 Q228 343 226 318 Q224 297 221.5 275.5 Q219 254 212 234 Q207 213 198 194 Q189 175 177 157 Q164 141 151 129 L149 127 Q152 125 155 124.5 Q158 124 162 122 Q172 117 180 110 Q195 99 203 82.5 Q211 66 214 48 Q218 29 217 8 Q219 -17 216 -39 Q216 -65 213 -90 Q212 -98 210.5 -105.5 Q209 -113 208 -121 Q207 -130 203 -143 Q203 -147 202 -149 Q199 -153 194 -150 L194 -148 L194 -144 Q193 -146 191 -148 Q190 -146 187.5 -146 Q185 -146 186 -143 Q185 -144 184.5 -144 Q184 -144 183 -145 L183 -143 Q180 -144 179 -141 Q178 -141 176 -139 Q171 -134 173 -128 Q171 -120 169.5 -112 Q168 -104 167 -96 Q166 -89 166.5 -82 Q167 -75 167 -67 Q167 -60 167.5 -53 Q168 -46 168 -38 Q170 -25 170 -12.5 Q170 0 171 13 Q170 29 169 44.5 Q168 60 164 75 Q161 83 156 92 Q152 101 141 101 Q132 102 123 100 Q114 98 106 95 Q105 95 104.5 94.5 Q104 94 102 94 Q100 93 97 92 Q94 91 91 93 L91 84 Q91 74 90.5 64 Q90 54 90 44 Q91 29 91.5 13.5 Q92 -2 94 -17 Q95 -28 95.5 -40 Q96 -52 97 -64 Q99 -78 94 -89 Q93 -92 92.5 -94.5 Q92 -97 91 -100 Q91 -105 88 -106 Q82 -106 81 -102 Q79 -102 79 -102 Q76 -100 72.5 -99 Q69 -98 67 -96 Q65 -94 62.5 -92 Q60 -90 59 -87 Q56 -81 53 -75 Q50 -69 48 -62 Q47 -56 46.5 -50 Q46 -44 45 -37 Q45 -26 44 -16.5 Q43 -7 42 4 Q42 14 41 23.5 Q40 33 40 42 Q39 67 39 91.5 Q39 116 38 141 Q38 163 37.5 185 Q37 207 38 230 Q39 250 39.5 271 Q40 292 42 312 Q42 323 42 335 Q42 347 44 358 Q44 379 45 400.5 Q46 422 47 444 Q48 458 48 471 Q48 484 50 498 Q51 510 51 522 Q51 534 53 546 Q53 549 55 553 Q56 559 62 559 L66 559 Q66 558 66.5 557.5 Q67 557 67 556 Q69 558 69 558 L71 556 Q72 559 74 556 L77 556 Q79 555 83.5 550.5 Q88 546 88 543 Q89 538 89.5 532 Q90 526 90 520 Q92 506 92.5 490.5 Q93 475 93 460 Q92 435 92.5 410.5 Q93 386 92 360 Q92 324 91.5 288.5 Q91 253 90 217 Q89 200 89.5 183 Q90 166 90 149 L90 140 L91 140 Q97 145 103 150.5 Q109 156 117 161 Q146 187 162 223 Q168 238 173 254 Q178 270 180 287 Q182 301 183 314.5 Q184 328 186 342 Q188 354 188 366.5 Q188 379 188 391 Q191 415 191 438 Q193 449 193 458.5 Q193 468 194 479 Q195 492 195.5 504.5 Q196 517 197 531 Q197 535 199 539 Q200 544 206 544 Q209 544 211 543 Q212 542 217 542 Z M199 226 Q196 218 192.5 210.5 Q189 203 184 195 Q180 187 176 180 Q172 173 168 165 Q180 178 187 193.5 Q194 209 199 226 Z M163 198 Q174 215 179 234 Q175 225 171.5 216.5 Q168 208 163 198 Z M179 208 L180 208 L186 223 L185 223 L179 208 Z M178 216 L179 216 Q181 222 183 226 Q182 226 182 227 Q180 221 178 216 Z " />
<glyph glyph-name="l" unicode="l" horiz-adv-x="235" d="M46 -109 Q45 -104 44.5 -99.5 Q44 -95 42 -90 Q42 -85 41.5 -80 Q41 -75 42 -70 Q41 -61 41 -51.5 Q41 -42 40 -33 Q40 -26 40 -19.5 Q40 -13 39 -6 Q39 3 39 12 Q39 21 38 29 Q38 36 38 42.5 Q38 49 37 56 L37 99 Q37 105 37 111 Q37 117 38 123 Q37 139 37.5 154 Q38 169 38 185 Q39 207 39.5 229 Q40 251 41 273 L44 378 Q45 395 45.5 412.5 Q46 430 48 447 Q49 461 50 476 Q51 491 52 505 Q54 525 55 543.5 Q56 562 58 582 Q58 585 60 591 Q65 600 74 597 Q76 596 77.5 596 Q79 596 81 595 Q85 595 87 590 Q88 590 89 589 Q93 582 93 574 Q92 561 92.5 548.5 Q93 536 92 523 Q90 498 89.5 474 Q89 450 88 425 Q87 409 86.5 393.5 Q86 378 86 362 Q86 347 86 332 Q86 317 85 301 Q85 288 85.5 275.5 Q86 263 85 251 Q86 236 85.5 221.5 Q85 207 85 192 Q85 179 85 166.5 Q85 154 84 141 Q86 112 84 83 Q85 71 84.5 59.5 Q84 48 85 36 Q84 25 84.5 13.5 Q85 2 86 -9 L86 -42 Q86 -53 86.5 -64 Q87 -75 87 -86 Q87 -91 87.5 -94.5 Q88 -98 88 -103 Q90 -103 93 -102.5 Q96 -102 98 -102 Q136 -96 178 -98 Q196 -98 210 -103 Q214 -105 217 -109 L218 -110 Q223 -112 223 -118 Q222 -120 222 -121 Q222 -122 221 -124 Q220 -128 215.5 -129.5 Q211 -131 209 -128 Q209 -127 207 -127 Q196 -129 184 -130 Q172 -131 160 -132 Q149 -134 139.5 -134.5 Q130 -135 119 -136 Q109 -137 99.5 -137.5 Q90 -138 80 -138 Q74 -138 66 -136 L48 -127 Q44 -124 41 -120 Q37 -113 46 -109 Z " />
<glyph glyph-name="m" unicode="m" horiz-adv-x="349" d="M287 -128 Q286 -127 283 -127 Q281 -126 280 -125 Q279 -124 277 -124 Q270 -121 267.5 -115.5 Q265 -110 263 -104 Q261 -98 260.5 -92 Q260 -86 260 -79 Q260 -66 260 -53 Q260 -40 261 -26 Q260 -10 260 6 Q260 22 259 39 Q260 60 260 81 Q260 102 261 123 Q262 134 262 145.5 Q262 157 262 168 Q264 195 265 222 Q266 249 267 276 Q268 290 268.5 303.5 Q269 317 269 331 Q270 345 270.5 359 Q271 373 271 387 Q273 401 273.5 416 Q274 431 276 445 Q276 450 276.5 455.5 Q277 461 276 466 Q275 464 275 464 Q266 438 256.5 413 Q247 388 238 362 Q227 331 215.5 300 Q204 269 193 237 Q191 233 189.5 229.5 Q188 226 186 222 Q182 217 179 219 Q176 219 176 221 Q171 221 170 225 L169 224 Q167 225 166.5 225.5 Q166 226 164 227 Q157 231 152 235 Q147 239 143 246 Q138 257 134.5 268 Q131 279 128 290 Q121 318 114.5 346 Q108 374 101 402 Q96 420 91.5 437.5 Q87 455 82 472 Q82 474 81 474 Q80 469 80 465 Q80 461 80 456 Q79 430 78.5 403.5 Q78 377 78 351 Q77 334 77 317 Q77 300 77 282 Q76 261 76 239.5 Q76 218 76 197 L76 148 Q76 132 76.5 116.5 Q77 101 78 85 Q78 71 78 58 Q78 45 79 31 Q79 17 79.5 2 Q80 -13 81 -28 Q80 -42 80.5 -55.5 Q81 -69 80 -83 Q80 -103 77 -124 Q77 -126 75 -132 Q72 -141 64 -135 Q64 -133 64.5 -132 Q65 -131 65 -129 Q64 -131 63.5 -131.5 Q63 -132 62 -134 L56 -131 Q55 -130 55 -128 Q53 -128 53 -130 Q51 -128 51 -127 Q48 -130 47 -124 Q45 -126 43 -124 Q39 -117 39 -109 Q37 -95 37 -80 Q37 -65 36 -50 Q36 -36 36 -22 Q36 -8 35 6 L35 35 Q34 49 34 64 Q34 79 33 93 Q34 104 33.5 113.5 Q33 123 33 134 Q31 178 32 221 Q33 264 35 308 Q36 341 36.5 373.5 Q37 406 39 438 Q39 455 39.5 472 Q40 489 41 506 Q42 520 42.5 534 Q43 548 45 562 Q45 564 45.5 567 Q46 570 46 573 Q50 583 58 578 L58 574 Q59 574 59 575 Q59 576 60 576 Q61 578 61 578 Q61 577 61.5 577 Q62 577 62 576 L62 574 Q64 576 64 577 Q66 575 66 574 Q66 575 66.5 575.5 Q67 576 67 577 Q72 576 75 571 L78 568 Q88 553 94.5 536.5 Q101 520 108 503 Q119 474 128 446 Q137 418 147 389 Q154 366 160 343 Q166 320 171 297 Q172 295 172.5 293 Q173 291 174 289 Q175 293 176 296 Q177 299 178 302 Q186 328 194 354.5 Q202 381 210 407 Q221 440 232.5 472 Q244 504 259 536 Q262 545 267.5 552.5 Q273 560 278 567 Q280 571 283 571.5 Q286 572 290 572 Q290 569 289 568 Q291 568 291.5 570 Q292 572 294 571 L294 568 Q295 569 295.5 569 Q296 569 297 570 Q297 568 298 567 Q299 569 299 569 L301 569 Q303 567 306 564.5 Q309 562 311 560 L312 559 Q316 557 315 553 Q316 548 316.5 543 Q317 538 317 533 Q317 513 317.5 493.5 Q318 474 317 454 Q317 437 316 419.5 Q315 402 313 385 Q312 378 312 371.5 Q312 365 312 358 Q311 320 310 281.5 Q309 243 307 205 Q306 168 305.5 131.5 Q305 95 303 57 Q302 42 302.5 27 Q303 12 302 -3 Q301 -26 301.5 -47.5 Q302 -69 302 -91 Q302 -105 298 -117 Q297 -120 297 -125 Q296 -127 295.5 -128.5 Q295 -130 292 -131 Q288 -131 287 -128 Z M232 436 Q237 450 243 464.5 Q249 479 254 493 Q260 507 266.5 521 Q273 535 279 549 Q265 522 254 493.5 Q243 465 232 436 Z M248 423 Q249 423 249 422 L249 423 Q257 441 264 459 Q271 477 278 494 Q279 496 279 499 L278 499 Q271 479 263.5 460.5 Q256 442 248 423 Z M280 528 L279 528 Q273 515 267.5 502 Q262 489 257 476 L257 475 Q263 489 268.5 501.5 Q274 514 280 528 Z M272 521 L271 522 Q265 508 260 495 Q255 482 249 468 Q255 482 260.5 495 Q266 508 272 521 Z " />
<glyph glyph-name="n" unicode="n" horiz-adv-x="274" d="M222 -117 Q220 -119 219 -121 Q217 -119 215.5 -118.5 Q214 -118 212 -116 L211 -116 Q208 -116 207 -115 Q200 -110 198 -104 Q196 -98 194 -91.5 Q192 -85 192 -78 Q189 -62 189 -43 Q188 -38 188 -32 Q188 -26 188 -21 Q187 -5 187 10 Q187 25 187 41 Q186 69 185.5 97 Q185 125 186 153 Q185 179 185.5 204.5 Q186 230 186 256 Q186 258 186.5 261 Q187 264 187 266 Q187 268 185 270 Q180 278 176 284.5 Q172 291 167 298 Q149 328 134.5 359.5 Q120 391 104 423 Q99 434 94.5 444 Q90 454 85 464 Q83 466 83 466 L83 463 Q82 444 82.5 425.5 Q83 407 83 388 Q82 343 81.5 297.5 Q81 252 81 207 Q80 185 81 164 Q82 143 83 121 Q82 113 82.5 105 Q83 97 83 89 L83 2 Q84 -18 83.5 -36.5 Q83 -55 84 -75 Q85 -102 79 -131 Q79 -134 78 -135 Q76 -141 70 -137 Q69 -137 69 -135 Q69 -134 69.5 -133 Q70 -132 70 -131 Q69 -133 66 -136 Q65 -134 62.5 -134 Q60 -134 62 -129 Q60 -131 59.5 -131 Q59 -131 58 -132 Q58 -130 58 -130 L56 -130 Q55 -128 55 -128 Q54 -128 54 -127.5 Q54 -127 53 -127 L52 -127 Q48 -121 48 -118 Q46 -106 44 -93.5 Q42 -81 42 -69 Q43 -52 42.5 -35.5 Q42 -19 41 -2 Q41 22 41.5 46 Q42 70 41 94 Q41 105 41.5 116.5 Q42 128 41 140 Q41 151 40.5 162.5 Q40 174 39 185 Q38 197 39 207 Q39 239 39.5 270 Q40 301 40 332 Q40 359 41 386 Q42 413 42 440 Q43 452 43.5 464 Q44 476 44 488 Q45 500 45.5 511.5 Q46 523 48 535 Q49 537 49 537.5 Q49 538 50 540 Q51 547 60 546 L60 541 Q61 542 61 542.5 Q61 543 62 544 Q62 545 62.5 545 Q63 545 63 546 Q64 544 64 544 L64 541 Q65 543 65 543.5 Q65 544 66 546 Q67 544 67 542 Q68 544 68 544 Q70 545 72 542.5 Q74 540 75 537 L77 539 Q78 537 78 533 Q80 531 80 529.5 Q80 528 82 526 Q90 515 97.5 503.5 Q105 492 112 479 Q131 444 150 408 Q169 372 187 337 L190 331 Q191 334 191 339 Q192 348 192 357 Q192 366 194 375 Q195 386 195.5 398 Q196 410 196 422 Q197 430 197 438.5 Q197 447 199 455 Q200 466 200.5 477.5 Q201 489 203 500 Q203 510 206 521 Q207 529 215 529 Q217 529 219.5 528 Q222 527 224 526 Q228 526 229 525 Q231 524 231 523 Q231 522 233 521 Q233 521 236 519 Q238 511 238 506 Q239 499 239 492.5 Q239 486 239 479 Q239 459 238.5 440 Q238 421 238 401 Q238 389 237 377 Q236 365 236 353 Q235 332 234.5 310.5 Q234 289 233 268 Q232 247 232 225.5 Q232 204 231 183 Q231 169 231.5 156 Q232 143 232 129 L232 55 Q232 36 232 17 Q232 -2 233 -22 Q233 -37 233 -52 Q233 -67 234 -81 Q235 -90 234.5 -99 Q234 -108 232 -116 Q232 -119 231 -120 Q229 -127 223 -123 Q222 -121 222 -121 L222 -117 Z " />
<glyph glyph-name="o" unicode="o" horiz-adv-x="258" d="M220 229 L220 213 Q221 196 220.5 179 Q220 162 221 145 Q220 130 220 115.5 Q220 101 220 86 Q218 71 217.5 56 Q217 41 216 26 Q214 5 211.5 -15.5 Q209 -36 204 -56 Q200 -70 195 -83.5 Q190 -97 182 -109 Q170 -126 155 -133 Q138 -142 118 -134 Q113 -132 108 -129 Q103 -126 98 -124 Q73 -113 60 -85 Q52 -68 46.5 -51 Q41 -34 38 -16 Q36 -4 35 8 Q34 20 33 32 Q30 57 29 81.5 Q28 106 29 132 Q28 144 29 156 Q30 168 31 181 Q32 192 32.5 204 Q33 216 35 227 Q36 238 37 247.5 Q38 257 39 267 Q40 277 40.5 286 Q41 295 43 304 Q44 332 49 363 Q49 374 50.5 385 Q52 396 54 407 Q56 426 60 445 Q64 464 70 482 Q79 505 94 525 L97 528 Q99 530 100 531 Q101 532 99 535 Q95 539 102 541 Q109 544 115 543 Q124 542 133 539.5 Q142 537 151 531 Q169 516 180 496 Q200 465 206 425 Q210 411 211.5 396.5 Q213 382 215 368 Q218 333 219 298.5 Q220 264 220 229 Z M132 509 Q130 506 128.5 503 Q127 500 126 496 Q119 481 116 460 Q114 452 112.5 443 Q111 434 109 425 L103 383 Q101 372 100.5 362 Q100 352 98 341 Q96 331 95.5 321.5 Q95 312 94 301 Q92 290 91 278.5 Q90 267 89 256 Q87 240 85 224.5 Q83 209 82 194 Q80 180 79 167 Q78 154 78 140 Q76 126 76 112 Q76 98 76 84 Q76 70 76.5 57.5 Q77 45 78 32 Q79 21 79.5 11 Q80 1 82 -10 Q85 -39 95 -66 Q98 -74 101.5 -82 Q105 -90 110 -97 Q112 -99 115 -98 Q133 -90 142 -71 Q156 -45 158 -13 Q163 15 163 38 Q166 68 166 99 Q167 113 167.5 127 Q168 141 167 155 Q168 173 168 191 Q168 209 169 228 Q168 257 168 287 Q168 317 167 346 Q166 363 165.5 379.5 Q165 396 163 413 Q160 429 157 444 Q154 459 149 474 Q146 483 142 492 Q138 501 132 509 Z M190 -62 L172 -98 Q181 -91 184 -81.5 Q187 -72 190 -62 Z M125 515 Q118 509 115.5 500.5 Q113 492 110 484 Q114 492 117.5 499.5 Q121 507 125 515 Z M97 507 Q92 499 88 490 Q84 481 83 472 Q86 480 89.5 489 Q93 498 97 507 Z M156 -75 Q160 -70 161.5 -64.5 Q163 -59 165 -54 Q163 -59 160.5 -64 Q158 -69 156 -74 L156 -75 Z M99 498 L98 499 Q96 493 94 487 Q92 481 90 476 Q90 475 91 475 Q92 481 94.5 487 Q97 493 99 498 Z M105 503 L104 503 Q102 498 100 492.5 Q98 487 96 482 L96 481 Q98 487 100.5 492.5 Q103 498 105 503 Z M175 -62 L174 -61 Q172 -67 170 -71 L171 -71 Q172 -69 173 -66.5 Q174 -64 175 -62 Z " />
<glyph glyph-name="p" unicode="p" horiz-adv-x="226" d="M82 -129 Q81 -131 80.5 -131.5 Q80 -132 79 -134 Q77 -132 74.5 -131.5 Q72 -131 72 -127 Q70 -129 70 -129 Q70 -129 68 -127 L66 -127 Q57 -122 56 -115 Q54 -107 52 -99.5 Q50 -92 49 -84 Q47 -74 46 -64.5 Q45 -55 44 -46 Q43 -37 43 -28.5 Q43 -20 42 -12 Q41 -2 41 7 Q41 16 40 26 Q39 34 39 43 Q39 52 39 60 Q38 89 38 116.5 Q38 144 38 172 Q38 193 38.5 214 Q39 235 39 255 Q40 269 40 281.5 Q40 294 41 308 Q41 322 41.5 336 Q42 350 43 364 Q43 376 43.5 388 Q44 400 44 413 L47 467 Q48 481 49 495.5 Q50 510 51 525 L51 530 Q51 536 50 539 Q49 541 49 547 Q51 556 60 561 Q86 572 116 566 Q124 564 132 562.5 Q140 561 147 556 Q161 548 171.5 538 Q182 528 189 514 Q204 486 207 453 Q209 438 208.5 423 Q208 408 206 393 Q200 325 171 262 Q158 237 141 218 Q133 209 119 204 Q112 202 106 199.5 Q100 197 93 195 Q91 194 89.5 194 Q88 194 87 193 Q86 192 86.5 190.5 Q87 189 87 187 Q86 161 86 135 Q86 109 86 83 Q86 70 86.5 57 Q87 44 88 31 Q89 17 89.5 3 Q90 -11 91 -25 Q92 -37 92.5 -49.5 Q93 -62 94 -74 Q95 -80 95.5 -85.5 Q96 -91 96 -97 Q97 -114 93 -132 Q92 -139 84 -136 Q82 -134 82 -133 Q82 -133 82 -129 Z M88 243 L89 243 Q106 260 114 277 Q125 298 132.5 319 Q140 340 147 362 Q152 379 154.5 396 Q157 413 158 430 Q159 439 158.5 448 Q158 457 158 466 Q157 476 155.5 485.5 Q154 495 150 504 Q148 512 144.5 519 Q141 526 135 532 L129 535 Q111 538 93 532 Q90 532 90 529 Q91 517 91.5 505.5 Q92 494 92 482 Q92 470 91.5 457.5 Q91 445 91 433 Q91 414 90.5 395.5 Q90 377 90 358 Q90 342 89.5 326.5 Q89 311 89 295 Q89 289 88.5 283.5 Q88 278 88 272 L88 243 Z M143 243 Q148 250 153.5 256.5 Q159 263 162 271 L174 304 Q176 309 177 312.5 Q178 316 179 321 Q171 301 162.5 281 Q154 261 143 243 Z M130 273 Q133 276 137 286 Q141 296 145.5 306.5 Q150 317 153 326 Q156 335 156 337 Q149 321 143 305 Q137 289 130 273 Z M147 281 Q153 290 156.5 299.5 Q160 309 163 319 Q159 310 155 300.5 Q151 291 147 281 Z M159 325 Q155 316 151.5 307 Q148 298 145 288 Q155 308 159 325 Z " />
<glyph glyph-name="q" unicode="q" horiz-adv-x="274" d="M154 542 Q156 541 157 541 Q158 541 159 540 Q164 538 168 535 Q172 532 176 529 Q184 524 188.5 516 Q193 508 197 500 Q200 492 202.5 485.5 Q205 479 208 472 Q210 465 211.5 458.5 Q213 452 215 445 Q216 441 216 437 Q216 433 217 429 Q218 424 219 419 Q220 414 221 409 Q221 403 222 397.5 Q223 392 223 387 Q225 376 226 365.5 Q227 355 229 344 Q230 336 230.5 328 Q231 320 231 312 Q232 300 233 288.5 Q234 277 234 266 Q235 255 235 244 Q235 233 235 222 Q236 216 236 210 Q236 204 236 198 L236 167 Q236 158 235 149.5 Q234 141 234 132 Q234 122 233.5 112 Q233 102 232 92 Q231 81 230.5 69.5 Q230 58 228 47 Q226 34 224 21.5 Q222 9 220 -4 Q218 -20 214.5 -35 Q211 -50 207 -66 Q204 -69 209 -70 Q223 -86 235.5 -103.5 Q248 -121 261 -139 L264 -145 Q267 -149 266.5 -153 Q266 -157 266 -161 Q264 -164 262 -164 Q257 -164 257 -161 L255 -159 Q254 -160 254 -161 Q250 -158 246 -157 Q244 -156 242 -156 L242 -155 Q238 -152 235 -148 Q224 -137 214.5 -125.5 Q205 -114 194 -102 Q192 -105 192 -105 Q188 -112 184.5 -117.5 Q181 -123 175 -128 Q154 -145 128 -134 Q121 -131 115 -128 Q109 -125 103 -122 Q87 -115 77 -104 Q67 -93 60 -79 Q48 -54 45 -28 Q36 23 33 74 Q33 88 33 101.5 Q33 115 32 129 Q32 140 32.5 149.5 Q33 159 33 170 L33 212 Q34 223 34 232.5 Q34 242 34 253 Q35 266 36 278.5 Q37 291 38 304 Q41 338 46.5 371 Q52 404 57 438 Q61 461 67 483 Q73 505 83 525 Q93 542 102 556 Q107 561 111.5 564.5 Q116 568 123 569 Q131 570 141 567 Q147 565 151 563 Q153 562 153.5 560.5 Q154 559 156 558 Q158 558 158 554 Q160 546 154 542 Z M163 -24 L164 -23 Q166 -12 169.5 -2 Q173 8 175 19 Q180 43 182.5 68 Q185 93 187 118 Q189 133 189 148 Q189 163 190 177 Q190 187 190.5 196.5 Q191 206 191 216 Q190 227 190 238 Q190 249 190 260 Q188 285 186.5 310 Q185 335 181 360 Q179 371 178 381 Q177 391 175 402 Q173 416 170 429.5 Q167 443 165 457 Q162 476 153 496 Q151 503 147.5 509.5 Q144 516 141 523 Q138 523 138 524 L138 527 Q135 526 133 521 Q127 510 123 498 Q119 486 115 473 Q104 438 99 402 Q94 366 89 330 Q87 315 86.5 299.5 Q86 284 84 269 Q83 255 83 241 Q83 227 83 213 Q82 200 82 187.5 Q82 175 82 162 Q82 148 82.5 133.5 Q83 119 84 105 Q84 91 85 77.5 Q86 64 88 50 Q89 32 91.5 14 Q94 -4 96 -22 Q99 -36 103 -49 Q107 -62 112 -76 Q114 -81 116 -85 Q118 -89 120 -93 Q125 -92 128 -90 Q131 -88 134 -86 Q141 -80 145 -73 Q149 -66 153 -58 L153 -56 L153 -55 Q148 -50 145 -46 Q142 -42 137 -37 Q133 -31 128.5 -25 Q124 -19 120 -13 Q116 -9 116 -6 Q114 0 119 0 Q121 1 126 1 Q128 1 129.5 0.5 Q131 0 133 0 Q135 -2 137.5 -2.5 Q140 -3 142 -4 Q145 -7 148.5 -9.5 Q152 -12 155 -15 Q157 -17 159 -19.5 Q161 -22 163 -24 Z M102 467 Q107 485 114 502 Q121 519 129 536 Q118 521 112.5 503.5 Q107 486 102 467 Z M76 465 Q81 479 86.5 493 Q92 507 97 521 Q89 507 84.5 493 Q80 479 76 465 Z M103 511 Q102 511 102 512 Q99 503 96 494 Q93 485 90 477 Q90 476 91 476 Q94 485 97 494 Q100 503 103 511 Z M84 471 L85 471 Q89 486 96 505 L95 505 Q92 497 89 488.5 Q86 480 84 471 Z M183 -90 Q181 -94 177 -100 L178 -100 L185 -93 Q184 -92 184 -91.5 Q184 -91 183 -90 Z M175 -36 L176 -36 Q177 -33 178 -30 Q179 -27 179 -23 L178 -23 Q178 -30 175 -36 Z " />
<glyph glyph-name="r" unicode="r" horiz-adv-x="252" d="M159 184 Q163 182 166 179 Q169 176 172 173 Q180 168 185.5 160.5 Q191 153 195 145 Q202 132 205.5 119.5 Q209 107 211 93 Q217 61 217 31 Q218 17 218.5 3 Q219 -11 219 -25 Q219 -42 219.5 -60 Q220 -78 219 -96 Q219 -105 218.5 -114 Q218 -123 215 -131 Q214 -136 210 -146 Q210 -149 205 -149 Q200 -147 199 -144 Q197 -145 197 -145 Q192 -143 188.5 -141 Q185 -139 181 -137 Q174 -132 170 -123 Q164 -110 164 -96 Q164 -76 163.5 -55.5 Q163 -35 164 -14 Q164 6 163 26.5 Q162 47 161 68 Q160 83 158 98 Q156 113 153 128 Q148 145 139 159 Q135 166 128 166 Q123 167 110 166.5 Q97 166 92 164 L92 162 L92 135 L92 33 Q92 14 92.5 -4.5 Q93 -23 92 -43 Q92 -60 92.5 -78 Q93 -96 93 -114 Q93 -121 89 -131 Q88 -136 84 -137.5 Q80 -139 76 -135 Q75 -135 75 -133 L75 -125 Q73 -127 72.5 -129 Q72 -131 70 -133 Q69 -131 67 -129 Q66 -131 64.5 -130 Q63 -129 62 -128 Q61 -127 61.5 -125.5 Q62 -124 61 -122 Q61 -123 59 -125 Q57 -126 57 -126 L56 -125 Q57 -123 56 -120 Q56 -122 54 -124 Q51 -123 51 -121 Q51 -119 50 -116 Q48 -120 48 -120 Q46 -119 44 -115 L41 -112 Q38 -106 38 -100 Q38 -68 38.5 -35.5 Q39 -3 39 29 Q40 71 40 111.5 Q40 152 40 194 Q41 246 41.5 297.5 Q42 349 44 401 Q44 421 44 441.5 Q44 462 46 482 Q46 494 46.5 506 Q47 518 47 530 Q47 539 50 548 L50 551 Q49 557 54 562 Q55 563 56.5 563 Q58 563 60 564 Q64 565 67 565 Q70 565 74 566 Q83 568 92 566.5 Q101 565 109 563 Q120 561 129.5 557.5 Q139 554 148 549 Q178 531 192 496 Q197 482 200.5 468 Q204 454 205 440 L211 395 Q212 388 212 381 Q212 374 212 367 Q212 354 212.5 341.5 Q213 329 212 316 Q210 291 205.5 267.5 Q201 244 190 222 Q179 201 162 187 L159 184 Z M92 211 Q98 213 104 215 Q110 217 115 221 Q131 233 142 255 Q150 272 154 290 Q158 308 159 326 Q159 346 159 364.5 Q159 383 157 402 Q156 416 155 430.5 Q154 445 153 459 Q151 471 149 483.5 Q147 496 142 507 Q137 522 128 530 Q127 531 123 533 Q115 536 105.5 536.5 Q96 537 87 536 Q86 536 86 534 Q87 514 87.5 495 Q88 476 89 457 Q89 444 89.5 431 Q90 418 90 405 Q92 384 90 361 Q91 343 91 325 Q91 307 91 289 Q91 275 91 261 Q91 247 92 233 L92 211 Z M171 218 Q180 226 183.5 236 Q187 246 190 257 Q185 247 180.5 237.5 Q176 228 171 218 Z M154 243 Q159 248 160.5 254 Q162 260 163 267 L154 243 Z M169 247 L169 246 Q173 254 174 258 Q170 250 169 247 Z M169 260 L169 261 Q167 258 165 252 L166 252 Q167 254 169 260 Z " />
<glyph glyph-name="s" unicode="s" horiz-adv-x="252" d="M194 335 Q193 333 191 331 Q188 334 186 334 Q186 335 185 334.5 Q184 334 184 335 Q182 337 181 337 Q180 337 178 339 Q175 342 173 349 Q170 374 170 401 Q169 418 169 435 Q169 452 167 469 Q166 482 164.5 495 Q163 508 159 521 Q156 537 147 552 Q145 556 141 555 Q127 554 115 542 Q106 532 100 521 Q94 510 89 498 Q76 457 75 419 Q73 399 72 380.5 Q71 362 69 342 Q69 324 69.5 305.5 Q70 287 72 269 Q74 255 78.5 243 Q83 231 91 220 Q101 205 118 197 Q135 187 151 181 Q159 176 166.5 170.5 Q174 165 182 159 Q194 147 202 129 Q207 118 210.5 107 Q214 96 216 85 Q217 75 218 65.5 Q219 56 219 46 Q218 33 218 20.5 Q218 8 217 -5 Q215 -21 213 -36.5 Q211 -52 207 -67 Q204 -81 199 -93.5 Q194 -106 186 -117 Q172 -136 150 -140 Q131 -143 113 -133 Q110 -131 106 -130 Q102 -129 99 -127 Q83 -120 70 -104 Q51 -79 45 -47 Q43 -33 42 -19.5 Q41 -6 40 8 Q40 28 45 51 Q46 53 47 55 Q48 57 49 59 Q52 62 59 62 Q58 55 55 50 L56 50 Q57 52 57 52.5 Q57 53 58 55 Q59 57 59 57.5 Q59 58 60 60 Q62 61 62 61 Q63 60 63 59 Q64 59 66 61 Q66 58 65 56 L66 56 Q67 57 67 58 Q67 59 68 59 Q70 59 73 56 L73 54 Q73 52 72.5 50 Q72 48 73 46 Q73 48 74 50 Q75 52 76 54 Q78 52 78 48 Q79 43 78.5 39 Q78 35 78 30 Q79 16 79 3 Q79 -10 80 -24 Q81 -36 83 -47.5 Q85 -59 88 -71 Q94 -88 108 -104 Q110 -107 112.5 -107 Q115 -107 117 -107 Q137 -100 145 -87 Q155 -73 160 -57.5 Q165 -42 167 -25 Q168 -14 169.5 -2.5 Q171 9 172 20 Q175 50 172 80 Q170 93 167 106 Q164 119 159 131 Q157 134 156.5 137 Q156 140 154 143 Q150 150 145 154.5 Q140 159 134 163 Q125 168 116.5 172 Q108 176 100 181 Q65 199 47 232 Q42 241 39 251 Q36 261 34 272 Q29 300 29 323 Q30 338 30.5 352.5 Q31 367 32 381 Q33 395 34.5 408.5 Q36 422 38 436 Q40 462 46.5 487.5 Q53 513 64 536 Q72 554 83 566 Q107 592 142 581 Q161 576 172.5 564 Q184 552 192 535 Q197 521 199.5 506.5 Q202 492 204 477 Q206 456 205.5 435 Q205 414 205 394 Q204 384 204 374.5 Q204 365 204 356 Q203 350 202.5 344 Q202 338 201 333 Q200 328 196 329 Q192 329 194 332 L194 335 Z M98 538 Q90 527 86 516 Q82 505 79 494 Q84 505 88.5 516 Q93 527 98 538 Z M196 -67 Q191 -76 187.5 -85.5 Q184 -95 179 -104 Q187 -96 190.5 -86.5 Q194 -77 196 -67 Z M72 528 L71 528 Q68 520 65.5 513 Q63 506 60 499 L60 498 Q64 506 66.5 513 Q69 520 72 528 Z M173 -60 Q171 -64 170 -68 Q169 -72 167 -77 Q170 -73 171 -69 Q172 -65 173 -60 Z " />
<glyph glyph-name="t" unicode="t" horiz-adv-x="242" d="M119 -126 Q117 -128 117 -130 Q116 -130 115 -131 Q114 -129 114 -129 L114 -124 Q113 -126 113 -126.5 Q113 -127 112 -129 Q108 -127 109 -125 Q110 -123 109 -121 Q107 -123 106 -125 Q102 -121 103 -119 Q101 -119 100 -118 Q99 -116 98.5 -114 Q98 -112 98 -109 Q99 -107 99 -101 L99 57 L99 332 Q99 352 99 373 Q99 394 100 415 Q100 428 100 441 Q100 454 101 467 Q101 479 101.5 491 Q102 503 102 515 L102 518 L99 518 L66 518 Q55 518 45 518.5 Q35 519 24 519 Q19 520 15.5 520.5 Q12 521 8 522 L-4 528 Q-6 530 -9 530.5 Q-12 531 -14 533 Q-18 537 -18 542 Q-18 546 -14 547 Q-11 548 -6 548 Q7 549 19.5 549 Q32 549 45 549 Q62 549 79.5 549.5 Q97 550 114 551 Q142 553 169 554 Q196 555 224 554 Q233 554 242 553 Q251 552 260 549 Q266 547 267 543 Q272 541 272 535 L272 534 Q271 528 269.5 526.5 Q268 525 261 523 Q255 522 249.5 522 Q244 522 239 522 Q223 521 207.5 521 Q192 521 176 521 Q168 521 159 520.5 Q150 520 141 519 Q143 509 143 503 Q143 497 143.5 491.5 Q144 486 144 481 L144 448 Q145 416 145.5 383.5 Q146 351 146 318 L146 130 L146 26 L146 -41 Q145 -60 145.5 -78.5 Q146 -97 146 -116 L146 -121 Q147 -125 146 -129 Q145 -133 144 -137 Q142 -142 136 -140 Q131 -139 131 -134 L131 -130 Q130 -132 129 -133 Q128 -134 127 -136 Q126 -136 126 -135 Q125 -133 121 -133 Q119 -132 119 -129 L119 -126 Z " />
<glyph glyph-name="u" unicode="u" horiz-adv-x="286" d="M66 570 Q68 572 68 573 Q70 571 70 570 Q71 571 71.5 572 Q72 573 73 570 Q79 571 83 562 L84 563 Q85 563 85 564 Q87 561 89 555 Q89 550 89.5 546 Q90 542 90 538 L87 460 Q87 449 86.5 438 Q86 427 86 416 Q81 308 83 198 Q83 184 83.5 169.5 Q84 155 85 141 Q85 132 85.5 123 Q86 114 86 105 Q87 95 87.5 85.5 Q88 76 90 65 Q91 56 91.5 46.5 Q92 37 93 27 Q95 16 96 5 Q97 -6 99 -17 Q102 -42 110 -70 Q115 -88 123 -100 Q126 -103 129 -102 Q145 -97 155 -87 Q166 -77 171.5 -65.5 Q177 -54 181 -40 Q188 -17 191 12 Q193 24 194 35.5 Q195 47 196 59 Q197 67 197 75.5 Q197 84 198 92 Q198 105 198.5 118 Q199 131 200 145 L200 169 Q201 208 201 247 Q201 286 201 324 Q201 339 200.5 354 Q200 369 199 383 Q199 394 198.5 404.5 Q198 415 197 426 L194 459 Q193 466 192.5 472.5 Q192 479 192 485 Q191 493 190.5 500 Q190 507 190 515 Q190 523 190.5 531 Q191 539 193 547 Q194 550 194 553 Q194 556 195 559 Q195 561 197 565 Q198 569 203 568 Q205 568 205.5 568.5 Q206 569 207 569 L207 562 Q208 563 208 564 Q208 565 209 566 Q211 568 211 568 Q211 567 211.5 567 Q212 567 212 566 L212 564 Q214 566 214 567 Q214 567 216 563 Q216 564 218 566 Q220 565 223 562 Q224 561 224 557 Q225 558 225 558.5 Q225 559 226 560 Q228 558 228 557 Q230 553 232 545 L238 524 Q239 517 239.5 510.5 Q240 504 240 497 Q241 488 240.5 479 Q240 470 241 461 Q241 450 242 440 Q243 430 243 419 Q244 414 244 405 Q245 383 245 361.5 Q245 340 246 318 L246 275 Q245 243 244.5 211 Q244 179 243 147 L243 120 Q243 105 243 89.5 Q243 74 242 59 Q241 43 240 27 Q239 11 237 -5 Q235 -23 231.5 -41 Q228 -59 223 -77 Q220 -88 215.5 -97 Q211 -106 203 -114 Q194 -124 184 -130.5 Q174 -137 160 -139 Q146 -142 131 -135 Q125 -133 119.5 -130 Q114 -127 109 -125 Q84 -112 73 -83 Q68 -72 65 -60 Q62 -48 60 -35 L51 19 Q49 29 48.5 38.5 Q48 48 47 58 Q46 70 45.5 82 Q45 94 44 105 Q43 113 42.5 122 Q42 131 42 139 Q41 150 40.5 159.5 Q40 169 40 180 Q39 193 39 206 Q39 219 39 232 Q39 244 39.5 256 Q40 268 40 280 Q40 297 40.5 313 Q41 329 41 346 Q42 359 42 371.5 Q42 384 43 397 Q44 409 45 421.5 Q46 434 47 448 Q48 456 48 463.5 Q48 471 49 479 Q50 490 50 501.5 Q50 513 51 524 Q52 530 52 536 Q52 542 52 548 L52 565 Q53 571 58 573 Q63 573 63 573 Q63 573 66 570 Z M213 -70 Q206 -83 200 -96 Q207 -91 209 -84 Q211 -77 213 -70 Z M191 -54 Q189 -59 187 -64 Q185 -69 183 -74 Q188 -69 189 -64 Q190 -59 191 -54 Z " />
<glyph glyph-name="v" unicode="v" horiz-adv-x="267" d="M42 554 L44 556 Q45 555 45 553 Q45 553 47 556 Q48 555 48 554.5 Q48 554 49 553 Q52 557 58 548 Q59 547 59 547 Q60 545 61 542.5 Q62 540 62 537 Q64 527 65 517.5 Q66 508 68 498 Q68 485 69.5 473 Q71 461 73 448 Q72 437 72.5 426.5 Q73 416 74 405 Q76 394 76 382.5 Q76 371 77 360 Q79 350 79 340.5 Q79 331 80 321 Q81 311 82 302 Q83 293 83 283 Q84 273 84.5 263.5 Q85 254 87 244 Q87 233 88 223 Q89 213 90 202 Q91 191 91.5 181 Q92 171 94 160 Q96 147 96.5 135 Q97 123 99 110 Q101 97 102 84.5 Q103 72 105 58 Q107 42 109.5 26 Q112 10 114 -6 Q114 -15 115.5 -24 Q117 -33 119 -42 Q118 -42 120 -44 Q122 -38 122 -32.5 Q122 -27 122 -21 Q124 -12 126 -2.5 Q128 7 130 16 Q130 24 131 32.5 Q132 41 134 49 Q135 57 135.5 66 Q136 75 138 83 L144 116 Q144 131 147 146 Q148 152 149 158 Q150 164 151 171 Q152 179 153 187.5 Q154 196 155 204 Q157 212 157.5 219.5 Q158 227 159 235 Q161 244 161.5 252.5 Q162 261 164 270 Q165 278 166 286 Q167 294 169 302 Q169 318 174 336 Q176 347 177 356.5 Q178 366 180 377 Q184 395 186 415 Q188 423 189.5 431.5 Q191 440 193 448 Q193 458 194.5 467.5 Q196 477 198 487 Q200 495 200.5 503.5 Q201 512 203 520 Q205 531 207.5 541 Q210 551 214 561 Q216 563 217 565.5 Q218 568 220 570 Q223 573 226 573 Q229 573 233 573 Q229 566 227 557 L228 557 Q229 561 233 569 Q233 573 236 572 Q238 571 237 570 Q236 569 236 568 Q236 565 234 561 L235 561 Q236 564 236.5 566.5 Q237 569 238 572 Q241 570 240 568.5 Q239 567 240 565 Q241 567 241 568 Q241 569 242 570 Q249 568 251 561 L253 563 Q258 558 258 551 Q257 543 256.5 536 Q256 529 254 521 Q252 506 248.5 491 Q245 476 242 461 Q240 447 237 433.5 Q234 420 232 406 Q230 391 227 376.5 Q224 362 222 348 Q220 331 217 315 Q214 299 211 282 Q208 262 204.5 242 Q201 222 198 202 Q195 181 192 159.5 Q189 138 187 116 Q183 99 181 81.5 Q179 64 176 46 Q174 33 173 20 Q172 7 170 -7 Q168 -22 165.5 -37.5 Q163 -53 160 -69 Q159 -83 156.5 -96 Q154 -109 150 -123 Q149 -130 145 -137 Q138 -149 127 -141 Q123 -139 119.5 -137.5 Q116 -136 112 -134 Q108 -132 104.5 -129.5 Q101 -127 98 -124 Q93 -116 89 -108 Q85 -100 84 -91 Q79 -74 76.5 -58 Q74 -42 72 -25 Q70 -11 68.5 2.5 Q67 16 64 30 Q63 44 61.5 57.5 Q60 71 57 85 Q56 99 55 112 Q54 125 53 139 Q51 153 50 167 Q49 181 48 195 Q46 211 45 226.5 Q44 242 42 259 Q41 272 40.5 285 Q40 298 38 312 Q38 339 35 365 Q34 376 34.5 386.5 Q35 397 33 408 Q33 422 32.5 434.5 Q32 447 31 461 Q30 475 30 488.5 Q30 502 28 516 Q29 524 28.5 531 Q28 538 28 546 Q29 548 29.5 549.5 Q30 551 31 553 Q32 557 37 557 L38 557 Q40 558 42 554 Z " />
<glyph glyph-name="w" unicode="w" horiz-adv-x="483" d="M218 161 Q216 153 215 145.5 Q214 138 212 130 L182 -26 Q178 -45 173.5 -64 Q169 -83 163 -101 Q160 -109 156 -117 Q152 -125 146 -132 Q138 -143 125 -136 Q121 -134 118 -133 Q115 -132 111 -130 Q95 -122 84 -103 Q74 -86 71 -65 Q69 -53 68 -40.5 Q67 -28 65 -15 Q63 -1 62 12 Q61 25 59 38 Q57 52 56 65.5 Q55 79 53 93 Q51 109 49.5 124.5 Q48 140 46 155 Q44 169 43.5 182 Q43 195 41 208 Q40 222 39 235 Q38 248 36 262 Q35 273 34.5 282.5 Q34 292 34 303 Q30 344 29.5 384 Q29 424 30 465 Q30 483 30 501 Q30 519 31 537 Q31 540 31 543.5 Q31 547 32 551 Q34 556 36 556.5 Q38 557 43 556 Q42 554 42 551 L42 550 Q43 551 43 554 Q45 556 45 556 L46 556 L46 553 Q47 554 47 554.5 Q47 555 48 556 L49 555 L49 552 Q49 553 49.5 553.5 Q50 554 50 555 Q55 554 56 547 Q57 548 57 548.5 Q57 549 58 550 Q60 546 60 544 Q62 536 62.5 528.5 Q63 521 64 513 Q65 490 65.5 467.5 Q66 445 67 422 Q69 394 69.5 366.5 Q70 339 72 312 Q73 285 75 258.5 Q77 232 80 206 Q82 177 85 147.5 Q88 118 91 89 Q93 66 96 42.5 Q99 19 101 -4 Q103 -17 104 -29.5 Q105 -42 107 -56 Q109 -67 110.5 -77 Q112 -87 116 -98 Q117 -99 118 -101 L121 -95 Q126 -85 129.5 -75 Q133 -65 135 -54 Q140 -31 145.5 -8 Q151 15 156 38 Q164 76 171 114 Q178 152 186 190 Q188 204 191.5 217 Q195 230 200 244 Q202 252 206 253 Q210 254 216 254 Q219 254 222 252.5 Q225 251 228 251 Q232 250 234.5 248 Q237 246 240 244 Q246 239 248 233 Q250 227 252 220 Q256 200 258 181 Q260 167 261.5 154 Q263 141 265 127 L271 82 Q273 67 276 52.5 Q279 38 281 24 Q286 2 290.5 -19 Q295 -40 301 -60 Q302 -62 302 -63 Q302 -64 304 -66 Q306 -60 308.5 -54 Q311 -48 313 -41 Q318 -27 321.5 -13 Q325 1 329 16 Q337 49 343 82.5 Q349 116 355 150 Q360 180 365 209.5 Q370 239 375 269 L396 395 Q400 415 403 435 Q406 455 410 475 Q412 490 415 504.5 Q418 519 421 534 Q423 538 424 541 Q425 544 430 544 L435 544 Q434 542 433.5 539 Q433 536 432 534 L433 534 Q434 536 436 542 L438 544 Q438 541 438 541 L438 536 Q439 538 439.5 540 Q440 542 441 544 Q443 542 442 540 Q441 538 441 536 L444 542 Q450 540 450 535 L450 530 L453 536 Q457 532 455 529 Q455 521 454.5 512.5 Q454 504 453 496 Q451 472 447 448.5 Q443 425 439 401 Q434 374 429.5 346.5 Q425 319 420 292 L405 202 Q402 185 399 167.5 Q396 150 393 132 Q385 89 378 46.5 Q371 4 360 -39 Q357 -54 352.5 -69 Q348 -84 341 -98 Q339 -101 336.5 -104.5 Q334 -108 331 -111 Q323 -122 311 -115 Q306 -113 301.5 -110.5 Q297 -108 292 -106 Q278 -99 269 -84 Q264 -76 261.5 -67 Q259 -58 256 -49 Q249 -25 244 -1 Q239 23 234 48 Q232 65 229.5 82 Q227 99 224 116 Q222 127 221.5 138.5 Q221 150 219 161 L218 161 Z M329 -93 L330 -94 Q332 -92 333 -90 Q334 -88 335 -86 Q337 -82 339 -76 Q341 -72 341.5 -68.5 Q342 -65 344 -60 L329 -93 Z M156 -92 Q153 -98 150 -104.5 Q147 -111 144 -117 Q151 -112 156 -92 Z M314 -75 Q319 -68 321.5 -60.5 Q324 -53 326 -45 L314 -75 Z M138 -85 L138 -84 Q136 -88 135 -91 Q134 -94 132 -98 L133 -98 Q136 -91 138 -85 Z M326 -73 Q328 -70 329 -66.5 Q330 -63 332 -60 L331 -60 Q327 -68 326 -73 Z " />
<glyph glyph-name="x" unicode="x" horiz-adv-x="338" d="M275 569 Q275 565 274 563 L275 563 Q275 565 277 567 Q278 568 279 568 L279 567 L283 567 L284 566 Q291 568 291 560 Q296 561 296 556 Q296 547 295 543 Q292 526 287 511 Q282 496 276 481 Q262 449 249.5 417.5 Q237 386 224 354 Q213 329 204 305 Q195 281 185 256 L185 251 Q196 219 206.5 188 Q217 157 228 125 Q237 97 246 70 Q255 43 264 15 Q273 -11 283 -36 Q293 -61 303 -87 Q309 -100 312 -116 Q314 -120 313 -123.5 Q312 -127 311 -131 Q311 -135 307 -135 Q301 -133 301 -131 L299 -129 L297 -131 Q295 -129 293.5 -128.5 Q292 -128 290 -126 Q288 -126 287 -125 L281 -122 Q277 -120 273 -112 Q262 -94 252 -71 Q238 -33 225 4.5 Q212 42 200 80 Q191 109 182 136.5 Q173 164 164 193 Q164 195 163 196 Q163 195 162.5 194.5 Q162 194 162 193 Q144 144 127 95 Q110 46 94 -5 Q86 -28 79.5 -50.5 Q73 -73 67 -96 Q64 -106 61 -115.5 Q58 -125 55 -134 Q54 -136 54 -137 Q54 -138 53 -139 Q51 -142 48 -141 Q43 -141 46 -136 Q46 -135 46.5 -134.5 Q47 -134 47 -132 Q45 -134 44.5 -135.5 Q44 -137 42 -139 Q41 -137 38 -137 Q35 -137 37 -132 L34 -135 Q34 -133 33 -133 Q30 -135 30 -131 Q28 -131 27 -130 Q25 -128 23.5 -125.5 Q22 -123 23 -120 Q25 -111 26 -102.5 Q27 -94 28 -86 Q34 -50 44.5 -15.5 Q55 19 66 53 Q80 98 96 141.5 Q112 185 129 230 Q132 237 135 244 Q138 251 141 259 L141 264 Q130 299 119 334.5 Q108 370 97 405 Q91 427 85.5 449 Q80 471 75 493 Q71 505 67.5 517.5 Q64 530 60 543 Q59 545 59 546.5 Q59 548 58 550 Q58 556 64 556 Q68 556 69 555 Q70 556 71 555 Q74 555 76 554 Q77 554 79 552 Q87 547 91 539 Q94 531 97.5 522 Q101 513 104 504 Q115 475 124 445 Q133 415 142 385 Q147 369 152 353 Q157 337 162 321 Q162 320 162.5 320 Q163 320 163 319 Q164 320 164 321 Q182 370 201.5 417 Q221 464 242 512 Q246 522 249.5 531.5 Q253 541 258 551 Q260 556 264 564 Q268 570 275 569 Z M184 313 Q184 313 186 317 Q197 344 207.5 371.5 Q218 399 229 426 Q237 446 246 466.5 Q255 487 263 507 L266 513 Q264 508 262 504 Q260 500 258 495 Q241 454 224 414.5 Q207 375 192 334 Q190 329 188 323.5 Q186 318 184 313 Q183 311 182 308 Q181 305 180 303 L180 302 Q182 305 182.5 308 Q183 311 184 313 Z M279 518 Q276 512 267.5 492 Q259 472 248 445 Q237 418 225 388 Q213 358 203 332.5 Q193 307 186 289.5 Q179 272 179 270 L179 268 Q181 270 181 271 Q192 300 203.5 329.5 Q215 359 227 388 Q238 414 248 438.5 Q258 463 269 488 Q272 496 274.5 503 Q277 510 279 518 Z M170 300 Q170 302 171 303 Q182 332 193.5 361 Q205 390 217 419 Q230 451 243.5 482 Q257 513 268 545 Q268 546 269 547 Q244 485 217.5 424 Q191 363 170 300 Z M148 243 Q146 240 139.5 223.5 Q133 207 124.5 183.5 Q116 160 106.5 133.5 Q97 107 89 84 Q81 61 76 45 Q71 29 71 27 Q88 82 108 135.5 Q128 189 148 243 Z M158 212 L157 212 Q144 176 131.5 140.5 Q119 105 107 68 L158 212 Z M172 292 Q186 330 201 366.5 Q216 403 230 441 Q214 404 200 367 Q186 330 172 292 Z M150 235 Q140 209 130 182 Q120 155 110 129 L111 128 Q121 155 130.5 181.5 Q140 208 150 235 Z M266 524 L265 525 Q262 517 259.5 510.5 Q257 504 254 497 Q254 496 255 496 Q257 504 260 510.5 Q263 517 266 524 Z M251 489 Q250 487 249 484.5 Q248 482 247 480 Q249 483 251 489 Z " />
<glyph glyph-name="y" unicode="y" horiz-adv-x="294" d="M43 575 Q43 577 45 581 L46 582 Q46 582 48 580 Q48 581 48.5 581 Q49 581 49 582 L50 582 Q50 579 51 577 Q51 578 51.5 578.5 Q52 579 52 581 Q57 580 59 575 Q62 572 62 573 Q63 570 65 562 Q65 550 65 537.5 Q65 525 66 513 Q66 496 66 480 Q66 464 67 447 Q67 431 68 415.5 Q69 400 72 384 Q75 363 83.5 344 Q92 325 107 309 Q110 304 117 300 Q123 294 134 296 Q153 299 167 313 Q179 323 187 335.5 Q195 348 200 362 Q206 376 209.5 390.5 Q213 405 216 420 Q219 437 222 452.5 Q225 468 227 485 Q229 495 229.5 504.5 Q230 514 231 524 Q233 538 234.5 551 Q236 564 238 578 Q239 581 241 585 Q241 586 244 589 Q246 590 247 589.5 Q248 589 250 589 Q252 591 252 587 Q251 586 251 583 Q252 584 252 584.5 Q252 585 253 586 Q253 587 253.5 587.5 Q254 588 254 589 Q256 587 257 587 Q259 589 260 585 Q260 589 263 586 Q269 584 269 579 Q270 579 270 579.5 Q270 580 271 580 Q275 577 275 571 Q275 568 275.5 565.5 Q276 563 276 561 Q275 549 275 537 Q275 525 274 513 Q273 488 268 464 Q266 452 264.5 440 Q263 428 261 417 Q256 394 251.5 372 Q247 350 239 329 Q228 301 208 281 Q199 273 188.5 267 Q178 261 166 259 Q161 258 153 258 L153 243 Q153 237 153.5 230.5 Q154 224 154 218 Q154 205 154 192.5 Q154 180 155 167 Q155 153 155 139.5 Q155 126 156 112 Q156 95 156.5 79 Q157 63 158 46 Q158 31 158.5 15.5 Q159 0 160 -15 Q160 -27 160 -38.5 Q160 -50 161 -62 Q161 -74 161.5 -86 Q162 -98 162 -110 L162 -125 Q162 -130 160 -134 Q160 -138 155 -138 Q151 -137 150 -132 Q149 -135 145 -133 Q142 -131 136 -129 Q128 -123 127 -118 Q120 -98 119 -82 Q117 -59 116.5 -36.5 Q116 -14 116 9 Q115 30 115 51 Q115 72 114 93 Q114 120 113.5 147 Q113 174 113 200 Q113 215 113.5 230 Q114 245 115 259 Q115 265 116 268 Q116 271 114 271 Q94 279 79.5 292.5 Q65 306 53 323 Q42 339 35.5 357 Q29 375 26 395 Q24 410 23.5 424.5 Q23 439 24 453 Q25 464 25 474 Q25 484 25 495 Q26 510 26.5 525.5 Q27 541 29 556 Q29 561 29.5 565.5 Q30 570 31 575 Q31 576 31.5 577 Q32 578 32 579 Q34 581 37 583 Q40 585 43 583 L44 581 Q43 579 43 578 Q43 577 42 575 L43 575 Z M213 308 Q224 317 228 328.5 Q232 340 236 353 Q231 341 225.5 330 Q220 319 213 308 Z M204 337 Q209 344 211.5 351.5 Q214 359 216 366 Q213 359 210 352 Q207 345 204 337 Z M222 352 Q220 349 219.5 346.5 Q219 344 217 341 L218 341 Q219 343 220 346 Q221 349 222 352 Z M215 346 Q216 348 217 351 Q218 354 219 356 L218 356 Q216 350 215 346 Z " />
<glyph glyph-name="z" unicode="z" horiz-adv-x="287" d="M219 543 L199 543 Q184 542 169 541.5 Q154 541 139 541 Q129 541 119.5 542 Q110 543 101 544 Q97 544 94 544.5 Q91 545 88 545 Q83 546 79 548 Q75 550 71 552 Q66 554 58 558 Q55 560 53 566 Q53 570 58 572 Q60 572 62.5 572.5 Q65 573 68 573 Q78 573 88 572.5 Q98 572 108 572 L140 572 Q148 572 156 572.5 Q164 573 172 573 Q184 573 195.5 573 Q207 573 219 574 Q223 574 226.5 573.5 Q230 573 235 573 Q240 574 245 573 Q250 572 255 570 Q257 569 259 568.5 Q261 568 263 566 Q265 565 265 564.5 Q265 564 267 562 Q274 558 273 550 Q271 542 268.5 535.5 Q266 529 263 523 Q253 505 243.5 487.5 Q234 470 225 453 Q204 411 185 368.5 Q166 326 151 281 Q136 237 123 193 Q110 149 98 104 Q90 74 83 43 Q76 12 70 -19 Q66 -38 62.5 -56 Q59 -74 56 -93 Q55 -94 55.5 -94 Q56 -94 55 -95 Q63 -93 66 -92 Q84 -88 102 -84 Q120 -80 139 -77 Q166 -71 194 -74 Q201 -75 207.5 -75 Q214 -75 220 -77 Q226 -78 231 -82 Q231 -82 234 -85 Q234 -86 235 -86 Q241 -88 239 -93 L239 -94 Q237 -102 235 -103 Q233 -104 225 -106 Q213 -108 201 -108.5 Q189 -109 177 -111 Q167 -113 157.5 -114.5 Q148 -116 138 -118 Q118 -123 97.5 -127.5 Q77 -132 56 -137 Q47 -139 42 -136 Q37 -134 32 -131.5 Q27 -129 22 -126 Q16 -123 11.5 -117.5 Q7 -112 9 -104 Q12 -89 15 -73.5 Q18 -58 21 -43 Q26 -17 31 8.5 Q36 34 41 60 Q48 91 56 121 Q64 151 72 181 Q84 220 96.5 258.5 Q109 297 123 335 Q161 438 216 537 L219 543 Z M139 278 Q140 280 140 280 Q145 294 150.5 308.5 Q156 323 162 337 Q180 382 200.5 424.5 Q221 467 244 509 Q248 516 251.5 522.5 Q255 529 258 537 Q259 538 259 539 Q259 540 260 541 L258 541 Q223 477 192.5 412 Q162 347 139 278 Z M216 508 Q184 451 159 391 Q145 359 133 326.5 Q121 294 110 261 Q131 325 158 386.5 Q185 448 216 508 Z M139 316 Q150 342 161 368.5 Q172 395 183 421 Q171 395 160 368.5 Q149 342 139 316 Z M165 390 Q155 369 146.5 347.5 Q138 326 130 303 Q139 325 147.5 346.5 Q156 368 165 390 Z M235 543 L234 543 Q232 541 231.5 538.5 Q231 536 229 534 L229 533 Q231 537 235 543 Z " />
<glyph glyph-name="braceleft" unicode="&#x7b;" horiz-adv-x="133" d="M107 -117 Q109 -117 109.5 -117.5 Q110 -118 112 -118 Q115 -120 112 -123 Q113 -123 113 -124 Q114 -123 114.5 -123 Q115 -123 116 -122 Q120 -128 116 -133 Q114 -139 108 -136 Q91 -130 78.5 -120 Q66 -110 60 -91 Q56 -80 54.5 -68 Q53 -56 51 -45 Q49 -23 49 -2 Q49 19 48 41 L48 91 Q49 109 49.5 126.5 Q50 144 51 161 Q52 175 52 188.5 Q52 202 50 216 Q48 218 48 220.5 Q48 223 47 225 Q47 228 44 230 Q36 233 30 238 Q19 244 22 257 Q24 264 25.5 270 Q27 276 29 283 Q34 304 36.5 324.5 Q39 345 40 367 Q43 427 52 489 Q54 509 56.5 528 Q59 547 64 567 Q65 573 66 579 Q67 585 69 592 Q70 593 70 594 Q70 595 71 596 Q75 604 80.5 608 Q86 612 97 610 Q102 608 106.5 606.5 Q111 605 114 601 Q116 599 116 595.5 Q116 592 114 590 Q113 589 110 589 Q100 590 98 582 Q94 576 92.5 569.5 Q91 563 89 556 Q87 539 85 522 Q83 505 81 488 Q76 453 75 420 Q73 408 72.5 396 Q72 384 71 371 Q70 345 67.5 319.5 Q65 294 59 269 Q57 262 54.5 256 Q52 250 50 243 Q51 242 51.5 242 Q52 242 53 241 Q66 236 71.5 227 Q77 218 79 205 Q81 192 81 180 Q81 168 81 155 Q81 130 80.5 105.5 Q80 81 80 56 Q81 35 81 14.5 Q81 -6 82 -26 Q83 -43 84.5 -59 Q86 -75 91 -91 L100 -112 Q103 -117 106 -116 Q107 -117 107 -118 L107 -117 Z M94 590 Q89 586 89 578 Q93 586 94 590 Z M49 261 Q48 261 48 262 Q46 258 46 255.5 Q46 253 44 250 L45 249 Q47 252 47 255 Q47 258 49 261 Z " />
<glyph glyph-name="bar" unicode="&#x7c;" horiz-adv-x="115" d="M76 611 Q76 612 76.5 612.5 Q77 613 77 614 Q80 612 80 609 Q79 601 79 592.5 Q79 584 78 576 Q79 568 78.5 560 Q78 552 78 544 Q77 533 77 523 Q77 513 76 502 Q75 489 74.5 476 Q74 463 75 450 Q74 433 74 416.5 Q74 400 73 383 Q72 362 72 341.5 Q72 321 71 300 Q71 279 70.5 258 Q70 237 70 217 Q68 163 69 109.5 Q70 56 72 2 Q73 -22 74.5 -46.5 Q76 -71 78 -96 Q79 -104 79 -112.5 Q79 -121 79 -129 Q79 -133 78 -135 Q78 -139 75 -139 Q70 -139 70 -135 L69 -136 L68 -136 Q62 -134 60 -132 Q53 -129 52 -123 Q51 -118 50.5 -113.5 Q50 -109 49 -104 Q44 -84 43 -65 Q42 -46 40 -26 Q39 -4 38 17.5 Q37 39 37 61 Q36 85 36 109.5 Q36 134 36 158 Q36 187 37 215.5 Q38 244 39 273 Q39 311 42 349 Q42 453 51 558 Q52 572 52.5 585.5 Q53 599 55 613 L55 616 Q57 623 64 621 Q68 619 71 619 Q76 617 75 613 L75 611 L76 611 Z " />
<glyph glyph-name="braceright" unicode="&#x7d;" horiz-adv-x="154" d="M57 -137 Q58 -136 58 -135.5 Q58 -135 59 -134 Q57 -134 56 -134.5 Q55 -135 54 -135 Q52 -135 50 -133 L50 -132 Q49 -132 48 -133 L48 -131 Q45 -131 45 -131 L45 -129 Q44 -129 43 -130 Q42 -128 41 -127.5 Q40 -127 40 -125 Q38 -121 39 -120 Q44 -112 46 -103 Q48 -94 50 -85 Q50 -74 50.5 -62 Q51 -50 51 -39 Q51 -12 50 15 Q49 42 48 69 Q47 92 47.5 115.5 Q48 139 50 162 Q51 178 52 193.5 Q53 209 55 225 Q58 249 74 265 L78 269 Q76 270 75.5 270.5 Q75 271 73 272 Q64 280 58 289 Q52 298 51 310 Q51 321 51 331 Q51 341 52 351 Q54 383 55.5 414 Q57 445 58 477 Q61 515 56 558 Q54 574 50 589 Q49 590 48.5 591 Q48 592 47 593 Q46 595 46 595 Q43 595 41 596 Q39 597 37 598 Q35 599 33 600 Q28 603 30 607 Q30 611 35 611 Q45 613 54.5 608.5 Q64 604 69 594 Q74 586 76 578.5 Q78 571 80 563 Q86 528 86 494 Q85 482 85 470.5 Q85 459 85 447 Q84 433 83.5 420 Q83 407 83 393 Q82 371 81 350 Q80 329 80 307 Q80 299 81 295 Q82 290 85 286 Q88 282 92 280 Q94 278 95.5 277.5 Q97 277 99 276 Q101 274 103.5 272.5 Q106 271 108 269 Q110 265 110 263 Q111 257 107 251 L98 242 Q85 229 85 211 Q83 191 82.5 171.5 Q82 152 80 132 Q79 106 79.5 81 Q80 56 81 30 Q82 12 82.5 -5.5 Q83 -23 84 -41 Q85 -55 84.5 -69 Q84 -83 82 -97 Q82 -106 79 -115 Q78 -121 75 -125.5 Q72 -130 68 -135 Q62 -141 57 -137 Z M81 229 L87 241 Q83 238 81 229 Z M66 -123 Q71 -118 71 -111 Q69 -115 68 -117.5 Q67 -120 66 -123 Z " />
<glyph glyph-name="asciitilde" unicode="&#x7e;" horiz-adv-x="303" d="M263 343 Q265 345 268 342 L269 342 Q271 343 275 339 L275 337 Q274 335 274 334.5 Q274 334 273 332 Q267 321 261.5 310.5 Q256 300 250 289 Q249 288 249 287 L250 287 Q252 291 255 295 Q258 299 260 303 Q268 316 276 334 Q276 335 278 337 L279 337 Q279 335 279.5 334 Q280 333 280 332 Q280 328 279 326 Q274 316 270 306.5 Q266 297 261 287 Q251 268 233 256 Q207 241 184 255 Q179 257 174 259.5 Q169 262 164 265 Q156 270 150 277 Q144 284 138 292 Q133 299 128.5 305 Q124 311 119 318 Q115 323 108 322 Q96 319 89 312 Q84 307 79.5 301.5 Q75 296 71 291 Q65 281 60 271.5 Q55 262 52 251 Q50 248 52 246 Q52 240 50 236 Q49 235 46 235 Q44 236 43.5 236.5 Q43 237 41 238 Q38 240 35 241 Q32 242 30 244 Q21 248 23 259 Q23 267 25.5 273 Q28 279 31 286 Q42 312 59 330 Q76 347 95 346 Q118 346 136 331 Q144 324 150.5 316 Q157 308 164 300 Q168 295 172 290 Q176 285 180 280 Q185 274 195 277 Q203 280 208 285 Q213 290 218 296 Q223 302 226.5 308.5 Q230 315 235 321 Q239 326 242.5 330.5 Q246 335 250 340 Q254 346 260 344 Q261 344 263 343 Z M47 261 Q53 272 59 283 Q65 294 71 305 Q63 294 57 283.5 Q51 273 47 261 Z M41 285 L35 273 L36 273 Q38 276 38.5 279 Q39 282 41 285 Z " />
<glyph glyph-name="exclam" unicode="&#x21;" horiz-adv-x="141" d="M70 609 Q70 609 72 611 L72 609 Q72 609 72 607 Q74 609 74 610 L75 610 L75 606 Q76 607 76 607.5 Q76 608 77 609 Q82 609 83 601 Q83 601 85 605 Q86 603 86.5 602 Q87 601 87 599 Q88 593 88.5 587.5 Q89 582 90 576 Q91 550 91.5 524.5 Q92 499 92 473 Q93 434 93 395 Q93 356 93 317 Q94 260 94 204.5 Q94 149 94 92 Q95 68 95 43.5 Q95 19 95 -5 Q95 -12 95.5 -18 Q96 -24 96 -31 Q96 -35 95.5 -38 Q95 -41 94 -45 Q93 -53 83 -49 Q82 -47 82 -47 L82 -41 Q81 -43 80.5 -43.5 Q80 -44 79 -46 Q73 -44 71 -42 L71 -41 Q71 -40 70.5 -39.5 Q70 -39 70 -38 Q70 -39 68 -41 L67 -42 Q67 -39 66 -37 Q66 -39 64 -39 Q62 -39 62 -37 Q62 -35 61 -33 Q60 -34 60 -34.5 Q60 -35 59 -36 Q52 -29 52 -21 L52 -11 Q52 9 52.5 28 Q53 47 53 66 L53 259 L53 426 Q54 447 54 468 Q54 489 54 509 Q55 528 55.5 547 Q56 566 57 585 Q57 590 57.5 596 Q58 602 59 607 Q60 610 63 611.5 Q66 613 68 611 L69 610 L69 606 Q69 607 69.5 607.5 Q70 608 70 609 Z M80 -86 Q80 -84 80.5 -84 Q81 -84 82 -82 Q84 -86 84 -87 Q85 -90 85 -97 Q85 -103 84.5 -109 Q84 -115 84 -121 Q84 -124 83 -126 Q80 -129 80 -129 Q79 -129 75 -127 Q75 -126 74 -126 L73 -127 Q70 -125 67.5 -124 Q65 -123 62 -121 Q55 -116 54 -108 Q53 -103 52.5 -97.5 Q52 -92 52 -86 Q51 -85 52 -82 Q52 -72 63 -74 Q65 -74 65 -76 Q66 -76 66.5 -75.5 Q67 -75 68 -75 Q68 -77 70 -76 Q72 -75 71 -78 L71 -81 Q72 -80 72 -79 Q72 -78 73 -77 Q78 -77 80 -86 Z " />
<glyph glyph-name="quotedbl" unicode="&#x22;" horiz-adv-x="129" d="M83 542 Q81 540 81 540 Q79 541 78.5 542 Q78 543 77 543 Q75 543 74 544 Q73 545 71 546 Q67 549 67 554 Q66 559 66 565 Q66 571 66 576 Q66 584 67 591.5 Q68 599 70 607 Q72 613 74 614 Q76 615 81 615 Q81 614 80.5 613 Q80 612 80 610 Q81 612 81 612 Q83 614 84 614 L84 612 Q84 612 86 614 Q87 613 87 611 Q87 612 87.5 612 Q88 612 88 613 Q93 612 93 606 Q95 608 95 608 Q97 604 97 597 Q96 586 95.5 575.5 Q95 565 93 554 Q93 550 91 542 Q88 537 87 537 Q81 537 83 542 Z M47 542 Q46 541 45 541 Q40 544 36 547 Q32 550 32 557 Q32 571 32 583.5 Q32 596 34 610 Q36 620 43 616 Q44 616 44 613 Q46 615 46 616 L47 615 Q48 615 48.5 614.5 Q49 614 50 614 Q51 613 52 613 Q53 613 53.5 612.5 Q54 612 55 612 Q61 606 60 599 L57 572 Q57 566 57 560.5 Q57 555 56 549 Q56 547 54 541 Q54 539 51 539 Q49 539 47 541 L47 542 Z " />
<glyph glyph-name="numbersign" unicode="&#x23;" horiz-adv-x="304" d="M194 151 L198 151 Q206 151 215 150.5 Q224 150 232 148 Q238 146 243 144 Q245 143 245.5 142 Q246 141 247 140 Q248 138 248 134 L248 132 Q246 126 240 127 Q236 129 233 127 Q222 127 212 126.5 Q202 126 191 125 Q187 125 187 121 Q184 107 180.5 93 Q177 79 174 65 Q172 59 170 52.5 Q168 46 166 39 Q164 34 162.5 28.5 Q161 23 159 18 Q158 13 155 10.5 Q152 8 148 5 Q147 4 142 6 Q144 10 146.5 13 Q149 16 149 20 Q147 17 144.5 13.5 Q142 10 139 7 Q138 9 135.5 9 Q133 9 135 13 Q134 12 134 11.5 Q134 11 133 10 Q132 10 132 11 L132 14 L130 12 Q129 13 129 13.5 Q129 14 128 15 Q126 13 126 15 Q120 26 125 38 Q130 48 130 55 Q132 66 134.5 77 Q137 88 140 99 Q142 104 143 109.5 Q144 115 145 121 Q142 120 138.5 120 Q135 120 131 119 Q130 119 130 118 L130 116 Q128 108 126 99 Q124 90 122 81 Q117 63 112 44.5 Q107 26 100 8 Q99 7 99 6 Q99 5 98 4 Q95 -2 89 2 Q90 3 90 4 Q90 5 91 7 Q89 6 88.5 5 Q88 4 87 3 Q83 5 82.5 5.5 Q82 6 82 8 Q81 7 81 7 Q80 6 80 6 Q80 8 79 8 L77 7 Q77 8 76.5 8.5 Q76 9 76 10 Q74 10 73 11 Q71 14 71 21 Q73 35 75.5 49.5 Q78 64 82 78 Q84 86 86 94.5 Q88 103 90 111 L90 113 L72 107 Q69 105 66 107 Q66 107 68 111 Q64 109 63 109 Q63 111 61 110.5 Q59 110 60 113 Q59 112 58.5 112 Q58 112 57 111 Q58 113 58 113 L55 113 L55 116 Q55 116 53 114 Q52 116 51.5 116.5 Q51 117 50 119 Q50 123 52 125 Q59 132 70 135 L94 141 Q97 142 98 145 Q100 156 103 166 Q106 176 108 187 Q109 188 109 188 Q107 189 103 189 Q93 191 86 195 L80 198 Q75 199 74 204 Q70 210 79 212 Q85 213 90.5 213 Q96 213 102 214 Q105 215 108 215 Q111 215 115 216 Q117 216 117 218 Q122 235 126.5 250.5 Q131 266 136 282 Q137 287 141 295 Q144 303 152 301 Q153 301 155 299 Q157 301 158 298 Q158 299 160 299 L160 295 Q162 297 163 299 L168 294 Q168 293 169 293 Q174 292 172 286 L169 271 Q166 258 163 246 Q160 234 157 222 L164 222 Q166 223 170 223 Q174 223 174 227 Q179 241 183 255.5 Q187 270 191 284 Q192 286 193 288.5 Q194 291 195 293 Q198 300 207 298 Q205 292 203 290 L204 290 L207 296 Q209 298 210 297 Q210 295 209.5 294.5 Q209 294 209 292 Q210 293 210.5 295 Q211 297 213 297 Q213 295 211 291 L212 291 Q212 292 212.5 292.5 Q213 293 213 294 Q215 297 217 295 Q221 293 219 290 L219 287 L222 290 L222 291 Q223 289 223 285 Q222 277 221.5 269.5 Q221 262 219 254 L213 230 L213 227 Q218 226 223 226 Q228 226 233 225 Q239 224 245 223 Q251 222 258 220 Q263 217 264 215 Q264 214 265 214 Q267 212 267 211 Q268 207 264 201 Q262 199 260 199 Q239 201 219 199 Q215 198 208 198 Q205 198 205 195 Q202 184 199.5 173.5 Q197 163 194 152 L194 151 Z M164 192 Q161 192 157.5 191.5 Q154 191 151 191 Q148 191 148 188 Q146 182 144.5 175.5 Q143 169 141 163 L138 148 Q142 149 149 149 Q154 149 154 153 Q156 158 156.5 163 Q157 168 159 173 Q161 178 161.5 182.5 Q162 187 164 192 Z " />
</font>
</svg>
