<?xml version="1.0" encoding="UTF-8"?>
<svg xmlns="http://www.w3.org/2000/svg" xmlns:xlink="http://www.w3.org/1999/xlink" version="1.2" >
<font id="Signattury Sans">
<font-face  font-family="Signattury Sans" units-per-em="1000" ascent="750" descent="-250" font-style="normal" font-weight="400" font-stretch="normal" cap-height="700" x-height="500" underline-position="-75" underline-thickness="50" />
<missing-glyph  horiz-adv-x="104" d="" />
<glyph glyph-name="NULL" d="" />
<glyph glyph-name="CR" unicode="&#xd;" horiz-adv-x="104" d="" />
<glyph glyph-name="space" unicode="&#x20;" horiz-adv-x="104" d="" />
<glyph glyph-name="exclam" unicode="&#x21;" horiz-adv-x="134" d="M102 -51 L104 660 L33 660 L35 -51 L102 -51 L102 -51 Z M31 -61 L31 -153 L107 -153 L107 -61 L31 -61 L31 -61 Z " />
<glyph glyph-name="quotedbl" unicode="&#x22;" horiz-adv-x="157" d="M3 659 L-16 543 L52 543 L84 659 L3 659 L3 659 Z M87 659 L68 543 L135 543 L168 659 L87 659 L87 659 Z " />
<glyph glyph-name="numbersign" unicode="&#x23;" horiz-adv-x="344" d="M330 234 L330 302 L281 302 L315 517 L245 517 L211 302 L176 302 L210 517 L141 517 L107 302 L40 302 L40 234 L96 234 L81 144 L18 144 L18 76 L70 76 L34 -151 L104 -151 L140 76 L175 76 L138 -151 L209 -151 L245 76 L308 76 L308 144 L255 144 L270 234 L330 234 L330 234 Z M186 144 L151 144 L165 234 L200 234 L186 144 L186 144 Z " />
<glyph glyph-name="dollar" unicode="&#x24;" horiz-adv-x="265" d="M225 147 C219 166 208 186 191 205 L156 244 L156 435 C159 430 160 423 160 414 L160 257 L230 257 L230 413 C230 446 221 471 203 489 C192 500 175 509 156 513 L156 578 L100 578 L100 513 C83 509 65 501 53 489 C36 471 27 446 27 413 L27 360 C27 336 30 316 35 300 C41 284 51 269 65 252 L66 251 L100 217 L100 -72 C97 -66 94 -59 94 -48 L94 195 L24 195 L24 -46 C24 -78 33 -105 51 -123 C63 -135 82 -143 100 -147 L100 -204 L156 -204 L156 -148 C176 -143 194 -135 205 -123 C224 -105 233 -78 233 -46 L233 76 C233 105 230 128 225 147 L225 147 Z M163 -48 C163 -59 161 -68 156 -74 L156 132 C157 130 158 128 158 126 C160 118 163 102 163 72 L163 -48 L163 -48 Z M97 414 C97 422 98 428 100 433 L100 326 C99 332 97 343 97 361 L97 414 L97 414 Z " />
<glyph glyph-name="percent" unicode="&#x25;" horiz-adv-x="351" d="M240 204 L234 204 C219 204 207 201 197 196 L328 656 L255 656 L191 433 L191 587 C191 632 164 659 119 659 L114 659 C68 659 42 632 42 587 L42 369 C42 323 68 297 114 297 L120 297 C133 297 144 299 154 303 L23 -155 L96 -155 L162 79 L162 -85 C162 -131 190 -158 234 -158 L240 -158 C285 -158 311 -131 311 -85 L311 133 C311 178 285 204 240 204 L240 204 Z M235 -89 C234 -89 234 -89 234 -89 C234 -88 234 -88 234 -87 L234 134 C234 135 234 136 234 137 C234 137 234 137 235 137 L239 137 C239 137 240 137 240 137 C240 136 240 135 240 134 L240 -87 C240 -88 240 -88 240 -89 C240 -89 239 -89 239 -89 L235 -89 L235 -89 Z M119 365 L115 365 C114 365 114 365 113 365 C113 366 113 366 113 367 L113 588 C113 589 113 590 114 590 C114 590 114 590 115 590 L118 590 C119 590 119 590 120 590 C120 590 120 589 120 588 L120 367 C120 366 120 366 120 365 C120 365 119 365 119 365 L119 365 Z " />
<glyph glyph-name="ampersand" unicode="&#x26;" horiz-adv-x="276" d="M241 332 L241 373 L172 373 L172 332 L133 332 C112 332 103 337 103 365 L103 558 C103 589 113 595 134 595 L141 595 C161 595 172 589 172 558 L172 448 L241 448 L241 557 C241 591 232 617 214 636 C196 655 172 664 142 664 L133 664 C103 664 78 655 60 636 C42 617 33 591 33 557 L33 368 C33 335 42 313 54 298 C52 295 49 291 47 288 C38 271 33 252 33 229 L33 -50 C33 -84 42 -111 60 -130 C78 -149 103 -158 133 -158 L143 -158 C173 -158 197 -149 215 -130 C232 -111 241 -84 241 -50 L241 263 L278 263 L278 332 L241 332 L241 332 Z M172 263 L172 -52 C172 -86 159 -89 142 -89 L134 -89 C113 -89 103 -83 103 -52 L103 232 C103 256 110 263 134 263 L172 263 L172 263 Z " />
<glyph glyph-name="quotesingle" unicode="&#x27;" horiz-adv-x="114" d="M27 659 L8 543 L75 543 L108 659 L27 659 L27 659 Z " />
<glyph glyph-name="parenleft" unicode="&#x28;" horiz-adv-x="192" d="M75 251 C75 451 104 603 161 706 L185 749 L105 749 L97 735 C73 696 53 636 33 552 C14 471 5 369 5 251 C5 132 14 30 33 -52 C53 -136 73 -196 97 -236 L105 -250 L185 -250 L161 -207 C104 -104 75 49 75 251 L75 251 Z " />
<glyph glyph-name="parenright" unicode="&#x29;" horiz-adv-x="190" d="M148 552 C128 636 106 696 82 735 L74 749 L-11 749 L15 705 C74 606 103 453 103 251 C103 47 74 -106 15 -206 L-11 -250 L74 -250 L82 -236 C106 -196 128 -136 148 -52 C166 30 177 132 177 251 C177 369 166 471 148 552 L148 552 Z " />
<glyph glyph-name="asterisk" unicode="&#x2a;" horiz-adv-x="208" d="M172 481 L205 499 L167 559 L138 540 L137 577 L70 577 L69 540 L39 558 L1 500 L35 481 L3 466 L39 404 L69 421 L70 387 L136 387 L138 421 L170 404 L206 465 L172 481 L172 481 Z " />
<glyph glyph-name="plus" unicode="&#x2b;" horiz-adv-x="303" d="M187 209 L187 295 L117 295 L117 209 L41 209 L41 141 L117 141 L117 55 L187 55 L187 141 L262 141 L262 209 L187 209 L187 209 Z " />
<glyph glyph-name="comma" unicode="&#x2c;" horiz-adv-x="114" d="M28 -79 L9 -195 L76 -195 L109 -79 L28 -79 L28 -79 Z " />
<glyph glyph-name="hyphen" unicode="&#x2d;" horiz-adv-x="232" d="M40 203 L40 135 L192 135 L192 203 L40 203 L40 203 Z " />
<glyph glyph-name="period" unicode="&#x2e;" horiz-adv-x="102" d="M13 -87 L13 -178 L89 -178 L89 -87 L13 -87 L13 -87 Z " />
<glyph glyph-name="slash" unicode="&#x2f;" horiz-adv-x="237" d="M151 735 L5 -186 L75 -186 L222 735 L151 735 L151 735 Z " />
<glyph glyph-name="zero" unicode="0" horiz-adv-x="299" d="M160 521 L151 521 C122 521 98 511 80 493 C62 474 53 448 53 415 L53 -52 C53 -85 61 -112 79 -130 C97 -149 121 -158 151 -158 L161 -158 C191 -158 215 -149 234 -130 C252 -112 261 -85 261 -52 L261 415 C261 482 224 521 160 521 L160 521 Z M159 452 C181 452 191 447 191 416 L191 -54 C191 -84 181 -90 160 -90 L152 -90 C135 -90 122 -87 122 -54 L122 416 C122 450 135 452 152 452 L159 452 L159 452 Z " />
<glyph glyph-name="one" unicode="1" horiz-adv-x="190" d="M99 521 L34 448 L74 393 L80 399 L80 -158 L150 -158 L150 521 L99 521 L99 521 Z " />
<glyph glyph-name="two" unicode="2" horiz-adv-x="286" d="M108 -90 L108 -31 C108 0 111 17 113 25 C115 32 121 45 137 64 L200 137 L200 138 C216 159 228 178 235 196 C243 215 247 238 247 267 L247 415 C247 448 238 474 221 492 C203 511 180 521 150 521 L140 521 C111 521 86 511 68 493 C50 474 41 448 41 415 L41 256 L111 256 L111 416 C111 450 124 452 141 452 L149 452 C165 452 177 450 177 416 L177 269 C177 253 175 240 172 229 C169 216 165 209 163 206 C160 200 153 191 145 180 L82 107 C64 85 52 65 46 45 C41 27 38 3 38 -27 L38 -158 L250 -158 L250 -90 L108 -90 L108 -90 Z " />
<glyph glyph-name="three" unicode="3" horiz-adv-x="287" d="M247 310 L248 414 L248 414 C248 482 211 521 147 521 L138 521 C76 521 40 482 40 414 L40 275 L109 275 L109 417 C109 447 119 452 139 452 L146 452 C167 452 178 447 178 417 L178 304 C178 268 165 260 141 260 L109 260 L109 192 L141 192 C160 192 167 185 169 182 C175 175 178 164 178 149 L178 -54 C178 -84 168 -90 147 -90 L139 -90 C122 -90 109 -87 109 -54 L109 147 L40 147 L40 -52 C40 -85 49 -112 66 -130 C84 -149 108 -158 138 -158 L148 -158 C178 -158 203 -149 221 -130 C239 -112 248 -85 248 -52 L248 142 C248 182 237 208 222 226 C237 243 247 269 247 310 L247 310 Z " />
<glyph glyph-name="four" unicode="4" horiz-adv-x="288" d="M179 521 L179 164 L117 164 C114 164 112 164 111 164 C111 167 110 170 110 174 L110 521 L41 521 L41 175 C41 155 41 131 59 114 C72 101 91 95 117 95 L179 95 L179 -158 L248 -158 L248 521 L179 521 L179 521 Z " />
<glyph glyph-name="five" unicode="5" horiz-adv-x="279" d="M146 268 L109 268 L109 452 L244 452 L244 521 L39 521 L39 200 L146 200 C166 200 176 195 176 168 L176 -54 C176 -87 164 -90 148 -90 L137 -90 C117 -90 107 -84 107 -55 L107 147 L37 147 L37 -52 C37 -85 46 -112 64 -130 C82 -149 106 -158 136 -158 L149 -158 C179 -158 203 -148 220 -129 C237 -110 246 -84 246 -52 L246 165 C246 231 209 268 146 268 L146 268 Z " />
<glyph glyph-name="six" unicode="6" horiz-adv-x="285" d="M149 261 L109 261 L109 416 C109 422 110 428 111 433 C113 445 118 448 120 449 C124 451 130 452 137 452 L144 452 C152 452 159 451 163 449 C171 444 174 434 174 416 L174 268 L244 268 L244 415 C244 447 235 473 218 492 C218 492 218 492 217 492 L217 493 C209 500 201 506 192 511 C178 518 163 521 146 521 L136 521 C119 521 104 517 91 511 C82 506 73 500 66 492 L66 492 C66 492 66 492 65 492 C64 490 63 489 62 488 C52 476 46 461 42 444 C41 435 40 425 40 415 L40 -52 C40 -85 49 -112 66 -130 C84 -149 108 -158 138 -158 L149 -158 C179 -158 203 -149 221 -130 C231 -120 239 -106 243 -90 C244 -88 244 -87 245 -84 L245 -84 C245 -82 245 -81 246 -80 C246 -77 247 -74 247 -71 C247 -71 247 -70 247 -70 L247 -68 C248 -66 248 -63 248 -60 C248 -60 248 -59 248 -58 C248 -56 248 -54 248 -52 L248 158 C248 224 212 261 149 261 L149 261 Z M179 -54 C179 -56 179 -58 178 -60 C177 -80 173 -90 151 -90 L139 -90 C137 -90 134 -90 132 -89 C131 -89 131 -89 130 -89 C121 -88 109 -86 109 -55 L109 193 L149 193 C171 193 178 186 179 164 C179 163 179 162 179 161 L179 -54 L179 -54 Z " />
<glyph glyph-name="seven" unicode="7" horiz-adv-x="280" d="M41 521 L41 452 L178 452 L178 440 C178 410 175 395 173 387 C170 376 163 363 154 348 L108 288 L107 288 C89 263 78 241 73 221 C67 202 65 177 65 146 L65 -158 L133 -158 L133 142 C133 175 136 193 139 202 C143 215 153 232 167 251 L210 309 L211 310 C225 332 234 350 240 368 C245 386 247 408 247 438 L247 521 L41 521 L41 521 Z " />
<glyph glyph-name="eight" unicode="8" horiz-adv-x="285" d="M238 163 C231 181 219 199 199 218 L193 223 L194 224 C227 256 244 296 244 342 L244 415 C244 483 208 521 146 521 L136 521 C106 521 82 512 65 493 C47 474 39 448 39 416 L39 343 C39 296 56 257 90 224 L90 224 L83 217 C65 200 52 182 45 163 C39 145 36 124 36 98 L36 -51 C36 -85 45 -112 64 -130 C82 -148 107 -158 137 -158 L146 -158 C176 -158 201 -148 219 -130 C238 -112 247 -85 247 -51 L247 97 C247 124 244 145 238 163 L238 163 Z M174 340 C174 313 165 292 145 274 L142 271 L139 274 C118 292 109 314 109 340 L109 417 C109 450 121 453 137 453 L145 453 C162 453 174 450 174 417 L174 340 L174 340 Z M105 95 C105 119 108 132 111 139 C113 145 118 155 133 169 L142 177 L150 169 C162 159 169 149 172 140 C176 130 178 115 178 96 L178 -53 C178 -77 172 -89 145 -89 L138 -89 C116 -89 105 -84 105 -53 L105 95 L105 95 Z " />
<glyph glyph-name="nine" unicode="9" horiz-adv-x="289" d="M223 492 C205 511 181 521 151 521 L140 521 C110 521 86 511 68 493 C58 482 50 469 46 453 C45 451 45 449 44 446 L44 446 C44 445 43 443 43 442 C43 439 42 437 42 434 C42 433 42 433 42 432 L42 431 C41 428 41 425 41 423 C41 422 41 421 41 421 C41 419 41 416 41 414 L41 246 C41 180 77 143 140 143 L180 143 L180 -54 C180 -60 179 -65 178 -70 C176 -83 171 -85 169 -86 C165 -89 159 -90 152 -90 L145 -90 C137 -90 130 -89 126 -86 C118 -82 114 -71 114 -54 L114 134 L45 134 L45 -53 C45 -85 54 -111 71 -129 C71 -129 71 -130 71 -130 L72 -130 C79 -138 88 -144 97 -148 C111 -155 126 -158 143 -158 L153 -158 C169 -158 185 -155 198 -148 C207 -144 216 -138 223 -130 L223 -130 C223 -129 223 -129 224 -129 C225 -128 226 -127 227 -126 C237 -114 243 -99 247 -81 C248 -73 249 -63 249 -53 L249 414 C249 448 240 474 223 492 L223 492 Z M110 416 C110 418 110 420 111 422 C112 443 116 452 138 452 L150 452 C152 452 154 452 157 452 C158 452 158 452 159 452 C167 450 180 448 180 417 L180 211 L140 211 C118 211 111 218 110 240 C110 241 110 242 110 243 L110 416 L110 416 Z " />
<glyph glyph-name="colon" unicode="&#x3a;" horiz-adv-x="117" d="M20 340 L20 249 L97 249 L97 340 L20 340 L20 340 Z M20 12 L97 12 L97 104 L20 104 L20 12 L20 12 Z " />
<glyph glyph-name="semicolon" unicode="&#x3b;" horiz-adv-x="123" d="M104 339 L27 339 L27 248 L104 248 L104 339 L104 339 Z M31 112 L12 -3 L80 -3 L112 112 L31 112 L31 112 Z " />
<glyph glyph-name="less" unicode="&#x3c;" horiz-adv-x="287" d="M278 328 L13 212 L13 164 L278 48 L251 133 L122 188 L251 243 L278 328 L278 328 Z " />
<glyph glyph-name="equal" unicode="&#x3d;" horiz-adv-x="302" d="M41 114 L261 114 L261 183 L41 183 L41 114 L41 114 Z M41 262 L41 193 L261 193 L261 262 L41 262 L41 262 Z " />
<glyph glyph-name="greater" unicode="&#x3e;" horiz-adv-x="302" d="M279 201 L12 318 L39 234 L166 178 L39 122 L12 38 L278 155 L279 201 L279 201 Z " />
<glyph glyph-name="question" unicode="&#x3f;" horiz-adv-x="266" d="M211 635 L211 635 C194 654 170 664 140 664 L130 664 C101 664 77 654 59 636 C41 617 31 591 31 558 L31 370 L101 370 L101 559 C101 593 114 595 131 595 L139 595 C155 595 167 593 167 559 L167 413 C167 392 163 376 153 362 L117 316 C99 295 90 268 90 236 L90 -52 L160 -52 L160 233 C160 250 164 264 172 274 L208 318 L208 319 C227 345 237 376 237 411 L237 558 C237 591 228 617 211 635 L211 635 Z M87 -158 L163 -158 L163 -66 L87 -66 L87 -158 L87 -158 Z " />
<glyph glyph-name="at" unicode="&#x40;" horiz-adv-x="446" d="M431 422 C430 440 418 485 348 510 C347 510 347 510 346 510 L346 510 C342 511 338 513 335 514 C304 523 271 527 237 527 L231 527 C164 527 111 513 75 485 C38 456 19 415 19 363 L19 6 C19 -46 35 -86 65 -114 C95 -143 139 -158 193 -158 L197 -158 C233 -158 262 -151 285 -138 L296 -131 L296 -61 L254 -85 C239 -93 220 -98 197 -98 L193 -98 C159 -98 134 -90 116 -73 C98 -57 89 -30 89 6 L89 363 C89 398 100 425 122 441 C145 459 182 468 231 468 L237 468 C263 468 288 464 313 456 L314 456 L315 456 C316 456 318 455 321 454 L322 454 C337 448 362 435 362 413 L362 18 C362 -5 354 -5 345 -5 C336 -5 332 -4 330 8 C329 11 329 14 329 18 L329 363 L329 363 C328 396 307 421 270 433 L269 433 C258 435 246 437 231 437 C187 437 152 423 135 398 C130 389 127 376 127 359 L127 237 L196 237 L196 360 C196 364 197 366 197 368 C203 374 215 377 231 377 C237 377 242 377 247 376 L250 375 L252 375 C255 373 260 369 260 361 C260 361 260 360 260 360 L260 209 C250 211 240 212 228 212 C189 212 160 202 142 183 C128 170 122 153 122 132 L122 20 L122 20 C122 -8 130 -28 148 -45 C164 -60 188 -70 213 -71 C242 -72 268 -66 291 -50 C302 -58 319 -65 343 -65 C369 -65 391 -58 407 -43 C423 -29 431 -8 431 19 L431 420 L431 422 L431 422 Z M228 -11 C226 -11 224 -11 222 -11 C200 -11 194 -3 191 13 L191 132 C191 141 191 153 229 153 C241 153 251 152 260 148 L260 13 C260 11 260 9 260 7 C246 -6 234 -10 228 -11 L228 -11 Z " />
<glyph glyph-name="A" unicode="A" horiz-adv-x="291" d="M219 638 C191 665 153 664 144 664 C103 664 80 647 67 633 C39 604 39 564 40 556 L40 -153 L110 -153 C110 -125 110 58 110 235 L180 235 L180 -153 L251 -153 L251 556 C251 592 241 619 219 638 L219 638 Z M110 557 C110 571 113 580 119 586 C127 593 139 594 143 594 L144 594 L145 594 C165 594 179 588 180 557 C180 557 180 557 180 557 L180 305 L110 305 C110 447 110 535 110 557 L110 557 Z " />
<glyph glyph-name="B" unicode="B" horiz-adv-x="286" d="M237 261 C234 265 231 270 228 274 C238 289 246 310 246 340 L246 555 C246 588 237 614 218 632 C200 650 175 659 145 659 L40 659 L40 -153 L151 -153 C181 -153 206 -144 224 -126 C243 -108 252 -82 252 -49 L252 200 C252 224 247 245 237 261 L237 261 Z M176 338 C176 316 171 305 146 305 L110 305 L110 589 L144 589 C168 589 176 582 176 557 L176 338 L176 338 Z M110 -84 L110 235 L150 235 C174 235 182 228 182 203 L182 -51 C182 -76 174 -84 150 -84 L110 -84 L110 -84 Z " />
<glyph glyph-name="C" unicode="C" horiz-adv-x="286" d="M252 366 L252 557 C252 590 242 617 224 636 C206 655 181 664 150 664 L141 664 C111 664 86 655 67 636 C49 617 40 590 40 557 L40 -50 C40 -84 49 -111 67 -130 C86 -149 111 -158 141 -158 L151 -158 C215 -158 252 -119 252 -50 L252 199 L181 199 L181 -52 C181 -86 168 -89 150 -89 L142 -89 C121 -89 111 -83 111 -52 L111 558 C111 589 121 594 142 594 L149 594 C170 594 181 589 181 558 L181 366 L252 366 L252 366 Z " />
<glyph glyph-name="D" unicode="D" horiz-adv-x="292" d="M224 632 C205 650 181 659 151 659 L40 659 L40 -153 L151 -153 C181 -153 205 -144 224 -126 C242 -108 252 -82 252 -49 L252 555 C252 588 242 614 224 632 L224 632 Z M111 -84 L111 589 L150 589 C174 589 181 582 181 557 L181 -51 C181 -76 174 -84 150 -84 L111 -84 L111 -84 Z " />
<glyph glyph-name="E" unicode="E" horiz-adv-x="245" d="M110 -84 L110 235 L205 235 L205 305 L110 305 L110 589 L214 589 L214 659 L40 659 L40 -153 L217 -153 L217 -84 L110 -84 L110 -84 Z " />
<glyph glyph-name="F" unicode="F" horiz-adv-x="234" d="M207 589 L207 659 L40 659 L40 -153 L111 -153 L111 235 L194 235 L194 305 L111 305 L111 589 L207 589 L207 589 Z " />
<glyph glyph-name="G" unicode="G" horiz-adv-x="292" d="M252 365 L252 557 C252 590 243 617 224 636 C206 655 181 664 151 664 L141 664 C111 664 86 655 68 636 C50 617 40 590 40 557 L40 -50 C40 -84 50 -111 68 -130 C86 -149 111 -158 141 -158 L152 -158 C215 -158 252 -119 252 -50 L252 304 L157 304 L157 234 L181 234 L181 -52 C181 -86 168 -89 151 -89 L142 -89 C122 -89 111 -83 111 -52 L111 558 C111 589 122 594 142 594 L150 594 C171 594 181 589 181 558 L181 365 L252 365 L252 365 Z " />
<glyph glyph-name="H" unicode="H" horiz-adv-x="293" d="M182 659 L182 305 L110 305 L110 659 L40 659 L40 -153 L110 -153 L110 235 L182 235 L182 -153 L253 -153 L253 659 L182 659 L182 659 Z " />
<glyph glyph-name="I" unicode="I" horiz-adv-x="150" d="M40 659 L40 -153 L110 -153 L110 659 L40 659 L40 659 Z " />
<glyph glyph-name="J" unicode="J" horiz-adv-x="249" d="M92 659 L92 589 L150 589 L150 -53 C150 -89 137 -89 125 -89 L117 -89 C105 -89 92 -89 92 -53 L92 199 L21 199 L21 -51 C21 -119 56 -158 116 -158 L126 -158 C186 -158 221 -119 221 -51 L221 659 L92 659 L92 659 Z " />
<glyph glyph-name="K" unicode="K" horiz-adv-x="278" d="M119 258 L257 659 L184 659 L111 446 L111 659 L40 659 L40 -153 L111 -153 L111 73 L191 -153 L263 -153 L119 258 L119 258 Z " />
<glyph glyph-name="L" unicode="L" horiz-adv-x="210" d="M110 -84 L110 659 L40 659 L40 -153 L194 -153 L194 -84 L110 -84 L110 -84 Z " />
<glyph glyph-name="M" unicode="M" horiz-adv-x="427" d="M320 659 L216 71 L106 659 L40 659 L40 -153 L111 -153 L111 249 L186 -153 L247 -153 L316 232 L316 -153 L387 -153 L387 659 L320 659 L320 659 Z " />
<glyph glyph-name="N" unicode="N" horiz-adv-x="292" d="M181 659 L181 257 L106 659 L40 659 L40 -153 L111 -153 L111 249 L186 -153 L252 -153 L252 659 L181 659 L181 659 Z " />
<glyph glyph-name="O" unicode="O" horiz-adv-x="291" d="M224 635 C205 655 180 664 150 664 L141 664 C110 664 85 655 67 635 C49 617 40 590 40 557 L40 -49 C40 -83 49 -110 67 -129 C85 -148 110 -158 141 -158 L151 -158 C215 -158 251 -118 251 -49 L251 557 C251 590 242 617 224 635 L224 635 Z M181 558 L181 -51 C181 -85 167 -88 150 -88 L142 -88 C121 -88 110 -82 110 -51 L110 558 C110 589 121 594 142 594 L149 594 C170 594 181 589 181 558 L181 558 Z " />
<glyph glyph-name="P" unicode="P" horiz-adv-x="268" d="M141 659 L40 659 L40 -153 L111 -153 L111 235 L141 235 C206 235 243 274 243 340 L243 555 C243 621 206 659 141 659 L141 659 Z M111 589 L140 589 C152 589 161 587 165 582 C167 580 173 574 173 557 L173 337 C173 312 165 305 141 305 L111 305 L111 589 L111 589 Z " />
<glyph glyph-name="Q" unicode="Q" horiz-adv-x="291" d="M238 -110 C247 -94 251 -73 251 -49 L251 557 C251 590 242 617 224 635 C205 655 181 664 150 664 L141 664 C111 664 86 655 67 635 C49 617 40 590 40 557 L40 -49 C40 -83 49 -110 67 -129 C86 -148 111 -158 141 -158 L151 -158 C163 -158 173 -156 182 -154 L186 -160 L272 -160 L238 -110 L238 -110 Z M138 -88 C120 -87 111 -80 111 -51 L111 558 C111 589 121 594 142 594 L149 594 C170 594 181 589 181 558 L181 -27 L180 -26 L123 -66 L138 -88 L138 -88 Z " />
<glyph glyph-name="R" unicode="R" horiz-adv-x="286" d="M237 260 C235 264 233 267 230 270 C232 273 235 276 237 280 C246 296 251 316 251 339 L251 555 C251 588 241 614 223 632 C204 650 180 659 150 659 L40 659 L40 -153 L111 -153 L111 235 L150 235 C174 235 181 228 181 204 L181 -153 L252 -153 L252 200 C252 224 247 244 237 260 L237 260 Z M111 589 L149 589 C173 589 180 582 180 557 L180 337 C180 315 176 305 150 305 L111 305 L111 589 L111 589 Z " />
<glyph glyph-name="S" unicode="S" horiz-adv-x="280" d="M238 221 C232 240 221 260 204 282 L133 373 L132 374 C118 390 114 400 112 404 C111 408 108 419 108 444 L108 558 C108 592 121 594 137 594 L144 594 C160 594 172 592 172 558 L172 366 L243 366 L243 557 C243 590 234 616 217 635 C199 654 175 664 145 664 L136 664 C106 664 82 654 64 635 C46 617 38 590 38 557 L38 442 C38 415 40 395 46 380 C51 365 61 349 76 331 L147 241 L147 241 C162 222 168 209 170 201 C173 193 175 176 175 144 L175 -51 C175 -85 162 -88 145 -88 L137 -88 C116 -88 105 -82 105 -51 L105 200 L34 200 L34 -49 C34 -83 44 -110 62 -129 C80 -148 105 -158 136 -158 L146 -158 C209 -158 246 -118 246 -49 L246 148 C246 178 243 202 238 221 L238 221 Z " />
<glyph glyph-name="T" unicode="T" horiz-adv-x="230" d="M16 659 L16 589 L78 589 L78 -153 L149 -153 L149 589 L211 589 L211 659 L16 659 L16 659 Z " />
<glyph glyph-name="U" unicode="U" horiz-adv-x="292" d="M181 659 L181 -51 C181 -85 168 -88 151 -88 L142 -88 C121 -88 111 -82 111 -51 L111 659 L40 659 L40 -49 C40 -83 49 -110 68 -129 C86 -148 111 -158 141 -158 L152 -158 C215 -158 252 -118 252 -49 L252 659 L181 659 L181 659 Z " />
<glyph glyph-name="V" unicode="V" horiz-adv-x="272" d="M175 659 L136 242 L98 659 L27 659 L102 -153 L170 -153 L245 659 L175 659 L175 659 Z " />
<glyph glyph-name="W" unicode="W" horiz-adv-x="409" d="M312 659 L274 242 L235 659 L174 659 L136 242 L97 659 L27 659 L102 -153 L169 -153 L205 224 L240 -153 L307 -153 L382 659 L312 659 L312 659 Z " />
<glyph glyph-name="X" unicode="X" horiz-adv-x="242" d="M157 261 L231 659 L160 659 L121 453 L83 659 L11 659 L86 261 L8 -153 L80 -153 L121 69 L163 -153 L234 -153 L157 261 L157 261 Z " />
<glyph glyph-name="Y" unicode="Y" horiz-adv-x="249" d="M164 659 L125 377 L85 659 L14 659 L89 120 L89 -153 L160 -153 L160 120 L235 659 L164 659 L164 659 Z " />
<glyph glyph-name="Z" unicode="Z" horiz-adv-x="259" d="M237 659 L22 659 L22 590 L154 590 L13 -153 L234 -153 L234 -83 L96 -83 L237 659 L237 659 Z " />
<glyph glyph-name="bracketleft" unicode="&#x5b;" horiz-adv-x="190" d="M161 658 L161 726 L40 726 L40 -218 L161 -218 L161 -150 L110 -150 L110 658 L161 658 L161 658 Z " />
<glyph glyph-name="backslash" unicode="&#x5c;" horiz-adv-x="216" d="M67 729 L-3 729 L144 -192 L213 -192 L67 729 L67 729 Z " />
<glyph glyph-name="bracketright" unicode="&#x5d;" horiz-adv-x="180" d="M24 724 L24 656 L76 656 L76 -152 L24 -152 L24 -220 L145 -220 L145 724 L24 724 L24 724 Z " />
<glyph glyph-name="asciicircum" unicode="&#x5e;" horiz-adv-x="264" d="M169 664 L108 664 L36 338 L105 328 L139 484 L172 327 L238 339 L169 664 L169 664 Z " />
<glyph glyph-name="underscore" unicode="&#x5f;" horiz-adv-x="323" d="M30 -153 L295 -153 L295 -94 L30 -94 L30 -153 L30 -153 Z " />
<glyph glyph-name="grave" unicode="&#x60;" horiz-adv-x="218" d="M104 664 L19 664 L122 500 L199 500 L104 664 L104 664 Z " />
<glyph glyph-name="a" unicode="a" horiz-adv-x="284" d="M147 520 L138 520 C109 520 85 511 67 492 C49 474 40 448 40 415 L40 256 L110 256 L110 416 C110 429 113 438 118 444 C121 448 126 452 139 452 L146 452 C162 452 175 449 175 416 L175 209 C165 211 154 212 143 212 C75 212 35 175 35 110 L35 -62 C35 -123 68 -158 125 -158 C143 -158 160 -155 175 -149 L175 -153 L244 -153 L244 415 C244 448 235 474 218 492 C200 511 176 520 147 520 L147 520 Z M175 -67 C171 -71 164 -76 157 -80 C147 -86 137 -89 127 -89 C121 -89 113 -88 110 -84 C107 -81 105 -73 105 -62 L105 111 C105 132 111 144 144 144 C155 144 165 141 175 136 L175 -67 L175 -67 Z " />
<glyph glyph-name="b" unicode="b" horiz-adv-x="289" d="M159 521 C141 521 125 519 110 514 L110 645 L40 645 L40 -125 L52 -133 C75 -149 103 -158 136 -158 C173 -158 201 -146 221 -122 C240 -100 249 -69 249 -29 L249 424 C249 486 216 521 159 521 L159 521 Z M180 -30 C180 -84 157 -89 136 -89 C126 -89 117 -88 110 -86 L110 434 C113 437 119 441 126 445 C136 450 146 453 157 453 C163 453 171 452 174 448 C178 444 180 436 180 425 L180 -30 L180 -30 Z " />
<glyph glyph-name="c" unicode="c" horiz-adv-x="288" d="M148 521 L139 521 C110 521 86 512 68 493 C50 475 40 449 40 416 L40 -51 C40 -84 49 -111 67 -129 C85 -148 109 -158 139 -158 L149 -158 C179 -158 203 -148 221 -129 C239 -111 248 -85 248 -51 L248 156 L179 156 L179 -53 C179 -83 168 -89 148 -89 L140 -89 C123 -89 110 -86 110 -53 L110 417 C110 450 123 453 140 453 L147 453 C168 453 179 447 179 417 L179 257 L248 257 L248 416 C248 483 212 521 148 521 L148 521 Z " />
<glyph glyph-name="d" unicode="d" horiz-adv-x="289" d="M179 519 C169 520 159 521 149 521 C80 521 40 484 40 420 L40 -62 C40 -123 72 -158 129 -158 C148 -158 164 -155 179 -149 L179 -153 L249 -153 L249 645 L179 645 L179 519 L179 519 Z M161 -80 C151 -86 141 -89 131 -89 C125 -89 118 -88 114 -84 C111 -81 109 -73 109 -62 L109 421 C109 438 112 453 151 453 C162 453 171 451 179 449 L179 -67 C175 -71 169 -76 161 -80 L161 -80 Z " />
<glyph glyph-name="e" unicode="e" horiz-adv-x="288" d="M149 521 L140 521 C110 521 86 512 68 493 C50 475 40 449 40 416 L40 -51 C40 -84 49 -111 67 -129 C85 -148 109 -158 139 -158 L149 -158 C179 -158 203 -148 221 -129 C239 -111 248 -85 248 -51 L248 156 L179 156 L179 -53 C179 -83 168 -89 148 -89 L140 -89 C123 -89 110 -86 110 -53 L110 257 L248 257 L248 416 C248 449 239 475 221 493 C203 512 179 521 149 521 L149 521 Z M110 325 L110 417 C110 447 120 453 141 453 L148 453 C168 453 179 447 179 417 L179 325 L110 325 L110 325 Z " />
<glyph glyph-name="f" unicode="f" horiz-adv-x="233" d="M132 566 C132 576 134 583 137 586 C140 590 149 590 154 590 C176 588 207 576 229 536 L229 630 C204 652 182 659 153 659 C124 659 102 651 86 634 C71 619 63 596 63 567 L63 521 L21 521 L21 453 L63 453 L63 -153 L132 -153 L132 453 L201 453 L201 521 L132 521 L132 566 L132 566 Z " />
<glyph glyph-name="g" unicode="g" horiz-adv-x="289" d="M150 521 C80 521 40 484 40 419 L40 -29 C40 -69 49 -100 68 -122 C87 -146 116 -158 153 -158 C162 -158 171 -157 179 -155 L179 -159 C179 -188 167 -193 144 -193 C125 -193 112 -188 101 -178 L54 -131 L54 -225 L64 -233 C85 -252 112 -262 145 -262 C211 -262 249 -224 249 -158 L249 489 L237 497 C214 513 185 521 150 521 L150 521 Z M154 -89 C132 -89 110 -84 110 -30 L110 420 C110 438 113 453 151 453 C161 453 170 452 179 449 L179 -84 C171 -87 163 -89 154 -89 L154 -89 Z " />
<glyph glyph-name="h" unicode="h" horiz-adv-x="279" d="M153 521 C136 521 120 518 104 512 L104 645 L35 645 L35 -153 L104 -153 L104 434 C108 437 113 441 121 445 C131 450 141 453 151 453 C157 453 165 452 169 448 C172 444 174 436 174 425 L174 -153 L243 -153 L243 424 C243 486 211 521 153 521 L153 521 Z " />
<glyph glyph-name="i" unicode="i" horiz-adv-x="149" d="M40 -153 L109 -153 L109 513 L40 513 L40 -153 L40 -153 Z M37 531 L113 531 L113 623 L37 623 L37 531 L37 531 Z " />
<glyph glyph-name="j" unicode="j" horiz-adv-x="189" d="M80 -193 C80 -200 80 -201 80 -205 C49 -205 29 -192 4 -164 L4 -249 L17 -258 C35 -268 55 -274 75 -274 C121 -274 149 -243 149 -191 L149 501 L80 501 L80 -193 L80 -193 Z M75 519 L151 519 L151 611 L75 611 L75 519 L75 519 Z " />
<glyph glyph-name="k" unicode="k" horiz-adv-x="262" d="M257 513 L183 513 L110 356 L110 645 L40 645 L40 -153 L110 -153 L110 45 L189 -153 L262 -153 L118 211 L257 513 L257 513 Z " />
<glyph glyph-name="l" unicode="l" horiz-adv-x="150" d="M40 -153 L110 -153 L110 645 L40 645 L40 -153 L40 -153 Z " />
<glyph glyph-name="m" unicode="m" horiz-adv-x="420" d="M292 521 C270 521 248 516 230 505 C226 503 222 501 219 499 C204 514 183 521 158 521 C141 521 124 518 108 512 L108 514 L40 514 L40 -153 L109 -153 L109 431 C114 435 119 440 127 444 C137 450 146 453 156 453 C167 453 177 453 177 425 L177 -153 L247 -153 L247 424 C247 427 247 430 246 433 C259 447 273 453 290 453 C295 453 302 452 305 449 C309 445 310 437 310 426 L310 -153 L380 -153 L380 426 C380 487 348 521 292 521 L292 521 Z " />
<glyph glyph-name="n" unicode="n" horiz-adv-x="289" d="M161 521 C142 521 124 519 109 513 L109 514 L40 514 L40 -153 L110 -153 L110 431 C114 435 120 440 128 444 C138 450 148 453 159 453 C164 453 172 452 175 449 C178 445 180 437 180 427 L180 -153 L249 -153 L249 426 C249 487 217 521 161 521 L161 521 Z " />
<glyph glyph-name="o" unicode="o" horiz-adv-x="288" d="M148 520 L139 520 C109 520 85 510 67 492 C49 473 40 447 40 414 L40 -51 C40 -85 49 -111 67 -130 C84 -148 109 -158 139 -158 L149 -158 C179 -158 203 -148 221 -130 C239 -111 248 -85 248 -51 L248 414 C248 481 212 520 148 520 L148 520 Z M140 -90 C123 -90 110 -87 110 -53 L110 415 C110 449 123 451 140 451 L147 451 C168 451 179 446 179 415 L179 -53 C179 -84 168 -90 148 -90 L140 -90 L140 -90 Z " />
<glyph glyph-name="p" unicode="p" horiz-adv-x="289" d="M161 521 C142 521 124 518 109 512 L109 514 L40 514 L40 -255 L110 -255 L110 -156 C120 -157 129 -158 137 -158 C174 -158 202 -146 222 -123 C240 -101 249 -69 249 -29 L249 426 C249 486 217 521 161 521 L161 521 Z M110 430 C115 435 121 441 129 445 C138 450 147 452 159 452 C165 452 172 452 175 448 C178 445 180 437 180 427 L180 -30 C180 -85 157 -90 136 -90 C126 -90 117 -88 110 -85 L110 430 L110 430 Z " />
<glyph glyph-name="q" unicode="q" horiz-adv-x="289" d="M149 520 C80 520 40 483 40 418 L40 -29 C40 -69 49 -101 67 -123 C87 -146 116 -158 152 -158 C162 -158 171 -157 179 -156 L179 -255 L249 -255 L249 487 L237 496 C214 512 185 520 149 520 L149 520 Z M153 -90 C132 -90 109 -85 109 -30 L109 419 C109 437 112 451 150 451 C161 451 171 450 179 447 L179 -85 C171 -88 162 -90 153 -90 L153 -90 Z " />
<glyph glyph-name="r" unicode="r" horiz-adv-x="270" d="M148 521 C134 521 121 519 109 514 L40 514 L40 -153 L109 -153 L109 424 C114 432 120 438 127 444 C135 452 142 452 146 452 C154 452 156 450 156 449 C158 448 161 442 161 427 L161 253 L230 253 L230 427 C230 512 173 521 148 521 L148 521 Z " />
<glyph glyph-name="s" unicode="s" horiz-adv-x="274" d="M196 204 L126 292 L126 293 C114 308 109 317 106 323 C105 327 102 338 102 362 L102 416 C102 449 114 451 129 451 L136 451 C152 451 165 449 165 415 L165 294 L234 294 L234 414 C234 447 226 473 208 492 C190 510 166 520 137 520 L128 520 C99 520 76 510 58 491 C41 473 33 447 33 414 L33 361 C33 335 35 315 41 300 C46 284 56 268 70 251 L140 163 L140 162 C155 144 161 131 163 123 C165 115 168 99 168 68 L168 -53 C168 -84 158 -90 137 -90 L129 -90 C112 -90 99 -87 99 -53 L99 151 L29 151 L30 -51 C30 -85 39 -111 56 -130 C74 -148 98 -158 128 -158 L138 -158 C168 -158 192 -148 210 -130 C228 -111 237 -85 237 -51 L237 72 C237 102 235 125 229 144 C224 163 213 183 196 204 L196 204 Z " />
<glyph glyph-name="t" unicode="t" horiz-adv-x="205" d="M120 614 L50 614 L50 513 L14 513 L14 444 L50 444 L50 -81 C50 -129 79 -158 126 -158 C150 -158 169 -151 190 -131 L190 -46 C161 -88 139 -90 128 -90 C124 -90 121 -89 120 -89 C120 -88 120 -85 120 -80 L120 444 L191 444 L191 513 L120 513 L120 614 L120 614 Z " />
<glyph glyph-name="u" unicode="u" horiz-adv-x="289" d="M180 -67 C175 -72 169 -76 162 -81 C151 -87 141 -90 131 -90 C126 -90 118 -89 115 -85 C112 -81 110 -73 110 -63 L110 513 L40 513 L40 -63 C40 -123 73 -158 129 -158 C148 -158 165 -155 180 -150 L180 -153 L249 -153 L249 513 L180 513 L180 -67 L180 -67 Z " />
<glyph glyph-name="v" unicode="v" horiz-adv-x="264" d="M132 179 L94 515 L25 515 L100 -153 L164 -153 L239 515 L169 515 L132 179 L132 179 Z " />
<glyph glyph-name="w" unicode="w" horiz-adv-x="402" d="M270 185 L232 516 L168 516 L132 185 L95 516 L25 516 L100 -153 L164 -153 L201 179 L239 -153 L302 -153 L377 516 L308 516 L270 185 L270 185 Z " />
<glyph glyph-name="x" unicode="x" horiz-adv-x="230" d="M226 516 L155 516 L115 341 L75 516 L4 516 L79 184 L4 -153 L74 -153 L115 27 L155 -153 L226 -153 L150 184 L226 516 L226 516 Z " />
<glyph glyph-name="y" unicode="y" horiz-adv-x="289" d="M179 -85 C171 -88 163 -90 154 -90 C132 -90 109 -85 109 -30 L109 513 L40 513 L40 -29 C40 -69 49 -101 68 -123 C87 -146 116 -158 153 -158 C162 -158 171 -157 179 -156 L179 -159 C179 -188 161 -193 144 -193 C125 -193 83 -170 54 -132 L54 -226 L64 -234 C85 -253 112 -262 145 -262 C211 -262 249 -224 249 -158 L249 513 L179 513 L179 -85 L179 -85 Z " />
<glyph glyph-name="z" unicode="z" horiz-adv-x="240" d="M228 517 L17 517 L17 449 L143 448 L7 -153 L225 -153 L225 -85 L94 -85 L228 517 L228 517 Z " />
<glyph glyph-name="braceleft" unicode="&#x7b;" horiz-adv-x="269" d="M176 620 C176 643 181 655 208 655 L244 655 L244 723 L207 723 C143 723 107 684 107 616 L107 347 C107 310 93 303 69 303 L40 303 L40 234 L69 234 C88 234 95 227 97 225 C103 218 107 207 107 191 L107 -114 C107 -148 116 -175 134 -193 C152 -212 176 -221 206 -221 L244 -221 L244 -153 L207 -153 C187 -153 176 -147 176 -116 L176 184 C176 225 165 251 150 268 C165 285 176 312 176 352 L176 620 L176 620 Z " />
<glyph glyph-name="bar" unicode="&#x7c;" horiz-adv-x="94" d="M13 761 L13 -261 L82 -261 L82 761 L13 761 L13 761 Z " />
<glyph glyph-name="braceright" unicode="&#x7d;" horiz-adv-x="268" d="M228 305 L198 305 C175 305 161 312 161 349 L161 618 C161 686 125 725 62 725 L25 725 L25 657 L61 657 C81 657 92 651 92 622 L92 354 C92 314 103 287 118 270 C103 253 92 227 92 186 L92 -114 C92 -135 89 -151 62 -151 L25 -151 L25 -219 L63 -219 C125 -219 161 -180 161 -112 L161 193 C161 209 165 220 171 227 C175 231 182 236 198 236 L228 236 L228 305 L228 305 Z " />
<glyph glyph-name="asciitilde" unicode="&#x7e;" horiz-adv-x="254" d="M215 303 L210 325 L140 325 L148 290 C149 289 149 286 150 283 C149 285 148 287 147 288 C140 302 124 324 94 324 C72 324 54 314 43 295 C34 280 30 260 30 234 C30 216 31 203 34 193 L40 172 L104 172 L101 203 C99 211 99 219 99 226 C103 215 108 205 115 196 C130 176 148 172 160 172 C178 172 220 180 220 253 C220 273 219 290 215 303 L215 303 Z " />
<glyph glyph-name="cent" unicode="&#xa2;" horiz-adv-x="287" d="M245 226 L245 349 C245 375 234 398 213 413 C201 421 187 427 170 430 L170 477 L114 477 L114 430 C99 428 82 423 69 413 C55 403 39 383 39 349 L39 11 C39 -24 54 -44 68 -54 C81 -64 99 -69 114 -72 L114 -119 L170 -119 L170 -72 C185 -69 202 -64 215 -55 C229 -44 245 -25 245 11 L245 196 L176 196 L176 9 C176 3 174 0 171 -2 C170 -3 170 -3 170 -3 L170 361 C170 361 170 361 171 361 C174 358 176 355 176 349 L176 226 L245 226 L245 226 Z M108 349 C108 356 110 359 113 361 C114 361 114 361 114 361 L114 -3 C114 -3 114 -3 113 -3 C110 0 108 3 108 9 L108 349 L108 349 Z " />
<glyph glyph-name="sterling" unicode="&#xa3;" horiz-adv-x="310" d="M118 -87 L118 190 L256 190 L256 256 L118 256 L118 435 C118 450 120 460 149 460 L156 460 C168 460 177 458 181 454 C185 451 187 444 187 435 L187 341 L256 341 L256 434 C256 471 241 492 227 503 C209 518 185 526 157 526 L148 526 C119 526 95 518 77 503 C64 492 48 471 48 434 L48 256 L20 256 L20 190 L48 190 L48 -87 L20 -87 L20 -153 L287 -153 L287 -87 L118 -87 L118 -87 Z " />
<glyph glyph-name="Euro" unicode="&#x20ac;" horiz-adv-x="285" d="M254 336 L254 421 C254 488 217 526 154 526 L145 526 C115 526 91 517 73 498 C55 480 46 454 46 421 L46 274 L28 274 L28 207 L46 207 L46 185 L28 185 L28 119 L46 119 L46 -46 C46 -80 55 -106 72 -125 C90 -143 114 -153 145 -153 L155 -153 C185 -153 209 -143 227 -125 C245 -106 254 -80 254 -46 L254 49 L185 49 L185 -48 C185 -79 174 -84 154 -84 L146 -84 C128 -84 115 -82 115 -48 L115 119 L228 119 L228 185 L115 185 L115 207 L228 207 L228 274 L115 274 L115 422 C115 455 128 458 146 458 L153 458 C174 458 185 452 185 422 L185 336 L254 336 L254 336 Z " />
</font>
</svg>
