<?xml version="1.0" encoding="UTF-8"?>
<svg xmlns="http://www.w3.org/2000/svg" xmlns:xlink="http://www.w3.org/1999/xlink" version="1.2" >
<font id="Signattury">
<font-face  font-family="Signattury" units-per-em="1000" ascent="750" descent="-250" font-style="normal" font-weight="400" font-stretch="normal" cap-height="800" x-height="500" underline-position="-75" underline-thickness="50" />
<missing-glyph  horiz-adv-x="194" d="" />
<glyph glyph-name="NULL" d="" />
<glyph glyph-name="CR" unicode="&#xd;" horiz-adv-x="194" d="" />
<glyph glyph-name="space" unicode="&#x20;" horiz-adv-x="194" d="" />
<glyph glyph-name="exclam" unicode="&#x21;" horiz-adv-x="309" d="M306 744 C267 664 232 583 199 501 C165 415 133 328 105 240 C90 191 76 143 63 94 C62 87 71 85 73 91 C96 179 123 265 153 351 C183 437 217 523 254 607 C273 651 294 695 315 739 C318 744 309 749 306 744 L306 744 Z M42 -11 C35 -36 27 -61 19 -86 C18 -89 17 -93 16 -96 C14 -102 24 -105 26 -99 C34 -74 41 -49 49 -24 C50 -21 51 -17 52 -14 C54 -7 44 -5 42 -11 L42 -11 Z " />
<glyph glyph-name="quotedbl" unicode="&#x22;" horiz-adv-x="108" d="M31 595 C38 620 45 644 53 668 C54 672 55 676 56 679 C58 685 48 688 46 682 C39 657 32 633 24 609 C23 605 22 602 21 598 C19 592 29 589 31 595 L31 595 Z M60 569 C71 610 84 649 97 689 C99 695 89 698 87 692 C74 652 62 612 50 572 C48 566 58 563 60 569 L60 569 Z " />
<glyph glyph-name="numbersign" unicode="&#x23;" horiz-adv-x="329" d="M349 353 C348 349 328 349 323 349 C303 348 284 348 265 348 C264 348 263 348 262 348 C269 361 275 374 282 387 C291 403 299 420 308 436 C310 442 302 447 299 441 C279 408 256 376 230 348 C194 348 158 349 122 349 C125 355 128 360 132 366 C137 376 142 385 147 394 C150 400 142 405 139 399 C129 383 120 366 110 349 C84 348 58 347 32 345 C25 345 25 335 32 335 C56 337 81 338 105 339 C97 322 74 283 66 268 C50 267 34 266 18 264 C12 264 12 254 18 254 C32 256 47 257 61 258 C56 249 52 240 47 231 C41 220 35 208 29 197 C26 193 31 187 35 190 C70 213 106 234 141 258 C149 258 186 257 204 257 C190 231 176 204 162 177 C156 166 150 155 145 144 C142 138 150 133 153 139 C169 170 185 200 201 230 C205 239 210 248 215 257 C248 258 254 258 260 258 C264 259 268 259 271 261 C276 264 271 273 266 270 C264 268 260 269 259 268 C237 268 228 267 220 267 C232 291 244 314 257 338 C277 337 298 338 319 338 C330 339 344 338 354 344 C359 348 354 357 349 353 L349 353 Z M87 234 C73 226 60 217 46 209 C55 225 64 242 73 258 C90 259 107 259 124 258 C112 250 99 242 87 234 L87 234 Z M138 268 C79 268 79 268 78 268 C93 295 105 317 117 339 C139 339 161 339 183 339 C195 338 208 338 221 338 C213 330 205 322 196 315 C178 298 158 283 138 268 L138 268 Z M240 327 C230 307 219 287 209 267 C206 267 203 267 200 267 C185 268 170 268 155 268 C183 289 210 312 234 338 C238 338 242 338 245 338 C244 334 242 331 240 327 L240 327 Z M251 348 C248 348 246 348 244 348 C250 356 257 362 262 370 C259 363 255 355 251 348 L251 348 Z " />
<glyph glyph-name="dollar" unicode="&#x24;" horiz-adv-x="270" d="M220 453 C223 461 226 470 229 479 C233 487 234 493 239 501 C239 501 239 501 240 502 C244 507 237 514 233 509 C228 504 226 496 223 490 C218 478 214 466 209 454 C209 453 209 453 209 453 C203 453 197 451 192 450 C165 443 139 422 129 396 C118 366 138 336 159 315 C159 315 160 315 160 314 C147 276 135 239 122 201 C109 164 96 128 83 92 C63 96 45 107 35 124 C20 147 22 176 31 201 C34 209 37 216 42 223 C45 229 36 234 33 228 C19 203 10 173 16 144 C21 120 38 100 60 89 C66 86 73 84 79 82 C79 82 79 81 79 81 C74 67 68 53 63 40 C60 33 54 21 52 18 C48 11 54 7 57 9 C62 13 65 21 68 27 C73 39 78 51 83 63 C85 69 87 75 89 80 C127 74 168 88 196 115 C213 131 226 152 231 176 C237 202 232 230 220 254 C212 270 202 284 191 298 C185 304 178 311 172 317 C186 357 199 396 214 436 C214 438 215 441 216 443 C218 443 220 443 223 442 C231 441 239 438 243 430 C248 422 246 412 243 404 C240 398 235 392 231 386 C227 381 234 374 238 379 C251 395 265 421 249 440 C241 448 231 452 220 453 L220 453 Z M199 271 C207 258 215 244 219 229 C226 205 225 179 214 156 C194 113 146 86 99 89 C97 89 95 89 93 90 C103 119 114 148 124 177 C139 220 153 263 168 306 C179 295 190 284 199 271 L199 271 Z M169 339 C167 334 166 329 164 325 C159 330 155 335 150 341 C142 352 135 366 136 380 C137 395 145 408 156 418 C169 430 187 441 205 443 C193 408 181 374 169 339 L169 339 Z " />
<glyph glyph-name="percent" unicode="&#x25;" horiz-adv-x="443" d="M522 649 C485 623 451 594 418 562 C412 558 405 554 399 550 C366 530 329 520 292 510 C262 502 231 494 201 486 C201 486 201 486 201 487 C191 503 167 499 152 492 C142 487 134 478 128 469 C124 461 120 450 124 441 C133 423 159 430 172 436 C178 439 185 443 190 448 C188 442 185 437 183 432 C180 426 188 421 191 427 C198 440 207 460 204 477 C232 484 259 491 286 498 C307 504 328 509 349 516 C362 521 375 526 388 533 C351 495 317 454 285 412 C251 367 220 320 191 273 C163 226 136 178 110 130 C86 84 63 37 40 -9 C38 -15 35 -21 32 -26 C29 -32 38 -37 41 -31 C63 15 86 61 109 106 C134 154 160 202 188 248 C216 295 246 342 279 387 C312 432 348 476 386 516 C398 529 411 542 424 555 C433 561 441 567 449 573 C476 595 502 618 528 641 C533 645 527 652 522 649 L522 649 Z M188 476 C196 464 183 453 173 447 C166 444 159 441 152 440 C147 439 140 439 136 442 C130 447 133 456 136 462 C140 469 146 476 153 481 C162 487 182 494 191 483 C188 482 187 479 188 476 L188 476 Z M296 174 C293 175 290 175 287 176 C285 177 283 179 281 180 C267 185 251 180 239 176 C232 175 235 165 241 167 C245 168 249 169 254 170 C246 166 239 161 233 155 C226 148 220 139 217 129 C215 122 215 112 222 106 C236 96 257 107 269 115 C282 124 299 140 298 158 C298 160 297 162 296 164 C300 166 300 172 296 174 L296 174 Z M268 127 C262 122 255 118 248 115 C243 113 236 111 231 113 C218 118 232 138 237 144 C248 157 266 168 284 166 C286 164 287 162 288 160 C291 147 277 134 268 127 L268 127 Z " />
<glyph glyph-name="ampersand" unicode="&#x26;" horiz-adv-x="448" d="M434 223 C438 229 429 234 425 228 C397 187 367 147 332 111 C317 128 303 146 290 164 C256 209 225 258 202 310 C196 324 190 338 186 353 C196 365 207 378 217 390 C240 417 264 445 287 472 C307 497 328 521 347 547 C362 567 377 588 388 611 C396 626 404 644 403 661 C403 676 394 689 381 695 C360 704 335 698 315 691 C284 680 257 660 234 637 C205 607 185 569 174 529 C160 480 157 427 169 377 C171 369 173 362 175 355 C168 347 161 338 155 330 C132 303 111 274 90 245 C72 219 55 193 41 164 C29 141 19 116 15 90 C11 69 12 47 21 26 C30 6 47 -10 67 -18 C93 -27 123 -26 149 -19 C187 -10 223 9 255 32 C282 51 308 73 331 97 C333 95 335 93 336 91 C352 73 367 56 384 40 C388 35 395 42 391 47 C373 65 355 84 338 104 C351 117 363 130 375 144 C396 169 416 196 434 223 L434 223 Z M177 386 C172 411 171 437 172 463 C175 509 188 555 214 594 C232 624 258 650 289 668 C310 680 336 690 361 689 C373 689 381 685 388 677 C398 661 393 643 385 628 C376 606 363 586 349 567 C332 542 312 519 293 495 C271 468 248 441 225 415 C211 398 197 381 182 364 C180 371 179 378 177 386 L177 386 Z M302 82 C268 51 231 24 188 5 C160 -8 128 -17 97 -14 C75 -12 53 -3 40 14 C27 31 22 51 23 71 C24 95 31 119 41 141 C53 169 69 195 86 220 C105 250 126 278 147 305 C157 318 168 331 178 343 C192 302 213 263 236 225 C262 183 292 142 325 104 C317 97 310 89 302 82 L302 82 Z " />
<glyph glyph-name="quotesingle" unicode="&#x27;" horiz-adv-x="72" d="M35 607 C42 631 50 654 57 678 C59 684 49 687 47 681 C41 657 32 634 25 610 C23 604 33 601 35 607 L35 607 Z " />
<glyph glyph-name="parenleft" unicode="&#x28;" horiz-adv-x="486" d="M183 451 C230 518 286 578 350 628 C408 673 474 710 545 730 C552 733 560 735 568 736 C575 738 572 747 566 746 C493 730 426 695 366 652 C299 604 241 545 191 480 C141 412 100 338 73 258 C46 180 34 97 41 16 C49 -69 79 -149 128 -218 C134 -227 141 -236 148 -245 C152 -250 159 -243 155 -238 C102 -172 67 -94 54 -10 C42 70 51 152 74 229 C97 309 135 384 183 451 L183 451 Z " />
<glyph glyph-name="parenright" unicode="&#x29;" horiz-adv-x="458" d="M423 528 C421 565 413 601 399 635 C384 669 361 699 334 724 C327 731 319 737 311 743 C306 747 301 738 306 734 C336 712 361 684 379 652 C396 621 407 586 411 551 C416 514 414 476 408 439 C402 398 391 358 378 319 C363 277 345 236 324 197 C304 157 281 118 256 80 C232 43 206 8 178 -27 C153 -58 126 -89 97 -118 C73 -143 47 -167 20 -189 C-1 -206 -24 -222 -48 -234 C-53 -236 -57 -238 -62 -239 C-68 -242 -65 -251 -59 -249 C-35 -240 -14 -226 7 -211 C35 -191 60 -169 85 -145 C114 -117 141 -87 167 -57 C195 -23 222 13 247 49 C273 87 297 126 319 166 C341 206 360 247 377 289 C393 329 405 370 414 411 C421 450 426 489 423 528 L423 528 Z " />
<glyph glyph-name="asterisk" unicode="&#x2a;" horiz-adv-x="127" d="M104 626 C93 621 82 615 72 608 C78 625 84 641 91 657 C95 668 99 679 104 689 C106 695 98 700 95 694 C85 672 77 649 68 627 C65 620 63 613 60 606 C53 615 47 624 42 635 C39 640 30 635 33 630 C39 618 47 607 55 596 C40 586 27 574 15 561 C10 556 17 549 22 554 C31 563 41 572 51 581 C47 567 42 554 38 540 C34 529 31 517 29 505 C28 499 37 496 38 502 C42 527 51 550 59 573 C61 577 62 581 64 585 C74 573 85 560 97 549 C102 544 109 551 104 556 C92 567 80 580 70 594 C69 594 69 594 69 594 C82 603 95 611 109 618 C115 621 110 629 104 626 L104 626 Z " />
<glyph glyph-name="plus" unicode="&#x2b;" horiz-adv-x="228" d="M194 316 C172 316 149 317 126 316 C131 331 137 345 142 360 C148 380 157 400 162 420 C164 426 156 429 153 423 C142 387 129 352 116 316 C91 316 66 314 41 312 C34 311 31 301 41 302 C65 304 89 306 113 306 C113 305 113 303 112 302 C104 282 98 262 91 242 C87 227 81 212 80 197 C78 189 77 175 91 177 C96 177 95 185 90 186 C89 191 90 196 90 200 C92 214 97 229 101 243 C109 264 115 285 124 306 C147 307 171 306 194 306 C201 306 201 316 194 316 L194 316 Z " />
<glyph glyph-name="comma" unicode="&#x2c;" horiz-adv-x="77" d="M55 202 C55 201 52 197 51 195 C48 191 45 187 42 184 C35 177 29 169 23 162 C19 157 28 152 32 157 C38 165 45 173 52 180 C57 187 64 194 65 202 C65 209 55 209 55 202 L55 202 Z " />
<glyph glyph-name="hyphen" unicode="&#x2d;" horiz-adv-x="165" d="M129 308 C100 307 70 306 41 304 C34 304 34 294 41 294 C70 296 100 297 129 298 C135 298 136 308 129 308 L129 308 Z " />
<glyph glyph-name="period" unicode="&#x2e;" horiz-adv-x="68" d="M38 200 C35 192 32 183 28 175 C26 169 36 167 38 173 C41 181 44 189 48 197 C50 203 40 206 38 200 L38 200 Z " />
<glyph glyph-name="slash" unicode="&#x2f;" horiz-adv-x="368" d="M431 746 C400 690 369 636 337 581 C298 514 259 447 220 380 C178 309 135 238 92 168 C52 100 10 34 -32 -33 C-67 -88 -103 -143 -140 -197 C-144 -203 -148 -208 -152 -214 C-155 -219 -146 -224 -143 -219 C-106 -167 -72 -114 -38 -61 C4 5 45 71 85 137 C128 207 171 278 213 349 C253 416 293 484 332 552 C365 609 398 666 430 723 C433 729 436 735 440 741 C443 746 434 752 431 746 L431 746 Z " />
<glyph glyph-name="zero" unicode="0" horiz-adv-x="373" d="M339 373 C336 402 324 434 296 447 C261 465 221 451 191 432 C152 406 121 369 97 330 C83 308 73 284 64 260 C55 236 47 211 43 186 C37 152 35 112 53 81 C91 17 176 65 217 99 C252 127 280 164 300 205 C314 234 325 266 328 299 C329 299 331 300 332 302 C337 311 338 321 339 331 C341 345 341 359 339 373 L339 373 Z M328 324 C328 333 327 341 325 350 C323 360 319 369 314 378 C312 384 303 379 306 373 C327 333 319 284 305 243 C290 200 266 160 234 128 C209 102 178 78 143 66 C120 58 92 55 72 73 C50 94 48 128 50 156 C52 203 68 250 88 292 C107 333 134 371 168 401 C195 426 230 449 268 445 C325 439 337 372 328 324 L328 324 Z " />
<glyph glyph-name="one" unicode="1" horiz-adv-x="180" d="M165 447 C167 452 160 454 156 452 C126 425 96 398 65 372 C61 368 68 361 72 365 C98 387 123 409 148 431 C113 339 78 247 43 155 C32 127 22 99 11 71 C9 65 19 62 21 68 C58 166 95 265 133 363 C143 391 154 419 165 447 L165 447 Z " />
<glyph glyph-name="two" unicode="2" horiz-adv-x="362" d="M298 95 C259 103 219 107 179 106 C138 106 97 101 57 94 C39 91 20 87 2 83 C40 114 80 142 119 171 C170 209 222 247 268 290 C288 308 307 327 323 349 C335 364 346 382 350 402 C354 416 353 435 342 447 C330 460 309 463 292 463 C231 464 173 428 135 382 C129 374 123 366 118 358 C114 353 123 348 126 353 C160 404 215 447 278 453 C295 454 316 453 330 443 C341 436 344 422 342 409 C339 390 329 374 318 359 C303 339 286 320 268 303 C223 261 174 224 125 188 C80 155 35 122 -9 87 C-13 84 -17 81 -21 77 C-25 74 -20 68 -16 69 C64 87 146 101 228 95 C251 93 273 90 295 86 C301 84 304 94 298 95 L298 95 Z " />
<glyph glyph-name="three" unicode="3" horiz-adv-x="305" d="M264 437 C238 446 208 444 182 440 C139 433 98 416 61 393 C56 390 61 381 66 384 C97 404 131 419 167 427 C193 433 222 436 249 430 C264 427 283 419 286 402 C289 380 267 365 250 356 C216 338 177 329 140 319 C134 317 135 309 141 309 C158 309 176 307 192 303 C215 296 242 282 238 254 C234 226 207 205 186 189 C154 166 118 148 82 131 C45 113 6 96 -30 77 C-35 74 -32 66 -27 68 C-8 74 10 81 28 88 C31 89 32 93 31 96 C84 121 139 144 187 178 C212 195 240 217 247 248 C250 261 248 276 239 287 C231 298 219 304 206 309 C195 313 183 315 171 317 C198 324 224 332 249 344 C270 354 294 370 296 396 C297 417 281 430 264 437 L264 437 Z " />
<glyph glyph-name="four" unicode="4" horiz-adv-x="318" d="M141 101 C161 159 181 216 203 273 C231 272 259 269 285 260 C291 258 294 268 288 270 C262 278 234 282 207 283 C217 308 227 333 238 358 C250 386 262 413 275 440 C278 446 269 451 267 445 C241 392 218 338 196 283 C188 283 179 283 171 283 C135 282 99 279 64 277 C49 276 24 276 22 279 C21 284 34 297 42 305 C55 317 69 329 82 341 C127 378 173 415 218 452 C223 456 216 463 211 459 C169 424 126 390 84 355 C68 342 53 329 38 315 C30 307 21 299 15 289 C11 282 11 274 19 270 C27 266 38 266 46 266 C80 266 114 271 148 272 C163 273 178 273 192 273 C177 233 162 193 148 152 C138 124 128 95 118 67 C117 62 125 58 128 63 C133 73 138 84 143 95 C144 97 143 100 141 101 L141 101 Z " />
<glyph glyph-name="five" unicode="5" horiz-adv-x="306" d="M266 286 C262 298 253 308 241 314 C225 324 205 327 186 328 C156 330 126 328 96 324 C90 323 83 322 77 321 C79 324 81 328 83 332 C89 342 96 351 103 361 C117 381 133 401 149 420 C155 427 161 434 167 441 C169 443 170 445 172 447 C172 448 173 448 173 449 C175 449 178 450 180 450 C183 451 185 451 188 452 C195 453 201 453 208 453 C224 454 239 453 254 453 C271 452 288 451 305 450 C316 449 328 448 340 448 C346 449 346 459 340 458 C315 458 289 461 264 462 C235 464 204 466 176 460 C173 459 169 458 167 456 C165 455 164 453 163 452 C158 446 153 440 147 433 C131 414 115 394 100 373 C92 362 84 351 76 340 C72 333 66 324 65 316 C64 312 67 309 71 309 C103 315 135 319 167 319 C187 319 208 317 227 310 C238 306 249 299 254 288 C256 284 257 279 257 274 C258 268 257 263 255 257 C247 227 221 200 198 179 C166 151 129 128 90 112 C52 95 9 85 -33 88 C-37 89 -42 89 -47 90 C-53 91 -55 81 -49 80 C-6 73 38 82 79 97 C122 112 161 136 196 164 C223 187 250 214 263 248 C267 260 269 273 266 286 L266 286 Z " />
<glyph glyph-name="six" unicode="6" horiz-adv-x="332" d="M153 371 C184 395 218 417 254 436 C255 434 257 433 260 435 C275 443 291 452 306 461 C310 463 315 466 319 468 C321 469 324 470 325 472 C326 475 326 478 323 479 C319 481 314 477 311 476 C303 472 296 469 288 465 C274 458 260 451 246 443 C222 430 198 415 176 400 C140 375 105 347 77 314 C58 292 41 268 30 241 C23 236 17 231 11 226 C6 222 14 215 18 219 C20 220 22 222 23 223 C18 205 15 186 17 167 C19 148 25 129 36 113 C47 98 62 87 80 79 C128 60 183 73 221 106 C237 121 251 139 257 160 C262 178 261 198 256 215 C246 250 218 275 183 284 C137 296 88 279 49 254 C48 253 47 253 46 252 C53 266 61 279 70 291 C93 321 122 348 153 371 L153 371 Z M156 278 C190 277 222 261 239 230 C247 216 250 200 250 183 C250 164 242 145 230 130 C201 94 151 73 105 82 C83 87 63 96 49 113 C38 126 31 141 29 158 C24 184 28 210 38 235 C72 260 113 279 156 278 L156 278 Z " />
<glyph glyph-name="seven" unicode="7" horiz-adv-x="292" d="M282 416 C286 424 293 435 288 443 C284 450 273 451 266 452 C252 454 237 454 223 453 C176 451 130 445 84 440 C71 439 58 437 45 436 C39 435 39 426 45 426 C94 431 143 437 193 441 C211 442 229 444 246 443 C257 443 276 442 279 437 C280 435 277 429 275 424 C267 410 257 398 246 386 C214 347 178 312 142 276 C104 237 65 199 28 158 C14 142 -1 126 -14 109 C-22 98 -31 87 -35 73 C-36 71 -36 69 -36 66 C-37 62 -31 60 -28 63 C-20 70 -14 78 -6 85 C-1 89 -8 96 -13 92 C-14 91 -15 91 -15 90 C-14 92 -12 95 -11 97 C2 113 15 129 29 144 C65 185 104 223 143 262 C179 299 216 336 250 375 C261 388 273 401 282 416 L282 416 Z " />
<glyph glyph-name="eight" unicode="8" horiz-adv-x="324" d="M297 452 C286 459 273 462 261 463 C245 465 229 464 213 461 C184 456 155 444 132 425 C115 411 98 390 99 366 C100 349 114 334 127 322 C129 320 132 317 135 315 C81 290 27 262 -16 221 C-39 199 -61 172 -65 140 C-68 120 -62 99 -47 85 C-22 60 19 61 51 67 C97 75 142 96 178 125 C194 139 209 155 219 174 C227 191 233 211 228 229 C222 249 207 265 192 278 C180 290 166 301 153 312 C179 324 204 337 229 350 C245 358 262 366 277 375 C289 382 300 391 307 403 C312 411 315 420 313 430 C312 439 305 447 297 452 L297 452 Z M218 228 C223 211 217 192 208 176 C187 137 145 110 105 93 C84 84 62 77 39 75 C20 72 0 73 -18 79 C-38 86 -51 101 -55 121 C-57 131 -55 143 -52 153 C-48 167 -39 180 -30 192 C2 232 49 260 94 284 C110 292 127 300 143 307 C155 297 168 287 180 276 C194 263 211 248 218 228 L218 228 Z M271 383 C256 374 239 366 224 358 C210 351 197 345 184 338 C171 332 158 326 145 319 C143 321 141 323 139 324 C132 331 124 338 119 346 C114 352 110 359 109 366 C107 389 128 410 145 423 C170 440 200 451 230 453 C246 455 261 454 276 450 C286 448 296 443 302 434 C313 413 285 392 271 383 L271 383 Z " />
<glyph glyph-name="nine" unicode="9" horiz-adv-x="291" d="M277 415 C281 424 285 433 289 442 C293 448 296 454 299 460 C301 464 302 468 303 473 C305 478 297 481 294 476 C289 466 285 456 280 446 C276 439 271 433 267 427 C252 409 235 393 218 377 C199 362 179 348 159 335 C141 325 122 315 102 309 C89 306 73 302 61 308 C44 317 44 335 48 351 C55 375 70 396 86 414 C103 433 124 450 148 461 C170 471 200 481 225 471 C237 466 246 454 244 440 C244 437 243 434 241 431 C238 425 247 420 250 426 C258 440 255 458 244 470 C228 487 202 487 181 483 C151 477 124 462 100 442 C79 424 60 401 47 376 C38 358 30 334 40 315 C48 299 66 294 82 295 C102 297 122 305 140 313 C162 325 184 338 204 354 C224 369 244 386 261 406 C258 398 254 390 249 382 C232 349 215 317 196 286 C163 231 128 175 83 129 C65 111 45 93 20 82 C15 79 20 70 25 73 C47 83 65 98 82 114 C103 134 122 157 140 181 C182 238 217 300 251 363 C260 380 269 397 277 415 L277 415 Z " />
<glyph glyph-name="colon" unicode="&#x3a;" horiz-adv-x="133" d="M96 378 C94 373 92 369 91 364 C89 358 98 356 100 362 C102 366 104 371 105 375 C107 381 98 384 96 378 L96 378 Z M42 231 C40 223 37 214 34 206 C32 200 41 197 44 203 C46 212 49 220 52 228 C54 234 44 237 42 231 L42 231 Z " />
<glyph glyph-name="semicolon" unicode="&#x3b;" horiz-adv-x="150" d="M99 369 C96 362 94 355 92 348 C90 342 100 339 102 345 C104 352 106 359 108 367 C110 373 100 375 99 369 L99 369 Z M50 229 C51 223 45 217 42 212 C36 204 30 196 24 187 C20 182 29 177 33 182 C39 192 46 200 52 209 C56 215 61 222 60 229 C60 236 50 236 50 229 L50 229 Z " />
<glyph glyph-name="less" unicode="&#x3c;" horiz-adv-x="304" d="M88 329 C120 340 153 350 186 358 C221 368 256 377 292 385 C298 386 296 396 289 394 C222 380 154 362 89 340 C65 332 43 324 23 313 C17 310 13 304 16 297 C21 287 32 281 40 276 C58 264 78 254 97 244 C123 230 150 217 177 204 C183 201 188 210 182 212 C141 233 99 252 59 276 C48 282 28 294 25 303 C44 315 67 323 88 329 L88 329 Z " />
<glyph glyph-name="equal" unicode="&#x3d;" horiz-adv-x="200" d="M166 328 C128 329 89 328 52 324 C46 324 45 314 52 314 C89 318 128 319 166 318 C172 318 172 328 166 328 L166 328 Z M151 293 C112 293 73 294 34 289 C27 288 27 278 34 279 C73 284 112 284 151 284 C158 284 158 293 151 293 L151 293 Z " />
<glyph glyph-name="greater" unicode="&#x3e;" horiz-adv-x="306" d="M266 331 C214 351 159 366 105 381 C99 383 96 374 102 372 C151 358 199 345 247 328 C259 323 272 319 284 312 C284 312 285 312 286 311 C279 307 272 304 264 300 C251 294 239 289 226 283 C191 268 157 254 122 240 C85 226 49 212 11 200 C5 198 8 188 14 190 C48 201 82 214 116 227 C153 242 189 256 226 272 C240 278 253 284 267 291 C276 294 284 298 292 303 C297 306 301 311 295 317 C287 324 275 328 266 331 L266 331 Z " />
<glyph glyph-name="question" unicode="&#x3f;" horiz-adv-x="523" d="M404 740 C355 748 304 735 261 710 C213 682 175 639 154 588 C148 574 144 560 141 546 C139 540 149 537 150 544 C163 599 195 649 240 684 C279 714 329 734 379 732 C422 731 466 713 493 678 C511 654 515 624 507 595 C498 560 477 529 454 501 C426 466 393 434 359 404 C323 372 285 343 247 313 C213 287 178 261 145 235 C121 217 97 199 76 177 C59 159 46 136 44 111 C42 86 56 64 82 61 C96 59 110 65 123 71 C128 74 123 83 118 80 C106 74 91 68 77 72 C67 74 59 82 56 93 C48 118 64 148 80 167 C99 188 122 205 145 223 C178 249 213 274 246 300 C284 330 322 359 359 391 C393 421 427 453 456 488 C480 517 503 549 515 584 C524 614 524 646 508 674 C486 710 445 733 404 740 L404 740 Z M51 -29 C45 -52 39 -76 33 -99 C32 -105 41 -108 43 -102 C49 -78 55 -55 61 -31 C62 -25 53 -22 51 -29 L51 -29 Z " />
<glyph glyph-name="at" unicode="&#x40;" horiz-adv-x="442" d="M268 226 C283 220 300 226 314 235 C332 247 346 263 359 280 C388 319 409 369 409 418 C408 441 403 465 389 484 C376 503 357 517 335 524 C293 538 244 529 205 513 C150 491 104 453 71 405 C53 377 38 346 29 314 C21 287 17 259 19 231 C23 187 44 147 82 123 C119 99 165 95 208 104 C260 116 307 148 341 188 C351 200 360 212 369 225 C372 230 364 235 360 230 C331 185 290 145 239 125 C200 109 155 104 115 118 C78 131 48 160 36 198 C19 248 32 305 54 352 C78 406 117 452 168 483 C207 507 253 523 299 520 C317 520 335 515 351 506 C370 494 385 477 393 455 C407 412 394 362 373 323 C363 302 350 283 335 266 C323 254 310 241 293 236 C287 233 281 233 275 234 C265 236 259 244 257 252 C248 277 255 307 264 331 C268 340 273 350 278 358 C281 362 283 365 285 368 C289 374 280 378 276 373 C274 370 271 366 269 363 C248 333 224 305 195 285 C185 278 173 271 161 268 C154 267 146 267 142 273 C141 275 140 278 139 280 C139 284 139 288 140 291 C142 302 146 311 151 320 C162 340 177 360 197 373 C205 379 215 385 225 385 C236 386 244 381 250 373 C253 367 262 372 258 377 C224 426 166 364 147 333 C141 323 135 311 132 300 C129 291 128 281 131 273 C140 249 170 259 186 268 C204 277 220 291 234 305 C240 311 246 317 251 324 C247 312 245 300 244 288 C242 266 244 235 268 226 L268 226 Z " />
<glyph glyph-name="A" unicode="A" horiz-adv-x="518" d="M601 382 C572 386 541 385 512 383 C484 380 457 377 429 372 C446 423 463 474 480 525 C495 572 511 618 524 665 C528 680 532 695 535 711 C536 720 539 730 536 739 C532 751 516 746 507 743 C487 736 470 724 454 711 C430 692 409 671 388 649 C361 621 336 592 311 563 C251 491 195 416 141 339 C136 332 131 325 126 318 C123 318 120 317 117 317 C132 343 147 370 160 397 C178 434 194 472 208 510 C210 516 200 519 198 513 C174 447 144 384 109 323 C108 321 107 318 105 316 C91 315 77 314 62 314 C56 314 56 304 62 304 C75 304 87 304 99 305 C68 252 35 199 3 146 C-20 106 -42 66 -63 25 C-66 19 -58 14 -55 20 C-3 106 51 190 107 273 C115 285 124 297 132 309 C141 310 150 311 160 312 C197 318 235 325 272 332 C319 341 367 352 415 360 C398 309 383 257 369 206 C356 155 344 104 338 52 C337 34 336 15 337 -4 C339 -18 342 -33 349 -45 C353 -49 357 -54 361 -57 C367 -60 372 -52 366 -48 C363 -46 359 -42 357 -38 C354 -32 352 -28 350 -21 C346 -5 346 12 347 29 C349 78 360 126 371 173 C386 233 404 292 422 350 C423 354 425 358 426 362 C450 366 474 369 498 371 C531 375 565 377 598 372 C604 371 607 380 601 382 L601 382 Z M61 222 C61 222 61 222 61 223 C78 250 95 278 111 306 C114 307 116 307 119 307 C99 279 80 251 61 222 L61 222 Z M404 368 C327 354 251 337 173 325 C162 323 151 321 139 320 C184 383 230 446 279 507 C325 566 374 625 429 676 C448 693 467 710 488 723 C496 727 503 731 511 734 C517 736 524 738 526 736 C531 731 520 690 519 684 C507 640 493 597 478 553 C460 497 441 440 422 383 C421 379 420 374 418 370 C413 369 409 368 404 368 L404 368 Z " />
<glyph glyph-name="B" unicode="B" horiz-adv-x="572" d="M424 507 C452 530 478 555 500 583 C516 603 531 625 539 650 C544 663 546 681 534 691 C519 705 495 700 476 693 C447 683 420 666 395 647 C366 625 341 600 318 573 C290 541 265 507 243 471 C246 474 247 478 249 482 C269 520 289 559 306 599 C325 644 340 691 349 738 C351 745 342 748 341 741 C332 699 319 657 303 617 C287 576 266 536 246 497 C230 467 215 436 200 405 C192 404 185 402 177 400 C158 396 140 390 121 383 C109 379 98 374 87 367 C77 361 40 338 55 324 C62 316 78 319 87 321 C103 325 119 331 134 338 C150 344 164 351 178 358 C165 326 151 294 140 262 C123 216 108 170 95 123 C94 117 102 114 105 120 C124 182 146 243 171 303 C180 325 189 347 200 368 C220 379 242 390 262 402 C304 403 345 398 383 382 C420 368 451 343 468 308 C483 279 488 247 488 214 C487 189 483 164 475 139 C456 83 412 34 364 -1 C339 -18 313 -33 283 -43 C257 -52 230 -56 202 -58 C160 -60 116 -55 80 -34 C52 -18 32 6 22 36 C12 62 11 92 19 121 C26 148 41 174 62 193 C72 202 85 209 97 214 C103 216 100 226 94 224 C66 212 43 191 27 164 C10 137 3 106 4 76 C5 44 16 14 36 -10 C59 -39 95 -56 131 -63 C155 -68 180 -69 205 -68 C234 -66 263 -61 291 -51 C350 -29 404 11 443 61 C469 95 486 133 493 174 C500 206 499 238 492 269 C485 305 466 338 438 362 C398 395 346 408 294 412 C289 412 285 412 281 412 C296 421 312 430 326 440 C360 460 394 482 424 507 L424 507 Z M185 372 C170 364 153 357 138 350 C123 343 106 337 90 333 C81 330 67 327 63 330 C60 333 67 339 71 343 C79 351 88 357 99 363 C111 370 125 374 138 379 C157 385 175 390 194 394 C194 394 194 394 195 394 C192 387 188 379 185 372 L185 372 Z M206 383 C209 388 211 392 214 398 C222 399 231 400 240 401 C229 395 218 389 206 383 L206 383 Z M261 412 C261 412 261 412 260 412 C247 412 233 410 220 409 C232 433 245 456 260 479 C295 535 338 588 390 630 C413 650 440 668 470 680 C486 687 511 696 526 685 C537 678 533 661 528 649 C520 625 505 604 490 585 C457 545 418 511 375 483 C338 458 300 435 261 412 L261 412 Z " />
<glyph glyph-name="C" unicode="C" horiz-adv-x="570" d="M505 587 C496 562 484 538 471 515 C446 470 417 426 381 389 C374 383 368 377 360 371 C355 367 363 360 368 364 C385 377 399 394 413 410 C431 432 446 454 461 477 C489 523 515 573 527 625 C534 658 538 706 500 721 C491 724 481 725 472 725 C454 725 437 722 420 718 C384 708 350 691 320 670 C257 629 203 575 157 516 C104 449 60 373 37 291 C20 231 14 167 28 107 C38 64 59 21 96 -5 C117 -20 143 -26 169 -28 C206 -31 242 -23 276 -9 C353 23 419 80 476 140 C490 155 503 170 516 186 C520 191 513 198 509 193 C456 130 396 70 325 27 C266 -9 192 -34 124 -8 C86 6 62 41 48 77 C28 128 27 186 36 240 C49 318 83 390 126 456 C167 519 218 576 276 625 C305 649 336 671 370 688 C401 703 435 714 469 715 C485 716 503 713 513 699 C522 686 523 668 521 653 C520 630 513 608 505 587 L505 587 Z " />
<glyph glyph-name="D" unicode="D" horiz-adv-x="685" d="M681 611 C644 687 553 705 476 705 C382 704 286 676 207 625 C164 597 126 563 95 524 C61 481 33 431 21 378 C13 342 11 301 29 268 C44 239 71 222 103 220 C121 219 139 222 157 228 C163 230 160 240 154 238 C123 227 87 225 60 246 C33 266 25 301 25 333 C26 381 45 429 70 470 C98 516 133 557 176 591 C251 650 344 685 439 693 C480 696 521 695 560 686 C598 677 635 660 659 628 C679 600 687 566 688 532 C689 498 683 464 672 432 C658 392 635 355 607 323 C591 303 572 285 552 269 C529 250 504 233 479 217 C409 170 338 128 263 92 C239 81 215 70 192 59 C170 48 149 36 130 22 C128 21 127 20 125 18 C128 27 130 35 133 44 C163 152 204 257 256 357 C270 383 285 410 299 435 C303 441 294 446 291 440 C230 336 179 226 142 111 C131 76 122 41 111 6 C104 -1 98 -8 93 -16 C88 -23 83 -32 83 -42 C84 -49 90 -55 97 -50 C107 -44 113 -23 115 -14 C117 -9 119 -4 120 1 C140 18 161 31 182 43 C207 55 232 66 257 78 C329 112 399 152 466 196 C514 228 562 259 601 301 C632 333 657 370 674 411 C689 444 697 480 698 516 C699 548 695 581 681 611 L681 611 Z M96 -36 C95 -38 94 -39 93 -40 C93 -37 93 -35 95 -31 C98 -25 100 -22 103 -18 C101 -24 99 -30 96 -36 L96 -36 Z " />
<glyph glyph-name="E" unicode="E" horiz-adv-x="650" d="M757 693 C699 695 641 694 582 692 C521 689 460 683 400 674 C393 673 386 672 379 671 C386 680 392 690 399 700 C403 706 407 712 411 718 C415 723 406 728 403 723 C390 705 378 687 365 668 C346 664 327 660 307 655 C301 654 304 644 310 646 C326 650 342 653 358 656 C354 650 349 644 345 637 C342 632 339 627 335 622 C332 621 329 620 326 619 C273 603 220 583 169 560 C130 542 92 522 58 497 C35 481 12 462 -2 437 C-13 418 -15 397 0 379 C9 369 21 362 34 357 C50 351 68 347 85 344 C115 339 144 337 174 336 C163 315 153 293 143 271 C127 232 111 192 100 151 C91 119 83 85 84 51 C85 26 90 -1 107 -21 C129 -46 166 -53 198 -54 C249 -58 301 -50 351 -40 C400 -30 449 -17 495 -1 C504 3 512 6 521 9 C527 12 524 21 518 19 C477 2 433 -11 390 -21 C339 -34 286 -43 234 -45 C212 -45 190 -45 168 -41 C153 -38 137 -33 124 -23 C106 -10 98 12 95 35 C92 66 97 98 104 128 C114 168 127 206 143 244 C156 275 170 306 185 336 C199 336 214 336 229 336 C284 338 339 341 394 347 C445 353 496 359 547 368 C557 370 568 371 578 373 C584 374 582 384 575 383 C529 374 482 368 435 362 C381 355 327 350 272 348 C245 346 217 346 189 346 C193 354 197 362 201 369 C223 411 246 453 269 494 C292 533 315 571 339 608 C340 610 341 611 342 613 C386 626 432 637 477 647 C550 661 624 672 698 678 C717 680 737 681 757 682 C763 683 763 692 757 693 L757 693 Z M276 525 C251 484 228 442 206 400 C196 382 187 364 178 346 C160 347 141 348 122 349 C102 351 82 354 63 359 C48 362 34 367 20 375 C11 380 3 388 0 398 C-1 402 -2 406 -1 411 C-1 411 -1 412 -1 412 C-1 412 -1 412 -1 412 C-1 412 -1 413 -1 413 C-1 414 -1 415 0 416 C0 418 1 420 1 422 C3 426 5 430 8 434 C11 439 14 444 18 448 C26 459 37 468 48 477 C78 501 112 521 146 538 C193 562 242 581 291 597 C303 601 315 605 327 609 C310 581 293 553 276 525 L276 525 Z M350 626 C357 637 364 648 372 659 C407 666 444 671 480 674 C537 680 595 683 652 684 C609 679 566 673 524 666 C465 655 407 642 350 626 L350 626 Z " />
<glyph glyph-name="F" unicode="F" horiz-adv-x="553" d="M699 709 C663 722 622 723 584 723 C529 723 474 716 419 707 C356 696 294 680 233 660 C171 640 111 616 54 585 C47 581 40 577 34 573 C28 570 33 562 39 565 C93 596 152 622 211 642 C271 663 332 680 394 692 C449 703 504 710 560 712 C600 714 642 714 682 704 C694 700 707 696 718 688 C721 686 725 682 727 679 C727 678 728 677 728 676 C729 674 729 675 729 674 C730 672 730 672 730 670 C731 669 731 669 731 668 C731 666 731 663 730 661 C730 654 740 655 740 661 C743 686 720 701 699 709 L699 709 Z M512 394 C452 387 391 378 330 369 C277 362 224 353 171 345 C181 370 191 395 201 419 C232 490 265 560 300 628 C305 638 310 647 315 656 C318 662 309 667 306 661 C269 590 234 518 201 444 C187 411 173 377 160 343 C150 342 140 340 131 338 C93 332 54 326 16 320 C10 319 13 309 19 310 C65 318 110 325 155 332 C146 309 138 286 130 263 C114 217 99 170 88 122 C80 91 74 59 72 26 C71 13 73 -9 79 -21 C80 -23 81 -23 82 -24 C88 -27 92 -20 87 -15 C81 -8 81 13 81 21 C83 51 89 81 95 110 C106 155 119 200 134 244 C144 275 155 305 167 334 C185 337 203 340 220 343 C284 353 349 362 413 371 C446 376 479 380 512 384 C519 385 519 395 512 394 L512 394 Z " />
<glyph glyph-name="G" unicode="G" horiz-adv-x="695" d="M687 348 C640 354 592 354 545 344 C509 335 474 324 437 320 C406 317 374 318 343 321 C336 321 336 311 343 311 C392 306 441 307 490 319 C513 325 536 332 560 336 C504 243 439 152 361 76 C330 46 296 18 258 -3 C229 -19 196 -32 162 -32 C122 -32 86 -13 65 21 C42 58 38 104 40 146 C43 203 58 259 78 312 C101 372 132 430 169 483 C206 536 251 586 303 626 C352 664 408 694 469 707 C500 714 533 718 565 714 C594 711 621 698 634 670 C644 646 643 618 638 593 C634 569 626 546 615 524 C612 517 609 510 605 504 C601 499 610 494 614 499 C624 516 632 535 638 554 C647 580 653 608 651 636 C650 663 640 689 617 706 C590 726 552 727 519 725 C487 722 456 716 426 706 C396 695 367 681 340 664 C312 647 286 627 261 604 C236 582 213 557 192 531 C171 504 151 476 134 447 C116 419 101 390 87 359 C74 330 63 300 54 270 C45 242 38 213 34 185 C31 159 29 133 31 107 C32 84 36 62 44 41 C51 22 62 5 76 -9 C90 -22 108 -32 127 -37 C155 -44 184 -43 211 -35 C249 -23 283 -2 314 22 C353 52 388 88 421 125 C459 169 493 215 525 263 C529 269 533 275 537 280 C534 273 531 266 528 258 C514 221 501 182 489 144 C477 105 466 66 458 25 C452 -6 447 -39 449 -72 C450 -91 455 -116 474 -124 C477 -125 479 -126 481 -127 C487 -128 490 -118 484 -117 C476 -115 471 -111 467 -104 C463 -96 460 -86 459 -76 C456 -46 461 -14 467 15 C474 54 484 93 496 131 C507 169 520 207 534 244 C545 273 556 302 570 331 C571 333 572 336 573 339 C581 340 588 341 596 342 C626 344 657 342 687 338 C694 337 694 348 687 348 L687 348 Z " />
<glyph glyph-name="H" unicode="H" horiz-adv-x="548" d="M618 746 C540 678 463 609 389 538 C335 485 282 432 231 376 C224 369 218 362 212 354 C174 345 137 335 100 325 C107 344 114 362 122 380 C144 434 167 487 191 539 C201 560 210 581 220 601 C222 600 223 600 226 601 C229 604 231 609 233 612 C239 624 244 636 247 649 C248 654 242 658 239 654 C232 647 228 637 223 628 C214 611 206 593 197 576 C174 525 151 475 129 423 C115 390 101 356 88 322 C61 315 34 308 7 302 C-22 295 -52 288 -83 288 C-89 288 -89 278 -83 278 C-56 278 -30 284 -4 289 C25 296 55 303 83 311 C76 293 69 275 63 257 C55 235 47 213 40 190 C35 175 30 159 28 143 C27 137 25 122 34 120 C38 119 41 121 44 124 C54 132 60 145 68 156 C83 179 100 202 117 224 C145 262 175 298 206 333 C209 337 213 341 217 345 C267 357 318 368 370 375 C397 379 424 382 452 384 C450 379 448 374 445 369 C418 300 391 230 367 160 C342 88 318 15 298 -59 C295 -68 293 -77 290 -86 C289 -92 298 -95 300 -89 C320 -15 342 58 367 131 C391 201 417 271 445 341 C451 356 457 370 463 385 C493 387 522 389 552 389 C559 389 559 399 552 399 C524 399 495 398 467 395 C485 438 503 481 521 523 C542 569 563 615 585 661 C597 686 609 711 623 736 C624 737 625 738 626 740 C629 745 622 749 618 746 L618 746 Z M129 257 C109 231 89 204 70 177 C65 169 59 161 53 152 C51 149 48 144 45 140 C43 137 39 132 37 131 C36 138 39 152 43 164 C48 184 54 204 61 223 C72 254 83 284 95 314 C97 315 98 315 100 316 C133 324 166 333 200 341 C176 314 152 286 129 257 L129 257 Z M582 678 C561 635 541 591 521 547 C499 497 477 446 456 395 C384 389 313 377 242 362 C238 360 233 360 228 358 C268 402 308 444 349 485 C418 553 489 619 561 683 C575 695 589 707 603 719 C596 706 589 692 582 678 L582 678 Z " />
<glyph glyph-name="I" unicode="I" horiz-adv-x="420" d="M631 718 C601 731 566 733 534 733 C492 732 451 726 411 719 C403 718 396 717 388 715 C387 716 385 716 383 714 C321 702 260 687 198 672 C175 675 150 672 127 668 C99 662 71 653 44 643 C37 641 31 638 24 636 C19 634 19 626 26 626 C62 630 97 638 132 646 C154 651 176 657 199 662 C215 659 232 653 244 640 C263 620 268 590 269 564 C271 530 266 495 261 461 C256 430 249 400 242 369 C220 313 198 257 177 200 C158 148 138 95 120 42 C109 11 99 -20 89 -51 C62 -57 35 -63 7 -69 C-16 -74 -39 -80 -63 -83 C-71 -85 -79 -86 -88 -86 C-90 -86 -97 -84 -97 -84 C-101 -79 -109 -83 -106 -89 C-100 -99 -83 -96 -74 -95 C-51 -93 -30 -87 -8 -83 C23 -75 55 -69 86 -62 C85 -66 84 -70 83 -74 C82 -77 81 -81 80 -84 C79 -90 87 -94 89 -88 C94 -79 98 -69 103 -59 C130 -54 159 -50 187 -47 C226 -43 266 -42 305 -47 C311 -48 311 -37 305 -37 C239 -29 172 -37 108 -48 C128 -1 148 47 166 96 C195 172 221 248 241 327 C245 340 249 354 252 367 C273 422 295 476 317 531 C339 584 361 638 384 691 C386 696 388 701 390 706 C391 706 392 706 393 706 C435 714 477 720 518 722 C555 724 594 722 629 709 C635 706 637 716 631 718 L631 718 Z M81 645 C90 648 98 651 107 653 C124 657 141 661 159 662 C155 662 151 661 147 660 C125 655 103 649 81 645 L81 645 Z M165 123 C149 78 131 33 113 -11 C116 0 120 11 124 22 C141 74 160 125 179 176 C192 210 204 244 217 278 C202 226 184 174 165 123 L165 123 Z M317 556 C300 514 282 472 266 429 C273 467 278 506 279 545 C280 575 278 609 260 636 C250 651 236 661 219 667 C233 670 246 673 260 677 C299 686 339 695 378 703 C357 654 337 605 317 556 L317 556 Z " />
<glyph glyph-name="J" unicode="J" horiz-adv-x="500" d="M682 703 C657 726 622 734 589 737 C539 743 488 737 438 730 C369 719 301 702 235 682 C151 657 69 627 -11 593 C-22 589 -33 584 -44 580 C-50 577 -44 569 -39 571 C42 605 124 637 207 663 C274 684 343 703 412 715 C464 725 516 731 568 729 C601 727 638 722 666 703 C687 689 697 667 695 641 C695 637 695 634 694 631 C693 625 703 622 704 629 C708 656 703 684 682 703 L682 703 Z M472 665 C460 607 445 551 426 495 C408 441 387 387 364 335 C342 286 318 238 291 192 C268 150 242 109 215 70 C192 38 168 6 141 -23 C122 -44 101 -66 77 -82 C69 -88 60 -94 51 -97 C43 -100 35 -101 26 -100 C18 -99 12 -90 10 -86 C3 -75 1 -62 1 -49 C0 -9 12 32 26 69 C44 117 69 162 98 204 C106 215 114 225 122 235 C126 240 119 247 115 242 C81 201 53 155 31 106 C12 65 -3 21 -8 -24 C-11 -49 -12 -86 12 -104 C27 -115 47 -110 63 -102 C86 -91 106 -73 125 -55 C151 -29 175 0 198 30 C226 67 252 106 276 146 C304 192 329 239 352 287 C377 339 400 393 420 447 C440 503 458 561 472 619 C475 634 478 648 481 662 C483 668 473 671 472 665 L472 665 Z " />
<glyph glyph-name="K" unicode="K" horiz-adv-x="579" d="M706 77 C650 56 587 56 528 64 C462 72 397 90 334 112 C274 132 215 155 157 179 C143 184 129 190 115 195 C117 202 120 208 122 215 C126 224 130 233 134 242 C179 265 221 292 263 320 C325 363 384 410 440 459 C512 524 581 593 645 666 C663 685 681 706 698 726 C702 731 695 738 691 733 C625 656 557 582 483 513 C426 458 365 407 301 360 C254 325 204 292 152 264 C148 261 144 259 140 257 C161 304 183 351 205 397 C235 456 265 515 296 573 C324 625 352 675 381 725 C384 731 388 736 391 742 C394 747 385 752 382 747 C354 698 326 648 298 598 C267 540 236 481 206 422 C178 365 151 308 126 250 C102 237 77 226 52 218 C45 219 39 221 32 223 C21 225 7 227 -3 222 C-10 219 -17 210 -13 202 C-10 197 -3 196 2 196 C11 196 21 198 29 200 C37 202 45 204 52 207 C56 206 60 204 64 203 C77 199 89 194 102 190 C86 150 71 109 59 68 C45 23 33 -24 32 -72 C31 -76 31 -81 32 -86 C32 -92 42 -92 42 -86 C41 -41 51 5 63 48 C76 95 93 141 111 186 C117 184 123 181 129 179 C185 157 240 134 296 114 C359 92 423 72 488 60 C547 49 610 44 670 57 C683 59 696 63 709 68 C715 70 712 80 706 77 L706 77 Z M14 206 C2 204 -5 204 -5 206 C-6 212 2 214 7 215 C21 217 28 214 34 212 C28 210 21 207 14 206 L14 206 Z M105 199 C99 201 92 204 86 206 C80 208 74 210 68 212 C86 219 103 227 121 236 C115 223 110 211 105 199 L105 199 Z " />
<glyph glyph-name="L" unicode="L" horiz-adv-x="402" d="M727 -27 C668 -38 609 -43 550 -43 C492 -43 435 -40 377 -34 C325 -29 272 -21 220 -13 C175 -5 130 3 86 10 C78 11 69 13 61 14 C84 36 103 62 120 88 C141 122 158 157 173 193 C191 233 207 274 222 315 C232 343 242 371 251 399 C277 445 298 483 318 521 C337 558 356 596 373 634 C384 661 396 688 400 717 C402 730 402 753 382 749 C368 747 359 730 353 718 C340 695 331 669 322 644 C309 609 297 574 286 538 C272 497 259 456 246 415 C244 411 243 407 242 403 C231 384 220 366 208 347 C198 332 188 316 178 301 C175 295 183 290 187 296 C201 316 214 337 226 358 C218 334 209 310 201 287 C186 246 169 207 151 168 C135 134 117 100 95 69 C82 51 66 32 48 16 C28 19 8 21 -13 22 C-30 22 -54 23 -68 10 C-80 -1 -80 -22 -65 -30 C-55 -36 -43 -36 -32 -35 C-14 -33 3 -26 18 -18 C30 -11 41 -3 51 5 C86 0 120 -6 155 -12 C204 -20 253 -29 303 -35 C358 -43 413 -49 469 -51 C528 -54 586 -54 645 -48 C673 -45 701 -42 729 -36 C735 -35 733 -26 727 -27 L727 -27 Z M305 565 C316 598 327 631 340 664 C348 685 359 707 370 727 C375 736 381 740 387 740 C394 736 391 726 391 720 C389 709 385 696 382 685 C370 650 355 617 339 584 C319 543 298 503 276 463 C273 457 270 452 266 446 C279 486 292 525 305 565 L305 565 Z M-17 -22 C-29 -25 -42 -27 -54 -24 C-58 -23 -61 -21 -64 -19 C-68 -15 -68 -8 -66 -3 C-63 6 -48 10 -42 10 C-18 14 11 11 36 7 C37 7 37 7 38 7 C21 -6 3 -16 -17 -22 L-17 -22 Z " />
<glyph glyph-name="M" unicode="M" horiz-adv-x="693" d="M734 735 C726 740 716 731 710 726 C699 717 691 705 682 694 C655 658 632 618 609 579 C580 529 553 477 526 425 C499 372 472 318 446 264 C424 221 403 177 383 133 C379 126 376 118 372 111 C388 171 403 230 417 290 C432 353 446 416 458 479 C466 525 473 571 473 618 C474 645 473 677 457 700 C452 708 444 715 434 719 C421 723 406 722 393 719 C356 713 325 689 298 663 C261 627 232 585 205 541 C171 485 142 427 116 368 C85 301 58 233 32 164 C28 152 24 140 19 128 C28 157 37 186 47 215 C65 273 85 331 107 388 C129 446 152 503 178 560 C203 615 231 669 261 721 C265 728 268 734 272 740 C276 746 267 751 264 745 C232 693 205 639 179 585 C152 529 128 472 106 414 C84 357 63 299 44 241 C26 184 9 127 -8 70 C-23 17 -38 -36 -52 -89 C-54 -96 -56 -102 -57 -108 C-59 -115 -50 -117 -48 -111 C-26 -38 -3 34 22 106 C47 175 72 244 101 311 C127 373 156 433 188 491 C214 539 243 586 279 627 C304 657 334 687 370 702 C390 710 413 715 431 709 C445 704 452 690 456 679 C460 666 462 652 463 639 C465 597 460 555 453 513 C444 455 432 397 418 339 C401 265 383 192 364 120 C359 100 354 80 349 61 C347 55 356 51 358 57 C365 72 373 88 380 103 C398 143 417 182 435 220 C460 272 486 324 512 375 C539 428 566 481 595 533 C619 577 644 620 671 661 C681 676 691 690 702 703 C708 710 722 726 729 726 C731 710 724 693 721 678 C704 620 684 562 666 504 C641 420 618 335 601 249 C580 151 567 52 564 -48 C564 -73 564 -98 565 -122 C565 -129 575 -129 575 -122 C571 -20 581 83 598 184 C614 275 636 365 662 454 C681 520 703 585 723 650 C728 668 734 687 738 706 C739 714 743 730 734 735 L734 735 Z " />
<glyph glyph-name="N" unicode="N" horiz-adv-x="612" d="M-27 -18 C-3 24 17 68 36 113 C59 167 82 222 103 277 C125 330 146 384 168 438 C185 481 202 524 222 565 C228 579 235 593 242 605 C245 609 253 623 256 622 C258 621 256 599 256 598 C256 569 252 540 249 512 C244 471 238 431 233 390 C227 343 220 296 215 249 C209 203 204 156 200 109 C197 69 195 29 195 -11 C196 -38 196 -68 205 -94 C210 -109 220 -124 237 -124 C249 -124 260 -119 270 -112 C285 -102 299 -89 312 -76 C331 -55 347 -32 363 -9 C385 22 405 56 424 89 C450 134 473 180 495 226 C524 285 550 344 575 404 C606 478 636 552 664 627 C680 668 695 711 710 752 C713 758 703 761 701 755 C671 672 640 590 607 508 C581 441 553 375 523 309 C499 257 475 205 448 154 C427 114 406 76 382 38 C365 10 347 -17 327 -42 C313 -60 299 -78 281 -92 C276 -96 268 -102 263 -105 C247 -114 232 -121 222 -106 C210 -88 209 -64 207 -44 C204 -7 205 30 207 66 C210 111 214 156 219 201 C225 249 230 296 237 344 C242 387 248 430 254 474 C258 507 263 541 265 574 C266 594 267 619 264 627 C257 645 237 616 233 609 C215 578 201 544 187 510 C166 461 146 411 127 361 C105 306 82 250 60 195 C39 144 17 93 -6 44 C-16 25 -25 5 -36 -13 C-39 -19 -30 -24 -27 -18 L-27 -18 L-27 -18 Z " />
<glyph glyph-name="O" unicode="O" horiz-adv-x="745" d="M693 534 C684 555 670 573 652 586 C650 587 649 588 647 589 C664 616 678 650 668 681 C663 697 652 709 638 719 C630 724 621 728 611 732 C599 736 585 738 572 739 C521 745 469 738 421 719 C371 700 326 671 287 636 C244 599 207 555 175 508 C142 460 114 408 91 353 C70 301 53 247 42 191 C42 189 42 187 41 184 C32 182 22 179 12 177 C6 175 9 166 15 167 C23 169 31 171 39 173 C32 130 30 84 34 40 C39 -3 50 -45 73 -82 C95 -116 127 -142 166 -156 C188 -164 213 -169 236 -168 C267 -167 297 -159 325 -148 C396 -119 458 -69 509 -13 C572 53 622 132 658 216 C681 271 698 328 705 387 C711 436 712 488 693 534 L693 534 Z M74 277 C91 331 114 384 141 434 C168 484 200 531 238 574 C274 614 314 650 360 678 C402 704 449 723 499 729 C524 732 549 732 574 729 C586 727 599 726 611 721 C619 718 628 714 635 708 C647 700 656 688 660 674 C663 660 661 644 656 629 C651 617 645 605 638 594 C620 603 600 606 579 606 C543 607 507 598 473 586 C467 584 470 574 476 576 C523 593 585 608 633 585 C631 582 629 579 627 576 C612 555 595 535 577 517 C533 471 484 431 433 393 C377 352 319 315 258 281 C203 250 145 221 85 199 C74 195 63 191 52 188 C57 218 65 248 74 277 L74 277 Z M681 310 C659 231 622 155 576 87 C530 19 473 -44 406 -91 C355 -127 293 -159 229 -158 C188 -158 145 -142 114 -115 C84 -88 65 -53 55 -15 C42 29 40 76 43 121 C45 140 47 158 50 177 C95 190 137 209 179 229 C242 259 303 293 361 331 C418 369 474 410 526 455 C568 491 610 531 641 578 C641 579 641 580 642 580 C645 579 647 577 650 575 C686 547 697 498 699 455 C701 406 693 357 681 310 L681 310 Z " />
<glyph glyph-name="P" unicode="P" horiz-adv-x="610" d="M575 699 C543 712 508 714 474 709 C436 704 399 689 366 669 C284 621 224 546 174 467 C172 465 171 462 170 460 C189 505 211 550 234 593 C264 649 298 704 335 755 C340 762 345 768 350 775 C353 780 345 785 341 780 C302 728 268 674 236 618 C205 562 177 504 152 445 C145 427 137 409 130 392 C109 350 89 308 73 264 C71 276 71 287 73 299 C74 311 77 322 81 334 C83 340 74 342 72 336 C62 308 58 276 66 248 C63 238 59 229 56 219 C23 127 -1 32 -22 -63 C-28 -87 -33 -112 -38 -137 C-39 -143 -30 -146 -29 -139 C-10 -77 7 -14 26 49 C43 107 60 164 79 221 C81 219 83 216 85 213 C113 180 158 167 200 164 C255 159 312 171 363 191 C424 215 480 252 525 300 C581 358 622 433 638 513 C652 579 646 667 575 699 L575 699 Z M23 76 C19 62 15 47 10 32 C20 70 30 107 42 144 C51 174 61 204 72 234 C72 234 72 233 73 233 C55 181 39 129 23 76 L23 76 Z M77 246 C78 252 81 258 83 264 C81 257 79 252 77 246 L77 246 Z M609 451 C594 413 575 378 551 346 C512 293 460 250 402 220 C352 194 296 176 240 173 C196 171 149 176 113 202 C101 210 90 221 83 233 C84 234 84 235 84 236 C101 287 119 337 139 387 C141 390 142 392 144 395 C164 434 188 472 214 508 C242 547 272 583 308 615 C365 665 440 706 518 701 C550 700 582 690 604 665 C627 640 634 606 634 573 C635 531 624 490 609 451 L609 451 Z " />
<glyph glyph-name="Q" unicode="Q" horiz-adv-x="766" d="M709 601 C716 620 722 641 721 662 C719 689 706 713 683 729 C647 754 600 756 558 749 C499 739 443 714 392 684 C330 647 273 601 224 548 C170 490 124 425 92 353 C64 291 46 223 44 155 C35 157 27 160 18 165 C8 171 -1 180 -7 189 C-11 194 -19 189 -16 184 C-1 163 20 150 44 145 C44 135 45 125 45 115 C50 50 70 -19 122 -61 C125 -63 127 -64 129 -66 C113 -64 97 -61 81 -56 C58 -50 28 -41 14 -21 C13 -19 12 -17 11 -15 C8 -10 0 -15 2 -20 C13 -42 39 -53 60 -61 C88 -70 118 -75 148 -78 C193 -102 246 -104 295 -95 C314 -91 332 -86 349 -79 C357 -79 365 -80 374 -80 C424 -83 474 -89 522 -105 C555 -117 590 -135 611 -165 C613 -168 615 -172 617 -175 C620 -181 628 -176 625 -170 C609 -138 578 -117 546 -104 C502 -85 454 -77 407 -73 C396 -72 384 -71 372 -70 C414 -52 453 -27 489 0 C554 50 611 112 656 181 C705 256 741 342 748 432 C752 490 742 552 709 601 L709 601 Z M67 247 C85 326 122 399 169 465 C212 525 264 579 322 624 C373 664 429 698 489 720 C534 737 585 749 633 739 C650 736 668 728 682 718 C692 710 699 701 704 690 C709 680 711 668 711 656 C711 642 708 629 703 616 C703 614 702 612 702 611 C699 615 695 619 691 623 C671 646 645 662 617 672 C611 675 608 665 614 663 C643 652 668 635 688 612 C691 608 695 604 698 599 C687 572 671 547 654 523 C627 487 597 454 566 423 C531 389 493 356 454 327 C415 296 374 268 331 242 C292 219 251 198 208 181 C174 167 137 155 100 152 C85 151 69 151 54 153 C55 185 60 217 67 247 L67 247 Z M197 -85 C190 -84 184 -82 178 -80 C183 -80 187 -81 191 -81 C233 -82 275 -80 317 -79 C277 -90 236 -94 197 -85 L197 -85 Z M706 298 C674 217 624 144 564 81 C511 26 449 -23 380 -56 C369 -60 359 -65 347 -69 C339 -69 330 -69 321 -69 C289 -69 258 -71 226 -71 C201 -72 176 -71 151 -68 C140 -63 130 -55 121 -46 C99 -26 83 2 72 30 C59 66 54 104 54 143 C87 138 122 143 154 152 C196 164 237 181 276 201 C320 223 363 249 403 277 C446 306 487 338 525 372 C562 403 596 437 627 474 C654 505 679 538 697 574 C700 579 702 584 704 589 C716 571 724 550 730 529 C750 452 734 370 706 298 L706 298 Z " />
<glyph glyph-name="R" unicode="R" horiz-adv-x="548" d="M201 251 C249 261 296 278 340 300 C379 320 416 345 449 373 C479 399 506 427 528 459 C548 486 565 515 577 547 C586 572 593 599 593 626 C594 646 590 668 578 685 C555 719 510 730 471 727 C418 723 366 699 321 670 C279 642 242 609 211 569 C206 563 202 556 198 550 C208 574 218 598 228 621 C254 678 281 733 311 787 C314 793 306 798 302 792 C251 699 207 602 167 503 C152 477 139 451 126 424 C101 371 80 316 61 260 C55 265 49 267 41 267 C33 266 24 261 22 253 C19 244 26 238 34 236 C40 235 46 235 52 236 C32 178 15 120 -2 61 C-10 32 -18 3 -26 -27 C-28 -33 -18 -35 -16 -29 C16 58 47 146 78 234 C83 229 89 224 95 219 C120 199 145 178 170 159 C202 134 233 110 266 86 C299 62 333 38 368 16 C398 -3 429 -21 462 -36 C485 -46 510 -57 536 -56 C545 -56 554 -54 561 -49 C566 -46 561 -37 556 -40 C552 -43 550 -44 545 -45 C541 -46 537 -46 532 -46 C521 -46 510 -43 498 -39 C467 -30 438 -14 409 2 C374 23 340 46 307 69 C272 93 238 118 205 144 C177 166 149 188 121 211 C111 219 100 228 90 236 C100 237 110 237 121 238 C148 241 174 245 201 251 L201 251 Z M36 245 C33 246 31 248 31 250 C32 253 35 255 37 256 C44 258 50 256 55 252 C56 251 58 250 56 248 C51 243 41 244 36 245 L36 245 Z M41 160 C34 141 28 122 21 103 C25 119 30 135 35 151 C44 179 53 208 62 236 C64 236 66 236 68 236 C59 210 50 185 41 160 L41 160 Z M73 250 C72 251 70 253 69 254 C78 280 87 306 97 331 C109 359 120 388 133 416 C113 361 93 306 73 250 L73 250 Z M82 246 C89 265 95 283 102 302 C126 368 150 433 176 498 C200 539 228 579 262 612 C300 647 345 677 393 697 C437 715 491 728 536 706 C545 702 554 696 562 689 C565 685 567 683 570 679 C575 671 578 664 580 654 C586 633 584 609 578 587 C572 558 560 531 546 505 C529 474 507 446 483 420 C456 390 424 364 390 341 C352 316 311 296 268 280 C220 264 170 253 118 248 C106 247 94 246 82 246 L82 246 Z " />
<glyph glyph-name="S" unicode="S" horiz-adv-x="509" d="M509 300 C405 254 309 199 187 126 C170 158 143 186 116 210 C93 230 67 249 44 269 C25 287 6 306 -8 327 C-74 419 -3 513 58 574 C94 607 134 636 176 659 C218 682 263 701 309 713 C360 727 498 749 528 681 C543 646 509 599 489 577 C475 561 458 545 440 532 C435 528 440 519 445 523 C494 560 552 623 540 676 C536 694 522 709 507 718 C472 739 430 740 394 738 C350 735 307 725 265 710 C220 694 176 672 135 646 C56 596 -32 517 -45 426 C-48 404 -46 382 -38 361 C-20 312 22 275 57 245 C82 225 107 206 130 184 C149 165 166 144 178 121 C156 108 134 95 113 81 C58 45 19 12 -10 -25 C-25 -45 -44 -73 -37 -96 C-34 -107 -25 -113 -14 -115 C16 -120 48 -109 74 -99 C110 -84 145 -63 171 -34 C199 -1 211 39 203 80 C201 93 197 105 192 117 C329 197 385 230 510 289 C516 292 515 297 509 300 L509 300 Z M196 51 C194 11 174 -25 142 -48 C107 -73 48 -106 -2 -106 C-40 -106 -27 -72 -17 -53 C8 -13 43 17 77 43 C106 65 136 85 167 103 C172 106 177 109 183 112 C191 93 196 73 196 51 L196 51 Z " />
<glyph glyph-name="T" unicode="T" horiz-adv-x="336" d="M802 700 C728 703 654 705 579 705 C513 704 446 703 380 699 C354 698 328 696 302 694 C301 706 297 717 287 723 C278 729 267 730 256 730 C240 731 224 730 208 728 C164 724 120 714 76 704 C30 693 -17 679 -62 664 C-96 652 -131 640 -162 621 C-166 618 -171 615 -175 611 C-179 608 -175 602 -170 603 C-113 618 -56 632 2 643 C60 655 118 664 176 671 C214 676 253 680 292 683 C292 683 292 682 292 682 C291 650 280 619 269 589 C254 546 236 503 218 460 C196 410 173 359 151 309 C128 256 105 203 84 150 C65 99 46 49 32 -4 C28 -15 25 -27 22 -38 C21 -45 31 -47 32 -41 C45 11 62 61 80 111 C101 165 123 219 146 273 C169 325 192 377 215 429 C234 475 254 520 271 566 C283 599 296 633 301 667 C301 673 302 678 302 684 C321 686 339 687 358 688 C423 692 489 694 554 694 C627 695 700 694 773 691 C783 691 792 690 802 690 C808 690 808 700 802 700 L802 700 Z M197 684 C138 677 80 668 22 657 C-33 647 -87 635 -142 621 C-140 621 -138 622 -137 623 C-120 631 -104 638 -87 644 C-44 660 0 674 44 685 C89 697 134 708 180 715 C198 717 216 720 234 720 C248 721 271 723 283 714 C291 708 292 699 292 694 C292 693 292 693 292 693 C260 691 228 687 197 684 L197 684 Z " />
<glyph glyph-name="U" unicode="U" horiz-adv-x="561" d="M642 733 C617 697 596 657 579 617 C565 588 554 558 542 528 C511 469 478 411 445 354 C406 287 364 221 318 158 C280 108 240 57 190 17 C158 -8 117 -33 80 -24 C65 -20 53 -12 44 1 C35 15 30 32 26 50 C19 98 24 151 33 201 C44 263 61 326 82 387 C91 416 102 445 113 474 C133 510 153 546 172 582 C196 624 219 666 243 707 C245 712 240 718 235 714 C222 700 210 685 199 669 C186 648 173 626 163 604 C140 563 122 521 105 478 C83 438 60 398 37 359 C24 338 9 317 -2 297 C-7 291 0 286 4 291 C31 330 56 371 78 412 C79 414 80 416 82 418 C62 360 44 302 32 243 C20 187 11 131 13 76 C16 39 23 -3 54 -24 C86 -45 128 -34 160 -15 C184 -1 205 16 225 35 C248 57 268 81 289 107 C338 166 380 230 421 295 C456 351 488 408 519 465 C519 465 519 464 519 464 C500 410 484 356 469 301 C457 253 445 204 437 155 C432 122 426 87 429 53 C429 50 430 48 430 45 C432 39 442 41 440 48 C438 60 438 73 438 86 C440 104 442 122 444 141 C452 188 462 235 475 281 C487 335 503 388 521 442 C531 470 540 498 552 526 C580 581 608 637 634 693 C640 705 645 717 650 730 C653 735 645 738 642 733 L642 733 Z M204 659 C189 631 174 603 158 575 C173 603 187 632 204 659 L204 659 Z " />
<glyph glyph-name="V" unicode="V" horiz-adv-x="540" d="M701 754 C664 713 629 670 595 627 C558 579 523 530 488 481 C453 431 419 380 385 330 C353 282 322 235 289 188 C262 148 234 108 205 70 C184 42 162 14 136 -11 C123 -24 106 -40 90 -39 C74 -38 66 -26 62 -12 C54 12 54 37 54 63 C56 97 60 132 66 166 C72 206 81 245 91 285 C101 325 112 365 124 405 C126 409 127 413 128 417 C137 432 146 448 155 463 C175 499 194 534 212 570 C218 583 224 595 229 608 C231 614 235 622 234 630 C234 637 228 639 222 637 C216 635 211 630 207 625 C192 607 182 586 173 565 C159 534 146 502 135 470 C130 454 124 438 119 421 C115 414 110 407 106 400 C81 357 54 316 27 275 C4 240 -20 206 -46 174 C-56 163 -65 152 -75 142 C-80 137 -73 130 -68 135 C-43 159 -22 188 -1 216 C27 255 53 295 78 335 C88 351 97 366 106 381 C104 372 101 362 98 353 C87 312 76 271 68 229 C60 191 53 152 48 113 C45 82 43 51 45 20 C47 0 51 -23 65 -38 C78 -51 96 -51 111 -43 C134 -31 153 -9 170 10 C198 42 223 76 247 111 C279 154 309 199 339 243 C373 293 406 343 440 393 C475 445 511 496 547 546 C582 594 618 642 656 687 C673 708 690 728 708 747 C712 752 705 759 701 754 L701 754 Z M161 512 C172 539 183 566 197 591 C202 600 206 608 212 616 C217 623 221 626 224 628 C224 622 223 618 218 606 C206 577 190 548 174 519 C164 501 154 482 144 464 C149 480 155 496 161 512 L161 512 Z " />
<glyph glyph-name="W" unicode="W" horiz-adv-x="712" d="M768 726 C746 655 722 584 696 513 C671 444 644 376 615 309 C588 250 560 191 528 135 C502 90 475 46 440 9 C417 -16 389 -41 355 -47 C328 -52 301 -41 286 -17 C267 12 264 51 264 85 C263 134 269 184 278 232 C287 287 299 341 313 395 C321 424 329 453 337 481 C339 488 341 495 344 503 C352 529 360 555 367 581 C369 587 359 590 357 584 C347 550 336 516 327 482 C308 425 286 368 260 314 C235 259 205 203 165 157 C154 143 140 129 125 119 C116 113 106 107 94 107 C67 107 60 147 59 165 C54 211 61 259 70 305 C80 360 94 416 110 470 C117 492 123 514 131 536 C148 562 164 588 178 614 C187 631 198 651 199 670 C199 675 196 681 190 681 C187 681 183 678 181 676 C173 667 168 655 163 645 C147 611 134 576 122 541 C80 477 32 415 -18 358 C-34 340 -49 324 -65 307 C-69 303 -62 296 -57 300 C4 364 60 434 111 507 C94 455 80 403 68 350 C57 298 48 246 47 193 C47 174 48 155 53 137 C57 124 64 110 76 103 C101 87 130 108 149 125 C166 140 180 158 194 177 C212 202 228 229 243 256 C263 294 281 333 297 372 C289 338 281 303 274 268 C264 217 256 165 254 112 C253 74 253 32 269 -5 C274 -18 282 -31 294 -41 C305 -50 319 -56 333 -57 C367 -61 397 -43 422 -23 C458 8 486 48 511 87 C545 140 574 197 600 254 C631 320 659 387 685 455 C712 526 737 598 761 671 C767 688 772 706 777 723 C779 730 770 732 768 726 L768 726 Z M159 611 C165 626 170 640 178 654 C180 659 187 669 190 670 C192 668 186 652 184 646 C174 623 159 600 146 578 C150 589 154 600 159 611 L159 611 Z " />
<glyph glyph-name="X" unicode="X" horiz-adv-x="606" d="M714 705 C713 718 703 732 692 735 C686 737 678 737 670 735 C650 731 630 720 612 710 C584 693 557 673 531 653 C498 628 466 601 434 573 C397 540 362 506 327 472 C306 452 285 431 265 410 C266 421 266 432 266 443 C268 477 271 511 273 544 C276 573 279 602 283 631 C285 651 288 672 292 693 C293 696 294 700 294 703 C296 710 286 712 285 706 C281 688 278 668 275 649 C271 622 268 594 265 566 C262 533 259 499 258 465 C256 443 256 422 255 400 C241 385 228 371 214 357 C176 316 139 275 103 232 C67 190 32 147 -2 104 C-33 62 -64 20 -93 -23 C-100 -33 -106 -44 -113 -54 C-116 -59 -108 -64 -104 -59 C-77 -17 -49 24 -19 65 C13 108 47 150 81 191 C116 233 152 274 189 314 C210 338 232 362 255 385 C254 375 254 366 254 356 C254 319 255 283 257 246 C259 212 262 178 268 145 C273 116 279 88 290 61 C298 39 309 18 325 1 C339 -13 357 -22 376 -24 C400 -26 423 -17 444 -6 C450 -2 456 2 463 6 C468 10 463 18 457 15 C437 1 414 -12 390 -14 C380 -15 372 -14 363 -11 C355 -9 346 -4 340 1 C324 14 313 33 304 52 C293 77 286 104 281 130 C275 162 271 195 268 227 C265 263 264 298 264 334 C264 355 264 375 265 395 C276 407 287 419 299 431 C334 466 370 501 407 534 C439 564 472 593 506 621 C533 643 561 665 591 684 C611 698 632 713 655 721 C664 724 670 727 678 727 C683 727 691 728 698 720 C707 709 704 693 701 681 C696 656 685 632 673 609 C665 594 656 580 648 565 C644 560 653 554 656 560 C673 587 689 616 701 646 C708 664 715 685 714 705 L714 705 Z " />
<glyph glyph-name="Y" unicode="Y" horiz-adv-x="504" d="M567 730 C561 731 559 724 557 721 C552 713 548 707 543 699 C527 674 511 648 494 623 C470 588 446 553 421 519 C393 481 365 444 334 408 C305 374 274 340 241 310 C214 284 184 261 151 244 C127 232 99 224 73 233 C37 245 27 288 25 321 C21 377 34 433 50 486 C69 550 97 611 132 668 C140 682 149 695 158 708 C162 713 153 718 150 713 C110 658 80 598 56 534 C34 478 18 418 15 357 C13 334 14 310 20 287 C24 270 31 252 44 239 C66 217 98 216 126 224 C160 233 189 254 216 275 C250 302 281 333 310 366 C343 401 373 439 402 477 C429 512 456 549 481 586 C501 616 520 645 540 675 C534 659 525 635 517 614 C497 564 477 513 457 464 C434 409 411 355 387 301 C382 289 377 278 371 267 C309 260 249 233 202 191 C188 177 176 163 164 148 C151 131 139 113 129 94 C114 66 102 36 100 4 C99 -16 101 -38 114 -53 C123 -65 138 -70 152 -67 C164 -65 175 -59 185 -52 C198 -42 210 -30 221 -17 C250 17 273 55 296 94 C324 144 349 195 373 247 C375 250 376 254 378 258 C418 261 458 255 490 231 C500 224 509 215 516 206 C519 200 528 205 524 211 C492 256 436 271 383 268 C405 316 426 365 447 414 C469 467 491 521 512 575 C529 618 545 661 562 703 C564 708 565 712 567 716 C568 719 573 728 567 730 L567 730 Z M312 146 C290 103 266 61 238 21 C220 -5 198 -33 171 -49 C161 -55 152 -59 141 -58 C127 -57 118 -45 113 -31 C106 -9 110 15 116 37 C126 73 145 106 167 135 C189 164 213 190 243 210 C270 227 299 241 330 249 C341 252 354 255 367 256 C349 219 331 182 312 146 L312 146 Z " />
<glyph glyph-name="Z" unicode="Z" horiz-adv-x="553" d="M605 696 C588 723 557 735 527 737 C484 740 441 724 403 706 C352 682 305 650 262 614 C213 574 168 530 127 482 C86 435 50 384 19 329 C12 317 6 304 -1 291 C-3 285 5 280 8 286 C34 340 67 391 104 438 C143 487 185 533 232 575 C275 614 321 649 370 678 C409 701 452 720 497 726 C528 730 563 726 586 703 C605 685 610 657 608 631 C605 594 591 557 574 525 C551 480 522 438 490 400 C452 353 409 311 363 272 C312 228 257 189 199 155 C184 146 169 138 154 130 C148 127 153 119 159 121 C193 138 230 154 268 159 C286 161 309 160 321 145 C331 134 331 120 325 106 C317 89 303 74 290 61 C257 30 219 4 179 -17 C163 -11 146 -8 129 -9 C115 -10 101 -13 89 -20 C81 -25 72 -32 70 -42 C67 -57 82 -61 94 -60 C112 -58 131 -50 148 -43 C158 -38 169 -33 180 -28 C185 -30 190 -33 194 -36 C201 -40 207 -46 212 -52 C216 -57 223 -50 219 -45 C211 -35 201 -28 190 -22 C223 -4 255 17 283 41 C300 56 317 73 329 92 C337 107 342 124 335 141 C327 160 308 168 289 169 C275 170 260 168 246 165 C239 163 231 161 224 159 C262 182 299 208 334 236 C384 275 431 318 473 365 C509 405 542 448 569 494 C590 530 608 569 615 609 C620 638 621 670 605 696 L605 696 Z M110 -46 C104 -48 97 -49 91 -50 C84 -51 79 -49 79 -46 C83 -32 98 -26 110 -22 C128 -17 148 -18 167 -23 C149 -32 130 -41 110 -46 L110 -46 Z " />
<glyph glyph-name="bracketleft" unicode="&#x5b;" horiz-adv-x="372" d="M359 737 C382 737 404 736 427 734 C439 733 451 732 464 731 C470 731 470 741 464 742 C418 744 371 750 325 744 C308 742 291 738 275 728 C260 719 248 705 241 689 C235 677 231 664 228 652 C224 638 219 624 215 611 C206 584 198 558 190 532 C175 482 166 460 149 410 C120 312 89 215 56 118 C38 63 20 8 0 -47 C-7 -72 -17 -97 -25 -122 C-29 -135 -33 -148 -34 -161 C-38 -184 -35 -209 -16 -225 C8 -246 47 -247 79 -245 C92 -245 105 -243 118 -242 C125 -241 122 -231 116 -232 C92 -235 68 -237 45 -235 C30 -234 14 -232 0 -224 C-19 -214 -26 -194 -26 -172 C-24 -139 -9 -106 1 -75 C20 -21 38 33 57 87 C89 183 119 279 149 375 C180 474 205 545 236 644 C242 665 247 688 262 705 C274 717 288 725 303 729 C321 735 340 736 359 737 L359 737 Z " />
<glyph glyph-name="backslash" unicode="&#x5c;" horiz-adv-x="265" d="M241 -237 C229 -179 217 -120 205 -62 C192 4 179 70 166 136 C152 204 139 272 125 340 C113 405 100 470 87 535 C76 592 64 649 53 706 C51 713 50 719 49 725 C47 732 38 729 39 723 C50 667 62 611 73 556 C86 491 98 427 111 362 C124 294 138 227 151 159 C164 92 177 26 191 -41 C203 -100 215 -160 227 -220 C229 -227 230 -233 232 -240 C233 -246 243 -244 241 -237 L241 -237 Z " />
<glyph glyph-name="bracketright" unicode="&#x5d;" horiz-adv-x="369" d="M353 730 C342 738 327 741 313 743 C292 745 271 745 250 743 C236 742 222 741 208 739 C202 738 201 728 207 729 C233 732 259 735 284 735 C301 735 318 733 333 728 C342 725 352 719 358 711 C364 702 366 692 366 681 C366 666 362 652 359 637 C352 617 346 596 338 575 C322 525 315 508 297 458 C277 402 256 346 236 290 C214 232 193 173 173 114 C152 55 134 -5 117 -65 C108 -94 100 -123 93 -152 C89 -167 85 -181 82 -196 C81 -202 79 -207 75 -212 C65 -222 51 -226 37 -229 C19 -233 1 -234 -16 -234 C-51 -235 -85 -231 -121 -229 C-126 -228 -132 -228 -138 -227 C-144 -227 -145 -237 -139 -237 C-106 -239 -74 -243 -41 -244 C-22 -245 -3 -245 15 -243 C32 -241 48 -238 64 -231 C77 -225 88 -215 91 -202 C95 -188 98 -174 101 -160 C105 -145 109 -130 113 -115 C129 -54 147 6 168 66 C187 127 209 188 230 248 C252 306 273 364 294 421 C313 474 322 494 341 547 C347 570 356 593 362 617 C368 633 372 649 375 666 C378 691 374 716 353 730 L353 730 Z " />
<glyph glyph-name="asciicircum" unicode="&#x5e;" horiz-adv-x="179" d="M134 725 C129 726 123 720 120 716 C111 708 104 699 96 690 C75 665 55 637 37 609 C33 604 42 599 46 604 C61 628 78 651 96 673 C107 688 119 704 133 714 C135 706 134 696 133 689 C131 664 128 639 124 614 C119 583 114 551 110 519 C109 512 119 512 120 519 C128 575 139 632 143 689 C144 697 144 706 143 714 C143 719 140 725 134 725 L134 725 Z " />
<glyph glyph-name="underscore" unicode="&#x5f;" horiz-adv-x="204" d="M174 225 C131 224 88 223 46 222 C39 221 39 211 46 212 C88 213 131 214 174 215 C181 215 181 225 174 225 L174 225 Z " />
<glyph glyph-name="grave" unicode="&#x60;" horiz-adv-x="128" d="M63 666 C59 671 52 664 56 659 C69 644 81 628 90 611 C93 606 102 611 99 617 C89 634 77 651 63 666 L63 666 Z " />
<glyph glyph-name="a" unicode="a" horiz-adv-x="193" d="M193 300 C193 300 148 254 124 233 C111 222 96 209 81 202 C79 201 74 199 71 200 C65 201 65 207 64 211 C63 227 69 251 75 267 C80 287 88 307 97 325 C100 331 92 334 88 329 C78 315 67 300 55 286 C42 271 29 254 12 243 C7 240 1 236 -5 237 C-10 238 -11 244 -11 250 C-10 271 3 295 19 311 C26 316 32 322 39 326 C43 329 49 331 54 331 C62 331 62 321 62 315 C61 308 71 308 72 315 C73 324 71 334 63 338 C55 344 44 340 35 334 C9 319 -10 292 -18 264 C-21 255 -22 244 -19 235 C-14 228 -8 226 0 228 C9 229 16 235 24 241 C33 248 42 257 49 266 C58 275 66 284 73 294 C71 287 68 280 66 273 C60 252 45 202 62 193 C67 190 72 190 78 191 C93 194 108 207 119 217 C147 240 171 264 197 290 C201 294 199 298 193 300 L193 300 Z " />
<glyph glyph-name="b" unicode="b" horiz-adv-x="271" d="M271 300 C271 300 196 249 154 230 C148 227 141 224 134 221 C134 222 135 222 135 222 C156 244 173 271 173 302 C174 315 171 330 161 340 C151 350 135 353 120 351 C89 347 61 324 40 302 C18 279 1 252 -13 224 C-6 249 2 274 10 298 C53 373 96 447 137 522 C157 557 176 593 194 629 C206 654 219 679 226 705 C228 712 230 720 229 727 C227 734 220 736 213 735 C203 733 195 724 188 717 C176 704 166 689 156 674 C129 630 107 583 87 536 C67 491 50 445 33 398 C22 366 11 334 1 302 C0 302 0 301 0 300 C-1 299 -1 298 -1 297 C-19 241 -36 184 -51 128 C-58 106 -64 83 -70 61 C-72 49 -75 37 -78 26 C-79 19 -70 17 -68 23 C-60 57 -51 90 -42 124 C-39 133 -36 143 -33 152 C-20 190 -3 228 21 262 C41 291 66 318 98 334 C109 339 120 343 133 341 C145 340 157 333 161 321 C170 295 156 265 141 245 C132 233 122 223 110 213 C104 211 97 209 90 207 C79 205 67 202 56 201 C45 200 35 199 25 196 C12 193 -3 187 -8 174 C-11 166 -10 156 -1 153 C7 151 16 153 23 155 C35 158 47 162 58 168 C78 177 98 189 115 204 C124 207 132 210 140 213 C186 232 232 259 272 289 C277 292 276 299 271 300 L271 300 Z M0 0 C0 0 0 0 0 0 L0 0 Z M141 628 C152 648 163 667 176 686 C184 698 193 710 204 719 C207 721 211 724 214 725 C221 727 219 720 218 715 C213 692 202 670 192 648 C176 614 158 581 140 547 C103 480 64 413 26 346 C26 347 27 348 27 350 C59 445 94 539 141 628 L141 628 Z M73 187 C62 181 50 175 38 170 C29 167 20 163 11 162 C8 161 -1 162 -1 167 C0 175 10 181 20 184 C39 191 59 191 78 194 C82 195 85 196 89 197 C84 193 79 190 73 187 L73 187 Z " />
<glyph glyph-name="c" unicode="c" horiz-adv-x="212" d="M212 300 C212 300 193 286 184 279 C168 267 152 256 136 245 C118 233 99 222 80 213 C64 205 46 198 28 198 C14 198 0 203 -7 216 C-15 230 -12 247 -8 261 C-2 280 9 297 21 312 C34 327 49 341 67 351 C80 359 96 366 112 364 C119 363 128 360 129 352 C130 341 125 330 120 321 C118 317 115 314 112 311 C108 306 115 299 119 304 C127 311 132 322 136 332 C139 342 141 356 134 365 C122 378 99 376 85 371 C65 365 48 352 33 338 C17 323 2 306 -8 286 C-17 269 -24 250 -22 231 C-20 215 -10 199 5 192 C22 185 41 188 57 193 C79 200 99 210 118 222 C150 241 189 269 214 290 C219 294 219 298 212 300 L212 300 Z " />
<glyph glyph-name="d" unicode="d" horiz-adv-x="340" d="M340 300 C340 300 283 242 250 220 C239 213 226 204 213 206 C200 208 192 221 187 232 C175 259 173 290 175 320 C177 341 180 362 184 382 C213 436 240 491 266 547 C290 597 313 648 330 700 C334 713 339 728 338 742 C337 753 326 756 317 749 C305 740 296 724 289 710 C276 687 265 663 254 638 C228 576 206 512 189 446 C184 426 179 406 175 385 C159 355 143 325 124 296 C104 264 79 232 47 212 C38 206 28 201 17 200 C9 199 2 201 -3 209 C-11 219 -10 234 -8 246 C-6 263 0 279 9 294 C19 310 32 325 49 335 C64 343 82 349 99 342 C112 337 118 324 118 310 C118 304 128 304 128 310 C129 325 122 341 108 349 C93 358 74 356 58 350 C21 336 -5 300 -15 263 C-21 240 -25 200 4 191 C27 184 53 202 69 215 C100 240 123 274 143 307 C152 323 161 338 169 354 C165 321 162 295 166 270 C169 253 173 235 181 220 C188 208 199 197 213 196 C227 194 242 203 254 210 C271 221 286 235 301 249 C316 263 328 275 344 290 C348 294 346 299 340 300 L340 300 Z M244 586 C254 613 265 640 278 666 C287 686 296 705 308 723 C313 731 325 746 327 744 C328 743 328 733 326 726 C321 708 316 691 310 674 C301 649 290 625 280 601 C255 544 228 488 200 433 C197 429 195 424 193 420 C206 476 224 531 244 586 L244 586 Z " />
<glyph glyph-name="e" unicode="e" horiz-adv-x="212" d="M212 300 C212 300 187 282 175 273 C154 258 134 243 112 230 C91 218 69 205 45 199 C29 194 9 191 -4 204 C-18 217 -17 237 -12 253 C-6 272 4 290 16 306 C18 295 24 284 34 278 C46 272 60 273 73 276 C101 283 127 305 139 332 C145 346 145 362 131 371 C123 376 113 378 104 377 C81 375 59 361 42 347 C21 329 3 308 -10 284 C-20 265 -29 241 -24 219 C-19 199 -2 186 18 185 C42 184 66 195 87 205 C130 226 184 263 217 292 C221 296 218 299 212 300 L212 300 Z M79 359 C93 366 114 373 128 361 C139 352 130 335 124 326 C117 315 108 305 98 298 C86 290 73 284 59 284 C48 283 37 285 31 294 C27 300 26 306 26 312 C26 313 25 314 24 315 C39 333 58 349 79 359 L79 359 Z " />
<glyph glyph-name="f" unicode="f" horiz-adv-x="223" d="M298 809 C289 813 278 808 271 803 C258 795 247 784 237 773 C205 738 178 697 155 656 C120 596 92 533 65 469 C37 403 12 335 -11 266 C-29 237 -57 186 -47 165 C-48 166 -49 166 -51 166 C-57 168 -60 158 -53 157 C-50 156 -48 155 -45 154 C-54 122 -62 90 -68 58 C-72 33 -76 8 -76 -17 C-76 -33 -75 -51 -66 -65 C-59 -77 -45 -84 -35 -71 C-29 -63 -26 -54 -23 -46 C-19 -34 -17 -21 -14 -9 C-9 21 -8 51 -10 81 C-11 104 -14 132 -29 151 C-30 153 -32 155 -34 157 C-32 157 -31 157 -29 157 C-20 157 -12 159 -3 162 C42 181 80 205 119 228 C155 250 187 267 226 290 C232 293 229 299 223 300 C223 300 104 228 43 195 C21 183 -5 167 -31 167 C-27 183 -22 200 -17 216 C-12 230 -7 245 -3 259 C2 266 6 273 10 279 C17 288 24 297 30 307 C52 337 74 368 96 398 C123 436 150 474 176 512 C200 547 225 583 245 620 C266 658 285 698 298 740 C303 754 307 769 308 785 C308 793 307 805 298 809 L298 809 Z M-39 181 C-38 192 -33 204 -28 214 C-32 201 -36 188 -39 175 C-39 181 -39 181 -39 181 L-39 181 Z M-24 113 C-18 86 -18 57 -20 30 C-22 4 -25 -22 -34 -46 C-36 -53 -43 -69 -48 -70 C-58 -65 -63 -49 -65 -33 C-68 -12 -65 10 -62 31 C-56 70 -48 108 -37 146 C-31 136 -26 125 -24 113 L-24 113 Z M297 774 C294 757 289 741 283 725 C276 705 267 686 258 667 C240 628 218 592 195 557 C170 520 145 484 119 448 C83 396 46 346 9 295 C24 338 41 382 58 425 C81 482 105 540 133 595 C154 638 178 679 206 718 C218 735 231 751 244 767 C254 777 265 788 277 795 C282 798 291 803 295 799 C300 794 298 781 297 774 L297 774 Z " />
<glyph glyph-name="g" unicode="g" horiz-adv-x="310" d="M310 300 C239 227 168 156 95 87 C85 77 74 66 63 56 C74 83 84 109 93 136 C114 195 132 255 147 316 C149 324 151 332 152 339 C153 344 154 349 155 353 C155 356 153 358 149 358 C144 358 139 346 137 343 C133 336 128 329 123 322 C126 336 127 356 113 365 C89 381 59 366 40 349 C15 328 -37 261 -5 229 C10 214 45 231 59 241 C71 249 82 259 92 269 C91 265 98 262 101 266 C108 276 113 287 117 298 C125 308 133 318 140 328 C138 320 136 313 134 305 C127 277 119 249 111 221 C92 160 71 99 45 39 C16 11 -14 -17 -44 -46 C-72 -73 -100 -100 -122 -132 C-130 -143 -138 -155 -143 -167 C-149 -181 -158 -202 -148 -216 C-143 -224 -133 -225 -124 -223 C-109 -219 -97 -208 -86 -198 C-54 -168 -30 -129 -8 -92 C15 -52 36 -9 54 33 C57 36 60 39 62 42 C128 104 193 167 257 231 C277 252 295 270 315 291 C319 295 316 299 310 300 L310 300 Z M51 248 C32 236 -6 221 -5 252 C-4 287 33 337 66 355 C76 361 89 364 100 360 C106 359 111 356 113 350 C116 342 115 333 114 325 C113 318 111 310 108 303 C105 298 101 294 97 290 C83 274 68 259 51 248 L51 248 Z M27 -2 C10 -40 -10 -77 -32 -112 C-44 -130 -56 -148 -70 -165 C-82 -181 -97 -197 -114 -207 C-119 -210 -124 -213 -130 -214 C-136 -214 -138 -213 -140 -210 C-143 -205 -142 -196 -141 -191 C-137 -177 -132 -167 -125 -155 C-108 -125 -85 -101 -60 -76 C-29 -45 3 -14 35 16 C32 10 30 4 27 -2 L27 -2 Z " />
<glyph glyph-name="h" unicode="h" horiz-adv-x="287" d="M287 300 C267 283 247 266 226 250 C212 240 198 229 181 223 C172 220 159 217 151 225 C142 233 141 247 139 258 C137 273 137 287 133 301 C131 313 126 325 115 330 C100 337 86 329 74 320 C58 307 46 289 35 272 C14 241 -5 208 -23 175 C-17 206 -8 238 0 268 C3 276 5 284 8 293 C28 337 48 374 68 410 C93 454 118 497 142 540 C165 581 188 621 209 662 C224 691 240 721 249 752 C253 765 258 792 237 791 C226 791 217 783 209 776 C196 762 185 746 175 730 C147 686 125 639 104 591 C86 547 69 504 53 460 C35 409 17 359 2 308 C-12 263 -25 219 -33 173 C-34 165 -36 156 -37 147 C-37 142 -30 141 -28 145 C-7 182 13 219 35 254 C46 272 58 289 72 304 C81 313 96 328 110 322 C120 317 123 304 125 294 C127 280 128 265 130 251 C132 239 135 226 144 217 C153 209 167 209 178 212 C196 216 212 228 226 238 C250 256 268 271 290 290 C295 294 292 298 287 300 L287 300 Z M48 415 C64 462 81 508 99 553 C117 597 137 640 159 682 C171 704 183 726 198 746 C206 757 215 770 227 777 C232 780 239 782 242 780 C244 777 243 769 242 764 C240 753 235 742 231 731 C225 715 217 700 210 685 C190 646 169 608 148 571 C124 528 99 485 75 443 C59 413 42 384 27 354 C33 374 40 395 48 415 L48 415 Z " />
<glyph glyph-name="i" unicode="i" horiz-adv-x="189" d="M124 262 C102 249 52 217 30 204 C22 200 2 186 -5 194 C-10 198 -10 217 -7 237 C-1 278 17 316 37 352 C40 358 31 363 28 357 C9 323 -7 286 -15 248 C-17 236 -19 223 -19 211 C-19 203 -18 195 -13 189 C-4 177 13 184 23 189 C45 200 65 214 85 227 C124 251 149 264 192 289 C198 292 195 298 189 300 L124 262 Z M65 413 L74 434 C77 440 68 445 65 439 L56 418 C53 412 62 407 65 413 L65 413 Z " />
<glyph glyph-name="j" unicode="j" horiz-adv-x="187" d="M52 419 C55 425 46 430 43 425 C40 417 37 410 33 403 C31 397 39 392 42 398 L52 419 Z M41 173 C3 140 -34 106 -71 72 C-63 96 -54 120 -45 144 C-24 201 -4 258 16 315 L32 362 C34 368 25 370 22 364 C2 306 -18 248 -39 190 C-55 145 -71 101 -88 57 L-163 -13 C-201 -49 -236 -90 -261 -137 C-270 -155 -279 -172 -283 -192 C-286 -204 -288 -219 -283 -231 C-276 -252 -251 -247 -236 -237 C-225 -229 -215 -219 -206 -208 C-193 -193 -182 -177 -172 -160 C-143 -111 -120 -58 -100 -5 L-79 52 L21 142 C65 182 111 222 157 261 L188 288 C193 292 192 297 187 300 L41 173 Z M-160 -116 C-177 -151 -197 -186 -224 -214 C-232 -222 -241 -230 -251 -234 C-265 -239 -273 -234 -275 -225 C-279 -208 -269 -179 -261 -160 C-240 -112 -207 -69 -169 -33 C-145 -9 -120 14 -95 37 C-115 -15 -134 -67 -160 -116 L-160 -116 Z " />
<glyph glyph-name="k" unicode="k" horiz-adv-x="343" d="M343 300 C306 262 266 224 220 196 C193 179 162 164 130 163 C94 161 64 186 40 211 C34 217 29 223 23 229 C34 229 45 231 56 232 C97 237 142 247 175 273 C193 287 208 309 201 332 C195 349 178 359 161 362 C92 375 31 296 10 244 C6 248 2 253 -3 257 C1 271 5 286 10 300 C47 341 81 384 114 428 C146 470 177 514 205 558 C229 595 252 633 272 673 C285 698 302 732 304 754 C306 771 302 786 283 786 C253 783 226 749 211 730 C176 686 147 636 121 586 C93 534 68 480 45 425 C29 385 14 345 1 304 C-4 289 -8 275 -12 261 C-13 261 -14 261 -14 261 C-19 261 -22 258 -23 254 C-25 248 -22 243 -18 240 C-32 189 -44 138 -51 86 C-53 73 -55 60 -56 47 C-57 41 -48 40 -46 46 C-32 94 -19 143 -2 190 C3 202 8 214 13 226 C20 217 28 209 36 201 C60 177 89 153 124 153 C154 152 183 163 208 177 C249 199 286 230 319 262 C330 272 336 279 346 289 C351 294 349 298 343 300 L343 300 Z M106 536 C132 588 159 640 192 688 C205 706 219 724 234 741 C243 751 277 784 291 774 C304 765 279 708 272 695 C254 658 234 623 213 588 C158 500 96 415 28 336 C25 332 21 328 18 324 C24 341 30 358 36 374 C57 429 80 483 106 536 L106 536 Z M64 308 C79 324 98 339 119 347 C139 355 168 357 185 340 C199 325 192 304 179 290 C154 264 116 252 82 246 C61 242 40 239 19 239 C31 264 46 287 64 308 L64 308 Z M-2 242 C-4 243 -6 243 -7 244 C-7 244 -7 245 -6 246 C-5 245 -3 244 -2 242 L-2 242 Z M-37 114 C-30 154 -21 195 -10 234 C-5 233 -1 232 4 231 C-13 193 -25 153 -37 114 L-37 114 Z " />
<glyph glyph-name="l" unicode="l" horiz-adv-x="242" d="M-12 214 C-7 240 0 265 7 291 C55 355 101 421 143 489 C175 540 206 592 232 647 C246 676 260 706 268 737 C271 748 280 782 260 784 C244 786 229 770 219 759 C196 735 177 707 160 679 C133 636 109 592 89 545 C69 499 50 451 33 403 C20 367 8 331 -2 295 C-11 269 -24 207 -28 176 C-32 150 -36 108 -14 90 C0 79 19 83 34 90 C64 103 89 126 113 148 C145 177 175 210 205 242 C220 259 232 272 246 289 C251 293 248 299 242 300 C213 266 183 233 152 201 C116 162 69 118 31 100 C22 96 12 92 3 93 C-6 95 -11 102 -16 110 C-28 132 -18 183 -12 214 L-12 214 Z M30 364 C47 413 65 462 85 511 C99 543 113 576 130 608 C149 645 171 681 195 715 C204 726 213 738 223 749 C229 756 237 763 245 769 C250 772 254 774 260 774 C263 774 263 764 263 762 C262 751 259 740 256 730 C251 715 245 701 239 687 C215 630 185 577 153 525 C117 465 78 407 38 350 C30 339 23 329 16 319 C20 334 25 349 30 364 L30 364 Z " />
<glyph glyph-name="m" unicode="m" horiz-adv-x="362" d="M362 300 C344 281 326 261 308 243 C297 231 260 194 247 197 C236 200 243 239 243 243 C245 258 247 273 248 288 C248 298 247 312 238 317 C228 323 218 316 211 310 C188 289 167 259 149 233 C144 226 139 218 133 212 C133 213 133 215 133 216 C134 229 136 241 138 253 C142 284 148 316 146 347 C146 366 141 397 115 391 C102 388 90 378 81 369 C67 356 54 340 43 324 C23 298 5 270 -11 241 C1 274 13 307 25 339 C27 345 18 348 15 342 C-5 288 -25 234 -42 179 C-44 173 -36 170 -33 175 C-15 215 7 255 32 292 C44 310 57 327 71 344 C82 358 106 383 121 383 C149 383 130 269 129 259 C127 246 125 233 123 220 C123 214 121 203 126 199 C134 193 142 206 145 211 C155 223 163 235 172 248 C182 262 192 276 203 289 C211 297 225 312 232 309 C242 305 235 256 234 249 C232 235 230 221 232 207 C233 197 237 188 249 187 C263 186 279 202 290 211 C309 228 326 246 343 265 C352 274 360 283 369 293 C373 297 366 304 362 300 L362 300 Z " />
<glyph glyph-name="n" unicode="n" horiz-adv-x="238" d="M238 300 C219 286 200 272 181 258 C165 247 149 236 129 229 C124 227 118 226 115 227 C112 240 114 254 116 271 C119 291 125 332 113 346 C105 355 92 353 82 349 C67 342 54 329 43 317 C23 294 6 268 -10 241 C2 277 15 313 29 347 C31 353 22 356 19 350 C-1 301 -18 252 -32 201 C-34 196 -26 192 -23 197 C-4 232 16 268 42 300 C53 313 65 327 80 336 C86 340 92 342 98 343 C102 343 104 343 106 340 C111 332 110 318 109 309 C107 281 103 253 104 235 C104 228 106 222 110 219 C114 216 120 217 125 218 C145 221 163 234 180 245 C201 260 217 272 238 288 C243 292 245 296 238 300 L238 300 Z " />
<glyph glyph-name="o" unicode="o" horiz-adv-x="217" d="M217 300 C197 289 177 277 158 266 C141 257 125 248 107 243 C107 243 107 243 106 243 C114 256 120 270 126 284 C138 314 144 352 129 383 C121 396 109 406 93 406 C80 407 68 403 57 397 C35 384 21 360 15 336 C13 328 11 319 11 310 C10 310 10 310 10 310 C-9 295 -18 266 -21 243 C-24 221 -24 189 -4 174 C20 156 52 176 70 194 C81 205 90 217 99 230 C131 237 161 256 189 273 C200 279 207 283 218 290 C223 293 222 298 217 300 L217 300 Z M21 313 C23 335 31 358 46 375 C53 383 62 389 72 393 C83 397 96 399 107 393 C119 385 125 369 127 356 C129 340 128 323 123 308 C117 284 106 261 92 239 C73 236 51 238 37 253 C22 269 19 292 21 313 L21 313 Z M81 223 C67 203 43 176 15 178 C-7 180 -12 205 -12 224 C-12 247 -6 273 7 292 C8 294 9 295 11 297 C11 285 14 273 19 262 C23 252 31 243 40 237 C52 230 66 228 79 228 C81 228 83 228 85 228 C84 227 83 225 81 223 L81 223 Z " />
<glyph glyph-name="p" unicode="p" horiz-adv-x="303" d="M303 300 C249 263 189 235 126 215 C141 228 155 242 166 258 C178 275 185 297 183 318 C182 337 173 354 157 365 C140 375 118 376 99 372 C63 362 35 333 12 304 C21 331 30 357 39 384 C40 390 31 392 29 386 C17 350 5 314 -7 277 C-31 242 -51 204 -69 165 C-86 126 -100 87 -112 47 C-126 -3 -139 -55 -149 -106 C-151 -117 -152 -128 -154 -139 C-155 -145 -146 -148 -144 -141 C-119 -73 -94 -4 -70 65 C-47 130 -24 196 -2 261 C-1 265 0 270 2 274 C20 300 41 326 67 344 C80 354 96 362 113 364 C131 366 151 361 163 346 C174 332 175 313 172 295 C166 272 151 253 134 236 C124 226 112 217 100 208 C73 201 45 195 17 189 C9 187 -2 185 -9 179 C-11 177 -13 173 -11 169 C-9 166 -5 165 -2 164 C12 162 26 165 39 168 C61 174 84 184 103 198 C106 199 109 200 112 201 C165 216 217 237 266 265 C280 273 291 280 305 290 C310 293 309 298 303 300 L303 300 Z M-110 -19 C-118 -42 -127 -64 -135 -87 C-129 -57 -121 -28 -114 1 C-103 41 -92 81 -77 120 C-61 160 -43 199 -21 236 C-28 216 -35 196 -42 176 C-64 111 -87 46 -110 -19 L-110 -19 Z M17 174 C12 174 7 173 2 174 C18 181 34 183 51 187 C59 189 64 189 70 190 C53 182 35 176 17 174 L17 174 Z " />
<glyph glyph-name="q" unicode="q" horiz-adv-x="287" d="M287 300 C235 264 181 230 125 199 C109 190 92 182 75 173 C78 181 81 188 85 195 C102 233 121 271 141 308 C145 315 149 322 153 328 C156 334 148 339 144 333 C129 310 111 288 91 268 C80 257 69 247 57 238 C47 231 37 224 25 220 C17 218 7 216 1 222 C-7 229 -8 240 -7 250 C-5 279 13 308 36 326 C50 337 69 345 88 340 C102 337 110 326 106 311 C104 305 114 302 116 309 C119 323 115 337 102 345 C88 354 70 353 55 348 C21 336 -4 302 -14 269 C-20 246 -20 211 10 208 C22 207 34 212 44 218 C58 225 70 235 82 245 C93 255 103 265 113 276 C105 260 97 245 90 229 C80 208 70 188 61 167 C54 163 47 160 40 157 C29 151 14 147 7 135 C0 124 6 109 11 99 C15 91 19 83 23 75 C9 37 -5 -1 -16 -41 C-20 -58 -25 -76 -27 -94 C-29 -107 -30 -121 -28 -135 C-27 -143 -24 -153 -16 -158 C-4 -164 8 -158 18 -152 C37 -139 53 -119 63 -99 C76 -74 84 -44 79 -17 C74 9 61 33 48 55 C43 62 39 69 35 77 C45 104 57 132 69 160 C80 165 91 170 102 175 C151 201 198 229 244 259 C260 270 273 278 289 289 C295 293 293 298 287 300 L287 300 Z M47 35 C59 14 71 -10 71 -34 C70 -63 59 -91 42 -114 C35 -123 28 -131 19 -138 C13 -143 5 -149 -2 -151 C-9 -153 -13 -150 -16 -143 C-19 -136 -19 -123 -19 -114 C-18 -98 -15 -83 -12 -67 C-2 -25 12 17 28 58 C28 60 29 62 30 64 C36 55 42 45 47 35 L47 35 Z M30 93 C29 91 29 89 28 87 C28 88 28 88 28 88 C23 96 18 105 15 114 C14 117 13 120 13 124 C13 132 26 139 32 142 C40 146 47 149 55 153 C46 133 38 113 30 93 L30 93 Z " />
<glyph glyph-name="r" unicode="r" horiz-adv-x="188" d="M160 325 C155 345 139 358 119 358 C100 358 83 350 68 339 C32 313 6 273 -15 235 C-5 263 6 291 18 319 C24 334 31 348 37 363 C39 368 31 374 28 368 C6 317 -16 265 -34 213 C-40 195 -46 178 -51 161 C-53 154 -44 152 -42 158 C-25 199 -4 239 22 276 C34 292 47 308 63 322 C75 333 89 342 105 346 C114 349 125 349 134 344 C143 340 148 332 150 322 C152 316 161 319 160 325 L160 325 Z " />
<glyph glyph-name="s" unicode="s" horiz-adv-x="210" d="M210 300 C167 263 122 229 74 200 C62 193 50 186 38 179 C37 182 37 186 36 189 C33 209 28 229 23 248 C17 265 10 282 10 300 C10 328 26 355 52 365 C62 368 72 370 81 367 C83 366 87 363 88 360 C90 357 91 352 91 348 C90 341 88 334 85 328 C83 323 91 317 94 323 C99 335 104 349 99 361 C95 370 87 376 77 378 C52 382 27 365 14 346 C5 333 1 317 0 302 C0 284 6 266 12 249 C20 224 26 199 28 173 C8 162 -11 151 -30 139 C-65 117 -97 90 -123 58 C-140 37 -155 14 -164 -12 C-170 -31 -174 -51 -171 -71 C-168 -84 -160 -97 -146 -100 C-125 -104 -104 -95 -87 -85 C-41 -59 -6 -15 15 33 C34 76 42 122 39 168 C44 171 49 173 54 176 C98 202 140 230 180 262 C192 272 204 282 213 289 C218 293 215 298 210 300 L210 300 Z M28 120 C22 64 -1 9 -39 -33 C-56 -52 -76 -69 -99 -80 C-108 -85 -118 -89 -128 -90 C-135 -91 -144 -92 -150 -87 C-162 -80 -163 -62 -162 -49 C-160 -26 -151 -4 -140 17 C-117 57 -83 91 -45 117 C-22 134 4 148 29 162 C30 148 30 134 28 120 L28 120 Z " />
<glyph glyph-name="t" unicode="t" horiz-adv-x="225" d="M408 563 C373 550 337 544 301 541 C261 537 220 537 180 537 C169 537 159 537 148 538 C171 582 191 627 207 674 C212 689 229 732 212 740 C202 745 191 737 185 731 C172 718 162 703 153 687 C124 640 100 590 79 538 C72 538 65 538 58 538 C24 538 -11 537 -45 531 C-73 526 -103 518 -123 497 C-128 492 -121 485 -116 489 C-99 507 -74 515 -51 520 C-17 526 17 528 50 528 C59 528 67 528 75 528 C72 520 68 511 65 502 C40 438 23 377 1 306 C0 303 -1 299 -1 296 C-18 237 -32 178 -41 118 C-48 80 -54 21 -46 -1 C-43 -10 -37 -20 -26 -19 C-19 -19 -12 -16 -6 -12 C4 -5 13 4 22 13 C36 28 49 43 61 59 C106 115 148 174 190 233 C205 253 216 270 230 291 C234 296 232 299 225 300 C178 232 130 165 80 99 C56 68 30 36 2 8 C-13 -7 -21 -9 -26 -9 C-31 -9 -36 -2 -37 3 C-43 23 -40 55 -37 82 C-30 140 -17 197 -2 254 C1 268 5 282 9 296 C47 355 82 416 116 477 C125 494 134 511 143 528 C192 527 241 526 291 530 C331 533 372 539 410 553 C416 555 414 565 408 563 L408 563 Z M123 611 C133 631 144 651 155 671 C160 680 194 738 207 732 C219 727 197 675 194 665 C187 647 179 628 171 610 C160 586 149 562 137 538 C121 538 106 538 90 538 C100 563 111 587 123 611 L123 611 Z M127 518 C92 455 57 392 18 330 C30 369 42 409 56 448 C65 475 75 502 86 528 C101 528 116 528 132 528 C130 525 128 521 127 518 L127 518 Z " />
<glyph glyph-name="u" unicode="u" horiz-adv-x="248" d="M248 300 C230 284 212 267 194 251 C181 239 168 225 152 216 C148 214 143 212 138 213 C135 214 133 217 131 221 C126 236 128 253 130 268 C132 283 136 297 141 311 C146 322 151 333 155 344 C157 349 149 353 146 348 C140 337 135 326 131 315 C120 293 107 271 93 252 C76 230 56 206 31 197 C-19 181 1 266 7 288 C15 317 27 346 43 372 C46 377 37 382 34 376 C19 352 8 325 -1 297 C-8 272 -15 245 -11 219 C-10 210 -8 200 -1 193 C15 177 42 189 56 200 C69 209 80 220 90 232 C101 246 112 260 121 275 C118 258 116 238 121 221 C125 208 133 201 147 204 C163 208 177 222 190 233 C212 253 231 272 253 291 C258 295 253 299 248 300 L248 300 Z " />
<glyph glyph-name="v" unicode="v" horiz-adv-x="176" d="M234 433 C171 380 124 310 75 245 C65 232 55 219 45 206 C37 196 28 187 18 179 C12 174 2 168 -3 170 C-8 172 -8 188 -8 190 C-9 211 -6 233 -2 254 C5 284 14 313 25 341 C27 347 17 350 15 344 C5 318 -4 290 -10 263 C-15 243 -27 180 -11 164 C-5 157 7 159 16 164 C47 181 107 273 141 316 C172 355 203 394 241 426 C246 431 239 438 234 433 L234 433 Z " />
<glyph glyph-name="w" unicode="w" horiz-adv-x="313" d="M347 420 C285 365 241 295 191 229 C175 208 134 157 109 169 C87 179 96 235 101 253 C105 267 109 281 114 295 C121 308 127 322 132 336 C134 341 125 345 123 340 C117 326 111 313 106 299 C97 283 89 267 79 251 C65 229 48 206 26 191 C20 187 11 183 4 184 C-17 188 -3 249 -1 261 C7 292 18 323 32 352 C35 358 26 363 24 357 C10 330 -1 300 -9 270 C-14 247 -28 190 -4 177 C4 173 13 174 20 177 C45 187 63 211 78 231 C82 237 86 244 90 250 C86 235 84 220 84 205 C84 192 86 177 95 167 C102 159 114 156 125 158 C150 163 170 187 184 204 C209 234 231 267 254 298 C284 339 316 379 354 413 C359 417 352 424 347 420 L347 420 Z " />
<glyph glyph-name="x" unicode="x" horiz-adv-x="222" d="M222 300 C189 279 157 257 124 237 C97 221 60 198 37 205 C20 210 15 240 12 254 C10 264 10 275 10 286 C42 317 77 347 113 375 C137 394 162 412 188 430 C193 433 188 442 183 438 C121 397 63 351 10 300 C10 330 12 360 17 389 C17 395 8 398 7 392 C3 363 0 334 0 304 C0 300 0 295 0 290 C-23 269 -45 246 -66 223 C-86 200 -106 177 -126 153 C-130 148 -122 141 -118 146 C-82 192 -42 235 0 277 C0 258 3 239 9 222 C13 213 18 204 27 199 C34 194 44 194 53 195 C75 198 96 210 115 221 C153 243 186 265 223 289 C228 292 229 298 222 300 L222 300 Z " />
<glyph glyph-name="y" unicode="y" horiz-adv-x="204" d="M239 155 C191 160 141 156 95 143 C104 162 112 182 121 202 C141 250 160 299 176 348 C179 358 182 368 185 378 C187 384 179 387 176 382 C163 360 149 339 132 319 C116 299 97 281 77 265 C61 254 43 243 23 243 C16 243 10 244 6 251 C3 258 4 268 5 276 C9 303 22 330 38 352 C41 358 33 363 29 357 C14 335 1 310 -4 283 C-7 267 -9 241 11 234 C19 231 30 232 38 235 C49 237 59 242 68 248 C91 262 111 280 129 300 C142 314 153 329 164 344 C153 311 141 278 128 246 C113 210 98 174 82 139 C79 138 75 137 72 136 C26 119 -17 92 -54 60 C-87 30 -115 -4 -137 -42 C-155 -71 -169 -103 -175 -137 C-178 -157 -181 -184 -164 -198 C-145 -215 -120 -200 -105 -187 C-75 -162 -52 -128 -32 -96 C-3 -52 23 -5 47 43 C62 72 76 101 89 131 C124 141 159 147 195 147 C210 147 225 146 239 145 C245 144 245 154 239 155 L239 155 Z M60 91 C36 42 11 -6 -17 -53 C-39 -90 -62 -127 -91 -159 C-100 -170 -111 -180 -123 -188 C-132 -195 -146 -198 -155 -193 C-165 -187 -167 -174 -167 -164 C-167 -125 -154 -95 -141 -69 C-123 -33 -99 1 -70 30 C-38 64 1 92 43 112 C54 118 65 122 76 126 C71 115 65 103 60 91 L60 91 Z " />
<glyph glyph-name="z" unicode="z" horiz-adv-x="255" d="M255 300 C215 243 165 193 111 150 C111 152 110 154 110 156 C102 188 77 212 45 218 C69 226 92 236 113 249 C132 262 150 278 159 300 C165 315 164 335 152 348 C137 364 112 364 92 360 C55 352 23 329 0 300 C-4 295 3 288 7 293 C27 317 53 338 83 347 C101 353 125 356 141 344 C153 336 155 319 151 306 C144 287 128 272 112 261 C82 240 46 227 10 218 C5 217 6 208 12 209 C31 211 50 210 67 200 C80 192 90 180 96 167 C99 159 102 151 102 143 C84 128 65 115 45 102 C16 82 -15 64 -45 46 C-66 34 -88 21 -105 4 C-117 -7 -126 -22 -122 -38 C-119 -46 -114 -55 -107 -59 C-98 -65 -87 -67 -77 -66 C-47 -64 -18 -48 6 -31 C39 -8 67 23 86 58 C102 87 113 113 113 138 C160 175 203 217 240 263 C248 273 253 280 259 288 C263 294 261 298 255 300 L255 300 Z M87 82 C71 46 46 14 16 -11 C-8 -31 -36 -48 -66 -54 C-76 -56 -87 -57 -96 -54 C-103 -51 -108 -45 -111 -39 C-112 -36 -113 -33 -113 -30 C-113 -20 -106 -11 -100 -5 C-84 11 -64 23 -45 34 C-17 51 11 68 39 86 C61 100 82 115 103 131 C101 114 94 97 87 82 L87 82 Z " />
<glyph glyph-name="braceleft" unicode="&#x7b;" horiz-adv-x="334" d="M123 294 C148 327 166 366 183 404 C208 460 230 517 253 576 C260 593 266 610 273 627 C280 643 286 659 295 675 C304 695 318 716 338 730 C349 739 363 744 375 741 C387 738 394 727 396 716 C397 712 399 708 399 704 C398 699 408 701 408 707 C407 721 401 736 389 744 C379 752 365 753 352 748 C335 742 320 727 307 712 C286 687 276 659 264 630 C240 566 214 503 189 440 C171 398 153 354 127 315 C111 292 90 267 64 257 C62 256 59 255 56 254 C50 253 49 250 50 247 C58 217 65 185 63 153 C62 122 55 92 45 62 C32 22 17 -18 3 -58 C-7 -86 -14 -112 -23 -140 C-28 -160 -35 -181 -33 -200 C-31 -214 -25 -228 -15 -235 C0 -244 17 -244 33 -241 C38 -240 43 -239 48 -237 C54 -236 53 -227 47 -228 C29 -233 10 -236 -5 -230 C-15 -224 -23 -213 -25 -199 C-26 -180 -20 -159 -14 -140 C-7 -113 2 -87 12 -60 C25 -21 40 18 53 57 C61 87 70 118 73 147 C75 181 70 215 60 246 C87 255 106 273 123 294 L123 294 Z " />
<glyph glyph-name="bar" unicode="&#x7c;" horiz-adv-x="276" d="M159 338 C181 400 205 462 229 524 C254 588 281 653 307 717 C311 725 313 734 318 742 C320 748 310 751 309 745 C280 680 254 615 230 550 C205 488 182 426 158 364 C135 301 112 239 89 177 C66 113 43 49 20 -15 C-4 -83 -26 -151 -49 -219 C-54 -228 -55 -237 -60 -246 C-62 -253 -52 -255 -51 -249 C-27 -180 -5 -111 20 -42 C43 22 66 87 90 151 C114 213 135 275 159 338 L159 338 Z " />
<glyph glyph-name="braceright" unicode="&#x7d;" horiz-adv-x="250" d="M205 254 C209 254 210 258 208 261 C199 291 190 322 191 354 C189 385 196 415 205 445 C215 484 227 524 240 564 C249 591 256 618 263 646 C269 666 274 686 270 706 C267 720 260 733 248 740 C235 748 216 748 198 746 C193 745 187 744 183 742 C177 740 179 732 184 733 C202 738 222 740 239 735 C249 729 257 718 260 704 C263 685 259 665 253 645 C246 618 239 593 230 566 C219 527 206 488 195 449 C187 420 181 390 180 360 C179 325 187 293 198 262 C174 253 153 234 137 214 C114 181 97 142 81 105 C58 49 39 -9 20 -66 C13 -83 7 -100 2 -117 C-5 -133 -10 -149 -17 -164 C-28 -184 -40 -205 -59 -219 C-70 -228 -85 -233 -98 -231 C-109 -227 -115 -216 -120 -205 C-121 -201 -121 -197 -122 -194 C-122 -188 -132 -191 -131 -196 C-129 -211 -123 -225 -112 -233 C-103 -241 -88 -242 -74 -237 C-56 -231 -40 -216 -29 -201 C-11 -177 0 -148 11 -120 C32 -56 52 6 78 69 C94 111 110 154 134 193 C150 216 169 241 196 251 C197 252 202 253 205 254 L205 254 Z " />
<glyph glyph-name="asciitilde" unicode="&#x7e;" horiz-adv-x="269" d="M226 360 C211 341 195 320 175 304 C167 298 158 292 148 291 C141 290 133 291 129 296 C122 305 124 321 123 332 C122 338 122 343 118 348 C114 354 107 355 101 355 C88 355 77 348 67 341 C55 333 45 323 35 313 C31 308 38 301 42 306 C51 315 60 324 70 332 C79 338 90 345 101 345 C106 345 110 344 112 339 C113 334 113 327 114 322 C114 309 114 294 126 286 C141 274 162 283 175 292 C198 308 216 331 233 353 C237 358 230 365 226 360 L226 360 Z " />
<glyph glyph-name="cent" unicode="&#xa2;" horiz-adv-x="170" d="M130 395 C129 395 128 395 127 395 C129 400 130 404 132 408 C135 418 139 429 143 439 C145 445 147 448 150 453 C153 456 152 463 147 462 C142 462 139 456 137 451 C134 443 131 434 127 426 C124 415 120 405 116 394 C110 392 103 389 97 386 C84 380 72 370 61 359 C34 332 14 294 11 255 C9 227 20 197 49 189 C44 175 39 161 34 147 C32 141 30 136 28 130 C26 126 24 120 23 117 C21 114 20 111 18 108 C18 107 17 106 17 105 C13 104 12 97 17 95 C22 93 26 100 28 104 C32 112 35 120 38 129 C45 148 52 167 59 187 C91 183 121 207 139 233 C142 238 133 243 130 238 C115 216 90 195 62 196 C64 201 65 207 67 212 C79 246 90 281 101 316 C109 339 116 362 124 385 C127 386 130 386 133 385 C136 384 139 383 140 381 C146 373 143 361 139 352 C137 346 147 344 149 350 C153 360 156 372 151 383 C147 391 138 395 130 395 L130 395 Z M99 341 C88 306 76 272 65 237 C61 224 56 211 52 198 C32 204 21 224 21 245 C20 263 25 281 32 297 C39 313 48 328 59 342 C73 358 91 375 113 382 C108 369 104 355 99 341 L99 341 Z " />
<glyph glyph-name="sterling" unicode="&#xa3;" horiz-adv-x="434" d="M418 447 C418 444 418 443 417 440 C416 434 425 431 427 438 C431 460 421 481 403 493 C381 508 353 506 329 496 C289 479 259 442 237 405 C219 373 205 339 192 305 C176 304 159 303 142 303 C126 302 109 302 93 304 C87 304 87 294 93 294 C125 291 157 293 188 295 C180 274 172 253 162 232 C149 206 134 181 116 159 C98 138 79 120 57 104 C57 104 57 104 56 104 C44 101 12 92 23 76 C27 70 59 88 61 94 C61 94 62 95 62 95 C94 101 127 99 159 97 C206 92 252 85 300 85 C312 85 324 85 336 87 C344 88 353 90 360 96 C365 100 358 107 353 103 C349 99 340 98 333 97 C322 95 311 95 300 95 C273 95 246 97 219 100 C172 105 124 113 77 107 C108 133 135 164 156 199 C170 224 181 249 191 275 C194 282 197 289 199 296 C220 297 240 298 260 298 C273 298 286 297 298 294 C304 293 307 302 301 304 C277 309 252 308 228 307 C220 307 212 307 203 306 C211 326 218 345 227 364 C247 407 274 452 315 478 C337 492 364 500 389 489 C406 482 419 466 418 447 L418 447 Z " />
<glyph glyph-name="quoteleft" unicode="&#x2018;" horiz-adv-x="91" d="M35 607 L57 678 C59 684 49 687 47 681 C41 657 32 634 25 610 C23 604 33 601 35 607 L35 607 Z " />
<glyph glyph-name="quoteright" unicode="&#x2019;" horiz-adv-x="107" d="M35 607 L57 678 C59 684 49 687 47 681 C41 657 32 634 25 610 C23 604 33 601 35 607 L35 607 Z " />
<glyph glyph-name="quotedblleft" unicode="&#x201c;" horiz-adv-x="132" d="M31 595 C38 620 45 644 53 668 L56 679 C58 685 48 688 46 682 C39 657 32 633 24 609 L21 598 C19 592 29 589 31 595 L31 595 L31 595 Z M60 569 C71 610 84 649 97 689 C99 695 89 698 87 692 C74 652 62 612 50 572 C48 566 58 563 60 569 L60 569 Z " />
<glyph glyph-name="quotedblright" unicode="&#x201d;" horiz-adv-x="132" d="M31 595 C38 620 45 644 53 668 L56 679 C58 685 48 688 46 682 C39 657 32 633 24 609 L21 598 C19 592 29 589 31 595 L31 595 L31 595 Z M60 569 C71 610 84 649 97 689 C99 695 89 698 87 692 C74 652 62 612 50 572 C48 566 58 563 60 569 L60 569 Z " />
<glyph glyph-name="Euro" unicode="&#x20ac;" horiz-adv-x="399" d="M328 517 C303 520 277 510 255 498 C227 483 203 462 181 439 C157 414 136 385 119 355 C115 348 112 342 108 335 C96 335 85 335 73 335 C66 335 66 325 73 325 C83 325 93 325 103 325 C96 310 90 295 85 280 C64 279 43 279 22 279 C16 279 16 269 22 269 C42 269 62 269 82 269 C81 265 80 261 79 256 C68 205 70 136 122 108 C151 93 187 94 217 102 C250 111 280 130 304 154 C311 159 316 165 322 171 C326 176 319 183 315 178 C273 132 209 93 144 111 C121 117 103 133 93 154 C82 178 82 206 85 232 C87 245 89 258 93 270 C127 270 162 270 196 269 C203 268 203 278 196 279 C163 280 129 280 96 280 C101 295 107 311 115 325 C155 326 196 329 236 325 C243 324 243 334 236 335 C198 339 159 336 120 336 C134 362 150 387 169 410 C189 434 211 456 236 474 C256 489 279 501 304 506 C325 510 347 507 358 487 C366 472 367 452 362 435 C362 432 361 429 359 427 C357 421 365 416 368 422 C376 438 377 459 373 476 C367 498 351 515 328 517 L328 517 Z " />
<glyph glyph-name="f_f" unicode="&#xfb00;" horiz-adv-x="385" d="M450 814 C439 815 429 806 421 799 C405 784 392 765 380 746 C358 712 339 677 322 641 C299 596 280 550 262 503 C241 450 221 397 203 343 C170 307 136 273 99 242 C70 218 38 193 4 178 C-12 171 -30 172 -30 172 C-26 185 -22 198 -18 211 C-12 232 -5 253 2 274 C3 276 3 277 4 278 C11 287 18 297 24 306 C47 337 69 368 92 399 C119 437 146 475 172 514 C197 550 222 586 243 625 C263 663 281 703 294 744 C298 758 301 772 301 788 C301 796 298 806 289 808 C279 811 268 804 260 799 C247 789 235 777 225 765 C192 727 164 684 140 641 C108 584 83 524 59 463 C35 404 14 343 -6 282 C-11 275 -15 268 -20 260 C-24 252 -29 244 -34 235 C-35 234 -35 232 -34 231 C-35 229 -36 227 -37 225 C-42 213 -47 199 -47 186 C-47 180 -45 173 -41 169 C-42 167 -43 164 -43 162 C-47 166 -51 169 -56 171 C-62 174 -64 164 -58 162 C-56 161 -53 158 -51 155 C-49 154 -48 152 -47 150 C-55 118 -63 87 -70 55 C-75 31 -80 6 -82 -19 C-83 -33 -85 -51 -80 -65 C-76 -75 -65 -84 -54 -76 C-48 -71 -45 -63 -42 -55 C-38 -44 -35 -32 -33 -20 C-27 10 -24 42 -24 73 C-24 99 -25 127 -36 151 C-35 155 -34 159 -32 163 C-24 160 -15 162 -7 164 C8 168 21 175 34 182 C52 193 69 205 86 218 C125 249 160 283 194 319 C185 292 176 265 167 238 C156 237 145 236 134 236 C131 236 128 232 130 228 C139 216 146 203 151 189 C147 177 144 166 140 155 C125 105 110 54 99 3 C95 -16 84 -63 92 -79 C99 -93 110 -79 115 -71 C129 -52 138 -30 146 -8 C169 53 183 126 161 189 C166 202 170 215 174 229 C198 231 221 234 244 240 C274 247 304 257 333 268 C351 276 367 282 386 289 C391 292 390 297 385 300 C354 288 324 275 293 264 C263 254 232 246 201 242 C193 241 185 240 178 239 C183 256 189 274 195 292 C200 307 206 322 211 338 C212 338 212 339 212 339 C263 396 310 456 352 519 C358 528 364 537 369 546 C394 586 417 628 435 672 C449 704 463 739 467 774 C469 787 469 814 450 814 L450 814 Z M52 419 C74 476 96 533 123 588 C143 629 167 669 193 707 C205 725 218 742 232 759 C243 770 254 782 266 791 C273 796 281 800 288 798 C291 797 292 783 291 776 C289 760 284 744 278 729 C272 710 263 691 255 672 C218 592 165 521 115 449 C81 401 46 354 12 306 C25 344 38 381 52 419 L52 419 Z M-36 110 C-32 80 -33 49 -37 20 C-39 -6 -43 -36 -52 -60 C-57 -73 -66 -75 -70 -66 C-74 -57 -73 -44 -73 -35 C-72 -13 -69 8 -65 29 C-59 64 -50 99 -41 134 C-38 126 -37 118 -36 110 L-36 110 Z M-37 184 C-37 185 -37 186 -37 186 C-37 204 -28 222 -21 236 C-26 219 -32 202 -37 184 L-37 184 Z M150 38 C143 11 134 -16 121 -41 C117 -50 112 -58 107 -66 C105 -69 103 -72 100 -74 C99 -72 99 -64 99 -61 C99 -46 102 -33 104 -19 C113 28 126 73 140 119 C145 137 150 154 156 172 C167 129 161 81 150 38 L150 38 Z M156 204 C152 212 148 219 143 226 C150 227 157 227 163 228 C161 220 158 212 156 204 L156 204 Z M457 772 C455 756 450 741 445 726 C432 686 414 647 395 610 C384 590 373 570 361 551 C320 487 274 426 225 368 C223 367 222 365 220 363 C232 396 244 428 256 460 C272 503 288 545 306 586 C322 620 338 653 356 686 C371 713 387 741 406 766 C415 779 426 792 439 800 C444 803 450 804 452 804 C461 799 458 777 457 772 L457 772 Z " />
<glyph glyph-name="s_t" unicode="&#xfb06;" horiz-adv-x="288" d="M609 549 C575 536 539 531 503 527 C463 524 422 523 382 524 C366 524 350 524 334 524 C360 566 392 636 398 653 C404 670 410 688 412 706 C413 714 412 728 401 728 C389 728 379 713 373 705 C348 671 328 628 308 586 C298 566 289 545 281 525 C274 525 267 525 260 525 C225 524 190 523 156 517 C129 512 98 504 79 483 C74 478 81 471 86 476 C102 494 128 501 151 506 C184 513 219 514 252 514 C261 515 269 515 277 515 C275 508 272 502 270 496 C255 458 242 419 229 380 C227 377 225 375 223 372 C191 328 155 285 115 247 C91 224 64 203 37 184 C36 190 35 196 34 202 C30 229 21 255 13 281 C7 303 8 328 21 348 C31 362 46 373 63 375 C69 376 76 376 80 373 C86 371 88 367 89 361 C90 353 87 343 84 336 C81 330 90 325 92 331 C99 345 105 367 90 379 C78 389 61 387 47 381 C29 374 14 360 6 342 C-4 318 -1 294 6 270 C15 243 23 217 26 189 C27 185 27 182 27 178 C3 162 -21 149 -45 134 C-68 120 -89 104 -108 85 C-131 60 -151 32 -163 0 C-168 -15 -172 -30 -173 -46 C-174 -57 -172 -69 -166 -79 C-152 -102 -120 -93 -100 -84 C-67 -69 -40 -43 -18 -14 C7 18 24 57 32 97 C37 122 39 147 38 173 C59 187 81 203 101 220 C139 254 173 291 204 330 C209 337 215 344 220 351 C213 326 205 301 198 275 C181 208 164 141 156 72 C153 49 151 26 153 4 C154 -8 158 -25 168 -31 C170 -32 173 -33 175 -33 C182 -33 182 -23 175 -23 C175 -23 175 -23 174 -23 C169 -21 168 -18 166 -14 C162 -4 162 10 162 22 C162 34 163 45 164 56 C170 119 185 182 200 244 C212 288 224 332 238 376 C271 420 300 467 328 514 C383 514 438 512 492 516 C533 519 574 525 612 539 C618 541 615 551 609 549 L609 549 Z M17 79 C6 40 -13 4 -41 -27 C-64 -51 -93 -76 -127 -82 C-136 -84 -148 -85 -155 -77 C-162 -69 -163 -58 -163 -49 C-163 -14 -145 20 -126 48 C-106 75 -82 98 -54 116 C-32 131 -7 144 16 159 C20 161 24 164 28 166 C29 137 26 108 17 79 L17 79 Z M249 408 C254 425 260 441 266 458 C273 477 280 496 288 515 C297 515 307 515 317 514 C295 478 273 442 249 408 L249 408 Z M323 524 C312 524 302 525 292 525 C295 534 299 542 303 551 C326 605 355 658 386 705 C390 710 396 718 401 719 C405 712 399 692 397 684 C387 649 373 622 357 586 C346 566 334 544 323 524 L323 524 Z " />
</font>
</svg>
