<?xml version="1.0" encoding="UTF-8"?>
<svg xmlns="http://www.w3.org/2000/svg" xmlns:xlink="http://www.w3.org/1999/xlink" version="1.2" >
<font id="Susanti signature alternate">
<font-face  font-family="Susanti signature" units-per-em="1000" ascent="750" descent="-250" font-style="normal" font-weight="400" font-stretch="normal" cap-height="700" x-height="500" underline-position="-75" underline-thickness="50" />
<missing-glyph  horiz-adv-x="154" d="" />
<glyph glyph-name="NULL" d="" />
<glyph glyph-name="nonmarkingreturn" unicode="&#xd;" horiz-adv-x="154" d="" />
<glyph glyph-name="space" unicode="&#x20;" horiz-adv-x="154" d="" />
<glyph glyph-name="e" unicode="e" horiz-adv-x="186" d="M186 300 Q194 296 196 291.5 Q198 287 196.5 283 Q195 279 192.5 276 Q190 273 189 272 Q187 270 182.5 266.5 Q178 263 173 260 Q146 243 120 225 Q94 207 65 194 Q50 187 30 184 Q10 181 -5 189 Q-29 200 -30 225 Q-31 239 -24.5 257 Q-18 275 -7 291.5 Q4 308 18.5 320 Q33 332 48 334 Q67 336 74 321 Q81 306 73 291 Q69 284 63 276.5 Q57 269 49 263.5 Q41 258 32 255.5 Q23 253 14 257 Q12 258 10 258.5 Q8 259 6 261 Q1 253 -1.5 245.5 Q-4 238 -4 229 Q-4 216 10 211 Q23 207 38.5 211.5 Q54 216 69.5 224 Q85 232 99.5 242 Q114 252 124 259 Q132 264 142.5 271 Q153 278 163 285 Q174 292 186 300 Z M51 308 Q43 306 35 299.5 Q27 293 25 282 Q33 284 42 293 Q51 302 51 308 Z " />
<glyph glyph-name="g" unicode="g" horiz-adv-x="274" d="M274 300 Q284 297 286 291.5 Q288 286 286 280.5 Q284 275 280 270 Q276 265 275 264 Q270 257 255 239.5 Q240 222 219.5 198.5 Q199 175 175.5 148.5 Q152 122 129 98 Q106 74 86 54.5 Q66 35 54 25 Q50 21 49 19 Q21 -40 -14 -99 Q-25 -116 -36.5 -132.5 Q-48 -149 -61 -166 Q-69 -176 -78.5 -187.5 Q-88 -199 -99 -209 Q-110 -219 -121.5 -226.5 Q-133 -234 -143 -235 Q-154 -237 -162 -230.5 Q-170 -224 -172 -212 Q-174 -189 -164 -166.5 Q-154 -144 -140 -123 Q-129 -106 -116.5 -92.5 Q-104 -79 -90 -65 Q-75 -51 -59 -38 Q-43 -25 -27 -11 Q-13 0 -0.5 12 Q12 24 26 35 Q28 37 32 42 Q40 60 47 77.5 Q54 95 62 113 Q72 136 80 158.5 Q88 181 96 204 Q105 230 113.5 256 Q122 282 129 308 Q127 306 124.5 304 Q122 302 120 300 Q90 270 59 242 Q38 224 19 212 Q11 207 0.5 203 Q-10 199 -21 204 Q-33 211 -32.5 225.5 Q-32 240 -28 252 Q-20 272 -8.5 290 Q3 308 23 321 Q36 329 51 332.5 Q66 336 77 330 Q84 326 86 320 Q88 314 88 306 Q96 313 107 324 Q118 335 123 339 Q129 345 135 350.5 Q141 356 150 354 Q157 352 160 345 Q163 338 161 330 Q159 319 156.5 309.5 Q154 300 151 290 Q143 262 134 235 Q125 208 115 180 Q107 157 98 133 Q89 109 79 85 Q91 95 117 123 Q143 151 172.5 184 Q202 217 229.5 249.5 Q257 282 274 300 Z M71 289 Q72 289 72 291 Q65 293 64 300 Q63 302 63.5 303 Q64 304 64 306 Q65 309 62 309 Q58 309 55 308 Q41 306 29.5 293 Q18 280 10 269 Q5 261 0 251 Q-5 241 -6 228 Q-2 229 3 232.5 Q8 236 13 239 Q29 250 43 262.5 Q57 275 71 289 Z M-40 -91 Q-35 -83 -28.5 -71.5 Q-22 -60 -16 -49.5 Q-10 -39 -5.5 -31 Q-1 -23 -1 -23 Q-1 -23 -6 -27 Q-11 -31 -18 -37 Q-25 -43 -32.5 -49.5 Q-40 -56 -45 -60 Q-59 -72 -72.5 -85 Q-86 -98 -99 -112 Q-116 -132 -130 -157 Q-144 -182 -146 -209 Q-129 -203 -117.5 -191 Q-106 -179 -94 -165 Q-67 -132 -40 -91 Z " />
<glyph glyph-name="f" unicode="f" horiz-adv-x="237" d="M-47 63 Q-22 86 16 118.5 Q54 151 95 185 Q136 219 174 249.5 Q212 280 237 300 Q251 292 248 283 Q245 274 238 268 Q194 231 155 198.5 Q116 166 80 135.5 Q44 105 10 76 Q-24 47 -58 18 Q-62 7 -64.5 -5 Q-67 -17 -69 -28 Q-60 -32 -50.5 -35 Q-41 -38 -33 -46 Q-13 -63 -14.5 -88.5 Q-16 -114 -27 -135 Q-35 -149 -45 -162 Q-55 -175 -72 -180 Q-88 -185 -97 -171 Q-104 -162 -106 -147 Q-108 -132 -107 -114.5 Q-106 -97 -103.5 -78.5 Q-101 -60 -98 -45 Q-101 -43 -103.5 -41.5 Q-106 -40 -110 -38 Q-124 -29 -115 -11 Q-109 3 -99.5 12 Q-90 21 -82 32 Q-72 67 -63 101.5 Q-54 136 -43 170 Q-11 274 26.5 371.5 Q64 469 113 564 Q127 593 141.5 620.5 Q156 648 173 676 Q176 681 182 684 Q188 686 193.5 680.5 Q199 675 194 668 Q168 615 141.5 563 Q115 511 89 457 Q42 356 9.5 259 Q-23 162 -47 63 Z M-74 -54 Q-78 -80 -81.5 -104.5 Q-85 -129 -77 -154 Q-68 -146 -61 -139 Q-54 -132 -46 -119 Q-30 -88 -48 -67 Q-57 -59 -74 -54 Z " />
<glyph glyph-name="h" unicode="h" horiz-adv-x="242" d="M242 300 Q254 295 254 285 Q254 275 246 270 Q230 259 216 248.5 Q202 238 184 228 Q178 225 172.5 222.5 Q167 220 160 219 Q136 216 127 238 Q122 250 123 267 Q124 284 125 299 Q117 294 111 287.5 Q105 281 98 274 Q81 254 65 233.5 Q49 213 33 191 L-9 137 Q-13 132 -19.5 124.5 Q-26 117 -34 117 Q-47 117 -50 129 Q-52 140 -49 151.5 Q-46 163 -43 173 Q-30 214 -16.5 252 Q-3 290 11 329 Q22 360 38 401.5 Q54 443 72.5 491.5 Q91 540 113 592.5 Q135 645 158 697 Q163 708 168.5 718.5 Q174 729 180 740 Q183 746 189 748 Q195 750 201 745 Q208 740 203 731 Q195 715 187 696.5 Q179 678 171 662 Q167 652 156.5 626 Q146 600 132 565 Q118 530 102 489.5 Q86 449 71.5 411 Q57 373 44.5 341.5 Q32 310 26 292 Q18 272 11.5 251.5 Q5 231 -3 211 Q-6 202 -9 193 Q-12 184 -14 174 Q2 196 18 217 Q34 238 51 259 Q57 266 66 277.5 Q75 289 85 300 Q95 311 105.5 319 Q116 327 125 329 Q139 331 145 320.5 Q151 310 151 295 Q151 289 151 280 Q151 271 151 263 Q151 255 152 249.5 Q153 244 155 244 Q160 243 170 249.5 Q180 256 188 261 Q194 266 203.5 272.5 Q213 279 221 285 Q231 292 242 300 Z " />
<glyph glyph-name="i" unicode="i" horiz-adv-x="151" d="M151 300 Q159 296 161 291 Q163 286 161.5 281 Q160 276 156 272 Q152 268 148 265 Q133 255 123 247.5 Q113 240 104.5 234 Q96 228 87.5 222 Q79 216 68 209 Q60 204 50 197 Q40 190 29 184 Q18 178 7 174 Q-4 170 -12 171 Q-29 173 -34 191 Q-36 201 -34 213.5 Q-32 226 -27.5 239.5 Q-23 253 -17.5 265.5 Q-12 278 -7 287 L1 303 Q4 310 11.5 310.5 Q19 311 23 304 Q25 300 24.5 297 Q24 294 22 291 Q15 276 8.5 260 Q2 244 -3 229 Q-6 221 -7.5 210 Q-9 199 -7 197 Q-3 196 12 204 Q27 212 42 223 Q73 244 97 260.5 Q121 277 151 300 Z M39 366 Q39 370 42 374.5 Q45 379 52 379 Q59 379 61.5 375 Q64 371 64 366 Q64 361 60.5 357.5 Q57 354 51 354 Q46 354 42.5 357.5 Q39 361 39 366 Z " />
<glyph glyph-name="j" unicode="j" horiz-adv-x="77" d="M26 323 Q36 318 31 306 Q11 259 -13 197 Q-37 135 -61.5 67 Q-86 -1 -110 -70 Q-134 -139 -153 -199 Q-154 -201 -156 -208 Q-158 -215 -160.5 -222.5 Q-163 -230 -166 -237 Q-169 -244 -171 -246 Q-176 -251 -183 -250 Q-190 -249 -192 -242 Q-194 -236 -191.5 -228 Q-189 -220 -187 -215 Q-180 -192 -166.5 -151.5 Q-153 -111 -135.5 -61.5 Q-118 -12 -98.5 42 Q-79 96 -59.5 147 Q-40 198 -22.5 241.5 Q-5 285 8 314 Q14 327 26 323 Z M67 394 Q67 391 64 386 Q61 381 54 381 Q41 381 41 394 Q41 399 44 403.5 Q47 408 54 408 Q67 408 67 394 Z " />
<glyph glyph-name="k" unicode="k" horiz-adv-x="220" d="M220 300 Q230 294 232 288 Q234 282 233 277.5 Q232 273 229 270 Q226 267 225 266 Q207 248 194.5 236 Q182 224 163 205 Q152 194 135 179.5 Q118 165 100 160 Q78 154 59 168 Q50 176 42 187 Q36 195 30.5 204 Q25 213 19 221 Q10 212 1.5 202.5 Q-7 193 -14 182 Q-18 176 -24 173 Q-30 170 -36 176 Q-39 178 -40.5 181.5 Q-42 185 -40 193 Q-32 217 -23 241 Q-14 265 -5 289 Q10 331 25 371 Q40 411 55 452 Q75 506 94 558 Q113 610 132 663 Q139 680 144.5 696.5 Q150 713 156 730 Q156 733 158 735 Q163 740 170 739 Q177 736 178 729 Q179 727 178.5 724.5 Q178 722 178 720 Q173 701 167.5 683 Q162 665 155 647 Q129 578 104 509.5 Q79 441 54 372 Q43 342 31 311 Q19 280 10 250 Q24 264 39 276.5 Q54 289 71 300 Q76 304 83 307 Q90 310 100 310 Q107 310 111 304.5 Q115 299 114 293 Q112 279 99.5 270 Q87 261 77 254 Q70 250 63.5 246 Q57 242 50 238 Q48 237 46 236 Q44 235 42 234 Q42 233 43 232 Q50 221 57 210 Q64 199 73 190 Q80 183 93 185 Q99 186 110.5 194.5 Q122 203 135 215 Q148 227 161 240 Q174 253 184 263 Q189 268 194.5 274 Q200 280 206 286 Q212 293 220 300 Z " />
<glyph glyph-name="l" unicode="l" horiz-adv-x="205" d="M201 745 Q210 740 205 730 Q191 701 179 676.5 Q167 652 155.5 628.5 Q144 605 132.5 580 Q121 555 108 525 Q84 468 62.5 410.5 Q41 353 24 288 Q20 272 17.5 256.5 Q15 241 13 225 Q13 220 13 212 Q13 204 14.5 195.5 Q16 187 19.5 181 Q23 175 30 174 Q41 172 53 179 Q65 186 73 191 Q96 207 117.5 225.5 Q139 244 163 265 Q173 273 183.5 282.5 Q194 292 205 300 Q220 295 216.5 283.5 Q213 272 204 264 Q184 247 159 225.5 Q134 204 113 187 Q98 175 80 163.5 Q62 152 40 148 Q20 146 7 157 Q-2 164 -6.5 175 Q-11 186 -13 198 Q-15 221 -12 240 Q-10 258 -6.5 275.5 Q-3 293 2 310 Q13 350 26 389 Q39 428 55 466 Q73 512 94 559 Q106 586 116 608 Q126 630 136 651 Q146 672 157 693 Q168 714 183 740 Q187 747 192 747 Q197 747 201 745 Z " />
<glyph glyph-name="m" unicode="m" horiz-adv-x="314" d="M17 252 L56 285 Q63 291 71 295 Q79 299 87 294 Q96 289 95.5 278.5 Q95 268 93 260 Q91 252 90 245 Q89 238 88 231 Q99 240 108.5 250 Q118 260 128 269 Q142 283 155 295.5 Q168 308 182 320 Q190 326 198 332 Q206 338 217 339 Q225 339 230 334 Q235 329 235 321 Q235 316 234 312.5 Q233 309 231 305 Q223 285 215.5 264.5 Q208 244 204 227 Q202 217 202 211 Q206 212 211.5 215 Q217 218 228 226 Q237 233 248.5 243 Q260 253 271.5 263.5 Q283 274 294 283.5 Q305 293 314 300 Q322 293 324 287 Q326 281 324.5 276.5 Q323 272 319.5 268.5 Q316 265 315 264 Q306 256 288 239.5 Q270 223 251 209 Q225 188 205 185 Q185 183 178 205 Q174 216 177.5 233 Q181 250 186 264 Q189 273 192 281.5 Q195 290 199 298 Q175 275 156 256 Q137 237 115 217 Q107 209 99 204.5 Q91 200 82 200 Q68 202 64 215 Q62 221 62.5 235 Q63 249 65 258 Q50 244 34 230.5 Q18 217 3 203 Q-4 197 -11 191.5 Q-18 186 -26 182 Q-34 180 -41.5 185 Q-49 190 -48 201 Q-48 207 -46 212.5 Q-44 218 -42 223 Q-31 245 -21 264.5 Q-11 284 3 304 Q9 311 18 310 Q24 308 26.5 302.5 Q29 297 25 292 Q22 286 19 281 Q16 276 13 271 Q7 260 1 249.5 Q-5 239 -10 228 Q3 241 17 252 Z " />
<glyph glyph-name="n" unicode="n" horiz-adv-x="216" d="M79 273 Q62 259 46 245 Q30 231 13 217 Q6 212 -3 205.5 Q-12 199 -17 199 Q-30 197 -34 210 Q-36 219 -30.5 233 Q-25 247 -20 260 Q-13 275 -8 285.5 Q-3 296 5 309 Q7 314 12 317 Q17 320 22 317 Q27 315 28.5 309.5 Q30 304 28 299 Q23 289 18.5 280 Q14 271 9 261 Q7 256 4.5 251 Q2 246 0 241 Q11 249 21.5 258 Q32 267 44 278 Q56 289 69 299.5 Q82 310 98 316 Q109 319 116.5 312.5 Q124 306 123 295 Q123 291 121 281 Q121 279 119.5 273 Q118 267 117.5 260 Q117 253 117 247.5 Q117 242 119 241 Q126 239 137.5 246 Q149 253 161 261 Q172 269 181.5 276 Q191 283 199 288 Q208 294 216 300 Q228 290 226 283 Q224 276 217 270 Q204 260 190 249.5 Q176 239 162 230 Q152 224 139 218.5 Q126 213 114 215 Q95 220 91 237 Q88 248 90.5 262.5 Q93 277 95 285 Q91 283 87 279.5 Q83 276 79 273 Z " />
<glyph glyph-name="o" unicode="o" horiz-adv-x="178" d="M178 300 Q182 294 185 289 Q191 278 180 274 Q159 268 136 265 Q116 263 92 264.5 Q68 266 44 276 Q44 273 44.5 267 Q45 261 45 258 Q45 234 30.5 211 Q16 188 -2 174 Q-13 166 -24.5 163 Q-36 160 -47 171 Q-52 175 -52 184.5 Q-52 194 -50.5 204 Q-49 214 -46 223.5 Q-43 233 -40 239 Q-37 246 -32 256 Q-27 266 -20 276.5 Q-13 287 -4.5 295.5 Q4 304 12 307 Q17 309 22 306 Q27 303 27 296 Q32 299 39 301.5 Q46 304 57 301 Q62 299 70 296 Q77 294 87 292 Q97 290 111 290 Q126 290 143 292.5 Q160 295 178 300 Z M13 231 Q19 243 19 255.5 Q19 268 17 282 Q11 276 7 272.5 Q3 269 -1 264 Q-5 259 -9.5 250 Q-14 241 -21 225 Q-24 217 -27 206.5 Q-30 196 -28 188 Q-18 192 -8 202 Q3 214 13 231 Z " />
<glyph glyph-name="p" unicode="p" horiz-adv-x="221" d="M22 255 Q35 268 48 280 Q61 292 76 302 Q87 310 101 315.5 Q115 321 129 319 Q140 317 145.5 309 Q151 301 149 290 Q146 276 138.5 266.5 Q131 257 122 248 Q147 257 168 270 Q187 281 201.5 289 Q216 297 221 300 Q236 289 233 281 Q230 273 222 269 Q213 264 200.5 257 Q188 250 174 242.5 Q160 235 145 228.5 Q130 222 116 219 Q99 215 76 215 Q68 217 60.5 213.5 Q53 210 45 211 Q39 212 34 213.5 Q29 215 26 220 Q13 203 4.5 192.5 Q-4 182 -13 171 Q-18 166 -21.5 161 Q-25 156 -29 148 Q-36 128 -47.5 96 Q-59 64 -72.5 26.5 Q-86 -11 -100 -51 Q-114 -91 -127 -127 Q-140 -163 -150 -192 Q-160 -221 -164 -236 Q-169 -252 -182 -247 Q-191 -242 -190.5 -236.5 Q-190 -231 -186 -217 Q-168 -164 -149.5 -112 Q-131 -60 -112 -7 Q-109 5 -101 27 Q-93 49 -84.5 73 Q-76 97 -68.5 117.5 Q-61 138 -58 146 L-10 275 Q-5 289 1 303.5 Q7 318 12 333 Q14 339 19.5 340.5 Q25 342 30 338 Q37 333 34 325 Q31 302 21 281 Q11 260 4 237 L22 255 Z M50 245 Q63 243 74 248 Q85 253 94.5 260.5 Q104 268 111 277 Q118 286 123 293 Q103 289 83.5 274 Q64 259 50 245 Z " />
<glyph glyph-name="q" unicode="q" horiz-adv-x="190" d="M190 300 Q201 296 204 290 Q207 284 205 277 Q203 270 198 261.5 Q193 253 187 243 Q177 225 159 190 Q141 155 119 111.5 Q97 68 71.5 20 Q46 -28 22 -73 Q-2 -118 -24 -155 Q-46 -192 -62 -213 Q-67 -220 -74.5 -227.5 Q-82 -235 -88 -237 Q-104 -242 -112 -228 Q-118 -216 -116.5 -200.5 Q-115 -185 -113 -173 Q-108 -151 -102.5 -130 Q-97 -109 -90 -89 Q-79 -55 -67 -22 Q-55 11 -42 44 Q-31 74 -19.5 103 Q-8 132 5 161 Q10 171 14 182 Q18 193 23 203 Q16 198 9 193 Q2 188 -7 189 Q-23 191 -27 205 Q-31 219 -27.5 235 Q-24 251 -19 265 Q-11 283 1.5 301 Q14 319 32 329 Q37 331 41 333 Q45 335 50 335 Q59 334 63 328 Q67 322 67 317 Q67 310 61.5 307 Q56 304 50 308 Q47 309 46 308 Q37 302 31 295 Q17 281 5.5 259 Q-6 237 -4 216 Q6 221 16.5 231 Q27 241 37 254.5 Q47 268 56.5 283 Q66 298 75 313 Q77 317 79.5 321 Q82 325 84 329 Q87 334 92.5 336 Q98 338 105 333 Q108 330 109.5 326 Q111 322 107 315 Q97 296 86.5 275.5 Q76 255 67 235 Q56 210 45 185.5 Q34 161 23 136 Q9 102 -4.5 68.5 Q-18 35 -31 0 Q-42 -32 -53 -63.5 Q-64 -95 -74 -127 Q-79 -141 -82.5 -155.5 Q-86 -170 -88 -185 Q-89 -190 -89.5 -195 Q-90 -200 -90 -205 Q-83 -197 -76.5 -188 Q-70 -179 -64 -169 Q-53 -151 -33.5 -115 Q-14 -79 10 -33.5 Q34 12 60 62 Q86 112 110.5 158.5 Q135 205 155.5 242.5 Q176 280 190 300 Z " />
<glyph glyph-name="r" unicode="r" horiz-adv-x="173" d="M72 319 Q78 323 90 326 Q102 329 112.5 328.5 Q123 328 130.5 322 Q138 316 135 301 Q130 275 104 257.5 Q78 240 52 232 Q49 231 46 230 Q43 229 39 228 Q61 205 82 180.5 Q103 156 125 132 Q127 130 128 128.5 Q129 127 131 125 Q135 119 132.5 113 Q130 107 123 106 Q116 105 110 111 L89 135 Q69 157 49.5 179.5 Q30 202 9 222 Q4 214 -1 205.5 Q-6 197 -11 189 Q-15 183 -20.5 178 Q-26 173 -34 176 Q-42 179 -41.5 185 Q-41 191 -39 196 Q-28 233 -14 268 Q0 303 14 339 Q16 344 17 350 Q18 356 26 358 Q33 360 37.5 353.5 Q42 347 40 340 Q36 323 30 308 Q24 293 19 276 Q40 300 72 319 Z M36 255 Q46 255 56.5 259.5 Q67 264 77 271.5 Q87 279 95 288 Q103 297 108 305 Q104 305 99 302.5 Q94 300 89 298 Q74 290 61.5 279 Q49 268 36 255 Z " />
<glyph glyph-name="s" unicode="s" horiz-adv-x="185" d="M50 316 Q31 303 23 287 Q14 273 22 258 Q25 253 28.5 248 Q32 243 35 238 Q42 225 46.5 211 Q51 197 53 183 Q66 195 83.5 211.5 Q101 228 120 244.5 Q139 261 156 276 Q173 291 185 300 Q194 294 195 288.5 Q196 283 193.5 278 Q191 273 187 269 Q183 265 181 264 Q149 236 118 207 Q87 178 55 149 Q53 147 53 144 Q50 124 44 105 Q38 86 30 67 Q2 3 -39.5 -53.5 Q-81 -110 -135 -148 Q-147 -156 -159 -161 Q-171 -166 -183 -164 Q-199 -162 -202 -144 Q-204 -131 -198 -114.5 Q-192 -98 -182.5 -81.5 Q-173 -65 -163 -50.5 Q-153 -36 -145 -25 Q-116 13 -83.5 48 Q-51 83 -16 117 Q-5 127 5 137 Q15 147 26 157 Q28 159 28 162 Q28 188 19.5 208 Q11 228 -2 248 Q-9 261 -8 273.5 Q-7 286 -1 298 Q8 313 21 326 Q34 339 51 341 Q61 342 67 335 Q73 328 71 319 Q69 312 63 311 Q56 309 50 316 Z M-176 -139 Q-158 -131 -144.5 -121.5 Q-131 -112 -118 -99 Q-101 -83 -85.5 -66 Q-70 -49 -56 -30 Q-43 -12 -31.5 6 Q-20 24 -10 43 Q0 61 7 78.5 Q14 96 20 115 Q10 107 1.5 97.5 Q-7 88 -17 80 Q-45 51 -71.5 22 Q-98 -7 -122 -39 Q-139 -62 -155 -85.5 Q-171 -109 -176 -139 Z " />
<glyph glyph-name="t" unicode="t" horiz-adv-x="87" d="M58 449 Q56 449 30.5 449 Q5 449 -32 449 Q-69 449 -112 449 Q-155 449 -192 449 Q-229 449 -254.5 449.5 Q-280 450 -282 451 Q-283 451 -287 453 Q-296 457 -294 464 Q-294 472 -285 474 Q-282 475 -277 475 Q-272 475 -245.5 475 Q-219 475 -181.5 475 Q-144 475 -102 475 Q-60 475 -23.5 475 Q13 475 38.5 475 Q64 475 67 475 Q88 526 110.5 577.5 Q133 629 155 680 Q162 694 168 707.5 Q174 721 179 723 Q187 727 194 722 Q201 717 197 708 Q191 696 184 680 Q161 628 139 577.5 Q117 527 97 475 Q105 475 132 475 Q159 475 195 475 Q231 475 272 475.5 Q313 476 348 476 Q383 476 408.5 475.5 Q434 475 440 474 Q448 473 458 470.5 Q468 468 471 463 Q476 455 473 447.5 Q470 440 461 440 Q454 440 448 442.5 Q442 445 435 445 Q428 446 400.5 446.5 Q373 447 335.5 447.5 Q298 448 256 448 Q214 448 178 448.5 Q142 449 116 449 Q90 449 86 449 Q78 432 64.5 396.5 Q51 361 34 314 Q17 267 -2 212 Q-21 157 -40 101 Q-59 45 -76.5 -8.5 Q-94 -62 -108 -105.5 Q-122 -149 -131 -179.5 Q-140 -210 -142 -220 Q-143 -225 -143.5 -229 Q-144 -233 -145 -239 Q-147 -249 -155.5 -249.5 Q-164 -250 -168 -242 Q-171 -234 -170 -226 Q-169 -218 -167 -210 Q-153 -164 -134 -104 Q-115 -44 -94 21.5 Q-73 87 -50.5 153 Q-28 219 -7.5 277 Q13 335 30 380 Q47 425 58 449 Z " />
<glyph glyph-name="u" unicode="u" horiz-adv-x="183" d="M168 364 Q174 359 174 352 Q174 345 171 337.5 Q168 330 164 323 Q160 316 158 311 Q141 276 131 253 Q121 230 112.5 208.5 Q104 187 95 161.5 Q86 136 71 97 Q66 85 56 88 Q50 90 47.5 94.5 Q45 99 48 108 Q52 119 55.5 130 Q59 141 63 152 Q68 167 75 185.5 Q82 204 90 223.5 Q98 243 106 262 Q114 281 122 297 Q108 283 93 268 Q78 253 63 239 Q57 234 49 227 Q41 220 32.5 214.5 Q24 209 15 206 Q6 203 -3 206 Q-16 209 -20 221 Q-24 233 -21 247.5 Q-18 262 -14 272 Q-8 287 -0.5 300.5 Q7 314 15 328 Q19 334 25 336 Q31 338 37 333 Q43 327 38 318 Q29 304 22 289 Q15 274 9 259 Q7 253 3.5 243 Q0 233 4 229 Q9 229 18 236 Q27 243 34 248 Q44 256 53.5 265.5 Q63 275 72 284 Q86 299 100.5 313.5 Q115 328 129 343 Q137 351 146.5 360.5 Q156 370 168 364 Z " />
<glyph glyph-name="v" unicode="v" horiz-adv-x="198" d="M252 426 Q253 421 250.5 417.5 Q248 414 246 410 Q196 353 148 294 Q100 235 41 179 Q33 172 22.5 163.5 Q12 155 -1 153 Q-20 150 -28 168 Q-33 180 -30.5 203 Q-28 226 -22 246 Q-11 283 7 314 Q9 319 16 322 Q23 325 28 318 Q33 311 29 306 Q18 287 10.5 266 Q3 245 -3 223 Q-5 218 -6 211 Q-7 204 -7.5 197.5 Q-8 191 -7.5 186 Q-7 181 -5 180 Q-3 179 2.5 182.5 Q8 186 14 191 Q20 196 25 200.5 Q30 205 31 206 Q83 258 130.5 314 Q178 370 226 427 Q228 429 230 431 Q232 433 234 435 Q240 438 245 435 Q250 432 252 426 Z " />
<glyph glyph-name="w" unicode="w" horiz-adv-x="340" d="M340 405 Q348 407 353 400.5 Q358 394 356 385 Q355 378 351 369 Q344 355 336.5 342 Q329 329 321 315 Q305 287 287.5 259.5 Q270 232 251 206 Q241 191 227.5 173.5 Q214 156 198 139.5 Q182 123 165 111 Q148 99 131 95 Q104 89 88 114 Q78 130 76.5 149.5 Q75 169 76 186 Q77 200 79.5 215 Q82 230 84 247 Q71 235 59.5 222 Q48 209 36 196 Q26 186 13.5 173 Q1 160 -13 155 Q-35 147 -40 169 Q-42 175 -41.5 181 Q-41 187 -40 192 Q-37 215 -28 239.5 Q-19 264 -8 284 Q-4 292 0 299.5 Q4 307 9 315 Q11 320 16.5 322.5 Q22 325 27 323 Q36 319 36 312 Q36 304 29 300 Q28 300 26.5 297 Q25 294 24 292 Q16 278 11 265.5 Q6 253 0 238 Q-5 225 -9 211.5 Q-13 198 -15 184 Q-8 190 -0.5 196.5 Q7 203 13 210 Q27 225 41 240 Q55 255 70 270 Q75 276 84 283 Q93 290 101 287 Q113 282 114 275 Q115 268 113 259 Q111 248 109 237 Q107 226 105 215 Q104 206 103 193.5 Q102 181 102 168.5 Q102 156 103.5 145 Q105 134 110 127 Q116 118 127 120 Q139 122 152.5 132.5 Q166 143 178.5 156.5 Q191 170 202.5 184.5 Q214 199 222 210 Q239 235 255 260 Q271 285 288 310 Q299 327 308.5 344.5 Q318 362 327 380 Q331 388 331 393 Q331 403 340 405 Z " />
<glyph glyph-name="x" unicode="x" horiz-adv-x="168" d="M168 300 Q186 296 185 287.5 Q184 279 179 275 Q173 270 162.5 261.5 Q152 253 126 231 Q114 221 102 211.5 Q90 202 76 193 Q66 187 54 180 Q42 173 30 173 Q5 173 -1 195 Q-15 179 -28.5 162.5 Q-42 146 -56 129 Q-61 121 -66.5 113 Q-72 105 -79 98 Q-86 89 -95 96 Q-103 100 -99 111 Q-69 156 -36 194 Q-34 197 -29 202 Q-24 207 -19 212.5 Q-14 218 -10 223.5 Q-6 229 -6 232 Q-4 254 -2 274.5 Q0 295 0 316 Q0 325 8 327 Q14 329 19 326 Q24 323 24 316 Q24 302 23 288.5 Q22 275 21 261 Q35 276 49.5 292 Q64 308 79 325 Q81 327 84.5 331 Q88 335 91.5 338 Q95 341 99 342 Q103 343 107 339 Q116 331 109 324 Q94 301 74.5 281 Q55 261 37 239 Q33 235 29.5 231 Q26 227 22 222 Q20 220 21 214 Q22 208 24 204 Q27 197 38.5 202 Q50 207 63.5 216 Q77 225 88.5 234.5 Q100 244 104 247 Q115 256 126.5 265 Q138 274 147 282 Q158 291 168 300 Z " />
<glyph glyph-name="y" unicode="y" horiz-adv-x="182" d="M69 215 Q59 206 49 197.5 Q39 189 25 187 Q7 186 -4 201 Q-12 210 -12.5 230 Q-13 250 -9 267 Q-6 279 -2.5 290.5 Q1 302 6 314 Q8 321 12 325 Q18 334 29 329 Q34 326 35.5 320.5 Q37 315 32 310 Q30 309 28 305 Q24 292 20.5 279.5 Q17 267 15 253 Q12 230 17 215 Q18 212 22.5 213 Q27 214 31.5 217 Q36 220 39.5 223.5 Q43 227 44 228 Q55 239 65.5 250 Q76 261 86 272 Q97 284 107.5 296.5 Q118 309 129 321 Q139 331 146.5 336 Q154 341 162 337 Q168 334 169 328.5 Q170 323 169 316 Q168 309 165 302.5 Q162 296 161 292 Q151 269 135 227 Q119 185 99.5 134.5 Q80 84 60.5 30 Q41 -24 24.5 -72.5 Q8 -121 -3.5 -158 Q-15 -195 -18 -211 Q-19 -214 -19.5 -216.5 Q-20 -219 -20 -222 Q-23 -232 -30 -233 Q-43 -235 -45 -222 Q-46 -217 -44 -207 Q-36 -175 -21.5 -130.5 Q-7 -86 9.5 -37 Q26 12 44 61.5 Q62 111 78.5 154.5 Q95 198 108 231 Q121 264 128 280 L69 215 Z " />
<glyph glyph-name="z" unicode="z" horiz-adv-x="208" d="M-14 170 Q10 182 39.5 199 Q69 216 99 234 Q129 252 157.5 269.5 Q186 287 208 300 Q217 294 218.5 289 Q220 284 218 280.5 Q216 277 213 274.5 Q210 272 210 272 Q159 243 107.5 211 Q56 179 4 151 Q-7 146 -14 143 Q-21 140 -30 142 Q-38 144 -41.5 149.5 Q-45 155 -44 163 Q-42 176 -34.5 186 Q-27 196 -19 206 Q-2 227 18 246.5 Q38 266 52 289 Q33 291 15 283 Q11 280 6.5 280.5 Q2 281 -2 283 Q-8 288 -3 297 Q0 301 5 303 Q19 309 34.5 312 Q50 315 67 311 Q75 309 78 301.5 Q81 294 78 286 Q65 258 43.5 236 Q22 214 3 192 Q-1 187 -6.5 180.5 Q-12 174 -14 170 Z " />
<glyph glyph-name="d" unicode="d" horiz-adv-x="209" d="M121 336 L82 276 Q73 263 64 250.5 Q55 238 45 226 Q38 218 23.5 203.5 Q9 189 -5 184 Q-17 181 -26.5 186 Q-36 191 -39 202 Q-43 219 -36 240 Q-29 261 -22 272 Q-16 282 -7.5 293 Q1 304 11.5 313 Q22 322 34 327 Q46 332 58 330 Q64 328 69.5 324.5 Q75 321 77 315 Q94 341 110.5 367.5 Q127 394 142 420 Q161 452 179 485 Q197 518 215 552 Q227 576 239.5 600.5 Q252 625 265 650 Q269 655 273.5 658 Q278 661 284 658 Q291 655 291 648.5 Q291 642 288 637 Q267 594 250.5 550 Q234 506 215 461 Q210 447 204.5 432.5 Q199 418 194 404 Q177 358 160.5 312.5 Q144 267 127 220 Q110 170 95 120.5 Q80 71 68 20 Q59 -23 49.5 -64 Q40 -105 35 -149 Q35 -156 35 -158.5 Q35 -161 37 -165 Q42 -172 35 -179 Q28 -184 21 -183 Q14 -182 10 -173 Q8 -170 8.5 -161 Q9 -152 10 -141 Q11 -130 13 -118.5 Q15 -107 17 -97 Q28 -43 39.5 10.5 Q51 64 67 118 Q90 194 117 268 Q144 342 170 417 L121 336 Z M69 304 Q63 302 57 305 Q54 308 49 305.5 Q44 303 41 301 Q23 290 8 270 Q0 257 -8 243 Q-16 229 -14 214 Q-14 210 -11.5 210 Q-9 210 -6 212 Q-3 214 0 216.5 Q3 219 4 220 Q12 228 19 236 Q26 244 32 252 L65 297 Q67 301 69 304 Z " />
<glyph glyph-name="exclam" unicode="&#x21;" horiz-adv-x="279" d="M294 688 Q293 684 283 656.5 Q273 629 258.5 587 Q244 545 225 492.5 Q206 440 186.5 385 Q167 330 148.5 277.5 Q130 225 115.5 183.5 Q101 142 91.5 115 Q82 88 81 85 Q79 77 75 70.5 Q71 64 64 65 Q53 66 53 74.5 Q53 83 55 88 Q55 90 64.5 116 Q74 142 88.5 183.5 Q103 225 122 278 Q141 331 161 386 Q181 441 200 494 Q219 547 234.5 590 Q250 633 260 660 Q270 687 271 691 Q276 705 287 703 Q298 701 294 688 Z M18 -55 Q6 -53 8 -43 Q10 -32 22 -32 Q33 -32 31 -44 Q29 -55 18 -55 Z " />
<glyph glyph-name="quotedbl" unicode="&#x22;" horiz-adv-x="173" d="M120 697 Q126 691 122 684 Q117 674 114.5 664.5 Q112 655 107 646 Q105 640 100 636 Q95 632 88 634 Q79 636 82 647 Q86 658 90.5 668.5 Q95 679 100 689 Q102 695 108 698.5 Q114 702 120 697 Z M157 696 Q162 694 162.5 689.5 Q163 685 161 681 Q157 672 154 664 Q151 656 147 648 Q145 644 141.5 638 Q138 632 130 632 Q125 632 122 636.5 Q119 641 121 646 Q126 657 130 667 Q134 677 139 687 Q142 692 145.5 695 Q149 698 157 696 Z " />
<glyph glyph-name="numbersign" unicode="&#x23;" horiz-adv-x="304" d="M202 313 Q200 309 198 306 Q196 303 194 299 Q202 299 209.5 298.5 Q217 298 224 298 Q238 297 243.5 292 Q249 287 244 278 Q240 271 232 271 Q218 271 206 271.5 Q194 272 181 272 Q173 258 167 243.5 Q161 229 154 215 Q151 210 147.5 204.5 Q144 199 137 200 Q126 199 125 208 Q124 217 129 224 Q134 236 140 247.5 Q146 259 151 271 Q143 272 137 271.5 Q131 271 125 271 Q118 260 114 249 Q110 238 105 227 Q102 221 97.5 214.5 Q93 208 81 210 Q74 210 75 217.5 Q76 225 78 230 Q82 240 86 249.5 Q90 259 95 269 Q87 270 79 269.5 Q71 269 60 269 Q52 268 45.5 269.5 Q39 271 40 279 Q40 284 44.5 288 Q49 292 55 293 Q70 294 82 294 Q94 294 108 296 Q110 300 112 305 Q114 310 116 315 Q105 315 94 314.5 Q83 314 71 314 Q61 313 55.5 316 Q50 319 52 327 Q55 337 65 337 Q81 339 97 339 Q113 339 129 339 Q135 350 140.5 360.5 Q146 371 152 381 Q159 395 171 395 Q186 393 178 378 Q173 367 168.5 359 Q164 351 159 340 Q166 339 172.5 339.5 Q179 340 186 339 Q198 358 212 381 Q215 387 222.5 389 Q230 391 235 385 Q238 378 234 372 Q229 364 225 356.5 Q221 349 216 339 Q227 338 237.5 338 Q248 338 259 337 Q267 336 274.5 335 Q282 334 289 329 Q295 323 290 315 Q285 307 276 308 Q271 310 267.5 311 Q264 312 255 312 Q242 312 229 312.5 Q216 313 202 313 Z M137 297 L164 297 Q166 300 168 305 Q170 310 172 313 Q165 314 158.5 314 Q152 314 145 314 Q143 309 141 305.5 Q139 302 137 297 Z " />
<glyph glyph-name="dollar" unicode="&#x24;" horiz-adv-x="291" d="M145 353 Q143 355 132 362 Q121 369 116 374 Q109 382 105.5 390.5 Q102 399 104 412 Q106 426 113.5 437 Q121 448 129 458 Q151 484 180 504 Q187 509 193.5 513 Q200 517 208 522 Q211 525 213 528 Q216 535 221 547 Q226 559 231.5 572 Q237 585 242 595.5 Q247 606 249 610 Q252 618 261 618 Q267 618 271.5 613 Q276 608 272 602 Q270 600 265.5 590 Q261 580 256.5 568.5 Q252 557 248 547.5 Q244 538 244 537 Q256 539 265 534 Q274 529 276 517 Q278 504 271.5 492 Q265 480 259 469 Q254 461 248 452.5 Q242 444 235 436 Q230 430 224.5 427.5 Q219 425 214 430 Q208 436 214 446 Q222 457 229.5 468.5 Q237 480 244 493 Q250 503 250 511 Q244 510 238.5 509.5 Q233 509 230 502 Q225 490 216.5 468.5 Q208 447 200 425.5 Q192 404 185 386.5 Q178 369 177 365 Q178 363 187 356 Q196 349 201 344 Q213 331 214 316 Q216 299 209 284.5 Q202 270 193 256 Q183 242 172.5 229.5 Q162 217 150 205 Q139 194 127.5 182 Q116 170 105 159 Q102 157 100 152 Q88 114 75.5 78 Q63 42 54 4 Q53 2 52.5 -3 Q52 -8 51 -10 Q49 -18 41 -18 Q30 -18 29 -11.5 Q28 -5 28 -1 Q28 4 29 11.5 Q30 19 32 26 Q35 36 39 49.5 Q43 63 47 76 Q51 89 54 100 Q57 111 59 116 Q48 107 39 98.5 Q30 90 21 83 Q18 80 12.5 75.5 Q7 71 0 69 Q-7 68 -11.5 73.5 Q-16 79 -14 86 Q-13 90 -8.5 95.5 Q-4 101 1 102 Q6 102 9 105 Q13 109 22 117.5 Q31 126 41.5 135.5 Q52 145 61 153.5 Q70 162 75 166 Q78 168 80 174 Q88 196 99 226.5 Q110 257 120 284.5 Q130 312 137.5 332 Q145 352 145 353 Z M122 212 Q130 220 139 231 Q148 242 156 250 Q166 262 173.5 273.5 Q181 285 187 299 Q191 310 183 323 Q181 327 176.5 330.5 Q172 334 167 338 Q165 333 158.5 314.5 Q152 296 144.5 275 Q137 254 130 236 Q123 218 122 212 Z M194 483 Q192 482 183.5 475.5 Q175 469 170 464 Q144 441 133 418 Q126 401 139 390 Q142 388 146 385 Q150 382 154 379 Q159 392 166 409.5 Q173 427 179 443.5 Q185 460 189.5 471.5 Q194 483 194 483 Z " />
<glyph glyph-name="percent" unicode="&#x25;" horiz-adv-x="368" d="M289 498 L289 497 Q289 481 280 468 Q268 452 251.5 437 Q235 422 216 420 Q197 418 193 432 Q191 442 194.5 454 Q198 466 205.5 478.5 Q213 491 223 502.5 Q233 514 242 523 Q249 529 260 532 Q271 535 273 522 L273 521 Q291 527 312 536.5 Q333 546 350 544 Q365 541 363 526 Q362 515 353.5 502 Q345 489 335 475 Q295 419 251 353 Q207 287 166 222.5 Q125 158 90.5 101 Q56 44 34 5 Q27 -2 18 1 Q12 3 12 9.5 Q12 16 15 21 Q31 50 56.5 92 Q82 134 112 182 Q142 230 173.5 280 Q205 330 233.5 373.5 Q262 417 285.5 450.5 Q309 484 322 500 Q323 501 327.5 507 Q332 513 334 515 Q333 515 326.5 513 Q320 511 312 508 Q304 505 297 502 Q290 499 289 498 Z M256 504 Q244 491 229.5 473 Q215 455 215 441 Q229 443 242 458.5 Q255 474 262 488 Q264 491 261 494 Q258 497 256 504 Z M143 91 Q146 88 155.5 94 Q165 100 175.5 110 Q186 120 194 131.5 Q202 143 204 152 Q204 153 203 154 Q199 163 207 171.5 Q215 180 224 175 Q232 171 232 164 Q232 157 230 150 Q211 96 159 72 Q147 67 135 68.5 Q123 70 120 84 Q118 100 125.5 115.5 Q133 131 141 143 Q148 153 156 162.5 Q164 172 170 176 Q179 181 184 175 Q189 170 186.5 164.5 Q184 159 180 155 Q174 149 166.5 138.5 Q159 128 153 118.5 Q147 109 143.5 101 Q140 93 143 91 Z " />
<glyph glyph-name="ampersand" unicode="&#x26;" horiz-adv-x="347" d="M205 208 Q195 202 185.5 195 Q176 188 166 182 Q159 178 151 175 Q143 172 135 174 Q121 179 120.5 192 Q120 205 123 216 Q131 236 140 253 Q149 270 160 287 Q138 281 114.5 273.5 Q91 266 74 271 Q61 275 57 284 Q53 293 55 301 Q57 318 69.5 335 Q82 352 99 366.5 Q116 381 134 392 Q152 403 164 408 Q179 415 195.5 417.5 Q212 420 227 411 Q239 428 255 453.5 Q271 479 288.5 508.5 Q306 538 323.5 568.5 Q341 599 357 627 Q373 655 386.5 678.5 Q400 702 408 716 Q412 723 420.5 730.5 Q429 738 437 731 Q443 726 436 714.5 Q429 703 421 690 Q397 649 379.5 618 Q362 587 346 559.5 Q330 532 313.5 503 Q297 474 275 437 Q270 428 264 417 Q258 406 251.5 396.5 Q245 387 238.5 380.5 Q232 374 227 374 Q219 374 216 376.5 Q213 379 211.5 382.5 Q210 386 209 389 Q208 392 205 391 Q197 391 190 389 Q183 387 175 384 Q166 379 150 369.5 Q134 360 118.5 348 Q103 336 92 322.5 Q81 309 81 297 Q85 295 95 296.5 Q105 298 117 301 Q129 304 142 308 Q155 312 164 315 Q172 319 182 317 Q192 315 193 305 Q194 292 184 276.5 Q174 261 169 251 Q163 239 155 224 Q147 209 147 201 Q155 205 164.5 212 Q174 219 183.5 226 Q193 233 202 238 Q211 243 219 243 Q232 241 234 232 Q236 223 232 211 Q203 129 177 45 Q151 -39 131 -125 Q129 -132 128 -139 Q127 -146 127 -154 Q125 -166 116 -169 Q108 -170 105 -165.5 Q102 -161 101 -154 Q100 -147 101 -140 Q102 -133 103 -128 Q123 -42 149.5 42 Q176 126 205 208 Z " />
<glyph glyph-name="quotesingle" unicode="&#x27;" horiz-adv-x="180" d="M164 677 Q159 665 155.5 655 Q152 645 147 632 Q142 623 133 627 Q123 630 125 640 Q130 653 133 662.5 Q136 672 141 683 Q143 689 148 692 Q153 695 158 693 Q165 691 165.5 686.5 Q166 682 164 677 Z " />
<glyph glyph-name="parenleft" unicode="&#x28;" horiz-adv-x="222" d="M110 433 Q134 492 164 547.5 Q194 603 231 656 Q238 666 246.5 676.5 Q255 687 263 696 Q271 705 278 710.5 Q285 716 289 717 Q299 719 302 710 Q304 702 297 697.5 Q290 693 287 688 Q262 657 241 625.5 Q220 594 200 561 Q179 524 163.5 491.5 Q148 459 135.5 428.5 Q123 398 113 367.5 Q103 337 93 304 Q78 245 68 200.5 Q58 156 52.5 119.5 Q47 83 44 52 Q41 21 39 -12 Q38 -18 39 -30 Q40 -42 43 -47 Q45 -59 36 -63 Q26 -68 20 -58 Q15 -52 15 -38 Q15 -24 15 -16 Q15 22 21 75 Q27 128 39 188 Q51 248 68.5 311 Q86 374 110 433 Z " />
<glyph glyph-name="parenright" unicode="&#x29;" horiz-adv-x="259" d="M-41 -55 Q-49 -52 -48.5 -47 Q-48 -42 -45 -36 Q0 42 39 121.5 Q78 201 115 282 Q128 312 144.5 357.5 Q161 403 174.5 458.5 Q188 514 195 578 Q202 642 197 711 Q195 717 201 721 Q212 727 217.5 720.5 Q223 714 225 708 Q231 659 226.5 602.5 Q222 546 210 487 Q198 428 179 370 Q160 312 137 260 Q104 187 67.5 114.5 Q31 42 -7 -29 Q-9 -32 -12.5 -37 Q-16 -42 -20.5 -46.5 Q-25 -51 -30 -54 Q-35 -57 -41 -55 Z " />
<glyph glyph-name="asterisk" unicode="&#x2a;" horiz-adv-x="247" d="M198 577 Q206 577 211 577 Q216 577 223 575 Q230 573 232.5 567.5 Q235 562 232 556 Q229 552 226 550.5 Q223 549 216 549 Q211 549 206 549 Q201 549 193 550 Q196 545 201.5 537 Q207 529 207 523 Q207 514 199 509 Q190 506 185 511 Q180 518 176 524.5 Q172 531 167 538 Q160 524 156 509.5 Q152 495 147 481 Q139 471 131.5 475.5 Q124 480 124 489 Q126 499 129.5 507.5 Q133 516 135 526 Q128 521 120 512 Q112 503 108 501 Q99 495 94 500 Q87 505 92 514 Q97 522 104 529.5 Q111 537 119 545 Q112 545 106.5 545.5 Q101 546 94 544 Q83 544 83 554 Q83 565 95 568 Q106 570 116.5 571 Q127 572 138 573 Q136 578 131.5 583.5 Q127 589 124 591 Q114 594 119 606 Q121 611 126 613 Q131 615 136 613 Q144 610 149.5 603.5 Q155 597 160 592 Q163 601 168 610 Q173 619 176 628 Q183 638 192 635 Q200 632 197 620 Q195 615 193.5 611 Q192 607 190 602 Q196 607 202.5 610.5 Q209 614 215 618 Q219 623 226 622.5 Q233 622 235 617 Q237 610 234 607 Q231 604 227 600 Q219 594 212 588.5 Q205 583 198 577 Z " />
<glyph glyph-name="plus" unicode="&#x2b;" horiz-adv-x="200" d="M82 295 L45 295 Q40 294 34.5 296.5 Q29 299 31 305 Q31 316 44 318 Q56 319 67.5 319.5 Q79 320 91 321 Q95 333 99.5 344.5 Q104 356 109 368 Q110 370 110 373 Q112 382 120 384 Q130 386 133 379 Q135 374 134 368 Q130 357 127 345 Q124 333 119 322 Q130 321 140.5 321 Q151 321 162 321 Q184 321 179 304 Q175 293 163 295 Q149 296 136 296 Q123 296 110 296 Q105 281 100 267 Q95 253 90 238 Q88 230 86 224 Q84 219 80.5 214 Q77 209 69 210 Q62 211 60 219 Q59 225 62 233 Q67 249 72 264.5 Q77 280 82 295 Z " />
<glyph glyph-name="comma" unicode="&#x2c;" horiz-adv-x="117" d="M5 147 Q6 150 9 160 Q12 170 16.5 182 Q21 194 26 207 Q31 220 35 231 Q40 244 51 240 Q61 236 58 226 Q53 207 46.5 189.5 Q40 172 34 153 Q30 143 27 139 Q24 134 18.5 133.5 Q13 133 8 137 Q5 140 5 147 Z " />
<glyph glyph-name="hyphen" unicode="&#x2d;" horiz-adv-x="170" d="M138 300 Q138 295 136.5 292 Q135 289 129 287 Q127 286 114.5 285.5 Q102 285 87.5 284.5 Q73 284 61 284 Q49 284 48 284 Q39 286 37 295 Q37 305 47 307 Q53 308 63 309 Q73 310 84 310.5 Q95 311 105.5 311 Q116 311 124 311 Q129 311 133.5 308.5 Q138 306 138 300 Z " />
<glyph glyph-name="period" unicode="&#x2e;" horiz-adv-x="98" d="M47 204 Q47 199 44 195.5 Q41 192 36 192 Q31 192 27.5 195.5 Q24 199 24 204 Q24 215 36 215 Q47 215 47 204 Z " />
<glyph glyph-name="one" unicode="1" horiz-adv-x="142" d="M78 394 Q73 391 67 394 Q62 397 61.5 403 Q61 409 66 414 Q77 422 88.5 430.5 Q100 439 111 446 Q118 450 127 454 Q136 458 143 449 Q150 442 147 433.5 Q144 425 141 418 Q110 346 87 289.5 Q64 233 45 176 L42 164 Q46 155 37 149 Q28 143 23 145 Q15 148 15 155.5 Q15 163 17 170 Q21 189 33.5 223 Q46 257 60.5 293.5 Q75 330 89 363.5 Q103 397 111 415 L78 394 Z " />
<glyph glyph-name="zero" unicode="0" horiz-adv-x="222" d="M38 258 Q47 293 60 322 Q73 354 93 377 Q96 383 105 382.5 Q114 382 116 374 Q117 371 116 367.5 Q115 364 112 362 Q110 360 109 359 Q108 358 106 356 Q101 347 96.5 337.5 Q92 328 87 318 Q69 279 60 237 Q60 234 58 223.5 Q56 213 56 201.5 Q56 190 58.5 182 Q61 174 70 177 Q78 179 85.5 184 Q93 189 98 194 Q120 214 136 240.5 Q152 267 163 293 Q173 314 178.5 336.5 Q184 359 182 382 Q180 389 177 392 Q176 394 173.5 393.5 Q171 393 169 391 Q158 387 153 396 Q151 400 151 405 Q151 410 155 413 Q162 418 172 420 Q182 422 192 414 Q202 405 207 391 Q209 383 209.5 374 Q210 365 209 357 Q207 339 202 322 Q197 305 190 288 Q176 257 158.5 228.5 Q141 200 117 176 Q103 162 86 155 Q74 150 62 151 Q47 153 40.5 165.5 Q34 178 32.5 195 Q31 212 33 229.5 Q35 247 38 258 Z " />
<glyph glyph-name="two" unicode="2" horiz-adv-x="204" d="M137 394 Q125 391 115 384 Q104 376 95 366.5 Q86 357 78 346 Q77 345 77 342 Q78 335 72 330 Q64 327 58 331 Q51 336 53 347 Q54 351 55.5 354.5 Q57 358 59 361 Q72 381 90.5 397.5 Q109 414 133 419 Q147 421 155.5 414 Q164 407 164 393 Q162 380 157 368 Q152 356 145 345 Q125 313 100.5 282 Q76 251 48 225 L59 225 Q79 226 100 226.5 Q121 227 142 228 Q148 228 155 225 Q162 222 162 215 Q163 209 158.5 204.5 Q154 200 149 201 Q128 203 106.5 201.5 Q85 200 65 200 Q49 198 33 197 Q17 196 3 189 Q-2 186 -8 186 Q-14 186 -18 191 Q-23 196 -19.5 202.5 Q-16 209 -11 212 Q-2 216 5 221.5 Q12 227 19 233 Q53 265 82 300 Q111 335 132 376 Q134 380 135.5 384.5 Q137 389 137 394 Z " />
<glyph glyph-name="three" unicode="3" horiz-adv-x="181" d="M110 339 Q136 332 145 311 Q151 294 146.5 277 Q142 260 135 245 Q126 226 115.5 208.5 Q105 191 92 174 Q78 156 62 141 Q54 133 45 128.5 Q36 124 25 126 Q9 131 8.5 145.5 Q8 160 11 172 Q23 217 41 254 Q44 261 49.5 266 Q55 271 63 266 Q73 261 68 250 Q60 233 53.5 216.5 Q47 200 41 183 Q39 175 37 167.5 Q35 160 34 152 Q39 154 42.5 158 Q46 162 51 166 Q69 184 85 208 Q97 229 109.5 250.5 Q122 272 122 297 Q120 308 109.5 311 Q99 314 90 318 Q75 325 81 341 Q85 349 91 357 Q97 365 103 372 Q115 387 127 401.5 Q139 416 149 433 Q143 430 137 427 Q131 424 125 420 Q111 411 98.5 400 Q86 389 74 377 Q70 372 66 367.5 Q62 363 60 357 Q57 347 46 349 Q37 351 37 361 Q37 373 47 384 Q57 395 64 403 Q73 412 85.5 422.5 Q98 433 111.5 442 Q125 451 138.5 456.5 Q152 462 162 460 Q170 458 174.5 451.5 Q179 445 177 437 Q176 428 167 414 Q158 400 150 390 Q140 377 129.5 365 Q119 353 110 339 Z " />
<glyph glyph-name="four" unicode="4" horiz-adv-x="192" d="M94 321 Q84 312 74 303.5 Q64 295 50 293 Q35 291 28 306 Q23 316 24.5 327.5 Q26 339 28 349 Q32 366 43.5 393 Q55 420 69 441 Q72 447 75.5 451 Q79 455 85 453 Q92 451 94 444.5 Q96 438 91 433 Q88 425 84.5 418.5 Q81 412 77 404 Q64 377 56 352 Q54 344 52 336 Q50 328 51 320 Q58 324 64 329 Q70 334 76 340 Q85 350 94.5 360 Q104 370 113 380 Q123 391 133 402 Q143 413 153 424 Q159 429 166 433.5 Q173 438 181 430 Q188 423 185.5 416 Q183 409 180 401 Q175 390 171.5 382 Q168 374 162 359 Q140 300 124.5 249 Q109 198 93 144 Q90 132 78 134 Q64 136 68 150 Q80 198 95.5 244 Q111 290 126 337 Q129 346 131.5 353 Q134 360 137 368 L94 321 Z " />
<glyph glyph-name="five" unicode="5" horiz-adv-x="222" d="M129 306 Q121 306 113 303.5 Q105 301 97 299 L64 287 Q53 283 44 288 Q35 293 38 306 Q44 328 54 344.5 Q64 361 75 381 Q77 386 80.5 391 Q84 396 85 400 Q76 397 72 400 Q67 405 68 414 Q70 423 77 424 L98 430 Q105 430 108 437 Q115 447 124 442 Q126 440 130 435 Q150 437 170.5 439 Q191 441 211 441 Q220 441 228.5 439.5 Q237 438 244 433 Q249 428 249 419 Q249 411 242 408 Q236 405 230 410 Q227 413 224 413 Q198 413 172 411.5 Q146 410 120 406 Q118 406 117 404 Q108 388 99 372 Q90 356 81 340 Q78 334 75 328.5 Q72 323 69 318 Q85 323 101.5 329 Q118 335 135 332 Q144 330 149.5 322.5 Q155 315 153 303 Q151 283 136 258.5 Q121 234 101 209.5 Q81 185 60.5 162.5 Q40 140 26 122 Q23 117 17.5 113.5 Q12 110 5 115 Q-4 124 9 142 Q23 160 39 177.5 Q55 195 70 212.5 Q85 230 98.5 248.5 Q112 267 122 288 Q125 295 126 298 Q127 301 129 306 Z " />
<glyph glyph-name="six" unicode="6" horiz-adv-x="191" d="M46 217 Q49 221 52.5 225.5 Q56 230 59 234 Q67 245 75.5 255.5 Q84 266 93 276 Q103 287 114.5 297.5 Q126 308 141 312 Q152 315 160 309 Q168 303 167 292 Q167 281 160.5 268.5 Q154 256 144.5 243.5 Q135 231 124.5 219.5 Q114 208 105 201 Q92 191 79 182.5 Q66 174 49 176 Q29 177 23 197 Q18 213 23 234.5 Q28 256 38.5 278.5 Q49 301 62.5 324 Q76 347 88 366 Q99 381 110 395 Q121 409 134 422 Q139 427 145 428 Q151 429 155 424 Q158 419 155 411 Q152 403 148 403 Q131 382 113.5 358 Q96 334 82 309 Q68 284 58 260.5 Q48 237 46 217 Z M138 283 Q134 281 123.5 270 Q113 259 102 246.5 Q91 234 82 222.5 Q73 211 72 208 Q78 211 88.5 220.5 Q99 230 109.5 242 Q120 254 128 265.5 Q136 277 138 283 Z " />
<glyph glyph-name="eight" unicode="8" horiz-adv-x="176" d="M27 136 Q14 136 5 143 Q-4 150 -6 161 Q-8 173 -0.5 188.5 Q7 204 14 217 Q28 239 43 261 Q58 283 74 304 Q75 306 75 309 Q71 317 68 331 Q59 362 80 394 Q106 432 146 450 Q157 455 171.5 455.5 Q186 456 192 446 Q196 437 195 428 Q194 417 185 402.5 Q176 388 163 372.5 Q150 357 136 341.5 Q122 326 110 313 Q106 309 106 305 Q108 296 110.5 289 Q113 282 115 268 Q120 239 107.5 210.5 Q95 182 75 160 Q65 150 53 143 Q41 136 27 136 Z M86 278 Q74 261 62 243.5 Q50 226 39 209 Q33 199 27 189.5 Q21 180 19 168 Q19 162 24.5 161 Q30 160 34 162 Q39 164 43.5 167 Q48 170 52 173 Q69 190 80.5 211.5 Q92 233 90 256 Q90 261 89 267 Q88 273 86 278 Z M169 430 Q162 430 154 426 Q122 412 101 381 Q93 369 92 354 Q92 341 95 331 Q108 348 121 362 Q134 376 146 393 Q153 401 159 410 Q165 419 169 430 Z " />
<glyph glyph-name="seven" unicode="7" horiz-adv-x="185" d="M154 410 Q140 408 127 406 Q114 404 100 402 Q92 401 85 401.5 Q78 402 76 410 Q74 415 78 420.5 Q82 426 87 425 Q106 426 123 430.5 Q140 435 159 436 Q166 436 170 435 Q186 431 183 418 Q180 405 172 391 Q164 380 157 369 Q150 358 143 347 Q138 339 133.5 332.5 Q129 326 124 318 Q132 319 140.5 319.5 Q149 320 156 318 Q164 316 167 308 Q169 303 164 296.5 Q159 290 152 292 Q144 294 140 294 Q132 293 124 292 Q116 291 108 290 Q105 290 104 287 Q83 252 63 216.5 Q43 181 28 143 Q27 140 28 138 Q31 134 29.5 129.5 Q28 125 24.5 122 Q21 119 16.5 117.5 Q12 116 8 118 Q-3 123 -1 133.5 Q1 144 4 152 Q18 187 35.5 220 Q53 253 73 285 Q71 284 69.5 284 Q68 284 66 283 Q56 281 53 289 Q51 294 52.5 298 Q54 302 58 304 Q65 308 72.5 309 Q80 310 88 312 Q89 312 91 314 Q106 338 122.5 361.5 Q139 385 154 410 Z " />
<glyph glyph-name="nine" unicode="9" horiz-adv-x="148" d="M45 336 Q53 343 61.5 352 Q70 361 77 369 Q88 383 99 396 Q110 409 121 423 Q125 428 129 433.5 Q133 439 137 444 Q141 450 149.5 449 Q158 448 161 444 Q166 439 161 428 Q156 418 151 408 Q146 398 141 387 Q134 372 127.5 357.5 Q121 343 115 328 Q95 279 76 229 Q57 179 41 128 Q39 122 34 119 Q29 116 24 118 Q13 122 16 134 Q30 182 48 227 Q66 272 83 318 Q86 326 89.5 333.5 Q93 341 96 349 Q88 342 82 334.5 Q76 327 68 322 Q63 318 58 315.5 Q53 313 47 312 Q27 309 22 328 Q20 340 22 352.5 Q24 365 29 377 Q34 389 40.5 399 Q47 409 53 416 Q62 426 75.5 436 Q89 446 104 441 Q112 438 112 431 Q112 419 99 419 Q93 419 88 415 Q83 411 78 406 Q67 391 56 373 Q45 355 45 336 Z " />
<glyph glyph-name="colon" unicode="&#x3a;" horiz-adv-x="117" d="M73 345 Q86 345 86 332 Q84 321 74 321 Q68 321 64 325 Q60 329 61 334 Q61 339 64.5 342.5 Q68 346 73 345 Z M50 273 Q55 273 58 269.5 Q61 266 61 261 Q59 250 49 250 Q38 252 38 262 Q38 267 41.5 270 Q45 273 50 273 Z " />
<glyph glyph-name="semicolon" unicode="&#x3b;" horiz-adv-x="111" d="M58 272 Q68 268 63 258 Q58 247 54 238.5 Q50 230 43 217 Q39 209 34 209 Q27 208 23.5 212.5 Q20 217 22 224 Q26 234 32.5 247.5 Q39 261 45 269 Q47 273 51 273.5 Q55 274 58 272 Z M80 344 Q91 342 91 331 Q90 326 86.5 323 Q83 320 78 321 Q73 321 70 324.5 Q67 328 68 333 Q68 338 71.5 341 Q75 344 80 344 Z " />
<glyph glyph-name="less" unicode="&#x3c;" horiz-adv-x="162" d="M151 359 Q153 350 143 345 Q119 334 95 323.5 Q71 313 48 299 Q79 276 106 253 Q108 252 110 250 Q117 242 108 233 Q106 231 101.5 230 Q97 229 91 233 Q78 241 66 251 Q54 261 42 272 Q37 277 30.5 281.5 Q24 286 22 291 Q16 305 32 316 Q52 331 79 342 Q106 353 132 364 Q137 366 143 365.5 Q149 365 151 359 Z " />
<glyph glyph-name="equal" unicode="&#x3d;" horiz-adv-x="228" d="M175 328 Q187 328 193.5 324.5 Q200 321 195 310 Q191 305 182 305 Q177 305 161 305.5 Q145 306 126.5 306.5 Q108 307 90.5 307 Q73 307 66 307 Q56 307 54 315 Q54 330 78 330 Q103 330 127.5 330 Q152 330 175 328 Z M174 291 Q187 291 185 280 Q185 273 178 271 Q170 270 152 269.5 Q134 269 114 269 Q94 269 77 270 Q60 271 53 272 Q42 274 46 283 Q49 293 60 293 Q86 293 113.5 293.5 Q141 294 174 291 Z " />
<glyph glyph-name="greater" unicode="&#x3e;" horiz-adv-x="174" d="M152 315 Q159 310 159 302.5 Q159 295 152 289 Q130 271 103.5 256.5 Q77 242 53 226 Q48 223 42.5 221.5 Q37 220 32 225 Q27 232 29.5 237 Q32 242 37 245 Q59 261 82.5 274 Q106 287 129 301 Q125 303 122 305.5 Q119 308 116 310 Q108 316 99.5 321.5 Q91 327 83 333 Q76 337 79 345 Q81 350 86.5 352 Q92 354 97 352 Q112 344 123.5 336 Q135 328 152 315 Z " />
<glyph glyph-name="question" unicode="&#x3f;" horiz-adv-x="351" d="M355 718 Q374 706 380.5 686 Q387 666 383 643 Q372 589 342 539.5 Q312 490 281 442 Q240 377 211 328.5 Q182 280 160.5 239.5 Q139 199 122.5 163 Q106 127 88 88 Q86 82 82.5 73 Q79 64 71 64 Q60 64 58.5 72.5 Q57 81 60 88 Q65 101 82 137.5 Q99 174 125.5 224.5 Q152 275 185.5 334 Q219 393 257 452 Q275 480 294.5 510.5 Q314 541 327 564 Q333 576 342.5 596.5 Q352 617 356 639 Q360 661 355 678.5 Q350 696 327 702 Q309 706 289 704 Q269 702 249.5 695 Q230 688 212 677.5 Q194 667 179 656 Q172 650 160 640.5 Q148 631 148 619 Q148 611 138 609 Q127 609 126 618 Q122 629 129.5 640.5 Q137 652 145 660 Q166 683 195.5 698.5 Q225 714 257 723 Q280 731 306.5 731.5 Q333 732 355 718 Z M22 -22 Q30 -24 32 -32 Q33 -35 30 -41.5 Q27 -48 22 -53 Q16 -59 9 -56 Q2 -53 2 -45 Q2 -40 5 -36.5 Q8 -33 10 -28 Q12 -20 22 -22 Z " />
<glyph glyph-name="slash" unicode="&#x2f;" horiz-adv-x="443" d="M494 710 Q500 702 496 694 Q493 688 489.5 683 Q486 678 482 673 Q480 670 455.5 634 Q431 598 392 541 Q353 484 304 412.5 Q255 341 204.5 266.5 Q154 192 105.5 120.5 Q57 49 18.5 -7 Q-20 -63 -43.5 -98 Q-67 -133 -68 -135 Q-72 -141 -75 -147.5 Q-78 -154 -82 -161 Q-82 -162 -82.5 -163 Q-83 -164 -83 -165 Q-88 -175 -97 -173 Q-107 -171 -107 -161 Q-107 -151 -101.5 -141.5 Q-96 -132 -91 -124 Q-89 -120 -66 -86 Q-43 -52 -6.5 2.5 Q30 57 76.5 125 Q123 193 171.5 265 Q220 337 267 406.5 Q314 476 352.5 532 Q391 588 416.5 625 Q442 662 448 670 Q449 671 449 671.5 Q449 672 450 673 Q446 678 447 681.5 Q448 685 450 690 Q455 698 463 705 Q471 712 479 715 Q489 718 494 710 Z " />
<glyph glyph-name="bracketleft" unicode="&#x5b;" horiz-adv-x="247" d="M329 740 Q338 740 342 735 Q346 730 343 723 Q341 718 337.5 717 Q334 716 330 716 Q321 715 309 714.5 Q297 714 287 713 Q282 713 280 708 Q278 702 266 668 Q254 634 235 581.5 Q216 529 192.5 463 Q169 397 144.5 326.5 Q120 256 96 187 Q72 118 52 60 Q32 2 18 -40.5 Q4 -83 -1 -100 Q14 -100 28.5 -98.5 Q43 -97 58 -95 Q64 -93 75.5 -91 Q87 -89 92 -90 Q97 -91 99.5 -95.5 Q102 -100 100 -105 Q97 -112 91 -114 Q85 -116 75 -118 Q56 -121 33 -124 Q10 -127 -6 -125 Q-27 -122 -27 -100 Q-27 -95 -26 -89.5 Q-25 -84 -23 -79 Q-22 -75 -10.5 -41.5 Q1 -8 19 44 Q37 96 60 161.5 Q83 227 107 296.5 Q131 366 154.5 434 Q178 502 198 558 Q218 614 232 653.5 Q246 693 251 706 Q255 717 261.5 726.5 Q268 736 282 738 Q294 739 305.5 739.5 Q317 740 329 740 Z " />
<glyph glyph-name="backslash" unicode="&#x5c;" horiz-adv-x="222" d="M167 -143 Q167 -144 167.5 -152 Q168 -160 169 -169.5 Q170 -179 170 -186.5 Q170 -194 170 -195 Q170 -207 158 -207 Q147 -207 145 -195 Q145 -190 143 -151 Q141 -112 137.5 -51.5 Q134 9 130 84.5 Q126 160 122 238.5 Q118 317 114 393 Q110 469 106.5 530 Q103 591 101 630.5 Q99 670 98 676 Q98 678 97.5 684 Q97 690 97 697 Q97 704 96.5 709.5 Q96 715 96 717 Q95 722 98 725 Q101 728 106 728 Q111 729 114 726 Q117 723 119 718 Q119 719 120.5 685.5 Q122 652 125.5 596.5 Q129 541 133 469 Q137 397 141 320.5 Q145 244 149.5 168 Q154 92 157.5 28 Q161 -36 163.5 -81.5 Q166 -127 167 -143 Z " />
<glyph glyph-name="bracketright" unicode="&#x5d;" horiz-adv-x="247" d="M255 712 Q235 715 216.5 714 Q198 713 178 713 Q177 713 176 712.5 Q175 712 174 712 Q166 709 160 715 Q155 721 159 728 Q163 735 170 736 Q183 737 200.5 738 Q218 739 234.5 738 Q251 737 263.5 734 Q276 731 279 723 Q283 715 280.5 705 Q278 695 274 684 Q271 673 258.5 636.5 Q246 600 227 546.5 Q208 493 184.5 427.5 Q161 362 137 294 Q113 226 89.5 160.5 Q66 95 46.5 41.5 Q27 -12 14 -49 Q1 -86 -3 -96 Q-6 -110 -20.5 -110 Q-35 -110 -59 -105 Q-68 -104 -71 -100 Q-74 -96 -73.5 -92 Q-73 -88 -70 -85 Q-67 -82 -65 -83 Q-55 -84 -42 -87 Q-29 -90 -27 -84 Q-25 -75 -16 -49.5 Q-7 -24 7 18 Q14 38 27.5 77 Q41 116 59 166 Q77 216 98 273.5 Q119 331 139.5 388.5 Q160 446 179.5 499.5 Q199 553 214 594.5 Q229 636 238 662 Q247 688 248 690 Q250 695 251.5 701 Q253 707 255 712 Z " />
<glyph glyph-name="asciicircum" unicode="&#x5e;" horiz-adv-x="221" d="M103 579 Q99 575 93 572 Q87 569 82 572 Q77 574 75.5 580 Q74 586 82 591 Q89 596 94.5 601 Q100 606 105 611 Q140 647 176 682 Q182 688 188 693 Q194 698 202 698 Q206 698 209.5 695 Q213 692 213 685 Q213 679 211.5 668.5 Q210 658 207.5 645.5 Q205 633 202 620 Q199 607 197 597 Q196 589 185 587 Q175 585 172 594 Q171 596 171.5 600.5 Q172 605 173 609 Q175 620 178 632 Q181 644 183 655 L103 579 Z " />
<glyph glyph-name="underscore" unicode="&#x5f;" horiz-adv-x="222" d="M163 195 Q152 196 132 196 Q112 196 91 196 Q70 196 53 195.5 Q36 195 31 195 Q26 195 20 195.5 Q14 196 10 201 Q6 207 9 213 Q14 221 22 220.5 Q30 220 38 220 Q64 222 94.5 222 Q125 222 153 222 Q161 222 168.5 221 Q176 220 181 215 Q188 208 184 201 Q180 194 174.5 194.5 Q169 195 163 195 Z " />
<glyph glyph-name="grave" unicode="&#x60;" horiz-adv-x="150" d="M122 689 Q127 689 129 686.5 Q131 684 133 680 Q136 667 140 651.5 Q144 636 144 625 Q144 620 140.5 616 Q137 612 132 611 Q125 609 122 614 Q119 619 118 624 Q116 634 114 644 Q112 654 110 664 Q104 687 122 689 Z " />
<glyph glyph-name="braceleft" unicode="&#x7b;" horiz-adv-x="241" d="M36 87 Q44 115 52.5 142 Q61 169 71 195 Q79 214 86.5 232 Q94 250 101 269 Q105 277 97.5 280.5 Q90 284 85 288 Q78 292 76 298 Q74 304 74.5 310 Q75 316 78 322.5 Q81 329 84 334 Q115 384 136.5 433.5 Q158 483 180 534 Q189 556 198 577 Q207 598 218 618 Q228 636 241 656 Q254 676 269 693 Q284 710 301 722.5 Q318 735 336 738 Q349 741 360 736 Q365 733 366.5 728 Q368 723 363 718 Q359 712 352 714 Q347 716 339 714 Q319 708 302.5 693.5 Q286 679 273 661 Q260 643 249.5 623.5 Q239 604 232 587 Q212 543 197 504.5 Q182 466 165 429 Q155 406 143.5 385 Q132 364 120 343 Q115 335 111.5 328 Q108 321 104 313 Q102 309 102 307.5 Q102 306 106 304 Q108 302 110 301.5 Q112 301 114 299 Q132 287 127 266 Q125 259 122.5 252 Q120 245 117 238 Q107 215 98 192 Q89 169 81 145 Q59 79 47 18 Q35 -43 43 -108 Q45 -119 46.5 -128.5 Q48 -138 50 -148 Q51 -154 54 -159 Q54 -162 57 -163 Q65 -166 65 -174 Q65 -182 57 -185 Q51 -188 45.5 -186 Q40 -184 36 -179 Q28 -167 24.5 -153.5 Q21 -140 19 -127 Q11 -67 16.5 -16 Q22 35 36 87 Z " />
<glyph glyph-name="bar" unicode="&#x7c;" horiz-adv-x="198" d="M250 729 Q258 731 262 726.5 Q266 722 264 716 Q260 702 254 686 Q253 683 239.5 645 Q226 607 205 547.5 Q184 488 157 412.5 Q130 337 102.5 259 Q75 181 48.5 106 Q22 31 0.5 -28 Q-21 -87 -34 -124 Q-47 -161 -48 -163 Q-50 -168 -53.5 -174.5 Q-57 -181 -64 -179 Q-72 -177 -74 -169 Q-74 -164 -73 -159.5 Q-72 -155 -70 -150 Q-69 -148 -56 -111 Q-43 -74 -22 -15 Q-1 44 25 118.5 Q51 193 79 270.5 Q107 348 133 422.5 Q159 497 180 556 Q201 615 214 651.5 Q227 688 228 690 Q231 698 236 712.5 Q241 727 250 729 Z " />
<glyph glyph-name="braceright" unicode="&#x7d;" horiz-adv-x="228" d="M231 647 Q220 609 206.5 577 Q193 545 180 513 Q166 479 152.5 446.5 Q139 414 134 380 Q131 364 135 350.5 Q139 337 144 323 Q145 321 146 318 Q147 315 148 313 Q155 298 148 280 Q142 263 135.5 249 Q129 235 127 213 Q121 181 110 146.5 Q99 112 85 77 Q71 42 54.5 7.5 Q38 -27 20 -57 Q6 -83 -8.5 -108 Q-23 -133 -38 -158 Q-40 -162 -42.5 -165.5 Q-45 -169 -48 -173 Q-51 -177 -55 -180 Q-62 -185 -69 -180 Q-76 -174 -73 -166 Q-72 -162 -69 -158 Q-43 -117 -21 -78 Q1 -39 21 0 Q47 56 69 109 Q91 162 101 217 Q104 242 111.5 257 Q119 272 124 289 Q126 295 123 305 Q116 322 110 337.5 Q104 353 106 369 Q111 404 121.5 435.5 Q132 467 145 496 Q163 541 184 585.5 Q205 630 210 676 Q211 686 210.5 697.5 Q210 709 198 711 Q191 713 186 714 Q181 715 182 723 Q183 733 189 735 Q195 737 203 735 Q231 729 236 702 Q238 688 235.5 674.5 Q233 661 231 647 Z " />
<glyph glyph-name="asciitilde" unicode="&#x7e;" horiz-adv-x="244" d="M173 309 Q180 314 186.5 319 Q193 324 201 330 Q216 340 224 330 Q228 325 226.5 320 Q225 315 220 311 Q203 300 187.5 287.5 Q172 275 155 264 Q147 260 142 260 Q128 260 122 272 Q118 280 117.5 288 Q117 296 116 305 Q114 304 112 303 Q110 302 108 301 Q94 293 82.5 284.5 Q71 276 59 267 Q54 264 50 265.5 Q46 267 43 271 Q38 277 45 286 Q59 300 78 313 Q97 326 117 332 Q128 335 133.5 330.5 Q139 326 141 317 Q142 309 142 299 Q142 289 146 290 L173 309 Z " />
<glyph glyph-name="at" unicode="&#x40;" horiz-adv-x="377" d="M221 302 Q208 288 189.5 272 Q171 256 151 251 Q137 248 129 259 Q124 271 125.5 284.5 Q127 298 132 310.5 Q137 323 144.5 334 Q152 345 159 353 Q169 363 179 369 Q189 375 200 375 Q209 374 213.5 367 Q218 360 216 352 Q212 344 207 343 Q199 341 194 346 Q194 347 192 349 Q182 344 172 330 Q162 316 157 307 Q150 294 152 277 Q160 281 166.5 286.5 Q173 292 180 297 Q192 308 203.5 319 Q215 330 226 341 Q232 348 238.5 354 Q245 360 250 365 Q255 370 261.5 368 Q268 366 270 360 Q272 353 269 348 Q266 343 263 337 Q254 320 248 299 Q247 295 246.5 292 Q246 289 246 285 Q246 281 251 281 Q272 285 289.5 304 Q307 323 318 338 Q327 350 339.5 371.5 Q352 393 358.5 415 Q365 437 360.5 455.5 Q356 474 331 481 Q301 489 270 484 Q239 479 214 465 Q173 442 145.5 408.5 Q118 375 97 338 Q89 324 82 309 Q75 294 69 279 Q63 262 59.5 246.5 Q56 231 55 214 Q53 180 63 154 Q73 131 92 119 Q119 107 139 114 Q160 121 176.5 132 Q193 143 207.5 156 Q222 169 235 183.5 Q248 198 261 211 L266 216 Q275 221 282 217 Q289 209 285 202 Q281 196 279 194 Q274 189 269 183.5 Q264 178 259 173 Q233 146 208.5 124 Q184 102 149 91 Q102 77 65 104 Q46 120 38 144.5 Q30 169 29.5 196 Q29 223 35 250.5 Q41 278 51 302 Q76 360 115 410 Q141 442 171.5 466 Q202 490 240 503 Q287 516 336 505 Q369 494 380.5 468.5 Q392 443 384 412 Q376 383 360.5 357 Q345 331 325 307 Q311 290 295 277 Q283 268 268.5 260 Q254 252 240 256 Q224 258 221 273 Q219 281 219.5 287.5 Q220 294 221 302 Z " />
<glyph glyph-name="A" unicode="A" horiz-adv-x="411" d="M431 713 Q436 705 436.5 690 Q437 675 436 666 Q433 640 427.5 615 Q422 590 415 565 Q402 517 388 470.5 Q374 424 359 376 Q354 362 348 343 Q342 324 336 306 Q330 288 326 275.5 Q322 263 322 262 Q332 262 345 261.5 Q358 261 366 253 Q374 245 368 234 Q364 226 357 228 Q350 230 346 235 Q338 236 329 235.5 Q320 235 312 235 Q295 188 276 131 Q257 74 238 14 Q219 -46 200 -105 Q181 -164 163 -213 Q160 -221 160 -229 Q160 -237 151 -239 Q143 -241 138.5 -234.5 Q134 -228 136 -221 Q149 -171 168.5 -109.5 Q188 -48 209 14 Q230 76 250 133.5 Q270 191 284 233 Q248 226 210 219 Q172 212 137 204 Q132 204 129 199 Q111 168 93.5 138 Q76 108 59 77 Q45 53 30 28.5 Q15 4 -1 -20 Q-15 -40 -34 -63 Q-39 -68 -44 -73.5 Q-49 -79 -56 -81 Q-64 -84 -71.5 -80 Q-79 -76 -80 -66 Q-81 -60 -80 -54.5 Q-79 -49 -77 -44 Q-74 -35 -70.5 -25.5 Q-67 -16 -62 -7 Q-53 12 -42.5 30 Q-32 48 -21 67 Q-11 82 -2.5 97 Q6 112 15 127 Q23 140 28.5 152 Q34 164 34 178 Q11 172 -11.5 165 Q-34 158 -56 150 Q-67 146 -78 142 Q-89 138 -100 134 Q-107 132 -113.5 132 Q-120 132 -125 139 Q-128 144 -123 150.5 Q-118 157 -109.5 162.5 Q-101 168 -92 172.5 Q-83 177 -79 179 Q-63 186 -47 192.5 Q-31 199 -14 204 Q-2 207 11.5 209.5 Q25 212 38 209 Q41 207 46 209 Q62 213 78 217 Q94 221 110 225 Q114 226 116 230 Q141 275 165 319 Q189 363 212 408 Q236 452 258.5 495 Q281 538 304 582 Q310 593 321.5 615 Q333 637 348 660 Q363 683 379 701.5 Q395 720 409 723 Q423 726 431 713 Z M97 194 Q95 194 90 193 Q85 192 79 190.5 Q73 189 68 188 Q63 187 60 186 Q62 166 54.5 148 Q47 130 36 112 Q25 91 12.5 70.5 Q0 50 -12 29 Q-22 13 -30.5 -3.5 Q-39 -20 -47 -37 Q-41 -32 -33.5 -21.5 Q-26 -11 -18.5 0 Q-11 11 -4.5 22 Q2 33 6 40 L97 194 Z M407 648 Q409 657 411 673 Q413 689 411 696 Q406 692 399.5 686 Q393 680 390 676 Q380 663 371.5 649 Q363 635 355 621 Q338 592 322.5 561.5 Q307 531 290 500 Q267 454 243 409 Q219 364 195 319 Q189 309 182.5 297 Q176 285 169.5 273 Q163 261 157.5 250.5 Q152 240 149 234 Q185 242 220.5 248 Q256 254 293 260 Q299 279 309 308 Q319 337 327 362 Q341 402 353 442.5 Q365 483 377 524 Q385 555 393.5 585.5 Q402 616 407 648 Z " />
<glyph glyph-name="B" unicode="B" horiz-adv-x="475" d="M437 627 Q444 620 444 607 Q444 591 436.5 575.5 Q429 560 421 547 Q411 530 400 513.5 Q389 497 377 480 Q356 451 334.5 423 Q313 395 291 366 Q277 349 260 325 Q243 301 238 287 Q235 278 251.5 274 Q268 270 286 265 Q302 260 317.5 254.5 Q333 249 347 241 Q357 235 365.5 228.5 Q374 222 381 214 Q403 188 404 156 Q404 124 392.5 95.5 Q381 67 366 41 Q337 -4 303 -43 Q280 -69 255.5 -93.5 Q231 -118 205 -140 Q170 -171 129 -197 Q88 -223 43 -237 Q24 -242 4 -244 Q-16 -246 -34 -242 Q-52 -238 -66.5 -225.5 Q-81 -213 -87 -190 Q-92 -174 -90.5 -155.5 Q-89 -137 -83.5 -118 Q-78 -99 -70.5 -81 Q-63 -63 -54 -49 Q-34 -17 -11 9 Q15 38 42.5 66.5 Q70 95 99 122 Q115 136 130.5 150 Q146 164 163 177 Q173 184 185.5 192 Q198 200 210 200 Q223 201 230 189 Q233 181 228 176 Q222 170 215 173 Q210 177 199.5 170 Q189 163 185 160 Q169 149 155 137 Q141 125 127 112 Q103 90 77.5 65.5 Q52 41 28.5 15 Q5 -11 -15 -38 Q-35 -65 -47 -92 Q-53 -105 -58.5 -124 Q-64 -143 -64 -161.5 Q-64 -180 -56.5 -195.5 Q-49 -211 -29 -217 Q-9 -223 15.5 -218 Q40 -213 64 -202 Q88 -191 110.5 -177 Q133 -163 149 -151 Q184 -125 216.5 -95 Q249 -65 278 -33 Q293 -16 307 2 Q321 20 334 40 Q343 54 352.5 70.5 Q362 87 368.5 104.5 Q375 122 377.5 140.5 Q380 159 374 176 Q370 186 364 193.5 Q358 201 350 208 Q330 223 307 230.5 Q284 238 260 245 Q241 250 226 257 Q205 270 212 293 Q216 306 229 325.5 Q242 345 253 360 Q270 382 287 403.5 Q304 425 321 448 Q337 469 352.5 490.5 Q368 512 382 534 Q393 551 404 570 Q415 589 417 609 Q399 606 383 596 Q368 588 354.5 578 Q341 568 327 557 Q290 526 257 490 Q228 458 201 425 Q174 392 149 357 Q113 307 81.5 255 Q50 203 18 150 Q13 141 8 133 Q3 125 -6 126 Q-15 127 -18 132.5 Q-21 138 -21 145.5 Q-21 153 -19.5 160 Q-18 167 -17 172 Q-9 204 0 235 Q9 266 19 298 Q30 332 41 365 Q52 398 63 432 Q80 483 98 532 Q116 581 136 630 Q144 653 152.5 675 Q161 697 169 719 Q171 724 172.5 727 Q174 730 180 732 Q188 734 193 727 Q198 720 194 712 Q192 709 191 707 Q190 705 189 703 Q184 689 179.5 676 Q175 663 170 649 Q153 604 136.5 558.5 Q120 513 103 468 Q89 429 76 390 Q63 351 50 311 Q43 288 35 260 Q27 232 19 203 Q40 238 61.5 273 Q83 308 106 342 Q129 374 152 405.5 Q175 437 201 467 Q243 516 291 560 Q307 574 323.5 587.5 Q340 601 358 612 Q366 617 377 622.5 Q388 628 399.5 631 Q411 634 421 633.5 Q431 633 437 627 Z " />
<glyph glyph-name="C" unicode="C" horiz-adv-x="340" d="M374 694 Q380 685 381.5 672.5 Q383 660 382 646.5 Q381 633 378 619.5 Q375 606 371 595 Q363 574 354 554.5 Q345 535 334 515 Q327 502 320.5 489.5 Q314 477 306 465 Q302 458 301 452 Q299 441 290 443 Q281 443 279 451.5 Q277 460 281 468 Q292 491 304.5 514 Q317 537 329 563 Q339 583 348.5 609 Q358 635 360 656 Q360 661 359 671.5 Q358 682 349 683 Q340 684 331.5 679.5 Q323 675 315 668.5 Q307 662 299.5 653.5 Q292 645 286 638 Q271 621 258 603.5 Q245 586 233 567 Q189 500 155 431 Q135 392 118 352.5 Q101 313 85 272 Q66 222 50.5 170.5 Q35 119 24 63 Q17 22 15 -20.5 Q13 -63 24 -106 Q27 -120 33.5 -133.5 Q40 -147 51 -158 Q58 -164 66 -165 Q74 -166 82 -163.5 Q90 -161 97.5 -156 Q105 -151 112 -146 Q135 -126 154 -99 Q170 -76 184 -52.5 Q198 -29 211 -4 Q214 2 217 8 Q220 14 222 21 Q223 29 233 31 Q243 31 246 22 Q248 15 245 9 Q243 4 241.5 0 Q240 -4 238 -9 Q228 -28 217.5 -46 Q207 -64 196 -82 Q188 -94 180.5 -105 Q173 -116 165 -127 Q151 -146 131 -165 Q111 -184 85 -190 Q65 -195 50.5 -187.5 Q36 -180 25 -166.5 Q14 -153 7 -135.5 Q0 -118 -4 -102 Q-15 -43 -8.5 15 Q-2 73 13 132 Q27 188 46 241.5 Q65 295 88 348 Q102 382 118 415.5 Q134 449 151 481 Q171 516 191.5 550.5 Q212 585 235 617 Q246 631 256.5 644 Q267 657 279 669 Q290 681 306 693 Q322 705 340 707 Q362 710 374 694 Z " />
<glyph glyph-name="D" unicode="D" horiz-adv-x="556" d="M512 619 Q527 602 533.5 577 Q540 552 541 523.5 Q542 495 538 465.5 Q534 436 528 411 Q517 366 501.5 323.5 Q486 281 467 239 Q453 209 438 179.5 Q423 150 406 121 Q385 85 362.5 51 Q340 17 316 -16 Q275 -72 229 -121 Q211 -139 192 -156 Q173 -173 152 -188 Q136 -199 120 -208 Q104 -217 86 -224 Q66 -232 39.5 -235 Q13 -238 -10 -224 Q-46 -202 -51 -151 Q-53 -134 -50 -117.5 Q-47 -101 -42 -84 Q-28 -42 1 -4 Q12 12 25 26.5 Q38 41 51 55 Q77 82 104 108.5 Q131 135 163 157 Q170 162 180 167.5 Q190 173 200 169 Q212 164 211 152 Q210 145 205 142.5 Q200 140 195 142 Q191 142 190 142.5 Q189 143 184 140 Q161 124 140 105 Q119 86 94 61 Q77 44 61 27 Q45 10 30 -9 Q3 -42 -13 -81 Q-21 -101 -25 -127.5 Q-29 -154 -18 -177 Q-9 -198 13 -206 Q32 -211 51.5 -206.5 Q71 -202 89 -194 Q121 -180 150 -156.5 Q179 -133 209 -103 Q238 -73 264 -41 Q290 -9 314 25 Q338 60 360.5 95.5 Q383 131 403 169 Q443 244 472 320 Q482 345 491.5 377 Q501 409 507 443 Q513 477 514 509.5 Q515 542 509 569 Q504 588 491.5 602.5 Q479 617 456 617 Q436 617 417 609 Q398 601 380 588 Q362 577 346 563 Q330 549 315 534 Q291 511 269 485.5 Q247 460 227 433 Q199 397 174 358.5 Q149 320 126 280 Q111 254 97.5 228 Q84 202 70 175 Q63 161 56 146 Q49 131 42 117 Q39 111 35.5 106.5 Q32 102 22 104 Q12 106 12 114 Q12 122 14 130 Q21 156 29 182 Q37 208 45 234 Q56 267 66.5 300.5 Q77 334 88 368 Q103 412 116 451 Q129 490 141.5 528 Q154 566 167.5 604.5 Q181 643 198 686 Q199 690 202.5 699 Q206 708 210.5 717.5 Q215 727 220.5 735 Q226 743 232 745 Q237 747 243 741 Q249 735 244 728 Q239 720 233 703.5 Q227 687 221 673 Q208 639 197.5 609.5 Q187 580 177 551 Q167 522 157 492 Q147 462 135 428 Q121 385 107 342 Q93 299 78 249 Q111 309 146.5 364.5 Q182 420 224 473 Q245 499 267.5 523 Q290 547 314 570 Q337 590 364.5 610 Q392 630 424 639 Q447 645 470 642 Q493 639 512 619 Z " />
<glyph glyph-name="E" unicode="E" horiz-adv-x="426" d="M473 741 Q497 726 500.5 702 Q504 678 496.5 651.5 Q489 625 475 599 Q461 573 450 555 Q432 527 413 500.5 Q394 474 374 447 Q370 443 369 439 Q364 428 355 432 Q348 435 348 445 Q348 449 352 456.5 Q356 464 362 472.5 Q368 481 375 490 Q382 499 387 506 Q409 537 433 576 Q457 615 469 647 Q475 662 476.5 677.5 Q478 693 473.5 704.5 Q469 716 456 721.5 Q443 727 420 723 Q406 721 393 715.5 Q380 710 366 704 Q302 673 250.5 620.5 Q199 568 155 508 Q140 488 126.5 466 Q113 444 100 422 Q84 396 72.5 367.5 Q61 339 54 308 Q48 277 50.5 254.5 Q53 232 65 215 Q77 198 97 185.5 Q117 173 145 161 Q157 156 171 150.5 Q185 145 193 139 Q211 126 201 108 Q191 91 166.5 68 Q142 45 120 22 Q90 -9 64 -42.5 Q38 -76 16 -114 Q3 -137 -4.5 -163 Q-12 -189 -1 -212 Q7 -228 24 -229 Q42 -229 60 -221.5 Q78 -214 95.5 -203.5 Q113 -193 129 -180.5 Q145 -168 158 -159 Q187 -138 207.5 -121 Q228 -104 251 -85 Q254 -83 261.5 -76 Q269 -69 277.5 -62.5 Q286 -56 293.5 -52.5 Q301 -49 304 -54 Q310 -59 307 -65.5 Q304 -72 299 -75 Q284 -89 268.5 -101 Q253 -113 236 -126 Q219 -140 191.5 -162.5 Q164 -185 133.5 -206 Q103 -227 72 -241 Q41 -255 19 -252 Q2 -250 -7 -243 Q-16 -236 -23 -225 Q-39 -193 -30.5 -158 Q-22 -123 6 -81 Q31 -43 61 -7 Q91 29 134 72 Q148 86 159 97.5 Q170 109 178 119 Q170 124 161 127.5 Q152 131 142 135 Q124 142 105.5 151 Q87 160 71 172 Q55 184 43 200.5 Q31 217 26 239 Q19 274 26 309.5 Q33 345 48 379.5 Q63 414 82.5 446 Q102 478 122 506 Q146 541 181.5 582.5 Q217 624 258.5 660.5 Q300 697 344.5 722 Q389 747 433 749 Q444 749 453.5 747.5 Q463 746 473 741 Z " />
<glyph glyph-name="F" unicode="F" horiz-adv-x="709" d="M1092 702 Q1094 694 1088 688 Q1081 683 1075 686 Q1069 689 1061 689 Q1059 689 1027.5 688 Q996 687 945 685 Q894 683 829 680.5 Q764 678 696.5 675.5 Q629 673 564.5 670.5 Q500 668 448 666 Q396 664 363 662.5 Q330 661 327 661 Q320 645 291 566 Q262 487 215 359 Q222 359 254.5 360.5 Q287 362 332.5 363.5 Q378 365 430 367 Q482 369 526.5 370.5 Q571 372 602 372.5 Q633 373 638 373 Q646 372 656.5 367 Q667 362 660 350 Q656 343 646 344 Q636 345 628 347 Q625 347 605 346.5 Q585 346 553.5 345 Q522 344 483 342.5 Q444 341 404 339.5 Q364 338 326.5 336.5 Q289 335 261 334 Q233 333 217 332 Q201 331 205 331 Q201 323 191.5 297.5 Q182 272 168.5 234.5 Q155 197 139.5 151.5 Q124 106 108 58.5 Q92 11 76.5 -35.5 Q61 -82 48.5 -121 Q36 -160 27.5 -188.5 Q19 -217 16 -229 Q16 -239 6 -241 Q-4 -244 -7 -235 Q-11 -229 -9 -218 Q-9 -213 4.5 -172 Q18 -131 38 -71.5 Q58 -12 82 56.5 Q106 125 126.5 184.5 Q147 244 161.5 284.5 Q176 325 177 329 Q144 327 112.5 325 Q81 323 48 321 Q41 320 36 320.5 Q31 321 29 329 Q27 337 35 340.5 Q43 344 50 345 Q85 349 115.5 351.5 Q146 354 186 357 Q191 372 204.5 409 Q218 446 235 491 Q252 536 269 582 Q286 628 299 661 Q293 660 267 659 Q241 658 209 656.5 Q177 655 146 654 Q115 653 99 653 Q94 653 89.5 655 Q85 657 85 663 Q85 670 90.5 673.5 Q96 677 101 677 Q103 677 118 677.5 Q133 678 154 679.5 Q175 681 199.5 682.5 Q224 684 246.5 685 Q269 686 286.5 687 Q304 688 311 689 Q316 700 321 714.5 Q326 729 329 734 Q332 739 336 742.5 Q340 746 348 744 Q358 741 353 728 Q350 720 347 712 Q344 704 339 691 Q344 691 375.5 692.5 Q407 694 456.5 695.5 Q506 697 567.5 699.5 Q629 702 693 704.5 Q757 707 818.5 709 Q880 711 929.5 713 Q979 715 1011.5 716 Q1044 717 1049 717 Q1062 717 1074.5 715 Q1087 713 1092 702 Z " />
<glyph glyph-name="G" unicode="G" horiz-adv-x="599" d="M641 590 Q641 584 639 576 Q634 559 628 543.5 Q622 528 615 512 Q602 481 589 450.5 Q576 420 562 390 Q534 329 504.5 269 Q475 209 442 149 Q427 122 409 93.5 Q391 65 372 37 Q353 9 333.5 -16 Q314 -41 296 -62 Q256 -107 211 -140 Q197 -150 177.5 -161 Q158 -172 136.5 -180 Q115 -188 94 -191 Q73 -194 57 -186 Q43 -179 37.5 -165.5 Q32 -152 36 -138 Q41 -119 57 -104 Q73 -89 90 -80 Q114 -66 139 -55 Q164 -44 190 -36 Q204 -31 218 -30 Q228 -30 232 -32 Q240 -34 243 -42 Q245 -51 240 -55 Q233 -62 226 -57 Q223 -56 218 -56 Q209 -58 201 -60 Q193 -62 185 -65 Q146 -79 111 -98 Q105 -101 96.5 -106 Q88 -111 80 -118 Q72 -125 66.5 -133 Q61 -141 61 -151 Q61 -159 68.5 -163.5 Q76 -168 85 -168 Q105 -170 125 -160.5 Q145 -151 164 -140 Q187 -126 207.5 -109.5 Q228 -93 248 -75 Q280 -43 310 -4 Q340 35 378 91 Q401 128 421.5 166.5 Q442 205 465 247 Q488 290 508.5 334.5 Q529 379 549 425 Q562 454 574 482 Q586 510 597 539 Q565 499 533 460.5 Q501 422 466 382 Q419 328 367 276 Q315 224 252 176 Q236 164 217 151.5 Q198 139 178 130 Q158 121 137.5 116 Q117 111 98 114 Q67 119 51.5 140.5 Q36 162 31 191 Q26 225 30 264 Q34 303 44.5 343 Q55 383 70 421 Q85 459 103 491 Q124 533 151.5 572 Q179 611 216 646 Q236 665 260 680 Q284 695 313 700 Q330 702 344 696 Q361 688 368.5 670.5 Q376 653 376 633 Q376 613 371.5 591 Q367 569 353 546 Q351 544 350.5 541.5 Q350 539 348 537 Q343 529 333 532 Q324 537 327 546 Q329 550 330 553 Q331 556 333 560 Q339 574 343 589 Q347 604 349 620 Q350 627 350 636 Q350 645 347.5 653.5 Q345 662 339.5 668 Q334 674 324 674 Q311 675 298 670.5 Q285 666 272 658 Q259 650 247.5 640 Q236 630 226 620 Q206 600 188.5 577 Q171 554 155 530 Q131 492 113 452 Q99 423 88 392.5 Q77 362 68 329 Q63 311 59 289 Q55 267 54 244.5 Q53 222 55.5 200.5 Q58 179 66 163 Q73 149 85 142.5 Q97 136 112 137 Q132 137 151 145.5 Q170 154 190 165 Q236 193 277.5 229 Q319 265 362 310 Q406 352 446.5 398 Q487 444 531 498 Q547 518 562.5 537.5 Q578 557 595 577 Q600 584 607.5 592 Q615 600 621 602 Q628 604 634 601 Q640 598 641 590 Z " />
<glyph glyph-name="H" unicode="H" horiz-adv-x="444" d="M379 420 Q388 421 396.5 422.5 Q405 424 415 425 Q429 427 443.5 425 Q458 423 460 412 Q461 405 456 400 Q451 395 444 397 Q433 401 417 399 Q414 399 407.5 398 Q401 397 393.5 395.5 Q386 394 379 392.5 Q372 391 369 390 Q352 345 329.5 277.5 Q307 210 283 131.5 Q259 53 234.5 -31 Q210 -115 189 -193 Q187 -201 186 -208 Q185 -215 185 -222 Q185 -227 183 -230 Q179 -235 172.5 -235.5 Q166 -236 163 -230 Q159 -224 159.5 -215 Q160 -206 161 -199 Q162 -189 174.5 -146.5 Q187 -104 204.5 -44.5 Q222 15 243 83.5 Q264 152 283 213.5 Q302 275 317 321 Q332 367 338 382 Q303 374 264.5 362.5 Q226 351 188 340 Q165 286 144.5 230.5 Q124 175 99 109 Q88 83 77 57 Q66 31 54 2 Q52 -3 47.5 -9 Q43 -15 36 -13 Q26 -10 26 -2 Q24 4 28 13 Q32 22 36 27 Q42 38 49.5 54 Q57 70 64 87.5 Q71 105 75 122.5 Q79 140 77 155 Q75 164 71.5 172.5 Q68 181 61 186 Q53 193 43 199 Q33 205 22.5 210.5 Q12 216 3 222 Q-6 228 -10 234 Q-23 248 -13 268 Q-6 280 7.5 290 Q21 300 35 308 Q61 323 97 338 Q133 353 168 361 Q206 455 237.5 537.5 Q269 620 301 705 Q303 709 305 715.5 Q307 722 310 728 Q313 734 317 737.5 Q321 741 327 740 Q336 738 334.5 730 Q333 722 331 716 Q317 681 300 635.5 Q283 590 265 542.5 Q247 495 230 450.5 Q213 406 200 372 Q238 383 274.5 393 Q311 403 349 412 Q373 479 394.5 545.5 Q416 612 441 678 Q446 688 449 698 Q452 708 457 717 Q464 725 472 722 Q481 716 477 708 L379 420 Z M98 178 Q113 216 127.5 253.5 Q142 291 156 330 Q129 320 102.5 310 Q76 300 49 286 Q34 278 19 267 Q4 256 10 249 Q18 243 24 239 Q30 235 45 226 Q59 218 74 206.5 Q89 195 98 178 Z " />
<glyph glyph-name="I" unicode="I" horiz-adv-x="160" d="M234 696 Q246 692 239 678 Q234 669 220.5 634 Q207 599 188 547.5 Q169 496 145.5 431.5 Q122 367 97.5 298 Q73 229 49 159.5 Q25 90 4.5 28.5 Q-16 -33 -31.5 -82.5 Q-47 -132 -54 -161 Q-56 -167 -58.5 -173.5 Q-61 -180 -72 -179 Q-80 -178 -81 -171 Q-82 -164 -80 -157 Q-77 -143 -65.5 -105.5 Q-54 -68 -36.5 -15 Q-19 38 3 103 Q25 168 49 236.5 Q73 305 97 373 Q121 441 143 500.5 Q165 560 183.5 607.5 Q202 655 214 682 Q217 689 222 693.5 Q227 698 234 696 Z " />
<glyph glyph-name="J" unicode="J" horiz-adv-x="520" d="M423 673 Q454 665 474 647.5 Q494 630 504.5 605 Q515 580 516.5 549.5 Q518 519 512 485 Q502 424 477.5 365.5 Q453 307 422 248 Q411 228 400 207 Q389 186 377 166 Q359 137 339 107 Q319 77 298 47.5 Q277 18 256 -8.5 Q235 -35 216 -57 Q188 -89 152 -116 Q116 -143 71 -156 Q54 -160 34 -161 Q14 -162 -4.5 -156.5 Q-23 -151 -36.5 -138 Q-50 -125 -53 -101 Q-56 -80 -50.5 -59 Q-45 -38 -34 -18 Q-23 2 -8.5 20 Q6 38 20 54 Q44 81 70 104.5 Q96 128 124 150 Q170 187 218 221.5 Q266 256 318 286 Q326 291 336.5 297.5 Q347 304 358 304 Q366 304 369.5 298.5 Q373 293 372 287 Q371 278 359 273 Q354 271 351.5 270.5 Q349 270 345 272 Q339 268 335 266 Q316 255 298 243.5 Q280 232 262 220 Q221 191 181 162 Q141 133 103 99 Q85 83 62.5 61 Q40 39 20 13.5 Q0 -12 -13.5 -38 Q-27 -64 -28 -87 Q-29 -115 -8.5 -127.5 Q12 -140 40 -135 Q67 -132 92.5 -120 Q118 -108 141 -90 Q164 -72 184 -51.5 Q204 -31 221 -12 Q263 36 298.5 90 Q334 144 367 201 Q394 250 419 300.5 Q444 351 464 408 Q472 430 480 464 Q488 498 488.5 532.5 Q489 567 478.5 596.5 Q468 626 441 639 Q411 654 374.5 653.5 Q338 653 300.5 643.5 Q263 634 227.5 618.5 Q192 603 162 587 Q149 579 133.5 569.5 Q118 560 99 541 Q96 531 87 531 Q78 531 76 542 Q74 547 79 554 Q84 561 90 567 Q117 592 158 615.5 Q199 639 245 654.5 Q291 670 337.5 676 Q384 682 423 673 Z " />
<glyph glyph-name="K" unicode="K" horiz-adv-x="568" d="M81 154 Q68 131 61 109 Q56 90 57 76 Q59 57 70 44 Q81 31 97 22 Q125 7 155 -2.5 Q185 -12 216 -21 Q277 -38 340 -58 Q403 -78 488 -104 Q534 -118 571.5 -130.5 Q609 -143 649 -162 Q653 -164 659 -168 Q665 -172 670 -177 Q675 -182 678 -187.5 Q681 -193 678 -198 Q674 -205 667.5 -205 Q661 -205 658 -200 Q652 -191 639.5 -184 Q627 -177 612 -171 Q597 -165 581.5 -160 Q566 -155 554 -151 Q469 -122 390 -98.5 Q311 -75 227 -51 Q197 -42 166 -32.5 Q135 -23 103 -10 Q77 1 55.5 20 Q34 39 31 71 Q29 91 34 111 Q21 71 9.5 38 Q-2 5 -15 -33.5 Q-28 -72 -44.5 -122 Q-61 -172 -84 -245 Q-86 -250 -91 -255.5 Q-96 -261 -103 -258 Q-110 -256 -110.5 -250 Q-111 -244 -109 -239 Q-69 -122 -38.5 -27 Q-8 68 20 151 Q25 166 39 206.5 Q53 247 72 301 Q91 355 112 416.5 Q133 478 153.5 536.5 Q174 595 191.5 644 Q209 693 219 722 Q222 730 223 736 Q224 742 232 744 Q238 745 243 740 Q248 732 245 721.5 Q242 711 240 703 Q237 692 223.5 652 Q210 612 190 555.5 Q170 499 147 434 Q124 369 103 310 Q82 251 66 204 Q50 157 44 137 Q52 157 62.5 175 Q73 193 85 211 Q98 230 112 247.5 Q126 265 141 283 Q189 340 243.5 392.5 Q298 445 361 496 Q423 547 489 593.5 Q555 640 631 685 Q639 690 646.5 694 Q654 698 662 703 Q667 707 674 707 Q681 707 684 699 Q686 689 679 685 Q673 682 667 678.5 Q661 675 655 671 Q552 610 458 538.5 Q364 467 273 384 Q232 345 193.5 303.5 Q155 262 120 215 Q109 201 99 186 Q89 171 81 154 Z " />
<glyph glyph-name="L" unicode="L" horiz-adv-x="395" d="M821 -118 Q828 -126 821 -133 Q815 -141 808 -136.5 Q801 -132 793 -132 Q788 -131 757 -132.5 Q726 -134 677 -137.5 Q628 -141 565 -145.5 Q502 -150 434 -155.5 Q366 -161 297.5 -167.5 Q229 -174 167.5 -180.5 Q106 -187 56.5 -193.5 Q7 -200 -22 -206 Q-26 -217 -31 -232 Q-36 -247 -39 -255 Q-42 -262 -52 -262 Q-57 -262 -59.5 -258 Q-62 -254 -61 -249 Q-60 -241 -56.5 -230 Q-53 -219 -51 -210 Q-59 -211 -69.5 -213 Q-80 -215 -91.5 -217 Q-103 -219 -114.5 -220 Q-126 -221 -135 -220 Q-143 -218 -146 -212 Q-148 -206 -145 -201 Q-142 -196 -136 -197 Q-114 -197 -89.5 -192 Q-65 -187 -43 -182 Q-40 -175 -26 -133.5 Q-12 -92 9.5 -29.5 Q31 33 57.5 110.5 Q84 188 111.5 268 Q139 348 165 424 Q191 500 211.5 559.5 Q232 619 244.5 655.5 Q257 692 258 694 Q261 702 266.5 716 Q272 730 279 734 Q282 736 286.5 735.5 Q291 735 293 732 Q298 725 295 720 Q292 715 290 707 Q288 700 274 660 Q260 620 239 558 Q218 496 191.5 419.5 Q165 343 137.5 263 Q110 183 83.5 106.5 Q57 30 36 -31 Q15 -92 1.5 -131.5 Q-12 -171 -14 -177 Q17 -172 65.5 -166 Q114 -160 172 -154.5 Q230 -149 295 -143 Q360 -137 423.5 -131.5 Q487 -126 546.5 -121 Q606 -116 653.5 -112.5 Q701 -109 733 -106.5 Q765 -104 775 -104 Q792 -103 802.5 -106 Q813 -109 821 -118 Z " />
<glyph glyph-name="M" unicode="M" horiz-adv-x="772" d="M833 686 Q838 676 832.5 645.5 Q827 615 814 579 Q807 559 799.5 539.5 Q792 520 784 500 Q753 417 720.5 334 Q688 251 657 167 Q626 83 599 -2 Q572 -87 552 -175 Q551 -180 550.5 -184.5 Q550 -189 552 -194 Q554 -202 546 -206 Q538 -211 531.5 -205.5 Q525 -200 525 -191 Q526 -168 535.5 -135 Q545 -102 553 -70 Q560 -43 574 0.5 Q588 44 606 95 Q624 146 644 200.5 Q664 255 682.5 305 Q701 355 717 396.5 Q733 438 743 463 Q749 478 761 508.5 Q773 539 784.5 572 Q796 605 804 633 Q812 661 810 671 Q809 676 805 676 Q796 674 787 670 Q758 657 732.5 639.5 Q707 622 683 603 Q652 580 622.5 555 Q593 530 564 504 Q515 460 468.5 412.5 Q422 365 371 307 Q349 281 328 256 Q307 231 285 205 Q277 196 269 187.5 Q261 179 250 174 Q233 167 226 184 Q223 195 224 206.5 Q225 218 228 232 Q229 239 234.5 257.5 Q240 276 246.5 299.5 Q253 323 259.5 348.5 Q266 374 271 396 Q276 418 277.5 433.5 Q279 449 276 451 Q273 453 264.5 448 Q256 443 245.5 434.5 Q235 426 224 416.5 Q213 407 205 399 Q172 366 141 329.5 Q110 293 78 248 Q61 223 45 198 Q29 173 15 147 Q10 136 5 126 Q0 116 -5 105 Q-6 102 -5 100 Q-2 95 -6.5 89.5 Q-11 84 -15 83 Q-24 81 -28 89.5 Q-32 98 -30 106 Q-24 126 -13 147 Q4 181 23.5 212.5 Q43 244 65 274 Q93 310 125 348.5 Q157 387 199 428 Q206 435 215.5 444 Q225 453 235.5 460.5 Q246 468 257.5 473 Q269 478 281 477 Q296 476 301.5 464.5 Q307 453 306 439 Q305 416 297.5 386 Q290 356 280 323 Q273 296 263.5 265 Q254 234 251 206 Q265 220 279 237 Q299 260 318.5 284 Q338 308 358 331 Q397 376 438.5 418 Q480 460 524 501 Q551 527 579 551.5 Q607 576 636 599 Q667 623 699.5 647 Q732 671 768 689 Q779 694 791 698 Q803 702 816 700 Q828 697 833 686 Z " />
<glyph glyph-name="N" unicode="N" horiz-adv-x="561" d="M297 -246 Q290 -244 289 -238.5 Q288 -233 290 -225 Q298 -190 313 -140.5 Q328 -91 346 -35.5 Q364 20 383.5 77 Q403 134 420.5 184 Q438 234 452 272 Q466 310 473 328 Q499 403 526 476.5 Q553 550 574 625 Q579 646 585 668 Q591 690 588 712 Q568 704 552.5 688 Q537 672 522 657 Q502 635 483 613 Q464 591 445 568 Q413 527 382 485.5 Q351 444 320 402 Q292 364 265 325.5 Q238 287 210 249 Q168 188 121 130 Q110 117 96.5 101 Q83 85 68.5 70 Q54 55 39.5 44.5 Q25 34 12 31 Q-8 28 -20 41 Q-34 57 -36.5 86.5 Q-39 116 -35 149 Q-31 182 -24.5 212 Q-18 242 -14 260 Q-6 294 4 326.5 Q14 359 25 392 Q54 472 89 547 Q94 559 100.5 571.5 Q107 584 112 594 Q115 601 124 601 Q129 600 132 596.5 Q135 593 133 588 Q131 583 128 575 Q125 567 121 558 Q117 549 113.5 540.5 Q110 532 107 526 Q87 481 69 436.5 Q51 392 36 345 Q17 282 4.5 227.5 Q-8 173 -10 113 Q-10 105 -10 95 Q-10 85 -8.5 76.5 Q-7 68 -3.5 62.5 Q0 57 7 57 Q11 57 17.5 60.5 Q24 64 30.5 69.5 Q37 75 43.5 81.5 Q50 88 55 93 Q69 107 82 122 Q95 137 108 153 Q134 185 158 218.5 Q182 252 206 286 Q233 324 260 362 Q287 400 315 438 Q343 476 371 513.5 Q399 551 429 588 Q439 600 459 625 Q479 650 502 675 Q525 700 547.5 719 Q570 738 585 739 Q600 739 606.5 729.5 Q613 720 614 705.5 Q615 691 612 674.5 Q609 658 606 645 Q584 556 551.5 470.5 Q519 385 490 298 Q477 263 460.5 217 Q444 171 426.5 121 Q409 71 391.5 20 Q374 -31 359 -77 Q344 -123 333 -160 Q322 -197 317 -219 Q315 -230 313.5 -236.5 Q312 -243 309 -245 Q305 -248 297 -246 Z " />
<glyph glyph-name="O" unicode="O" horiz-adv-x="649" d="M613 424 Q618 349 598.5 276.5 Q579 204 540 135 Q503 71 454 13 Q428 -16 392.5 -49.5 Q357 -83 316.5 -111 Q276 -139 232 -157.5 Q188 -176 145 -176 Q115 -178 88.5 -163.5 Q62 -149 49 -119 Q40 -96 39 -70.5 Q38 -45 41 -13 Q46 16 54 44.5 Q62 73 73 102 Q84 129 95 154.5 Q106 180 120 206 Q101 214 79.5 227 Q58 240 45 256 Q25 281 23 312.5 Q21 344 29 375 Q39 413 59.5 448.5 Q80 484 107 515.5 Q134 547 166.5 573.5 Q199 600 234 620 Q265 639 300.5 651 Q336 663 373 665.5 Q410 668 446 659 Q482 650 514 626 Q562 590 584.5 537 Q607 484 613 424 Z M547 207 Q562 241 572 281 Q582 321 585 362 Q588 403 583 443.5 Q578 484 562 520 Q538 576 487 610 Q436 644 372 639 Q327 637 284 618 Q241 599 203 570 Q161 539 126 498 Q91 457 68 408 Q60 392 54.5 371.5 Q49 351 49 329.5 Q49 308 57 289 Q65 270 85 257 Q107 242 133 231 Q157 273 183 313 Q209 353 239 391 Q265 423 297.5 457.5 Q330 492 363 511 Q368 514 376.5 512 Q385 510 383 501 Q381 494 372 490 Q363 486 356 479 Q323 450 293.5 417.5 Q264 385 235 345 Q212 315 192.5 283.5 Q173 252 156 220 Q169 214 183.5 209.5 Q198 205 212 202 Q220 200 228 199.5 Q236 199 244 203 Q248 204 251.5 203 Q255 202 256 198 Q259 189 254 184 Q249 179 240.5 176.5 Q232 174 222 174 Q212 174 205 176 Q188 180 173 184.5 Q158 189 143 196 Q136 181 129 166.5 Q122 152 115 137 Q101 105 89.5 72.5 Q78 40 71 7 Q67 -11 65 -35 Q63 -59 67 -82 Q71 -105 83.5 -123 Q96 -141 122 -147 Q146 -153 174.5 -147 Q203 -141 231.5 -128 Q260 -115 286.5 -98.5 Q313 -82 334 -66 Q401 -15 456 53.5 Q511 122 547 207 Z " />
<glyph glyph-name="P" unicode="P" horiz-adv-x="753" d="M692 639 Q726 616 740 579 Q754 542 750 500 Q744 458 725 419 Q706 380 678 344 Q647 303 605 266 Q563 229 516.5 198 Q470 167 421.5 144 Q373 121 330 108 Q283 94 238.5 88 Q194 82 144 86 Q133 87 119 88.5 Q105 90 94 95 Q87 99 88 107 Q88 114 96 119 Q104 121 112.5 118.5 Q121 116 130 114 Q182 106 234 112.5 Q286 119 336 135.5 Q386 152 434 177.5 Q482 203 526 235 Q576 272 621.5 317 Q667 362 697 420 Q710 445 718.5 473 Q727 501 725 530 Q722 572 699.5 597 Q677 622 643 632 Q609 642 570 638.5 Q531 635 495 620 Q473 612 453.5 601 Q434 590 414 577 Q384 557 356.5 534.5 Q329 512 303 487 Q283 468 264.5 448.5 Q246 429 229 408 Q212 388 196 368 Q180 348 165 328 Q151 308 137.5 288 Q124 268 111 247 Q72 184 39 118 Q31 102 24 87 Q17 72 9 56 Q6 48 3 40 Q0 32 -3 24 Q-9 5 -16 -18 Q-23 -41 -30.5 -64.5 Q-38 -88 -45.5 -111 Q-53 -134 -60 -153 Q-65 -170 -70.5 -186.5 Q-76 -203 -81 -220 Q-86 -231 -97 -229 Q-102 -227 -106 -223 Q-110 -219 -109 -214 Q-109 -209 -106 -197 Q-103 -185 -99 -170 Q-95 -155 -90.5 -139 Q-86 -123 -82 -111 Q-74 -87 -62.5 -53.5 Q-51 -20 -41 3 Q-36 17 -29.5 31 Q-23 45 -17 59 Q-2 108 18 155 Q88 348 162 539 Q170 559 177 579 Q184 599 191 619 Q197 636 203 654 Q209 672 214 689 Q214 694 217 699 Q220 704 227 704 Q235 704 237 697.5 Q239 691 237 685 Q232 653 220.5 623 Q209 593 198 561 Q168 480 137.5 401.5 Q107 323 78 242 Q95 268 111.5 293.5 Q128 319 146 344 Q170 378 197 410 Q215 433 234.5 454 Q254 475 274 495 Q313 534 360 570 Q385 589 411 605.5 Q437 622 466 636 Q493 648 521.5 656.5 Q550 665 579 667 Q608 669 636.5 663 Q665 657 692 639 Z " />
<glyph glyph-name="Q" unicode="Q" horiz-adv-x="623" d="M607 703 Q618 688 623 668.5 Q628 649 629 626.5 Q630 604 628 580.5 Q626 557 622 535 Q615 500 605 467 Q595 434 583 401 Q567 361 549 322.5 Q531 284 508 244 Q472 183 433 123.5 Q394 64 346 3 Q338 -8 329 -18 Q320 -28 311 -39 Q309 -43 310 -45 Q313 -75 316.5 -105 Q320 -135 325 -165 Q328 -184 336 -207 Q337 -209 338 -211 Q339 -213 340 -215 Q341 -217 345 -219 Q355 -221 355 -230 Q355 -239 347 -242 Q339 -245 329 -240 Q320 -234 316 -224 Q302 -195 296 -152 Q290 -109 285 -69 Q270 -86 249.5 -107 Q229 -128 205.5 -147 Q182 -166 155.5 -179.5 Q129 -193 101 -195 Q63 -198 37 -169 Q18 -147 9 -117 Q0 -87 -2 -52 Q-7 13 3.5 76.5 Q14 140 31 205 Q47 263 67.5 320.5 Q88 378 118 438 Q126 452 133.5 465.5 Q141 479 150 493 Q155 500 162 504 Q169 508 176 503 Q181 499 180.5 493 Q180 487 175 484 Q173 483 171 479 Q142 430 120.5 379.5 Q99 329 79 274 Q59 217 42.5 146 Q26 75 23 3 Q22 -14 24 -43.5 Q26 -73 33.5 -101.5 Q41 -130 56 -150.5 Q71 -171 98 -169 Q122 -167 145.5 -153.5 Q169 -140 192.5 -120.5 Q216 -101 238 -78.5 Q260 -56 281 -35 Q282 -34 282 -30 Q281 -15 280.5 0 Q280 15 279 31 Q277 74 276 110.5 Q275 147 278 189 Q280 233 286.5 276 Q293 319 303 364 Q313 406 325 447 Q337 488 356 531 Q373 569 395 608.5 Q417 648 444 677 Q461 695 483 711 Q505 727 531 733 Q577 742 607 703 Z M586 495 Q591 514 596.5 540 Q602 566 604 593.5 Q606 621 602.5 646 Q599 671 585 689 Q569 711 541 708 Q518 704 498 690.5 Q478 677 461.5 658 Q445 639 431 617.5 Q417 596 407 577 Q387 541 371 500 Q351 452 337.5 399.5 Q324 347 314 280 Q306 226 303.5 171 Q301 116 303 56 Q304 41 304.5 26 Q305 11 307 -4 Q328 21 347 47 Q366 73 386 100 Q428 160 467 224 Q506 288 538 363 Q552 395 564.5 428 Q577 461 586 495 Z " />
<glyph glyph-name="R" unicode="R" horiz-adv-x="698" d="M304 180 Q262 156 219.5 135.5 Q177 115 131 95 Q205 77 282.5 45 Q360 13 434.5 -27 Q509 -67 575.5 -114 Q642 -161 695 -209 Q702 -215 705.5 -221.5 Q709 -228 710 -230 Q712 -239 704 -244 Q696 -248 690 -241 Q645 -192 578.5 -144 Q512 -96 437 -55 Q362 -14 285 17.5 Q208 49 142 65 Q134 67 125.5 68.5 Q117 70 109 72 Q93 28 76 -16.5 Q59 -61 48 -103 Q46 -111 46 -117 Q46 -123 46 -131 Q42 -140 35 -140 Q27 -142 23.5 -134.5 Q20 -127 20 -120 Q20 -108 25 -93 Q36 -49 51.5 -7.5 Q67 34 82 76 Q75 78 68 77 Q50 74 30 74 Q22 74 16 80.5 Q10 87 15 95 Q25 106 42 106 Q55 106 64.5 105.5 Q74 105 95 111 Q136 220 180 327 Q224 434 270 541 Q253 532 238 521.5 Q223 511 208 500 Q176 477 146.5 452 Q117 427 90 399 Q30 341 -13 272 Q-24 255 -35.5 235.5 Q-47 216 -52 194 Q-47 194 -42.5 190 Q-38 186 -39 181 Q-39 173 -48 170 Q-70 167 -76 185 Q-78 196 -71.5 215 Q-65 234 -59 245 Q-28 303 14 354 Q56 405 105 449 Q189 527 285 580 Q290 583 291 587 Q300 608 309.5 629.5 Q319 651 327 673 Q329 679 328 682 Q323 687 330 695 Q337 703 339 705 Q344 709 350 707 Q356 705 358 699 L358 689 Q353 666 342.5 645 Q332 624 327 603 Q356 619 387.5 631 Q419 643 451 654 Q499 670 553.5 679 Q608 688 658 680 Q673 678 689 673 Q705 668 717.5 659 Q730 650 738.5 636.5 Q747 623 748 605 Q750 582 739.5 558.5 Q729 535 714 513 Q684 470 646 433.5 Q608 397 566 362 Q503 311 438 266 Q373 221 304 180 Z M127 121 Q173 138 216 161 Q259 184 302 209 Q362 244 420 283.5 Q478 323 533 368 Q552 383 583.5 410.5 Q615 438 645.5 470.5 Q676 503 698 536 Q720 569 721 594 Q722 610 715 621.5 Q708 633 696.5 640 Q685 647 670.5 650.5 Q656 654 642 656 Q584 661 523.5 647.5 Q463 634 403 609 Q355 590 314 567 Q308 564 307 561 Q292 526 281 500.5 Q270 475 260.5 453 Q251 431 242.5 410.5 Q234 390 224 366 Q198 305 174 244 Q150 183 127 121 Z " />
<glyph glyph-name="S" unicode="S" horiz-adv-x="574" d="M689 693 Q691 682 680 679 Q676 678 669 678 Q623 672 578 663 Q533 654 488 640 Q340 596 208 525 Q167 503 125.5 476.5 Q84 450 52 414 Q45 406 39.5 399 Q34 392 31 382 Q28 373 32.5 364.5 Q37 356 45 349.5 Q53 343 62.5 337.5 Q72 332 80 329 Q112 315 149 304.5 Q186 294 222 284 Q247 277 274 267.5 Q301 258 326 246.5 Q351 235 372 221.5 Q393 208 407 192 Q441 154 432 104 Q423 61 397.5 25 Q372 -11 345 -43 Q326 -65 306.5 -85.5 Q287 -106 267 -126 Q253 -140 232.5 -157.5 Q212 -175 189.5 -189.5 Q167 -204 145 -212.5 Q123 -221 107 -217 Q98 -215 90 -207 Q82 -199 81 -184 Q80 -160 98.5 -127.5 Q117 -95 143.5 -63.5 Q170 -32 199.5 -5 Q229 22 251 36 Q258 41 267.5 42 Q277 43 280 33 Q282 28 279 23 Q276 18 270 16 Q257 9 246 0 Q235 -9 224 -20 Q194 -49 170 -79.5 Q146 -110 125 -145 Q120 -153 115 -164 Q110 -175 110 -184 Q110 -192 120 -190.5 Q130 -189 143.5 -183 Q157 -177 169.5 -169 Q182 -161 187 -157 Q232 -125 269.5 -85 Q307 -45 342 -3 Q360 20 378 46.5 Q396 73 403 102 Q408 131 397 153 Q386 175 364.5 192.5 Q343 210 315 223 Q287 236 257.5 245.5 Q228 255 200 262.5 Q172 270 151 276 Q134 281 113 287.5 Q92 294 71.5 302 Q51 310 34.5 321 Q18 332 9 346 Q-2 365 3.5 385.5 Q9 406 23 424 Q47 452 76.5 475 Q106 498 141 518 Q191 549 242.5 574 Q294 599 348 621 Q413 647 480.5 668 Q548 689 620 699 Q648 704 676 704 Q687 704 689 693 Z " />
<glyph glyph-name="T" unicode="T" horiz-adv-x="439" d="M372 678 Q382 679 411 680 Q440 681 478 681.5 Q516 682 558 681.5 Q600 681 637 680.5 Q674 680 700.5 679 Q727 678 735 677 Q747 676 759.5 671.5 Q772 667 774 656 Q775 645 771 641 Q767 637 762 636 Q757 635 754 636 Q751 637 748.5 639 Q746 641 742.5 644 Q739 647 732 650 Q724 652 694 652.5 Q664 653 623 653 Q582 653 536 652.5 Q490 652 451 651 Q412 650 385.5 648.5 Q359 647 358 646 Q320 563 286.5 476 Q253 389 223 302.5 Q193 216 166.5 132.5 Q140 49 116 -27 Q105 -65 93 -109.5 Q81 -154 75 -195 Q74 -200 75 -205 Q76 -210 75 -214 Q73 -223 65 -224 Q56 -224 51 -216 Q46 -209 45.5 -201 Q45 -193 46 -187 Q51 -149 61.5 -112.5 Q72 -76 83 -38 Q102 29 129.5 115 Q157 201 189 293 Q221 385 256 476.5 Q291 568 325 646 Q317 646 288 644.5 Q259 643 219.5 640 Q180 637 136.5 633 Q93 629 55.5 625.5 Q18 622 -7 618.5 Q-32 615 -34 613 Q-39 611 -44.5 612 Q-50 613 -54 615 Q-62 620 -62 628.5 Q-62 637 -51 641 Q-44 644 -13 648 Q18 652 60.5 656 Q103 660 151 664 Q199 668 240 671 Q281 674 309.5 676 Q338 678 341 678 Q344 686 349 694.5 Q354 703 362 703 Q376 703 374 694.5 Q372 686 372 678 Z " />
<glyph glyph-name="U" unicode="U" horiz-adv-x="568" d="M639 712 Q644 710 647 704.5 Q650 699 646 691 Q623 638 599.5 586.5 Q576 535 553 481 Q523 407 489.5 325.5 Q456 244 423 158 Q390 72 359 -17.5 Q328 -107 302 -196 Q300 -200 298.5 -202.5 Q297 -205 292 -206 Q286 -208 281 -204 Q276 -200 277 -193 Q277 -186 280 -180 Q290 -149 305 -105.5 Q320 -62 337 -14 Q354 34 372 82 Q390 130 406 171 Q408 178 417 202.5 Q426 227 437 256.5 Q448 286 459 314.5 Q470 343 476 358 Q496 408 516 457.5 Q536 507 557 556 Q546 539 533 520 Q520 501 509 483 Q461 402 407.5 325 Q354 248 300 172 Q283 147 264.5 123.5 Q246 100 228 74 Q214 56 199 38 Q184 20 168 3 Q148 -18 123.5 -40.5 Q99 -63 67 -67 Q42 -68 27 -49 Q12 -30 8.5 -3.5 Q5 23 5 51 Q5 92 12 134 Q19 176 30 226 Q36 250 42 273.5 Q48 297 55 320 Q76 391 101.5 459.5 Q127 528 158 598 Q164 612 170.5 625 Q177 638 184 652 Q186 657 191.5 661.5 Q197 666 204 661 Q210 656 210 653.5 Q210 651 210 644 Q209 642 207.5 638 Q206 634 203 632 Q203 632 201 630 Q196 618 190 606 Q184 594 179 582 Q156 530 134.5 473 Q113 416 93 355 Q77 305 62.5 248.5 Q48 192 38 132 Q34 103 32 73 Q30 43 33 12 Q34 6 35.5 -4 Q37 -14 40.5 -23 Q44 -32 50.5 -37.5 Q57 -43 68 -40 Q83 -38 97 -27.5 Q111 -17 122 -6 Q154 23 182.5 58 Q211 93 237 130 Q299 215 357.5 300.5 Q416 386 473 474 Q489 499 504.5 523 Q520 547 536 572 Q551 595 566 619 Q581 643 596 666 Q603 677 609.5 686 Q616 695 623 705 Q630 715 639 712 Z " />
<glyph glyph-name="V" unicode="V" horiz-adv-x="475" d="M586 707 Q590 704 589.5 700 Q589 696 587 692 Q585 688 581.5 684.5 Q578 681 576 678 Q539 628 507 575 Q475 522 440 466 Q414 423 388 380 Q362 337 336 294 Q316 260 296 227 Q276 194 256 160 Q236 125 216.5 91 Q197 57 178 22 Q158 -13 139 -49 Q120 -85 100 -121 Q82 -153 65 -182 Q60 -191 52.5 -202 Q45 -213 35 -219 Q27 -224 19 -221.5 Q11 -219 6 -210 Q-2 -190 -0.5 -166 Q1 -142 3 -122 Q5 -98 11.5 -52 Q18 -6 26 45.5 Q34 97 42 145 Q50 193 55 222 Q63 264 71 307.5 Q79 351 87 393 Q98 456 112.5 518.5 Q127 581 141 653 L141 655 L134 655 Q124 659 126 668 Q126 677 132.5 688.5 Q139 700 147 708 Q153 712 159.5 710.5 Q166 709 169 704 Q173 698 173 691 Q173 684 171 677 Q152 576 130 468.5 Q108 361 88 253 Q68 145 51.5 40 Q35 -65 27 -160 Q26 -167 26.5 -176 Q27 -185 28 -191 Q36 -179 43.5 -166.5 Q51 -154 59 -141 Q73 -115 87 -89.5 Q101 -64 115 -38 Q135 -1 155.5 36 Q176 73 197 109 Q220 150 243.5 189.5 Q267 229 290 269 L359 383 Q381 418 402.5 454 Q424 490 446 525 Q470 564 495 603 Q520 642 546 681 Q548 684 553 691 Q558 698 563.5 703.5 Q569 709 575 711 Q581 713 586 707 Z " />
<glyph glyph-name="W" unicode="W" horiz-adv-x="758" d="M698 303 Q681 247 661 198 Q641 149 615 102 Q590 56 564 16 Q538 -24 509 -61 Q492 -83 466.5 -111 Q441 -139 411.5 -160 Q382 -181 351 -188.5 Q320 -196 291 -176 Q268 -160 256.5 -135.5 Q245 -111 239.5 -83 Q234 -55 234 -27 Q234 1 236 25 Q238 70 246 112 Q254 154 260 197 Q262 207 263.5 216 Q265 225 265 233 Q254 219 245.5 210.5 Q237 202 229 191 Q194 145 160 104 Q126 63 95 19 Q66 -16 37 -52.5 Q8 -89 -23 -116 Q-31 -124 -42.5 -128.5 Q-54 -133 -64 -124 Q-68 -121 -69.5 -117 Q-71 -113 -73 -108 Q-76 -93 -72 -67.5 Q-68 -42 -60.5 -13 Q-53 16 -44 44.5 Q-35 73 -28 94 Q-19 120 -9.5 145.5 Q0 171 9 197 Q23 234 38 271.5 Q53 309 69 345 Q95 406 122.5 465.5 Q150 525 182 584 Q192 603 202 621.5 Q212 640 223 658 Q229 669 235 679 Q241 689 249 699 Q255 706 263 706 Q270 706 272.5 702.5 Q275 699 274.5 694 Q274 689 272.5 683.5 Q271 678 271 675 Q267 668 261 668 Q258 666 258 665 Q234 629 217 594 Q191 548 168.5 500 Q146 452 123 404 Q105 362 87 320.5 Q69 279 53 236 Q32 185 14 133.5 Q-4 82 -21 29 Q-28 9 -33 -12 Q-38 -33 -43 -54 Q-45 -66 -47 -78 Q-49 -90 -47 -102 Q-32 -92 -20 -78 Q2 -56 22 -30 Q64 22 103 73 Q142 124 183 174 Q200 195 215.5 215.5 Q231 236 249 254 Q257 261 264 265.5 Q271 270 277 268 Q289 263 290.5 253 Q292 243 292 233 Q290 220 288 208 Q286 196 284 183 Q279 152 274 122.5 Q269 93 265 63 Q261 27 260.5 -7.5 Q260 -42 266 -76 Q271 -96 277.5 -115.5 Q284 -135 298 -149 Q316 -167 342 -164 Q368 -159 389 -144.5 Q410 -130 428 -113 Q467 -75 499 -32.5 Q531 10 559 55 Q596 115 624 177 Q666 273 684.5 367 Q703 461 710 557 Q711 579 711.5 601 Q712 623 707 646 L704 652 Q703 654 700 653 Q698 653 696 651 Q686 648 680 655 Q675 663 683 671 Q690 678 698 679 Q715 684 723.5 671.5 Q732 659 734 644 Q737 631 737 608 Q737 585 735 555.5 Q733 526 729.5 492 Q726 458 721 424.5 Q716 391 710 359.5 Q704 328 698 303 Z " />
<glyph glyph-name="Y" unicode="Y" horiz-adv-x="506" d="M610 726 Q617 724 620 718.5 Q623 713 618 705 Q612 694 606 684.5 Q600 675 594 665 Q584 650 574.5 634.5 Q565 619 554 604 Q532 574 516 539 Q500 504 483 471 Q473 451 463 430 Q453 409 444 388 Q433 365 423.5 342.5 Q414 320 404 297 Q377 237 353.5 176.5 Q330 116 307 54 Q285 -3 265 -59.5 Q245 -116 227 -174 Q223 -185 220.5 -196 Q218 -207 215 -219 Q214 -221 214 -223.5 Q214 -226 213 -229 L213 -231 Q213 -232 214 -232 Q219 -242 211 -248 Q203 -255 196.5 -251.5 Q190 -248 188 -241 Q186 -236 186.5 -232.5 Q187 -229 188 -224 Q190 -208 194 -193 Q198 -178 203 -163 Q221 -109 239.5 -55 Q258 -1 278 52 Q316 154 357 254 Q398 354 445 452 Q429 432 413.5 412 Q398 392 382 372 Q364 349 345.5 326.5 Q327 304 309 281 Q294 263 274 239 Q254 215 230.5 192.5 Q207 170 181.5 153.5 Q156 137 130 134 Q107 133 89 148 Q74 161 66.5 180.5 Q59 200 55.5 222 Q52 244 52 267 Q52 290 54 311 Q58 364 68.5 419.5 Q79 475 96 532 Q104 558 112 584 Q120 610 130 635 Q138 655 147 675 Q156 695 167 715 Q174 729 182 734 Q186 736 190 734.5 Q194 733 196 729.5 Q198 726 199 721.5 Q200 717 199 713 Q198 708 197 704.5 Q196 701 195 696 Q192 687 181 687 Q179 683 177.5 679.5 Q176 676 174 672 Q168 658 161.5 643 Q155 628 150 614 Q142 592 134.5 571 Q127 550 121 528 Q104 466 91.5 402.5 Q79 339 79 270 Q79 260 80 242.5 Q81 225 85.5 207.5 Q90 190 97.5 176 Q105 162 119 161 Q138 159 160 172 Q182 185 203.5 204.5 Q225 224 243.5 245.5 Q262 267 275 282 Q289 298 302 314 Q315 330 329 347 Q343 364 355.5 379.5 Q368 395 381 412 Q395 429 408 446.5 Q421 464 434 482 Q450 503 465.5 524.5 Q481 546 497 568 Q503 576 509 584.5 Q515 593 521 602 Q526 610 530.5 618.5 Q535 627 540 635 Q551 655 562.5 673.5 Q574 692 587 710 Q591 715 596.5 721.5 Q602 728 610 726 Z " />
<glyph glyph-name="X" unicode="X" horiz-adv-x="611" d="M766 729 Q766 721 761.5 719 Q757 717 749 709 Q738 698 726 688.5 Q714 679 703 669 Q663 635 624.5 602 Q586 569 548 534 Q516 504 484 474 Q452 444 420 413 Q329 324 242 232 Q244 224 244.5 217 Q245 210 247 202 Q253 163 258.5 124 Q264 85 271 46 Q279 -3 287 -52.5 Q295 -102 309 -151 Q310 -154 312.5 -158 Q315 -162 315 -166 Q317 -174 311 -178 Q304 -183 297.5 -179.5 Q291 -176 288 -168 Q280 -151 276.5 -132 Q273 -113 268 -90 Q261 -53 254.5 -16.5 Q248 20 243 57 Q237 95 231.5 132 Q226 169 219 207 Q194 181 169.5 154.5 Q145 128 120 101 Q86 64 52 27 Q18 -10 -15 -48 Q-38 -75 -61.5 -101.5 Q-85 -128 -107 -156 Q-116 -167 -124.5 -178.5 Q-133 -190 -141 -202 Q-144 -207 -147 -212.5 Q-150 -218 -150 -224 Q-149 -232 -156 -237 Q-164 -240 -170 -234 Q-175 -229 -174 -217.5 Q-173 -206 -168 -198 Q-153 -173 -135.5 -150 Q-118 -127 -98 -104 Q-56 -55 -14 -8 Q28 39 71 87 Q106 125 141 162 Q176 199 211 237 Q215 241 214 246 Q209 279 205 312.5 Q201 346 197 380 Q192 422 187.5 463 Q183 504 179 546 Q177 573 174.5 600 Q172 627 169 654 Q168 669 166 684 Q164 699 162 713 Q160 719 157 721 Q152 725 153 734.5 Q154 744 160 747 Q170 750 178 743 Q182 738 185 727.5 Q188 717 190 704 Q192 691 193 676.5 Q194 662 196 650 Q200 608 203.5 567.5 Q207 527 212 485 Q215 451 219 417.5 Q223 384 227 349 Q229 329 232 308 Q235 287 238 266 Q264 293 290.5 320 Q317 347 343 373 Q369 399 394.5 423.5 Q420 448 446 474 Q482 509 519.5 543 Q557 577 595 610 Q621 633 646.5 655 Q672 677 698 699 Q708 707 717 714.5 Q726 722 736 730 Q740 734 744 736.5 Q748 739 754 740 Q762 740 766 729 Z " />
<glyph glyph-name="Z" unicode="Z" horiz-adv-x="876" d="M949 645 Q963 630 957 612 Q951 594 937 580 Q926 569 915 558.5 Q904 548 891 539 Q843 504 785.5 463.5 Q728 423 664 378 Q601 331 538.5 283 Q476 235 415 181 Q352 127 290.5 67.5 Q229 8 178 -65 Q171 -76 164.5 -87 Q158 -98 153 -109 Q149 -118 148 -127 Q147 -135 155 -136 Q160 -137 164.5 -136.5 Q169 -136 173 -136 Q184 -134 194 -132 Q204 -130 214 -128 Q244 -120 272.5 -110.5 Q301 -101 330 -92 Q375 -77 419 -63 Q463 -49 508 -35 Q518 -31 529 -28.5 Q540 -26 551 -26 Q561 -26 563 -36 Q565 -48 554 -50 Q532 -55 516 -60.5 Q500 -66 481 -72 Q419 -93 355.5 -114 Q292 -135 218 -155 Q201 -160 180.5 -163.5 Q160 -167 141 -161 Q121 -152 120 -132 Q118 -113 127.5 -95.5 Q137 -78 148 -61 Q164 -35 183 -12 Q202 11 222 33 Q272 90 329 141.5 Q386 193 450 247 Q476 269 503 290 Q530 311 556 332 Q591 359 626.5 384.5 Q662 410 698 436 Q741 467 785.5 497.5 Q830 528 878 565 Q890 574 907.5 587.5 Q925 601 930 618 Q932 623 927 627.5 Q922 632 915 635 Q891 646 865.5 651 Q840 656 814 658 Q788 660 761.5 659.5 Q735 659 708 659 Q654 659 600.5 655.5 Q547 652 493 647 Q466 644 438.5 641 Q411 638 384 634 Q353 629 322.5 623.5 Q292 618 262 612 Q225 604 188 594.5 Q151 585 110 573 Q109 573 107 571 Q103 567 96 567.5 Q89 568 84 572 Q76 580 81 586.5 Q86 593 92 595 Q106 600 119.5 604 Q133 608 147 612 Q193 623 236.5 634 Q280 645 327 652 Q421 668 513.5 677.5 Q606 687 701 687 Q728 687 759 686.5 Q790 686 821 683 Q852 680 881.5 673.5 Q911 667 935 655 Q939 653 942.5 650.5 Q946 648 949 645 Z " />
<glyph glyph-name="quotedblleft" unicode="&#x201c;" horiz-adv-x="171" d="M120 697 Q126 691 122 684 Q117 674 114.5 664.5 Q112 655 107 646 Q105 640 100 636 Q95 632 88 634 Q79 636 82 647 Q86 658 90.5 668.5 Q95 679 100 689 Q102 695 108 698.5 Q114 702 120 697 Z M157 696 Q162 694 162.5 689.5 Q163 685 161 681 L147 648 Q145 644 141.5 638 Q138 632 130 632 Q125 632 122 636.5 Q119 641 121 646 Q126 657 130 667 Q134 677 139 687 Q142 692 145.5 695 Q149 698 157 696 Z " />
<glyph glyph-name="quotedblright" unicode="&#x201d;" horiz-adv-x="172" d="M120 697 Q126 691 122 684 Q117 674 114.5 664.5 Q112 655 107 646 Q105 640 100 636 Q95 632 88 634 Q79 636 82 647 Q86 658 90.5 668.5 Q95 679 100 689 Q102 695 108 698.5 Q114 702 120 697 Z M157 696 Q162 694 162.5 689.5 Q163 685 161 681 L147 648 Q145 644 141.5 638 Q138 632 130 632 Q125 632 122 636.5 Q119 641 121 646 Q126 657 130 667 Q134 677 139 687 Q142 692 145.5 695 Q149 698 157 696 Z " />
<glyph glyph-name="quoteright" unicode="&#x2019;" horiz-adv-x="181" d="M164 677 Q159 665 155.5 655 Q152 645 147 632 Q142 623 133 627 Q123 630 125 640 L141 683 Q143 689 148 692 Q153 695 158 693 Q165 691 165.5 686.5 Q166 682 164 677 Z " />
<glyph glyph-name="quoteleft" unicode="&#x2018;" horiz-adv-x="186" d="M164 677 Q159 665 155.5 655 Q152 645 147 632 Q142 623 133 627 Q123 630 125 640 L141 683 Q143 689 148 692 Q153 695 158 693 Q165 691 165.5 686.5 Q166 682 164 677 Z " />
<glyph glyph-name="b" unicode="b" horiz-adv-x="293" d="M293 300 Q297 294 300 289 Q302 284 301.5 279.5 Q301 275 294 272 Q278 266 255 258 Q235 251 206.5 242.5 Q178 234 140 224 Q132 216 124.5 207.5 Q117 199 106 191 Q99 186 89 180.5 Q79 175 70 177 Q53 182 55 199 Q56 210 64 218.5 Q72 227 82 232 Q90 236 103.5 237.5 Q117 239 123 247 Q134 259 143 276 Q144 277 145.5 281 Q147 285 148 289 Q149 293 148 296 Q147 299 142 299 Q133 299 124 293 Q115 287 107 280 Q88 265 71 247.5 Q54 230 39 211 Q15 183 -4 148 Q-12 133 -21 118 Q-30 103 -38 89 Q-40 85 -42.5 81 Q-45 77 -53 79 Q-55 80 -62 84 Q-69 88 -65 103 Q-64 107 -64 108 Q-64 109 -63.5 111 Q-63 113 -62 117 Q-61 121 -58 130 Q-49 161 -33.5 206 Q-18 251 1 303.5 Q20 356 41.5 413 Q63 470 84 526 Q105 582 125 634.5 Q145 687 162 730 Q163 732 163 736 Q166 746 176 744 Q186 742 186 732 Q186 726 185 724 Q171 686 152 636.5 Q133 587 113 533.5 Q93 480 73 426 Q53 372 36 325 Q19 278 6.5 242 Q-6 206 -11 188 Q6 214 25.5 237 Q45 260 68 281 Q77 289 86 296.5 Q95 304 106 311 Q117 317 127.5 321.5 Q138 326 151 324 Q169 318 173 301 Q176 288 171 274 Q169 269 168 266 Q167 263 165 259 Q183 264 205 271.5 Q227 279 247 285 Q270 292 293 300 Z " />
<glyph glyph-name="c" unicode="c" horiz-adv-x="167" d="M167 300 Q180 287 174 280.5 Q168 274 163 271 Q137 255 102.5 235 Q68 215 38 201 Q29 196 17.5 192 Q6 188 -5 190 Q-30 192 -32 216 Q-33 231 -27 250 Q-21 269 -9 287 Q3 305 19 318.5 Q35 332 54 335 Q65 337 70 328.5 Q75 320 77 311 Q77 302 70 299 Q62 296 56 303 Q54 307 52 310 Q33 302 19 280.5 Q5 259 -3 239 Q-5 234 -6 229 Q-7 224 -6 219 Q-6 215 -1.5 215 Q3 215 6 216 Q30 224 55.5 237.5 Q81 251 106 265 Q114 270 124.5 276 Q135 282 145 287 Q156 293 167 300 Z " />
<glyph glyph-name="a" unicode="a" horiz-adv-x="206" d="M206 300 Q215 297 219 294 Q223 291 223.5 287.5 Q224 284 223 281.5 Q222 279 221 278 Q201 257 183.5 238.5 Q166 220 146 199 Q140 193 132 185 Q124 177 115 170 Q106 163 96.5 158.5 Q87 154 77 155 Q60 156 53 176 Q48 190 51.5 209.5 Q55 229 60 246 Q60 248 61 250 Q62 252 63 255 Q56 248 45.5 237 Q35 226 24 216 Q13 206 1.5 198 Q-10 190 -19 189 Q-27 188 -32.5 193 Q-38 198 -40 206 Q-43 227 -31.5 250.5 Q-20 274 -5 294 Q0 300 6 307 Q12 314 19.5 319.5 Q27 325 35 327.5 Q43 330 52 327 Q64 320 64 309 Q64 297 53 295 Q48 294 45.5 297 Q43 300 41 303 Q30 295 21 284.5 Q12 274 2 259 Q-3 251 -8 237.5 Q-13 224 -14 218 Q6 231 28 254.5 Q50 278 67 299 Q73 307 77.5 310.5 Q82 314 88 319 Q98 325 105 316 Q110 310 107.5 300 Q105 290 100 281 Q96 271 91.5 258 Q87 245 83 231.5 Q79 218 77 206 Q75 194 77 185 Q79 180 83 181 Q91 183 98.5 189.5 Q106 196 114 204 Q126 216 138 228.5 Q150 241 162 253 Q167 258 174.5 266 Q182 274 189 282 Q197 291 206 300 Z " />
</font>
</svg>
