<?xml version="1.0" encoding="UTF-8"?>
<svg xmlns="http://www.w3.org/2000/svg" xmlns:xlink="http://www.w3.org/1999/xlink" version="1.2" >
<font id="Susanti signature">
<font-face  font-family="Susanti signature" units-per-em="1000" ascent="750" descent="-250" font-style="normal" font-weight="400" font-stretch="normal" cap-height="700" x-height="500" underline-position="-75" underline-thickness="50" />
<missing-glyph  horiz-adv-x="154" d="" />
<glyph glyph-name="NULL" d="" />
<glyph glyph-name="&amp;#x0;" horiz-adv-x="154" d="" />
<glyph glyph-name="&amp;#xd;" unicode="&#xd;" horiz-adv-x="154" d="" />
<glyph glyph-name="space" unicode="&#x20;" horiz-adv-x="154" d="" />
<glyph glyph-name="exclam" unicode="&#x21;" horiz-adv-x="279" d="M294 688 C297 697 293 702 287 703 C280 704 274 700 271 691 C264 672 57 97 55 88 C53 82 49 66 64 65 C73 64 78 74 81 85 C86 103 287 666 294 688 L294 688 Z M18 -55 C24 -55 30 -50 31 -44 C32 -37 28 -32 22 -32 C15 -32 9 -37 8 -43 C7 -49 11 -54 18 -55 L18 -55 Z " />
<glyph glyph-name="quotedbl" unicode="&#x22;" horiz-adv-x="173" d="M120 697 C112 703 103 697 100 689 C93 676 87 661 82 647 C80 640 83 635 88 634 C97 632 105 638 107 646 C113 658 116 671 122 684 C124 688 123 694 120 697 L120 697 Z M157 696 C147 699 143 694 139 687 C132 674 127 661 121 646 C118 639 123 632 130 632 C141 632 144 643 147 648 C152 659 156 669 161 681 C163 686 163 694 157 696 L157 696 Z " />
<glyph glyph-name="numbersign" unicode="&#x23;" horiz-adv-x="304" d="M202 313 C220 313 238 312 255 312 C267 312 269 311 276 308 C282 307 287 310 290 315 C293 320 293 325 289 329 C280 336 270 336 259 337 C244 338 231 338 216 339 C223 352 228 362 234 372 C237 376 237 381 235 385 C229 393 216 389 212 381 C203 366 195 353 186 339 C177 340 168 339 159 340 C165 354 171 364 178 378 C183 388 180 394 171 395 C162 395 156 389 152 381 C144 368 137 353 129 339 C108 339 86 339 65 337 C59 337 54 333 52 327 C49 316 58 313 71 314 C87 314 102 315 116 315 C113 309 111 301 108 296 C89 294 75 294 55 293 C47 292 40 285 40 279 C39 269 49 268 60 269 C74 269 84 270 95 269 C89 256 83 243 78 230 C75 223 72 210 81 210 C97 208 101 219 105 227 C112 242 116 257 125 271 C133 271 141 272 151 271 C144 255 136 240 129 224 C123 215 122 199 137 200 C146 199 150 209 154 215 C163 234 171 254 181 272 C198 272 214 271 232 271 C237 271 241 273 244 278 C251 290 242 297 224 298 C215 298 204 299 194 299 C197 304 199 308 202 313 L202 313 Z M137 297 C140 303 143 308 145 314 C154 314 163 314 172 313 C170 309 167 301 164 297 C156 297 146 297 137 297 L137 297 Z " />
<glyph glyph-name="dollar" unicode="&#x24;" horiz-adv-x="291" d="M145 353 C144 351 101 232 80 174 C79 171 78 168 75 166 C63 155 19 115 9 105 C7 103 4 102 1 102 C-6 101 -13 91 -14 86 C-17 77 -9 68 0 69 C9 71 17 79 21 83 C33 92 45 104 59 116 C55 102 40 54 32 26 C30 17 28 6 28 -1 C28 -6 27 -18 41 -18 C47 -18 50 -15 51 -10 C52 -8 53 1 54 4 C66 55 84 102 100 152 C101 155 102 157 105 159 C120 174 135 190 150 205 C166 221 180 238 193 256 C205 274 216 293 214 316 C213 327 208 336 201 344 C195 351 178 363 177 365 C181 375 217 471 230 502 C234 511 242 510 250 511 C250 507 248 500 244 493 C235 476 225 461 214 446 C210 440 210 434 214 430 C220 424 229 428 235 436 C244 446 252 458 259 469 C267 483 278 500 276 517 C274 533 260 539 244 537 C245 540 267 596 272 602 C277 610 269 618 261 618 C255 618 251 615 249 610 C244 600 220 546 213 528 C211 525 210 524 208 522 C198 516 189 511 180 504 C161 491 144 476 129 458 C118 445 107 430 104 412 C101 395 107 385 116 374 C122 368 142 355 145 353 L145 353 Z M122 212 C126 227 162 324 167 338 C173 333 180 328 183 323 C188 315 190 307 187 299 C179 281 169 266 156 250 C146 239 132 223 122 212 L122 212 Z M194 483 C194 482 168 413 154 379 C149 383 143 387 139 390 C130 398 128 406 133 418 C141 435 153 449 170 464 C176 470 192 482 194 483 L194 483 Z " />
<glyph glyph-name="percent" unicode="&#x25;" horiz-adv-x="368" d="M289 498 C293 500 332 516 334 515 C331 512 323 501 322 500 C270 437 80 136 15 21 C11 15 10 4 18 1 C23 -1 29 0 34 5 C92 108 228 326 335 475 C348 493 362 512 363 526 C364 535 359 542 350 544 C327 547 297 529 273 521 C273 521 273 522 273 522 C270 540 251 531 242 523 C217 500 187 458 193 432 C196 421 205 419 216 420 C241 423 264 447 280 468 C286 477 289 487 289 497 C289 497 289 498 289 498 L289 498 Z M256 504 C257 500 258 497 261 494 C263 492 263 490 262 488 C253 470 233 444 215 441 C215 460 240 487 256 504 L256 504 Z M143 91 C136 96 164 138 180 155 C185 160 190 168 184 175 C181 179 175 179 170 176 C162 171 150 156 141 143 C130 127 118 105 120 84 C124 66 143 65 159 72 C193 88 217 114 230 150 C233 159 234 170 224 175 C212 181 198 166 203 154 C204 153 204 153 204 152 C200 128 152 84 143 91 L143 91 Z " />
<glyph glyph-name="ampersand" unicode="&#x26;" horiz-adv-x="347" d="M205 208 C166 99 129 -14 103 -128 C100 -140 96 -171 116 -169 C123 -167 126 -162 127 -154 C127 -144 129 -134 131 -125 C157 -11 194 102 232 211 C237 227 236 240 219 243 C199 243 168 212 147 201 C147 212 161 235 169 251 C176 264 194 288 193 305 C192 318 174 320 164 315 C139 307 92 292 81 297 C81 329 150 372 175 384 C185 388 194 391 205 391 C214 393 207 373 227 374 C241 374 262 413 275 437 C334 536 357 580 421 690 C431 707 445 725 437 731 C426 740 413 725 408 716 C375 659 276 481 227 411 C207 423 184 417 164 408 C132 394 60 346 55 301 C53 290 57 276 74 271 C96 265 131 279 160 287 C146 264 133 243 123 216 C119 202 117 180 135 174 C146 172 157 177 166 182 C179 190 192 200 205 208 L205 208 Z " />
<glyph glyph-name="quotesingle" unicode="&#x27;" horiz-adv-x="180" d="M164 677 C166 683 167 690 158 693 C151 696 144 691 141 683 C135 668 131 657 125 640 C124 634 127 629 133 627 C138 625 144 627 147 632 C154 649 158 661 164 677 L164 677 Z " />
<glyph glyph-name="parenleft" unicode="&#x28;" horiz-adv-x="222" d="M110 433 C55 291 26 143 13 -16 C13 -26 12 -50 18 -58 C22 -64 28 -66 34 -63 C40 -60 42 -54 41 -47 C37 -40 36 -20 37 -12 C42 75 67 197 93 304 C119 392 145 463 200 561 C226 605 254 647 287 688 C291 694 305 700 302 710 C300 715 295 718 289 717 C278 715 251 683 231 656 C182 586 142 511 110 433 L110 433 Z " />
<glyph glyph-name="parenright" unicode="&#x29;" horiz-adv-x="259" d="M-41 -55 C-26 -60 -12 -37 -7 -29 C44 65 93 163 137 260 C199 398 241 578 225 708 C223 716 216 729 201 721 C198 719 196 715 197 711 C211 528 150 363 115 282 C66 174 14 67 -45 -36 C-49 -44 -52 -51 -41 -55 L-41 -55 Z " />
<glyph glyph-name="asterisk" unicode="&#x2a;" horiz-adv-x="247" d="M198 577 C207 585 217 592 227 600 C232 605 238 608 235 617 C232 624 220 624 215 618 C207 613 198 608 190 602 C192 608 195 614 197 620 C199 627 197 633 192 635 C186 637 180 634 176 628 C172 616 164 604 160 592 C153 598 146 609 136 613 C130 615 122 612 119 606 C116 599 118 593 124 591 C128 588 135 579 138 573 C124 572 109 570 95 568 C88 566 83 561 83 554 C83 548 87 544 94 544 C103 546 110 545 119 545 C109 534 98 525 92 514 C89 509 90 503 94 500 C97 497 103 498 108 501 C113 504 126 519 135 526 C132 513 126 502 124 489 C124 477 137 468 147 481 C153 500 158 520 167 538 C174 529 178 520 185 511 C189 507 194 507 199 509 C204 512 207 517 207 523 C207 531 197 543 193 550 C203 549 210 549 216 549 C225 549 228 551 232 556 C236 564 232 573 223 575 C214 577 208 577 198 577 L198 577 Z " />
<glyph glyph-name="plus" unicode="&#x2b;" horiz-adv-x="200" d="M82 295 C75 275 68 254 62 233 C60 228 59 224 60 219 C61 215 64 211 69 210 C79 209 84 217 86 224 C88 229 89 233 90 238 C97 258 103 276 110 296 C127 296 144 296 163 295 C170 294 177 298 179 304 C182 314 175 321 162 321 C148 321 133 321 119 322 C125 337 129 353 134 368 C135 372 135 375 133 379 C131 383 126 385 120 384 C115 383 111 378 110 373 C110 371 110 370 109 368 C103 352 96 337 91 321 C75 320 60 319 44 318 C37 317 31 313 31 305 C29 297 38 294 45 295 C57 295 70 295 82 295 L82 295 Z " />
<glyph glyph-name="comma" unicode="&#x2c;" horiz-adv-x="117" d="M5 147 C5 142 6 139 8 137 C14 132 23 132 27 139 C30 143 32 148 34 153 C42 178 51 201 58 226 C60 232 57 238 51 240 C42 243 38 239 35 231 C25 203 7 156 5 147 L5 147 Z " />
<glyph glyph-name="hyphen" unicode="&#x2d;" horiz-adv-x="170" d="M138 300 C138 308 130 311 124 311 C104 311 63 310 47 307 C41 306 37 301 37 295 C38 290 42 285 48 284 C51 283 123 285 129 287 C137 289 138 294 138 300 L138 300 Z " />
<glyph glyph-name="period" unicode="&#x2e;" horiz-adv-x="98" d="M47 204 C47 210 42 215 36 215 C29 215 24 210 24 204 C24 198 29 192 36 192 C42 192 47 198 47 204 L47 204 Z " />
<glyph glyph-name="slash" unicode="&#x2f;" horiz-adv-x="443" d="M494 710 C491 715 485 717 479 715 C469 711 456 701 450 690 C447 684 445 679 450 673 C449 672 449 671 448 670 C417 630 -79 -105 -91 -124 C-98 -135 -107 -148 -107 -161 C-107 -167 -102 -172 -97 -173 C-91 -174 -86 -171 -83 -165 C-83 -164 -82 -162 -82 -161 C-77 -152 -73 -143 -68 -135 C-63 -125 470 656 482 673 C487 680 492 686 496 694 C499 700 498 705 494 710 L494 710 Z " />
<glyph glyph-name="zero" unicode="0" horiz-adv-x="222" d="M38 258 C30 228 23 156 62 151 C71 150 79 152 86 155 C98 160 108 167 117 176 C149 208 171 247 190 288 C199 310 206 333 209 357 C210 368 210 380 207 391 C204 400 199 408 192 414 C179 425 164 420 155 413 C150 409 150 401 153 396 C156 391 163 389 169 391 C171 393 176 395 177 392 C180 389 181 386 182 382 C185 351 176 321 163 293 C148 258 127 221 98 194 C91 187 81 179 70 177 C47 170 59 229 60 237 C66 265 75 292 87 318 C93 331 99 344 106 356 C108 358 109 360 112 362 C116 364 117 370 116 374 C114 385 97 385 93 377 C79 361 68 342 60 322 C51 301 44 280 38 258 L38 258 Z " />
<glyph glyph-name="one" unicode="1" horiz-adv-x="142" d="M111 415 C90 368 29 220 17 170 C15 161 12 149 23 145 C30 142 47 152 42 164 C43 168 44 172 45 176 C70 252 100 322 141 418 C145 427 152 440 143 449 C134 461 120 451 111 446 C96 437 81 425 66 414 C59 408 60 398 67 394 C71 392 75 392 78 394 L111 415 Z " />
<glyph glyph-name="two" unicode="2" horiz-adv-x="204" d="M137 394 C137 388 134 381 132 376 C104 322 64 275 19 233 C10 225 1 217 -11 212 C-18 208 -24 198 -18 191 C-13 184 -4 185 3 189 C22 198 44 198 65 200 C92 200 121 204 149 201 C156 200 163 207 162 215 C162 224 150 228 142 228 C114 227 86 226 59 225 C55 225 52 225 48 225 C85 260 118 302 145 345 C154 359 162 376 164 393 C164 411 151 422 133 419 C101 412 76 388 59 361 C57 357 54 352 53 347 C52 341 53 335 58 331 C62 328 67 328 72 330 C76 333 78 337 77 342 C77 344 77 345 78 346 C89 360 100 374 115 384 C122 389 129 392 137 394 L137 394 Z " />
<glyph glyph-name="three" unicode="3" horiz-adv-x="181" d="M110 339 C122 357 137 373 150 390 C161 403 176 425 177 437 C179 448 173 458 162 460 C135 465 88 427 64 403 C55 393 37 377 37 361 C37 355 41 350 46 349 C52 348 58 351 60 357 C63 365 69 370 74 377 C90 393 106 408 125 420 C133 425 141 429 149 433 C136 411 119 392 103 372 C95 363 86 352 81 341 C77 331 81 322 90 318 C102 313 119 312 122 297 C122 264 101 236 85 208 C75 193 64 179 51 166 C45 161 41 154 34 152 C35 163 38 172 41 183 C49 205 58 228 68 250 C71 256 69 263 63 266 C53 273 45 263 41 254 C29 230 19 203 11 172 C7 156 4 132 25 126 C40 123 52 131 62 141 C73 151 83 162 92 174 C109 196 123 220 135 245 C144 265 153 289 145 311 C139 326 126 335 110 339 L110 339 Z " />
<glyph glyph-name="four" unicode="4" horiz-adv-x="192" d="M137 368 C133 358 130 349 126 337 C106 275 84 214 68 150 C66 142 70 135 78 134 C85 133 91 137 93 144 C114 216 133 281 162 359 C170 379 174 387 180 401 C184 411 190 421 181 430 C171 440 161 431 153 424 C140 410 126 395 113 380 C101 367 88 353 76 340 C68 332 60 325 51 320 C50 331 54 342 56 352 C62 370 69 387 77 404 C82 414 87 423 91 433 C97 440 94 451 85 453 C77 455 73 449 69 441 C51 413 33 372 28 349 C25 336 22 319 28 306 C32 297 41 292 50 293 C68 295 81 309 94 321 L137 368 Z " />
<glyph glyph-name="five" unicode="5" horiz-adv-x="222" d="M129 306 C127 300 126 297 122 288 C95 232 47 191 9 142 C-1 129 -2 122 5 115 C14 109 22 116 26 122 C63 169 147 249 153 303 C155 319 147 330 135 332 C112 336 90 324 69 318 C73 325 77 332 81 340 C93 361 105 383 117 404 C118 406 119 406 120 406 C154 411 189 413 224 413 C226 413 228 412 230 410 C234 407 238 406 242 408 C246 410 249 414 249 419 C249 424 248 429 244 433 C235 440 223 441 211 441 C184 441 157 438 130 435 C128 438 127 440 124 442 C119 445 112 443 108 437 C106 432 102 430 98 430 C91 428 84 426 77 424 C72 423 69 419 68 414 C67 408 68 404 72 400 C76 397 79 398 85 400 C84 395 78 387 75 381 C60 355 46 335 38 306 C34 289 49 282 64 287 C75 291 86 295 97 299 C108 302 118 306 129 306 L129 306 Z " />
<glyph glyph-name="six" unicode="6" horiz-adv-x="191" d="M46 217 C51 270 103 348 148 403 C153 403 159 418 155 424 C150 431 140 429 134 422 C117 405 102 386 88 366 C56 315 9 240 23 197 C27 185 36 177 49 176 C71 174 88 188 105 201 C128 221 166 264 167 292 C168 306 156 316 141 312 C121 307 106 290 93 276 C81 263 70 248 59 234 C55 229 50 222 46 217 L46 217 Z M138 283 C134 266 88 215 72 208 C75 217 127 277 138 283 L138 283 Z " />
<glyph glyph-name="seven" unicode="7" horiz-adv-x="185" d="M154 410 C134 377 111 346 91 314 C90 313 89 312 88 312 C78 309 67 309 58 304 C53 301 50 295 53 289 C55 284 60 282 66 283 C68 284 70 284 73 285 C47 242 23 198 4 152 C0 141 -6 125 8 118 C18 113 36 127 28 138 C27 140 27 141 28 143 C48 193 76 240 104 287 C105 289 106 290 108 290 C118 291 130 293 140 294 C144 294 148 293 152 292 C161 289 170 301 167 308 C165 313 161 317 156 318 C147 320 134 319 124 318 C130 328 137 337 143 347 C152 361 162 376 172 391 C183 410 191 430 170 435 C166 436 162 436 159 436 C134 435 112 426 87 425 C80 426 74 416 76 410 C78 400 90 401 100 402 C118 404 136 407 154 410 L154 410 Z " />
<glyph glyph-name="eight" unicode="8" horiz-adv-x="176" d="M27 136 C46 136 62 147 75 160 C102 189 121 229 115 268 C112 286 108 293 106 305 C106 308 108 311 110 313 C141 347 192 399 195 428 C196 434 195 440 192 446 C184 459 160 456 146 450 C119 438 97 419 80 394 C67 374 62 353 68 331 C70 323 72 316 75 309 C75 307 75 306 74 304 C53 276 33 246 14 217 C5 200 -9 177 -6 161 C-4 146 10 136 27 136 L27 136 Z M86 278 C88 271 90 263 90 256 C92 225 74 195 52 173 C47 169 41 164 34 162 C29 160 19 160 19 168 C22 184 31 196 39 209 C54 232 70 255 86 278 L86 278 Z M169 430 C164 416 155 404 146 393 C130 371 112 353 95 331 C93 338 92 346 92 354 C93 364 96 373 101 381 C115 401 132 416 154 426 C158 428 164 430 169 430 L169 430 Z " />
<glyph glyph-name="nine" unicode="9" horiz-adv-x="148" d="M45 336 C45 361 63 386 78 406 C85 413 91 419 99 419 C106 419 112 423 112 431 C112 435 109 439 104 441 C84 447 65 429 53 416 C37 398 16 360 22 328 C25 316 35 310 47 312 C55 313 61 317 68 322 C78 329 86 340 96 349 C92 338 87 329 83 318 C60 257 34 197 16 134 C14 127 18 120 24 118 C31 116 39 120 41 128 C62 195 89 263 115 328 C123 348 132 367 141 387 C148 401 154 415 161 428 C164 434 164 441 161 444 C157 449 142 452 137 444 C132 437 126 430 121 423 C106 405 92 387 77 369 C68 358 56 345 45 336 L45 336 Z " />
<glyph glyph-name="colon" unicode="&#x3a;" horiz-adv-x="117" d="M73 345 C67 346 61 341 61 334 C60 328 66 321 74 321 C80 321 85 326 86 332 C86 339 80 345 73 345 L73 345 Z M50 273 C44 273 38 269 38 262 C38 256 42 251 49 250 C55 250 60 255 61 261 C61 267 56 273 50 273 L50 273 Z " />
<glyph glyph-name="semicolon" unicode="&#x3b;" horiz-adv-x="111" d="M58 272 C54 274 48 274 45 269 C37 258 27 237 22 224 C19 215 25 208 34 209 C38 209 41 213 43 217 C52 234 56 243 63 258 C66 264 63 270 58 272 L58 272 Z M80 344 C74 344 68 339 68 333 C67 327 72 321 78 321 C84 320 90 325 91 331 C91 338 86 343 80 344 L80 344 Z " />
<glyph glyph-name="less" unicode="&#x3c;" horiz-adv-x="162" d="M151 359 C148 367 139 367 132 364 C98 349 58 336 32 316 C22 309 18 300 22 291 C25 285 35 278 42 272 C58 258 74 244 91 233 C99 228 106 231 108 233 C113 238 114 245 110 250 C109 251 108 252 106 253 C87 269 68 284 48 299 C78 317 111 331 143 345 C149 348 152 353 151 359 L151 359 Z " />
<glyph glyph-name="equal" unicode="&#x3d;" horiz-adv-x="228" d="M175 328 C144 330 111 330 78 330 C62 330 54 326 54 315 C55 310 59 307 66 307 C85 308 170 305 182 305 C188 305 192 306 195 310 C201 324 191 328 175 328 L175 328 Z M174 291 C130 295 95 293 60 293 C53 293 48 289 46 283 C44 278 47 273 53 272 C71 269 156 268 178 271 C182 272 185 276 185 280 C186 287 182 291 174 291 L174 291 Z " />
<glyph glyph-name="greater" unicode="&#x3e;" horiz-adv-x="174" d="M152 315 C130 332 117 341 97 352 C91 355 81 352 79 345 C77 340 78 336 83 333 C94 325 105 318 116 310 C120 307 124 304 129 301 C99 282 66 266 37 245 C31 241 25 234 32 225 C38 218 46 222 53 226 C85 247 123 265 152 289 C161 297 161 308 152 315 L152 315 Z " />
<glyph glyph-name="question" unicode="&#x3f;" horiz-adv-x="351" d="M355 718 C326 737 288 733 257 723 C214 711 173 690 145 660 C134 649 121 632 126 618 C127 612 132 609 138 609 C143 610 148 614 148 619 C148 635 170 648 179 656 C219 686 279 714 327 702 C388 687 344 595 327 564 C310 533 281 489 257 452 C156 296 73 123 60 88 C56 79 56 64 71 64 C81 64 85 80 88 88 C135 192 171 270 281 442 C322 506 369 572 383 643 C388 673 380 702 355 718 L355 718 Z M22 -22 C17 -21 11 -24 10 -28 C7 -34 2 -39 2 -45 C2 -50 5 -54 9 -56 C14 -58 19 -56 22 -53 C28 -47 33 -36 32 -32 C31 -27 27 -23 22 -22 L22 -22 Z " />
<glyph glyph-name="at" unicode="&#x40;" horiz-adv-x="377" d="M221 302 C220 292 218 283 221 273 C223 263 230 257 240 256 C258 251 279 265 295 277 C306 286 316 296 325 307 C352 339 373 373 384 412 C395 453 380 491 336 505 C305 512 273 512 240 503 C190 486 150 452 115 410 C88 376 67 340 51 302 C24 239 15 148 65 104 C89 86 116 81 149 91 C195 105 225 137 259 173 C266 179 272 187 279 194 C281 196 283 199 285 202 C288 207 286 213 282 217 C277 220 271 219 266 216 C264 214 263 213 261 211 C226 176 194 132 139 114 C124 109 110 111 92 119 C78 128 69 140 63 154 C56 173 54 193 55 214 C56 236 61 257 69 279 C77 299 86 319 97 338 C125 387 160 434 214 465 C247 484 291 492 331 481 C397 463 342 370 318 338 C304 318 279 286 251 281 C247 281 246 281 246 285 C246 290 247 294 248 299 C252 312 257 325 263 337 C267 345 272 351 270 360 C268 368 257 372 250 365 C244 359 234 350 226 341 C211 326 196 311 180 297 C171 290 162 282 152 277 C151 288 152 297 157 307 C163 319 179 343 192 349 C193 348 194 347 194 346 C198 342 202 342 207 343 C211 344 214 348 216 352 C219 363 212 374 200 375 C185 375 172 366 159 353 C140 331 116 292 129 259 C134 252 141 249 151 251 C178 257 204 284 221 302 L221 302 Z " />
<glyph glyph-name="A" unicode="A" horiz-adv-x="441" d="M464 709 C462 725 454 740 435 733 C401 721 363 654 342 620 C316 574 292 527 269 480 C253 448 237 417 222 386 C195 334 168 283 142 231 C140 229 139 227 136 226 C119 220 103 213 85 207 C43 190 4 170 -34 144 C-61 126 -85 106 -106 82 C-121 65 -133 46 -142 24 C-154 -2 -157 -34 -145 -61 C-137 -73 -128 -81 -115 -84 C-97 -88 -78 -82 -60 -73 C-47 -66 -35 -57 -24 -47 C-6 -31 10 -13 26 6 C51 37 75 70 97 105 C118 137 137 169 155 203 C156 206 159 207 162 209 C181 215 199 222 217 228 C244 237 292 253 308 257 C294 217 165 -185 155 -213 C154 -217 153 -221 154 -225 C155 -231 159 -235 165 -235 C170 -236 176 -232 177 -226 C177 -221 179 -217 180 -212 C231 -77 314 203 339 263 C346 265 353 266 360 267 C368 268 383 271 389 265 C393 261 401 261 405 264 C408 267 410 271 409 276 C406 288 395 294 383 294 C372 295 359 293 348 292 C359 324 371 357 381 389 C403 456 426 523 445 591 C452 618 460 646 464 674 C465 685 465 702 464 709 L464 709 Z M35 59 C1 12 -58 -57 -99 -59 C-111 -60 -120 -55 -124 -45 C-137 -20 -120 15 -108 37 C-95 56 -80 73 -63 89 C-37 113 -7 132 24 149 C53 166 96 185 119 192 C106 168 65 100 35 59 L35 59 Z M438 677 C435 657 431 637 425 617 C413 574 400 531 387 489 C367 426 337 350 318 285 C271 273 224 258 177 242 C207 298 239 362 259 402 C283 451 307 499 333 547 C350 581 368 614 389 645 C399 661 410 676 422 690 C426 695 433 701 438 706 C440 696 439 687 438 677 L438 677 Z " />
<glyph glyph-name="B" unicode="B" horiz-adv-x="481" d="M239 384 C244 396 251 408 259 419 C274 442 289 465 305 488 C327 521 349 554 369 589 C379 608 389 627 397 647 C405 664 411 688 408 706 C406 719 396 727 383 727 C367 727 350 715 339 705 C321 691 305 674 290 657 C263 626 239 594 217 560 C193 524 171 487 150 450 C129 411 109 371 90 331 C66 278 41 222 26 165 C25 160 24 155 26 151 C27 144 33 139 40 139 C47 140 53 147 51 154 C50 157 50 160 51 163 C68 209 85 253 104 299 C122 340 142 381 164 420 C190 469 218 516 250 562 C270 592 292 620 316 647 C329 662 343 675 358 687 C366 692 374 698 383 700 C384 689 381 678 377 668 C369 646 359 624 347 604 C330 574 312 546 293 518 C277 493 260 469 244 445 C228 422 213 398 207 371 C204 354 207 339 222 329 C248 311 279 300 306 282 C319 273 332 263 343 251 C365 225 376 195 375 160 C374 138 369 116 362 95 C351 67 335 41 317 17 C293 -14 265 -42 235 -66 C192 -100 146 -127 96 -147 C74 -156 51 -163 28 -168 C16 -170 3 -172 -9 -171 C-30 -171 -48 -161 -48 -138 C-48 -129 -45 -120 -41 -111 C-34 -97 -26 -84 -16 -71 C1 -48 20 -28 40 -9 C74 24 110 55 147 85 C168 102 189 119 211 134 C217 138 223 141 229 145 C232 147 234 147 237 146 C245 144 252 149 253 156 C253 164 248 171 241 173 C236 175 232 174 228 173 C221 171 215 167 209 164 C142 119 81 65 22 10 C-1 -12 -23 -35 -42 -61 C-53 -77 -63 -94 -69 -112 C-73 -124 -75 -135 -74 -147 C-72 -164 -65 -178 -50 -186 C-25 -201 13 -197 21 -196 C44 -192 65 -186 86 -179 C144 -158 198 -128 246 -90 C286 -59 322 -23 350 19 C366 42 380 67 389 94 C393 106 396 117 398 129 C399 138 400 148 401 157 C402 177 399 197 392 216 C383 243 368 265 347 283 C331 299 311 310 291 321 C274 330 256 337 240 347 C233 352 231 359 233 367 C235 373 237 378 239 384 L239 384 Z " />
<glyph glyph-name="C" unicode="C" horiz-adv-x="432" d="M443 693 C437 708 422 715 406 713 C364 707 323 660 309 645 C280 613 254 579 229 544 C199 501 171 457 145 411 C107 345 73 276 44 205 C25 159 9 112 -3 64 C-16 13 -24 -45 -15 -98 C-9 -132 4 -167 32 -189 C54 -205 78 -211 104 -208 C124 -205 141 -199 158 -191 C180 -180 200 -167 218 -151 C263 -115 301 -72 333 -25 C349 -1 363 24 373 50 C384 77 393 110 383 134 C377 150 363 159 346 158 C318 155 293 137 275 120 C265 111 256 102 247 93 C230 76 214 59 200 39 C194 32 188 24 184 15 C180 5 178 -6 186 -14 C190 -18 196 -19 200 -17 C205 -15 207 -10 207 -5 C204 12 225 30 234 41 C251 61 269 79 288 97 C307 114 327 130 348 132 C354 133 360 129 361 123 C365 101 357 85 351 66 C343 42 331 20 317 -2 C302 -26 284 -48 266 -69 C241 -97 215 -122 186 -143 C169 -156 150 -167 130 -175 C116 -180 102 -183 87 -182 C72 -181 60 -177 48 -168 C23 -148 14 -115 9 -85 C6 -55 8 -25 12 5 C19 48 30 89 44 131 C54 161 66 190 78 220 C100 271 125 321 152 370 C188 436 228 500 273 560 C293 587 314 613 338 637 C350 650 386 688 412 690 C429 691 425 655 425 647 C424 630 420 612 416 595 C410 576 403 556 395 537 C377 491 354 446 328 403 C317 384 306 366 295 348 C289 338 282 330 282 320 C283 314 287 309 292 309 C298 308 302 312 305 317 C311 327 319 339 325 348 C342 373 358 400 372 427 C392 464 410 501 424 539 C435 567 444 596 449 625 C451 637 454 669 443 693 L443 693 Z " />
<glyph glyph-name="D" unicode="D" horiz-adv-x="766" d="M731 484 C721 514 705 541 680 562 C664 575 647 586 628 594 C609 603 590 608 570 612 C554 616 537 618 520 619 C500 620 481 620 462 619 C442 617 424 615 405 612 C386 609 368 604 350 599 C348 599 347 598 345 600 C346 601 346 603 347 604 C351 615 355 626 358 637 C366 658 373 680 378 702 C379 708 381 714 384 719 C387 724 385 730 380 733 C376 736 372 736 368 733 C364 732 362 728 360 725 C359 721 357 718 356 714 C343 674 330 634 316 593 C314 590 312 588 309 587 C289 580 269 572 250 564 C209 545 169 523 132 498 C105 478 79 458 55 434 C46 425 38 416 31 406 C27 401 25 395 22 390 C19 386 19 381 19 376 C20 370 25 366 31 366 C36 365 42 370 43 376 C43 379 44 382 46 385 C48 387 49 389 51 392 C59 400 67 409 76 418 C95 437 115 453 137 469 C186 504 238 533 295 554 C297 555 299 556 302 557 C301 554 301 552 300 550 C291 523 281 496 272 469 C255 419 238 370 221 321 C204 269 185 218 167 166 C160 143 151 120 144 97 C143 95 142 93 139 92 C108 79 79 61 51 43 C37 34 23 24 10 13 C-15 -8 -35 -32 -50 -60 C-60 -79 -67 -98 -68 -120 C-69 -134 -67 -149 -62 -162 C-54 -182 -40 -197 -21 -207 C-3 -217 16 -222 36 -224 C59 -226 81 -225 104 -222 C126 -219 148 -214 170 -208 C219 -195 265 -175 310 -151 C373 -116 431 -75 485 -26 C528 12 567 54 603 99 C631 135 657 172 679 212 C703 256 722 302 733 352 C736 364 738 377 739 389 C739 400 740 410 740 421 C740 442 737 463 731 484 L731 484 Z M713 400 C711 365 702 331 690 299 C675 257 654 219 630 182 C608 148 584 116 558 86 C521 43 481 3 437 -33 C391 -71 342 -105 289 -132 C244 -156 197 -175 148 -187 C127 -192 107 -196 86 -198 C67 -199 48 -199 29 -196 C16 -194 2 -190 -10 -183 C-22 -176 -32 -167 -37 -153 C-40 -146 -42 -139 -42 -132 C-42 -116 -39 -101 -33 -87 C-26 -69 -16 -53 -4 -39 C10 -22 26 -7 44 6 C70 24 96 41 124 56 C126 57 127 57 130 59 C129 56 129 55 128 54 C117 19 104 -15 92 -50 C83 -77 74 -104 64 -131 C63 -134 62 -137 62 -140 C60 -147 63 -152 68 -154 C74 -156 79 -155 83 -150 C85 -147 87 -143 88 -140 C93 -129 97 -118 101 -106 C121 -48 141 10 161 69 C163 72 164 74 168 76 C174 78 181 79 187 80 C189 81 192 80 194 80 C196 79 195 77 196 75 C197 69 202 64 208 65 C213 65 216 67 218 72 C224 86 216 100 205 104 C199 107 192 107 185 106 C181 106 178 106 174 105 C175 107 175 109 176 111 C192 156 208 202 223 247 C242 300 260 353 278 406 C296 458 314 511 332 563 C333 564 333 566 334 567 C335 568 336 568 337 569 C362 577 388 583 414 587 C435 591 456 593 478 593 C497 594 516 593 535 592 C566 588 597 581 626 566 C648 556 666 542 681 523 C693 508 701 491 706 473 C713 449 715 425 713 400 L713 400 Z " />
<glyph glyph-name="E" unicode="E" horiz-adv-x="587" d="M251 48 C250 47 250 45 249 44 C245 39 242 35 238 30 C225 13 212 -4 198 -22 C176 -51 157 -81 142 -114 C134 -131 129 -148 125 -166 C121 -180 120 -194 123 -208 C129 -234 148 -250 174 -252 C189 -253 204 -249 219 -244 C238 -235 254 -225 270 -213 C289 -200 308 -187 326 -172 C350 -155 374 -137 397 -118 C404 -112 411 -106 418 -99 C421 -96 423 -93 425 -91 C427 -85 426 -81 423 -77 C419 -74 414 -74 409 -76 C407 -78 404 -80 401 -83 C396 -87 392 -91 388 -94 C363 -115 337 -135 311 -154 C292 -168 274 -182 255 -195 C240 -206 226 -214 210 -221 C199 -225 187 -228 175 -227 C164 -226 155 -221 151 -210 C148 -206 147 -200 147 -193 C146 -182 148 -171 151 -160 C154 -146 160 -131 167 -118 C175 -101 185 -85 196 -69 C210 -47 225 -25 241 -5 C249 5 258 15 265 25 C270 31 274 38 276 44 C279 52 279 58 274 64 C270 68 266 71 261 72 C254 73 247 74 240 74 C217 74 194 73 171 73 C152 73 132 74 112 77 C101 79 89 83 78 88 C63 96 51 108 46 124 C41 136 39 149 39 162 C39 180 41 197 45 215 C48 231 52 247 58 264 C69 294 83 322 98 352 C113 381 132 411 151 439 C178 480 209 519 242 555 C276 590 311 622 351 649 C379 669 409 686 440 698 C461 708 483 715 505 717 C523 720 540 720 558 718 C569 717 580 713 590 708 C602 702 610 695 617 684 C625 671 628 656 628 641 C629 623 626 606 623 589 C619 574 614 560 609 546 C597 513 581 481 565 451 C550 424 536 397 520 371 C516 363 514 357 511 349 C510 347 510 344 510 341 C510 337 514 333 518 333 C523 332 528 335 530 340 C531 341 532 344 533 346 C538 356 545 365 551 376 C566 403 582 432 597 460 C607 479 616 499 624 519 C635 543 644 568 648 594 C653 613 655 633 653 652 C652 663 649 675 645 685 C636 706 621 721 601 731 C581 740 561 744 539 745 C517 745 496 742 475 736 C452 731 431 722 411 713 C377 697 345 676 315 653 C289 633 264 611 241 587 C216 563 192 535 170 507 C153 485 136 462 121 438 C95 398 71 357 52 314 C40 285 29 256 22 227 C18 210 15 194 14 178 C13 156 14 135 21 115 C26 101 35 89 46 78 C58 69 71 62 87 58 C105 52 124 50 143 49 C165 48 188 48 210 48 C222 48 235 48 246 48 C248 48 249 48 251 48 L251 48 Z " />
<glyph glyph-name="F" unicode="F" horiz-adv-x="771" d="M991 699 C950 710 867 708 810 704 C715 697 621 686 527 670 C507 666 490 663 471 659 C477 672 483 687 489 701 C490 705 492 709 493 713 C495 717 497 722 498 726 C500 732 497 737 492 740 C488 742 482 741 478 736 C477 734 475 732 474 730 C471 723 468 717 465 709 C457 691 449 673 442 655 C441 652 440 651 437 651 C406 643 375 635 344 626 C324 619 303 613 283 606 C259 597 236 589 214 580 C195 573 177 564 159 556 C117 537 77 515 41 487 C19 471 -10 447 -17 420 C-23 401 -19 384 -7 369 C7 351 31 339 52 329 C74 320 96 311 119 302 C140 294 162 286 183 276 C201 267 218 257 234 244 C252 228 265 207 268 182 C269 179 269 177 268 175 C262 158 257 141 251 124 C239 89 227 54 215 18 C198 -33 181 -84 163 -135 C156 -155 149 -175 142 -195 C140 -200 138 -205 136 -210 C133 -220 142 -229 151 -226 C156 -225 159 -221 161 -217 C170 -192 180 -168 191 -145 C203 -116 216 -87 228 -58 C241 -30 253 -1 264 28 C276 58 286 89 292 121 C295 139 297 156 296 174 C296 175 296 177 296 178 C308 213 320 248 332 283 C341 309 350 336 359 362 C360 364 360 365 362 365 C373 367 383 369 393 370 C433 377 475 382 516 387 C575 394 643 398 695 399 C705 399 715 399 724 396 C728 395 731 395 733 391 C736 386 741 385 746 387 C751 388 754 393 754 398 C754 402 753 406 751 410 C748 415 744 417 739 419 C731 423 721 424 712 425 C696 426 681 425 666 425 C574 422 499 411 414 400 C400 398 385 396 370 393 C379 420 390 448 399 475 C418 526 437 576 458 627 C458 628 459 629 461 630 C483 634 505 639 527 643 C651 665 780 678 906 682 C925 682 944 681 962 679 C968 678 974 677 980 674 C982 673 984 672 984 670 C985 664 989 661 994 661 C999 660 1004 663 1006 667 C1013 682 1004 695 991 699 L991 699 Z M284 222 C282 225 280 229 278 232 C268 248 256 261 241 272 C226 283 211 292 195 299 C179 307 163 313 147 320 C146 320 145 321 144 321 C144 321 144 321 144 322 C150 323 155 323 160 324 C217 332 272 348 331 359 C315 313 299 268 284 222 L284 222 Z M373 479 C363 451 353 423 343 395 C343 393 342 392 342 390 C341 388 340 388 338 387 C275 374 211 359 147 346 C145 346 142 345 140 344 C131 340 130 331 134 326 C134 326 134 326 134 325 C130 327 126 328 122 329 C106 336 90 342 75 348 C55 357 30 366 16 382 C8 392 5 404 11 417 C21 439 41 456 60 470 C89 491 120 509 152 524 C179 537 206 549 233 560 C260 570 287 580 314 589 C351 601 390 612 428 621 L373 479 Z " />
<glyph glyph-name="G" unicode="G" horiz-adv-x="662" d="M618 240 C614 241 610 242 605 242 C587 242 568 240 550 238 C548 238 547 238 546 240 C541 246 534 246 528 241 C527 240 526 238 525 237 C523 236 522 235 521 235 C499 231 475 229 454 226 C417 220 381 215 344 209 C277 199 210 185 145 164 C144 164 142 163 141 162 C137 159 135 154 137 149 C137 144 142 141 147 142 C152 142 156 143 160 144 C179 148 197 153 215 157 C246 165 279 171 310 177 C336 182 362 186 388 190 C408 193 425 196 443 198 C461 200 478 204 495 205 C471 181 449 157 427 133 C399 104 370 75 342 46 C319 23 296 1 272 -21 C238 -51 203 -79 167 -103 C142 -119 111 -139 82 -139 C71 -139 60 -136 51 -130 C34 -118 27 -96 21 -75 C18 -50 17 -25 19 1 C22 28 24 49 31 80 C46 141 58 170 74 214 C85 237 95 260 105 282 C120 314 136 346 155 376 C173 409 194 441 216 472 C241 508 268 542 298 574 C334 614 376 653 423 681 C440 690 457 698 474 702 C497 707 524 708 533 685 C547 651 527 597 510 565 C500 547 493 530 483 513 C480 504 469 488 473 479 C476 474 481 471 486 472 C492 473 493 478 496 484 C502 498 521 529 527 544 C550 589 575 651 558 696 C551 712 539 723 524 728 C477 742 425 714 388 688 C329 646 281 597 235 540 C213 513 193 484 173 454 C144 410 118 364 94 317 C48 226 14 133 0 39 C-5 11 -7 -18 -6 -47 C-4 -81 2 -117 23 -143 C39 -158 57 -165 79 -165 C92 -165 104 -162 116 -158 C135 -151 152 -142 171 -131 C188 -119 207 -107 224 -94 C258 -67 291 -39 321 -8 C354 22 383 53 414 84 C440 110 464 137 490 162 C484 151 479 141 475 129 C460 97 446 64 434 31 C407 -40 380 -120 366 -184 C363 -196 360 -215 373 -221 C378 -224 383 -223 387 -219 C391 -215 392 -210 392 -205 C391 -203 390 -201 390 -199 C390 -190 393 -181 395 -172 C407 -131 419 -92 430 -54 C443 -16 456 21 470 58 C492 109 517 158 540 209 C541 211 541 211 543 212 C551 212 560 213 568 214 C580 215 591 216 602 216 C605 216 608 215 609 214 C622 209 631 234 618 240 L618 240 Z " />
<glyph glyph-name="H" unicode="H" horiz-adv-x="487" d="M553 750 C541 750 537 741 532 733 C519 711 510 688 500 665 C448 542 420 470 386 355 C374 321 365 288 355 254 C325 256 236 255 223 253 C235 288 247 323 260 358 C284 424 310 489 336 554 C356 606 377 655 390 706 C392 715 385 725 375 723 C370 722 367 718 366 712 C366 710 365 707 364 704 C344 645 321 589 299 533 C263 441 227 347 195 252 C133 250 69 239 24 236 C16 235 7 234 -1 237 C-9 239 -17 229 -14 222 C-12 217 -8 214 -3 213 C2 212 7 211 12 211 C70 207 128 226 186 225 C154 123 118 21 90 -82 C83 -107 76 -132 72 -158 C70 -166 69 -174 70 -181 C71 -185 72 -189 74 -192 C77 -197 82 -199 88 -197 C93 -196 97 -191 96 -184 C95 -177 96 -169 97 -162 C101 -139 107 -117 113 -94 C142 7 175 108 208 208 C210 214 212 220 214 226 C259 229 303 230 348 229 C342 208 337 189 331 167 C298 46 269 -50 248 -173 C245 -185 244 -198 242 -211 C241 -217 241 -224 243 -231 C243 -236 245 -240 247 -243 C251 -248 256 -249 261 -247 C265 -246 268 -242 269 -236 C269 -235 268 -233 268 -232 C268 -229 268 -226 268 -223 C268 -207 271 -191 274 -176 C291 -66 319 16 346 123 C355 158 365 193 375 227 C381 227 386 226 392 225 C401 223 409 222 416 214 C419 211 425 211 429 213 C433 216 435 221 434 226 C433 232 430 237 425 240 C420 244 415 246 410 247 C400 250 392 252 382 253 C394 295 407 338 421 379 C450 469 467 517 503 605 C518 642 534 679 551 715 C553 721 556 727 561 732 C568 739 560 749 553 750 L553 750 Z " />
<glyph glyph-name="I" unicode="I" horiz-adv-x="247" d="M318 673 C314 675 309 676 304 676 C284 677 263 676 243 674 C233 673 222 672 212 671 C208 670 204 670 200 669 C194 668 191 663 190 658 C190 652 194 649 199 647 C205 645 218 647 223 648 C228 648 234 648 240 648 C235 635 230 622 224 609 C204 560 184 511 165 461 C145 409 126 356 107 303 C86 241 64 179 44 118 C23 58 4 -1 -14 -61 C-21 -82 -28 -104 -32 -126 C-44 -128 -55 -130 -67 -133 C-75 -136 -82 -140 -80 -149 C-79 -154 -75 -157 -70 -157 C-68 -157 -67 -157 -65 -156 C-58 -155 -52 -154 -45 -153 C-28 -151 -10 -149 7 -147 C19 -146 30 -144 41 -145 C43 -146 45 -145 46 -145 C55 -142 59 -132 53 -125 C51 -123 48 -121 44 -120 C40 -119 36 -119 32 -119 C23 -119 15 -120 7 -121 C3 -121 -1 -122 -5 -122 C-2 -108 3 -94 7 -80 C17 -46 28 -11 39 23 C62 92 86 160 109 229 C127 284 147 338 167 392 C191 458 217 523 243 588 C252 609 260 629 265 650 C281 650 297 652 312 647 C319 645 326 649 328 656 C331 665 322 671 318 673 L318 673 Z " />
<glyph glyph-name="J" unicode="J" horiz-adv-x="457" d="M686 637 C683 642 679 646 673 648 C669 650 665 651 660 653 C648 656 634 658 621 659 C590 661 559 661 527 660 C505 660 483 659 460 658 C458 658 456 658 454 658 C451 666 447 670 441 669 C435 669 432 666 429 657 C428 656 427 656 426 656 C392 654 166 628 155 627 C151 626 147 626 142 626 C136 626 132 621 131 615 C131 609 136 604 141 603 C144 603 147 603 150 603 C195 604 406 630 424 630 C416 602 407 575 397 547 C387 515 375 484 364 452 C353 423 343 394 332 365 C317 327 303 290 287 252 C270 211 252 171 232 131 C219 105 205 79 190 53 C155 -10 118 -64 71 -106 C47 -126 19 -143 -10 -143 C-20 -142 -29 -139 -37 -132 C-55 -114 -59 -85 -57 -62 C-57 -18 -40 26 -21 62 C0 102 28 141 64 166 C82 178 98 184 115 184 C118 184 121 182 123 179 C124 178 125 176 126 175 C130 170 136 169 141 172 C146 175 148 182 145 187 C136 210 109 212 90 207 C49 195 21 166 -5 135 C-31 101 -52 64 -66 23 C-81 -17 -87 -56 -82 -90 C-78 -127 -57 -161 -21 -167 C15 -175 48 -155 73 -138 C115 -106 146 -66 173 -24 C204 23 231 71 256 121 C277 166 299 209 316 254 C333 295 349 337 365 379 C375 406 384 432 394 459 C404 485 413 512 422 539 C432 569 442 600 451 631 C471 633 491 633 511 634 C532 634 554 634 575 634 C596 634 617 633 638 631 C646 630 653 628 660 625 C662 625 663 624 663 621 C664 617 667 614 672 612 C676 611 681 612 684 616 C689 621 690 630 686 637 L686 637 Z " />
<glyph glyph-name="K" unicode="K" horiz-adv-x="594" d="M85 164 C95 191 105 219 115 246 C118 257 118 257 126 265 C127 265 127 266 127 266 C171 310 216 352 264 391 C298 421 333 450 370 477 C392 494 415 510 438 526 C468 548 499 568 530 588 C573 615 616 640 661 664 C674 671 686 677 699 684 C702 686 705 687 709 686 C710 686 711 686 711 686 C717 688 720 693 720 698 C720 703 716 708 711 709 C705 711 699 709 694 708 C683 704 673 699 662 694 C632 678 602 661 572 644 C527 617 482 589 439 559 C406 537 375 513 344 490 C316 469 289 447 263 425 C221 391 181 354 142 317 C174 405 207 482 241 565 C254 596 267 627 279 657 C287 677 298 707 299 723 C300 732 292 737 284 735 C279 733 277 729 276 724 C273 714 269 703 262 686 C249 654 237 623 224 592 C192 517 162 442 132 366 C120 335 109 304 97 274 C96 272 95 271 94 269 C83 257 71 245 60 233 C37 207 16 181 -3 153 C-15 135 -26 116 -34 95 C-38 84 -41 72 -42 59 C-42 44 -39 30 -30 18 C-23 9 -14 3 -4 -3 C-3 -3 -2 -4 -1 -4 C-1 -5 -1 -6 -1 -6 C-14 -45 -56 -179 -62 -203 C-63 -208 -63 -214 -61 -219 C-59 -227 -50 -230 -44 -226 C-41 -223 -39 -220 -38 -217 C-35 -204 -33 -191 -29 -179 C-12 -124 4 -66 24 -13 C29 -20 88 -25 100 -26 C155 -32 203 -36 250 -41 C384 -54 527 -71 629 -105 C644 -110 660 -115 674 -123 C677 -124 680 -126 683 -128 C686 -131 688 -134 687 -139 C687 -152 705 -155 709 -144 C713 -134 713 -125 707 -117 C696 -104 684 -96 669 -91 C605 -68 529 -48 453 -38 C342 -23 234 -14 124 -2 C69 3 62 6 32 11 C51 63 68 113 85 164 L85 164 Z M7 21 C-5 27 -14 36 -15 50 C-18 78 -2 103 11 125 C22 144 35 162 49 179 C56 188 66 200 73 207 C51 145 29 83 7 21 L7 21 Z " />
<glyph glyph-name="L" unicode="L" horiz-adv-x="413" d="M-32 -78 C-32 -99 -31 -122 -22 -144 C-15 -159 -6 -172 8 -181 C21 -190 37 -193 52 -194 C72 -196 91 -193 110 -190 C128 -186 147 -182 165 -177 C186 -172 207 -166 228 -160 C262 -150 296 -141 331 -132 C368 -122 405 -112 443 -102 C482 -92 520 -83 559 -74 C593 -66 627 -58 661 -52 C676 -50 691 -47 706 -49 C712 -50 717 -46 719 -41 C720 -36 718 -31 713 -28 C710 -25 705 -24 701 -23 C692 -22 683 -23 674 -24 C656 -26 638 -29 621 -33 C586 -41 551 -49 516 -57 C480 -66 444 -75 408 -85 C379 -92 350 -99 321 -107 C288 -116 255 -125 222 -134 C195 -142 169 -149 142 -156 C121 -162 98 -166 76 -168 C64 -169 53 -169 41 -167 C22 -163 9 -152 2 -134 C-8 -105 -7 -73 -4 -41 C-1 -21 2 0 6 20 C15 60 26 99 39 138 C52 181 68 223 84 266 C96 296 108 326 121 356 C134 387 148 417 162 448 C179 485 197 521 216 557 C229 581 243 604 256 628 C267 646 278 665 289 683 C290 684 291 685 292 685 C296 687 298 690 299 693 C299 697 300 701 301 705 C302 714 294 721 285 718 C281 716 279 714 277 711 C263 689 249 667 235 644 C221 619 206 593 192 567 C172 530 154 493 136 455 C121 421 105 388 91 354 C82 331 72 308 63 284 C51 253 40 222 29 191 C15 152 3 112 -8 72 C-17 38 -25 4 -29 -31 C-31 -47 -32 -62 -32 -78 L-32 -78 Z " />
<glyph glyph-name="M" unicode="M" horiz-adv-x="766" d="M803 675 C802 683 800 692 796 700 C789 715 774 722 757 719 C748 717 739 714 731 709 C699 691 673 666 647 640 C613 606 582 569 551 531 C508 477 468 422 429 365 C387 304 347 242 308 179 C293 156 280 133 263 112 C260 135 265 159 269 183 C277 233 285 283 294 333 C307 399 318 470 322 523 C323 534 323 545 321 556 C318 577 305 592 285 589 C268 586 254 576 242 565 C198 528 165 483 133 437 C106 398 82 358 59 316 C37 274 17 231 0 186 C-10 159 -20 132 -26 104 C-28 94 -30 84 -30 73 C-30 71 -30 68 -30 65 C-28 59 -23 57 -17 58 C-11 59 -7 65 -7 71 C-7 74 -7 77 -6 80 C-4 89 -2 98 1 107 C9 138 20 169 32 199 C63 275 102 347 148 416 C171 450 196 482 224 513 C236 526 249 539 263 550 C271 556 278 560 286 563 C290 564 291 563 293 560 C296 551 296 541 296 532 C296 482 286 437 279 392 C272 360 247 207 244 192 C240 162 234 128 237 96 C237 92 239 88 240 85 C245 76 254 74 263 78 C272 84 277 90 284 98 C297 115 308 133 320 151 C356 209 392 267 430 323 C478 394 528 463 582 529 C607 560 633 590 660 618 C679 637 698 656 719 671 C732 681 745 690 761 693 C766 694 771 691 773 686 C784 657 772 607 765 576 C758 548 750 521 742 494 C728 445 712 396 696 348 C674 281 652 215 630 148 C612 94 594 39 576 -15 C562 -60 548 -105 533 -150 C528 -165 523 -179 523 -193 C523 -199 527 -204 533 -204 C539 -205 544 -202 547 -196 C547 -190 551 -181 552 -176 C559 -152 566 -128 574 -105 C594 -44 613 16 633 77 C652 135 672 193 691 251 C708 303 725 354 741 406 C753 444 765 482 776 520 C784 554 794 587 800 622 C802 639 805 657 803 675 L803 675 Z " />
<glyph glyph-name="N" unicode="N" horiz-adv-x="561" d="M596 659 C598 677 598 703 589 720 C584 728 578 734 568 736 C545 739 520 720 503 705 C487 692 473 677 459 661 C431 630 405 597 380 564 C326 494 275 422 228 348 C183 279 141 208 100 137 C81 104 61 71 41 37 C35 27 27 14 19 5 C19 12 19 18 20 24 C23 47 27 69 31 91 C39 129 48 168 58 206 C68 245 79 284 91 323 C106 374 126 423 143 474 C147 480 146 490 139 492 C132 496 124 490 122 483 C88 408 64 329 42 249 C29 198 16 146 5 93 C0 68 -5 43 -7 18 C-8 1 -9 -17 -1 -26 C4 -31 9 -34 17 -32 C28 -28 36 -17 43 -8 C57 11 69 32 81 53 C106 95 130 137 155 179 C186 232 217 284 250 335 C297 407 347 478 400 547 C425 580 451 613 479 644 C494 661 510 677 527 691 C537 699 546 706 557 709 C563 711 566 709 568 704 C578 666 564 625 556 588 C546 551 533 509 520 470 C500 414 480 357 460 300 C413 170 367 39 323 -92 C312 -127 297 -163 290 -200 C289 -204 289 -209 291 -213 C294 -217 298 -220 303 -220 C309 -220 313 -216 314 -211 C315 -210 315 -209 315 -208 C323 -170 338 -134 349 -96 C391 28 434 151 479 275 C502 340 526 404 547 470 C568 532 589 594 596 659 L596 659 Z " />
<glyph glyph-name="O" unicode="O" horiz-adv-x="957" d="M246 64 C244 56 241 50 238 42 C226 4 215 -34 210 -73 C204 -110 204 -147 215 -184 C219 -198 227 -211 237 -222 C253 -238 272 -246 294 -248 C309 -250 324 -248 339 -244 C362 -239 384 -231 406 -221 C438 -206 469 -188 498 -168 C524 -151 548 -133 571 -114 C600 -92 627 -68 654 -43 C693 -6 729 32 763 73 C781 96 798 118 814 142 C835 173 853 206 869 240 C879 263 888 288 895 313 C902 340 907 368 908 396 C908 418 907 440 903 462 C895 505 877 544 849 578 C834 596 816 612 797 626 C775 641 751 653 726 663 C702 673 678 680 652 684 C634 688 615 690 596 691 C553 693 510 690 468 682 C448 679 428 674 408 668 C377 659 347 647 318 633 C270 610 226 581 185 547 C144 513 108 474 79 430 C62 405 48 379 38 351 C31 333 26 315 24 296 C21 276 20 255 23 235 C26 218 31 201 39 186 C50 164 67 146 87 131 C104 119 123 109 143 101 C155 96 167 92 179 87 C201 80 224 72 246 64 L246 64 Z M256 88 C248 91 240 93 233 96 C208 105 183 114 158 123 C140 130 122 139 105 150 C84 165 67 183 58 208 C52 221 49 235 48 249 C47 263 47 277 49 290 C52 308 56 324 62 341 C71 366 84 390 98 412 C125 453 158 489 194 521 C227 549 263 574 301 595 C326 609 352 621 378 631 C406 641 434 649 462 655 C503 663 544 667 586 665 C607 665 627 662 647 659 C690 651 731 637 768 613 C793 598 814 579 832 557 C849 536 861 512 870 486 C875 470 879 453 880 435 C883 412 882 390 879 367 C876 342 870 318 862 294 C849 257 832 221 812 187 C796 160 778 135 759 110 C735 79 710 50 682 22 C647 -15 610 -49 571 -81 C548 -100 525 -118 500 -135 C468 -158 434 -179 398 -196 C378 -206 356 -214 334 -219 C321 -222 307 -223 293 -222 C272 -219 256 -209 245 -189 C240 -179 237 -168 235 -157 C232 -141 232 -124 233 -108 C234 -75 240 -44 249 -12 C255 11 263 33 271 56 C285 53 297 48 311 45 C316 44 321 44 325 44 C333 45 337 50 337 57 C337 64 333 69 325 69 C314 71 303 74 292 77 C288 78 285 79 281 81 C283 85 284 89 286 93 C303 132 322 169 344 205 C363 235 383 264 406 291 C409 294 412 297 416 300 C420 303 421 309 419 314 C417 319 411 322 406 320 C399 317 392 311 386 305 C376 296 367 284 358 273 C341 250 325 226 311 200 C297 176 284 151 272 125 C267 113 262 100 256 88 L256 88 Z " />
<glyph glyph-name="P" unicode="P" horiz-adv-x="1155" d="M263 35 C240 -38 220 -107 199 -177 C196 -193 188 -210 192 -227 C194 -237 206 -242 214 -237 C223 -230 230 -217 235 -207 C271 -134 299 -15 335 61 C370 75 406 89 441 102 C524 135 607 170 694 205 C771 238 847 274 923 317 C974 345 1023 375 1071 408 C1097 427 1123 447 1146 469 C1171 491 1198 519 1207 553 C1210 565 1212 579 1207 592 C1195 619 1166 632 1136 643 C1062 668 979 667 896 664 C797 660 698 647 596 628 C578 625 562 621 544 618 C549 635 557 654 563 671 C567 679 566 687 557 691 C552 693 547 692 543 688 C538 682 537 673 533 667 C526 649 518 629 511 611 C453 597 396 584 338 566 C306 556 274 546 243 534 C206 520 169 505 135 487 C110 474 85 460 63 443 C48 430 32 418 24 399 C15 381 27 363 56 359 C70 356 84 355 97 354 C127 352 157 350 187 348 C217 345 248 341 276 325 C309 306 317 266 314 228 C313 206 309 185 304 165 C296 133 285 99 274 68 C235 53 196 39 155 29 C150 28 147 23 147 18 C147 13 151 8 157 6 C165 3 176 5 184 9 C200 14 216 19 232 24 C242 27 252 31 263 35 L263 35 Z M346 94 C374 168 475 443 534 589 C588 599 642 612 700 618 C773 632 849 635 928 639 C992 642 1064 641 1129 619 C1147 613 1165 605 1178 589 C1183 580 1183 572 1182 563 C1174 538 1158 519 1136 497 C1091 452 1037 417 973 377 C900 333 824 293 744 257 C683 227 619 203 551 175 C504 154 455 137 406 117 C386 110 366 102 346 94 L346 94 Z M49 387 C53 401 64 408 75 417 C97 435 122 449 147 463 C182 481 218 496 255 510 C285 521 315 531 345 540 C396 556 448 569 500 581 C484 544 373 242 339 153 C328 129 322 102 308 80 C316 110 326 138 332 169 C336 187 339 204 341 223 C345 277 340 324 275 354 C242 369 205 372 166 376 C142 377 118 379 94 380 C78 382 63 382 49 387 L49 387 Z M298 47 C296 42 293 31 290 25 C290 28 296 45 298 47 L298 47 Z " />
<glyph glyph-name="Q" unicode="Q" horiz-adv-x="623" d="M603 552 C602 566 599 581 595 596 C587 623 575 649 555 671 C530 700 498 716 461 719 C446 720 432 719 418 717 C398 713 379 706 361 698 C335 685 312 668 290 649 C268 630 249 609 230 587 C206 558 185 526 165 494 C147 464 131 433 117 401 C104 374 93 346 83 317 C77 299 72 281 67 263 C52 209 41 152 38 96 C37 84 38 72 39 60 C40 56 41 51 44 47 C45 44 47 41 50 39 C55 36 61 36 64 40 C68 43 69 49 66 53 C64 56 63 60 63 63 C63 64 63 65 63 66 C63 74 64 82 64 91 C64 108 67 124 69 141 C73 169 78 197 84 224 C93 263 105 301 119 338 C135 378 153 417 174 455 C190 484 208 513 228 540 C248 567 270 593 295 617 C314 635 335 652 359 665 C380 678 404 688 429 692 C444 694 459 694 474 691 C494 687 512 678 527 664 C542 650 553 634 561 615 C570 594 575 573 577 550 C580 527 580 504 577 481 C576 460 572 439 568 419 C562 392 554 365 545 340 C536 313 525 287 512 261 C487 209 457 160 422 114 C402 87 380 62 358 37 C331 9 303 -17 273 -41 C259 -52 245 -62 231 -72 C229 -73 228 -73 227 -73 C203 -64 180 -56 157 -48 C134 -40 111 -32 88 -24 C64 -16 40 -11 16 -8 C-4 -6 -24 -7 -43 -12 C-60 -18 -74 -26 -85 -39 C-94 -51 -99 -64 -99 -79 C-99 -99 -91 -115 -77 -130 C-61 -148 -41 -158 -19 -165 C2 -171 23 -172 44 -171 C69 -170 94 -164 118 -157 C141 -150 162 -141 183 -131 C200 -123 216 -114 232 -104 C234 -102 235 -102 237 -103 C250 -107 263 -111 277 -115 C299 -122 322 -128 345 -134 C370 -141 394 -147 419 -153 C454 -162 489 -170 525 -175 C533 -176 541 -177 549 -175 C554 -174 558 -173 562 -168 C564 -166 565 -162 564 -158 C562 -151 555 -147 547 -149 C544 -150 540 -150 536 -150 C524 -149 512 -148 500 -145 C476 -140 452 -135 427 -129 C399 -122 371 -115 343 -108 C319 -101 295 -94 271 -87 C268 -86 265 -85 261 -84 C262 -83 263 -83 263 -82 C286 -66 308 -49 328 -30 C351 -9 373 13 394 37 C417 62 438 89 458 117 C474 139 489 162 502 185 C528 229 551 275 568 324 C578 352 587 380 593 409 C598 432 602 456 604 481 C605 497 606 513 603 552 L603 552 Z M201 -90 C200 -91 200 -91 199 -92 C175 -106 150 -118 123 -127 C105 -134 87 -139 69 -142 C51 -145 32 -146 13 -145 C-4 -143 -19 -139 -35 -132 C-47 -126 -57 -118 -64 -106 C-77 -88 -75 -68 -61 -53 C-54 -46 -46 -41 -36 -38 C-21 -33 -5 -33 12 -34 C33 -35 55 -41 76 -47 C102 -55 129 -65 155 -74 C169 -79 184 -84 198 -90 C199 -90 200 -90 201 -90 L201 -90 Z " />
<glyph glyph-name="R" unicode="R" horiz-adv-x="693" d="M865 -233 C862 -229 857 -228 853 -229 C815 -229 780 -216 747 -207 C565 -157 391 -96 241 -1 C218 13 196 28 174 43 C155 58 135 72 116 86 C124 87 133 89 142 91 C202 104 256 127 309 151 C400 196 473 246 539 303 C565 325 589 348 612 373 C638 402 662 432 681 466 C693 489 703 513 707 540 C713 580 699 617 663 635 C634 648 601 648 572 642 C515 630 469 602 429 574 C365 529 313 477 266 423 C232 384 200 343 170 300 C156 281 143 260 130 240 C115 216 101 193 86 168 C106 231 131 299 152 360 C176 421 197 480 221 538 C246 598 272 652 298 707 C302 715 306 723 310 732 C310 733 311 734 313 735 C317 739 319 744 316 749 C314 754 309 757 303 756 C287 753 279 728 273 716 C234 643 205 570 176 498 C165 470 154 441 143 413 C107 314 78 231 47 134 C47 134 46 133 46 133 C41 135 36 137 31 139 C20 144 9 147 -2 148 C-9 148 -16 147 -23 144 C-39 135 -33 114 -21 105 C-12 98 -2 93 8 90 C16 88 23 86 31 84 C22 54 14 24 3 -5 C-13 -47 -29 -89 -38 -133 C-39 -139 -38 -144 -35 -149 C-30 -156 -19 -157 -14 -149 C-13 -148 -12 -146 -11 -144 C3 -104 16 -52 31 -7 C42 21 56 52 71 82 C86 78 95 70 105 63 C130 44 155 25 182 7 C368 -121 588 -194 800 -248 C812 -251 825 -254 838 -254 C846 -255 853 -254 860 -251 C868 -248 870 -240 865 -233 L865 -233 Z M0 121 C4 122 23 116 29 111 C19 113 10 116 0 121 L0 121 Z M84 109 C103 144 123 179 144 213 C161 239 178 265 196 290 C234 345 276 397 323 445 C369 495 421 541 478 574 C518 598 562 620 608 620 C637 620 667 612 677 586 C697 541 664 487 641 452 C587 374 518 317 449 266 C363 206 272 154 176 127 C157 121 138 116 119 113 L84 109 Z " />
<glyph glyph-name="S" unicode="S" horiz-adv-x="512" d="M518 737 C483 739 449 733 430 729 C392 720 355 706 319 688 C265 662 215 630 169 591 C142 568 117 543 94 515 C79 496 66 476 56 453 C49 438 44 421 42 404 C39 376 46 350 63 328 C73 314 86 304 99 295 C116 284 135 275 153 267 C177 257 201 248 225 240 C257 228 290 217 321 203 C336 197 351 189 366 180 C376 174 386 166 395 157 C408 143 414 127 412 107 C408 76 389 49 370 25 C353 4 335 -15 315 -33 C276 -70 234 -102 190 -132 C161 -151 131 -169 99 -184 C85 -191 70 -197 55 -201 C45 -203 36 -204 26 -204 C13 -202 6 -195 4 -185 C0 -167 5 -149 11 -132 C19 -110 30 -90 42 -70 C65 -32 91 6 117 42 C139 73 162 103 186 132 C195 141 203 151 213 159 C216 161 218 163 222 163 C229 163 233 169 233 175 C233 182 228 188 221 189 C218 190 214 190 211 188 C208 187 204 185 201 183 C193 178 187 171 180 164 C165 148 151 130 137 113 C99 64 64 14 31 -38 C19 -57 8 -75 -2 -95 C-11 -115 -19 -136 -23 -157 C-24 -168 -25 -179 -22 -190 C-18 -209 -6 -222 13 -228 C38 -233 64 -227 87 -218 C111 -209 134 -197 157 -183 C199 -159 238 -132 276 -102 C307 -77 338 -50 366 -20 C384 0 402 21 416 44 C425 60 433 76 437 94 C442 118 438 141 425 161 C418 172 410 180 400 188 C384 201 365 212 345 221 C320 233 293 243 267 253 C235 264 203 275 172 288 C154 295 137 303 121 312 C110 319 100 326 91 336 C72 354 65 377 68 403 C70 418 75 431 81 445 C92 469 108 491 125 511 C146 535 169 557 194 578 C246 620 302 654 364 680 C400 695 437 706 476 710 C493 712 509 712 526 710 C536 708 545 705 554 699 C560 695 565 689 567 681 C568 675 568 670 567 664 C567 657 564 650 562 643 C558 631 552 621 547 610 C536 591 524 573 511 556 C490 526 469 497 448 467 C438 453 428 439 420 424 C418 421 416 417 415 413 C412 403 417 396 427 395 C436 394 442 400 441 409 C441 412 442 413 444 415 C462 441 480 467 499 493 C516 517 533 541 550 565 C561 582 572 600 580 618 C587 632 592 646 594 662 C595 678 593 693 583 707 C577 715 570 720 561 725 C548 732 533 736 518 737 L518 737 Z " />
<glyph glyph-name="T" unicode="T" horiz-adv-x="315" d="M-308 572 C-307 566 -302 560 -297 560 C-279 555 -261 554 -244 555 C-224 555 182 584 231 582 C207 517 29 28 -14 -114 C-21 -136 -27 -159 -32 -182 C-35 -192 -37 -205 -33 -216 C-30 -223 -24 -226 -17 -225 C-9 -225 -3 -216 -7 -208 C-11 -202 -8 -197 -7 -191 C-2 -171 3 -152 8 -132 C28 -50 198 429 262 583 C269 586 706 593 701 590 C720 590 738 588 756 586 C758 586 759 585 760 585 C762 584 762 582 763 581 C766 577 770 575 774 576 C780 577 784 579 786 584 C789 591 787 599 780 604 C776 608 771 610 766 611 C754 614 741 615 729 616 C716 621 278 611 273 611 C280 629 290 648 297 666 C302 677 307 689 312 700 C317 709 318 721 309 728 C301 736 292 730 286 724 C274 713 265 699 257 684 C253 676 251 665 260 660 C261 659 263 659 263 658 C263 657 263 657 263 657 C261 652 243 617 241 611 C231 611 -252 581 -245 582 C-262 582 -278 581 -295 584 C-301 585 -310 583 -308 572 L-308 572 Z " />
<glyph glyph-name="U" unicode="U" horiz-adv-x="568" d="M636 673 C635 680 630 684 623 684 C618 684 614 683 611 680 C600 667 592 656 582 642 C564 615 547 587 529 560 C494 505 459 450 423 396 C376 324 327 253 278 184 C255 152 232 121 207 90 C186 65 165 40 140 18 C128 8 115 -2 101 -10 C93 -15 86 -18 77 -20 C63 -23 54 -19 46 -8 C44 -4 42 0 40 5 C35 18 33 32 32 46 C29 78 32 111 36 144 C41 179 49 215 59 249 C72 297 87 343 105 389 C124 436 145 481 169 526 C170 528 171 529 173 530 C178 531 180 535 181 540 C181 542 181 545 181 547 C181 553 178 556 173 559 C167 561 162 560 158 555 C156 553 155 551 154 549 C148 539 141 529 136 519 C112 474 92 427 74 380 C54 327 37 273 24 219 C18 192 13 165 9 138 C7 119 5 101 5 82 C4 58 5 35 10 12 C13 0 17 -11 24 -22 C36 -41 53 -50 77 -47 C86 -46 94 -43 102 -39 C117 -33 129 -24 142 -14 C161 1 179 19 196 37 C228 72 256 109 283 147 C309 182 334 218 358 253 C396 308 433 363 469 418 C506 475 543 532 579 589 C563 547 546 505 528 463 C511 420 494 377 478 334 C419 179 357 24 309 -134 C306 -146 303 -158 300 -170 C299 -174 299 -179 300 -183 C300 -189 306 -194 312 -194 C318 -194 324 -189 325 -183 C325 -181 325 -179 325 -178 C327 -165 331 -153 335 -141 C375 -11 480 267 521 373 C536 410 551 448 566 486 C585 533 605 580 624 627 C629 639 636 661 636 673 L636 673 Z " />
<glyph glyph-name="V" unicode="V" horiz-adv-x="487" d="M7 -110 C8 -123 9 -137 13 -151 C15 -160 18 -169 24 -176 C29 -184 37 -189 46 -190 C54 -190 61 -188 68 -184 C79 -177 87 -169 95 -159 C112 -140 127 -119 141 -97 C159 -69 176 -41 194 -13 C216 23 237 58 258 94 C298 163 338 232 377 302 C402 347 427 393 453 439 C474 478 495 517 516 555 C534 588 552 620 570 653 C572 656 573 659 575 663 C576 668 575 672 571 676 C567 680 562 681 558 679 C555 678 553 676 551 674 C547 665 542 657 537 648 C518 614 499 579 480 545 C462 511 443 477 424 443 C406 409 387 376 369 343 C329 269 287 198 245 125 C225 91 205 58 185 24 C166 -7 147 -37 128 -68 C114 -89 100 -111 84 -130 C77 -140 68 -150 58 -157 C56 -159 54 -161 51 -162 C47 -164 45 -164 43 -159 C41 -156 40 -153 39 -149 C35 -137 34 -124 33 -112 C32 -92 32 -71 34 -51 C35 -31 37 -11 40 9 C43 32 46 56 50 79 C56 119 64 158 73 198 C79 226 86 254 93 282 C100 311 108 340 116 368 C125 400 135 431 144 462 C150 480 156 498 163 516 C169 534 175 552 181 570 C187 585 193 601 198 617 C201 625 202 634 204 643 C206 648 204 653 201 656 C197 660 192 662 188 660 C183 659 179 653 180 648 C180 645 179 642 178 640 C173 624 167 608 161 592 C151 565 142 537 132 510 C123 482 114 454 105 425 C93 385 81 344 71 302 C63 273 56 243 49 213 C42 180 36 147 29 114 C22 75 16 37 12 -2 C10 -19 9 -36 7 -53 C6 -72 6 -91 7 -110 L7 -110 Z " />
<glyph glyph-name="W" unicode="W" horiz-adv-x="1055" d="M985 601 C962 634 936 665 907 693 C897 702 886 711 875 718 C863 725 844 729 837 716 C834 711 835 705 838 701 C842 697 848 696 853 698 C855 699 857 699 859 698 C862 696 864 695 867 693 C909 664 945 620 970 578 C986 551 995 522 1000 492 C1009 423 993 357 970 296 C956 262 940 229 922 197 C904 167 883 137 862 108 C840 80 818 52 793 25 C762 -9 728 -42 692 -72 C639 -119 585 -157 526 -180 C492 -194 453 -205 418 -197 C375 -190 348 -154 332 -118 C314 -69 310 -19 312 31 C314 70 320 107 324 146 C328 177 333 213 332 234 C331 245 322 252 312 250 C303 248 291 237 285 229 C272 214 259 199 246 184 C215 146 183 108 152 70 C119 30 85 -9 49 -47 C36 -61 22 -75 6 -88 C0 -93 -10 -100 -15 -100 C-20 -99 -20 -73 -20 -69 C-20 -28 -8 16 3 55 C30 149 64 239 101 329 C138 416 174 502 221 585 C234 609 247 631 262 654 C263 655 264 656 265 656 C271 656 274 660 275 665 C277 681 273 689 260 688 C256 687 253 685 251 682 C241 671 232 658 225 646 C207 618 191 589 176 559 C156 520 138 480 119 440 C89 373 61 306 35 236 C8 159 -21 79 -38 -1 C-46 -35 -52 -91 -41 -109 C-34 -120 -23 -127 -10 -125 C6 -122 20 -112 32 -101 C78 -62 115 -16 152 28 C189 72 226 117 262 161 C266 166 304 213 308 213 C304 186 299 159 296 132 C290 91 285 48 285 6 C285 -58 297 -118 330 -167 C356 -202 395 -223 437 -225 C518 -229 598 -180 658 -134 C702 -102 740 -69 773 -34 C821 13 865 64 903 119 C922 146 939 173 954 201 C973 235 990 271 1003 308 C1034 404 1041 523 985 601 L985 601 Z " />
<glyph glyph-name="X" unicode="X" horiz-adv-x="541" d="M622 722 C621 726 618 728 614 730 C607 734 597 727 593 720 C587 712 582 704 576 696 C521 615 467 534 413 453 C411 488 413 523 412 559 C412 600 412 670 389 697 C379 708 367 713 353 711 C316 706 287 673 263 645 C242 620 222 593 204 565 C151 485 106 401 70 313 C51 268 36 221 25 173 C17 130 11 87 18 44 C23 20 39 -6 67 -3 C110 1 143 38 171 67 C194 92 214 119 235 146 C271 194 306 244 340 294 C356 316 369 340 386 362 C384 328 400 134 409 63 C421 -37 430 -126 466 -228 C467 -229 467 -231 469 -233 C472 -237 477 -239 483 -237 C488 -235 491 -231 491 -225 C491 -223 490 -221 490 -219 C489 -216 488 -214 487 -212 C454 -123 449 -24 434 70 C425 149 416 228 413 308 C412 338 412 367 412 397 C412 401 413 405 415 408 C480 508 548 605 612 705 C613 707 614 708 616 709 C619 710 621 712 622 716 L622 722 Z M386 415 C386 412 385 410 383 407 C343 346 303 286 261 226 C233 186 204 147 172 109 C157 90 140 72 123 56 C107 42 91 28 70 23 C62 22 56 24 51 31 C44 43 42 57 41 71 C40 92 42 114 45 136 C52 181 65 226 81 269 C101 323 125 375 152 426 C176 473 203 518 232 561 C250 587 268 612 289 635 C306 654 324 673 349 684 C360 688 367 685 372 674 C383 646 384 615 385 586 L386 415 Z " />
<glyph glyph-name="Y" unicode="Y" horiz-adv-x="578" d="M572 585 C558 538 539 494 522 448 C514 428 506 407 498 387 C489 365 480 344 471 323 C461 301 451 279 441 257 C421 214 399 171 374 130 C353 93 331 58 306 24 C287 -3 267 -29 245 -54 C220 -83 193 -110 163 -134 C143 -151 121 -166 98 -178 C67 -194 26 -211 -14 -204 C-34 -200 -50 -184 -51 -160 C-51 -141 -35 -124 -18 -111 C-2 -99 16 -89 35 -82 C86 -64 143 -48 200 -46 C206 -46 212 -47 217 -50 C221 -53 225 -52 229 -49 C233 -47 234 -43 234 -38 C233 -33 230 -29 225 -26 C214 -17 196 -21 180 -21 C107 -30 20 -48 -42 -97 C-70 -119 -88 -159 -67 -193 C-37 -245 39 -232 87 -213 C133 -193 172 -162 213 -124 C257 -84 294 -39 328 9 C346 35 363 60 379 87 C398 117 415 149 432 180 C462 236 486 294 512 352 C522 378 533 404 543 430 C553 455 563 480 572 505 C588 552 607 599 621 647 C624 657 619 671 605 668 C601 667 598 665 596 663 C565 627 544 586 517 547 C499 518 481 490 463 462 C441 428 418 395 394 361 C368 324 341 287 313 251 C296 230 279 209 262 188 C231 152 197 115 157 89 C145 81 132 75 118 73 C105 71 94 74 86 85 C80 92 76 101 74 109 C54 188 85 320 118 410 C131 448 147 486 164 522 C195 590 234 655 278 715 C279 716 280 717 281 718 C286 721 287 725 287 730 C286 739 277 744 269 739 C266 738 264 735 262 733 C248 716 234 698 222 679 C173 605 134 526 102 443 C79 381 59 318 46 246 C38 192 28 117 65 69 C77 54 92 47 111 46 C167 50 208 95 247 132 C271 158 294 185 316 213 C377 291 434 371 488 453 C517 497 545 541 572 585 L572 585 Z " />
<glyph glyph-name="Z" unicode="Z" horiz-adv-x="587" d="M607 689 C583 701 506 694 464 689 C416 683 369 676 322 666 C277 657 230 646 187 628 C178 624 166 620 160 612 C154 604 160 593 170 594 C179 596 191 602 200 606 C256 626 316 639 374 649 C422 658 470 664 518 668 C542 669 585 673 590 667 C592 658 552 629 549 627 C510 599 469 573 429 546 C349 494 267 443 191 384 C158 359 110 326 106 288 C104 267 121 255 139 250 C162 243 186 240 209 237 C257 231 305 225 352 213 C394 203 441 190 476 162 C561 93 402 8 351 -19 C236 -79 71 -142 -53 -150 C-74 -151 -100 -152 -119 -141 C-139 -130 -134 -108 -126 -91 C-106 -52 -70 -21 -36 5 C31 55 146 119 203 140 C210 143 212 155 208 162 C200 171 189 165 181 161 C159 150 138 139 116 128 C36 85 -48 40 -111 -28 C-136 -55 -172 -98 -156 -138 C-139 -179 -81 -178 -45 -175 C90 -167 245 -104 359 -44 C399 -24 439 -1 473 29 C504 56 536 95 524 140 C499 230 295 253 219 262 C206 264 130 269 134 290 C138 311 175 337 203 360 C240 390 279 416 318 443 C359 470 401 497 442 524 C482 550 523 576 562 604 C580 617 599 630 612 647 C623 661 625 680 607 689 L607 689 Z " />
<glyph glyph-name="bracketleft" unicode="&#x5b;" horiz-adv-x="247" d="M329 740 C313 740 298 739 282 738 C264 736 256 720 251 706 C225 638 -16 -56 -23 -79 C-25 -86 -27 -93 -27 -100 C-27 -114 -19 -123 -6 -125 C15 -128 50 -122 75 -118 C88 -116 96 -114 100 -105 C102 -99 99 -91 92 -90 C86 -89 66 -93 58 -95 C38 -97 19 -100 -1 -100 C24 -10 269 678 280 708 C281 711 283 713 287 713 C300 714 318 715 330 716 C335 716 341 717 343 723 C347 732 341 740 329 740 L329 740 Z " />
<glyph glyph-name="backslash" unicode="&#x5c;" horiz-adv-x="222" d="M167 -143 C163 -58 118 721 119 718 C117 724 112 729 106 728 C100 728 95 723 96 717 C96 713 98 681 98 676 C101 643 144 -167 145 -195 C146 -202 151 -207 158 -207 C165 -207 170 -203 170 -195 C171 -193 167 -146 167 -143 L167 -143 Z " />
<glyph glyph-name="bracketright" unicode="&#x5d;" horiz-adv-x="247" d="M255 712 C253 705 250 697 248 690 C244 677 43 124 7 18 C-11 -38 -24 -72 -27 -84 C-29 -92 -52 -84 -65 -83 C-71 -81 -83 -101 -59 -105 C-27 -111 -7 -114 -3 -96 C17 -40 258 628 274 684 C279 699 284 712 279 723 C270 744 206 738 170 736 C161 735 154 723 160 715 C164 711 169 710 174 712 C175 712 177 713 178 713 C204 713 229 716 255 712 L255 712 Z " />
<glyph glyph-name="asciicircum" unicode="&#x5e;" horiz-adv-x="221" d="M183 655 C180 640 176 624 173 609 C172 604 171 597 172 594 C174 589 179 586 185 587 C191 588 196 591 197 597 C203 625 213 670 213 685 C213 694 207 698 202 698 C191 698 184 690 176 682 C152 659 128 635 105 611 C98 604 91 597 82 591 C72 584 76 574 82 572 C89 568 98 574 103 579 L183 655 Z " />
<glyph glyph-name="underscore" unicode="&#x5f;" horiz-adv-x="222" d="M163 195 C171 195 179 192 184 201 C186 205 185 211 181 215 C175 221 164 222 153 222 C116 222 72 222 38 220 C28 220 15 223 9 213 C7 209 7 205 10 201 C15 194 24 195 31 195 C45 195 133 197 163 195 L163 195 Z " />
<glyph glyph-name="grave" unicode="&#x60;" horiz-adv-x="150" d="M122 689 C111 688 106 681 110 664 C112 651 116 637 118 624 C119 617 123 609 132 611 C138 612 144 618 144 625 C144 639 137 663 133 680 C131 685 129 689 122 689 L122 689 Z " />
<glyph glyph-name="a" unicode="a" horiz-adv-x="226" d="M226 300 C206 278 152 219 127 192 C112 176 98 161 77 147 C79 169 90 207 102 235 C114 266 129 297 145 327 C148 332 151 338 153 344 C154 349 152 355 147 358 C141 362 136 362 131 359 C123 353 116 344 101 327 C97 323 88 313 83 308 C83 312 81 321 78 325 C72 334 64 338 53 338 C20 337 -8 293 -20 267 C-26 255 -37 226 -31 207 C-28 198 -20 192 -10 193 C6 194 30 214 39 222 C57 239 74 258 91 277 C76 241 46 169 52 139 C55 126 66 119 79 121 C103 124 146 175 166 196 C186 217 214 249 227 262 C229 264 253 289 226 300 L226 300 Z M9 232 C4 228 -4 222 -7 220 C-7 225 -6 230 -5 235 C0 252 8 269 19 284 C26 294 40 311 52 314 C62 317 59 297 59 295 C58 291 58 287 61 282 C42 262 30 249 9 232 L9 232 Z " />
<glyph glyph-name="b" unicode="b" horiz-adv-x="266" d="M29 317 C72 444 114 549 176 721 C178 726 179 734 178 737 C176 746 168 751 158 746 C149 740 150 732 151 729 C153 727 147 712 146 710 C101 585 43 441 -2 296 C-6 282 8 279 17 281 C28 282 65 309 92 319 C105 323 121 326 129 311 C134 300 131 284 129 272 C124 253 117 236 108 219 C107 217 106 216 104 216 C72 202 38 196 4 185 C-17 177 -40 164 -42 140 C-43 125 -35 110 -21 103 C16 85 57 116 83 141 C98 156 112 174 123 193 C124 195 126 196 128 197 C179 222 227 248 265 270 C272 273 286 288 266 300 C238 282 171 247 144 233 C162 269 173 346 113 348 C84 348 57 333 29 317 L29 317 Z M84 182 C81 178 72 167 69 164 C52 147 24 117 -6 122 C-18 124 -18 138 -13 144 C4 168 50 170 84 182 L84 182 Z " />
<glyph glyph-name="c" unicode="c" horiz-adv-x="194" d="M194 300 C170 285 119 257 90 240 C52 218 7 196 -7 198 C-14 199 -14 206 -14 210 C-14 239 16 287 43 306 C45 308 49 310 52 312 C51 308 51 294 51 291 C52 285 58 281 64 282 C69 282 73 286 74 292 C74 297 76 307 76 316 C75 330 64 339 50 337 C32 334 18 320 7 309 C-20 280 -47 231 -39 197 C-37 188 -32 181 -24 176 C-13 169 9 171 27 179 C48 188 88 209 107 220 C125 230 176 259 193 269 C201 274 216 290 194 300 L194 300 Z " />
<glyph glyph-name="d" unicode="d" horiz-adv-x="238" d="M84 292 C71 249 47 173 61 142 C66 129 79 122 93 125 C113 130 129 146 147 163 C179 193 214 236 240 264 C242 266 268 291 238 300 C224 285 147 197 118 171 C105 159 91 146 85 149 C76 154 86 206 94 236 C122 324 158 411 198 500 C227 557 264 624 286 677 C289 685 284 692 277 694 C270 696 262 694 257 685 C249 672 242 659 236 646 C215 600 194 555 173 509 C157 477 140 446 123 414 C107 383 90 352 72 322 C71 320 70 319 69 317 C65 324 56 330 47 330 C33 330 20 321 9 311 C-16 286 -47 233 -34 200 C-31 194 -26 190 -19 189 C6 186 39 226 53 245 C64 259 84 291 84 292 L84 292 Z M-12 215 C-13 226 -6 246 0 257 C6 269 14 278 23 288 C29 293 36 301 45 303 C44 300 44 296 44 293 C44 289 45 286 48 283 C46 281 45 279 43 276 C28 254 12 230 -12 215 L-12 215 Z " />
<glyph glyph-name="e" unicode="e" horiz-adv-x="181" d="M181 300 C181 300 139 276 117 264 C96 252 75 240 53 230 C44 226 25 217 11 219 C4 221 -1 227 -1 235 C-1 249 7 264 14 273 C17 261 31 254 42 256 C65 259 84 284 84 305 C85 319 76 331 63 333 C42 337 23 323 14 315 C-8 296 -29 262 -26 232 C-24 207 -4 194 18 194 C28 194 38 196 48 200 C66 207 84 215 101 225 C126 239 176 266 182 270 C189 274 197 289 181 300 L181 300 Z M37 290 C39 296 39 296 38 301 C43 304 48 307 53 308 C58 309 59 307 58 303 C56 295 49 286 42 283 C36 280 37 288 37 290 L37 290 Z " />
<glyph glyph-name="f" unicode="f" horiz-adv-x="199" d="M-107 2 C-109 -6 -112 -15 -114 -24 C-129 -79 -156 -194 -129 -233 C-122 -242 -113 -246 -101 -244 C-60 -235 -23 -150 -16 -105 C-12 -76 -16 -44 -36 -19 C-47 -6 -61 5 -76 14 C-70 33 -64 52 -58 71 C-36 87 6 119 30 138 C94 186 129 213 203 271 C205 272 222 289 199 300 C120 239 42 179 -42 117 C24 280 81 446 173 625 C183 644 194 663 204 683 C209 688 208 700 200 703 C191 706 186 699 182 691 C161 657 142 623 121 581 C47 432 -10 273 -80 89 C-95 79 -109 69 -121 57 C-135 43 -140 26 -120 11 C-116 8 -111 5 -107 2 L-107 2 Z M-83 -11 C-72 -18 -58 -30 -51 -43 C-37 -68 -39 -91 -45 -119 C-50 -139 -58 -158 -68 -176 C-77 -192 -86 -206 -101 -217 C-106 -220 -108 -219 -111 -214 C-122 -187 -112 -133 -104 -94 C-98 -67 -92 -39 -83 -11 L-83 -11 Z M-99 28 C-102 30 -104 31 -107 33 C-103 38 -99 42 -94 46 C-94 44 -97 32 -99 28 L-99 28 Z " />
<glyph glyph-name="g" unicode="g" horiz-adv-x="223" d="M223 300 C223 300 209 285 198 272 C153 223 109 171 61 125 C81 177 101 233 120 286 C124 300 135 326 134 336 C133 346 124 353 115 348 C108 344 95 329 86 319 C85 322 84 325 83 327 C71 353 35 334 17 318 C-11 292 -39 252 -36 222 C-35 209 -24 202 -11 203 C2 204 18 217 28 225 C50 244 73 267 93 288 C61 209 45 148 13 80 C13 79 12 78 11 77 C-36 35 -75 0 -118 -39 C-156 -72 -219 -133 -214 -180 C-212 -198 -199 -210 -181 -210 C-142 -210 -98 -163 -73 -129 C-30 -70 2 -6 33 60 C34 62 35 63 36 65 C106 129 163 195 226 264 C229 267 248 287 223 300 L223 300 Z M60 292 C45 277 30 262 13 247 C6 241 -3 234 -11 230 C-8 249 15 283 37 301 C43 306 53 314 62 313 C62 308 63 303 67 300 C65 297 63 295 60 292 L60 292 Z M-29 -8 C-43 -35 -58 -60 -74 -85 C-89 -106 -104 -127 -122 -146 C-140 -164 -160 -181 -178 -184 C-186 -185 -189 -183 -189 -177 C-189 -158 -177 -142 -168 -129 C-154 -109 -136 -91 -119 -75 C-92 -49 -64 -25 -36 0 C-30 4 -18 15 -17 16 C-20 9 -25 0 -29 -8 L-29 -8 Z " />
<glyph glyph-name="h" unicode="h" horiz-adv-x="244" d="M244 300 C244 300 217 277 196 260 C192 257 163 232 159 241 C153 255 159 292 155 310 C152 325 140 332 125 329 C112 326 87 305 72 290 C48 267 27 244 5 219 C17 271 34 317 50 363 C113 538 148 610 202 733 C205 739 198 750 188 749 C183 748 181 745 179 742 C114 612 62 477 13 339 C2 307 -30 210 -24 192 C-21 183 -12 176 -1 179 C17 184 72 253 99 278 C108 287 121 297 130 302 C130 281 125 253 136 229 C142 217 153 212 166 213 C179 214 201 229 212 239 C236 258 243 264 245 266 C251 271 265 285 244 300 L244 300 Z " />
<glyph glyph-name="i" unicode="i" horiz-adv-x="183" d="M183 300 C183 300 93 232 51 201 C36 190 20 179 4 168 C-4 164 -13 158 -22 156 C-23 166 -22 173 -20 183 C-11 222 7 260 25 296 C29 303 20 312 12 311 C8 310 4 308 2 304 C-15 276 -29 246 -39 213 C-43 200 -51 169 -46 149 C-43 137 -34 130 -22 130 C-7 130 10 140 22 148 C80 190 156 245 182 266 C189 271 204 286 183 300 L183 300 Z M53 369 C60 369 66 375 66 382 C66 389 60 395 53 395 C46 395 40 389 40 382 C40 374 46 369 53 369 L53 369 Z " />
<glyph glyph-name="j" unicode="j" horiz-adv-x="150" d="M150 300 C77 207 1 115 -86 36 C-53 114 -9 220 27 300 C31 310 30 321 16 321 C11 320 9 317 5 313 C-29 239 -61 161 -94 85 C-105 57 -118 29 -131 1 C-132 -3 -134 -5 -137 -8 C-176 -39 -215 -69 -251 -104 C-269 -121 -285 -140 -298 -161 C-311 -181 -324 -210 -318 -236 C-315 -251 -303 -261 -288 -261 C-255 -261 -229 -234 -212 -210 C-170 -153 -142 -88 -115 -27 C-113 -23 -111 -20 -106 -17 C-84 2 -62 21 -41 41 C37 113 114 211 154 264 C158 269 174 290 150 300 L150 300 Z M-178 -100 C-187 -118 -197 -136 -219 -171 C-233 -194 -256 -232 -283 -237 C-289 -238 -295 -235 -296 -227 C-299 -199 -269 -163 -246 -135 C-220 -107 -186 -83 -160 -61 C-164 -71 -174 -93 -178 -100 L-178 -100 Z M53 389 C60 390 67 396 67 403 C67 412 63 417 56 417 C47 417 41 410 41 402 C41 396 44 388 53 389 L53 389 Z " />
<glyph glyph-name="k" unicode="k" horiz-adv-x="220" d="M169 670 C179 696 190 727 187 735 C182 749 168 744 164 732 C161 723 156 710 152 699 C111 593 21 362 4 317 C-10 275 -26 234 -39 191 C-41 185 -38 179 -32 176 C-26 173 -19 175 -17 180 C-12 191 -9 200 -6 210 C3 190 31 193 55 201 C115 221 163 248 219 271 C225 274 238 286 220 300 C220 300 174 280 135 263 C99 248 43 215 15 223 C7 248 43 277 64 292 C77 301 101 311 101 294 C101 286 108 285 114 285 C119 285 125 290 125 296 C125 334 81 331 52 314 C41 307 26 297 18 285 L169 670 Z " />
<glyph glyph-name="l" unicode="l" horiz-adv-x="219" d="M-19 235 C-29 199 -71 46 -10 33 C6 29 23 39 38 50 C75 79 104 116 134 152 C169 195 186 218 221 260 C227 266 239 285 219 300 C162 232 100 148 38 85 C31 78 -6 45 -13 65 C-21 85 -9 166 2 210 C28 313 109 539 199 722 C204 733 203 743 193 746 C187 748 182 745 179 739 C178 737 177 734 176 731 C95 578 25 395 -19 235 L-19 235 Z " />
<glyph glyph-name="m" unicode="m" horiz-adv-x="365" d="M-15 213 C-8 234 -1 248 8 268 C12 276 17 286 21 290 C25 294 23 303 18 306 C0 315 -15 279 -26 255 C-33 240 -46 208 -43 193 C-41 182 -31 175 -21 178 C-11 179 6 196 17 206 C44 232 71 257 98 283 C117 301 137 318 158 334 C148 297 122 240 124 204 C126 189 136 181 150 182 C166 184 185 196 198 206 C220 222 239 239 256 252 C254 246 252 234 255 225 C259 213 270 207 282 208 C299 209 314 223 325 232 C348 252 344 248 364 267 C368 271 387 287 365 300 C365 300 337 274 318 258 C313 254 279 223 277 235 C276 243 286 265 287 278 C287 292 269 296 259 288 C233 268 218 254 189 232 C174 220 153 207 150 209 C148 231 187 325 188 350 C189 364 178 372 165 368 C137 359 105 324 78 300 L-15 213 Z " />
<glyph glyph-name="n" unicode="n" horiz-adv-x="248" d="M115 309 C110 281 97 254 102 224 C106 206 120 196 137 197 C168 197 225 250 248 268 C257 275 267 289 248 300 C227 284 196 260 174 244 C162 235 140 221 132 223 C120 227 138 279 143 306 C147 327 143 342 127 345 C108 348 86 321 70 304 C47 281 1 233 1 233 C1 235 14 267 20 282 C24 291 31 308 16 313 C6 316 2 305 -1 298 C-8 282 -15 266 -22 249 C-28 234 -38 212 -36 200 C-34 190 -25 182 -15 185 C0 188 17 210 30 222 C59 252 85 280 115 309 L115 309 Z " />
<glyph glyph-name="o" unicode="o" horiz-adv-x="155" d="M55 261 C83 261 123 267 154 276 C166 279 168 289 155 300 C155 300 120 292 93 288 C70 285 54 284 34 283 C25 281 20 270 25 263 C36 248 39 240 28 226 C13 207 -19 181 -34 185 C-47 188 -35 215 -26 230 C-13 251 1 267 16 283 C20 287 25 291 30 294 C35 297 37 303 35 308 C31 319 16 313 9 308 C-26 282 -65 228 -63 189 C-62 176 -54 168 -43 165 C-12 158 25 184 46 209 C57 223 66 243 55 261 L55 261 Z " />
<glyph glyph-name="p" unicode="p" horiz-adv-x="220" d="M91 328 C65 323 43 305 23 287 C26 296 30 306 32 315 C36 326 29 333 20 333 C11 331 11 325 8 318 C-5 290 -16 259 -28 230 C-71 115 -143 -92 -185 -216 C-188 -226 -194 -243 -178 -248 C-171 -250 -165 -246 -163 -238 C-163 -237 -163 -235 -162 -233 C-135 -144 -62 66 -17 184 C-16 187 -15 191 -13 194 C-10 186 0 181 10 180 C35 176 60 192 80 206 C81 207 83 208 85 208 C100 213 116 219 131 226 C156 237 204 263 212 268 C220 272 241 284 220 300 C209 296 183 282 171 276 C156 268 127 253 126 253 C126 254 133 266 135 271 C151 303 126 334 91 328 L91 328 Z M3 221 C13 239 38 264 60 283 C74 294 89 305 106 303 C118 301 112 285 109 278 C100 261 86 244 70 232 C69 231 67 231 66 230 C45 225 24 225 3 221 L3 221 Z " />
<glyph glyph-name="q" unicode="q" horiz-adv-x="155" d="M138 355 C126 361 119 353 112 344 C81 306 54 268 21 236 C12 228 4 220 -7 215 C-7 223 -4 233 -2 240 C6 268 26 296 50 308 C50 306 50 304 50 303 C51 297 56 292 62 292 C68 292 72 296 73 303 C76 320 67 329 57 332 C46 335 29 328 16 317 C-15 290 -40 235 -32 207 C-29 195 -18 187 -6 188 C14 191 29 207 42 219 C56 233 83 264 83 265 C79 253 61 212 51 185 C-7 24 -48 -80 -96 -219 C-101 -231 -101 -251 -82 -249 C-78 -249 -75 -245 -74 -241 C-73 -236 -73 -232 -71 -227 C-12 -61 43 93 111 260 C120 281 130 301 139 321 C144 332 152 348 138 355 L138 355 Z " />
<glyph glyph-name="r" unicode="r" horiz-adv-x="170" d="M3 225 C9 206 17 184 30 170 C40 159 54 154 68 158 C91 163 117 197 138 221 C156 241 168 258 172 263 C173 264 197 288 170 300 C163 292 98 209 74 189 C66 182 56 179 49 186 C39 196 34 212 30 226 C29 229 30 233 33 234 C51 242 71 253 84 266 C93 274 109 294 109 313 C109 331 91 340 75 336 C56 331 43 317 28 304 C31 311 33 316 35 321 C40 333 30 340 22 337 C11 332 7 317 1 305 C-15 268 -29 230 -43 191 C-46 184 -43 175 -35 172 C-27 169 -20 176 -17 182 C-9 196 -3 211 3 225 L3 225 Z M83 312 C78 301 70 291 61 283 C51 274 42 268 30 262 C39 275 48 287 62 299 C63 300 77 311 83 312 L83 312 Z " />
<glyph glyph-name="s" unicode="s" horiz-adv-x="149" d="M41 302 C41 297 47 292 53 293 C70 296 68 322 52 327 C23 335 -12 294 -19 265 C-23 245 -16 225 -8 207 C-4 197 -2 187 -2 176 C-2 174 -2 173 -3 172 C-16 161 -29 150 -41 139 C-72 112 -131 60 -132 20 C-133 5 -123 -8 -109 -10 C-85 -13 -53 14 -31 42 C-13 66 2 92 13 121 C19 134 22 149 25 163 C66 194 114 236 151 267 C158 273 168 287 149 300 C125 277 55 220 23 194 C20 210 13 224 8 240 C-1 267 22 293 41 302 L41 302 Z M-7 136 C-17 108 -32 77 -50 54 C-62 38 -81 18 -101 15 C-105 15 -106 16 -106 20 C-106 31 -96 44 -85 58 C-67 80 -50 97 -29 116 C-24 121 -13 131 -7 136 L-7 136 Z " />
<glyph glyph-name="t" unicode="t" horiz-adv-x="223" d="M415 560 C378 567 209 565 126 566 C155 628 175 667 206 728 C210 735 211 745 204 748 C195 752 190 748 187 743 C152 684 131 633 96 566 C65 566 -63 560 -92 558 C-100 558 -106 554 -105 545 C-104 538 -99 535 -92 534 C-46 533 68 539 83 537 C47 460 21 377 -2 295 C-13 254 -37 170 -19 134 C-12 120 1 113 17 114 C44 115 84 149 115 174 C138 192 202 249 224 267 C226 268 246 285 223 300 C195 280 120 212 92 190 C67 172 31 139 12 140 C1 141 1 162 2 175 C4 197 6 218 11 239 C33 341 69 444 113 538 C204 537 345 540 409 536 C418 536 432 525 439 535 C447 549 433 557 415 560 L415 560 Z " />
<glyph glyph-name="u" unicode="u" horiz-adv-x="243" d="M243 300 C220 281 196 261 173 243 C148 222 101 187 96 189 C103 223 115 253 128 283 C134 298 128 316 111 309 C104 306 79 285 71 277 C48 257 6 214 1 217 C-5 223 14 270 24 294 C28 302 28 311 20 314 C6 319 -2 296 -6 288 C-18 262 -30 223 -24 205 C-20 193 -10 187 2 189 C16 191 30 204 41 213 C63 233 75 245 88 258 C81 238 67 200 71 179 C73 167 82 161 92 161 C109 161 152 192 175 210 C205 233 213 239 246 268 C253 274 262 292 243 300 L243 300 Z " />
<glyph glyph-name="v" unicode="v" horiz-adv-x="191" d="M252 426 C250 434 242 439 234 435 C231 433 229 430 226 427 C163 352 100 275 31 206 C29 204 1 177 -5 180 C-10 183 -7 210 -3 223 C5 252 15 281 29 306 C32 310 31 314 28 318 C22 327 10 321 7 314 C-6 292 -15 270 -22 246 C-30 220 -35 184 -28 168 C-23 157 -12 151 -1 153 C16 156 31 170 41 179 C119 253 180 334 246 410 C249 415 253 420 252 426 L252 426 Z " />
<glyph glyph-name="w" unicode="w" horiz-adv-x="322" d="M-13 192 C-8 224 7 255 19 283 C20 284 20 285 21 285 C24 288 25 291 26 295 C26 307 12 311 1 301 C-20 274 -43 197 -40 178 C-37 167 -28 162 -17 163 C0 162 44 207 73 235 C71 215 66 196 71 176 C75 162 86 153 101 152 C149 152 193 201 220 242 C224 250 228 259 229 268 C259 255 294 265 324 273 C340 278 335 292 322 300 C305 295 288 290 271 288 C256 287 237 287 226 300 C222 306 215 307 210 305 C204 303 201 297 203 291 C205 283 204 277 203 270 C188 232 155 199 119 181 C115 179 98 173 97 181 C95 202 102 230 102 261 C101 272 96 279 88 279 C80 280 65 266 57 257 L-13 192 Z " />
<glyph glyph-name="x" unicode="x" horiz-adv-x="232" d="M232 300 C232 300 209 287 189 277 C167 265 145 253 122 243 C108 237 95 232 80 229 C72 227 64 226 55 228 C49 229 44 232 40 238 C41 239 43 240 44 242 C56 255 68 267 80 280 C93 294 106 308 119 322 C123 326 123 331 120 335 C118 340 113 342 108 341 C105 340 102 338 100 336 C90 326 80 317 71 308 C58 295 46 282 33 269 C32 268 31 267 30 265 C30 267 30 268 30 269 C28 279 27 290 26 300 C26 304 25 308 24 312 C21 320 11 323 5 318 C-1 314 -3 304 1 298 C2 297 2 295 2 293 C2 286 2 279 3 273 C4 263 5 253 8 244 C9 243 8 242 7 241 C4 237 1 234 -2 231 C-21 209 -41 188 -59 165 C-65 157 -72 149 -77 140 C-79 137 -81 133 -82 130 C-83 123 -77 116 -70 116 C-65 116 -62 119 -59 122 C-53 130 -47 138 -41 146 C-22 169 -2 192 18 214 C19 215 21 217 22 218 C23 218 23 217 23 217 C31 208 41 204 53 202 C62 200 70 201 78 202 C94 205 108 209 123 215 C144 224 164 234 184 245 C206 257 217 263 231 270 C236 272 257 288 232 300 L232 300 Z " />
<glyph glyph-name="y" unicode="y" horiz-adv-x="263" d="M108 281 C86 226 56 134 29 75 C28 73 27 71 26 70 C-16 34 -58 -3 -99 -41 C-129 -69 -169 -114 -156 -153 C-151 -167 -141 -175 -127 -176 C-93 -176 -67 -143 -47 -117 C-31 -96 -16 -73 -3 -49 C16 -16 33 19 49 54 C49 56 50 57 51 58 C90 93 128 130 167 167 C199 198 236 240 265 271 C269 275 285 286 263 300 C253 289 213 248 180 216 C145 181 110 148 74 115 C95 172 116 227 138 284 C142 294 147 307 149 318 C149 328 136 336 124 330 C114 324 95 306 72 283 C57 268 24 235 16 238 C13 240 15 255 16 263 C19 279 25 294 30 309 C35 323 33 332 19 332 C14 331 12 328 10 324 C7 316 4 309 1 301 C-5 286 -10 265 -10 254 C-11 237 -8 220 10 215 C22 211 42 220 53 230 C73 245 88 262 108 281 L108 281 Z M3 15 C-15 -19 -35 -57 -58 -89 C-70 -105 -82 -121 -97 -135 C-107 -144 -115 -149 -125 -150 C-139 -148 -132 -128 -128 -119 C-122 -106 -114 -94 -104 -83 C-73 -48 -33 -16 3 15 L3 15 Z " />
<glyph glyph-name="z" unicode="z" horiz-adv-x="201" d="M201 300 C201 300 138 229 123 212 C102 190 81 165 60 144 C61 154 60 166 58 176 C54 195 40 211 23 217 C39 235 57 254 74 272 C86 284 97 295 102 308 C105 319 100 329 89 332 C77 335 65 331 54 327 C36 321 18 312 2 301 C-6 297 -8 287 -2 281 C3 277 9 277 14 280 C15 282 17 283 19 284 C30 289 42 294 54 299 C59 301 63 303 68 304 C47 278 20 258 1 231 C-1 228 -3 224 -4 221 C-7 212 -5 204 2 199 C15 191 28 187 32 172 C34 165 34 158 34 150 C34 136 30 122 26 108 C26 107 25 106 24 105 C15 96 2 83 -7 73 C-59 20 -110 -26 -156 -85 C-167 -100 -180 -115 -183 -134 C-184 -147 -175 -154 -161 -153 C-128 -151 -74 -99 -52 -75 C-10 -25 26 30 48 91 C48 92 49 94 50 95 C61 106 72 118 83 129 C102 150 121 171 140 192 C157 211 190 244 202 260 C208 268 226 287 201 300 L201 300 Z M-13 23 C-31 -6 -50 -33 -73 -59 C-96 -85 -122 -111 -151 -124 C-132 -93 -106 -66 -83 -40 C-52 -5 -30 12 -5 39 C-7 34 -10 28 -13 23 L-13 23 Z " />
<glyph glyph-name="braceleft" unicode="&#x7b;" horiz-adv-x="241" d="M36 87 C17 18 9 -48 19 -127 C22 -144 25 -163 36 -179 C41 -185 49 -189 57 -185 C62 -183 65 -179 65 -174 C65 -169 62 -165 57 -163 C55 -162 54 -161 54 -159 C52 -155 51 -152 50 -148 C47 -135 45 -122 43 -108 C32 -22 52 58 81 145 C91 177 104 208 117 238 C121 247 125 257 127 266 C130 280 126 291 114 299 C112 301 109 302 106 304 C101 307 101 308 104 313 C109 323 114 333 120 343 C136 371 152 399 165 429 C188 478 205 529 232 587 C252 632 286 698 339 714 C343 715 347 716 352 714 C356 713 360 714 363 718 C369 724 367 732 360 736 C352 740 344 740 336 738 C288 729 245 667 218 618 C204 591 192 563 180 534 C151 466 125 400 84 334 C76 320 67 299 85 288 C92 283 106 279 101 269 C92 244 81 220 71 195 C58 160 46 124 36 87 L36 87 Z " />
<glyph glyph-name="bar" unicode="&#x7c;" horiz-adv-x="198" d="M250 729 C238 727 232 700 228 690 C224 679 -66 -137 -70 -150 C-72 -156 -74 -163 -74 -169 C-73 -174 -69 -178 -64 -179 C-55 -181 -51 -169 -48 -163 C-43 -151 248 668 254 686 C258 697 261 706 264 716 C266 724 260 731 250 729 L250 729 Z " />
<glyph glyph-name="braceright" unicode="&#x7d;" horiz-adv-x="228" d="M231 647 C234 665 239 683 236 702 C233 719 221 731 203 735 C193 737 183 736 182 723 C181 712 189 714 198 711 C214 708 211 689 210 676 C204 615 169 556 145 496 C128 457 112 415 106 369 C103 348 114 328 123 305 C125 299 126 294 124 289 C117 266 105 250 101 217 C88 144 56 74 21 0 C-6 -52 -34 -104 -69 -158 C-71 -161 -72 -163 -73 -166 C-75 -171 -73 -177 -69 -180 C-65 -183 -59 -183 -55 -180 C-52 -178 -50 -176 -48 -173 C-44 -168 -41 -163 -38 -158 C-18 -125 1 -91 20 -57 C67 24 111 129 127 213 C129 242 140 257 148 280 C152 291 153 302 148 313 C147 316 145 320 144 323 C138 341 130 359 134 380 C140 425 162 468 180 513 C197 555 217 596 231 647 L231 647 Z " />
<glyph glyph-name="asciitilde" unicode="&#x7e;" horiz-adv-x="244" d="M146 290 C141 289 142 307 141 317 C139 329 131 336 117 332 C91 324 63 304 45 286 C41 281 40 275 43 271 C47 266 53 263 59 267 C75 279 90 291 108 301 C110 302 113 304 116 305 C117 293 117 283 122 272 C126 264 133 260 142 260 C147 260 151 262 155 264 C178 278 198 296 220 311 C226 316 229 324 224 330 C218 337 210 336 201 330 C191 322 182 316 173 309 L146 290 Z " />
<glyph glyph-name="quoteleft" unicode="&#x2018;" horiz-adv-x="186" d="M164 677 C166 683 167 690 158 693 C151 696 144 691 141 683 L125 640 C124 634 127 629 133 627 C138 625 144 627 147 632 C154 649 158 661 164 677 L164 677 Z " />
<glyph glyph-name="quoteright" unicode="&#x2019;" horiz-adv-x="181" d="M164 677 C166 683 167 690 158 693 C151 696 144 691 141 683 L125 640 C124 634 127 629 133 627 C138 625 144 627 147 632 C154 649 158 661 164 677 L164 677 Z " />
<glyph glyph-name="quotedblleft" unicode="&#x201c;" horiz-adv-x="171" d="M120 697 C112 703 103 697 100 689 C93 676 87 661 82 647 C80 640 83 635 88 634 C97 632 105 638 107 646 C113 658 116 671 122 684 C124 688 123 694 120 697 L120 697 L120 697 Z M157 696 C147 699 143 694 139 687 C132 674 127 661 121 646 C118 639 123 632 130 632 C141 632 144 643 147 648 L161 681 C163 686 163 694 157 696 L157 696 Z " />
<glyph glyph-name="quotedblright" unicode="&#x201d;" horiz-adv-x="172" d="M120 697 C112 703 103 697 100 689 C93 676 87 661 82 647 C80 640 83 635 88 634 C97 632 105 638 107 646 C113 658 116 671 122 684 C124 688 123 694 120 697 L120 697 L120 697 Z M157 696 C147 699 143 694 139 687 C132 674 127 661 121 646 C118 639 123 632 130 632 C141 632 144 643 147 648 L161 681 C163 686 163 694 157 696 L157 696 Z " />
</font>
</svg>
