<?xml version="1.0" encoding="UTF-8"?>
<svg xmlns="http://www.w3.org/2000/svg" xmlns:xlink="http://www.w3.org/1999/xlink" version="1.2" >
<font id="Morning Wishes Long Swashes One">
<font-face  font-family="Morning Wishes Long Swashes One" units-per-em="1000" ascent="750" descent="-250" font-style="normal" font-weight="400" font-stretch="normal" cap-height="700" x-height="500" underline-position="-75" underline-thickness="50" />
<missing-glyph  horiz-adv-x="161" d="" />
<glyph glyph-name="NULL" d="" />
<glyph glyph-name="nonmarkingreturn" unicode="&#xd;" horiz-adv-x="161" d="" />
<glyph glyph-name="space" unicode="&#x20;" horiz-adv-x="150" d="" />
<glyph glyph-name="a" unicode="a" horiz-adv-x="171" d="M182 380 Q184 385 187 383 Q190 381 188 379 Q175 350 162 322.5 Q149 295 132 269 Q128 263 121.5 254.5 Q115 246 107 240 Q102 238 94 235.5 Q86 233 76 239 Q67 243 62 256.5 Q57 270 65 300 Q51 280 28 260.5 Q5 241 -15.5 233 Q-36 225 -47 235 Q-58 245 -49 284 Q-37 339 -10 368.5 Q17 398 42 411 Q46 412 62.5 419 Q79 426 94 424 Q103 422 102 414 Q101 415 99 415 Q95 415 92 416 Q75 418 63.5 412.5 Q52 407 47 403 Q30 390 14.5 363.5 Q-1 337 -14 292 Q-22 266 -20.5 255.5 Q-19 245 -12 245 Q-5 245 6 253 Q17 261 29 272.5 Q41 284 52 296.5 Q63 309 71 318 Q77 333 80.5 343.5 Q84 354 87 362 Q91 370 93 376 L102 394 Q112 393 118 388 Q123 383 124 374 Q125 365 117 348 Q112 337 111 331 Q109 326 104 314 Q99 302 94.5 288 Q90 274 87.5 262 Q85 250 90 246 L91 246 L91 245 L92 245 Q95 243 99 245.5 Q103 248 106 250 L109 253 Q116 259 122 267.5 Q128 276 133 284 Q147 307 158.5 331 Q170 355 182 380 Z " />
<glyph glyph-name="b" unicode="b" horiz-adv-x="172" d="M178 380 Q180 382 184 380.5 Q188 379 185 375 Q173 359 160.5 345 Q148 331 132 321 Q126 317 122 315 Q110 285 89.5 259.5 Q69 234 48 224 Q44 222 38 220.5 Q32 219 24 220 L23 220 Q-1 223 -9.5 241.5 Q-18 260 -18 283 Q-18 306 -13 327 Q-8 348 -6 356 Q4 386 14.5 416.5 Q25 447 34.5 474 Q44 501 52.5 523.5 Q61 546 66 561 Q75 583 84.5 597 Q94 611 103.5 619 Q113 627 121 630 Q129 633 134 633 L138 633 Q140 633 142.5 633 Q145 633 147 632 L148 632 L149 632 Q151 630 152 629.5 Q153 629 155 627 Q163 616 160 600 Q158 589 154.5 579 Q151 569 146 559 Q129 519 104 484.5 Q79 450 48 419 Q47 416 45 408 Q79 421 99 418.5 Q119 416 128 403 Q137 390 136 370 Q135 350 128 328 L131 331 Q145 341 156 353.5 Q167 366 178 380 Z M89 530 Q79 507 71 484 Q63 461 55 438 Q61 444 63 448 Q78 464 91.5 481 Q105 498 116 518 Q121 527 126 536.5 Q131 546 136 557 Q141 567 145 577.5 Q149 588 151 599 L151 603 Q152 605 152 608 L152 616 Q152 616 150 620 Q148 626 144 625 Q140 624 136 620 Q134 618 133 616 Q132 614 130 612 Q127 610 125 605 Q114 588 105.5 569 Q97 550 89 530 Z M28 227 Q42 227 58.5 249 Q75 271 88 301 Q71 296 57 295 Q48 295 38.5 295.5 Q29 296 21 302 Q18 304 14 310 Q11 299 8 288.5 Q5 278 4 270 L4 267 Q2 252 6.5 239.5 Q11 227 28 227 Z M110 369 Q114 395 106 403.5 Q98 412 85.5 411.5 Q73 411 60 405 Q47 399 40 395 L21 334 L20 329 Q20 328 19.5 328 Q19 328 19 326 Q18 325 18 323 Q20 310 31 307 Q39 304 47 304 Q55 304 63 305 Q80 307 92 312 Q105 340 110 369 Z " />
<glyph glyph-name="c" unicode="c" horiz-adv-x="131" d="M137 380 Q139 384 142.5 381.5 Q146 379 144 375 Q130 353 115.5 332 Q101 311 85 290 Q77 280 70 270.5 Q63 261 54 252 Q51 249 47 245.5 Q43 242 38 237 Q36 235 33.5 233.5 Q31 232 28 230 Q23 228 15 224.5 Q7 221 -4 222 Q-17 222 -26.5 229 Q-36 236 -40 250 Q-44 264 -40.5 286.5 Q-37 309 -23 340 Q-10 368 4 384.5 Q18 401 30.5 408.5 Q43 416 52 417.5 Q61 419 64 419 L65 419 Q67 419 71.5 418 Q76 417 80 414 Q82 412 82 412 Q84 409 82 406 Q80 403 77 406 Q70 413 63 409.5 Q56 406 51 401 Q44 395 38 387.5 Q32 380 27 372 Q14 353 6 335 L6 334 Q6 333 5.5 333 Q5 333 5 332 Q3 329 2.5 326 Q2 323 1 321 Q-3 311 -7.5 296 Q-12 281 -13 267 Q-14 253 -10.5 242.5 Q-7 232 6 231 Q16 230 27 239 Q38 248 43 253 Q47 257 48 259 Q57 269 65.5 278.5 Q74 288 82 299 Q96 318 110 339 Q124 360 137 380 Z " />
<glyph glyph-name="d" unicode="d" horiz-adv-x="167" d="M187 560 Q191 560 189 555 Q189 555 188 553 Q184 543 174.5 519 Q165 495 153 464 Q141 433 128.5 398.5 Q116 364 105.5 332 Q95 300 88 275 Q81 250 82 239 Q93 252 101 266.5 Q109 281 119 295 Q132 318 144.5 339 Q157 360 171 382 Q173 386 176.5 384 Q180 382 178 378 Q164 355 150.5 333.5 Q137 312 124 289 Q117 277 110 265.5 Q103 254 95 243 Q91 238 82 228.5 Q73 219 64 221 Q59 223 57.5 232 Q56 241 62 264 L62 265 Q60 263 58.5 260.5 Q57 258 55 256 L40 241 Q38 239 35.5 237.5 Q33 236 30 234 Q25 231 17 228 Q9 225 -1 225 Q-14 225 -24 231.5 Q-34 238 -38 252 Q-42 266 -38.5 288 Q-35 310 -21 341 Q-7 367 5.5 383 Q18 399 30 408 L31 409 Q33 411 35 411 Q37 411 39 412 Q56 422 68.5 419 Q81 416 84 414 Q87 412 89.5 411 Q92 410 94 408 Q100 401 105 394 Q107 401 109 406 Q111 411 113 416 Q115 420 116 425 Q130 463 140.5 495 Q151 527 156 539 Q157 541 158 542 Q159 543 160 545 Q161 547 162 548 Q166 552 172.5 556.5 Q179 561 187 560 Z M70 287 Q77 306 85 333 Q93 360 101 383 Q99 388 95.5 393.5 Q92 399 88 403 Q80 409 76 410 Q73 411 68 411 L67 411 Q63 411 62 410 Q59 408 59 408 L57 406 Q56 405 55 404.5 Q54 404 53 403 Q46 396 40.5 388.5 Q35 381 29 372 Q23 364 18 355.5 Q13 347 8 336 L8 335 Q8 334 7.5 334 Q7 334 7 333 Q5 327 3 323 Q-1 312 -5.5 297.5 Q-10 283 -11.5 269.5 Q-13 256 -9.5 246 Q-6 236 7 235 Q18 234 29 242.5 Q40 251 45 257 Q47 259 49 263 Q55 268 60 274.5 Q65 281 70 287 Z " />
<glyph glyph-name="e" unicode="e" horiz-adv-x="132" d="M136 382 Q138 386 141.5 383.5 Q145 381 143 377 Q129 354 114.5 333 Q100 312 83 290 Q76 280 68.5 270.5 Q61 261 52 251 Q49 248 45 244.5 Q41 241 36 236 Q34 234 31.5 232 Q29 230 27 228 Q22 226 14 222.5 Q6 219 -5 219 Q-18 219 -28 225.5 Q-38 232 -42 246.5 Q-46 261 -42.5 283 Q-39 305 -24 337 Q-11 366 3 382.5 Q17 399 29.5 407 Q42 415 51.5 417 Q61 419 64 419 L67 419 Q69 418 72.5 417 Q76 416 79 414 Q85 410 87 403 Q94 389 82 372 Q77 364 71 357 Q65 350 58 343 Q44 332 29 324.5 Q14 317 -3 312 Q-7 301 -11 287 Q-15 273 -15.5 260 Q-16 247 -12 238 Q-8 229 4 229 Q15 228 25.5 237.5 Q36 247 42 252 Q46 256 47 258 Q56 268 64 278 Q72 288 80 299 Q95 319 109 340 Q123 361 136 382 Z M4 330 Q3 328 1 322 Q26 330 47 345 Q62 357 71 370 Q76 377 79.5 385 Q83 393 80 400 Q79 402 73.5 407.5 Q68 413 57 406 Q55 404 53.5 403 Q52 402 50 400 Q44 394 38 386 Q32 378 27 370 Q21 361 15.5 352 Q10 343 5 333 L5 332 Q5 331 4.5 331 Q4 331 4 330 Z " />
<glyph glyph-name="f" unicode="f" horiz-adv-x="64" d="M147 551 Q149 549 148 547.5 Q147 546 145 546 Q140 543 136 547 Q134 549 134 551 Q132 552 127.5 552 Q123 552 116 547 Q109 542 99.5 528.5 Q90 515 78 490 Q76 487 74.5 483 Q73 479 71 475 Q98 477 119 493 Q121 496 124 493 Q127 490 124 488 Q112 477 97.5 472.5 Q83 468 67 466 Q66 462 62 452 Q61 452 58.5 444 Q56 436 55 434 Q51 427 48 415 Q38 387 31 359 Q24 331 15 302 Q14 300 14 298 Q14 296 13 294 Q28 316 42.5 338.5 Q57 361 72 384 Q74 388 77 385.5 Q80 383 78 380 Q75 375 72.5 371 Q70 367 67 362 Q52 339 36.5 316 Q21 293 4 270 Q4 268 3 267 Q1 259 1 259 Q-25 184 -53.5 136.5 Q-82 89 -108.5 60.5 Q-135 32 -157.5 19.5 Q-180 7 -193 4 Q-198 2 -205.5 3 Q-213 4 -218 12 L-218 14 Q-222 25 -215 37 Q-210 49 -201 60 Q-192 71 -182 82 Q-177 86 -173 89.5 Q-169 93 -165 98 Q-163 99 -159 103 Q-155 107 -150 112 Q-145 117 -137 124 Q-115 147 -93.5 169 Q-72 191 -52 214 Q-48 222 -45.5 229.5 Q-43 237 -40 245 Q-38 251 -36 256 Q-34 261 -33 266 Q-28 280 -24 292 Q-20 304 -16 317 Q-10 337 -4.5 355.5 Q1 374 7 393 Q12 413 18.5 431.5 Q25 450 33 468 L34 468 Q29 469 24.5 470 Q20 471 15 472 Q-16 479 -49 487 Q-82 495 -114 481 Q-117 479 -119 482.5 Q-121 486 -117 488 Q-102 495 -86.5 496.5 Q-71 498 -55 496 Q-39 494 -23 489.5 Q-7 485 8 482 Q16 480 22.5 478.5 Q29 477 37 476 Q55 513 73 531 Q91 549 105 555 Q122 562 138 559 Q144 557 147 551 Z M-90 132 Q-82 146 -75 161 Q-68 176 -61 192 Q-78 174 -95.5 156 Q-113 138 -131 119 L-141 109 Q-146 105 -150 101 Q-154 97 -157 94 Q-164 88 -169.5 82 Q-175 76 -182 69 Q-188 62 -193.5 56 Q-199 50 -203 42 Q-206 37 -208.5 31 Q-211 25 -210 19 Q-209 18 -209 17.5 Q-209 17 -208 16 Q-207 13 -204 10.5 Q-201 8 -195 10 L-194 10 Q-193 10 -193 11 Q-191 11 -187 13 Q-164 21 -140 52 Q-116 83 -91 128 Q-91 131 -90 132 Z " />
<glyph glyph-name="g" unicode="g" horiz-adv-x="172" d="M177 379 Q179 383 183.5 382 Q188 381 186 376 Q178 356 164.5 338 Q151 320 137 304 Q130 296 123.5 289 Q117 282 109 274 Q105 263 102 252 Q99 241 96 234 Q84 198 68.5 161.5 Q53 125 34.5 93.5 Q16 62 -5 38.5 Q-26 15 -49 6 Q-51 5 -54 4.5 Q-57 4 -59 3 Q-73 0 -80 4 Q-100 12 -102.5 33 Q-105 54 -100 73 Q-92 102 -75 127 Q-58 152 -37 174 Q-13 197 13 215.5 Q39 234 67 251 Q72 266 76 280 Q80 294 84 308 Q80 302 75.5 295.5 Q71 289 66 282 Q59 273 50 264 Q41 255 31 247.5 Q21 240 11 235.5 Q1 231 -8 231 Q-19 231 -25.5 236 Q-32 241 -36.5 247 Q-41 253 -42.5 258 Q-44 263 -44 264 Q-47 279 -43 298 Q-39 317 -25 341 Q-8 372 10.5 389.5 Q29 407 44.5 415 Q60 423 70.5 424.5 Q81 426 83 426 Q110 424 116 399 Q117 397 117 395 Q117 391 113 390 Q111 390 110 393.5 Q109 397 107.5 401.5 Q106 406 102.5 409.5 Q99 413 91 414 Q80 415 69.5 408.5 Q59 402 58 401 Q42 387 24.5 364 Q7 341 -4.5 317 Q-16 293 -17.5 273 Q-19 253 -4 247 Q-1 245 5 245 Q11 245 19 250 Q29 257 46.5 273.5 Q64 290 89 323 Q91 329 91 329 Q96 343 100 355 Q102 360 103 363.5 Q104 367 105 369 L113 389 Q124 388 130 383 Q135 378 137.5 368 Q140 358 132 339 Q132 339 130 335 L124 317 Q122 309 119 302.5 Q116 296 115 292 Q123 300 129 309 Q143 323 156 341 Q162 351 167.5 359.5 Q173 368 177 379 Z M-46 18 Q-31 30 -16 54 Q-1 78 13 108 Q27 138 40 172 Q53 206 64 238 Q40 223 16 207 Q-14 185 -40 157.5 Q-66 130 -82 96 Q-86 87 -90.5 73.5 Q-95 60 -95.5 46.5 Q-96 33 -91 23 Q-86 13 -72 10 Q-64 9 -57 12 Q-50 15 -46 18 Z " />
<glyph glyph-name="h" unicode="h" horiz-adv-x="170" d="M177 382 Q179 386 182.5 383.5 Q186 381 184 377 Q176 362 167.5 347.5 Q159 333 151 318 Q137 289 118 261 Q118 261 117 259 Q115 256 113.5 254 Q112 252 110 249 Q104 242 95.5 234.5 Q87 227 79 227 Q70 228 69 251 Q70 272 80.5 299 Q91 326 101.5 351 Q112 376 118 393.5 Q124 411 116 414 Q108 417 95 406.5 Q82 396 68.5 380.5 Q55 365 42.5 347 Q30 329 21 317 Q19 312 18 308 Q16 304 15.5 299 Q15 294 13 288 Q11 281 7.5 266 Q4 251 2 240 Q1 237 -1.5 230.5 Q-4 224 -9 218 Q-14 212 -21.5 208.5 Q-29 205 -41 208 Q-42 208 -42 208.5 Q-42 209 -43 209 L-14 315 Q-12 321 -11 325 Q-7 336 -4 349 Q-1 362 4 376 Q18 421 31.5 454 Q45 487 57 510 Q69 533 79.5 547.5 Q90 562 98 570 Q102 575 112 581 Q122 587 132 581 Q133 581 133 580.5 Q133 580 134 580 Q138 577 139.5 572.5 Q141 568 142 563 Q144 550 139.5 538.5 Q135 527 129 516 Q116 490 97.5 468.5 Q79 447 58 429 Q50 409 43.5 388.5 Q37 368 30 348 Q58 390 84 407 Q110 424 127 422 Q130 421 134.5 418 Q139 415 141 407 Q143 399 140.5 385 Q138 371 129 348 Q120 325 113 306 Q107 289 101.5 273.5 Q96 258 97 250 L97 247 Q99 249 100 251 Q105 259 110.5 267 Q116 275 121 283 Q129 295 136 307.5 Q143 320 149 332 Q156 345 163 357 Q170 369 177 382 Z M114 557 Q103 543 89.5 512.5 Q76 482 63 446 Q79 460 92.5 476.5 Q106 493 117 512 Q122 522 127.5 533.5 Q133 545 133 556 L133 557 L133 558 Q133 566 130 567 Q127 568 123 566 Q119 563 114 557 Z " />
<glyph glyph-name="i" unicode="i" horiz-adv-x="95" d="M102 387 Q105 392 109 389.5 Q113 387 111 384 Q97 352 83 319.5 Q69 287 49 258 Q44 251 37 241.5 Q30 232 22 227 Q17 223 9.5 220.5 Q2 218 -7 220 L-8 221 Q-11 221 -13 223 L-14 223 Q-25 229 -27.5 245 Q-30 261 -27.5 278.5 Q-25 296 -20.5 312.5 Q-16 329 -13 337 Q-10 346 -8 352 Q-6 358 -4 363 Q-2 369 -0.5 373 Q1 377 3 379 L10 401 Q22 399 29 394 Q35 389 37 379 Q39 369 31 349 Q29 343 27 338 Q25 333 23 328 Q21 324 15.5 310 Q10 296 5.5 280.5 Q1 265 -0.5 250.5 Q-2 236 3 232 L3 231 L4 231 Q8 229 12 231 Q16 233 20 236 Q22 238 23 238 Q31 247 37 256.5 Q43 266 49 274 Q66 301 78 330 Q90 359 102 387 Z M38 418 Q24 418 20 429 Q18 433 19 440 L19 441 Q20 449 26 455 Q32 461 40 461 Q48 461 55 453.5 Q62 446 62 438 Q62 428 55 421 Q48 414 40 414 Q38 414 36 414.5 Q34 415 32 415 L35 415 Q36 415 38 418 Z " />
<glyph glyph-name="k" unicode="k" horiz-adv-x="169" d="M176 384 Q178 388 182.5 387 Q187 386 185 381 Q171 346 156 312.5 Q141 279 124 246 Q122 241 119 237 Q117 233 114.5 229 Q112 225 111 223 Q110 223 110 222 Q102 204 87 186 Q87 185 86.5 185 Q86 185 86 184 Q84 180 80 174 Q74 166 66.5 159 Q59 152 51 152 Q46 153 43.5 158 Q41 163 40 176 Q41 185 44 197.5 Q47 210 52 223 L58 238 Q58 239 59 240.5 Q60 242 60 244 Q61 244 61 246 Q73 276 77 294.5 Q81 313 80.5 323.5 Q80 334 77 338 Q74 342 72 343 L71 343 Q64 340 58 338 Q52 336 47 334 Q41 332 36 331 Q34 330 34 332 Q34 333 35 334 L36 335 Q56 341 69 348 Q82 355 90 363 Q108 377 111 390.5 Q114 404 113 409 Q113 412 112 412 L109 415 Q101 418 89 408 Q77 398 63.5 383 Q50 368 38 351.5 Q26 335 18 323 Q17 319 16 315 Q14 307 11 295 Q9 288 5.5 273.5 Q2 259 0 250 Q-1 246 -3 239.5 Q-5 233 -10 227.5 Q-15 222 -22.5 218.5 Q-30 215 -41 218 Q-42 218 -42 218.5 Q-42 219 -43 219 L-15 321 Q-13 327 -12 331 Q-8 341 -5.5 353 Q-3 365 2 379 Q30 466 53 508 Q76 550 91 565 Q96 570 105.5 575.5 Q115 581 125 575 Q125 575 127 574 Q130 572 131.5 567.5 Q133 563 134 558 Q136 547 131.5 535.5 Q127 524 122 513 Q110 488 92 467.5 Q74 447 53 430 Q46 410 40 391 Q34 372 27 352 Q53 392 78.5 408.5 Q104 425 120 423 Q124 421 128.5 417 Q133 413 134 401 Q134 396 131 385.5 Q128 375 114 364 Q108 360 106 359 Q105 358 104.5 358 Q104 358 103 357 Q98 354 91.5 351 Q85 348 80 346 L82 344 Q84 343 88 338.5 Q92 334 95 325.5 Q98 317 98.5 303.5 Q99 290 94 271 Q92 266 91 262.5 Q90 259 89 255 L88 254 Q80 231 75 213 Q70 197 67.5 184.5 Q65 172 67 172 L70 175 Q75 183 80.5 190.5 Q86 198 91 206 Q97 215 102.5 224.5 Q108 234 113 245 Q131 279 146.5 313 Q162 347 176 384 Z M107 552 Q96 538 83.5 509.5 Q71 481 59 446 Q74 460 87 475.5 Q100 491 110 509 Q115 519 120.5 529.5 Q126 540 126 551 L126 552 L126 553 Q126 561 123 561.5 Q120 562 116 560 Q112 557 107 552 Z " />
<glyph glyph-name="l" unicode="l" horiz-adv-x="128" d="M138 389 Q140 393 144 390.5 Q148 388 146 385 Q131 359 116 334 Q101 309 85 284 Q70 259 51 234 Q41 218 31 206 Q26 202 19.5 197 Q13 192 5 188 Q-3 184 -9 184 Q-10 184 -10 183 L-13 183 Q-17 183 -21 185 L-22 186 Q-23 186 -23 187 L-24 187 Q-25 188 -25 188.5 Q-25 189 -26 190 Q-28 192 -28 193 Q-32 201 -32 210 Q-33 226 -29.5 247 Q-26 268 -21 286 Q-16 307 -9 329 L-9 335 Q-6 346 -2.5 358 Q1 370 6 384 Q34 472 57.5 514 Q81 556 96 571 Q101 576 111 582 Q121 588 129 582 Q129 582 131 581 Q135 578 136.5 573.5 Q138 569 139 566 Q141 553 136.5 541.5 Q132 530 127 520 Q115 495 97 473.5 Q79 452 57 435 Q52 421 47.5 407 Q43 393 38 379 Q36 371 33 362 Q28 345 23 327 Q22 326 22 325 Q22 325 20 319 L20 316 Q19 314 19 313 Q19 312 18 310 Q16 304 14.5 297.5 Q13 291 11 283 Q9 278 8.5 272.5 Q8 267 6 262 Q5 255 3 245 Q1 235 0.5 225.5 Q0 216 1 209 Q2 202 6 201 Q9 201 11.5 202.5 Q14 204 16 205 Q25 213 32 222 Q39 231 46 241 Q54 252 62.5 264.5 Q71 277 79 289 Q94 314 109 339 Q124 364 138 389 Z M112 560 Q101 545 89 515.5 Q77 486 63 451 Q79 465 92 481 Q105 497 116 516 Q121 525 125 536 Q129 547 130 559 L130 560 L130 561 Q130 568 127.5 569 Q125 570 121.5 568 Q118 566 115 563 Q112 560 112 560 Z " />
<glyph glyph-name="m" unicode="m" horiz-adv-x="262" d="M267 379 Q269 383 272.5 380.5 Q276 378 274 374 Q266 359 257.5 344.5 Q249 330 241 315 Q233 300 225 285.5 Q217 271 207 257 Q207 257 206 255 Q204 252 202.5 250 Q201 248 199 245 Q193 238 184.5 230 Q176 222 168 222 Q163 223 160.5 228 Q158 233 157 247 Q157 268 167.5 295.5 Q178 323 189 348 Q200 373 206.5 391 Q213 409 205 412 Q197 414 186 406 Q175 398 163 384 Q139 356 121 327 Q105 302 93 273.5 Q81 245 83 220 Q74 221 69 227 Q64 232 63 244 Q62 256 69 279 Q69 283 72 288 Q78 309 87.5 330 Q97 351 104 368.5 Q111 386 114 398 Q117 410 111 412 Q101 415 86 402 Q71 389 56 370 Q56 370 50.5 362.5 Q45 355 36.5 342.5 Q28 330 18.5 313 Q9 296 1 276 Q-2 268 -5 259.5 Q-8 251 -10 243 Q-12 237 -12 235 Q-20 235 -24 242 Q-28 248 -28.5 260.5 Q-29 273 -21 298 Q-15 318 -8 340 Q-1 362 5 380 L19 422 Q30 421 37 416 Q43 411 45.5 401 Q48 391 40 373 L36 362 Q61 395 84 408.5 Q107 422 122 420 Q125 419 128.5 417 Q132 415 134.5 409.5 Q137 404 137 394.5 Q137 385 133 370 Q132 368 131.5 366 Q131 364 130 362 Q155 395 178 408.5 Q201 422 216 420 Q219 419 223.5 416 Q228 413 230 405 Q232 397 229.5 382.5 Q227 368 218 345 Q208 322 201 303 Q195 286 190 270 Q185 254 185 246 Q186 245 186 243 Q188 245 189 247 Q194 255 199.5 263 Q205 271 210 279 Q218 291 224.5 303.5 Q231 316 239 329 Q246 342 253 354 Q260 366 267 379 Z " />
<glyph glyph-name="n" unicode="n" horiz-adv-x="166" d="M172 380 Q174 384 178 381.5 Q182 379 180 375 Q172 360 163.5 345.5 Q155 331 147 316 Q139 301 130.5 286.5 Q122 272 113 258 Q113 258 111 256 Q109 253 107.5 251 Q106 249 104 246 Q99 239 90.5 231 Q82 223 74 223 Q69 224 66 229 Q63 234 63 248 Q63 269 73.5 296.5 Q84 324 94.5 349 Q105 374 111.5 392 Q118 410 110 413 Q104 415 94.5 408.5 Q85 402 74 391.5 Q63 381 52 367 Q41 353 32 340 Q31 340 31 339 Q30 338 30 337.5 Q30 337 29 336 Q16 314 7 293 Q-1 275 -6.5 255 Q-12 235 -8 220 Q-20 218 -26 229 Q-31 238 -30.5 259 Q-30 280 -16 325 Q-16 327 -15 328 L-15 331 Q-13 335 -12.5 338.5 Q-12 342 -11 344 Q-6 359 -2 369.5 Q2 380 4 387 Q8 397 10 402 L18 423 Q29 422 36 417 Q42 412 44.5 401.5 Q47 391 39 372 Q38 371 38 370 Q37 369 37 368 Q36 367 36 366 Q36 365 35 363 Q60 396 83.5 409.5 Q107 423 122 421 Q125 420 129 417 Q133 414 135 406 Q137 398 135 383.5 Q133 369 123 346 Q114 323 107 304 Q101 287 96 271 Q91 255 91 247 L91 244 Q93 246 94 248 Q100 256 105.5 264 Q111 272 116 280 Q124 292 130.5 304.5 Q137 317 144 330 Q159 356 172 380 Z " />
<glyph glyph-name="o" unicode="o" horiz-adv-x="175" d="M186 388 Q189 391 192.5 389 Q196 387 194 383 Q180 362 161.5 343 Q143 324 120 310 Q119 308 118.5 306.5 Q118 305 117 303 Q94 262 69.5 244 Q45 226 18 225 L15 225 L14 225 Q-3 225 -11 236 Q-19 247 -21 263.5 Q-23 280 -21 299 Q-19 318 -16 335 L-15 336 Q-14 340 -14 343 Q-14 346 -13 349 Q-10 362 -5 374 Q-4 376 -4 377 Q-4 378 -3 380 Q-3 380 -2 382 Q-1 387 0.5 390.5 Q2 394 4 398 Q6 402 7 406 Q15 406 19.5 401.5 Q24 397 26 391 Q34 402 48.5 417 Q63 432 84 434 Q95 436 104 431 Q121 423 129 405 Q137 387 135 364 Q135 352 131 336 Q129 334 128.5 331 Q128 328 126 325 Q145 338 159.5 354 Q174 370 186 388 Z M71 289 Q71 291 72 291 Q59 289 45.5 288.5 Q32 288 21 294 Q16 297 12 302 Q8 307 6 313 Q-5 281 -3.5 257 Q-2 233 15 233 Q28 233 43 250 Q58 267 71 289 Z M94 341 Q98 353 100 370.5 Q102 388 99.5 401.5 Q97 415 89 421 Q81 427 64 417 Q62 416 48 404.5 Q34 393 27 373 Q25 365 23 358.5 Q21 352 21 351 Q19 347 18 343 Q17 339 15 336 Q12 324 14 317 Q18 302 34 299 Q44 297 55.5 298 Q67 299 78 302 Q86 317 89 328 Q90 331 91.5 333.5 Q93 336 94 338 L94 341 Z " />
<glyph glyph-name="p" unicode="p" horiz-adv-x="157" d="M170 379 Q172 383 175.5 380.5 Q179 378 177 374 Q169 359 160 344 Q151 329 142 315 Q133 300 124.5 285.5 Q116 271 106 257 Q106 257 104 255 Q102 252 100.5 250 Q99 248 97 245 Q91 237 82 229.5 Q73 222 65 222 Q61 223 58 228 Q55 233 55 247 Q56 268 68 295.5 Q80 323 91.5 348 Q103 373 110 391 Q117 409 109 412 Q107 412 105 411.5 Q103 411 101 411 Q95 409 92 407 Q88 405 85 402 Q82 399 78 396 Q55 374 34 347 Q32 345 30 341 Q26 336 23 330 Q20 324 17 319 Q12 311 9 303.5 Q6 296 2 288 Q-4 274 -9.5 259.5 Q-15 245 -20 231 Q-24 218 -31 202 Q-39 182 -47.5 161.5 Q-56 141 -67 122 Q-71 114 -73 111 Q-81 97 -86.5 91 Q-92 85 -97 83 Q-102 80 -106 81 L18 422 Q29 421 35 416 Q40 411 42.5 402.5 Q45 394 38 377 L38 376 Q38 375 37.5 374.5 Q37 374 37 373 Q35 369 35 368 Q33 364 32 361 Q58 395 82 408.5 Q106 422 121 419 Q124 419 128 416 Q132 413 134 405 Q136 397 133 382.5 Q130 368 120 345 Q110 322 102 303 Q95 286 89.5 270 Q84 254 84 246 L84 243 Q86 245 87 247 Q93 255 98.5 263 Q104 271 110 279 Q118 291 125 303.5 Q132 316 140 329 Q148 341 155 353.5 Q162 366 170 379 Z " />
<glyph glyph-name="q" unicode="q" horiz-adv-x="183" d="M190 384 Q193 387 196 384 Q199 381 197 378 Q173 347 151 315 Q129 283 105 252 Q97 224 89 197 Q81 170 76 148 Q76 148 75 146 Q75 145 76 144 Q79 131 81 118.5 Q83 106 85 93 Q87 82 88 68.5 Q89 55 85 44 Q84 39 80 32.5 Q76 26 67 26 Q44 26 40 58 Q38 78 41 105.5 Q44 133 49 165 Q50 172 52.5 182 Q55 192 57 202 Q59 212 61 219.5 Q63 227 63 229 L69 256 L75 276 Q64 258 47.5 244 Q31 230 10 230 Q-5 230 -13.5 236.5 Q-22 243 -26.5 254 Q-31 265 -31.5 279 Q-32 293 -30 307 Q-28 319 -24 331 Q-20 343 -20 344 Q-15 353 -8.5 364.5 Q-2 376 6 385 L8 387 Q20 399 34 410 Q48 421 62 425 Q76 429 88.5 424 Q101 419 109 399 Q115 407 122 412 Q128 417 134.5 420 Q141 423 149 420 Q148 419 148 418 L148 414 Q147 411 146 407 Q145 404 144 400.5 Q143 397 143 395 Q140 384 134.5 365.5 Q129 347 127 336 Q124 325 121 311 Q118 297 113 277 Q133 304 151.5 331 Q170 358 190 384 Z M76 95 Q74 103 73.5 110 Q73 117 71 125 Q66 93 68 71 Q70 49 73 38 Q77 43 78 49 Q79 55 79 61 Q79 77 76 95 Z M107 390 Q105 395 101 401.5 Q97 408 89 413 Q79 419 71.5 415 Q64 411 60 406 Q47 392 31.5 366 Q16 340 6.5 313.5 Q-3 287 -2 268 Q-1 249 19 249 Q39 249 54 263 Q69 277 80 295 L103 374 L107 390 Z " />
<glyph glyph-name="r" unicode="r" horiz-adv-x="159" d="M162 379 Q164 383 167.5 380.5 Q171 378 169 375 Q155 355 141.5 334 Q128 313 114 292 Q107 282 101.5 272.5 Q96 263 90 253 Q79 238 68 225 Q65 223 57 218.5 Q49 214 41 222 L41 223 L40 223 Q38 225 37 227 Q36 229 35 231 L35 234 Q33 246 37 258.5 Q41 271 46 282 Q51 295 54 308.5 Q57 322 62 335 Q69 355 75 373.5 Q81 392 89 412 Q81 403 73 395 Q65 388 56.5 382 Q48 376 37 373 Q29 370 22 370 Q14 370 9 373 Q4 376 0 378 Q-10 389 -11.5 402.5 Q-13 416 -11 430 Q-9 445 -4 458.5 Q1 472 6 485 L12 500 Q17 510 21.5 515 Q26 520 26 521 Q40 533 48 528.5 Q56 524 60 518 Q64 518 66 500 L66 499 Q67 499 67 498 Q67 487 64.5 476.5 Q62 466 58 456 Q55 446 51 436.5 Q47 427 42 419 Q41 418 38.5 413.5 Q36 409 33 404.5 Q30 400 27.5 396 Q25 392 25 391 Q30 391 37 393 Q42 395 50 397.5 Q58 400 68 407 Q72 410 77 413.5 Q82 417 88 422 L90 424 Q91 424 92 425 Q92 425 93 426 L94 427 Q98 430 107 436 Q116 442 130 437 Q121 409 111.5 382 Q102 355 94 327 Q89 314 85 301 Q81 288 76 275 Q74 270 72.5 264 Q71 258 69 251 Q68 249 67 245 Q65 237 65 233 Q70 239 74.5 245.5 Q79 252 84 259 Q91 270 97 279 Q103 288 109 299 Q123 319 136 339 Q149 359 162 379 Z M17 395 Q19 396 22 400.5 Q25 405 28 410 Q32 416 35 423 Q40 431 44 439.5 Q48 448 50 457 Q55 468 57.5 480.5 Q60 493 57 505 Q57 507 56.5 509 Q56 511 56 513 Q55 513 55 512 Q50 503 45.5 493.5 Q41 484 36 474 Q34 472 32 466 Q31 465 31 463 L30 463 Q23 446 20.5 433 Q18 420 17 412 Q16 401 17 395 Z " />
<glyph glyph-name="s" unicode="s" horiz-adv-x="122" d="M126 377 Q128 382 132.5 380.5 Q137 379 135 375 Q111 320 72 274 Q64 265 55.5 257 Q47 249 36 242 Q29 229 16 217 Q7 208 -1 204 Q-10 199 -20.5 197.5 Q-31 196 -41 198 Q-45 198 -53 200 Q-66 205 -75 215 Q-76 215 -76.5 217 Q-77 219 -74 221 Q-73 223 -70 223 Q-69 223 -68 222 Q-65 218 -61 216.5 Q-57 215 -53 213 Q-49 211 -39 211 Q-26 212 -16.5 220 Q-7 228 -1 239 Q9 258 11 282 Q12 287 12 292.5 Q12 298 12 303 Q11 319 7 334 Q3 349 2 365 Q2 378 5 390 Q7 399 11 407.5 Q15 416 22 423 Q27 428 33 431 Q37 434 42 436.5 Q47 439 52 440 Q63 443 74 435 Q79 432 79 429 Q79 425 76 424 Q73 423 71 425 L65 431 Q62 433 57 433 Q55 433 53 432 Q50 430 46 424 Q42 418 40 407 Q38 401 38 395 Q38 389 38 382 Q37 374 38 366 Q39 358 41 350 Q43 345 43.5 339.5 Q44 334 45 329 Q46 325 46.5 322 Q47 319 47 315 Q50 289 44 265 Q43 264 43 261 Q43 258 41 257 Q55 267 67 282 Q104 326 126 377 Z " />
<glyph glyph-name="t" unicode="t" horiz-adv-x="120" d="M134 379 Q136 383 139.5 380.5 Q143 378 141 375 Q126 349 111 323 Q96 297 79 272 Q71 258 62.5 246 Q54 234 45 221 Q40 214 35.5 207 Q31 200 24 194 Q14 183 -1 175 Q-11 171 -16 171 L-17 170 L-18 170 L-21 170 Q-23 170 -27 172 Q-28 172 -29 173 Q-29 173 -30 174 L-31 174 Q-31 175 -33 177 Q-33 178 -35 180 Q-39 188 -39 198 Q-41 214 -37.5 234.5 Q-34 255 -29 274 Q-24 296 -17 318 Q-16 320 -16 321 Q-16 322 -15 324 Q-12 335 -8.5 347.5 Q-5 360 0 374 Q5 389 9 402.5 Q13 416 18 429 Q20 431 20 434 Q-8 441 -37 447.5 Q-66 454 -94 440 Q-98 439 -100.5 442.5 Q-103 446 -99 448 Q-84 455 -69.5 456.5 Q-55 458 -40 456 Q-25 454 -10 450 Q5 446 20 443 Q21 442 24 442 L24 443 Q27 450 30.5 458.5 Q34 467 37.5 475 Q41 483 43.5 489 Q46 495 46 495 Q60 523 71.5 539.5 Q83 556 92 565 Q96 568 105.5 574.5 Q115 581 125 575 Q126 575 126 574.5 Q126 574 127 574 Q134 567 134 558 Q136 545 132 533.5 Q128 522 122 511 Q116 499 108 487.5 Q100 476 92 465 Q90 464 81 454.5 Q72 445 64 437 Q80 436 95 439.5 Q110 443 123 454 Q127 457 130 453.5 Q133 450 130 448 Q113 434 94 430 Q75 426 55 428 Q54 428 52 426 Q47 412 42.5 397 Q38 382 33 368 Q30 360 27 351 Q25 343 21.5 334 Q18 325 16 316 Q15 315 15 314 Q15 313 14.5 311.5 Q14 310 14 308 Q13 307 13 305 Q13 303 11 299 Q10 293 8.5 285.5 Q7 278 5 270 Q4 265 3 259.5 Q2 254 1 249 Q-1 242 -2.5 231.5 Q-4 221 -5 211.5 Q-6 202 -5 194.5 Q-4 187 1 187 Q3 187 5 188.5 Q7 190 9 192 Q19 200 26 209.5 Q33 219 39 228 Q48 241 56 253 Q64 265 72 278 Q89 303 104 328 Q119 353 134 379 Z M65 461 Q62 454 60 448 Q58 442 57 440 Q60 442 63 446 Q65 448 68 451.5 Q71 455 73 457 Q75 459 76 461 Q98 483 110 507 Q115 517 120.5 528 Q126 539 126 551 L126 552 L126 553 Q126 561 123 561.5 Q120 562 116.5 560 Q113 558 110 554.5 Q107 551 107 551 Q99 540 89.5 519.5 Q80 499 70 473 Q67 468 65 461 Z " />
<glyph glyph-name="u" unicode="u" horiz-adv-x="195" d="M207 370 Q195 340 182.5 310 Q170 280 153 252 Q148 244 140.5 234 Q133 224 124 217 Q120 213 112.5 210 Q105 207 96 210 L94 210 Q90 212 89 213 L88 213 Q74 222 73 245 Q72 268 77 291 Q72 281 67 271.5 Q62 262 56 252 Q51 244 43.5 234 Q36 224 27 217 Q23 213 15.5 210 Q8 207 -1 210 L-3 210 L-9 213 Q-20 220 -22.5 237.5 Q-25 255 -23 275.5 Q-21 296 -16 314.5 Q-11 333 -8 342 Q-2 361 1 372 Q3 379 4.5 383 Q6 387 7 389 L16 414 Q28 413 35 407 Q41 402 43 389.5 Q45 377 37 355 Q33 343 29 333 Q27 328 21.5 312 Q16 296 11.5 278 Q7 260 5 244 Q3 228 8 223 L8 222 L9 222 L9 221 L10 221 Q14 219 18 222 Q22 225 26 228 Q28 230 28 231 Q37 240 43.5 250 Q50 260 56 271 Q66 291 74.5 310.5 Q83 330 91 350 Q93 357 94.5 362 Q96 367 98 372 Q100 379 101.5 383 Q103 387 104 389 L113 414 Q125 413 132 407 Q138 402 140 389.5 Q142 377 134 355 Q130 343 126 333 Q124 328 118.5 312 Q113 296 108.5 278 Q104 260 102 244 Q100 228 105 223 L105 222 L106 222 L106 221 L107 221 Q111 219 115 222 Q119 225 123 228 Q125 230 125 231 Q134 240 140.5 250 Q147 260 153 271 Q166 296 176.5 321.5 Q187 347 198 373 Q201 378 204 377 Q209 377 207 373 L207 370 L207 370 Z " />
<glyph glyph-name="v" unicode="v" horiz-adv-x="181" d="M184 378 Q186 382 189.5 379.5 Q193 377 191 373 Q176 346 158 319 Q150 307 142.5 295 Q135 283 125 272 Q117 263 107.5 255.5 Q98 248 87 243 L78 240 L67 229 Q65 227 64 226.5 Q63 226 61 224 Q42 208 25 208 Q13 208 6.5 216.5 Q0 225 -3.5 238.5 Q-7 252 -7.5 270 Q-8 288 -6 306 Q-2 349 9 405 Q18 403 30 393 Q42 383 38 364 Q33 342 28.5 316 Q24 290 21 267 Q18 244 19 229 Q20 214 26 215 Q31 215 41 227.5 Q51 240 62 259 Q61 262 61 268 Q60 291 66.5 317.5 Q73 344 83.5 365 Q94 386 107.5 398 Q121 410 134 405 Q143 402 142.5 385.5 Q142 369 135 346.5 Q128 324 115.5 299 Q103 274 88 253 Q90 255 92 255 Q103 261 111 270 Q119 279 127 288 Q143 311 156 332 Q163 343 170 354.5 Q177 366 184 378 Z M71 275 Q81 293 90 312 Q99 331 106 347.5 Q113 364 116.5 375 Q120 386 119 388 Q118 389 114 384.5 Q110 380 104.5 371.5 Q99 363 92.5 351 Q86 339 81 326 Q80 325 80 323 L77 317 Q75 309 74 302 Q73 295 72 289 Q71 282 71 275 Z " />
<glyph glyph-name="w" unicode="w" horiz-adv-x="265" d="M270 386 Q272 390 275.5 388 Q279 386 277 382 Q263 356 244 327 Q236 315 228.5 303.5 Q221 292 211 281 Q203 272 193.5 264 Q184 256 173 251 Q167 249 164 249 Q154 238 144 229 Q135 221 125 215 Q115 209 104 209 L103 209 Q98 209 95 210 L94 210 L88 213 L87 213 Q74 222 73 245 Q72 268 76 291 Q67 271 55 252 Q50 244 43 234 Q36 224 27 217 Q22 213 15 210 Q8 207 -2 210 L-4 210 Q-5 211 -9 213 L-10 213 Q-21 220 -23 237.5 Q-25 255 -23 275.5 Q-21 296 -16.5 314.5 Q-12 333 -9 342 Q-6 352 -3.5 359.5 Q-1 367 1 372 Q4 384 7 389 L15 414 Q27 413 34 407 Q40 402 42 389.5 Q44 377 36 355 Q34 348 32 342.5 Q30 337 28 333 Q26 328 20.5 312 Q15 296 10.5 278 Q6 260 4 244 Q2 228 7 223 L7 222 L8 222 Q8 221 9 221 Q13 219 17.5 222 Q22 225 25 228 L28 231 Q36 240 42.5 250 Q49 260 55 271 Q66 291 74.5 310.5 Q83 330 91 350 Q93 357 94.5 362 Q96 367 98 372 Q101 384 104 389 L112 414 Q124 413 131 407 Q137 402 139.5 389.5 Q142 377 134 355 Q132 348 129.5 342.5 Q127 337 125 333 Q123 328 118.5 315.5 Q114 303 109.5 287 Q105 271 102 255.5 Q99 240 101 231 Q102 223 107 221 L108 221 Q112 220 118 226 L124 232 Q129 238 136 247 Q143 256 148 267 Q147 270 147 277 Q146 300 152.5 326 Q159 352 169.5 373 Q180 394 193.5 406.5 Q207 419 220 414 Q229 410 228.5 393.5 Q228 377 221 354.5 Q214 332 201.5 307 Q189 282 174 261 Q175 262 176 262.5 Q177 263 178 264 Q189 270 197 278.5 Q205 287 213 296 Q229 319 242 340 Q249 351 256 363 Q263 375 270 386 Z M157 283 Q167 301 176 320 Q185 339 192 355.5 Q199 372 202.5 383.5 Q206 395 205 397 Q203 399 190.5 380 Q178 361 167 334 Q166 333 166 331 L163 325 Q161 318 160 310.5 Q159 303 158 297 Q157 290 157 283 Z " />
<glyph glyph-name="x" unicode="x" horiz-adv-x="189" d="M192 378 Q194 382 198 380 Q202 378 200 373 Q190 356 180 339.5 Q170 323 159 306 Q141 276 123 258 Q108 241 91.5 233 Q75 225 63 239 Q63 239 62 240 Q59 244 58 248.5 Q57 253 57 257 Q57 261 58 266 Q57 260 53 255 Q33 228 14 221 Q-5 214 -18 219 Q-21 220 -25 222 L-25 223 Q-30 226 -31 229 Q-37 237 -38.5 248 Q-40 259 -40 268 Q-40 273 -35.5 273 Q-31 273 -31 268 L-31 264 Q-31 259 -30 252.5 Q-29 246 -27 240 Q-25 234 -20.5 230 Q-16 226 -9 227 Q-7 228 -4.5 228 Q-2 228 0 230 Q10 235 26 255.5 Q42 276 63 327 Q70 343 73 357 Q75 369 74 381.5 Q73 394 62 400 Q61 401 60 401 Q52 404 45.5 402.5 Q39 401 33.5 397.5 Q28 394 25 390.5 Q22 387 22 386 Q14 373 11 363 Q8 357 7 351 Q-4 354 -7 359 L-7 360 Q-8 361 -8 364 Q-9 368 -7.5 375.5 Q-6 383 5 394 Q12 401 16 403 L17 404 Q29 411 35 412 Q39 413 47 413 Q60 413 71 406 Q79 400 85.5 386 Q92 372 88 346 Q104 370 117.5 382 Q131 394 140 399 Q151 405 159 405 Q165 405 168 400 Q171 395 170 389 Q169 384 164.5 385.5 Q160 387 161 391 Q161 395 160 396 L158 396 L157 396 Q153 394 145 387 Q137 380 123 360 Q117 351 108 333 Q99 315 90 289 Q85 273 84 260 Q83 247 94 247 Q99 247 110 256 Q120 266 130 279 Q140 292 145 301 Q158 320 169.5 339 Q181 358 192 378 Z " />
<glyph glyph-name="y" unicode="y" horiz-adv-x="169" d="M175 378 Q177 382 181.5 381 Q186 380 184 375 Q176 355 161.5 336 Q147 317 133 300 Q126 292 119 284.5 Q112 277 104 269 Q100 257 96.5 246 Q93 235 90 227 Q77 190 61 152 Q45 114 26 81 Q7 48 -15 23 Q-37 -2 -61 -11 Q-64 -12 -66.5 -12.5 Q-69 -13 -72 -14 Q-85 -17 -94 -13 Q-104 -9 -109.5 -0.5 Q-115 8 -117 18 Q-119 28 -118 39 Q-117 50 -114 59 Q-106 89 -88 115.5 Q-70 142 -48 164 Q-23 188 6 209 Q2 209 -1 210 L-2 210 L-8 213 L-9 213 Q-20 220 -22 237.5 Q-24 255 -22 275.5 Q-20 296 -15.5 314.5 Q-11 333 -8 342 Q-5 352 -2.5 359.5 Q0 367 2 372 Q4 379 5 383 Q6 387 8 389 L17 414 Q29 413 36 407 Q42 402 44 389.5 Q46 377 38 355 Q36 348 33.5 342.5 Q31 337 30 333 Q28 328 22 312 Q16 296 11.5 278 Q7 260 5 244 Q3 228 8 223 L8 222 L9 222 Q9 221 10 221 Q14 219 18.5 222 Q23 225 26 228 L29 231 Q37 240 43.5 250 Q50 260 56 271 Q67 291 75.5 310.5 Q84 330 92 350 Q94 357 95.5 362 Q97 367 99 372 Q101 379 102.5 383 Q104 387 105 389 L114 414 Q125 413 132 408 Q138 403 140.5 392.5 Q143 382 138 363 Q136 359 136 359 Q134 354 132.5 349 Q131 344 129 339 Q127 334 125 328.5 Q123 323 121 318 Q120 316 120 315 Q120 314 119 312 Q117 307 115 302 Q113 297 111 292 Q111 289 110 288 Q114 292 118 296 Q122 300 126 305 Q133 314 139.5 322.5 Q146 331 153 340 Q160 349 165.5 358 Q171 367 175 378 Z M-58 2 Q-42 15 -26.5 39.5 Q-11 64 4 95.5 Q19 127 32 162.5 Q45 198 56 232 Q44 224 31.5 215.5 Q19 207 7 199 Q-25 176 -51.5 147.5 Q-78 119 -95 83 Q-100 74 -104 59.5 Q-108 45 -109 31.5 Q-110 18 -104.5 7 Q-99 -4 -84 -7 Q-76 -8 -69.5 -4.5 Q-63 -1 -58 2 Z M65 260 Q67 264 68.5 269 Q70 274 72 280 Q68 273 64.5 266 Q61 259 56 252 Q53 245 45 235 Q52 240 61 245 Q62 249 63 252.5 Q64 256 65 260 Z " />
<glyph glyph-name="z" unicode="z" horiz-adv-x="137" d="M143 381 Q145 385 149.5 384 Q154 383 152 378 Q143 358 129 339 Q115 320 101 303 Q96 298 91 292 Q86 286 81 281 L71 271 Q69 269 66 266.5 Q63 264 61 262 Q57 259 53.5 255.5 Q50 252 46 249 Q48 232 44 207 Q40 182 27 149 Q25 146 23 140 Q22 139 20 135 Q-3 84 -31.5 44.5 Q-60 5 -93 -8 Q-101 -10 -104 -11 Q-117 -14 -126 -10 Q-136 -6 -141.5 2.5 Q-147 11 -149 21 Q-151 31 -150 42 Q-149 53 -146 62 Q-138 92 -120 118.5 Q-102 145 -80 167 Q-56 191 -28.5 210.5 Q-1 230 28 248 Q29 249 29 251 Q31 256 32 266 Q33 276 27 284 Q24 289 23.5 290.5 Q23 292 23 294 L24 295 Q26 297 28 297 L29 297 Q36 297 49 304.5 Q62 312 73 338 Q81 356 82.5 370 Q84 384 81 393.5 Q78 403 72.5 408.5 Q67 414 61 415 Q54 417 48 415 Q42 413 37.5 410 Q33 407 30 403.5 Q27 400 27 399 Q19 386 16 376 Q13 370 12 364 Q2 367 -2 372 Q-3 372 -3 373 Q-3 374 -3.5 374.5 Q-4 375 -4 376 Q-5 381 -3 388.5 Q-1 396 9 407 Q12 409 15 411.5 Q18 414 20 416 Q20 416 22 417 Q27 420 31.5 421.5 Q36 423 39 425 Q42 425 45 425.5 Q48 426 51 426 Q62 425 71 421 Q79 416 85.5 407 Q92 398 94 380 L94 373 Q94 372 93 364.5 Q92 357 90 349 Q90 349 88 345 L88 344 Q85 337 80.5 328 Q76 319 69.5 310.5 Q63 302 54.5 296.5 Q46 291 35 290 Q36 289 37 286 Q38 284 39 281 Q40 278 42 274 Q42 273 43.5 268 Q45 263 45 261 Q52 267 58 272 Q63 277 69 282.5 Q75 288 80 293 Q80 294 81 294 Q81 294 82 296 Q83 296 84 297 Q90 305 93 308 Q101 317 107.5 325.5 Q114 334 121 343 Q127 352 133 361 Q139 370 143 381 Z M-90 5 Q-74 18 -58.5 42.5 Q-43 67 -28.5 98.5 Q-14 130 -0.5 165.5 Q13 201 24 235 Q11 227 -1 218.5 Q-13 210 -25 202 Q-57 179 -84 150.5 Q-111 122 -128 86 Q-132 77 -136.5 62.5 Q-141 48 -141.5 34.5 Q-142 21 -136.5 10 Q-131 -1 -116 -4 Q-108 -5 -101.5 -1.5 Q-95 2 -90 5 Z " />
<glyph glyph-name="zero" unicode="0" horiz-adv-x="230" d="M233 509 Q236 483 231.5 456 Q227 429 219 404 Q205 358 183 319 Q172 301 160 283.5 Q148 266 134 252 Q112 230 84 223 Q83 223 82.5 222.5 Q82 222 80 222 L79 222 Q66 220 57.5 222.5 Q49 225 43 230 Q34 238 28 250 Q22 262 19 275.5 Q16 289 15.5 302 Q15 315 15 325 Q15 349 19 375 Q23 401 31 427 Q46 471 64.5 499.5 Q83 528 101.5 544.5 Q120 561 138 567.5 Q156 574 171 575 Q190 578 210 575 Q215 574 214 569.5 Q213 565 208 566 Q203 567 198 567 Q193 567 188 567 L185 567 L180 567 Q167 565 157.5 559 Q148 553 147 552 Q129 536 108 504.5 Q87 473 64 416 Q41 357 37.5 313.5 Q34 270 45 246 Q47 241 55.5 234 Q64 227 83 232 Q89 234 90 234 Q90 234 94 236 Q110 242 121.5 253.5 Q133 265 144 278 Q169 311 187 348 Q205 385 216 426 Q219 438 221 450 Q223 462 224 474 Q225 488 225 501.5 Q225 515 220 528 Q216 539 207.5 546 Q199 553 186 551 Q172 549 157 539.5 Q142 530 142 514 Q141 509 136.5 509 Q132 509 132 514 Q133 528 142.5 538 Q152 548 163 554 Q176 560 190 561 Q204 562 215 552 Q225 544 228.5 532 Q232 520 233 509 Z " />
<glyph glyph-name="one" unicode="1" horiz-adv-x="107" d="M136 573 Q136 572 129.5 552.5 Q123 533 113.5 502.5 Q104 472 91.5 434.5 Q79 397 67 361 L23 227 L38 227 Q42 227 42 222.5 Q42 218 38 218 L-17 218 Q-22 218 -22 222.5 Q-22 227 -17 227 L-2 227 L51 396 Q61 430 70.5 460 Q80 490 87 510 L97 543 Q97 543 95 542 Q86 538 78 531 L74 527 Q77 524 75 520.5 Q73 517 69 519 Q64 522 64.5 526.5 Q65 531 69 534.5 Q73 538 77.5 541 Q82 544 85 546 Q90 549 94.5 551.5 Q99 554 104 557 L136 573 L136 573 Z " />
<glyph glyph-name="two" unicode="2" horiz-adv-x="223" d="M157 226 Q162 226 162 221.5 Q162 217 157 217 L-5 217 L-8 217 L-23 217 L-27 217 L-10 234 L0 244 Q4 248 7.5 251 Q11 254 13 256 Q76 317 117.5 368 Q159 419 180 458 Q201 497 203 522.5 Q205 548 189 558 Q181 563 172 563 Q163 563 160 563 Q132 560 114 543 Q100 530 90 513 Q80 496 78 477 Q77 472 72.5 472 Q68 472 69 477 Q70 499 83 518 Q88 527 94.5 535.5 Q101 544 109 550 Q120 560 132.5 565 Q145 570 159 572 Q161 572 165 572.5 Q169 573 176 572 L187 572 Q194 571 203 568 Q212 565 219.5 559 Q227 553 232 542.5 Q237 532 235 516 Q230 486 212 456 Q194 426 177 404 Q157 380 135 356.5 Q113 333 92 313 L91 313 Q90 312 90 311.5 Q90 311 89 310 L2 226 L157 226 L157 226 Z " />
<glyph glyph-name="three" unicode="3" horiz-adv-x="199" d="M184 566 Q215 553 211 513 Q206 475 184.5 449.5 Q163 424 139 410 Q111 392 76 384 Q82 384 97.5 379.5 Q113 375 126.5 364.5 Q140 354 146.5 336 Q153 318 143 291 Q132 264 113.5 249 Q95 234 76 227 Q57 220 43 218.5 Q29 217 28 217 Q25 217 21.5 217.5 Q18 218 15 218 Q14 219 13 219 Q-9 222 -19 240 Q-22 244 -18 246 Q-14 248 -12 244 Q-2 230 15 227 Q32 224 48 230.5 Q64 237 74 243 Q92 256 104 272 Q116 288 118 305 Q120 326 115 339.5 Q110 353 101.5 361.5 Q93 370 82.5 373.5 Q72 377 65 379 L65 383 Q87 391 107 407 Q127 423 142.5 442.5 Q158 462 167 482.5 Q176 503 176.5 520 Q177 537 167 548 Q157 559 135 559 Q124 559 115.5 557.5 Q107 556 103 554 Q65 539 39 504 Q37 499 33 501.5 Q29 504 32 508 Q57 544 94 560 Q99 562 102.5 563 Q106 564 110 566 Q119 569 126 570 Q133 571 135 572 Q151 574 167 571 Q172 570 176 569 Q180 568 184 566 Z " />
<glyph glyph-name="four" unicode="4" horiz-adv-x="227" d="M181 227 Q186 227 186 222.5 Q186 218 181 218 L111 218 Q107 218 107 222.5 Q107 227 111 227 L127 227 L143 293 L148 312 L85 312 L84 312 L36 312 L27 312 L25 312 L24 312 L23 312 Q12 313 13 322 Q14 331 24.5 349 Q35 367 53.5 396 Q72 425 96 466 Q110 489 116.5 505.5 Q123 522 126 533 L126 534 Q126 535 126.5 535.5 Q127 536 127 537 Q129 545 127.5 549.5 Q126 554 125 556 Q123 559 119 563 Q114 566 108.5 566 Q103 566 98 565 Q93 565 93 569 Q93 573 98 574 Q104 575 110.5 574.5 Q117 574 122 571 Q124 570 125.5 569 Q127 568 129 567 Q134 561 136 553 Q137 549 137.5 541.5 Q138 534 136 523 Q135 521 134.5 518 Q134 515 133 513 L133 511 Q122 478 104 439.5 Q86 401 71 372 L41 321 L51 321 L68 321 L84 321 L97 321 L110 321 L123 321 L137 321 L150 321 L155 344 L156 345 L162 370 Q171 411 179 441 Q183 457 187 471 Q199 471 204 459 L170 321 L172 321 Q177 321 177 316.5 Q177 312 172 312 L168 312 L147 227 L181 227 L181 227 Z " />
<glyph glyph-name="five" unicode="5" horiz-adv-x="227" d="M227 570 Q228 575 232 573.5 Q236 572 235 568 Q232 547 217 537 Q204 527 185 525 Q152 521 115 527 L113 520 Q113 519 112.5 518.5 Q112 518 112 517 Q108 505 102 488 Q96 471 90 455 Q83 437 75 417 Q87 417 107.5 413 Q128 409 147.5 398.5 Q167 388 180.5 371 Q194 354 193 329 Q192 309 184 292 Q176 277 165 263 Q155 251 139.5 239 Q124 227 101 222 Q88 218 70 218 Q66 218 64 219 Q48 220 30.5 227.5 Q13 235 15 255 Q16 260 20.5 260 Q25 260 24 255 Q23 247 27 241.5 Q31 236 38 233 Q45 230 52.5 228.5 Q60 227 66 227 L72 227 L74 227 Q75 227 75.5 227.5 Q76 228 77 228 L78 228 L81 228 Q108 230 123.5 241.5 Q139 253 143 258 Q152 269 158 283.5 Q164 298 165 315 Q166 336 161.5 350.5 Q157 365 148.5 375.5 Q140 386 129.5 392.5 Q119 399 107 403 Q80 412 45 409 L89 543 Q97 541 103.5 539.5 Q110 538 116 536 Q148 530 179 533 Q187 534 194.5 535.5 Q202 537 209 542 Q224 551 227 570 Z " />
<glyph glyph-name="six" unicode="6" horiz-adv-x="235" d="M257 560 Q260 556 256.5 553 Q253 550 250 553 Q239 564 224.5 566 Q210 568 196 565 Q191 563 173.5 556.5 Q156 550 138 532 L132 526 L132 525 L131 525 Q130 524 130 523.5 Q130 523 129 522 Q100 490 75 432 Q71 424 68 416 Q65 408 62 400 Q60 393 57.5 387 Q55 381 53 375 Q64 383 74.5 391 Q85 399 96 406 Q108 414 122 419.5 Q136 425 150 425 Q176 425 191 402 Q199 391 200.5 377 Q202 363 200 349 Q195 319 182 294 Q159 249 113 230 L112 230 L111 229 Q106 227 94.5 224 Q83 221 69.5 221 Q56 221 43 226.5 Q30 232 23 248 Q21 251 20.5 254 Q20 257 18 260 L18 262 Q16 267 15.5 272.5 Q15 278 14 283 Q12 308 15 331.5 Q18 355 23 374.5 Q28 394 34 409.5 Q40 425 45 434 Q58 460 76 487 Q94 514 119 535 Q133 546 144.5 553 Q156 560 163 563 Q167 565 168 565 Q191 575 215 576 Q239 577 257 560 Z M67 374 Q62 370 57.5 366 Q53 362 48 357 Q44 340 42 327 Q40 314 40 303 Q38 287 40 274 Q42 263 45.5 251 Q49 239 60 234 Q64 231 68 231 Q71 230 75 230 Q85 230 96 233 Q138 245 164 281 Q187 314 192 354 Q193 367 191 380.5 Q189 394 178 404 Q167 415 152 415.5 Q137 416 122 410 Q107 404 93.5 394.5 Q80 385 67 374 Z " />
<glyph glyph-name="seven" unicode="7" horiz-adv-x="170" d="M223 556 Q223 555 222 554 L219 551 Q217 548 215 546 Q206 535 178 498.5 Q150 462 117 408 Q132 406 145 402 Q150 401 148.5 396.5 Q147 392 143 394 Q126 399 111 400 Q87 360 63.5 314.5 Q40 269 22 221 Q13 219 7 218 Q2 217 -2.5 217 Q-7 217 -5 221 Q6 248 19 278 Q30 304 46 335.5 Q62 367 82 401 Q73 401 63.5 400 Q54 399 46 396 Q42 394 41 398 Q40 402 44 404 Q54 409 65 409.5 Q76 410 87 410 Q102 435 118.5 458.5 Q135 482 152 502 Q156 506 163 514 Q170 522 177.5 530 Q185 538 191.5 545 Q198 552 201 555 Q185 560 168 561 Q151 562 134 563 Q113 564 91.5 562 Q70 560 49 557 Q45 556 43.5 560.5 Q42 565 47 566 Q70 569 92.5 571.5 Q115 574 138 572 Q152 571 166.5 570 Q181 569 195 566 Q200 564 205 563 Q210 562 214 560 Q218 558 223 556 Z " />
<glyph glyph-name="eight" unicode="8" horiz-adv-x="199" d="M203 565 Q213 555 214 541.5 Q215 528 212 516 Q205 488 185 469 Q165 450 141 437 L141 436 Q158 419 165.5 394.5 Q173 370 169 343 Q165 316 150 290.5 Q135 265 107 246 Q107 244 105 244 Q92 234 77.5 226 Q63 218 46 218 Q26 218 15 229 Q9 235 5 242 Q1 249 -2 257 Q-8 277 -4.5 297 Q-1 317 9 335 Q30 373 60 399 Q71 407 82.5 414.5 Q94 422 106 429 L105 430 Q105 431 104.5 431 Q104 431 104 432 L103 432 Q83 460 80.5 481 Q78 502 81 513 Q81 513 82 514 Q84 520 85 522 L86 524 Q92 536 104.5 550.5 Q117 565 140 573 L141 573 Q141 573 143 571 Q143 567 141 567 Q135 563 133 561 Q118 549 111 535 Q107 528 105 521 Q102 511 104 500 Q106 489 112 475 Q118 461 135 443 Q156 454 174.5 471 Q193 488 201 511 Q205 521 206 534.5 Q207 548 199 557 Q189 566 179 567 Q171 569 164.5 567.5 Q158 566 151 564 Q147 563 145.5 567 Q144 571 149 573 Q157 575 165 576.5 Q173 578 181 576 Q187 574 192.5 572 Q198 570 203 565 Z M144 350 Q144 362 140.5 377 Q137 392 125 405 Q121 409 118 413 Q115 417 111 422 Q111 422 109 421 Q92 411 76 399 Q60 387 46 372 Q38 364 32 355.5 Q26 347 21 338 Q16 329 11.5 319.5 Q7 310 5 300 Q0 279 8 258 Q10 250 14.5 243 Q19 236 26 232 Q35 226 45 226.5 Q55 227 65 230.5 Q75 234 83.5 240 Q92 246 100 252 L103 252 Q115 264 126 282 Q137 300 142 329 L142 330 Q142 332 143 334 Q145 341 144 350 Z " />
<glyph glyph-name="nine" unicode="9" horiz-adv-x="210" d="M170 578 Q199 578 208.5 560.5 Q218 543 217.5 520.5 Q217 498 211 478 Q205 458 203 452 Q202 448 196.5 433 Q191 418 181.5 396.5 Q172 375 159 350 Q146 325 129 301.5 Q112 278 92 258.5 Q72 239 49 230 Q47 229 44 228 Q41 227 39 226 Q30 223 19.5 222 Q9 221 0 223 Q-18 226 -23 242 Q-27 253 -24.5 263 Q-22 273 -17 282 Q-15 287 -11.5 284.5 Q-8 282 -10 278 Q-13 270 -15.5 260.5 Q-18 251 -14 243 Q-12 238 -6.5 235 Q-1 232 5 231 L11 231 Q28 231 43 241.5 Q58 252 65 258 Q73 267 82.5 277.5 Q92 288 100 299 Q101 300 101 300.5 Q101 301 102 302 Q115 318 125 334 Q138 353 145.5 367.5 Q153 382 158 391 Q160 394 161 398.5 Q162 403 164 407 L168 417 Q170 425 173.5 433.5 Q177 442 180 451 Q167 438 153.5 426.5 Q140 415 126 405 Q117 399 107.5 393.5 Q98 388 87 386 Q78 383 68 383 Q58 383 51 389 Q38 400 39 419 Q40 438 43 454 Q48 474 57 493.5 Q66 513 80 530 Q105 558 140 572 Q147 574 154.5 576 Q162 578 170 578 Z M186 469 Q191 487 194.5 504.5 Q198 522 196.5 536 Q195 550 187.5 558.5 Q180 567 164 567 Q160 567 158 566 L157 566 Q152 566 149 565 Q142 564 137 561 Q118 553 102 540 Q69 510 57 471 Q50 448 49 428 Q48 420 49 411.5 Q50 403 55 398 Q63 390 73.5 391.5 Q84 393 94 397 Q115 406 133 421 Q147 432 160 444 Q173 456 186 469 Z " />
<glyph glyph-name="ampersand" unicode="&#x26;" horiz-adv-x="234" d="M210 398 Q219 387 211 374 Q203 361 195 353 Q188 347 180 343 Q172 339 164 335 Q156 331 147 329 Q138 327 130 325 Q137 309 138 292 Q139 275 133 260 Q120 232 92 215 Q78 206 62 199.5 Q46 193 29 191 Q10 188 -7 192 Q-23 197 -34 209 Q-49 228 -49 256 Q-51 293 -28 322 Q-18 336 -4 348 Q10 360 26 368 Q23 375 22 382 Q21 389 20 396 Q18 431 32.5 462 Q47 493 77 511 Q93 521 113 526 Q126 529 141 529 Q156 529 170 521 Q185 510 188.5 491.5 Q192 473 181 458 Q171 445 154 443 Q152 442 148 441.5 Q144 441 142 443 Q140 446 143 449 Q144 451 145.5 450.5 Q147 450 148 450 Q150 451 152.5 451 Q155 451 157 452 Q162 454 166 455.5 Q170 457 172 461 Q180 469 181 480.5 Q182 492 176 502 Q170 512 160.5 516 Q151 520 140 520 Q129 520 118.5 517 Q108 514 99 509 Q67 490 53 454.5 Q39 419 44 383 Q44 383 43 382 Q44 382 44 381 Q44 379 44.5 378 Q45 377 45 376 Q60 381 73 381 Q84 381 89 375 Q97 366 94 356 Q89 344 77 342 Q65 340 54 343 Q48 345 42 348.5 Q36 352 33 357 Q19 347 8 334 Q-3 321 -12 307 Q-18 296 -23 277.5 Q-28 259 -27.5 241.5 Q-27 224 -19 211 Q-11 198 10 198 Q33 198 55 205.5 Q77 213 94 227 Q113 240 123.5 260.5 Q134 281 128 304 Q126 312 125 315 Q124 317 123.5 318.5 Q123 320 122 321 Q121 323 119 322 Q107 319 100 313 Q90 306 84 295 Q84 293 83 290 Q82 287 81 285 Q78 280 77 279 Q72 277 71 281 Q70 284 72 288 Q74 292 75 294 Q80 303 85.5 310.5 Q91 318 99 323 Q108 328 118 330.5 Q128 333 139 336 Q150 338 160.5 342 Q171 346 181 353 Q189 358 196.5 366 Q204 374 206 385 Q206 390 204 393 L202 395 Q202 398 204 398 Q205 400 206.5 400 Q208 400 209 399 L210 398 Z M86 364 Q85 370 80 372 Q75 374 69 373 Q63 372 56.5 370 Q50 368 46 367 Q49 357 60 352 Q65 350 71 350 Q77 350 82 353 Q84 354 86 358 L86 362 L86 364 Z " />
<glyph glyph-name="percent" unicode="&#x25;" horiz-adv-x="274" d="M232 502 Q235 505 237 501 Q239 497 236 494 Q235 493 235 492.5 Q235 492 234 491 Q169 414 105 337.5 Q41 261 -24 183 Q-27 180 -29.5 183 Q-32 186 -28 190 Q-28 192 -27 193 Q37 271 101.5 347.5 Q166 424 232 502 Z M11 369 Q5 376 2 388 Q-1 400 2 417 Q7 437 22.5 456 Q38 475 56 486 Q60 488 66.5 491.5 Q73 495 81 496.5 Q89 498 98 497 Q107 496 115 490 Q123 484 128.5 472.5 Q134 461 130 442 Q125 413 104 393.5 Q83 374 64 364 Q56 361 43 358 Q30 355 18 362 Q14 364 12 369 L11 369 Z M21 388 Q21 385 22.5 376.5 Q24 368 33 367 L36 367 L37 367 Q40 367 42.5 367.5 Q45 368 47 368 Q51 370 53.5 370.5 Q56 371 60 373 Q75 382 82.5 393.5 Q90 405 92 409 Q94 416 97 422.5 Q100 429 102 436 L102 437 L102 441 Q107 460 105 469 Q103 478 102 480 Q101 482 99 485 Q97 488 95 489 Q90 490 82 488 Q80 487 77 485.5 Q74 484 72 483 Q69 481 62 476 Q55 471 47 460 Q47 459 46 459 Q39 447 33.5 436 Q28 425 26 420 Q25 415 23 406.5 Q21 398 21 390 L21 389 L21 388 Z M188 319 Q197 314 202.5 302.5 Q208 291 204 271 Q199 243 178.5 223.5 Q158 204 138 194 Q131 191 117 187.5 Q103 184 92 192 Q90 193 85 198 Q79 206 76 218 Q73 230 78 247 Q81 267 96.5 285.5 Q112 304 130 316 Q133 318 139.5 321.5 Q146 325 154.5 326.5 Q163 328 171.5 327 Q180 326 188 319 Z M177 270 Q181 290 179.5 299 Q178 308 177 310 Q175 312 173 314.5 Q171 317 169 318 Q164 319 156 317 Q154 316 151 315 Q148 314 146 313 Q144 311 136.5 305.5 Q129 300 121 289 L121 288 Q113 276 108 265.5 Q103 255 102 250 Q100 245 98 236.5 Q96 228 95 220 L95 218 Q95 214 96.5 205.5 Q98 197 107 196 L109 196 L110 196 L112 196 Q115 196 117 196.5 Q119 197 121 197 Q124 199 127.5 200 Q131 201 133 204 Q149 212 156.5 223.5 Q164 235 166 239 Q173 252 176 266 L176 267 Q176 269 177 270 Z " />
<glyph glyph-name="numbersign" unicode="&#x23;" horiz-adv-x="301" d="M259 409 Q261 409 259 407 Q258 402 251.5 402 Q245 402 242 402 Q232 402 222.5 401.5 Q213 401 203 401 Q197 380 191 359 Q185 338 178 317 L229 317 Q235 317 233 311 Q232 306 224.5 306.5 Q217 307 215 306 Q205 306 195.5 306 Q186 306 175 305 Q169 286 163 268 Q157 250 151 231 Q150 227 149 223 Q148 219 147 214 Q145 208 140 208 Q135 208 131 212 Q129 214 130 216 Q137 239 144.5 261 Q152 283 159 305 L63 305 Q58 286 52 267.5 Q46 249 40 231 Q38 227 37.5 223 Q37 219 35 214 Q33 208 28.5 208 Q24 208 19 212 Q19 213 18.5 213.5 Q18 214 19 216 Q26 239 33 261 Q40 283 47 305 L8 305 Q5 305 2 307 Q-1 309 1 314 Q3 320 7 320 Q18 319 29.5 319 Q41 319 52 319 Q58 339 65 360 Q72 381 78 401 L35 401 Q32 401 28.5 403 Q25 405 27 409 Q31 416 34 415 L83 415 Q89 434 95 453 Q101 472 108 492 Q109 495 113 495 Q116 494 116 491 Q116 488 116 486 Q115 481 114 477.5 Q113 474 112 470 Q108 456 104.5 442 Q101 428 97 414 Q121 414 145.5 413.5 Q170 413 193 413 Q200 433 206.5 452.5 Q213 472 219 492 Q220 495 225 495 Q227 494 227.5 491 Q228 488 228 486 Q226 481 225.5 477 Q225 473 223 469 Q219 455 215.5 441 Q212 427 207 413 Q219 412 231.5 412 Q244 412 255 412 Q259 412 259 409 Z M92 401 Q86 380 80 359.5 Q74 339 68 319 Q91 318 115 318 Q139 318 163 317 Q170 338 176.5 359 Q183 380 189 401 L92 401 Z " />
<glyph glyph-name="exclam" unicode="&#x21;" horiz-adv-x="121" d="M90 645 Q102 648 110 648.5 Q118 649 123 648 Q128 647 131 645 Q96 525 68 432 Q56 392 44 354 Q32 316 22 286 Q12 256 5 238 Q-2 220 -5 220 Q-8 220 -5 238.5 Q-2 257 4 287 Q10 317 18.5 355 Q27 393 37 433 Q59 526 90 645 Z M0 160 Q0 155 -3 151 Q-6 147 -14 147 Q-22 147 -24.5 150 Q-27 153 -28 157 Q-29 161 -27 167 Q-25 172 -21.5 173.5 Q-18 175 -14 175 Q-13 175 -7 173 Q-1 171 -1 162 Q0 161 0 160 Z " />
<glyph glyph-name="quotesingle" unicode="&#x27;" horiz-adv-x="86" d="M97 652 Q100 644 97 633 Q94 622 87.5 612 Q81 602 71 595 Q61 588 51 588 Q48 588 47.5 593 Q47 598 52 599 Q56 601 59.5 606 Q63 611 64 616 Q59 619 58.5 626 Q58 633 61 641 Q64 653 76 655.5 Q88 658 97 652 Z " />
<glyph glyph-name="grave" unicode="&#x60;" horiz-adv-x="68" d="M88 611 Q91 609 90.5 606.5 Q90 604 88 603 Q79 598 70.5 604.5 Q62 611 55 616 Q49 623 43.5 632 Q38 641 43 651 Q46 656 51.5 660 Q57 664 64 661 Q71 658 73 653 Q76 645 76 643 Q76 639 75.5 636.5 Q75 634 76 632 Q76 626 79 619.5 Q82 613 88 611 Z " />
<glyph glyph-name="asciicircum" unicode="&#x5e;" horiz-adv-x="129" d="M134 562 Q136 558 132.5 557.5 Q129 557 127 560 Q121 576 117.5 592.5 Q114 609 111 626 Q100 619 91.5 610 Q83 601 74 592 Q63 582 53 572 Q43 562 33 551 Q30 548 25.5 548 Q21 548 18 551 Q12 560 19 568 Q29 579 39 589 Q49 599 60 609 Q73 624 87 636 L88 636 Q88 637 89 638 Q103 649 109 642.5 Q115 636 117 629 Q117 627 117.5 626 Q118 625 118 623 Q121 608 124.5 592.5 Q128 577 134 562 Z " />
<glyph glyph-name="asciitilde" unicode="&#x7e;" horiz-adv-x="254" d="M181 355 Q185 356 189.5 355.5 Q194 355 193 350 Q192 345 187 342.5 Q182 340 179 339 Q165 333 152 333 Q144 332 135.5 332.5 Q127 333 119 336 Q115 338 111 339.5 Q107 341 103 344 Q98 348 90 351 Q76 354 63 348.5 Q50 343 39 336 Q36 334 33.5 332.5 Q31 331 27 333 Q20 335 20 341.5 Q20 348 24 352 Q24 354 26 354 Q34 357 41 359.5 Q48 362 56 364 Q68 366 81 367 Q94 368 105 362 Q109 360 111.5 358 Q114 356 117 354 Q127 350 132 349 Q147 347 161 350 Q170 351 181 355 Z " />
<glyph glyph-name="dollar" unicode="&#x24;" horiz-adv-x="277" d="M177 543 Q180 542 186.5 539.5 Q193 537 199 532.5 Q205 528 210 521 Q215 514 215 504 Q216 500 212 500 Q208 500 206 504 L206 505 L206 507 Q204 516 198 521.5 Q192 527 186 530 Q179 534 171 536 Q166 521 162.5 506 Q159 491 155 476 Q152 467 149.5 458 Q147 449 144 440 Q158 417 172 389.5 Q186 362 195 339 Q198 334 203 313.5 Q208 293 203 273 Q204 270 202 268 L202 267 L202 266 Q198 255 191.5 243 Q185 231 174 220 Q163 208 150 201.5 Q137 195 125.5 192 Q114 189 104.5 188.5 Q95 188 92 188 L91 188 Q81 188 77 189 Q70 166 63.5 143.5 Q57 121 52 98 Q50 93 45.5 94.5 Q41 96 43 100 L67 190 Q52 193 37.5 199 Q23 205 11 214 Q-9 229 -19 253 Q-29 277 -27 302 Q-26 307 -21.5 305.5 Q-17 304 -18 300 Q-20 277 -10.5 254.5 Q-1 232 19 219 Q42 204 70 199 Q72 208 75 217.5 Q78 227 80 236 Q92 279 103.5 321 Q115 363 126 405 Q122 413 118 419.5 Q114 426 110 434 Q107 439 105.5 442.5 Q104 446 102 449 Q94 466 94.5 479.5 Q95 493 98.5 503 Q102 513 108 520 Q114 527 118 531 Q119 531 119 531.5 Q119 532 120 532 L121 533 Q122 534 122.5 534 Q123 534 124 535 Q141 545 159 546 Q162 546 163 545 Q168 563 173 580.5 Q178 598 183 616 Q185 620 189 619 Q193 618 192 613 Q187 596 182 578.5 Q177 561 172 544 L175 544 L177 543 Z M173 312 Q166 330 155.5 350.5 Q145 371 132 394 Q118 344 105 295.5 Q92 247 79 197 Q84 197 89 196.5 Q94 196 99 197 Q113 198 123 203 Q133 208 136 211 Q146 218 152.5 226.5 Q159 235 165 244 Q166 245 166 246 Q166 247 167 248 Q168 250 168 251 Q168 252 169 253 Q174 263 175.5 273 Q177 283 176.5 291 Q176 299 174.5 304.5 Q173 310 173 312 Z M139 454 Q144 475 150 495.5 Q156 516 162 537 Q160 537 158.5 536.5 Q157 536 155 536 Q141 534 129 527 Q126 525 121.5 520.5 Q117 516 116 509 Q116 508 116.5 507.5 Q117 507 117 506 L117 504 Q119 498 122 488 Q125 478 133 464 Q135 462 136 459 Q137 456 139 454 Z " />
<glyph glyph-name="asterisk" unicode="&#x2a;" horiz-adv-x="136" d="M151 602 Q152 600 151 599 Q151 597 148 595.5 Q145 594 143 594 Q134 592 124 592.5 Q114 593 104 594 L97 594 Q102 581 107 565 Q108 562 109.5 554 Q111 546 105 544 Q100 543 97 549.5 Q94 556 92 560 Q90 567 88.5 573 Q87 579 85 585 Q74 570 63 557 Q62 556 59.5 553 Q57 550 54 548 Q51 546 48 545 Q45 544 43 547 Q41 549 42.5 551.5 Q44 554 45 556 Q49 563 55 569 Q64 581 75 592 Q67 592 60 591.5 Q53 591 45 592 Q42 592 33 592.5 Q24 593 26 599 Q26 602 29 603 Q32 604 34 604 Q38 606 41.5 606 Q45 606 48 606 L79 606 Q79 608 78 609 Q76 613 74.5 617 Q73 621 71 625 Q70 630 69 634.5 Q68 639 68 644 Q68 646 68.5 649.5 Q69 653 71 654 Q76 654 80 648 Q85 640 86.5 631 Q88 622 90 614 L90 612 Q90 611 91 611 Q94 616 97 620 Q100 624 104 629 Q109 636 115.5 643 Q122 650 131 654 L132 654 L133 654 Q136 652 135 649 Q134 646 133 644 Q128 634 120.5 626 Q113 618 105 610 Q103 609 103 608 Q103 607 101 606 Q108 607 114 607.5 Q120 608 127 607 Q132 607 139 607 Q146 607 151 602 Z " />
<glyph glyph-name="parenleft" unicode="&#x28;" horiz-adv-x="82" d="M137 619 Q139 617 136 614 Q132 610 129.5 605.5 Q127 601 124 597 Q97 560 76 518 Q55 476 39 431 Q14 358 0 279 Q-5 245 -8 212 Q-11 179 -11 145 Q-11 125 -9.5 105.5 Q-8 86 -6 66 Q-4 60 -3.5 53 Q-3 46 -1 40 Q1 37 -2 35.5 Q-5 34 -6 37 Q-8 40 -9 43 Q-10 46 -11 51 Q-15 61 -18.5 71 Q-22 81 -24 92 Q-29 115 -31 140 Q-33 165 -32 189 Q-33 227 -29 265 Q-25 303 -17 340 Q-6 400 16.5 454 Q39 508 72 554 Q81 568 92 580.5 Q103 593 114 604 Q119 609 123 613 Q127 617 133 620 Q135 623 137 619 Z " />
<glyph glyph-name="parenright" unicode="&#x29;" horiz-adv-x="142" d="M79 568 Q90 510 85 450.5 Q80 391 63 334 Q53 298 40 263 Q27 228 11 196 Q0 173 -13 150.5 Q-26 128 -41 108 Q-58 82 -81 61 Q-89 53 -97 49 Q-99 47 -101 49.5 Q-103 52 -101 55 Q-96 59 -92 64 Q-88 69 -83 74 Q-55 111 -34.5 153 Q-14 195 3 239 Q28 305 43.5 374 Q59 443 63 515 Q63 535 63 554.5 Q63 574 61 594 Q60 601 59 608 Q58 615 56 622 Q54 626 59 626 Q61 628 63 625 L63 624 Q69 611 72.5 596.5 Q76 582 79 568 Z " />
<glyph glyph-name="underscore" unicode="&#x5f;" horiz-adv-x="227" d="M169 233 Q173 233 173 228 Q170 223 169 217 Q167 212 163 212 L93 212 L-52 212 Q-57 212 -55 217 Q-54 223 -51 228 Q-51 229 -50 230 Q-50 233 -46 233 L24 233 L169 233 L169 233 Z " />
<glyph glyph-name="hyphen" unicode="&#x2d;" horiz-adv-x="207" d="M157 353 Q159 353 160.5 352 Q162 351 161 349 L161 340 Q161 336 156 336 L30 336 Q25 336 25 340 Q26 343 26 349 L26 350 Q27 353 31 353 L157 353 L157 353 Z " />
<glyph glyph-name="plus" unicode="&#x2b;" horiz-adv-x="252" d="M194 350 Q199 350 199 346 Q199 344 198 341.5 Q197 339 197 337 Q197 333 193 333 L146 333 L100 333 L73 228 Q71 225 68 225 L60 225 Q57 225 57 231 Q63 253 68.5 274.5 Q74 296 80 318 Q81 322 82 325.5 Q83 329 84 333 L-2 333 Q-4 333 -5.5 334 Q-7 335 -6 337 Q-6 339 -5.5 341.5 Q-5 344 -5 346 Q-5 346 -4 347 Q-4 350 0 350 L46 350 L88 350 Q96 377 102.5 404 Q109 431 116 457 Q119 461 121 461 L129 461 Q134 461 132 455 Q126 433 120.5 411.5 Q115 390 109 367 Q108 363 107 359 Q106 355 105 350 L194 350 L194 350 Z " />
<glyph glyph-name="equal" unicode="&#x3d;" horiz-adv-x="274" d="M207 385 Q211 385 211 380 L211 372 Q209 367 206 367 L160 367 L11 367 Q7 367 7 372 L7 380 Q7 381 7.5 381 Q8 381 8 382 Q8 385 12 385 L58 385 L207 385 Z M194 317 Q199 317 199 312 Q199 310 198.5 308 Q198 306 198 304 Q198 299 194 299 L148 299 L-1 299 Q-2 299 -3 300 Q-6 300 -6 304 Q-5 307 -5 312 Q-5 317 0 317 L45 317 L194 317 Z " />
<glyph glyph-name="braceleft" unicode="&#x7b;" horiz-adv-x="145" d="M149 592 Q149 590 148 589 Q146 587 145 589 Q144 589 144 590 L143 590 Q142 591 141 591 L140 592 L139 592 L137 592 Q133 592 131 590 Q119 585 112 567 Q105 549 100 534 Q94 517 90 498.5 Q86 480 81 463 Q77 448 73 434 Q69 420 63 406 Q55 390 45.5 376 Q36 362 24 352 Q22 350 19.5 348.5 Q17 347 15 345 Q27 336 29.5 315 Q32 294 30 274 Q28 260 25.5 247 Q23 234 20 221 Q15 203 10 185 Q5 167 1 149 Q-9 121 -14 88 Q-19 66 -19 48 Q-17 37 -14.5 27 Q-12 17 -6 12 Q-4 11 -2 11 Q2 9 2 9 L3 9 L5 9 Q7 9 6.5 5 Q6 1 4 1 Q-6 -1 -17.5 4.5 Q-29 10 -37 22 Q-48 38 -48.5 61 Q-49 84 -45 106 Q-38 132 -28.5 157.5 Q-19 183 -10 207 Q-5 219 -1.5 231 Q2 243 6 255 Q9 266 12.5 276 Q16 286 19 297 Q20 305 20 312.5 Q20 320 18 327 Q14 335 9 338.5 Q4 342 -1 344 Q-2 345 -2 348 Q-2 351 -1 352 Q0 353 1.5 354 Q3 355 5 358 Q16 367 24 382 Q38 405 44.5 432 Q51 459 56 487 Q59 502 61.5 516.5 Q64 531 70 545 Q77 566 88 581 Q105 603 128 603 Q132 603 135 602.5 Q138 602 142 600 Q144 600 146.5 598 Q149 596 149 592 Z " />
<glyph glyph-name="braceright" unicode="&#x7d;" horiz-adv-x="187" d="M74 351 Q66 328 63 309 Q62 301 62.5 293.5 Q63 286 67 279 Q72 271 79 268 Q86 265 93 263 Q96 263 95.5 260 Q95 257 93 256 Q93 256 91 254 L90 254 Q89 254 89 253 Q87 252 86.5 251.5 Q86 251 84 250 Q78 245 72.5 238 Q67 231 63 223 Q51 200 44.5 173 Q38 146 36 118 Q34 93 28 68 Q22 43 6 25 Q-13 2 -40 1 Q-49 1 -56 4 Q-58 5 -61 6.5 Q-64 8 -64 12 L-64 14 Q-64 15 -63 15 Q-62 16 -60 15 Q-58 15 -58 14 L-57 14 Q-56 13 -55 13 Q-53 12 -53 12 L-49 12 Q-47 12 -42 15 Q-33 20 -27 31 Q-21 40 -17.5 51 Q-14 62 -10 73 Q-5 90 -3 108.5 Q-1 127 4 144 Q10 173 22 200 Q30 217 39.5 231 Q49 245 61 254 Q64 256 66.5 258 Q69 260 72 261 Q58 271 52.5 293 Q47 315 48 335 Q50 362 57 389 Q60 406 65.5 424 Q71 442 76 460 Q81 475 84 489.5 Q87 504 89 519 Q90 529 90.5 539 Q91 549 89 558 Q86 582 71 591 Q61 595 58 594 Q55 594 55 598 Q55 602 58 602 Q71 604 85 599.5 Q99 595 110 583 Q124 568 126 545 Q128 522 125 501 Q120 474 111.5 449 Q103 424 93 399 Q88 387 83.5 375 Q79 363 74 351 Z " />
<glyph glyph-name="bracketleft" unicode="&#x5b;" horiz-adv-x="142" d="M136 618 Q139 618 139 613 L139 607 Q138 604 136 604 L98 604 Q95 589 91.5 573.5 Q88 558 83 544 Q75 509 67 475.5 Q59 442 51 407 Q40 368 31 328 Q22 288 12 247 Q4 215 -4 181.5 Q-12 148 -20 116 Q-23 103 -26 90.5 Q-29 78 -32 66 L-4 66 Q-1 66 -1 62 L-1 57 Q-1 53 -4 53 L-62 53 Q-64 53 -65 54.5 Q-66 56 -65 57 L-65 60 Q-60 77 -56 95 Q-52 113 -47 131 Q-39 166 -30.5 201 Q-22 236 -13 271 Q-4 309 5.5 349 Q15 389 25 430 Q33 462 41.5 495.5 Q50 529 58 561 Q61 574 63.5 587.5 Q66 601 71 614 Q71 615 71.5 615 Q72 615 72 616 Q72 618 74 618 L136 618 L136 618 Z " />
<glyph glyph-name="bracketright" unicode="&#x5d;" horiz-adv-x="167" d="M142 607 Q146 607 144 602 Q144 601 143.5 601 Q143 601 143 600 Q138 583 134.5 565.5 Q131 548 127 530 Q119 495 110.5 461.5 Q102 428 93 394 Q83 353 74.5 314.5 Q66 276 55 237 Q48 205 40.5 172.5 Q33 140 25 107 Q21 94 17.5 80.5 Q14 67 12 55 Q10 52 10 52 L-54 52 Q-55 52 -55 53 Q-55 56 -55 56 L-55 61 Q-55 62 -54 63 L-16 63 L-16 64 Q-12 78 -8.5 93 Q-5 108 -2 123 Q7 156 14.5 189.5 Q22 223 29 256 Q39 294 48.5 334 Q58 374 68 412 Q76 445 84 477 Q92 509 99 543 Q103 556 105.5 568 Q108 580 111 593 L83 593 Q80 593 80 597 Q80 601 81 602 L81 604 Q84 607 83 607 L142 607 L142 607 Z " />
<glyph glyph-name="bar" unicode="&#x7c;" horiz-adv-x="150" d="M79 697 Q83 697 83 693 L83 692 Q81 672 79 651.5 Q77 631 75 611 Q71 568 67.5 526 Q64 484 60 442 Q55 392 50.5 343.5 Q46 295 41 245 L26 83 Q24 66 23 49 Q22 32 20 15 Q20 10 15 10 L9 10 Q4 10 4 15 L4 16 Q6 36 8 56.5 Q10 77 12 97 Q16 139 20 181.5 Q24 224 28 266 Q33 316 37.5 364.5 Q42 413 47 463 L62 625 Q64 642 65.5 659 Q67 676 69 693 L69 694 Q69 697 73 697 L79 697 L79 697 Z " />
<glyph glyph-name="backslash" unicode="&#x5c;" horiz-adv-x="223" d="M171 28 Q173 22 167 22 L160 22 Q157 22 155 26 L155 28 Q150 48 146 67.5 Q142 87 138 107 Q130 146 122 185 Q114 224 106 263 Q96 308 87 352 Q78 396 69 441 Q62 478 54.5 514 Q47 550 39 588 L27 648 Q27 648 27 650 Q27 653 31 653 L41 653 Q45 653 45 650 Q45 649 46 648 Q51 628 54.5 608.5 Q58 589 62 569 Q70 530 77.5 491.5 Q85 453 93 413 Q103 368 112 324 Q121 280 129 235 Q137 198 144.5 162 Q152 126 159 88 L171 28 L171 28 Z " />
<glyph glyph-name="colon" unicode="&#x3a;" horiz-adv-x="125" d="M57 351 Q55 343 48.5 337.5 Q42 332 34 334 Q15 336 22 352 Q24 359 29 364.5 Q34 370 42 370 Q51 373 56 368 Q61 361 57 351 Z M21 298 Q30 300 34 295 Q39 288 36 278 Q36 278 35 277 Q33 270 27 265 Q21 260 13 261 Q-5 264 1 280 Q3 287 8 292 Q13 297 21 298 Z " />
<glyph glyph-name="semicolon" unicode="&#x3b;" horiz-adv-x="136" d="M44 301 Q45 301 45 300 Q50 296 47.5 289 Q45 282 42 277 Q38 272 34.5 266 Q31 260 27 258 Q22 256 16.5 252.5 Q11 249 8 249 Q4 249 3.5 253 Q3 257 8 258 Q10 259 13 262.5 Q16 266 18 269 Q10 276 13 289 Q18 297 27 301 Q36 305 44 301 Z M70 367 Q71 358 66.5 350.5 Q62 343 54 340 Q48 337 40 339.5 Q32 342 32 350 Q34 366 48 372 Q54 376 62 376 Q70 376 70 368 L70 367 Z " />
<glyph glyph-name="quotedbl" unicode="&#x22;" horiz-adv-x="109" d="M122 645 Q126 638 125 631 Q124 624 120.5 617 Q117 610 111 603.5 Q105 597 101 593 Q96 591 89.5 586.5 Q83 582 77 582 Q73 582 72.5 587 Q72 592 76 592 Q88 597 91 608 Q79 616 84 632 Q88 642 100.5 647.5 Q113 653 122 645 Z M72 645 Q78 632 69 616.5 Q60 601 49 592 Q44 590 38.5 586 Q33 582 27 582 Q22 582 21.5 587 Q21 592 26 592 Q35 597 40 608 Q27 616 34 632 Q36 642 49.5 647.5 Q63 653 72 645 Z " />
<glyph glyph-name="less" unicode="&#x3c;" horiz-adv-x="195" d="M146 419 Q150 416 151.5 410.5 Q153 405 148 400 Q146 398 144 396.5 Q142 395 140 393 Q132 385 123.5 377 Q115 369 107 361 Q95 349 82.5 337 Q70 325 57 313 Q64 305 69.5 297.5 Q75 290 81 282 Q90 268 98 252.5 Q106 237 104 220 Q103 215 98 214 Q93 213 92 218 Q90 231 85 242.5 Q80 254 74 264 Q60 287 39 302.5 Q18 318 -9 323 L-11 323 Q-16 325 -15 329 Q-15 333 -12 335 Q26 356 63 377.5 Q100 399 138 420 Q142 423 146 419 Z " />
<glyph glyph-name="greater" unicode="&#x3e;" horiz-adv-x="195" d="M137 332 Q137 328 135 326 Q103 300 73.5 273.5 Q44 247 13 221 Q9 217 7 220 Q3 222 0 227 Q-3 232 2 237 Q4 239 5 241 Q6 243 8 245 Q16 254 24 263 Q32 272 39 281 Q52 295 63.5 308 Q75 321 88 335 Q71 347 59 361 Q47 372 36.5 385.5 Q26 399 25 416 Q25 421 29.5 423.5 Q34 426 36 421 Q47 389 74 367 Q101 345 133 336 Q137 335 137 332 Z " />
<glyph glyph-name="comma" unicode="&#x2c;" horiz-adv-x="133" d="M25 247 Q31 242 27.5 233 Q24 224 21 218 Q16 212 12 206 Q8 200 2 195 Q-3 192 -8.5 189 Q-14 186 -20 187 Q-23 187 -23.5 190.5 Q-24 194 -21 195 Q-15 195 -11 201 Q-7 207 -5 212 Q-12 214 -12 221 Q-14 223 -13.5 227.5 Q-13 232 -12 236 Q-8 244 4 249 Q16 254 24 247 L25 247 L25 247 Z " />
<glyph glyph-name="period" unicode="&#x2e;" horiz-adv-x="129" d="M19 254 Q21 250 21 245 Q21 240 19 235 L19 234 Q13 213 -10 213 Q-27 218 -21 237 Q-14 256 3 259 Q7 259 11.5 259 Q16 259 19 254 Z " />
<glyph glyph-name="question" unicode="&#x3f;" horiz-adv-x="235" d="M17 158 Q21 158 24.5 157.5 Q28 157 30 152 Q32 148 31.5 143.5 Q31 139 31 134 L31 133 Q24 113 8 114 Q1 115 -1.5 121 Q-4 127 -2 135 Q1 143 5.5 149.5 Q10 156 17 158 Z M199 590 Q213 576 219.5 555.5 Q226 535 225 512 Q223 481 210.5 453.5 Q198 426 181 403 Q152 361 117.5 328.5 Q83 296 50 263 Q44 258 38.5 252 Q33 246 29 240 Q27 238 26 235.5 Q25 233 23 230 L21 228 L21 227 Q21 226 20 225 L20 223 Q20 214 25 209.5 Q30 205 37 204 Q44 203 51 204.5 Q58 206 62 208 Q64 209 66 206 Q68 203 66 201 Q64 197 63 196.5 Q62 196 59 195 Q51 193 43.5 193 Q36 193 29 195 Q20 199 14.5 207.5 Q9 216 11 227 Q13 238 18 246.5 Q23 255 28 263 Q45 290 65 313.5 Q85 337 105 360.5 Q125 384 143.5 408.5 Q162 433 177 463 Q184 477 189 491.5 Q194 506 194 523 Q195 535 192.5 546.5 Q190 558 184 567 Q175 579 163.5 584.5 Q152 590 141 591 Q127 592 114 590 Q101 588 89 582 Q72 572 58.5 555 Q45 538 36 517 Q31 507 28 495 Q27 492 27 490 Q25 487 23 486 Q21 485 20 487 Q18 489 18 492 Q18 495 19 497 Q24 521 36 541.5 Q48 562 63 577 Q79 591 97 599.5 Q115 608 135 610 Q152 612 168.5 607.5 Q185 603 199 590 Z " />
<glyph glyph-name="slash" unicode="&#x2f;" horiz-adv-x="145" d="M134 649 Q138 649 138 644 L135 635 Q128 613 120.5 591 Q113 569 105 546 Q93 507 80.5 468.5 Q68 430 55 391 Q42 349 28.5 307 Q15 265 1 222 Q-11 188 -21.5 154 Q-32 120 -43 85 Q-48 71 -53 57.5 Q-58 44 -62 30 Q-63 26 -67 27 Q-71 27 -72 28 Q-74 28 -75 29.5 Q-76 31 -75 32 Q-73 38 -73 41 Q-66 63 -58.5 85 Q-51 107 -44 130 Q-31 168 -18.5 206.5 Q-6 245 6 283 Q19 326 33 368 Q47 410 61 453 Q72 487 83 521 Q94 555 105 590 Q109 604 114 617.5 Q119 631 124 645 Q124 647 125 647 Q125 649 127 649 L134 649 L134 649 Z " />
<glyph glyph-name="at" unicode="&#x40;" horiz-adv-x="312" d="M276 480 Q281 465 279.5 447.5 Q278 430 273 415 Q270 406 267 398 Q264 390 261 381 Q256 370 252 360.5 Q248 351 242 340 Q235 324 226 308.5 Q217 293 208 278 Q207 277 203 270.5 Q199 264 192 256 Q185 248 176.5 240 Q168 232 159 228 Q144 222 137 226 Q130 230 128 234 L127 234 Q118 251 127 284.5 Q136 318 152 353 Q147 345 142 338 Q137 331 132 325 Q115 302 97 284 Q88 273 78 268 Q72 265 67 265 Q51 265 48 275.5 Q45 286 46 297 Q47 306 52.5 320 Q58 334 58 335 Q62 343 67 352.5 Q72 362 77 373 Q97 407 113.5 426 Q130 445 145 456 Q150 461 156.5 463.5 Q163 466 169 468 Q178 471 187 471 Q196 471 205 469 Q210 469 208.5 465 Q207 461 203 462 Q193 463 182 462 L180 462 Q169 460 161.5 454.5 Q154 449 152 446 Q141 435 132.5 420.5 Q124 406 117 393.5 Q110 381 106 372 Q102 363 102 362 Q89 333 83 310 Q77 287 82 285 Q84 283 90 289 Q96 295 104.5 305.5 Q113 316 123 329.5 Q133 343 143 358 Q146 361 148 365 L181 414 Q182 416 182.5 416.5 Q183 417 184 419 Q188 424 192 430.5 Q196 437 204 442 Q207 445 209 446 Q210 446 212 448 Q214 450 216.5 451 Q219 452 221 453 L225 455 L217 441 Q206 424 191 395 Q176 366 164 335.5 Q152 305 147.5 279.5 Q143 254 154 244 Q161 237 170 244 Q179 251 190 265 Q192 270 195 274 Q198 278 201 283 Q205 290 209 297.5 Q213 305 218 313 Q228 331 237 350.5 Q246 370 254 389 Q255 391 255.5 392.5 Q256 394 257 395 Q261 405 263.5 414.5 Q266 424 268 433 Q270 444 270.5 457.5 Q271 471 266 482 Q263 488 259 491 L258 492 Q250 500 235.5 502.5 Q221 505 213 506 L208 506 Q201 506 195 505.5 Q189 505 182 504 Q171 503 161.5 501 Q152 499 143 497 Q117 490 102 481.5 Q87 473 85 472 Q62 455 46 434.5 Q30 414 20.5 392 Q11 370 6.5 349.5 Q2 329 1 314 Q-1 283 8 249.5 Q17 216 43 195 Q46 192 54 188 Q62 184 74 181 Q98 176 120 178 Q182 180 225 220 Q227 222 230.5 219.5 Q234 217 231 214 Q209 192 180 181 Q151 170 119 168 L109 168 Q87 169 73 173 Q59 177 53 180 Q50 181 46 183 Q27 193 11 211 Q-5 229 -13.5 253 Q-22 277 -21.5 308 Q-21 339 -6 375 Q11 420 40 446.5 Q69 473 98.5 488 Q128 503 153 508 Q178 513 187 514 Q190 514 194 514.5 Q198 515 203 515 Q214 515 226.5 514.5 Q239 514 250 509 Q270 500 276 480 Z " />
<glyph glyph-name="j" unicode="j" horiz-adv-x="71" d="M73 382 Q75 386 79 385 Q83 384 81 379 Q73 359 59 340 Q45 321 31 304 Q23 296 16.5 288.5 Q10 281 2 273 Q-2 261 -6 250 Q-10 239 -12 231 Q-25 194 -41 156 Q-57 118 -76.5 85 Q-96 52 -118 27 Q-140 2 -164 -7 Q-167 -8 -175 -10 Q-188 -13 -197 -9 Q-207 -5 -212 3.5 Q-217 12 -219 22 Q-221 32 -220 43 Q-219 54 -216 63 Q-208 93 -190.5 119.5 Q-173 146 -151 168 Q-126 192 -98.5 211.5 Q-71 231 -42 249 Q-40 253 -39.5 256.5 Q-39 260 -37 264 Q-32 281 -22.5 309.5 Q-13 338 -7 357 Q-6 360 -4.5 364 Q-3 368 -1 373 Q1 377 2 383 L6 393 Q17 392 24 387 Q30 382 32 371.5 Q34 361 26 342 Q26 341 24 337 Q21 327 17 318 Q14 310 11.5 303 Q9 296 8 292 Q12 296 15.5 300 Q19 304 23 309 Q31 318 37.5 326.5 Q44 335 50 344 Q57 353 62.5 362 Q68 371 73 382 Z M-161 6 Q-145 19 -129 43.5 Q-113 68 -98.5 99.5 Q-84 131 -70.5 166.5 Q-57 202 -46 236 Q-59 228 -71 219.5 Q-83 211 -95 203 Q-127 180 -154 151.5 Q-181 123 -198 87 Q-202 78 -206.5 63.5 Q-211 49 -211.5 35.5 Q-212 22 -207 11 Q-202 0 -187 -3 Q-179 -4 -172 -0.5 Q-165 3 -161 6 Z M25 408 Q17 408 13.5 411.5 Q10 415 8 419 Q6 423 6 429 L6 431 Q8 439 13.5 444.5 Q19 450 27 450 Q35 450 41.5 443.5 Q48 437 48 427 Q48 418 41.5 411.5 Q35 405 27 405 Q22 405 20 406 Q21 407 22 407 Q25 407 25 408 Z " />
<glyph glyph-name="A" unicode="A" horiz-adv-x="357" d="M267 223 Q256 178 246.5 138.5 Q237 99 229 69 Q220 34 213 4 Q199 -50 185 -92 Q179 -110 172 -127.5 Q165 -145 158 -158.5 Q151 -172 144 -180.5 Q137 -189 130 -190 L129 -190 Q117 -190 116.5 -167.5 Q116 -145 121 -113.5 Q126 -82 135 -48 Q144 -14 150 9 Q150 10 150.5 11 Q151 12 151 13 Q155 26 157 34 Q162 47 166.5 61 Q171 75 176 89 Q183 106 189 123 Q194 137 200 152 Q206 167 211 178 Q212 179 212.5 180 Q213 181 214 182 Q216 187 219 193.5 Q222 200 222 201 Q226 216 229.5 231.5 Q233 247 236 262 Q205 260 174 260 Q143 260 111 265 Q106 266 100 266.5 Q94 267 88 269 Q65 233 40.5 197.5 Q16 162 -11 128 Q-38 95 -67 64.5 Q-96 34 -129 7 Q-197 -48 -280 -83 Q-321 -100 -363.5 -113 Q-406 -126 -450 -134 Q-469 -137 -487 -139.5 Q-505 -142 -524 -142 Q-542 -143 -560 -140 Q-578 -137 -595 -129 Q-625 -115 -642.5 -85.5 Q-660 -56 -665 -24 Q-671 10 -667.5 44.5 Q-664 79 -654 111 Q-645 142 -630.5 171.5 Q-616 201 -595 225 Q-570 254 -539.5 276.5 Q-509 299 -475 315 Q-405 348 -328 356 Q-251 364 -176 349 Q-131 340 -88.5 326.5 Q-46 313 -3 300 Q19 294 40.5 288.5 Q62 283 84 278 Q98 301 112 322.5 Q126 344 140 366 Q154 387 167 407 Q180 427 194 447 Q201 457 207.5 466 Q214 475 222 485 Q227 492 233 498.5 Q239 505 244 512 Q249 520 254.5 527 Q260 534 266 541 Q269 545 275 550 Q281 555 288.5 559 Q296 563 303.5 563.5 Q311 564 319 558 L321 556 Q329 547 333 523 Q337 499 324 448 Q322 440 321 437 Q316 416 310.5 394.5 Q305 373 299 350 Q298 345 297 340.5 Q296 336 294 331 Q294 328 292 322 Q291 318 289 308 Q287 300 286 297 Q284 292 283 286.5 Q282 281 281 276 L278 267 Q276 256 273 246 Q270 236 268 225 Q268 224 267 223 Z M-56 89 Q-18 131 15 176.5 Q48 222 79 270 Q43 278 8 288 Q-27 298 -62 309 Q-104 321 -144.5 332.5 Q-185 344 -228 348 Q-308 354 -382 338 Q-417 330 -451.5 316 Q-486 302 -516.5 282 Q-547 262 -573 236 Q-599 210 -617 178 Q-650 117 -658 47 Q-662 15 -657.5 -18 Q-653 -51 -636 -80 Q-626 -95 -613 -106.5 Q-600 -118 -583 -124 Q-566 -131 -547.5 -132.5 Q-529 -134 -510 -133 Q-468 -130 -427.5 -121 Q-387 -112 -347 -99 Q-304 -85 -263.5 -66 Q-223 -47 -185 -22 Q-149 1 -117 29 Q-85 57 -56 89 Z M203 113 Q204 119 206 128.5 Q208 138 211 150 Q202 130 193 105.5 Q184 81 177 63 Q174 54 171 44 Q169 36 166 26.5 Q163 17 161 9 Q159 1 157.5 -6 Q156 -13 154 -21 Q153 -21 153 -22 Q145 -53 138 -81 Q131 -109 127 -130.5 Q123 -152 122.5 -165 Q122 -178 126 -178 L127 -178 Q132 -178 141.5 -149 Q151 -120 161.5 -76 Q172 -32 183 18.5 Q194 69 203 113 Z M238 271 Q239 273 239 276 Q252 327 264 375 Q275 417 285 460.5 Q295 504 301 536 Q301 538 301.5 538.5 Q302 539 302 541 L302 543 Q304 555 299.5 555 Q295 555 288.5 550 Q282 545 275.5 538 Q269 531 268 530 Q265 525 262 521.5 Q259 518 256 514 Q248 503 240 493.5 Q232 484 224 473 Q204 447 183 415 Q160 381 138 346.5 Q116 312 93 277 Q113 273 133.5 271 Q154 269 175 269 Q191 268 206.5 268.5 Q222 269 238 271 Z " />
<glyph glyph-name="B" unicode="B" horiz-adv-x="416" d="M415 674 Q447 663 461 637.5 Q475 612 474 587 Q473 555 458.5 527.5 Q444 500 427 475 Q409 449 388.5 426 Q368 403 346 380 Q324 358 301 336.5 Q278 315 254 295 Q288 278 295.5 242.5 Q303 207 292.5 163 Q282 119 257.5 69.5 Q233 20 203.5 -26 Q174 -72 144 -110.5 Q114 -149 93 -172 Q89 -176 81 -182 Q73 -188 63.5 -190 Q54 -192 44 -187.5 Q34 -183 26 -166 Q24 -160 23 -158 Q22 -156 22 -155 Q14 -128 19 -101 Q24 -65 41.5 -33 Q59 -1 81 28 Q88 37 95 45.5 Q102 54 110 63 Q111 65 112 66 Q113 67 114 69 Q109 71 105 74 Q101 77 96 80 Q82 89 70.5 99.5 Q59 110 47 121 L8 -30 Q-1 -27 -5 -13 Q-9 -1 -8 23.5 Q-7 48 4 94 L4 95 L15 138 L18 148 Q3 160 -12.5 169.5 Q-28 179 -45 187 Q-87 206 -135 212 Q-183 220 -232 219 Q-281 218 -329 211 Q-376 205 -421 192 Q-466 179 -508 156 Q-512 154 -514.5 158 Q-517 162 -513 164 Q-488 177 -462 187 Q-436 197 -409 204 Q-363 217 -315 222.5 Q-267 228 -219 228 Q-172 227 -126 220 Q-80 213 -37 193 Q-9 180 20 158 L125 581 Q139 579 150 570.5 Q161 562 156 541 Q168 554 180.5 566 Q193 578 206 589 Q223 603 240.5 616.5 Q258 630 277 641 Q287 647 297 651.5 Q307 656 317 661 Q322 663 330 667 Q337 669 343.5 671 Q350 673 358 675 Q371 678 386 678.5 Q401 679 415 674 Z M57 161 Q80 174 106 195.5 Q132 217 154 238 Q176 259 191 274.5 Q206 290 207 292 L205 292 L204 292 Q178 290 155.5 282 Q133 274 114 261 Q94 248 75 229 L63 182 L57 161 Z M30 -137 Q36 -171 49.5 -174.5 Q63 -178 84.5 -154 Q106 -130 134.5 -79.5 Q163 -29 199 45 Q183 45 170 48 Q146 52 125 63 L92 24 Q70 -5 52 -37.5 Q34 -70 30 -106 Q27 -121 30 -137 Z M203 55 Q206 61 209 67 Q212 73 215 80 Q234 123 245 155 Q233 157 216.5 147.5 Q200 138 183.5 123.5 Q167 109 153 94 Q139 79 131 70 Q154 59 178 55 Q190 53 203 55 Z M258 233 Q257 253 251 264.5 Q245 276 237 282 Q233 278 225 272 Q212 261 199 251.5 Q186 242 173 231 Q151 213 130 197 Q112 183 91 169.5 Q70 156 54 148 L50 131 Q63 119 76 107.5 Q89 96 103 86 Q112 80 120 76 Q126 84 132.5 90.5 Q139 97 146 104 Q157 116 169 127 Q181 138 195 147 Q206 155 220 162 Q234 169 248 166 Q253 180 255 192.5 Q257 205 258 214 L258 231 L258 232 L258 233 Z M391 509 Q410 539 417 561.5 Q424 584 422 601 Q422 607 420 615 L420 616 Q417 628 412 636 Q407 644 401 649 Q387 660 370.5 660.5 Q354 661 342 658 L341 658 Q337 657 334 656 Q331 655 329 654 Q328 654 327 653.5 Q326 653 325 653 Q323 652 321 651 Q319 650 317 649 Q296 639 280 630 Q261 619 244.5 606 Q228 593 211 579 Q195 565 180 550 Q165 535 151 518 Q146 498 138.5 471.5 Q131 445 123 414 Q121 405 118 394 Q116 384 112.5 371 Q109 358 105 341 L81 249 Q89 257 98 263 Q116 276 137.5 286 Q159 296 184 300 Q192 301 200.5 301.5 Q209 302 217 302 Q262 348 310 402.5 Q358 457 391 509 Z " />
<glyph glyph-name="C" unicode="C" horiz-adv-x="393" d="M402 637 Q402 630 401 622.5 Q400 615 395 605 L394 604 Q394 603 393 602 Q391 600 390 597.5 Q389 595 387 593 Q385 589 382.5 585.5 Q380 582 378 580 Q376 578 375 576.5 Q374 575 373 573 Q368 568 356 558.5 Q344 549 323 537 Q318 534 312.5 531 Q307 528 301 525 Q292 520 283.5 517 Q275 514 266 511 Q230 499 193 496 Q190 492 187.5 488.5 Q185 485 183 481 Q171 461 161 443 Q150 423 141 403 Q124 366 110 328.5 Q96 291 83 253 Q75 228 66.5 203.5 Q58 179 50 153 Q42 129 35.5 104.5 Q29 80 22 54 Q16 31 10.5 7 Q5 -17 1 -41 Q-3 -61 -5.5 -81 Q-8 -101 -8 -121 Q-8 -133 -6.5 -147 Q-5 -161 3 -172 Q8 -179 14.5 -180.5 Q21 -182 27.5 -180.5 Q34 -179 39.5 -176 Q45 -173 49 -170 Q59 -162 68 -152 Q77 -142 85 -132 Q100 -115 114.5 -98.5 Q129 -82 144 -65 Q173 -31 201 4.5 Q229 40 255 77 Q274 103 290 127 Q291 127 291 128 Q295 132 298 130 Q302 129 301 126.5 Q300 124 300 123 Q265 72 228 23 Q191 -26 150 -73 Q136 -90 121.5 -106.5 Q107 -123 92 -140 Q89 -144 83 -150 Q83 -151 82 -151 Q79 -154 76.5 -157 Q74 -160 71 -163 Q66 -168 61 -172 Q56 -176 51 -179 Q41 -186 28 -190 Q15 -194 1 -187 Q-5 -184 -10 -179 Q-11 -179 -11 -178 Q-23 -166 -28 -149 Q-33 -132 -35 -123 Q-39 -96 -37.5 -56.5 Q-36 -17 -26.5 36 Q-17 89 3 158 Q23 227 56 313 Q78 370 99 415.5 Q120 461 141 497 Q130 498 119.5 500 Q109 502 98 504 Q76 510 55.5 517 Q35 524 14 531 Q-7 539 -28 545 Q-49 551 -72 556 Q-114 565 -156 567.5 Q-198 570 -240 563 Q-284 556 -324 541 Q-364 526 -402 504 Q-406 502 -408.5 505.5 Q-411 509 -407 511 Q-356 542 -303 558 Q-222 583 -139 575 Q-117 573 -96 569.5 Q-75 566 -54 561 Q-32 556 -11 549 Q10 542 31 535 Q52 527 73 520.5 Q94 514 116 510 Q124 508 130.5 507 Q137 506 145 505 Q179 563 210 597.5 Q241 632 266.5 650 Q292 668 311 673.5 Q330 679 341 679 Q350 680 359 678 Q367 676 375 673 Q383 670 390 663 Q390 662 391 661 Q391 660 392 660 Q395 656 398 650.5 Q401 645 402 637 Z M203 506 Q229 509 252.5 516 Q276 523 299 534 Q343 556 359.5 576.5 Q376 597 381 607 Q386 619 385.5 626.5 Q385 634 383 638 Q382 641 379 644 Q376 647 368 646 Q367 645 363 645 Q362 644 361 644 Q351 641 338 635 Q325 629 308 618 Q303 614 277.5 594 Q252 574 222 536 Q217 529 211 521.5 Q205 514 199 506 L203 506 Z " />
<glyph glyph-name="D" unicode="D" horiz-adv-x="427" d="M357 669 Q391 666 411 647 Q420 638 426.5 625 Q433 612 435 592.5 Q437 573 433 547 Q429 521 417 486 Q401 439 373 371 Q345 303 309.5 228.5 Q274 154 234 80 Q194 6 155.5 -53 Q117 -112 82 -149 Q47 -186 21 -186 Q8 -186 3.5 -176 Q-1 -166 -2 -162 Q-6 -142 -2.5 -123 Q1 -104 6 -86 Q7 -83 8 -80 Q9 -77 10 -74 Q14 -61 19 -49.5 Q24 -38 29 -27 Q32 -17 36 -11 Q38 -6 40.5 -1.5 Q43 3 46 8 L49 14 Q52 19 55 23.5 Q58 28 61 33 L64 39 Q66 41 66.5 42.5 Q67 44 69 46 Q69 47 71.5 50 Q74 53 73 53 Q68 58 64.5 63 Q61 68 57 73 Q47 84 38 98 L16 14 Q8 17 4 30 Q1 41 1 65 Q1 89 12 134 Q10 138 7 141 Q4 144 1 148 Q-28 184 -61.5 215.5 Q-95 247 -133 273 Q-212 325 -300 355 Q-323 363 -346 368.5 Q-369 374 -393 376 Q-440 380 -488 365 Q-492 363 -493.5 367.5 Q-495 372 -490 374 Q-459 384 -425 386 Q-377 388 -332 375 Q-287 362 -244 343 Q-202 324 -162.5 301 Q-123 278 -87 249 Q-31 203 15 145 L23 178 L131 610 Q143 608 154 601.5 Q165 595 163 578 Q162 577 160.5 570.5 Q159 564 157 556 Q184 581 212.5 602.5 Q241 624 273 641 L274 642 Q287 649 300 655 Q318 663 342 668 Q346 669 357 669 Z M100 -93 Q119 -67 141.5 -30.5 Q164 6 191 57 Q177 43 158 34.5 Q139 26 118 29 Q98 30 80 47 Q77 42 74 37.5 Q71 33 68 28 Q68 27 67 27 Q63 20 59 12.5 Q55 5 51 -3 Q46 -14 41 -24 Q36 -34 31 -45 Q23 -63 16.5 -82 Q10 -101 7 -121 Q6 -130 5 -138 Q4 -145 4.5 -152.5 Q5 -160 7 -165 Q9 -174 17 -174 Q26 -174 45.5 -157.5 Q65 -141 100 -93 Z M211 114 Q213 123 213 133 Q213 143 211 152 Q207 164 198 167 Q190 168 181 165 Q171 162 163.5 156 Q156 150 149 142 Q135 128 120 108 Q111 95 102 81.5 Q93 68 85 54 L94 48 Q111 36 132 37 Q143 38 153 42 Q163 46 172 52 Q187 63 197 79.5 Q207 96 211 114 Z M316 331 Q338 388 351 432.5 Q364 477 370.5 510.5 Q377 544 378.5 568.5 Q380 593 379 610 Q378 612 378 614 Q378 616 377 619 Q376 626 375 631 Q374 636 372 641 Q364 655 353 657 Q342 659 337 657 Q321 654 307 648 Q293 642 280 634 L278 634 Q244 615 213 591 Q182 567 153 540 Q151 533 150 527 Q149 521 148 517 Q147 516 147 515 Q146 512 143.5 502 Q141 492 138 478 Q136 470 133.5 462.5 Q131 455 129 447 Q128 445 128 443 Q127 441 127 438.5 Q127 436 126 433 Q120 412 114.5 389.5 Q109 367 104 349 Q99 331 96 319.5 Q93 308 93 307 L87 287 Q86 282 85 277 Q84 272 82 267 L70 220 L65 201 Q64 197 63 193.5 Q62 190 61 187 L41 110 Q47 101 52.5 93 Q58 85 65 77 Q71 68 78 61 Q83 67 86.5 73.5 Q90 80 95 86 Q103 99 111.5 111 Q120 123 129 134 Q141 148 156 162 Q171 176 191 176 Q200 176 207.5 172 Q215 168 218 159 Q221 150 221.5 140.5 Q222 131 221 122 Q220 120 220 117.5 Q220 115 219 112 Q231 137 243.5 163.5 Q256 190 270 220 Q271 223 272 225.5 Q273 228 274 230 Q280 243 287.5 260 Q295 277 301 293 Q308 311 316 331 Z " />
<glyph glyph-name="E" unicode="E" horiz-adv-x="373" d="M377 672 Q392 665 398 656 Q404 647 406 638 Q408 627 405 616 Q405 614 404.5 613 Q404 612 404 610 Q403 607 399 601 L399 600 Q398 597 394 591 Q386 578 379 571 Q357 544 324.5 529.5 Q292 515 258 510 Q244 508 229.5 506.5 Q215 505 200 505 Q192 494 184 483 Q176 472 168 459 Q162 451 156 442.5 Q150 434 144 424 Q115 379 97 343.5 Q79 308 69.5 279.5 Q60 251 57 230 Q54 209 56 194 Q60 158 84 143 Q107 171 126.5 185 Q146 199 161 204 Q175 209 188.5 208.5 Q202 208 205 201 Q207 197 206 193 Q205 189 203 185 Q188 162 165 143 Q157 135 148 130 Q140 125 129.5 121 Q119 117 108 116 Q107 116 107 115 Q100 106 94 97.5 Q88 89 82 80 Q75 72 69 63 Q63 54 57 44 Q50 35 44.5 25 Q39 15 34 5 Q23 -15 16 -35 Q-1 -77 -5 -122 Q-5 -128 -5 -134 Q-5 -140 -4 -145 Q-4 -157 -1 -167 Q1 -172 3 -176 Q5 -180 11 -182 Q16 -183 19.5 -182 Q23 -181 27 -179 Q37 -175 45.5 -169 Q54 -163 62 -156 Q70 -149 77 -142.5 Q84 -136 92 -128 Q106 -112 120 -95.5 Q134 -79 148 -62 Q162 -45 175.5 -27 Q189 -9 203 9 Q205 10 207 14 Q208 16 210 17 Q212 18 215 17 Q217 15 216 12.5 Q215 10 215 9 Q209 1 203 -7 Q197 -15 191 -23 Q177 -41 163 -58.5 Q149 -76 135 -93 Q121 -109 107 -124.5 Q93 -140 78 -154 Q75 -156 71 -160 Q60 -169 42.5 -179.5 Q25 -190 8 -191 Q4 -191 2 -190 Q-4 -189 -12 -186 Q-20 -183 -27 -174 Q-34 -165 -38.5 -149 Q-43 -133 -40 -107 Q-39 -99 -37.5 -90.5 Q-36 -82 -34 -74 L-33 -73 Q-33 -70 -32 -69 Q-28 -54 -20 -34.5 Q-12 -15 -4 2.5 Q4 20 10.5 32.5 Q17 45 17 46 Q31 70 44.5 89.5 Q58 109 70 126 Q47 137 37 155.5 Q27 174 24 195.5 Q21 217 24 238 Q27 259 31 274 Q46 328 75 389 Q75 392 77 394 Q111 462 140 507 Q123 509 105.5 511.5 Q88 514 71 517 Q25 525 -20 537 Q-65 549 -110 563 Q-133 570 -155 577.5 Q-177 585 -199 593 Q-222 600 -244.5 607 Q-267 614 -290 622 Q-336 636 -381.5 649 Q-427 662 -475 674 Q-479 675 -478 679.5 Q-477 684 -472 683 Q-436 673 -399.5 663.5 Q-363 654 -327 643 Q-282 629 -237 614 Q-192 599 -147 584 Q-102 570 -57.5 557 Q-13 544 32 534 Q60 528 88 523 Q116 518 145 516 Q171 555 194.5 582.5 Q218 610 238 628 L239 628 Q247 635 253.5 640.5 Q260 646 267 651 Q299 672 325.5 677 Q352 682 377 672 Z M152 172 Q136 155 121 135 Q131 136 143 141 Q155 146 169 159 Q170 159 170 160 Q171 160 171 160.5 Q171 161 172 161 Q179 168 185 175.5 Q191 183 196 191 Q199 198 195 198 L194 198 L192 198 Q181 196 170.5 188 Q160 180 152 172 Z M368 572 Q370 575 371.5 577.5 Q373 580 375 582 Q381 589 384 599 Q386 603 387 607 Q388 611 389 616 Q390 620 390 628 Q390 632 388 636 L388 637 Q384 643 375 643 Q366 643 361 642 Q351 640 336.5 633 Q322 626 303.5 612 Q285 598 262 575.5 Q239 553 212 519 Q210 517 209.5 516 Q209 515 208 514 L221 514 Q222 514 222.5 514.5 Q223 515 225 515 Q239 515 251 518 Q259 519 265.5 520 Q272 521 279 523 Q286 525 292.5 527 Q299 529 305 531 Q317 535 330 543 Q338 547 342 550 Q344 551 347 554 Q353 558 355 560 Q357 562 359.5 564 Q362 566 364 568 Q365 569 365.5 570 Q366 571 368 572 Z " />
<glyph glyph-name="F" unicode="F" horiz-adv-x="370" d="M645 665 Q649 663 647 659 Q645 655 640 657 Q624 665 606 668.5 Q588 672 570 673 Q553 675 534.5 675 Q516 675 497 674 Q455 672 413.5 667 Q372 662 330 655 Q329 654 327 654 Q320 653 314 652 Q309 651 304 650 Q299 649 298 649 Q275 621 254 585 Q236 554 218 509.5 Q200 465 189 408 Q189 406 187.5 404.5 Q186 403 187 401 Q188 401 189 400.5 Q190 400 192 400 L193 401 Q204 406 213.5 410 Q223 414 234 416 Q236 416 239.5 416.5 Q243 417 246 417 L249 417 L250 417 L252 417 Q269 417 272 411 Q275 405 275 402 Q274 398 271 394 Q269 391 264 388.5 Q259 386 250 386 L243 386 Q231 386 219 387.5 Q207 389 195 391 Q193 389 192 389 Q190 388 188 387 Q186 386 184 385 Q178 348 168.5 296 Q159 244 146 186 Q133 128 117 69.5 Q101 11 82 -39.5 Q63 -90 40.5 -127.5 Q18 -165 -7 -181 Q-15 -186 -29.5 -189.5 Q-44 -193 -65 -187 Q-65 -187 -66 -186 Q-82 -180 -89.5 -169 Q-97 -158 -100 -147 Q-104 -134 -103 -119 Q-103 -118 -102.5 -117 Q-102 -116 -103 -114 Q-101 -102 -99.5 -90.5 Q-98 -79 -95 -67 Q-92 -48 -88 -29.5 Q-84 -11 -79 7 Q-56 83 -22 152 Q12 221 57 281 Q69 296 82 310.5 Q95 325 108 339 Q124 355 142 370 Q142 374 143 378 Q144 382 144.5 387.5 Q145 393 147 401 Q134 404 123 407.5 Q112 411 100 415 Q77 422 56 428.5 Q35 435 15 440 Q-1 443 -17.5 446 Q-34 449 -52 451 Q-121 459 -193.5 454 Q-266 449 -331 419 Q-364 405 -391 384 Q-402 375 -413 365 Q-424 355 -432 344 Q-438 337 -445.5 325 Q-453 313 -456.5 300.5 Q-460 288 -457.5 277.5 Q-455 267 -440 264 Q-436 262 -437.5 258 Q-439 254 -442 255 Q-450 257 -456.5 260.5 Q-463 264 -466 271 Q-468 278 -467.5 285 Q-467 292 -465 299 Q-458 326 -440.5 347.5 Q-423 369 -402 386 Q-374 409 -342.5 424 Q-311 439 -278 448 Q-207 467 -137 466 Q-67 465 2 452 Q39 444 75.5 432 Q112 420 150 410 Q155 434 164 468 Q173 502 186 536 Q199 570 215 598.5 Q231 627 250 641 Q246 641 243 640.5 Q240 640 236 639 Q222 637 209 635 Q196 633 183 632 Q166 630 150.5 630.5 Q135 631 120 634 Q108 636 96.5 642 Q85 648 76 659 Q74 662 78 664.5 Q82 667 84 663 Q91 654 102 649.5 Q113 645 124 643 Q137 640 150 639.5 Q163 639 175 641 Q207 643 237 648 Q267 653 297 658 Q344 666 390 673.5 Q436 681 484 683 Q526 684 568 683 Q588 681 608 677.5 Q628 674 645 665 Z M125 302 Q128 327 137 352 Q114 332 95.5 311 Q77 290 60 267 Q15 206 -19 137 Q-53 68 -73 -10 Q-78 -27 -81.5 -44.5 Q-85 -62 -89 -79 Q-90 -91 -92 -102.5 Q-94 -114 -94 -126 Q-95 -136 -93 -147 Q-91 -158 -84 -166 Q-82 -167 -81.5 -167.5 Q-81 -168 -79 -169 Q-77 -171 -73 -173.5 Q-69 -176 -63 -176.5 Q-57 -177 -49.5 -174 Q-42 -171 -33 -161 Q-33 -158 -32 -158 L-32 -157 Q-30 -155 -30 -155 L-30 -154 Q-26 -149 -22 -144.5 Q-18 -140 -16 -135 Q-7 -121 0 -109 Q20 -75 34 -38 Q48 -1 60 38 Q72 77 81 116.5 Q90 156 100 196 Q107 222 113 249 Q119 276 125 302 Z M230 405 Q220 403 211 397 Q216 396 221.5 396 Q227 396 232 395 Q237 395 242.5 394.5 Q248 394 253 395 Q257 395 260.5 396.5 Q264 398 265 402 Q267 406 263.5 407 Q260 408 256 408 Q250 409 244 408 Q238 407 230 405 Z " />
<glyph glyph-name="G" unicode="G" horiz-adv-x="427" d="M389 678 Q394 677 396 672.5 Q398 668 393 669 L381 669 Q355 669 323.5 644 Q292 619 260 580.5 Q228 542 198 497.5 Q168 453 144 413.5 Q120 374 105 347 Q90 320 88 317 Q64 271 46 228.5 Q28 186 22.5 153 Q17 120 25.5 98.5 Q34 77 63 73 Q66 72 75 72 Q86 72 104 78 Q109 80 113 81.5 Q117 83 122 85 Q140 95 160 108 Q195 132 222.5 162 Q250 192 272 225 Q281 239 288.5 252 Q296 265 304 279 Q313 306 320.5 329 Q328 352 331 361 Q327 360 321.5 359 Q316 358 306 356 Q285 351 265 346.5 Q245 342 225 337 L224 337 Q222 336 219 336.5 Q216 337 216 340 Q216 344 221 346 Q260 357 300 364.5 Q340 372 382 379 Q386 381 386 375 Q386 373 384 371 Q383 370 382 370 Q381 370 380.5 369.5 Q380 369 378 369 L366 367 Q324 192 274 62 Q253 6 227.5 -45 Q202 -96 174 -132 Q146 -168 115.5 -185 Q85 -202 53 -188 Q42 -184 37 -178 Q27 -169 23 -158.5 Q19 -148 19 -137 Q19 -126 21 -115.5 Q23 -105 26 -96 Q33 -74 44 -54 Q65 -11 66 11.5 Q67 34 65 41 Q60 54 52 62 Q50 64 49 64.5 Q48 65 46 67 Q36 70 30 74 Q25 76 15 76 Q4 76 -5 73.5 Q-14 71 -24 69 Q-46 64 -67 56 Q-88 48 -108 40 Q-129 32 -150 23.5 Q-171 15 -192 8 Q-223 -1 -257 -7 Q-288 -13 -319.5 -16.5 Q-351 -20 -383 -18 Q-413 -16 -443 -7.5 Q-473 1 -497 21 Q-519 42 -531 68 Q-537 83 -540 99 Q-543 115 -544 132 Q-546 164 -540.5 197 Q-535 230 -519 259 Q-517 264 -513.5 261.5 Q-510 259 -512 255 Q-521 237 -526.5 216.5 Q-532 196 -534 176 Q-536 159 -535.5 141.5 Q-535 124 -532 107 Q-530 92 -525 77.5 Q-520 63 -511 50 Q-493 24 -465.5 11 Q-438 -2 -408 -7 Q-376 -12 -344 -9.5 Q-312 -7 -280 -2 Q-266 0 -252.5 3 Q-239 6 -225 9 Q-203 14 -182 21.5 Q-161 29 -141 37 Q-120 45 -99 53.5 Q-78 62 -57 69 L-15 81 Q-8 83 -0.5 84 Q7 85 15 85 Q-6 105 -9 135.5 Q-12 166 -2.5 203 Q7 240 27 282 Q47 324 71 366 Q95 408 121.5 449 Q148 490 171 525 Q202 574 232 603.5 Q262 633 287.5 649 Q313 665 331.5 670.5 Q350 676 359 677 Q362 678 367 678 L389 678 Z M148 87 Q131 77 110 68.5 Q89 60 63 63 Q72 51 74 40 Q76 34 76.5 28.5 Q77 23 78 17 Q77 15 77 12 Q77 9 76 5 Q74 -5 69.5 -20.5 Q65 -36 54 -59 Q49 -68 45.5 -76.5 Q42 -85 39 -94 Q35 -105 32.5 -115.5 Q30 -126 30 -137 Q31 -148 34.5 -159.5 Q38 -171 50 -178 Q55 -181 68.5 -182.5 Q82 -184 100 -170 Q114 -158 125.5 -142.5 Q137 -127 143 -116 Q145 -112 147 -110 Q147 -108 149 -106 L149 -105 Q154 -96 159 -87 Q164 -78 169 -69 Q180 -49 189 -27.5 Q198 -6 207 16 Q223 54 237.5 92.5 Q252 131 267 169 Q269 175 272 183 L284 219 Q269 197 252 176.5 Q235 156 215 137 Q200 123 183.5 110.5 Q167 98 148 87 Z " />
<glyph glyph-name="H" unicode="H" horiz-adv-x="420" d="M422 661 L399 573 L244 -32 Q241 -41 235 -48 Q230 -54 221.5 -59 Q213 -64 201 -64 L277 238 L291 293 L296 314 Q265 317 234.5 318.5 Q204 320 173 317 Q162 315 151 313.5 Q140 312 129 309 L47 -10 Q35 -60 21 -99 Q8 -133 -9 -160.5 Q-26 -188 -48 -188 Q-53 -189 -63 -183 Q-71 -177 -75 -168 Q-79 -159 -83 -150 Q-87 -139 -90.5 -128.5 Q-94 -118 -96 -107 Q-107 -61 -108 -13 Q-109 35 -98 81 Q-93 103 -85 124 Q-77 145 -66 165 Q-44 201 -13 234 Q34 281 91 306 L141 507 Q125 507 105 512 Q82 517 59.5 524.5 Q37 532 15 541 Q-8 551 -29.5 560.5 Q-51 570 -73 580 Q-118 599 -163 615 Q-208 631 -256 637 Q-305 643 -351 636 Q-374 631 -397 624 Q-420 617 -442 608 Q-446 606 -448 610 Q-450 614 -446 616 Q-426 624 -405.5 631 Q-385 638 -363 643 Q-316 652 -269.5 647.5 Q-223 643 -178 629 Q-131 615 -87.5 595.5 Q-44 576 0 557 Q23 547 45.5 538.5 Q68 530 91 524 Q103 521 116 518.5 Q129 516 143 515 L151 545 L154 558 Q154 559 154.5 559.5 Q155 560 155 562 Q157 566 158 570 Q159 574 161 579 Q166 591 172 603 Q178 615 188 624 Q192 628 197.5 629.5 Q203 631 208 632 Q219 634 228 628 Q237 622 241 613 Q243 607 243.5 600.5 Q244 594 244 588 Q244 577 239 564 Q234 546 221.5 532.5 Q209 519 192 513 Q189 512 186.5 511.5 Q184 511 181 510 L132 319 Q135 319 136 320 Q176 328 216.5 327.5 Q257 327 298 323 L365 591 L368 604 Q368 605 368.5 605.5 Q369 606 369 608 Q378 639 388.5 653.5 Q399 668 407 674 Q417 680 427 679 L422 661 Z M184 520 Q203 525 215 538 Q228 552 232 570 Q234 580 235 590 Q236 600 232 610 Q231 614 225 620 Q223 620 223 621 Q222 621 221.5 621.5 Q221 622 220 622 Q215 624 212 619 Q209 614 207 609 Q205 603 205 601 Q204 599 204 596 Q204 595 203 594 L185 527 L184 520 Z M88 295 Q87 294 86.5 294 Q86 294 85 293 Q45 275 12 245 Q-21 215 -46 178.5 Q-71 142 -84 98 Q-98 52 -99.5 4 Q-101 -44 -91 -91 Q-89 -96 -88 -101.5 Q-87 -107 -86 -112 L-85 -112 Q-84 -115 -84 -117.5 Q-84 -120 -83 -122 L-82 -123 L-82 -125 Q-80 -129 -78 -137 Q-76 -142 -74.5 -146 Q-73 -150 -71 -155 Q-71 -156 -70.5 -156.5 Q-70 -157 -70 -158 Q-68 -160 -67.5 -162 Q-67 -164 -66 -166 Q-65 -169 -62 -172 Q-56 -178 -51 -177 Q-46 -177 -39 -164 Q-32 -151 -26 -134 Q-19 -116 -12 -91 L3 -43 Q8 -27 12.5 -9 Q17 9 22 30 L23 33 Q24 35 24 37 Q24 39 25 41 Q25 43 26 44 L63 192 L77 247 L88 295 Z " />
<glyph glyph-name="I" unicode="I" horiz-adv-x="163" d="M117 638 Q119 639 129 646.5 Q139 654 149.5 660 Q160 666 167.5 667 Q175 668 173 658 Q167 632 156 583 Q145 534 130.5 471.5 Q116 409 99 338.5 Q82 268 63.5 198 Q45 128 26.5 64 Q8 0 -9 -49 Q-26 -98 -41.5 -127 Q-57 -156 -68 -156 Q-76 -156 -78.5 -145 Q-81 -134 -79.5 -116 Q-78 -98 -74 -75.5 Q-70 -53 -64 -30 Q-61 -17 -56.5 -1.5 Q-52 14 -51 16 Q-50 25 -46 36 Q-46 36 -45 38 Q-43 45 -41.5 50.5 Q-40 56 -39 59 L-19 111 Q-13 127 -7 143 Q-2 157 4.5 171.5 Q11 186 16 197 Q18 201 18 202 L27 220 L49 308 Q51 317 56.5 340 Q62 363 69.5 394 Q77 425 85 460 Q93 495 101 527 L129 636 Q89 604 61.5 561 Q34 518 8 475 Q-3 457 -15.5 439 Q-28 421 -42 404 Q-56 389 -71.5 375.5 Q-87 362 -104 351 Q-142 327 -184 313.5 Q-226 300 -271 301 Q-313 301 -352 316 Q-391 331 -421 361 Q-436 376 -448 393.5 Q-460 411 -470 431 Q-475 441 -479 451 Q-483 461 -488 472 Q-492 483 -496.5 493.5 Q-501 504 -507 513 Q-509 517 -505.5 519.5 Q-502 522 -499 518 Q-492 508 -488 497 Q-484 486 -479 475 Q-474 463 -469.5 451.5 Q-465 440 -459 429 Q-448 409 -434.5 390 Q-421 371 -403 356 Q-369 327 -326.5 317 Q-284 307 -240.5 311.5 Q-197 316 -155.5 333.5 Q-114 351 -81 378 Q-49 405 -26 439 Q-3 473 18.5 508.5 Q40 544 62.5 577.5 Q85 611 117 638 Z M7 136 Q11 149 15 172 Q7 152 -2.5 128 Q-12 104 -18 87 Q-21 78 -24 69 Q-27 61 -30 52.5 Q-33 44 -35 36 Q-37 31 -37.5 27 Q-38 23 -40 19 Q-42 11 -44 4 Q-46 -2 -47.5 -9.5 Q-49 -17 -50 -23 Q-57 -48 -62.5 -69.5 Q-68 -91 -71 -107.5 Q-74 -124 -74.5 -134 Q-75 -144 -71 -144 Q-65 -144 -54 -109.5 Q-43 -75 -30 -25 L-30 -24 L-28 -16 L-26 -7 Q-26 -6 -25.5 -5.5 Q-25 -5 -25 -3 L-23 3 L7 136 Z " />
<glyph glyph-name="J" unicode="J" horiz-adv-x="283" d="M435 699 Q439 700 438.5 695.5 Q438 691 435 690 Q406 687 376.5 683 Q347 679 318 674 L283 669 Q247 448 193 268 Q170 191 141.5 115.5 Q113 40 78 -22.5 Q43 -85 2 -129 Q-39 -173 -87 -186 Q-107 -191 -123 -191 L-129 -191 Q-143 -190 -156.5 -184.5 Q-170 -179 -177 -163 Q-186 -145 -184.5 -124 Q-183 -103 -178 -86 Q-172 -61 -163 -38.5 Q-154 -16 -143 6 Q-135 24 -125.5 41.5 Q-116 59 -106 76 Q-103 81 -100 86 Q-97 91 -93 96 Q-82 114 -71 129 Q-60 144 -53 152 Q-50 155 -47.5 158 Q-45 161 -42 164 Q-31 178 -19 191 Q-7 204 7 215 Q-1 220 -8.5 224.5 Q-16 229 -24 234 Q-66 259 -108 282 Q-150 305 -195 325 Q-218 335 -240.5 343 Q-263 351 -286 359 Q-309 367 -332.5 374 Q-356 381 -379 386 Q-426 397 -474 399.5 Q-522 402 -569 388 Q-573 386 -574.5 390.5 Q-576 395 -571 397 Q-527 411 -481 409 Q-435 407 -390 398 Q-367 393 -345 387 Q-323 381 -301 373 Q-278 366 -256 358.5 Q-234 351 -213 342 Q-168 324 -126 301.5 Q-84 279 -42 255 Q-28 247 -14 238.5 Q0 230 14 222 Q16 224 18 225 Q20 226 22 228 Q38 240 57 251 Q76 262 97 262 Q126 262 146 236 Q169 316 187.5 393 Q206 470 219 530 Q234 600 244 664 Q225 661 206.5 659.5 Q188 658 168 656 Q165 656 165 660.5 Q165 665 169 665 Q236 670 302 680.5 Q368 691 435 699 Z M-124 -182 Q-86 -182 -51 -153.5 Q-16 -125 14.5 -77.5 Q45 -30 72 32.5 Q99 95 122 163 Q109 163 96 168 Q76 175 56 186 Q45 192 35 198 Q25 204 15 211 Q11 207 7.5 203.5 Q4 200 0 197 Q-14 183 -27 168 Q-40 153 -53 138 Q-58 132 -70 115.5 Q-82 99 -94 80 Q-97 75 -100 70.5 Q-103 66 -106 61 Q-109 56 -112 50.5 Q-115 45 -117 40 Q-128 19 -138.5 -2 Q-149 -23 -157 -46 Q-165 -66 -171.5 -88 Q-178 -110 -177 -133 Q-176 -141 -174.5 -149 Q-173 -157 -169 -163 Q-164 -171 -157 -174.5 Q-150 -178 -142 -180 Q-137 -182 -133 -182 Q-129 -182 -124 -182 Z M125 173 Q130 186 134 198.5 Q138 211 142 225 Q141 226 141 226.5 Q141 227 140 228 Q129 245 113 250 Q102 254 92 253 Q82 252 72 248 Q58 243 45.5 234.5 Q33 226 22 217 Q27 214 31 211.5 Q35 209 40 206 Q50 200 59.5 194.5 Q69 189 79 184 Q89 179 100 175.5 Q111 172 122 172 Q124 172 125 173 Z " />
<glyph glyph-name="K" unicode="K" horiz-adv-x="313" d="M468 18 Q469 16 468 12 Q467 8 465 3 Q463 -2 460 -9 Q444 -41 423.5 -69.5 Q403 -98 377 -122 Q372 -127 365.5 -132.5 Q359 -138 353 -143 Q352 -143 347 -146.5 Q342 -150 337 -153 Q332 -156 325.5 -159.5 Q319 -163 312 -167 Q306 -170 300 -173 Q294 -176 288 -178 Q280 -180 272.5 -182.5 Q265 -185 257 -187 Q248 -189 239 -190 Q230 -191 220 -191 Q171 -192 142.5 -172.5 Q114 -153 100 -121 Q99 -119 96 -112.5 Q93 -106 91 -96 Q83 -66 83.5 -30.5 Q84 5 90 39.5 Q96 74 105.5 106 Q115 138 126 162 Q145 207 148.5 232 Q152 257 149 270 L149 272 Q148 274 148 274.5 Q148 275 147 277 Q144 284 138.5 287 Q133 290 130 292 Q104 300 83 300 Q62 213 38.5 125.5 Q15 38 -7 -31.5 Q-29 -101 -49 -144.5 Q-69 -188 -83 -188 Q-92 -188 -94.5 -176.5 Q-97 -165 -95.5 -146.5 Q-94 -128 -89.5 -104.5 Q-85 -81 -79 -58 Q-76 -45 -71.5 -29 Q-67 -13 -66 -11 Q-64 -6 -63 -1 Q-62 4 -61 9 Q-60 10 -60 12 Q-58 19 -56.5 24.5 Q-55 30 -53 33 Q-43 61 -33 87 Q-26 104 -20 120 Q-15 134 -8.5 149 Q-2 164 3 175 Q4 177 4 178 Q4 179 5 180 Q7 185 10.5 191.5 Q14 198 14 199 Q19 221 25 244 Q31 267 36 289 Q38 298 44 321.5 Q50 345 57.5 376 Q65 407 73.5 442.5 Q82 478 90 511 L91 511 Q99 547 106 575 Q113 603 116 614 L119 625 Q117 624 116 623 Q114 622 113.5 621 Q113 620 111 618 Q109 616 106.5 613 Q104 610 101 607 L71 574 Q40 540 8.5 506 Q-23 472 -62 447 Q-100 423 -144 410 Q-188 397 -233 402 Q-278 407 -315 429 Q-349 451 -371 485 Q-380 499 -390 514.5 Q-400 530 -415 540 Q-435 552 -455 546 Q-466 543 -475 537.5 Q-484 532 -492 525 Q-495 522 -498.5 525 Q-502 528 -498 531 Q-481 545 -461 553 Q-441 561 -420 552 Q-403 545 -392 531 Q-381 517 -371 502 Q-360 485 -348.5 470 Q-337 455 -320 444 Q-282 417 -236 412 Q-190 407 -146 419 Q-124 425 -104 434.5 Q-84 444 -65 456 Q-45 469 -28.5 484 Q-12 499 5 515 Q22 532 37 549.5 Q52 567 68 585 Q76 593 83 601 Q90 609 98 617 Q108 629 118 636 Q120 637 128.5 642 Q137 647 145 650.5 Q153 654 159 652.5 Q165 651 162 641 Q157 620 150 587.5 Q143 555 134 515 Q125 475 114.5 428.5 Q104 382 92 333 Q92 334 93 335 L123 371 Q137 389 151.5 407.5 Q166 426 181 444 Q213 482 245 518.5 Q277 555 310 592 Q313 595 316 592 Q319 589 316 586 Q314 583 311 580 Q308 577 306 574 Q273 537 241 500 Q209 463 178 425 Q163 407 149 389 Q135 371 120 353 Q112 344 105 335 Q98 326 90 318 L87 315 Q87 313 86.5 311.5 Q86 310 86 308 Q90 308 94 308 Q98 308 103 307 Q139 302 166 281 Q189 264 195 236 Q197 222 195.5 209 Q194 196 190 184 Q185 169 179.5 154.5 Q174 140 169 126 Q154 87 144 45 Q133 4 132 -39 Q132 -50 132 -61.5 Q132 -73 134 -84 Q135 -85 135 -87 Q135 -92 136 -95 Q136 -98 138 -106 L138 -108 L138 -109 Q140 -117 143 -126 Q146 -135 150 -142 Q152 -146 154.5 -149.5 Q157 -153 160 -157 Q178 -176 204 -181 Q218 -183 230.5 -182 Q243 -181 256 -178 Q258 -177 260 -177 Q261 -176 263 -176 Q288 -169 307 -159 Q326 -149 330 -147 Q333 -144 335 -143 Q374 -117 402.5 -81.5 Q431 -46 451 -4 L457 8 Q458 8 459 10 Q460 11 460.5 12.5 Q461 14 462 16 Q464 18 465.5 18 Q467 18 468 18 Z M-6 112 Q-5 118 -3 127.5 Q-1 137 2 149 Q-7 129 -16.5 104.5 Q-26 80 -33 62 Q-36 53 -39 44 Q-45 28 -50 9 Q-51 4 -52 0 Q-53 -4 -54 -8 Q-56 -15 -58 -23 Q-60 -30 -62 -37.5 Q-64 -45 -66 -51 Q-73 -77 -78.5 -99.5 Q-84 -122 -87 -139 Q-90 -156 -90 -166 Q-90 -176 -86 -176 Q-80 -176 -69 -140 Q-58 -104 -44 -53 L-44 -52 Q-44 -50 -42 -44 Q-42 -41 -40 -35 Q-40 -34 -39.5 -33.5 Q-39 -33 -39 -31 Q-38 -29 -38 -27.5 Q-38 -26 -37 -24 Q-29 11 -21 46 Q-13 81 -6 112 Z " />
<glyph glyph-name="L" unicode="L" horiz-adv-x="300" d="M660 -165 Q665 -164 666 -168.5 Q667 -173 663 -174 L636 -177 Q614 -179 593 -178 Q572 -177 551 -175 Q525 -171 500.5 -165 Q476 -159 453 -153 Q440 -148 428 -144 Q416 -140 404 -135 Q404 -135 396.5 -132 Q389 -129 378.5 -125 Q368 -121 357 -116.5 Q346 -112 337 -108 Q325 -102 313 -96.5 Q301 -91 289 -86 Q283 -83 277 -80.5 Q271 -78 265 -75 Q264 -75 263.5 -74.5 Q263 -74 262 -74 Q257 -72 253 -70 Q249 -68 244 -66 Q221 -57 201.5 -51 Q182 -45 168 -41 Q151 -37 138 -35 Q134 -34 132 -33.5 Q130 -33 128 -33 L125 -33 Q93 -30 61 -35.5 Q29 -41 0 -61 Q-23 -119 -44.5 -155 Q-66 -191 -83 -191 Q-92 -191 -94.5 -183.5 Q-97 -176 -95 -167 Q-94 -156 -89 -142 Q-87 -138 -85.5 -134 Q-84 -130 -82 -126 Q-75 -113 -67 -101 Q-59 -89 -50 -77 Q-49 -73 -48 -69.5 Q-47 -66 -46 -62 Q-41 -45 -30.5 -10 Q-20 25 -6.5 71 Q7 117 23 170.5 Q39 224 54.5 279 Q70 334 84.5 387.5 Q99 441 111 486 Q114 498 117 509 Q120 520 124 530 Q108 530 93 533 Q78 536 63 541 Q52 544 41.5 547.5 Q31 551 20 556 L-25 571 Q-48 578 -71 584.5 Q-94 591 -117 596 Q-148 604 -179 609.5 Q-210 615 -241 620 Q-291 627 -341.5 630.5 Q-392 634 -442 626 Q-465 622 -487 615.5 Q-509 609 -529 596 Q-546 583 -556.5 565 Q-567 547 -569 525 Q-570 520 -574.5 520 Q-579 520 -578 525 Q-575 562 -551 589 Q-535 605 -514.5 614.5 Q-494 624 -473 629 Q-447 635 -421.5 637.5 Q-396 640 -370 639 Q-321 639 -273 633 Q-225 627 -177 618 Q-153 614 -130 608.5 Q-107 603 -84 597 Q-61 591 -38 584 Q-15 577 8 569 Q30 561 51.5 553.5 Q73 546 96 542 Q111 539 127 539 Q142 585 156 612 Q170 639 182 653.5 Q194 668 203.5 673 Q213 678 218 678 Q219 679 222 679 L224 679 Q226 678 231.5 677 Q237 676 241 671 Q244 668 246 659 Q246 657 246 653.5 Q246 650 245 646 Q244 645 244 642 Q243 642 243 641 Q239 627 232 615 Q225 603 217 592 Q197 565 171 539 Q145 432 118 326 Q106 281 92.5 232 Q79 183 64.5 134 Q50 85 35 39 Q20 -7 5 -47 Q7 -45 13 -43 Q46 -26 80 -23.5 Q114 -21 149 -27 Q152 -28 162 -30 Q168 -32 172 -32 Q178 -34 193 -38.5 Q208 -43 228 -51 Q247 -58 264 -65 Q266 -67 280 -73 Q294 -79 314 -87 Q332 -95 350 -103 Q365 -110 382 -117 Q399 -124 413 -129 Q427 -134 440 -138.5 Q453 -143 467 -147 Q468 -147 468.5 -147.5 Q469 -148 470 -148 L471 -148 L472 -148 Q476 -150 479 -150 Q504 -158 530 -162 Q540 -164 551 -166 Q569 -169 592 -169 Q603 -171 609 -169 Q637 -169 660 -165 Z M186 582 Q184 577 182 571.5 Q180 566 178 560 Q194 576 208 596 Q221 612 229 630 Q229 630 230 632 Q231 634 231.5 637 Q232 640 234 642 Q237 655 235 662 Q234 665 229 663 Q226 661 224 659 Q219 654 215.5 647.5 Q212 641 210 636 Q196 609 186 582 Z M-50 -90 Q-56 -97 -61 -105 Q-71 -120 -77 -138 Q-82 -151 -85 -161 Q-88 -171 -85 -171 Q-82 -171 -76.5 -160.5 Q-71 -150 -66 -136 Q-60 -120 -53 -100 L-50 -90 Z " />
<glyph glyph-name="M" unicode="M" horiz-adv-x="713" d="M679 443 Q667 403 652 365 Q637 327 623 289 Q615 269 608 249.5 Q601 230 593 210 Q557 112 532 31 Q521 -4 512.5 -38 Q504 -72 499 -100.5 Q494 -129 494 -150 Q494 -171 502 -178 Q504 -180 504 -180 Q509 -183 514.5 -179.5 Q520 -176 524 -171 Q526 -171 526 -169 Q527 -169 527 -168 Q535 -160 540.5 -150.5 Q546 -141 552 -132 Q554 -130 555 -128 Q556 -126 557 -124 Q558 -122 560 -121 Q562 -119 564 -122 Q566 -128 562 -134 Q559 -139 556.5 -143 Q554 -147 551 -151 Q547 -157 543 -163 Q539 -169 534 -175 L533 -176 L527 -182 Q518 -189 513 -190 Q510 -191 503 -191 Q492 -191 485 -186 Q478 -181 473 -175 Q468 -168 464 -159 Q454 -135 456.5 -100.5 Q459 -66 465 -34 Q472 3 485 43 Q497 91 520.5 156 Q544 221 570.5 290 Q597 359 621 425.5 Q645 492 657 544 Q666 585 668 609.5 Q670 634 666.5 646 Q663 658 655 659.5 Q647 661 638 657 Q616 646 582 605 Q577 598 571.5 591 Q566 584 561 576 Q535 538 511 497.5 Q487 457 463 417 Q422 351 388.5 281.5 Q355 212 323 142 L323 141 Q323 140 322.5 139.5 Q322 139 322 138 Q319 133 313.5 121 Q308 109 300 93 Q297 87 293 79 Q289 71 284 62 Q280 56 274 46.5 Q268 37 261 28 Q254 19 247 12.5 Q240 6 234 6 Q232 6 230 8 Q226 11 226 20 Q226 29 228 38 Q230 49 233 61 L269 175 Q279 204 288.5 233 Q298 262 306 291 Q324 349 330 391.5 Q336 434 337 460 Q338 469 337.5 480 Q337 491 335 498 Q333 502 332 504 Q332 504 330 505 Q329 506 328 506 Q327 506 326.5 505.5 Q326 505 324 505 L323 505 Q322 504 321 504 Q320 504 319 503 Q302 497 286 488 Q229 456 187.5 406.5 Q146 357 111 303 Q103 290 94.5 277.5 Q86 265 78 251 Q70 240 62 230 Q55 222 48 215 Q41 208 36 209 Q34 209 33 210 Q30 213 30 221.5 Q30 230 32 240.5 Q34 251 36.5 261 Q39 271 41 277 Q41 279 41.5 280 Q42 281 42 283 Q44 287 44 289 Q47 300 50 309.5 Q53 319 55 329 Q62 355 66 376 Q70 397 72 412 Q77 437 77 450 L77 465 Q76 466 76 468 Q76 470 75.5 472 Q75 474 75 476 Q74 477 74 477.5 Q74 478 73 479 L73 480 L72 481 Q67 488 59.5 488.5 Q52 489 48 489 Q19 485 -10 475 Q-39 465 -67 454 Q-131 430 -194.5 406.5 Q-258 383 -326 370 Q-359 364 -393 360 Q-427 356 -461 355 Q-478 355 -494 356 Q-510 357 -526 362 Q-539 366 -549.5 375.5 Q-560 385 -559 399 Q-559 404 -554.5 404 Q-550 404 -550 399 Q-550 390 -545 384 Q-540 378 -532.5 374 Q-525 370 -516 368.5 Q-507 367 -500 366 Q-482 364 -463.5 364 Q-445 364 -427 366 Q-393 368 -360 373 Q-327 378 -294 386 Q-262 394 -231 404 Q-200 414 -169 425 Q-138 436 -108 448 Q-78 460 -46 471 Q-28 478 -10 484 Q8 490 27 494 Q34 496 54 498.5 Q74 501 91 498 Q104 496 113.5 490.5 Q123 485 126 473 Q126 471 126.5 470 Q127 469 127 467 Q127 465 128 463 Q128 458 128.5 452.5 Q129 447 128 441 Q126 427 123.5 413 Q121 399 118 387 Q117 384 117 381.5 Q117 379 116 377 Q116 376 112.5 365.5 Q109 355 104.5 340 Q100 325 95 309 Q90 293 86 280 Q99 301 113 321.5 Q127 342 141 362 Q172 404 209 441.5 Q246 479 293 502 Q294 502 297 504 Q299 505 301.5 506.5 Q304 508 308 510 Q312 512 320 515 Q328 518 337.5 519 Q347 520 357 518 Q367 516 374 507 Q374 506 375 506 Q380 498 383.5 486 Q387 474 386 455 L386 452 Q386 449 385.5 445.5 Q385 442 385 439 Q385 437 384 436 L384 435 Q382 420 377 392 Q372 364 360.5 321.5 Q349 279 331 219.5 Q313 160 286 81 Q299 110 312 138.5 Q325 167 338 196 Q356 235 375 273 Q394 311 414 349 Q428 376 443.5 401.5 Q459 427 474 453 Q500 498 527 542 Q554 586 587 626 Q602 644 617 658 Q625 665 635 671 Q645 677 655.5 678.5 Q666 680 677 675 Q688 670 697 655 Q701 647 704 636.5 Q707 626 709 612 L709 609 Q710 589 709 570 Q709 568 708.5 565.5 Q708 563 708 561 Q706 544 702 525 L702 523 Q697 502 691 482.5 Q685 463 679 443 Z " />
<glyph glyph-name="N" unicode="N" horiz-adv-x="447" d="M443 609 Q444 589 443 570 L443 561 Q441 553 440 544 Q439 535 437 525 L437 523 Q432 502 426 482.5 Q420 463 414 443 Q402 403 387.5 365 Q373 327 359 289 Q354 275 349 262.5 Q344 250 339 236 L339 235 Q332 216 325.5 197.5 Q319 179 313 159 L312 158 Q298 117 282 64 Q266 11 253.5 -38.5 Q241 -88 236 -126.5 Q231 -165 239 -177 Q240 -179 244 -181 Q249 -184 256 -179 L266 -169 L266 -168 Q274 -160 279.5 -150.5 Q285 -141 291 -132 Q293 -130 293.5 -129 Q294 -128 295 -127 Q296 -126 297 -124 Q300 -121 302 -122 Q304 -124 303.5 -127.5 Q303 -131 301 -133 Q299 -138 296 -142 Q293 -146 290 -151 Q286 -157 282 -163 Q278 -169 273 -175 Q273 -175 272 -176 L266 -182 Q259 -189 252 -190 Q249 -191 243 -191 Q232 -191 225 -186 Q218 -181 213 -175 Q208 -168 204 -159 Q194 -135 196 -100.5 Q198 -66 204 -34 Q211 3 223 43 Q234 91 257.5 156 Q281 221 306.5 290 Q332 359 355.5 425.5 Q379 492 391 544 Q400 585 401.5 609.5 Q403 634 399.5 646 Q396 658 388.5 659.5 Q381 661 372 657 Q350 646 317 605 Q311 598 305.5 591 Q300 584 295 576 Q269 538 246 497.5 Q223 457 198 417 Q158 351 125.5 281.5 Q93 212 61 142 L61 141 Q60 140 60 139.5 Q60 139 59 138 Q56 131 48.5 115 Q41 99 31 79.5 Q21 60 9.5 39.5 Q-2 19 -12 4 Q-18 -4 -23.5 -11 Q-29 -18 -34 -21 Q-36 -22 -39 -22 Q-48 -22 -42 11 Q-40 22 -37.5 32 Q-35 42 -32 52 Q-22 83 -13 113.5 Q-4 144 6 175 Q25 230 42 291 Q54 329 60 359.5 Q66 390 69 415 Q70 424 71 432 Q72 439 72.5 446.5 Q73 454 72 459 L72 465 Q72 467 71 468 Q71 470 70.5 472 Q70 474 70 476 Q69 477 69 477.5 Q69 478 68 479 L68 480 Q68 481 67 481 Q63 488 55 488.5 Q47 489 44 489 Q14 485 -15 475 Q-44 465 -72 454 Q-136 430 -199.5 406.5 Q-263 383 -331 370 Q-364 364 -398 360 Q-432 356 -466 355 Q-483 355 -499 356 Q-515 357 -531 362 Q-544 366 -554.5 375.5 Q-565 385 -564 399 Q-564 404 -559.5 404 Q-555 404 -555 399 Q-555 390 -550 384 Q-545 378 -537.5 374 Q-530 370 -521 368.5 Q-512 367 -505 366 Q-487 364 -468.5 364 Q-450 364 -432 366 Q-398 368 -365 373 Q-332 378 -299 386 Q-267 394 -236 404 Q-205 414 -174 425 Q-143 436 -112.5 448 Q-82 460 -51 471 Q-33 478 -15 484 Q3 490 22 494 Q26 495 35.5 496.5 Q45 498 56 499 L61 499 L65 499 Q71 499 79 497 Q95 493 102.5 481.5 Q110 470 113 456 Q116 442 115 427 Q114 412 113 402 Q113 400 112.5 399 Q112 398 112 396 Q111 394 111 389 Q109 379 106 368.5 Q103 358 101 347 Q97 331 92.5 313.5 Q88 296 83 279 Q67 223 51 170 Q35 117 22 79 Q23 80 23 81 Q37 110 49.5 138.5 Q62 167 75 196 Q93 235 111 273 Q129 311 149 349 Q163 376 178.5 401.5 Q194 427 209 453 Q235 498 262 542 Q289 586 321 626 Q334 642 350 658 Q358 665 368.5 671 Q379 677 389.5 678.5 Q400 680 410.5 675 Q421 670 430 655 Q440 638 443 612 L443 609 L443 609 Z " />
<glyph glyph-name="O" unicode="O" horiz-adv-x="540" d="M364 677 Q379 679 401.5 677.5 Q424 676 445 660.5 Q466 645 481.5 611 Q497 577 497 514 Q497 467 486.5 403 Q476 339 457 270 Q438 201 410.5 130.5 Q383 60 348.5 -0.5 Q314 -61 274 -107.5 Q234 -154 189 -175 Q174 -182 151.5 -187.5 Q129 -193 103 -189 Q89 -187 77 -183 Q66 -180 55.5 -174.5 Q45 -169 34 -161 Q17 -148 5.5 -132 Q-6 -116 -13.5 -98.5 Q-21 -81 -25 -63.5 Q-29 -46 -31 -31 Q-32 -20 -32.5 -8 Q-33 4 -33 15 Q-33 45 -29.5 73 Q-26 101 -21.5 123.5 Q-17 146 -13 161 Q-9 176 -8 179 Q-1 203 7 225.5 Q15 248 24 271 Q28 280 32.5 290.5 Q37 301 42 312 Q42 323 43 332.5 Q44 342 46 352 Q37 352 28 352 Q19 352 10 351 Q-34 348 -77.5 339.5 Q-121 331 -164 321 Q-207 311 -250 301.5 Q-293 292 -337 286 Q-359 283 -381 281 Q-403 279 -425 280 Q-444 280 -461.5 282.5 Q-479 285 -496 293 Q-526 308 -544.5 335.5 Q-563 363 -575 393 Q-577 397 -573 398 Q-569 399 -567 395 Q-558 372 -545 352 Q-537 339 -526.5 327 Q-516 315 -502 307 Q-486 297 -469 293.5 Q-452 290 -434 289 Q-389 287 -345.5 293 Q-302 299 -258 308 Q-182 325 -106 343 Q-30 361 48 361 Q54 394 64.5 422.5 Q75 451 87 473.5 Q99 496 111.5 513 Q124 530 134 541 Q139 548 146 554.5 Q153 561 159 566 Q159 566 160 567 L162 569 Q165 572 168 574 Q170 576 171.5 577 Q173 578 174 579 L176 581 Q187 589 201.5 600 Q216 611 233 622 Q240 626 248 630 Q256 634 264 639 Q265 639 265.5 639.5 Q266 640 267 640 Q289 651 314 661.5 Q339 672 364 677 Z M90 452 Q79 430 71.5 407 Q64 384 59 361 L64 361 Q70 373 73.5 380.5 Q77 388 78 390 Q94 419 109.5 446.5 Q125 474 142 500 Q151 513 163 530 Q175 547 189.5 564 Q204 581 221 596.5 Q238 612 256 623 Q256 623 255 622 Q231 609 208 592 Q188 578 166.5 558.5 Q145 539 128 516 Q105 486 90 452 Z M121 346 Q121 345 120 344 L120 343 Q107 313 95.5 283 Q84 253 74 221 Q87 199 104 183 Q106 180 112 174 Q115 172 117.5 170 Q120 168 123 166 Q133 158 149 153 Q156 151 170 149 Q179 148 188 149.5 Q197 151 206 153 Q223 158 237 170 Q263 193 269 224 Q274 248 263 268 Q252 288 233 302 Q211 318 186 327.5 Q161 337 135 343 Q131 344 121 346 Z M57 352 Q55 344 55 340 Q57 343 57.5 346 Q58 349 60 352 L57 352 Z M354 65 Q389 147 420 267 Q442 352 450.5 414 Q459 476 458 519 Q457 562 449.5 588 Q442 614 431 629 Q431 630 430.5 630 Q430 630 430 631 Q428 633 426.5 635 Q425 637 423 639 Q411 651 396.5 654 Q382 657 369 655.5 Q356 654 345.5 650 Q335 646 332 645 Q303 632 277 607 Q251 582 230 554 Q209 526 194 500.5 Q179 475 172 461 L166 449 Q151 418 140.5 393 Q130 368 125 355 Q139 352 153.5 348 Q168 344 182 339 Q205 330 228 316.5 Q251 303 265 282 Q278 264 280 240 Q280 213 264 187 Q262 185 262 184 Q257 178 251.5 172 Q246 166 240 161 Q233 156 224 151 Q220 149 215.5 147.5 Q211 146 206 144 Q201 142 196 141.5 Q191 141 186 140 Q178 138 172 140 Q158 141 146 145 Q134 149 123 155 Q105 166 94 179 Q90 183 87 186.5 Q84 190 81 194 Q78 197 76 201 Q75 203 72.5 205.5 Q70 208 71 209 Q59 168 50.5 127 Q42 86 38 44 Q34 6 34 -32 Q34 -70 48 -106 Q62 -143 92 -161 Q105 -169 119 -173 Q132 -176 151 -173.5 Q170 -171 194 -157 Q218 -143 245 -116 Q272 -89 301 -42 Q313 -21 326.5 5.5 Q340 32 354 65 Z " />
<glyph glyph-name="P" unicode="P" horiz-adv-x="486" d="M481 639 Q495 622 499.5 601.5 Q504 581 502 559 Q502 557 501.5 554.5 Q501 552 500 547 L500 545 Q500 543 499.5 542 Q499 541 499 539 Q497 533 496 526.5 Q495 520 494 518 Q493 516 491 510 Q491 509 490.5 509 Q490 509 490 508 Q481 480 467.5 454.5 Q454 429 439 404 Q437 401 435.5 398 Q434 395 432 392 Q431 390 425.5 382.5 Q420 375 413 364.5 Q406 354 398.5 343 Q391 332 386 325 Q386 325 385 324 Q314 227 223 150 Q207 136 189 122 Q182 117 175.5 112 Q169 107 162 101 Q151 93 140.5 84.5 Q130 76 118 68 Q107 61 94 55.5 Q81 50 67 52 Q48 57 43 74 Q42 79 42 89 L-22 -158 Q-26 -167 -31 -174 Q-36 -180 -44 -185 Q-52 -190 -64 -190 L11 112 L18 140 L25 167 L30 187 L32 196 L47 257 Q45 258 44 259 Q43 260 41 261 Q2 289 -37 315 Q-76 341 -119 361 Q-162 381 -206.5 395.5 Q-251 410 -298 420 Q-322 425 -346 428.5 Q-370 432 -395 434 Q-420 436 -444.5 435.5 Q-469 435 -494 434 Q-498 433 -498 437.5 Q-498 442 -494 443 Q-471 444 -447.5 444.5 Q-424 445 -401 443 Q-378 441 -356.5 438.5 Q-335 436 -313 432 Q-218 415 -133 377 Q-112 368 -91 357.5 Q-70 347 -50 334 Q-30 322 -10.5 308.5 Q9 295 28 281 Q33 277 39 273.5 Q45 270 50 266 L99 464 L99 465 L102 477 Q104 481 104 481 Q113 512 123.5 527 Q134 542 142 548 Q152 555 161 553 L156 534 L157 534 L134 446 L82 244 Q92 237 103 230 Q121 253 142 267 Q148 272 154 275.5 Q160 279 166 283 Q168 284 169 285 Q170 286 172 287 Q181 292 187.5 293.5 Q194 295 197 296 Q205 298 213 296 Q234 291 237 269 Q240 247 225.5 230.5 Q211 214 191 207 Q155 194 119 211 Q115 213 111.5 215 Q108 217 104 219 Q104 218 103.5 218 Q103 218 103 217 Q88 197 77 174 Q66 151 58 128 L58 125 Q54 109 53 97 Q52 86 54.5 76 Q57 66 66 64 L67 63 L69 63 L70 63 L71 63 L72 63 Q87 63 111.5 80 Q136 97 166 127 Q196 157 229.5 198.5 Q263 240 297 288 Q299 291 301.5 294.5 Q304 298 307 302 Q311 307 314 312 Q317 317 321 322 Q325 330 327 333 Q329 336 332 339.5 Q335 343 337 347 L337 348 Q359 383 379.5 419 Q400 455 418 492 Q446 550 450.5 585.5 Q455 621 444 640 Q433 659 411 664.5 Q389 670 364 668 Q333 666 305 657.5 Q277 649 266 645 Q265 644 264 644 Q263 644 261 643 Q241 635 221.5 624 Q202 613 186 599 Q183 596 180 599 Q177 602 180 605 Q198 622 220.5 634 Q243 646 266 655 Q275 658 284 661 Q293 664 302 666 Q322 672 343.5 675.5 Q365 679 386 678 Q412 677 438 669 Q464 661 481 639 Z M171 276 Q154 266 138.5 254 Q123 242 110 226 Q127 216 145 212 Q163 208 182 213 Q199 218 213.5 230.5 Q228 243 228 262 Q230 277 219 283 Q217 285 215 286 L214 286 L213 286 L212 287 L205 287 Q196 288 185 283 L175 278 Q172 277 171 276 Z M57 149 Q68 173 78 192.5 Q88 212 90 214 Q92 216 93.5 218.5 Q95 221 97 223 Q92 226 88.5 228.5 Q85 231 81 234 Q80 234 79 235 L57 149 Z " />
<glyph glyph-name="Q" unicode="Q" horiz-adv-x="500" d="M576 -10 Q581 -30 573 -49.5 Q565 -69 554 -86 Q528 -124 495 -153.5 Q462 -183 422 -203 Q379 -224 333 -231.5 Q287 -239 240 -235 Q193 -230 148 -217 Q125 -210 104.5 -198 Q84 -186 64 -174 Q47 -164 29 -154 Q11 -144 -8 -136 Q-45 -145 -84 -137 Q-91 -135 -97 -131 Q-103 -127 -96 -119 Q-87 -109 -73 -109 Q-59 -109 -47 -112 Q-37 -114 -32 -116 Q-17 -110 -2 -101 Q95 -37 164.5 27.5 Q234 92 281 154.5 Q328 217 356 276.5 Q384 336 398 389 Q427 478 433.5 532 Q440 586 434 615 Q432 624 428 636 Q418 657 404 663 Q390 671 373.5 669.5 Q357 668 343 663 Q338 661 332.5 658.5 Q327 656 320 652 Q318 650 316 649.5 Q314 649 313 648 L311 647 Q290 634 264 609.5 Q238 585 207 543 Q200 533 193.5 523 Q187 513 179 502 Q177 498 175 495 Q173 492 171 489 Q157 466 141.5 440.5 Q126 415 109 384 Q85 339 67 302 Q49 265 37 234 Q48 238 57.5 242.5 Q67 247 78 252 Q99 262 121 270.5 Q143 279 166 286 Q191 294 213 297 Q232 300 248 299 Q250 299 259.5 296.5 Q269 294 278 288 Q287 282 292.5 270.5 Q298 259 292 241 Q292 239 291.5 238.5 Q291 238 291 237 Q285 222 276.5 208.5 Q268 195 257 182 Q222 141 177 107 Q154 90 130.5 74.5 Q107 59 81 48 Q67 41 49 36 Q40 33 30 31 Q20 29 10 29 Q9 29 8 30 L5 30 Q-11 30 -23 39 Q-32 46 -36 58 Q-47 82 -40.5 121 Q-34 160 -17 206 Q-93 184 -169 174 Q-266 160 -363.5 162 Q-461 164 -558 184 Q-563 185 -561.5 189.5 Q-560 194 -556 193 Q-517 185 -477.5 180 Q-438 175 -398 173 Q-201 161 -13 217 Q9 273 39 331.5 Q69 390 97 439 Q99 443 101 445 L116 472 Q128 491 140.5 508 Q153 525 164 541 Q208 597 241 623 Q274 649 289 657 Q296 661 313 667.5 Q330 674 351.5 677 Q373 680 397 677 Q421 674 442 659 L444 657 Q458 646 469.5 627 Q481 608 485 577 Q489 546 483.5 501.5 Q478 457 459 395 Q429 299 389 227.5 Q349 156 301 100 Q276 69 243 33.5 Q210 -2 172 -35 Q134 -68 92 -94.5 Q50 -121 8 -133 Q16 -137 22.5 -140.5 Q29 -144 37 -148 Q59 -159 79.5 -172 Q100 -185 122 -196 Q132 -201 143 -205 Q154 -209 165 -212 Q176 -215 188 -217.5 Q200 -220 211 -222 Q259 -229 308 -225 Q354 -220 397 -203 Q440 -186 477 -156 Q494 -142 509.5 -126 Q525 -110 539 -92 Q552 -75 562 -55 Q572 -35 567 -12 Q566 -7 570.5 -6 Q575 -5 576 -10 Z M106 254 Q87 246 69 238 Q51 230 32 222 Q13 173 6.5 140.5 Q0 108 0 88 Q1 80 3 71 Q5 62 10 55 Q15 48 24 45 Q33 42 48 45 Q74 53 97.5 66 Q121 79 143 94 Q191 125 231 167 Q245 181 258.5 197.5 Q272 214 280 233 Q286 246 284.5 255.5 Q283 265 282 267 Q281 269 281 270 Q281 271 280 272 Q273 285 257 288 Q243 292 227 290 Q211 288 196 285 Q173 280 150.5 272 Q128 264 106 254 Z M-75 -126 Q-62 -126 -47 -121 L-65 -118 Q-70 -118 -75 -118.5 Q-80 -119 -85 -122 Q-90 -125 -84 -125.5 Q-78 -126 -75 -126 Z " />
<glyph glyph-name="R" unicode="R" horiz-adv-x="413" d="M428 -73 Q432 -69 435 -71.5 Q438 -74 436 -78 Q425 -90 414.5 -101 Q404 -112 391 -122 Q389 -124 379 -132 Q369 -140 360 -147 Q336 -164 308.5 -176.5 Q281 -189 253 -191 L249 -191 L244 -191 Q199 -189 178 -169 Q157 -149 152 -120 L152 -119 Q152 -118 151.5 -117.5 Q151 -117 151 -116 L151 -101 Q151 -86 156 -55 Q161 -29 171 16 Q181 61 201 133 Q211 169 214 196 Q217 223 216 242 Q204 231 189.5 218.5 Q175 206 160 194.5 Q145 183 129.5 173.5 Q114 164 101 158 Q85 151 75 152 L74 152 L70 152 Q64 153 58 159 L54 149 L37 89 L-38 -158 Q-41 -167 -47 -174 Q-52 -180 -60.5 -185 Q-69 -190 -81 -190 L7 112 L16 140 L23 167 L29 187 L32 196 L111 464 L111 465 L115 477 Q115 479 115.5 479.5 Q116 480 116 481 Q127 512 138 527 Q149 542 157 548 Q167 555 176 553 L172 534 L145 446 L89 261 Q94 268 100 273.5 Q106 279 111 284 Q125 295 141.5 304 Q158 313 175 314 L176 314 Q177 314 177.5 314.5 Q178 315 180 315 L181 315 Q186 315 195 313.5 Q204 312 215 307 Q218 305 220.5 304 Q223 303 226 301 L232 298 L232 297 Q240 307 248 317.5 Q256 328 264 339 Q277 355 288.5 371 Q300 387 309 401 L329 431 Q343 454 356.5 476.5 Q370 499 382 522 Q408 570 413 600 Q418 630 410 646 Q402 662 383.5 666.5 Q365 671 344 670 Q318 668 294 661 Q270 654 260 650 Q259 650 258.5 649.5 Q258 649 256 649 Q255 648 254.5 648 Q254 648 253 647 Q237 640 222 630 Q207 620 195 610 Q183 600 175 592 Q167 584 165 582 Q140 555 116.5 527 Q93 499 70 470 Q29 422 -18 376.5 Q-65 331 -125 306 Q-156 292 -189 286.5 Q-222 281 -256 283 Q-294 285 -330 293.5 Q-366 302 -399 319 Q-468 356 -505 425 Q-515 443 -521 462.5 Q-527 482 -527 502 Q-527 544 -500 579 Q-497 583 -493 580.5 Q-489 578 -493 575 Q-501 563 -507.5 550 Q-514 537 -516 523 Q-522 497 -514 470 Q-507 444 -492.5 420.5 Q-478 397 -460 377 Q-434 350 -401.5 331.5 Q-369 313 -333 303 Q-298 294 -261 291.5 Q-224 289 -187 296 Q-127 308 -71 345 Q-45 363 -21.5 385 Q2 407 24 431 Q58 468 89.5 507 Q121 546 154 583 Q157 587 167 596.5 Q177 606 192 617.5 Q207 629 226 641 Q245 653 268 661 Q272 663 275 663.5 Q278 664 283 666 L285 666 Q289 668 291 668 Q325 678 362 678 Q384 677 405.5 670 Q427 663 441 646 Q457 624 456.5 597.5 Q456 571 447 546 Q439 520 425 495.5 Q411 471 397 448 Q380 422 359 395 Q357 393 353 387 Q331 358 307 331.5 Q283 305 256 280 Q256 280 255 279 Q254 277 251 274 Q256 261 258 237 Q259 217 256 183.5 Q253 150 240 101 Q231 67 221.5 28 Q212 -11 206 -48 Q200 -85 199.5 -115.5 Q199 -146 208 -164 Q210 -167 217 -173.5 Q224 -180 238 -182 L244 -182 L247 -182 Q270 -182 294 -173 Q318 -164 341 -150 L341 -149 Q352 -143 362.5 -135 Q373 -127 381 -120 L382 -120 Q384 -118 384 -118 Q384 -117 385 -117 Q387 -115 388.5 -113.5 Q390 -112 392 -111 L394 -109 Q404 -100 412.5 -91 Q421 -82 428 -73 Z M75 161 Q94 161 130.5 191.5 Q167 222 212 273 Q203 297 188 301 Q173 305 162 303 Q147 299 133 289 Q102 269 81 237 L61 171 Q64 163 71 162 L71 161 L72 161 L73 161 L74 161 L75 161 Z " />
<glyph glyph-name="S" unicode="S" horiz-adv-x="360" d="M428 664 Q430 662 434.5 658 Q439 654 442 647 Q445 640 445 630.5 Q445 621 439 608 Q438 605 434 599 L433 598 L427 589 Q425 586 420 581 Q418 579 417 577 Q416 575 414 573 Q407 567 400.5 561.5 Q394 556 386 551 Q372 544 352 539 Q341 537 329.5 536 Q318 535 306 534 Q293 534 280 534 Q267 534 253 536 Q227 510 198 476 Q169 442 139 399 Q128 385 120 371.5 Q112 358 104 346 Q95 333 87 319 Q80 307 72 290.5 Q64 274 58 257 Q38 209 43.5 182 Q49 155 63 141 Q82 125 109 117 L121 114 Q164 102 176.5 81.5 Q189 61 187 41 Q187 39 184.5 28.5 Q182 18 174 3 Q172 0 168 -8 Q166 -8 166 -10 Q164 -13 162 -16 Q160 -19 157 -23 Q138 -50 115 -79.5 Q92 -109 68.5 -134.5 Q45 -160 23.5 -176.5 Q2 -193 -13 -193 Q-17 -193 -18 -192 Q-24 -189 -26 -183 Q-28 -177 -29 -171 Q-29 -162 -27 -153 Q-25 -144 -23 -135 Q-17 -112 -8.5 -90 Q0 -68 11 -47 Q23 -20 36 7 Q49 34 64 60 Q67 65 72 74.5 Q77 84 82 83 Q84 82 80 72 Q78 68 75 62 Q58 33 44 3.5 Q30 -26 16 -56 Q6 -77 -2.5 -99 Q-11 -121 -16 -144 Q-18 -152 -19.5 -159.5 Q-21 -167 -19 -175 L-19 -177 Q-18 -178 -18 -179 Q-14 -185 -5 -177 Q4 -169 12 -159 Q26 -141 51.5 -107 Q77 -73 112 -23 Q140 16 149 40 Q158 64 154 78 Q152 83 145.5 91.5 Q139 100 121 105 L120 105 L119 105 Q118 105 117.5 105.5 Q117 106 116 106 Q103 109 93 113 Q83 117 76 121 Q67 125 61 130 Q37 146 28 170 Q19 194 20 219.5 Q21 245 27.5 269.5 Q34 294 42 312 Q46 320 49.5 328 Q53 336 57 344 Q83 395 116 447.5 Q149 500 187 545 L169 548 Q124 558 80.5 571.5 Q37 585 -7 599 Q-29 607 -50.5 613.5 Q-72 620 -94 627 Q-116 633 -137.5 638.5 Q-159 644 -182 650 Q-205 655 -228 660.5 Q-251 666 -274 669 Q-296 673 -318 674.5 Q-340 676 -363 674 Q-371 672 -380 670 Q-389 668 -397 663 Q-414 654 -426 637 Q-438 620 -445 600 Q-452 580 -457 560 Q-458 555 -462.5 556.5 Q-467 558 -465 562 Q-459 595 -444 625 Q-436 639 -426 651 Q-416 663 -402 671 Q-390 678 -376 680.5 Q-362 683 -348 684 Q-330 685 -311.5 683 Q-293 681 -275 679 Q-252 675 -229 670 Q-206 665 -183 659 Q-160 654 -138.5 648.5 Q-117 643 -95 636 Q-50 623 -7.5 609 Q35 595 79 581 Q108 573 136.5 565 Q165 557 194 552 Q224 587 255 614.5 Q286 642 316 658 Q346 674 374.5 676.5 Q403 679 428 664 Z M416 593 Q426 609 427.5 619 Q429 629 427 634 Q426 636 423 639 Q420 642 413 641 Q411 641 410 640.5 Q409 640 407 640 Q407 640 405 639 Q385 634 348 612 Q311 590 262 544 Q282 542 301 542.5 Q320 543 340 546 Q348 548 356 549.5 Q364 551 372 555 Q378 557 390 565 Q402 573 413 589 Q414 590 414.5 591 Q415 592 416 593 Z " />
<glyph glyph-name="T" unicode="T" horiz-adv-x="183" d="M563 664 Q570 662 581 657.5 Q592 653 589 642 Q589 641 588.5 640.5 Q588 640 588 639 Q588 639 587 638 Q585 632 582.5 632 Q580 632 580 633 Q579 634 579 636 L579 637 L579 643 Q578 652 555.5 657.5 Q533 663 498 665.5 Q463 668 420.5 668.5 Q378 669 336.5 668 Q295 667 258 665.5 Q221 664 198 663 Q193 662 189.5 662 Q186 662 183 662 L179 650 L177 641 L156 558 L100 341 Q99 339 98.5 336 Q98 333 97 331 L68 217 Q68 217 67 215 L11 -2 Q-1 -55 -16 -95 Q-22 -113 -30 -129.5 Q-38 -146 -47 -159 Q-56 -172 -66 -180 Q-76 -188 -87 -188 Q-95 -189 -103 -183 Q-111 -176 -116 -166.5 Q-121 -157 -124 -148 Q-129 -137 -132 -125.5 Q-135 -114 -138 -103 Q-146 -74 -149 -44.5 Q-152 -15 -151 15 Q-149 44 -140.5 72.5 Q-132 101 -127 113 Q-127 115 -125 117 Q-117 137 -115 158.5 Q-113 180 -121 200 Q-128 217 -141.5 230.5 Q-155 244 -172 252 Q-214 274 -259.5 274 Q-305 274 -349 263 Q-396 252 -440.5 236.5 Q-485 221 -533 210 Q-579 200 -626 199 Q-673 198 -719 206 Q-724 207 -723 211.5 Q-722 216 -717 215 Q-682 208 -642 208 Q-618 208 -594 210 Q-570 212 -546 217 Q-523 222 -500 228 Q-477 234 -454 241 Q-409 255 -364 268.5 Q-319 282 -271 283 Q-232 284 -191 271 Q-150 258 -125 225 Q-107 202 -106.5 175.5 Q-106 149 -114 123 Q-115 119 -119 111 Q-124 95 -132 66.5 Q-140 38 -141 12 Q-143 -39 -132 -87 Q-131 -92 -130 -97.5 Q-129 -103 -127 -108 L-127 -109 Q-126 -111 -125.5 -114 Q-125 -117 -124 -119 L-124 -121 Q-123 -121 -123 -122 Q-122 -126 -121 -129 Q-120 -132 -119 -134 Q-116 -145 -112 -154 Q-112 -155 -111.5 -155.5 Q-111 -156 -111 -157 Q-109 -159 -108.5 -161 Q-108 -163 -106 -165 Q-105 -168 -102 -171 Q-100 -173 -97.5 -175.5 Q-95 -178 -92 -177 Q-86 -177 -78.5 -163 Q-71 -149 -65 -132 Q-58 -113 -50 -87 L-35 -36 Q-30 -20 -25 -1.5 Q-20 17 -15 39 L-14 43 Q-13 45 -13 47 Q-13 49 -12 51 Q-12 53 -11 54 L28 209 L42 267 L55 316 L57 327 L102 506 L102 507 L120 577 L120 578 L123 590 L123 591 L123 592 L140 660 Q117 658 101 657 L100 657 Q92 656 83 655.5 Q74 655 66 653 L65 653 Q60 653 56 652.5 Q52 652 47 651 Q11 647 -39 639 Q-89 631 -137 620 Q-185 609 -223.5 594 Q-262 579 -274 560 Q-276 557 -276 554.5 Q-276 552 -276 550 Q-276 550 -275 548 Q-274 546 -274.5 543.5 Q-275 541 -278 539 Q-281 537 -282.5 539.5 Q-284 542 -285 543 Q-287 549 -285.5 554.5 Q-284 560 -281 565 Q-277 570 -272 574 Q-253 592 -215.5 606 Q-178 620 -133 630.5 Q-88 641 -40.5 648 Q7 655 46 659.5 Q85 664 110 666 Q135 668 136 668 Q237 674 309 675.5 Q381 677 430.5 675.5 Q480 674 510.5 671 Q541 668 559 665 Q560 664 563 664 Z " />
<glyph glyph-name="U" unicode="U" horiz-adv-x="427" d="M424 505 Q399 429 375 350 Q365 316 354 278.5 Q343 241 333 201.5 Q323 162 314 122.5 Q305 83 298 46 Q320 26 336.5 2 Q353 -22 363 -50 Q368 -67 372.5 -85.5 Q377 -104 375 -122 L375 -126 Q375 -128 373 -136 Q373 -140 367 -152 Q366 -154 364 -156 Q360 -163 352.5 -169.5 Q345 -176 333 -181 Q307 -190 291 -183 Q275 -176 266.5 -162.5 Q258 -149 255 -133.5 Q252 -118 252 -111 L252 -106 Q251 -84 252.5 -59.5 Q254 -35 256.5 -14 Q259 7 261.5 23.5 Q264 40 265 47 Q266 48 266 51 Q267 53 267 54.5 Q267 56 268 58 Q266 59 264.5 60 Q263 61 261 62 Q259 64 257 65 Q223 11 182 -33 Q174 -41 167 -48.5 Q160 -56 152 -64 Q145 -72 137.5 -78 Q130 -84 122 -90 Q114 -95 105.5 -100 Q97 -105 88 -109 Q85 -111 81.5 -112 Q78 -113 75 -115 Q70 -117 63 -118.5 Q56 -120 48 -120 L44 -120 Q20 -118 5 -99.5 Q-10 -81 -18 -58 Q-26 -18 -22 39 Q-18 96 -6 162 Q-81 188 -153.5 218.5 Q-226 249 -295 291 Q-369 336 -432 390 Q-447 404 -461.5 417.5 Q-476 431 -490 446 Q-502 459 -513.5 472.5 Q-525 486 -535 500 Q-557 532 -567.5 568 Q-578 604 -572 642 Q-566 676 -544 699 Q-533 710 -521 718 Q-509 726 -495 732 Q-490 734 -489 729.5 Q-488 725 -492 723 Q-493 723 -493.5 722.5 Q-494 722 -495 722 Q-509 716 -521 707.5 Q-533 699 -543 687 Q-554 674 -559 657.5 Q-564 641 -565 624 Q-567 584 -552 549 Q-537 514 -513 486 Q-489 455 -460.5 428 Q-432 401 -401 376 Q-369 350 -334 326.5 Q-299 303 -262 282 Q-200 247 -135.5 220.5 Q-71 194 -4 171 Q12 255 36.5 342 Q61 429 84 501 Q110 585 139 663 Q148 669 157.5 674 Q167 679 173 679 Q179 679 181 673 Q183 667 177 652 Q173 642 163 616 Q153 590 140 552.5 Q127 515 111 468.5 Q95 422 79.5 370.5 Q64 319 49 265.5 Q34 212 23 161 Q28 160 38 156 Q73 145 107.5 134.5 Q142 124 177 111 Q220 97 255 77 Q257 79 258 82 Q259 85 261 87 Q271 102 279 117 Q281 128 283 137.5 Q285 147 287 154 Q289 162 290 168 Q301 212 313 254.5 Q325 297 336.5 334.5 Q348 372 357.5 403 Q367 434 374 454 Q381 475 388 483.5 Q395 492 400 494 L402 495 L424 505 Z M211 15 Q222 28 231.5 41.5 Q241 55 250 69 Q227 83 201.5 93 Q176 103 150 111 Q118 122 85.5 132 Q53 142 21 153 Q13 112 7 75.5 Q1 39 -1 7 L-1 2 Q-2 -23 1 -48 Q1 -53 2 -58 Q3 -67 8 -79 Q9 -81 9.5 -82.5 Q10 -84 11 -86 Q16 -96 24.5 -103 Q33 -110 46 -111 L47 -111 L48 -111 L49 -111 L50 -111 Q58 -111 67 -108 Q68 -108 72 -106 Q77 -104 81 -102.5 Q85 -101 89 -99 Q126 -81 153 -51 Q161 -43 168 -35 Q175 -27 183 -19 Q197 -3 211 15 Z M270 68 Q271 74 272 79.5 Q273 85 274 91 Q271 86 268 81.5 Q265 77 262 72 Q264 71 266 70 Q268 69 270 68 Z M346 -33 Q328 5 296 36 Q287 -14 283 -56.5 Q279 -99 283 -127.5 Q287 -156 300 -168 Q313 -180 339 -169 Q342 -169 349 -162 Q360 -151 363.5 -136.5 Q367 -122 366 -107 Q363 -68 346 -33 Z " />
<glyph glyph-name="V" unicode="V" horiz-adv-x="363" d="M799 677 Q801 673 797.5 669 Q794 665 792 669 Q784 686 772.5 698.5 Q761 711 745 716 Q723 724 698.5 720.5 Q674 717 650 706 Q621 694 593 676.5 Q565 659 539 638 Q506 613 475 585.5 Q444 558 414 527 Q413 525 410 523 Q407 521 399 513 Q398 511 394 507 Q392 505 392 504 Q390 502 388.5 500.5 Q387 499 385 497 Q374 485 360 469.5 Q346 454 331 436 Q316 418 301 399 Q286 380 273 361 Q272 361 272 360 Q227 300 187.5 235.5 Q148 171 110 104 Q85 59 61 13.5 Q37 -32 14 -78 L-4 -114 Q-5 -117 -12 -129.5 Q-19 -142 -27 -154.5 Q-35 -167 -41.5 -173.5 Q-48 -180 -48 -170 L-48 -168 L-48 -167 Q-46 -116 -35 -49.5 Q-24 17 -8 89.5 Q8 162 27 236 Q46 310 64 376 Q82 442 98 494.5 Q114 547 123 577 Q75 547 18 536 Q-39 525 -95 522 Q-114 521 -132 520.5 Q-150 520 -168 519 Q-183 519 -197.5 518.5 Q-212 518 -227 518 Q-254 518 -281.5 518.5 Q-309 519 -337 517 Q-362 515 -390 511.5 Q-418 508 -444 498.5 Q-470 489 -490.5 472 Q-511 455 -521 428 Q-523 424 -527 425 Q-531 426 -529 431 Q-520 457 -502 474 Q-484 491 -460.5 501.5 Q-437 512 -411 517 Q-385 522 -360 524 Q-331 526 -303 526.5 Q-275 527 -246 527 Q-185 527 -125 530 Q-92 531 -58 533.5 Q-24 536 9 543 Q42 550 73 561.5 Q104 573 131 593 Q153 611 164 618 Q165 618 168.5 620 Q172 622 174 622 Q176 621 176 618 Q176 615 173 606 L173 605 Q147 528 123.5 451.5 Q100 375 78 297 Q61 239 46 181 Q31 123 17 65 L-10 -52 L-16 -79 L-16 -80 Q-20 -95 -22 -109 Q-22 -110 -22.5 -110 Q-23 -110 -23 -111 Q-25 -119 -26 -127 Q-27 -135 -28 -144 Q-23 -133 -17 -121.5 Q-11 -110 -5 -99 Q42 -6 90.5 84.5 Q139 175 195 263 Q247 344 305 417 Q317 432 331.5 448.5 Q346 465 358.5 479.5 Q371 494 380 504 Q389 514 391 516 Q396 521 401.5 527 Q407 533 412 538 Q437 563 462.5 586 Q488 609 515 631 Q541 653 569.5 672.5 Q598 692 627 706 Q651 719 677 727 Q703 735 728 732 Q752 729 770 714.5 Q788 700 799 677 Z " />
<glyph glyph-name="W" unicode="W" horiz-adv-x="737" d="M696 677 Q706 657 707.5 631.5 Q709 606 707 582 Q704 532 695 484 Q683 408 659 335.5 Q635 263 604 197 Q571 128 531.5 66 Q492 4 447 -50 Q406 -98 358 -140 Q347 -150 336 -159 Q325 -168 314 -176 Q303 -183 291 -187.5 Q279 -192 267 -190 Q243 -190 229.5 -170.5 Q216 -151 211 -119 Q206 -87 208 -45.5 Q210 -4 215.5 40.5 Q221 85 229.5 128.5 Q238 172 247 209 Q252 236 258.5 261.5 Q265 287 273 313 Q264 296 255.5 278 Q247 260 238 243 Q230 227 221.5 212 Q213 197 205 180 Q196 163 187 145 Q178 127 169 109 Q157 85 144 62 Q131 39 117 17 Q105 -3 91 -21 Q77 -39 61 -51 Q47 -62 34 -63 Q22 -63 12 -55 L11 -55 Q11 -54 10 -54 Q10 -54 8 -52 Q-8 -37 -10.5 -7.5 Q-13 22 -9 55 Q-5 88 3.5 120 Q12 152 19 173 Q19 175 20 176 Q22 182 24 188 Q26 194 28 200 Q34 217 39.5 234.5 Q45 252 51 269 Q53 275 53 277 Q54 279 54 280 Q54 281 55 283 Q56 285 56 286 Q56 287 57 289 Q60 300 62.5 309.5 Q65 319 67 329 Q74 355 78 376 Q82 397 85 412 Q87 423 88 432.5 Q89 442 89 450 Q90 455 89.5 458.5 Q89 462 89 465 L89 468 Q88 470 88 472 Q88 474 87 476 Q87 477 86.5 477.5 Q86 478 86 479 L86 480 L85 480 L85 481 Q80 488 72 488.5 Q64 489 61 489 Q31 485 2 475 Q-27 465 -55 454 Q-119 430 -182.5 406.5 Q-246 383 -313 370 Q-347 364 -380.5 360 Q-414 356 -449 355 Q-465 355 -481.5 356 Q-498 357 -514 362 Q-527 366 -537.5 375.5 Q-548 385 -547 399 Q-547 404 -542.5 404 Q-538 404 -538 399 Q-538 390 -533 384 Q-528 378 -520.5 374 Q-513 370 -504 368.5 Q-495 367 -488 366 Q-469 364 -451 364 Q-433 364 -414 366 Q-349 370 -282 386 Q-250 394 -219 404 Q-188 414 -157 425 Q-126 436 -95.5 448 Q-65 460 -34 471 Q-16 478 2.5 484 Q21 490 40 494 Q45 496 57.5 497.5 Q70 499 84 499 Q86 499 87 500 Q109 500 119.5 485.5 Q130 471 132 447.5 Q134 424 129.5 395 Q125 366 117 337.5 Q109 309 100 283 Q91 257 85 241 Q85 240 84 239 L84 238 Q82 233 80.5 228 Q79 223 77 218 Q49 146 34.5 98 Q20 50 15 20 Q10 -10 11.5 -25.5 Q13 -41 18 -47 Q23 -53 29.5 -53 Q36 -53 39 -53 Q47 -51 53.5 -46.5 Q60 -42 66 -37 Q83 -22 96.5 -2 Q110 18 122 38 Q136 61 148 84 Q160 107 172 130 Q181 147 189.5 164.5 Q198 182 208 199 Q228 236 246 274 Q264 312 283 350 Q286 357 291.5 361 Q297 365 302 367 Q313 372 321 374 Q328 376 332.5 373.5 Q337 371 334 360 Q332 355 325.5 328.5 Q319 302 309.5 263 Q300 224 289.5 176 Q279 128 270 78.5 Q261 29 255 -18 Q249 -65 248 -101.5 Q247 -138 252.5 -160 Q258 -182 273 -182 Q278 -181 281.5 -180.5 Q285 -180 289 -179 Q301 -174 313 -166.5 Q325 -159 336 -150 Q347 -141 356.5 -132 Q366 -123 377 -114 Q426 -67 469 -11 Q512 45 550 109 Q587 173 617 243 Q647 313 668 389 Q678 424 684.5 460.5 Q691 497 696 534 Q700 570 702 605 Q702 623 700 640.5 Q698 658 691 673 Q689 677 691.5 679 Q694 681 696 677 Z " />
<glyph glyph-name="X" unicode="X" horiz-adv-x="357" d="M597 54 Q601 53 600.5 50.5 Q600 48 598 46 Q570 14 539.5 -16.5 Q509 -47 474 -75 Q419 -119 352.5 -150.5 Q286 -182 208 -187 L193 -187 L186 -187 L184 -187 L176 -187 Q141 -185 120.5 -167 Q100 -149 89.5 -121 Q79 -93 77.5 -57.5 Q76 -22 79 14 Q87 99 120 206 Q113 197 106.5 188 Q100 179 92 170 Q67 136 43 101.5 Q19 67 -2 30 Q-22 -4 -38 -39.5 Q-54 -75 -62 -113 Q-63 -118 -67.5 -117 Q-72 -116 -70 -111 Q-63 -80 -51.5 -51 Q-40 -22 -26 6 Q-10 36 8 64.5 Q26 93 46 121 Q66 150 87 177.5 Q108 205 129 233 Q138 259 146.5 286 Q155 313 163 340 Q172 374 181.5 407 Q191 440 195 474 Q197 491 197 508 Q197 525 193 542 Q189 556 181.5 571 Q174 586 158 595 Q134 609 106.5 600.5 Q79 592 57 577 Q46 569 37 561 Q28 553 20 543 Q30 542 39.5 542 Q49 542 59 541 Q70 540 80.5 538.5 Q91 537 102 533 Q110 531 118 526 Q126 521 130 513 Q137 500 134 484 Q131 467 119.5 452.5 Q108 438 93 429 Q78 420 60.5 418.5 Q43 417 27 427 Q13 436 4.5 450 Q-4 464 -6 481 Q-10 507 4 533 L1 533 Q-49 531 -97.5 523.5 Q-146 516 -194 506 Q-242 496 -289.5 487 Q-337 478 -385 473 Q-410 471 -434 470.5 Q-458 470 -483 469 Q-507 469 -531.5 470 Q-556 471 -581 473 Q-586 473 -586 477.5 Q-586 482 -581 482 Q-555 480 -529 479 Q-503 478 -477 478 Q-451 479 -426 480 Q-401 481 -375 483 Q-327 488 -279 497.5 Q-231 507 -183.5 517 Q-136 527 -88 534.5 Q-40 542 9 542 Q11 546 13 548 Q24 563 39.5 575.5 Q55 588 72 597 Q86 605 102 610 Q118 615 134 614 Q143 615 158 613 Q173 611 188 603.5 Q203 596 216.5 580 Q230 564 236.5 536.5 Q243 509 241.5 467.5 Q240 426 225 367 Q225 364 223 360 Q230 368 236 376.5 Q242 385 249 393 Q307 468 367.5 539.5 Q428 611 494 679 Q497 682 500 679 Q503 676 500 672 Q447 618 398.5 562 Q350 506 302 447 Q280 420 259 392.5 Q238 365 218 337 Q204 283 188 226 Q172 169 159 116.5 Q146 64 138 20.5 Q130 -23 130 -50 Q131 -96 149 -126 Q156 -139 168 -150 Q180 -161 198 -167 Q216 -173 240.5 -172 Q265 -171 298 -161 Q309 -158 320 -154 Q331 -150 345 -144 Q405 -118 454.5 -79.5 Q504 -41 546 3 Q557 14 567 25.5 Q577 37 588 49 Q589 51 591 52 Q595 54 597 54 Z M95 526 Q75 531 54.5 532.5 Q34 534 14 534 Q12 531 11 528.5 Q10 526 9 524 Q1 508 1.5 490 Q2 472 11 457 Q20 441 36.5 433 Q53 425 71 430 Q88 434 102 446 Q116 458 122 475 Q129 492 124 505 Q120 514 112 519 Q104 524 95 526 Z " />
<glyph glyph-name="Y" unicode="Y" horiz-adv-x="460" d="M407 598 Q412 615 422 631 Q430 645 443 657.5 Q456 670 476 676 Q424 474 373 302 Q351 229 327.5 155 Q304 81 280 17.5 Q256 -46 233 -95 Q210 -144 190 -168 Q187 -171 182 -175.5 Q177 -180 170 -182.5 Q163 -185 155 -184 Q147 -183 138 -175 Q122 -161 118 -144 Q114 -127 114 -110 Q113 -87 116.5 -64 Q120 -41 125 -19 Q136 25 157 64 Q178 103 204 138 Q254 199 315 253 L318 265 L318 267 Q289 244 256.5 226.5 Q224 209 182 207 Q178 206 170 206 L166 206 Q118 207 89 223.5 Q60 240 47 267.5 Q34 295 33.5 330 Q33 365 40.5 402.5 Q48 440 61 477 Q74 514 88 546 Q89 548 90 551 Q91 553 92 556.5 Q93 560 95 564 Q95 567 97 571 Q101 575 102.5 578.5 Q104 582 106 586 Q111 596 118.5 605.5 Q126 615 133 622 Q109 616 86 603.5 Q63 591 43 575 Q14 552 -11.5 527.5 Q-37 503 -65 480 Q-94 454 -126.5 432.5 Q-159 411 -195 399 Q-233 386 -271.5 383.5 Q-310 381 -348 387 Q-383 393 -417 409 Q-451 425 -477 451 Q-486 461 -496 475.5 Q-506 490 -511.5 505.5 Q-517 521 -516 537 Q-515 553 -503 567 Q-500 571 -497 567.5 Q-494 564 -497 561 Q-507 549 -507.5 535.5 Q-508 522 -502.5 508.5 Q-497 495 -489 483.5 Q-481 472 -473 463 Q-435 419 -373 402 Q-300 382 -222 400 Q-184 410 -150 429 Q-116 448 -85 474 Q-54 499 -25.5 526.5 Q3 554 33 578 Q60 599 91 615.5 Q122 632 157 634 L175 634 Q182 634 186.5 632.5 Q191 631 190 629 Q190 627 187 620 Q184 613 180 604.5 Q176 596 172 588 Q168 580 166 575 Q150 544 132.5 506 Q115 468 100.5 429 Q86 390 79 353 Q72 316 76.5 286 Q81 256 101.5 237 Q122 218 163 215 Q194 214 222 223 Q246 231 268 243.5 Q290 256 310 271 Q314 274 317.5 277.5 Q321 281 324 284 L327 296 Q327 299 330 302 Q341 343 351.5 381 Q362 419 370 452 L407 598 Z M159 -171 Q170 -160 187 -121 Q204 -82 224.5 -26.5 Q245 29 266.5 97 Q288 165 309 234 Q277 205 249.5 175 Q222 145 198 111 Q172 73 154.5 32.5 Q137 -8 129 -53 Q127 -65 126 -76.5 Q125 -88 124 -100 Q125 -111 125.5 -123 Q126 -135 131 -146 Q132 -159 145 -170 Q147 -172 150.5 -173.5 Q154 -175 157 -173 Q157 -172 157.5 -172 Q158 -172 158 -171 L159 -171 Z " />
<glyph glyph-name="Z" unicode="Z" horiz-adv-x="330" d="M461 662 Q468 655 467 642 Q466 635 463 628.5 Q460 622 456 617 L455 616 Q454 614 447 606.5 Q440 599 428.5 588.5 Q417 578 401 568 Q385 558 366 552 Q364 551 363 551 Q362 551 360 550 Q348 547 335.5 546.5 Q323 546 311 549 Q283 517 248.5 471.5 Q214 426 171 365 Q171 365 157 341.5 Q143 318 121.5 281 Q100 244 73.5 199 Q47 154 22 110 Q14 94 5 77.5 Q-4 61 -14 44 Q-15 42 -16 40 Q-17 38 -18 36 Q-19 36 -19 34 Q-1 22 13 10 Q36 -11 56 -36 Q76 -61 96 -85 Q115 -108 136.5 -129.5 Q158 -151 187 -162 Q246 -187 310 -179 Q345 -174 375 -158.5 Q405 -143 428 -116 Q430 -112 433.5 -115.5 Q437 -119 434 -122 Q397 -168 339 -182 Q276 -199 212 -180 Q198 -176 184.5 -171 Q171 -166 159 -158 Q146 -150 135 -140 Q124 -130 114 -119 Q92 -96 72.5 -70.5 Q53 -45 32 -22 Q19 -8 5.5 4.5 Q-8 17 -24 26 Q-45 -10 -66.5 -44.5 Q-88 -79 -109.5 -108 Q-131 -137 -151.5 -157.5 Q-172 -178 -189 -186 Q-205 -194 -212.5 -191 Q-220 -188 -222 -184 Q-223 -183 -223 -182 L-224 -181 L-224 -180 Q-226 -174 -224.5 -165.5 Q-223 -157 -221 -151 Q-216 -132 -209.5 -115 Q-203 -98 -195 -81 Q-185 -64 -174.5 -47.5 Q-164 -31 -153 -16 Q-142 -2 -129 11.5 Q-116 25 -102 34 Q-102 35 -101.5 35 Q-101 35 -101 36 L-101 35 L-100 36 Q-97 38 -94 39.5 Q-91 41 -88 42 Q-86 44 -78 46.5 Q-70 49 -65 48 L-61 48 L-58 54 Q-36 92 -10 139 Q16 186 48 244 Q115 366 172.5 444 Q230 522 276 569 L272 573 Q261 584 251 596 Q241 608 230 620 L218 632 L214 636 Q210 640 207 642 Q188 657 171.5 656.5 Q155 656 150 654 Q137 649 123.5 640.5 Q110 632 98 622.5 Q86 613 78 605 Q70 597 67 594 Q46 573 26.5 550.5 Q7 528 -14.5 507 Q-36 486 -60 468 Q-84 450 -114 438 Q-146 424 -183 418 Q-220 412 -259 415 Q-330 420 -396 457 Q-458 491 -505 542 Q-552 593 -584 650 Q-586 655 -582 656 Q-578 657 -576 653 Q-547 599 -502.5 550 Q-458 501 -401 468 Q-369 449 -334 437.5 Q-299 426 -264 423 Q-225 420 -188 426 Q-151 432 -119 446 Q-91 458 -67.5 475.5 Q-44 493 -23 513 Q-2 533 17 554.5 Q36 576 56 597 Q64 605 71 612 Q78 619 85 625 Q100 639 116.5 650 Q133 661 151 665 L155 665 Q157 665 158 665.5 Q159 666 160 666 L162 666 Q188 668 207 653 Q220 644 230.5 631.5 Q241 619 252 607 Q259 599 266.5 590.5 Q274 582 282 575 Q315 607 341 626 Q367 645 386.5 655 Q406 665 418 668 Q430 671 434 671 Q442 671 448.5 669.5 Q455 668 461 662 Z M-67 37 Q-66 39 -65 40 Q-70 40 -76 38 Q-89 34 -102 24 Q-110 19 -117 12.5 Q-124 6 -131 -2 Q-157 -31 -177 -64 Q-197 -96 -209 -134 Q-209 -136 -211.5 -143 Q-214 -150 -216 -158 Q-218 -166 -218 -172.5 Q-218 -179 -215 -179 L-214 -179 Q-208 -179 -201.5 -175.5 Q-195 -172 -180.5 -152 Q-166 -132 -140 -89 Q-114 -46 -69 33 L-67 37 Z M460 639 Q462 646 459 649.5 Q456 653 453 655 Q451 657 445.5 657.5 Q440 658 432 656 Q416 651 389 629.5 Q362 608 318 557 Q322 556 332 556 Q361 556 389 570.5 Q417 585 440 609 Q451 620 456 631 Q456 632 458 634 L458 636 L459 636 Q459 638 460 639 Z " />
</font>
</svg>
