<?xml version="1.0" encoding="UTF-8"?>
<svg xmlns="http://www.w3.org/2000/svg" xmlns:xlink="http://www.w3.org/1999/xlink" version="1.2" >
<font id="Morning Wishes Long Swashes Two">
<font-face  font-family="Morning Wishes Long Swashes Two" units-per-em="1000" ascent="750" descent="-250" font-style="normal" font-weight="400" font-stretch="normal" cap-height="700" x-height="500" underline-position="-75" underline-thickness="50" />
<missing-glyph  horiz-adv-x="161" d="" />
<glyph glyph-name="NULL" d="" />
<glyph glyph-name="nonmarkingreturn" unicode="&#xd;" horiz-adv-x="161" d="" />
<glyph glyph-name="space" unicode="&#x20;" horiz-adv-x="150" d="" />
<glyph glyph-name="E" unicode="E" horiz-adv-x="298" d="M398 693 Q412 687 418.5 677.5 Q425 668 427 660 Q429 649 426 639 Q425 637 425 636 Q425 635 424 633 Q423 631 422 629 Q421 627 420 625 Q420 624 419 624 Q418 622 416.5 619.5 Q415 617 413 614 Q407 603 401 597 Q395 591 390 586 Q388 584 385 586 Q383 588 384 590 Q385 592 386 593 Q406 620 408.5 635.5 Q411 651 408 659 L408 660 Q404 665 395.5 665 Q387 665 382 665 Q372 663 358.5 656 Q345 649 327 635.5 Q309 622 287 600.5 Q265 579 238 546 Q228 532 217.5 518 Q207 504 196 487 Q191 479 185 471 Q179 463 174 454 Q118 368 101.5 314.5 Q85 261 88 232 Q92 198 115 183 Q138 209 156 222.5 Q174 236 189 241 Q203 247 216 246 Q229 245 231 238 Q233 234 232.5 230.5 Q232 227 230 223 Q223 212 213.5 201.5 Q204 191 193 183 Q186 175 177 170 Q169 165 159 161 Q149 157 138 156 Q138 156 137 155 Q131 147 125 139 Q119 131 113 121 Q106 113 100.5 105 Q95 97 88 87 Q82 78 77 68.5 Q72 59 67 50 Q62 39 57.5 30 Q53 21 48 11 Q33 -29 30 -73 Q29 -86 30 -96 Q31 -101 31 -106 Q31 -111 32 -116 Q34 -121 36 -125.5 Q38 -130 44 -132 Q53 -132 61 -129 Q69 -125 77.5 -119 Q86 -113 94 -106 Q102 -100 108.5 -93.5 Q115 -87 122 -80 Q137 -64 150.5 -48 Q164 -32 178 -16 Q191 1 204.5 18.5 Q218 36 230 53 Q231 54 231.5 55 Q232 56 234 58 Q235 60 236 61 Q238 63 241 61 Q243 59 242.5 56.5 Q242 54 241 53 Q235 45 229.5 37.5 Q224 30 218 22 Q204 5 190.5 -12 Q177 -29 163 -46 Q151 -60 137.5 -75.5 Q124 -91 109 -104 Q107 -106 105.5 -107 Q104 -108 102 -110 Q91 -119 75 -129 Q59 -139 42 -140 Q37 -140 35 -139 Q30 -138 22 -135 Q14 -132 7 -123.5 Q0 -115 -4 -99.5 Q-8 -84 -5 -59 Q-3 -51 -2 -43 Q-1 -35 1 -27 L1 -26 Q1 -25 1.5 -24 Q2 -23 2 -22 Q6 -7 14.5 11.5 Q23 30 31 47 Q39 64 45 76 Q51 88 51 89 Q65 112 77 131 Q89 150 101 167 Q79 177 69 195 Q59 213 57 233 Q55 253 57.5 273.5 Q60 294 64 309 Q72 335 82 363 Q92 391 106 420 Q107 422 107 423 Q107 424 108 425 Q152 516 191.5 568.5 Q231 621 264 650 Q272 658 278.5 663 Q285 668 292 673 Q350 712 398 693 Z M181 211 Q172 202 165 193 Q158 184 150 175 Q160 176 172 181 Q184 186 197 198 L198 199 L199 200 Q215 214 223 229 Q226 235 222 235 L221 235 L220 235 Q208 233 198.5 225.5 Q189 218 181 211 Z " />
<glyph glyph-name="F" unicode="F" horiz-adv-x="355" d="M708 681 Q712 679 710 675 Q708 671 704 673 Q688 681 670.5 684 Q653 687 636 688 Q618 690 600.5 690 Q583 690 566 689 Q525 687 485.5 682.5 Q446 678 405 671 Q404 670 402 670 L390 668 Q385 667 381 666 Q377 665 376 665 Q353 639 334 604 Q317 574 300 531 Q283 488 274 434 Q273 431 273 428.5 Q273 426 272 423 Q274 425 275.5 425.5 Q277 426 279 427 Q288 432 297.5 436 Q307 440 317 442 Q335 446 359 440 Q363 438 363 434 Q363 430 359 431 Q347 435 336.5 434.5 Q326 434 315 431 Q298 426 277 416 Q275 415 273.5 414 Q272 413 270 412 Q264 376 255.5 326 Q247 276 236 221 Q225 166 210.5 109.5 Q196 53 178 4.5 Q160 -44 138 -80.5 Q116 -117 91 -132 Q84 -136 70 -139.5 Q56 -143 37 -137 Q36 -137 36 -136.5 Q36 -136 35 -136 Q20 -131 12.5 -120 Q5 -109 2 -98 Q-2 -86 -1 -72 L-1 -67 Q0 -56 1 -44.5 Q2 -33 4 -22 Q7 -4 11 14 Q15 32 20 49 Q59 195 149 312 Q161 326 173 340 Q185 354 198 368 Q206 376 213.5 383 Q221 390 229 398 Q240 458 255 510 Q261 532 269 554.5 Q277 577 286.5 597 Q296 617 307 633 Q318 649 330 658 Q325 658 315 656 Q302 654 289.5 652 Q277 650 264 649 Q249 647 234 647.5 Q219 648 205 651 Q193 653 181.5 658.5 Q170 664 163 675 Q161 678 164.5 680.5 Q168 683 170 679 Q176 670 186.5 666 Q197 662 207 660 Q220 657 233 656.5 Q246 656 258 658 Q287 660 316 664.5 Q345 669 374 674 Q419 682 463.5 689 Q508 696 554 698 Q593 700 634 698 Q653 696 672 692.5 Q691 689 708 681 Z M214 332 Q216 344 218.5 356 Q221 368 224 380 Q204 361 186.5 340.5 Q169 320 152 299 Q108 240 76 174 Q44 108 26 33 Q21 17 18 0 Q15 -17 12 -34 Q10 -45 8.5 -56 Q7 -67 7 -79 Q7 -88 9 -98.5 Q11 -109 19 -117 Q21 -119 21 -120 Q23 -122 27 -124 Q31 -126 37 -126.5 Q43 -127 50 -124 Q57 -121 65 -112 Q66 -109 68 -109 Q68 -108 68.5 -108 Q69 -108 69 -107 L70 -106 Q73 -101 76 -96.5 Q79 -92 83 -87 Q87 -81 90 -75 Q93 -69 98 -62 Q136 3 157 79 Q168 117 176 154.5 Q184 192 193 230 Q198 256 203.5 281.5 Q209 307 214 332 Z " />
<glyph glyph-name="G" unicode="G" horiz-adv-x="444" d="M435 700 Q440 699 442.5 694.5 Q445 690 439 691 L429 691 Q404 691 373.5 666.5 Q343 642 312 605.5 Q281 569 252 526 Q223 483 200 445.5 Q177 408 162.5 381.5 Q148 355 147 352 Q123 308 106 267.5 Q89 227 83 194.5 Q77 162 85.5 141.5 Q94 121 122 118 Q124 117 133 117 Q143 117 161 122 Q166 124 170 125.5 Q174 127 178 129 Q189 134 197.5 140 Q206 146 215 151 Q249 174 275.5 203 Q302 232 324 264 Q332 277 339.5 290 Q347 303 354 316 Q362 342 369.5 364 Q377 386 380 395 Q377 394 371 393 Q365 392 357 390 L356 390 Q336 385 317 381 Q298 377 279 372 L278 372 L277 372 Q270 370 269 375 Q269 377 274 380 Q312 391 350.5 398 Q389 405 429 412 Q434 414 434 408 Q434 407 431 404 Q430 403 429 403 L426 403 L413 401 Q373 233 325 108 Q304 55 280 5.5 Q256 -44 229 -79.5 Q202 -115 172.5 -131 Q143 -147 112 -134 Q102 -131 97 -124 Q78 -107 79.5 -84.5 Q81 -62 87 -45 Q94 -25 103 -6.5 Q112 12 123 30 Q128 39 133 47.5 Q138 56 143 65 Q144 67 147 69.5 Q150 72 153 71 Q158 70 155 65 Q155 64 154 64 Q150 56 145 48 Q140 40 135 32 Q125 14 115.5 -4.5 Q106 -23 99 -43 Q96 -54 93 -64 Q90 -74 91 -85 Q91 -95 95 -106 Q99 -117 110 -124 Q115 -127 127.5 -128.5 Q140 -130 158 -116 Q172 -105 182.5 -90 Q193 -75 200 -64 Q202 -60 202 -59 Q204 -55 204 -55 L204 -54 Q209 -45 214 -36.5 Q219 -28 224 -19 Q235 1 243.5 21.5 Q252 42 260 63 Q275 99 289.5 136 Q304 173 318 210 Q320 215 323 223 Q325 229 327.5 238 Q330 247 334 258 Q320 237 304 217 Q288 197 268 179 Q254 166 238 154 Q222 142 203 131 Q187 122 166 113 Q145 104 119 108 Q117 108 111 110 Q74 122 61.5 149 Q49 176 53.5 212.5 Q58 249 76 292.5 Q94 336 119 381.5 Q144 427 172.5 471 Q201 515 226 553 Q256 600 285 628.5 Q314 657 338 672.5 Q362 688 380.5 693 Q399 698 408 699 Q409 700 414 700 L435 700 L435 700 Z " />
<glyph glyph-name="H" unicode="H" horiz-adv-x="454" d="M479 680 L458 595 L307 11 Q304 2 299 -4 Q294 -10 286.5 -14.5 Q279 -19 267 -19 L339 272 L353 325 L358 345 Q328 348 298.5 349.5 Q269 351 239 348 Q228 346 218 344.5 Q208 343 197 340 L117 33 Q106 -15 93 -53 Q87 -69 80 -84.5 Q73 -100 64.5 -112 Q56 -124 46.5 -131.5 Q37 -139 27 -139 Q20 -140 12 -134 Q4 -128 0 -119.5 Q-4 -111 -8 -102 Q-12 -92 -15 -81.5 Q-18 -71 -21 -61 Q-32 -16 -32.5 30 Q-33 76 -22 120 Q-13 164 8 202 Q31 239 60 268 Q103 312 160 338 L218 568 L221 581 Q221 581 223 585 Q231 614 241 629 Q251 644 259 649 Q269 655 278 653 L273 636 L251 551 L199 350 Q202 350 203 351 Q242 359 281 358.5 Q320 358 360 354 L424 612 L427 625 Q427 625 429 629 Q437 658 447 673 Q457 688 465 693 Q475 699 484 697 L479 680 Z M158 327 Q154 325 154 325 Q135 316 117.5 304.5 Q100 293 85 279 Q52 250 27.5 214.5 Q3 179 -9 137 Q-35 46 -15 -45 Q-14 -50 -13 -55.5 Q-12 -61 -10 -66 Q-9 -69 -8.5 -71 Q-8 -73 -8 -75 Q-7 -75 -7 -76 L-7 -78 Q-5 -82 -3 -90 Q0 -99 4 -107 Q4 -108 4.5 -108.5 Q5 -109 5 -110 Q7 -116 8 -118 Q9 -121 12 -124 Q17 -129 23 -128 Q28 -128 34.5 -115.5 Q41 -103 47 -87 Q53 -69 60 -45 Q64 -34 67.5 -22.5 Q71 -11 75 1 Q84 32 93 71 L94 74 Q95 76 95 78 Q95 80 96 82 Q96 84 97 85 L133 228 L146 281 L158 327 Z " />
<glyph glyph-name="I" unicode="I" horiz-adv-x="266" d="M39 -140 Q31 -140 28.5 -129 Q26 -118 27.5 -100 Q29 -82 33 -59.5 Q37 -37 43 -14 Q46 -1 50.5 14.5 Q55 30 56 32 Q57 41 61 52 Q61 52 62 54 Q64 61 65.5 66.5 Q67 72 68 75 Q73 87 78 100.5 Q83 114 88 127 Q94 143 100 159 Q105 173 111.5 187.5 Q118 202 123 213 Q125 217 125 218 Q127 223 130 229 Q133 235 134 236 L156 324 Q157 331 161.5 348.5 Q166 366 171.5 390 Q177 414 183.5 442 Q190 470 197 499 Q213 566 233 646 Q231 643 225 637 Q208 620 194.5 601.5 Q181 583 171 562 Q169 556 164 556 Q161 556 161 559 Q161 560 162 562 Q167 578 176 591.5 Q185 605 196 618 Q200 624 205 629.5 Q210 635 215 641 Q227 654 238 665 Q248 675 260 684.5 Q272 694 283 699 Q284 699 284 699.5 Q284 700 285 700 Q234 465 187 280 Q167 201 146 125.5 Q125 50 105.5 -9 Q86 -68 69 -104 Q52 -140 39 -140 Z M57 -7 Q50 -32 44.5 -53.5 Q39 -75 36 -91.5 Q33 -108 32.5 -118 Q32 -128 36 -128 Q42 -128 53 -93.5 Q64 -59 77 -9 L77 -8 Q78 -6 78 -4 Q78 -2 79 0 Q80 2 80 4.5 Q80 7 81 9 Q81 10 81.5 10.5 Q82 11 82 13 Q83 15 83 16 Q83 17 84 19 Q92 53 99.5 87.5 Q107 122 114 152 Q118 165 122 188 Q114 168 104.5 144 Q95 120 89 103 Q86 94 83 85 Q80 77 77 68.5 Q74 60 72 52 Q70 47 69.5 43 Q69 39 67 35 Q65 27 63 20 Q61 14 59.5 6.5 Q58 -1 57 -7 Z " />
<glyph glyph-name="J" unicode="J" horiz-adv-x="337" d="M502 699 Q506 700 506 696 Q506 692 502 691 Q475 688 447.5 684 Q420 680 392 675 L359 671 Q324 463 274 293 Q253 221 226 149.5 Q199 78 166 19 Q133 -40 94 -81.5 Q55 -123 10 -135 Q-7 -140 -24 -140 L-28 -140 Q-42 -139 -54.5 -133.5 Q-67 -128 -75 -114 Q-83 -97 -81.5 -77.5 Q-80 -58 -76 -41 Q-69 -18 -61 3.5 Q-53 25 -43 46 Q-35 63 -26 79 Q-17 95 -8 112 Q42 195 114 256 Q114 257 116.5 258.5 Q119 260 120 258 Q121 256 119.5 252.5 Q118 249 116 248 Q93 228 70.5 204 Q48 180 29 153 Q15 136 4 117 Q-7 98 -18 78 Q-29 58 -38.5 38 Q-48 18 -56 -3 Q-63 -22 -69 -42.5 Q-75 -63 -74 -85 Q-74 -93 -72.5 -100.5 Q-71 -108 -66 -114 Q-58 -127 -42 -130 Q-37 -132 -33 -132 Q-29 -132 -25 -132 Q16 -132 52.5 -98 Q89 -64 121.5 -7.5 Q154 49 181.5 120.5 Q209 192 231 267 Q283 442 322 666 Q305 663 287 661.5 Q269 660 252 659 Q248 659 248 663 Q248 667 252 667 Q315 672 377 682 Q439 692 502 699 Z " />
<glyph glyph-name="K" unicode="K" horiz-adv-x="369" d="M580 63 Q582 61 580.5 57 Q579 53 577 48 Q574 43 572 37 Q544 -26 493 -72 Q487 -77 481 -82.5 Q475 -88 470 -93 Q468 -93 463.5 -96 Q459 -99 453 -102 Q442 -109 430 -116 Q424 -119 418.5 -121.5 Q413 -124 406 -126 Q399 -128 392 -130.5 Q385 -133 377 -135 Q368 -137 359 -138 Q350 -139 341 -139 Q293 -140 265.5 -121.5 Q238 -103 224 -71 Q223 -69 220.5 -63 Q218 -57 215 -47 Q207 -18 208 16 Q209 50 214.5 83.5 Q220 117 229.5 148 Q239 179 249 202 Q268 245 271.5 269.5 Q275 294 272 307 L272 308 Q271 310 271 313 Q268 320 262 323 Q256 326 253 328 Q231 336 209 336 Q188 251 165.5 167 Q143 83 121 15.5 Q99 -52 80 -94 Q61 -136 47 -136 Q39 -136 36.5 -125 Q34 -114 35.5 -96 Q37 -78 41.5 -55.5 Q46 -33 52 -10 Q55 2 59.5 17.5 Q64 33 64 35 Q66 40 67 44.5 Q68 49 69 54 Q69 55 69.5 55.5 Q70 56 70 57 Q72 64 73.5 69.5 Q75 75 77 77 Q81 90 86 103 Q91 116 96 130 Q103 146 109 162 Q114 176 120 190 Q126 204 131 215 Q131 218 133 220 Q135 225 138.5 231 Q142 237 142 238 Q147 259 152.5 281.5 Q158 304 163 325 Q165 332 169 349.5 Q173 367 179 391 Q185 415 192 443 Q199 471 206 499 Q222 565 242 645 L233 636 Q217 619 202.5 601 Q188 583 180 562 Q179 560 178 558 Q177 556 172 556 Q168 556 168.5 559 Q169 562 170 562 Q176 578 184 591 Q192 604 203 618 Q208 624 213 629 Q218 634 223 640 Q235 653 246 664 Q256 674 267.5 683.5 Q279 693 290 698 Q291 698 291.5 698.5 Q292 699 293 699 Q283 653 271 599 Q260 553 246.5 493 Q233 433 216 367 Q218 369 218 369 Q226 378 233 387 Q240 396 247 404 Q261 421 275 439.5 Q289 458 303 475 Q334 511 365 546.5 Q396 582 427 618 Q430 621 433.5 618 Q437 615 434 612 Q431 609 428.5 606 Q426 603 423 600 Q392 565 361 529.5 Q330 494 300 456 Q286 439 272 421.5 Q258 404 244 387 Q232 371 214 353 Q214 352 213.5 351.5 Q213 351 213 350 Q212 348 212 346.5 Q212 345 211 343 Q214 343 218.5 343 Q223 343 228 342 Q244 340 259.5 334 Q275 328 289 317 Q311 301 316 274 Q319 260 317.5 247.5 Q316 235 312 223 Q307 209 301.5 195 Q296 181 291 167 Q284 147 278 128 Q272 109 268 89 Q257 50 256 8 Q256 -3 256 -14 Q256 -25 258 -36 L258 -38 Q258 -43 259 -46 Q261 -52 261 -57 Q262 -57 262 -59 L262 -60 Q264 -68 267 -76.5 Q270 -85 273 -92 Q277 -98 283 -106 Q298 -124 326 -129 Q339 -131 351 -130 Q363 -129 375 -126 L376 -126 L380 -126 Q381 -125 383 -125 Q407 -118 425.5 -108 Q444 -98 446 -97 Q448 -96 449 -95 Q450 -94 452 -93 Q490 -68 517 -33 Q544 2 564 42 L566 46 Q568 50 570 53 L571 55 Q572 56 572.5 57.5 Q573 59 575 61 Q577 63 579 63 L580 63 Z M122 154 Q124 160 125.5 169 Q127 178 130 190 Q122 170 112.5 146.5 Q103 123 97 106 Q94 97 91 88 Q88 80 85 71 Q82 62 80 54 Q79 49 78 45.5 Q77 42 76 38 Q74 30 72 23 Q70 17 68.5 9.5 Q67 2 65 -4 Q51 -53 44.5 -88.5 Q38 -124 44 -125 L45 -125 Q48 -125 52 -115.5 Q56 -106 61.5 -90 Q67 -74 73 -52 Q79 -30 85 -6 L85 -5 Q86 -3 88 3 Q88 6 90 12 Q90 14 91 16 Q91 18 91.5 19 Q92 20 92 22 Q100 56 107.5 90 Q115 124 122 154 Z " />
<glyph glyph-name="L" unicode="L" horiz-adv-x="278" d="M735 -111 Q740 -110 741.5 -114.5 Q743 -119 738 -120 L711 -123 Q689 -125 668 -124 Q647 -123 626 -121 Q600 -117 575.5 -111 Q551 -105 528 -99 Q516 -94 503.5 -90 Q491 -86 479 -81 Q479 -81 471.5 -78 Q464 -75 453.5 -71 Q443 -67 432 -62.5 Q421 -58 412 -54 Q400 -48 388 -42.5 Q376 -37 364 -32 Q358 -29 352.5 -26.5 Q347 -24 341 -21 Q339 -21 338.5 -20.5 Q338 -20 337 -20 Q332 -18 328 -16 Q324 -14 319 -12 Q296 -3 276.5 3 Q257 9 243 13 Q226 17 213 19 Q209 20 207 20.5 Q205 21 203 21 L200 21 Q168 24 136 18.5 Q104 13 75 -7 Q52 -65 31 -101 Q10 -137 -8 -137 Q-17 -137 -19.5 -129.5 Q-22 -122 -20 -113 Q-19 -102 -14 -88 Q-12 -84 -10.5 -80 Q-9 -76 -7 -72 Q0 -59 8 -47 Q16 -35 25 -23 Q26 -19 27 -15.5 Q28 -12 29 -8 Q34 9 44.5 44 Q55 79 68.5 125 Q82 171 98 224.5 Q114 278 129.5 333 Q145 388 159.5 441.5 Q174 495 186 540 Q202 604 219 641.5 Q236 679 250.5 699 Q265 719 276 725 Q287 731 293 732 Q294 733 297 733 L299 733 Q301 732 306.5 731 Q312 730 316 725 Q319 722 321 713 Q321 711 321 707.5 Q321 704 320 700 Q319 699 319 696 L318 695 Q314 681 307 669 Q300 657 292 646 Q272 619 246 593 Q220 486 193 380 Q181 335 167.5 286 Q154 237 139.5 188 Q125 139 110 93 Q95 47 80 7 Q84 10 88 11 Q121 28 155 30.5 Q189 33 224 27 Q227 26 237 24 Q243 22 247 22 Q253 20 268 15.5 Q283 11 303 3 Q313 0 322 -3.5 Q331 -7 339 -11 Q341 -13 355 -19 Q369 -25 390 -33 Q408 -41 426 -49 Q441 -56 457.5 -63 Q474 -70 488 -75 Q502 -80 515 -84.5 Q528 -89 542 -93 Q543 -93 543.5 -93.5 Q544 -94 545 -94 L546 -94 L547 -94 Q551 -96 554 -96 Q579 -104 605 -108 Q615 -110 626 -112 Q644 -115 667 -115 Q678 -117 684 -115 L685 -115 Q697 -115 709.5 -114 Q722 -113 735 -111 Z M261 636 Q259 631 257 625.5 Q255 620 253 614 Q269 630 283 650 Q296 666 304 684 Q304 684 305 686 Q306 688 307 691 Q308 694 309 696 Q312 709 310 716 Q309 719 304 717 Q301 715 299 713 Q294 708 290.5 701.5 Q287 695 285 690 Q271 663 261 636 Z M25 -36 Q19 -43 14 -51 Q4 -66 -2 -84 Q-7 -97 -10 -107 Q-13 -117 -10 -117 Q-7 -117 -1.5 -106.5 Q4 -96 9 -82 Q15 -66 22 -46 L25 -36 Z " />
<glyph glyph-name="M" unicode="M" horiz-adv-x="678" d="M711 630 Q711 620 711 611 Q711 602 710 592 Q710 587 709 584 Q709 576 708 567 Q707 558 705 549 Q704 548 704 547 Q699 527 693 508 Q687 489 681 470 Q670 432 656 395 Q642 358 627 322 Q620 303 613 284 Q606 265 599 246 Q565 151 541 74 Q531 41 522 8 Q513 -25 508 -53 Q503 -81 503 -101 Q503 -121 510 -128 L512 -128 Q512 -128 514 -130 Q519 -132 524 -129 Q529 -126 533 -121 L535 -119 Q535 -119 536 -118 Q543 -110 548.5 -101 Q554 -92 560 -83 Q561 -80 565 -76 Q566 -74 567 -73 Q569 -71 570 -74 Q572 -77 571 -80 Q570 -83 568 -85 Q563 -94 558 -101 Q554 -108 550.5 -113.5 Q547 -119 542 -125 Q542 -125 541 -126 Q537 -130 535 -131 Q528 -138 522 -139 Q519 -140 513 -140 Q502 -140 495.5 -135.5 Q489 -131 484 -125 Q479 -119 475 -110 Q466 -87 468 -53.5 Q470 -20 476 11 Q483 47 495 85 Q507 132 529.5 194.5 Q552 257 577.5 323 Q603 389 625.5 453 Q648 517 660 568 Q669 607 671 630.5 Q673 654 669.5 665.5 Q666 677 659 678.5 Q652 680 643 676 Q622 665 589 626 Q584 619 578.5 612 Q573 605 567 598 Q542 561 519.5 522 Q497 483 474 445 Q435 381 403 314.5 Q371 248 340 180 L340 179 Q339 178 339 177.5 Q339 177 338 176 Q336 171 330.5 160 Q325 149 317 133 Q314 127 310 119.5 Q306 112 301 103 Q298 97 292 88 Q286 79 279.5 70.5 Q273 62 266 55.5 Q259 49 253 49 Q253 49 249 51 Q245 54 245 62.5 Q245 71 247 80 Q249 91 252 103 Q260 130 269.5 157 Q279 184 288 212 Q296 239 305 267 Q314 295 322 324 Q341 380 346 420.5 Q351 461 352 486 Q353 495 352.5 506 Q352 517 350 523 Q348 529 348 529 Q348 529 346 530 Q346 531 344 531 Q343 531 342.5 530.5 Q342 530 340 530 L339 530 Q339 530 335 528 Q320 523 303 514 Q249 483 209.5 435 Q170 387 135 336 Q127 322 119.5 310 Q112 298 104 285 Q96 274 88 265 Q81 257 74 250.5 Q67 244 62 245 Q61 245 60 246 Q57 248 57 256.5 Q57 265 58.5 275 Q60 285 62.5 294.5 Q65 304 67 310 Q68 312 68 313 Q68 314 69 316 Q69 318 69.5 319 Q70 320 70 322 Q73 333 75.5 342 Q78 351 80 360 Q88 386 91.5 406 Q95 426 97 440 Q99 451 100.5 460 Q102 469 102 477 L102 491 L102 494 Q101 496 101 497.5 Q101 499 100 501 Q96 515 84 516 Q72 517 64 515 Q63 514 62 514 L61 514 Q56 511 54 516 Q54 520 61 522 Q69 525 80 528.5 Q91 532 103 534 L104 534 Q107 534 115.5 534 Q124 534 132.5 528 Q141 522 147 508 Q153 494 151 468 Q150 454 148 440.5 Q146 427 142 416 Q140 410 139 407 Q139 406 136 395.5 Q133 385 128.5 371 Q124 357 119.5 341 Q115 325 111 313 Q124 333 137.5 353 Q151 373 165 392 Q194 433 229.5 468.5 Q265 504 310 527 Q312 527 314 529 Q316 530 318 531.5 Q320 533 324 535 Q328 536 336 539 Q344 542 353 543 Q362 544 371.5 542 Q381 540 387 532 L388 531 Q394 523 397.5 511.5 Q401 500 400 481 L400 479 Q400 476 400 472.5 Q400 469 399 466 L399 463 L398 463 Q396 448 391 421 Q386 394 375.5 353 Q365 312 347.5 254.5 Q330 197 303 121 Q316 150 328.5 177 Q341 204 354 232 Q388 308 426 379 Q440 405 455 429.5 Q470 454 485 480 Q510 522 535.5 565 Q561 608 593 646 Q599 654 606 661.5 Q613 669 621 677 Q629 684 638.5 690 Q648 696 658.5 697.5 Q669 699 679.5 694 Q690 689 699 674 Q709 658 710 633 Q710 631 711 630 Z " />
<glyph glyph-name="N" unicode="N" horiz-adv-x="506" d="M534 630 Q535 611 534 593 Q534 587 533 584 Q532 576 531 567 Q530 558 528 549 Q528 548 527 547 Q523 527 517 508 Q511 489 506 471 Q495 433 481 395.5 Q467 358 453 323 Q448 309 443 297 Q438 285 434 272 L434 271 Q426 252 420.5 234.5 Q415 217 409 198 L408 198 L408 196 Q395 157 379.5 106 Q364 55 352 8 Q340 -39 334.5 -76 Q329 -113 337 -125 Q338 -127 339.5 -127.5 Q341 -128 342 -129 Q348 -133 353 -127 Q356 -125 363 -118 Q364 -118 364 -117 Q371 -108 376.5 -99 Q382 -90 387 -82 Q389 -78 391 -77 L390 -77 L393 -74 Q397 -72 398 -72 Q401 -74 400 -77.5 Q399 -81 397 -83 Q394 -87 391.5 -91 Q389 -95 387 -100 Q383 -105 379 -111.5 Q375 -118 370 -123 L370 -124 L364 -130 Q358 -136 351 -138 Q348 -139 341 -139 Q331 -139 324 -134 Q317 -129 312 -123 Q307 -116 303 -107 Q294 -84 296 -51 Q298 -18 304 13 Q311 49 322 87 Q333 133 355.5 195 Q378 257 403 323 Q428 389 450.5 453.5 Q473 518 484 568 Q493 607 494.5 630.5 Q496 654 492.5 665.5 Q489 677 482 678.5 Q475 680 466 676 Q445 665 412 627 Q407 619 401.5 612.5 Q396 606 391 598 Q366 561 344 522.5 Q322 484 299 446 Q260 382 228.5 315.5 Q197 249 166 181 L166 180 Q166 179 165.5 178.5 Q165 178 165 177 Q162 171 155 155.5 Q148 140 138.5 121 Q129 102 118 83 Q107 64 97 49 Q84 31 75 25 Q73 24 71 24 Q62 24 68 55 Q71 78 77 95 Q86 124 95.5 154 Q105 184 114 213 Q123 240 131.5 268 Q140 296 148 325 Q166 381 171.5 421.5 Q177 462 178 487 Q178 495 178 506 Q178 517 176 524 Q174 528 172 529 Q172 529 171 530 Q170 531 168 531 Q167 531 166.5 530.5 Q166 530 165 530 L164 530 Q161 528 161 528 Q151 526 143.5 522.5 Q136 519 128 514 Q122 510 116 507 Q110 504 105 499 Q102 497 98 495.5 Q94 494 92 497 Q91 499 94.5 502 Q98 505 100 507 Q108 512 117 517.5 Q126 523 135 527 Q142 531 150 535 Q157 538 165 542 Q173 546 182 548 Q183 548 183.5 548.5 Q184 549 186 549 Q189 550 196 550 Q203 550 210 545.5 Q217 541 222.5 530.5 Q228 520 228 500 Q227 492 226 483 Q225 474 223 464 Q222 459 221.5 454.5 Q221 450 220 445 Q219 442 219 440.5 Q219 439 218 437 Q216 435 216 432 Q216 429 215 425 Q214 423 214 422 Q214 421 213 419 Q211 409 209 399 Q207 389 205 378 Q201 363 197 346.5 Q193 330 188 313 Q173 259 157 208.5 Q141 158 129 121 Q129 122 130 123 Q142 150 155 177.5 Q168 205 180 233 Q197 271 215 308 Q233 345 251 380 Q265 406 280 430.5 Q295 455 309 480 Q335 523 360 565.5 Q385 608 417 647 Q423 655 430 662 Q437 669 444 677 Q452 684 461.5 690 Q471 696 481.5 697.5 Q492 699 502 694 Q512 689 521 674 Q526 666 529 656.5 Q532 647 534 633 L534 630 L534 630 Z " />
<glyph glyph-name="O" unicode="O" horiz-adv-x="560" d="M412 699 Q426 701 448 699.5 Q470 698 490.5 683.5 Q511 669 525.5 636 Q540 603 540 542 Q540 496 530 434.5 Q520 373 501.5 306 Q483 239 456.5 171 Q430 103 397 44.5 Q364 -14 325 -59 Q286 -104 243 -125 Q228 -131 207 -136.5 Q186 -142 160 -138 Q146 -136 134 -132 Q124 -129 114 -124 Q104 -119 93 -111 Q76 -99 65 -83 Q54 -67 47 -50 Q40 -33 36 -16.5 Q32 0 30 15 Q29 26 28.5 37 Q28 48 29 59 Q29 88 32.5 115.5 Q36 143 40 164.5 Q44 186 47.5 200.5 Q51 215 52 218 Q60 241 67.5 263 Q75 285 83 307 Q87 315 91.5 325.5 Q96 336 101 346 Q103 388 113 423 Q123 458 136.5 486 Q150 514 164.5 534.5 Q179 555 190 568 Q201 581 214 592 L215 593 L217 595 Q220 598 223 600 L231 606 Q241 614 255 624.5 Q269 635 286 646 Q293 650 300 654 Q307 658 315 662 Q316 662 316.5 662.5 Q317 663 318 663 Q340 674 364 684 Q388 694 412 699 Z M117 393 Q116 388 115 383 Q114 378 113 373 Q122 392 128 406 Q134 420 136 422 Q151 450 166 476.5 Q181 503 197 528 Q205 541 217 557 Q229 573 243.5 589.5 Q258 606 274 621 Q290 636 307 647 L306 646 Q283 633 261 617 Q242 603 221.5 584.5 Q201 566 185 544 Q174 529 164.5 513.5 Q155 498 147 482 Q136 460 129 438 Q122 416 117 393 Z M402 107 Q419 147 435 195 Q451 243 466 303 Q487 385 495.5 445 Q504 505 503.5 546.5 Q503 588 495.5 613.5 Q488 639 478 653 L476 655 Q472 660 469 662 Q457 673 443 676 Q429 679 416.5 677.5 Q404 676 394 672.5 Q384 669 381 668 Q353 655 328 631 Q303 607 283 580 Q263 553 248 528.5 Q233 504 226 490 Q224 487 223 484.5 Q222 482 220 479 Q209 457 200.5 438.5 Q192 420 187 406 Q180 389 176 376 Q164 347 153 318 Q142 289 132 258 Q138 248 145 239 Q152 230 160 222 Q171 210 184 201.5 Q197 193 213 189 Q241 182 274 185 Q289 187 304 190.5 Q319 194 335 199 L336 199 Q338 200 340 199.5 Q342 199 342 197 Q343 194 340.5 193 Q338 192 337 191 Q326 187 314.5 184 Q303 181 292 179 Q262 173 231.5 176 Q201 179 175 197 Q147 217 129 247 Q117 207 108.5 167.5 Q100 128 97 87 Q94 51 93.5 14 Q93 -23 106 -58 Q120 -93 149 -111 Q156 -115 162 -118 Q168 -121 176 -123 Q188 -126 207 -123 Q226 -120 248.5 -107 Q271 -94 297.5 -67.5 Q324 -41 351 4 Q362 24 375 49.5 Q388 75 402 107 Z " />
<glyph glyph-name="P" unicode="P" horiz-adv-x="444" d="M500 660 Q514 643 518 623.5 Q522 604 520 583 Q520 581 520 578.5 Q520 576 519 571 Q519 570 518.5 570 Q518 570 518 569 Q518 565 517 564 Q515 558 514 551.5 Q513 545 512 543 Q511 541 509 535 L509 534 Q500 507 486.5 482 Q473 457 459 433 Q455 425 452 421 Q451 419 445.5 411.5 Q440 404 433.5 394 Q427 384 420 373.5 Q413 363 408 356 L408 355 L407 355 Q372 309 333.5 266.5 Q295 224 250 187 Q242 179 234 173 Q226 167 218 160 Q211 155 204 150 Q197 145 191 140 Q180 132 170 123.5 Q160 115 148 108 Q137 101 124.5 95.5 Q112 90 99 92 Q80 97 77 114 Q75 118 75 128 L13 -111 Q9 -120 4 -127 Q-1 -133 -8.5 -137.5 Q-16 -142 -28 -142 L45 150 L52 177 L58 204 L63 223 L66 232 L130 491 Q130 492 131 492 L134 504 Q134 505 134.5 505.5 Q135 506 135 507 Q144 537 153.5 552 Q163 567 171 572 Q181 578 190 577 L186 559 L164 474 L89 186 Q100 209 109.5 228 Q119 247 121 249 Q132 263 144.5 276 Q157 289 171 300 Q192 317 215.5 327.5 Q239 338 264 346 Q265 346 268 346 Q271 346 271 343 Q271 341 268 338 Q267 337 266 337 Q228 326 193.5 305.5 Q159 285 134 252 Q119 232 109 210.5 Q99 189 91 166 Q90 165 90 163 Q86 148 85 136 Q84 125 87 115.5 Q90 106 99 104 L99 103 L100 103 L101 103 L102 103 L103 103 L104 103 Q119 103 142.5 119 Q166 135 195 164.5 Q224 194 256.5 234 Q289 274 322 321 Q324 323 326.5 326.5 Q329 330 331 334 Q335 339 338 344 Q341 349 345 354 Q347 356 348 359 Q349 362 351 364 Q353 367 355.5 370.5 Q358 374 360 378 Q360 379 361 379 Q382 412 401.5 447.5 Q421 483 438 518 Q465 574 469.5 608 Q474 642 463.5 660.5 Q453 679 432 684.5 Q411 690 387 688 Q358 686 330 678 Q302 670 291 666 Q288 663 288 664 Q244 648 215 622 Q211 619 208 622 Q205 625 208 627 Q226 644 247.5 655.5 Q269 667 291 676 Q300 679 309 681.5 Q318 684 326 686 Q346 692 366.5 695.5 Q387 699 408 698 Q433 697 458 689 Q483 681 500 660 Z " />
<glyph glyph-name="Q" unicode="Q" horiz-adv-x="524" d="M604 69 Q603 73 606.5 74 Q610 75 612 70 Q616 52 609.5 34 Q603 16 592 1 Q568 -34 537.5 -61 Q507 -88 471 -106 Q432 -126 389.5 -132.5 Q347 -139 305 -135 Q283 -133 262 -129 Q241 -125 220 -119 Q200 -113 181 -102 Q162 -91 144 -80 Q127 -71 111 -62 Q95 -53 78 -45 Q44 -52 8 -46 Q1 -44 -4.5 -40 Q-10 -36 -3 -29 Q5 -20 18 -20 Q31 -20 42 -23 Q50 -25 56 -27 Q63 -24 69.5 -20.5 Q76 -17 83 -13 Q172 46 235.5 105 Q299 164 342 221.5 Q385 279 410.5 333 Q436 387 449 435 Q476 516 481.5 566 Q487 616 482 642 Q481 647 480 651.5 Q479 656 477 661 Q472 672 466 677.5 Q460 683 455 686 Q441 693 426.5 692 Q412 691 399 686 Q394 684 389 682 Q384 680 378 676 L370 672 Q350 660 326.5 637.5 Q303 615 274 576 Q268 567 261.5 558.5 Q255 550 249 539 Q247 535 245 532.5 Q243 530 241 527 Q228 507 214 483 Q200 459 185 431 Q154 374 134.5 330.5 Q115 287 104 254 Q93 221 89 198 Q85 175 85 160 Q85 153 87 145 Q89 137 94 130.5 Q99 124 107 121 Q115 118 129 121 Q152 129 174 140.5 Q196 152 216 166 Q261 195 296 232 Q310 246 322.5 262.5 Q335 279 343 297 Q348 309 348 318 Q348 323 348 326.5 Q348 330 345 333 Q343 336 339 336 Q338 337 336 337 Q333 338 329.5 340 Q326 342 328 344 Q330 346 332 346 L337 346 Q338 345 339 345 L340 345 Q341 345 341.5 344.5 Q342 344 343 344 Q359 337 356 317 Q353 296 343 279 Q333 262 320 246 Q303 226 285 209.5 Q267 193 247 177 Q226 161 204 147.5 Q182 134 159 123 Q152 120 145 117.5 Q138 115 130 113 Q111 106 93 106 L92 107 L90 107 Q75 107 64 115 Q56 121 52 133 Q41 158 50 199.5 Q59 241 78.5 289.5 Q98 338 124 388.5 Q150 439 174 481 Q176 485 176 487 Q185 499 191 511 Q202 528 213 544 Q224 560 235 575 Q276 626 305.5 649.5 Q335 673 349 681 Q356 684 371.5 690 Q387 696 406.5 699 Q426 702 447.5 699 Q469 696 489 682 Q489 682 491 681 Q504 671 514.5 653.5 Q525 636 528.5 607.5 Q532 579 527.5 538.5 Q523 498 505 441 Q477 353 441 287.5 Q405 222 360 171 Q337 143 307 110 Q277 77 242 47 Q207 17 168.5 -7 Q130 -31 91 -42 Q99 -46 105.5 -49 Q112 -52 119 -56 Q138 -67 157 -78 Q176 -89 196 -100 Q215 -110 236 -114 Q255 -119 278 -124 Q324 -130 366 -126 Q409 -122 448.5 -106.5 Q488 -91 521 -63 Q537 -50 551.5 -36 Q566 -22 578 -5 Q589 11 598.5 29.5 Q608 48 604 69 Z M15 -36 Q29 -36 42 -31 Q37 -30 33.5 -29.5 Q30 -29 26 -28 Q21 -28 16.5 -28.5 Q12 -29 7 -32 Q2 -35 7.5 -35.5 Q13 -36 15 -36 Z " />
<glyph glyph-name="R" unicode="R" horiz-adv-x="439" d="M498 -26 Q501 -22 504.5 -24.5 Q508 -27 505 -31 Q495 -42 485 -53 Q475 -64 464 -73 Q461 -75 452 -83 Q443 -91 435 -98 Q412 -115 386 -126.5 Q360 -138 334 -140 L329 -140 L324 -140 Q281 -138 260 -118.5 Q239 -99 233 -72 L233 -71 L233 -68 Q232 -64 232 -53 Q231 -39 235 -9 Q238 16 245 59.5 Q252 103 268 172 Q276 207 279 233 Q282 259 280 278 Q257 256 227 232 Q197 208 171 197 Q165 194 159.5 192 Q154 190 147 191 L146 191 L142 191 Q136 192 130 198 L128 188 L112 130 L51 -108 Q48 -117 43 -124 Q38 -130 30 -134.5 Q22 -139 10 -139 L83 152 L90 179 L97 205 L102 225 L104 233 L168 492 L168 493 L171 504 Q172 506 172 508 Q181 538 191 552.5 Q201 567 209 572 Q219 578 228 577 L223 559 L202 474 L156 296 Q161 303 166 308 Q171 313 177 318 Q188 329 204 337.5 Q220 346 237 347 L238 347 Q239 347 239 347.5 Q239 348 241 348 Q246 348 255 346.5 Q264 345 275 340 Q283 336 286 334 L287 334 Q288 333 289 333 Q290 333 292 332 L292 331 Q299 340 306.5 350 Q314 360 321 371 Q332 386 342.5 402 Q353 418 361 431 Q371 446 379 460 Q393 482 404.5 503.5 Q416 525 427 548 Q449 594 453 623 Q457 652 448 667 Q439 682 421 686.5 Q403 691 383 690 Q358 688 335.5 681.5 Q313 675 304 671 Q302 671 301.5 670.5 Q301 670 300 670 Q283 663 267.5 654.5 Q252 646 240 633 Q237 631 234.5 633.5 Q232 636 234 639 Q249 653 267 662 Q285 671 304 679 Q312 682 318.5 684 Q325 686 333 688 Q364 698 402 698 Q422 697 443.5 690.5 Q465 684 479 667 Q495 646 495.5 620.5 Q496 595 489 571 Q481 545 469.5 522 Q458 499 444 476 Q436 463 428 450 Q420 437 410 425 L411 425 Q409 423 405 417 Q365 363 317 314 L316 313 Q314 311 313.5 310 Q313 309 311 308 Q317 295 320 272 Q322 252 320.5 221 Q319 190 309 142 Q302 109 294.5 71 Q287 33 282.5 -2.5 Q278 -38 279 -67.5 Q280 -97 290 -114 Q292 -117 298.5 -123 Q305 -129 320 -131 L324 -131 L327 -131 Q349 -131 371.5 -122.5 Q394 -114 416 -100 L416 -99 Q427 -94 436.5 -86 Q446 -78 454 -72 L455 -72 Q456 -71 456 -70 L457 -69 L465 -61 Q475 -52 482.5 -43.5 Q490 -35 498 -26 Z M146 199 Q165 199 199 229 Q233 259 273 307 Q265 330 250 334 Q235 338 224 336 Q209 331 196 323 Q182 313 170 300.5 Q158 288 150 273 L133 209 Q134 201 142 200 L143 199 L144 199 L145 199 L146 199 Z " />
<glyph glyph-name="S" unicode="S" horiz-adv-x="341" d="M168 380 Q160 368 152 354 Q145 342 137.5 326.5 Q130 311 124 294 Q105 248 110 222 Q115 196 129 182 Q147 167 173 159 L185 156 Q206 150 218.5 142 Q231 134 238 125 Q245 116 247 106 Q249 96 248 86 Q248 84 246 74 Q244 64 236 49 Q234 47 233 44 Q232 41 230 39 Q228 39 228 37 Q226 34 224 31 Q222 28 219 24 Q201 -2 178.5 -30.5 Q156 -59 133.5 -83.5 Q111 -108 90.5 -124 Q70 -140 55 -140 Q51 -140 50 -139 Q45 -136 43 -130 Q41 -124 40 -119 Q40 -110 42 -101.5 Q44 -93 46 -84 Q51 -62 60 -40.5 Q69 -19 78 1 Q90 27 102.5 52.5 Q115 78 130 104 Q132 109 137 118 Q142 127 147 126 Q149 125 145 116 Q143 112 140 106 Q124 78 110.5 49.5 Q97 21 83 -8 Q74 -28 65.5 -49.5 Q57 -71 52 -93 Q47 -107 49 -123 L49 -125 L50 -126 Q54 -132 62.5 -124.5 Q71 -117 79 -107 Q94 -90 118 -57 Q142 -24 176 24 Q203 62 211.5 85 Q220 108 216 122 Q215 126 208.5 134.5 Q202 143 185 148 L184 148 L183 148 Q182 148 181.5 148.5 Q181 149 180 149 Q167 151 157.5 155 Q148 159 141 163 Q133 167 127 172 Q104 187 95.5 210 Q87 233 87.5 257.5 Q88 282 94.5 306 Q101 330 108 348 L123 378 Q144 421 171.5 465 Q199 509 230 549 Q261 589 294.5 621.5 Q328 654 360.5 674 Q393 694 424 698.5 Q455 703 481 687 Q483 685 487.5 681.5 Q492 678 495 671 Q498 664 498 654.5 Q498 645 492 633 Q490 628 487 625 L486 624 L480 615 Q471 604 464 597.5 Q457 591 451 586 Q449 584 447 586 Q445 588 447 590 Q447 591 448 592 Q448 593 449 593 Q474 619 478 635 Q482 651 480 658 Q479 660 476 663 Q473 666 466 665 Q465 665 464 664.5 Q463 664 461 664 Q461 664 459 663 Q444 659 418 645.5 Q392 632 358 604.5 Q324 577 284.5 535 Q245 493 202 432 Q191 418 183.5 405 Q176 392 168 380 Z " />
<glyph glyph-name="T" unicode="T" horiz-adv-x="336" d="M748 689 Q755 687 765 682 Q775 677 773 667 Q772 666 772 664 Q771 664 771 663 Q769 658 766.5 657.5 Q764 657 764 659 Q763 659 763 661 L763 662 L763 668 Q762 677 740 682.5 Q718 688 684.5 690.5 Q651 693 610 693 Q569 693 528 692.5 Q487 692 451 690.5 Q415 689 393 688 Q389 688 385 687.5 Q381 687 377 687 L375 675 L372 666 L352 586 L297 375 Q297 371 295 365 L267 255 L266 254 L266 252 L211 42 Q200 -9 186 -49 Q180 -66 172.5 -82 Q165 -98 156 -111 Q147 -124 137 -131.5 Q127 -139 116 -139 Q109 -140 101 -134 Q93 -128 88 -119 Q83 -110 79 -100 Q75 -89 72 -78.5 Q69 -68 66 -57 Q55 -10 54 38.5 Q53 87 64 134 Q75 180 96 219 Q108 238 121.5 255.5 Q135 273 151 289 Q174 312 200 330.5 Q226 349 256 362 L299 535 L317 604 L320 618 Q321 618 321 619 L337 685 Q326 684 316 683.5 Q306 683 298 681 Q289 680 280.5 679.5 Q272 679 264 678 Q259 677 255 676.5 Q251 676 246 676 Q211 672 162.5 664.5 Q114 657 67.5 646 Q21 635 -16.5 620.5 Q-54 606 -66 587 Q-68 584 -68 578 Q-67 578 -67 576 Q-66 574 -66.5 571.5 Q-67 569 -69 568 Q-72 566 -73.5 568 Q-75 570 -76 572 Q-78 578 -76.5 583 Q-75 588 -72 592 Q-68 596 -64 601 Q-45 618 -8.5 631.5 Q28 645 71.5 655.5 Q115 666 161.5 673 Q208 680 245.5 684.5 Q283 689 307.5 691 Q332 693 333 693 Q431 699 501 700 Q571 701 619 700 Q667 699 696.5 696 Q726 693 744 690 Q745 689 748 689 Z M254 351 Q253 350 252 350 Q251 350 250 349 Q210 331 177 300 Q142 270 116.5 233 Q91 196 78 151 Q50 56 72 -41 Q73 -46 74 -51.5 Q75 -57 77 -62 Q78 -66 80 -72 L80 -73 Q80 -74 81 -75 L84 -87 Q86 -92 87.5 -96.5 Q89 -101 91 -106 Q91 -107 93 -109 Q95 -115 98 -117 Q99 -120 102 -123 Q106 -129 112 -128 Q117 -128 124 -115 Q131 -102 137 -85 Q144 -66 151 -41 Q155 -28 158.5 -16 Q162 -4 166 8 Q176 38 187 82 L188 85 Q188 87 188.5 89 Q189 91 189 93 Q189 95 190 96 L227 246 L242 302 L254 351 Z " />
<glyph glyph-name="U" unicode="U" horiz-adv-x="441" d="M463 532 Q391 312 355 154 Q340 87 331 27 Q322 -33 325 -72.5 Q328 -112 347 -124 Q366 -136 406 -106 Q408 -111 402 -113 Q400 -115 398.5 -116 Q397 -117 395 -118 Q394 -119 391 -121 Q388 -123 380 -127 Q374 -131 362 -135 Q350 -139 337 -139 Q320 -139 311 -124.5 Q302 -110 298.5 -87 Q295 -64 296 -37 Q297 -10 299.5 15.5 Q302 41 305 60.5 Q308 80 310 88 Q310 90 311 92 Q313 103 315 112 Q317 121 319 131 Q298 99 276 69 Q254 39 228 11 Q222 3 215 -4.5 Q208 -12 201 -19 Q193 -27 185.5 -32.5 Q178 -38 170 -44 Q162 -49 154 -54 Q146 -59 137 -62 Q134 -64 131.5 -65 Q129 -66 125 -68 Q120 -70 113 -71.5 Q106 -73 99 -73 L95 -73 Q72 -71 57.5 -53 Q43 -35 35 -13 Q27 21 30 68.5 Q33 116 42 171.5 Q51 227 65.5 286.5 Q80 346 96 403 Q134 537 187 685 Q196 691 205 695.5 Q214 700 220 700 Q226 700 228 694.5 Q230 689 224 675 Q219 663 205 625.5 Q191 588 172.5 535 Q154 482 134 417.5 Q114 353 96.5 288 Q79 223 66.5 161 Q54 99 52 50 L52 45 Q50 16 53 -4 Q53 -9 54 -13 Q55 -22 60 -34 Q61 -35 61.5 -36.5 Q62 -38 64 -40 Q69 -50 77 -56.5 Q85 -63 98 -64 L99 -64 L101 -64 Q108 -64 117 -61 Q118 -61 122 -59 Q129 -58 139 -53 Q175 -34 201 -7 Q208 1 215.5 8.5 Q223 16 229 24 Q245 42 256 58 Q270 75 282 92 Q294 109 306 127 Q311 135 315 141.5 Q319 148 324 156 Q326 167 327.5 176 Q329 185 331 192 Q333 200 334 206 Q344 249 355.5 290 Q367 331 378 367.5 Q389 404 398.5 433.5 Q408 463 414 482 Q422 502 429 510.5 Q436 519 440 521 L443 522 L463 532 L463 532 Z " />
<glyph glyph-name="V" unicode="V" horiz-adv-x="385" d="M323 360 Q322 360 322 359 Q281 305 245 246 Q209 187 174 127 Q152 85 130.5 44.5 Q109 4 88 -38 Q75 -67 60 -94 L58 -97 L56 -102 Q47 -119 38.5 -129.5 Q30 -140 21 -140 Q13 -140 12.5 -118 Q12 -96 17.5 -58.5 Q23 -21 33.5 28.5 Q44 78 57 132 Q70 186 84.5 242 Q99 298 112.5 349 Q126 400 137.5 442 Q149 484 157 511 Q161 525 166 534.5 Q171 544 175 550 Q179 557 184 562 Q197 573 208 581.5 Q219 590 224 593 Q225 593 227 594 Q231 596 233 596 Q235 595 235 592.5 Q235 590 233 582 Q232 582 232 581 Q209 512 187.5 442 Q166 372 146 302 Q131 249 117 196.5 Q103 144 90 91 Q84 65 78 38.5 Q72 12 66 -14 Q64 -21 63 -27 Q62 -33 60 -39 L60 -40 Q58 -47 57 -53.5 Q56 -60 55 -66 L55 -68 Q54 -76 53 -83 Q52 -90 50 -98 Q55 -87 60 -77.5 Q65 -68 71 -58 Q113 27 157 109.5 Q201 192 252 271 Q275 307 300 342 Q325 377 352 410 Q363 424 376 439.5 Q389 455 400.5 467.5 Q412 480 420 489.5 Q428 499 430 501 Q435 506 439.5 511 Q444 516 449 521 Q492 564 542 605 Q566 625 591.5 642.5 Q617 660 643 673 Q666 684 689.5 691.5 Q713 699 735 696 Q779 690 800 646 Q802 643 798.5 639.5 Q795 636 794 640 Q786 654 775.5 665.5 Q765 677 751 682 Q731 689 708.5 686 Q686 683 664 673 Q611 650 564 611 Q504 566 451 510 Q449 509 447 507 L438 498 L432 492 Q431 491 431 490 Q429 488 427.5 486.5 Q426 485 425 483 Q404 462 376 428.5 Q348 395 323 360 Z " />
<glyph glyph-name="W" unicode="W" horiz-adv-x="706" d="M705 695 Q713 675 714.5 651 Q716 627 714 604 Q712 580 710 556.5 Q708 533 703 510 Q691 437 668 367.5 Q645 298 615 234 Q583 167 545 107.5 Q507 48 463 -3 Q443 -27 421.5 -48.5 Q400 -70 378 -90 Q357 -109 335 -125 Q324 -131 313 -135.5 Q302 -140 290 -138 Q267 -138 254.5 -119.5 Q242 -101 237 -70 Q232 -39 234 0.5 Q236 40 241.5 83 Q247 126 255 168 Q263 210 271 245 Q276 271 282 296 Q288 321 295 345 Q287 328 279 311.5 Q271 295 262 278 Q255 263 246.5 248.5 Q238 234 230 218 Q222 201 213 184 Q204 167 196 149 Q184 126 172 104 Q160 82 146 61 Q134 42 120.5 24.5 Q107 7 92 -4 Q78 -15 65 -16 Q54 -16 44 -8 L43 -8 Q43 -7 42 -7 Q42 -7 40 -5 Q25 10 22.5 38 Q20 66 24 97.5 Q28 129 36.5 160 Q45 191 51 211 Q51 213 52 214 Q54 220 55.5 225.5 Q57 231 59 237 Q67 259 74 280 Q81 301 88 323 Q93 338 97 352 Q101 366 104 378 Q116 419 123 452 Q129 480 131.5 503.5 Q134 527 125 527 Q124 527 124 527.5 Q124 528 123 528 Q122 528 122 527.5 Q122 527 120 527 Q119 526 118.5 526 Q118 526 117 525 Q106 519 94 511 Q89 507 84 503.5 Q79 500 74 497 Q72 495 69.5 494 Q67 493 66 495 Q65 497 67 499 Q69 501 71 503 Q78 509 85 514 Q92 519 99 524 Q104 527 109 531 Q114 534 119 537.5 Q124 541 131 544 Q135 546 140 547 Q144 548 149 548.5 Q154 549 159 547 Q162 547 166 545 Q171 540 176 526 Q181 512 178 480 Q174 450 161 404.5 Q148 359 120 290 Q89 212 72 159.5 Q55 107 48.5 74 Q42 41 43.5 24.5 Q45 8 50 1 Q55 -6 61 -6 Q67 -6 71 -6 Q84 -3 96 9 Q112 24 125.5 42.5 Q139 61 150 81 Q163 103 175 125 Q187 147 199 170 Q207 186 215.5 203 Q224 220 233 236 Q252 271 269.5 307.5 Q287 344 306 381 Q313 391 324 398 Q335 402 343 404 Q350 405 354 403 Q358 401 354 390 Q352 383 341.5 342 Q331 301 318.5 243 Q306 185 293.5 119.5 Q281 54 275 -2 Q269 -58 272.5 -94.5 Q276 -131 295 -131 Q304 -130 311 -128 Q323 -123 334.5 -115.5 Q346 -108 357 -99 Q367 -91 376.5 -82.5 Q386 -74 396 -65 Q489 25 563 149 Q598 211 627.5 278 Q657 345 676 418 Q687 453 693 488 Q699 523 704 558 Q706 575 707.5 592 Q709 609 709 626 Q709 643 707.5 660 Q706 677 699 692 Q697 695 700 697 Q703 699 705 695 Z " />
<glyph glyph-name="X" unicode="X" horiz-adv-x="290" d="M561 96 Q564 95 563.5 92.5 Q563 90 562 88 Q535 57 505.5 27.5 Q476 -2 442 -28 Q390 -70 325.5 -100.5 Q261 -131 187 -136 L172 -136 L166 -136 L164 -136 L156 -136 Q123 -134 103 -116.5 Q83 -99 73 -72 Q63 -45 61.5 -11.5 Q60 22 63 57 Q71 139 103 242 Q95 233 88.5 224.5 Q82 216 76 207 Q52 175 28.5 141.5 Q5 108 -15 72 Q-34 40 -49 6 Q-64 -28 -72 -65 Q-73 -70 -77.5 -69 Q-82 -68 -81 -63 Q-74 -34 -63 -5.5 Q-52 23 -38 49 Q-23 78 -5.5 105.5 Q12 133 31 160 Q50 187 70.5 214 Q91 241 111 268 Q129 319 143 370 Q151 403 160.5 435 Q170 467 175 499 Q177 516 176.5 532 Q176 548 173 564 Q169 578 161 592.5 Q153 607 139 615 Q125 623 110.5 623 Q96 623 81 618.5 Q66 614 52.5 605.5 Q39 597 29 589 L20 583 Q19 583 17.5 582 Q16 581 15 583 L14 583 L14 584 L14 585 L14 586 Q16 588 16 588 Q16 589 17 589 L18 589 Q21 592 21 592 Q43 611 62.5 619.5 Q82 628 90 630 Q96 631 101.5 632 Q107 633 115 634 Q124 634 138 633 Q152 632 166.5 624.5 Q181 617 194 602 Q207 587 214 560.5 Q221 534 219 494 Q217 454 203 396 Q202 393 202 390 Q208 398 214 405.5 Q220 413 226 421 Q282 493 340 562 Q398 631 462 696 Q465 699 468 696 Q471 693 468 689 Q417 638 370 584 Q323 530 277 473 Q257 447 236.5 420.5 Q216 394 196 367 Q182 316 167 261 Q152 206 139.5 155.5 Q127 105 119 63 Q111 21 112 -4 Q112 -48 130 -77 Q137 -89 148.5 -99.5 Q160 -110 177.5 -116 Q195 -122 218.5 -121.5 Q242 -121 274 -111 Q294 -105 318 -95 Q376 -70 423.5 -32.5 Q471 5 511 47 Q522 58 532 68.5 Q542 79 552 91 Q553 92 555 93 Q557 94 558 95 Q559 96 561 96 Z " />
<glyph glyph-name="Y" unicode="Y" horiz-adv-x="502" d="M390 298 L390 300 Q362 277 329.5 260.5 Q297 244 259 242 Q255 241 247 241 L243 241 Q195 242 167 258 Q139 274 125.5 300.5 Q112 327 110.5 361.5 Q109 396 115.5 432.5 Q122 469 134 505 Q146 541 159 572 Q159 574 160 575 Q161 581 163.5 586.5 Q166 592 168 597 Q179 620 194 635 Q209 650 232 655 Q241 658 245 655.5 Q249 653 250 647.5 Q251 642 249 635.5 Q247 629 244 624 Q231 596 213.5 558 Q196 520 181 479.5 Q166 439 157 399 Q148 359 152 327 Q156 295 175.5 274 Q195 253 238 250 Q253 249 267.5 251 Q282 253 296 257 Q320 265 340.5 277.5 Q361 290 380 304 Q383 307 386.5 310.5 Q390 314 394 317 L398 329 Q398 331 398.5 331.5 Q399 332 399 334 Q410 374 419.5 411.5 Q429 449 437 481 L470 623 Q474 640 483 655 Q491 668 503 680.5 Q515 693 534 699 Q488 501 442 334 Q422 263 400.5 191 Q379 119 357 57 Q335 -5 313.5 -53 Q292 -101 273 -124 Q270 -127 265 -131.5 Q260 -136 253 -138 Q246 -140 238 -139.5 Q230 -139 221 -131 Q207 -117 203 -100.5 Q199 -84 198 -67 Q197 -44 199.5 -22 Q202 0 207 22 Q216 64 235.5 102 Q255 140 281 175 Q304 206 330.5 233.5 Q357 261 386 287 Q387 293 390 298 Z M243 -127 Q254 -116 270 -78 Q286 -40 304 14.5 Q322 69 342 134.5 Q362 200 380 268 Q351 240 324 210.5 Q297 181 275 148 Q251 112 234 72.5 Q217 33 212 -12 Q210 -23 209 -34.5 Q208 -46 209 -57 Q208 -68 208.5 -79.5 Q209 -91 214 -102 Q219 -116 230 -126 Q231 -128 234 -129.5 Q237 -131 240 -129 L242 -127 L243 -127 Z " />
<glyph glyph-name="Z" unicode="Z" horiz-adv-x="407" d="M558 690 Q565 683 564 671 Q563 664 560 657.5 Q557 651 553 646 L552 645 Q551 643 544.5 635.5 Q538 628 526.5 618 Q515 608 499 598.5 Q483 589 464 583 Q462 582 461 582 Q460 582 458 581 Q432 574 410 580 Q382 548 348 504 Q314 460 271 400 Q271 400 257 377 Q243 354 221.5 318.5 Q200 283 174 239 Q148 195 124 152 Q116 136 107 120 Q98 104 89 87 Q88 85 87 83 Q86 81 85 79 Q84 79 84 77 Q100 67 115 54 Q138 34 157.5 9.5 Q177 -15 197 -39 Q216 -61 237.5 -82 Q259 -103 287 -114 Q346 -137 409 -130 Q443 -126 473 -110.5 Q503 -95 524 -69 Q527 -65 530.5 -68.5 Q534 -72 531 -75 Q495 -120 437 -133 Q407 -141 374.5 -140.5 Q342 -140 312 -131 Q298 -127 284.5 -122.5 Q271 -118 260 -110 Q236 -94 215 -72 Q193 -49 174 -24.5 Q155 0 134 23 Q121 37 107.5 49 Q94 61 79 70 Q58 35 36.5 1 Q15 -33 -6 -61 Q-27 -89 -47 -109.5 Q-67 -130 -84 -137 Q-100 -145 -107.5 -142 Q-115 -139 -117 -135 L-119 -133 L-119 -132 L-119 -131 Q-121 -126 -119.5 -117.5 Q-118 -109 -116 -103 Q-111 -85 -104.5 -68 Q-98 -51 -90 -35 Q-81 -18 -70.5 -2 Q-60 14 -49 29 Q-38 43 -25 56 Q-12 69 2 77 Q2 78 2.5 78 Q3 78 3 79 L3 78 Q3 79 4 79 Q7 81 9.5 82.5 Q12 84 15 85 Q17 87 24.5 89.5 Q32 92 38 91 L42 91 L45 97 Q67 135 92.5 180 Q118 225 150 282 Q216 401 273 477.5 Q330 554 375 599 Q374 600 373 600.5 Q372 601 371 603 Q360 614 350.5 626 Q341 638 330 649 Q318 662 306 672 Q294 682 278 685 Q249 690 220 670.5 Q191 651 169 625 Q167 623 164.5 626 Q162 629 165 632 Q183 653 205 670.5 Q227 688 252 693 Q266 696 280 693.5 Q294 691 307 681 Q320 673 330 660.5 Q340 648 351 637 Q358 629 365.5 620.5 Q373 612 381 605 Q413 636 439.5 654.5 Q466 673 485 683 Q504 693 516 696 Q528 699 531 699 Q539 699 545.5 697.5 Q552 696 558 690 Z M36 80 Q37 82 38 83 Q32 83 27 81 Q16 78 2 68 L1 68 Q-7 63 -13.5 56.5 Q-20 50 -27 42 Q-51 17 -73 -18 Q-82 -34 -90 -51 Q-98 -68 -104 -86 Q-105 -88 -107 -95 Q-109 -102 -111 -109.5 Q-113 -117 -113 -123.5 Q-113 -130 -110 -130 L-109 -130 Q-103 -130 -96.5 -126.5 Q-90 -123 -76 -103.5 Q-62 -84 -36 -42.5 Q-10 -1 34 76 L36 80 Z M556 668 Q558 675 555.5 678 Q553 681 550 683 Q548 685 542.5 685.5 Q537 686 529 684 Q514 679 487 658.5 Q460 638 417 588 Q421 587 431 587 Q459 587 486.5 601 Q514 615 537 639 Q545 646 553 660 Q553 661 553.5 661.5 Q554 662 554 663 Q555 663 555 665 Q556 666 556 668 Z " />
<glyph glyph-name="D" unicode="D" horiz-adv-x="447" d="M422 699 Q455 697 475 678 Q484 670 490.5 657 Q497 644 499 625 Q501 606 497.5 580 Q494 554 482 520 Q466 474 438.5 407.5 Q411 341 376 267.5 Q341 194 302 121.5 Q263 49 225 -9 Q187 -67 153 -103 Q119 -139 94 -139 Q80 -139 76 -129 Q72 -119 71 -115 Q67 -96 70 -77.5 Q73 -59 78 -41 Q84 -22 92 -3.5 Q100 15 108 33 Q114 46 123 61 Q132 76 140.5 88.5 Q149 101 155 109.5 Q161 118 161 119 L164 122 Q189 157 216 191 Q243 225 274 257 Q297 280 321 300.5 Q345 321 371 338 Q396 401 411.5 449.5 Q427 498 434.5 535 Q442 572 444 597.5 Q446 623 444 641 Q443 644 443 650 Q440 662 437 672 Q429 686 418.5 687.5 Q408 689 403 687 Q388 684 374.5 678.5 Q361 673 347 665 L345 665 Q312 646 281.5 622.5 Q251 599 223 573 Q221 566 220 560 Q219 554 218 550 Q218 549 217 548 Q216 545 214 535.5 Q212 526 208 512 Q206 504 203.5 496.5 Q201 489 199 481 Q198 480 198 478 Q197 476 197 473.5 Q197 471 196 468 Q190 447 184.5 425.5 Q179 404 174.5 386 Q170 368 167 356.5 Q164 345 164 344 L159 325 Q155 314 154 305 L153 305 L141 259 L136 240 Q135 235 133 227 L89 57 Q81 60 77 73 Q74 84 74 108 Q74 132 85 176 L85 177 L96 218 L201 641 Q213 639 223.5 632.5 Q234 626 232 610 Q232 609 230.5 602.5 Q229 596 227 588 Q279 637 340 672 Q341 672 341 673 Q348 676 354 679 Q360 682 367 685 Q377 690 387 693 Q397 696 408 698 Q412 699 422 699 Z M90 -127 Q99 -127 117.5 -111 Q136 -95 171 -48 Q202 -6 243 67 Q284 140 337 259 Q345 276 351.5 292 Q358 308 365 323 Q351 313 338 302.5 Q325 292 314 281 Q266 239 227 190 Q188 141 151 89 Q144 80 137 67 Q130 54 123 40 Q118 30 113 20 Q108 10 103 -1 Q95 -18 88.5 -37 Q82 -56 79 -75 Q78 -84 77 -92 Q76 -99 76.5 -106 Q77 -113 79 -118 Q83 -127 90 -127 Z " />
<glyph glyph-name="zero" unicode="0" horiz-adv-x="230" d="M233 509 Q236 483 231.5 456 Q227 429 219 404 Q205 358 183 319 Q172 301 160 283.5 Q148 266 134 252 Q112 230 84 223 Q83 223 82.5 222.5 Q82 222 80 222 L79 222 Q66 220 57.5 222.5 Q49 225 43 230 Q34 238 28 250 Q22 262 19 275.5 Q16 289 15.5 302 Q15 315 15 325 Q15 349 19 375 Q23 401 31 427 Q46 471 64.5 499.5 Q83 528 101.5 544.5 Q120 561 138 567.5 Q156 574 171 575 Q190 578 210 575 Q215 574 214 569.5 Q213 565 208 566 Q203 567 198 567 Q193 567 188 567 L185 567 L180 567 Q167 565 157.5 559 Q148 553 147 552 Q129 536 108 504.5 Q87 473 64 416 Q41 357 37.5 313.5 Q34 270 45 246 Q47 241 55.5 234 Q64 227 83 232 Q89 234 90 234 Q90 234 94 236 Q110 242 121.5 253.5 Q133 265 144 278 Q169 311 187 348 Q205 385 216 426 Q219 438 221 450 Q223 462 224 474 Q225 488 225 501.5 Q225 515 220 528 Q216 539 207.5 546 Q199 553 186 551 Q172 549 157 539.5 Q142 530 142 514 Q141 509 136.5 509 Q132 509 132 514 Q133 528 142.5 538 Q152 548 163 554 Q176 560 190 561 Q204 562 215 552 Q225 544 228.5 532 Q232 520 233 509 Z " />
<glyph glyph-name="one" unicode="1" horiz-adv-x="107" d="M136 573 Q136 572 129.5 552.5 Q123 533 113.5 502.5 Q104 472 91.5 434.5 Q79 397 67 361 L23 227 L38 227 Q42 227 42 222.5 Q42 218 38 218 L-17 218 Q-22 218 -22 222.5 Q-22 227 -17 227 L-2 227 L51 396 Q61 430 70.5 460 Q80 490 87 510 L97 543 Q97 543 95 542 Q86 538 78 531 L74 527 Q77 524 75 520.5 Q73 517 69 519 Q64 522 64.5 526.5 Q65 531 69 534.5 Q73 538 77.5 541 Q82 544 85 546 Q90 549 94.5 551.5 Q99 554 104 557 L136 573 L136 573 Z " />
<glyph glyph-name="two" unicode="2" horiz-adv-x="223" d="M157 226 Q162 226 162 221.5 Q162 217 157 217 L-5 217 L-8 217 L-23 217 L-27 217 L-10 234 L0 244 Q4 248 7.5 251 Q11 254 13 256 Q76 317 117.5 368 Q159 419 180 458 Q201 497 203 522.5 Q205 548 189 558 Q181 563 172 563 Q163 563 160 563 Q132 560 114 543 Q100 530 90 513 Q80 496 78 477 Q77 472 72.5 472 Q68 472 69 477 Q70 499 83 518 Q88 527 94.5 535.5 Q101 544 109 550 Q120 560 132.5 565 Q145 570 159 572 Q161 572 165 572.5 Q169 573 176 572 L187 572 Q194 571 203 568 Q212 565 219.5 559 Q227 553 232 542.5 Q237 532 235 516 Q230 486 212 456 Q194 426 177 404 Q157 380 135 356.5 Q113 333 92 313 L91 313 Q90 312 90 311.5 Q90 311 89 310 L2 226 L157 226 L157 226 Z " />
<glyph glyph-name="three" unicode="3" horiz-adv-x="199" d="M184 566 Q215 553 211 513 Q206 475 184.5 449.5 Q163 424 139 410 Q111 392 76 384 Q82 384 97.5 379.5 Q113 375 126.5 364.5 Q140 354 146.5 336 Q153 318 143 291 Q132 264 113.5 249 Q95 234 76 227 Q57 220 43 218.5 Q29 217 28 217 Q25 217 21.5 217.5 Q18 218 15 218 Q14 219 13 219 Q-9 222 -19 240 Q-22 244 -18 246 Q-14 248 -12 244 Q-2 230 15 227 Q32 224 48 230.5 Q64 237 74 243 Q92 256 104 272 Q116 288 118 305 Q120 326 115 339.5 Q110 353 101.5 361.5 Q93 370 82.5 373.5 Q72 377 65 379 L65 383 Q87 391 107 407 Q127 423 142.5 442.5 Q158 462 167 482.5 Q176 503 176.5 520 Q177 537 167 548 Q157 559 135 559 Q124 559 115.5 557.5 Q107 556 103 554 Q65 539 39 504 Q37 499 33 501.5 Q29 504 32 508 Q57 544 94 560 Q99 562 102.5 563 Q106 564 110 566 Q119 569 126 570 Q133 571 135 572 Q151 574 167 571 Q172 570 176 569 Q180 568 184 566 Z " />
<glyph glyph-name="four" unicode="4" horiz-adv-x="227" d="M181 227 Q186 227 186 222.5 Q186 218 181 218 L111 218 Q107 218 107 222.5 Q107 227 111 227 L127 227 L143 293 L148 312 L85 312 L84 312 L36 312 L27 312 L25 312 L24 312 L23 312 Q12 313 13 322 Q14 331 24.5 349 Q35 367 53.5 396 Q72 425 96 466 Q110 489 116.5 505.5 Q123 522 126 533 L126 534 Q126 535 126.5 535.5 Q127 536 127 537 Q129 545 127.5 549.5 Q126 554 125 556 Q123 559 119 563 Q114 566 108.5 566 Q103 566 98 565 Q93 565 93 569 Q93 573 98 574 Q104 575 110.5 574.5 Q117 574 122 571 Q124 570 125.5 569 Q127 568 129 567 Q134 561 136 553 Q137 549 137.5 541.5 Q138 534 136 523 Q135 521 134.5 518 Q134 515 133 513 L133 511 Q122 478 104 439.5 Q86 401 71 372 L41 321 L51 321 L68 321 L84 321 L97 321 L110 321 L123 321 L137 321 L150 321 L155 344 L156 345 L162 370 Q171 411 179 441 Q183 457 187 471 Q199 471 204 459 L170 321 L172 321 Q177 321 177 316.5 Q177 312 172 312 L168 312 L147 227 L181 227 L181 227 Z " />
<glyph glyph-name="five" unicode="5" horiz-adv-x="227" d="M227 570 Q228 575 232 573.5 Q236 572 235 568 Q232 547 217 537 Q204 527 185 525 Q152 521 115 527 L113 520 Q113 519 112.5 518.5 Q112 518 112 517 Q108 505 102 488 Q96 471 90 455 Q83 437 75 417 Q87 417 107.5 413 Q128 409 147.5 398.5 Q167 388 180.5 371 Q194 354 193 329 Q192 309 184 292 Q176 277 165 263 Q155 251 139.5 239 Q124 227 101 222 Q88 218 70 218 Q66 218 64 219 Q48 220 30.5 227.5 Q13 235 15 255 Q16 260 20.5 260 Q25 260 24 255 Q23 247 27 241.5 Q31 236 38 233 Q45 230 52.5 228.5 Q60 227 66 227 L72 227 L74 227 Q75 227 75.5 227.5 Q76 228 77 228 L78 228 L81 228 Q108 230 123.5 241.5 Q139 253 143 258 Q152 269 158 283.5 Q164 298 165 315 Q166 336 161.5 350.5 Q157 365 148.5 375.5 Q140 386 129.5 392.5 Q119 399 107 403 Q80 412 45 409 L89 543 Q97 541 103.5 539.5 Q110 538 116 536 Q148 530 179 533 Q187 534 194.5 535.5 Q202 537 209 542 Q224 551 227 570 Z " />
<glyph glyph-name="six" unicode="6" horiz-adv-x="235" d="M257 560 Q260 556 256.5 553 Q253 550 250 553 Q239 564 224.5 566 Q210 568 196 565 Q191 563 173.5 556.5 Q156 550 138 532 L132 526 L132 525 L131 525 Q130 524 130 523.5 Q130 523 129 522 Q100 490 75 432 Q71 424 68 416 Q65 408 62 400 Q60 393 57.5 387 Q55 381 53 375 Q64 383 74.5 391 Q85 399 96 406 Q108 414 122 419.5 Q136 425 150 425 Q176 425 191 402 Q199 391 200.5 377 Q202 363 200 349 Q195 319 182 294 Q159 249 113 230 L112 230 L111 229 Q106 227 94.5 224 Q83 221 69.5 221 Q56 221 43 226.5 Q30 232 23 248 Q21 251 20.5 254 Q20 257 18 260 L18 262 Q16 267 15.5 272.5 Q15 278 14 283 Q12 308 15 331.5 Q18 355 23 374.5 Q28 394 34 409.5 Q40 425 45 434 Q58 460 76 487 Q94 514 119 535 Q133 546 144.5 553 Q156 560 163 563 Q167 565 168 565 Q191 575 215 576 Q239 577 257 560 Z M67 374 Q62 370 57.5 366 Q53 362 48 357 Q44 340 42 327 Q40 314 40 303 Q38 287 40 274 Q42 263 45.5 251 Q49 239 60 234 Q64 231 68 231 Q71 230 75 230 Q85 230 96 233 Q138 245 164 281 Q187 314 192 354 Q193 367 191 380.5 Q189 394 178 404 Q167 415 152 415.5 Q137 416 122 410 Q107 404 93.5 394.5 Q80 385 67 374 Z " />
<glyph glyph-name="seven" unicode="7" horiz-adv-x="170" d="M223 556 Q223 555 222 554 L219 551 Q217 548 215 546 Q206 535 178 498.5 Q150 462 117 408 Q132 406 145 402 Q150 401 148.5 396.5 Q147 392 143 394 Q126 399 111 400 Q87 360 63.5 314.5 Q40 269 22 221 Q13 219 7 218 Q2 217 -2.5 217 Q-7 217 -5 221 Q6 248 19 278 Q30 304 46 335.5 Q62 367 82 401 Q73 401 63.5 400 Q54 399 46 396 Q42 394 41 398 Q40 402 44 404 Q54 409 65 409.5 Q76 410 87 410 Q102 435 118.5 458.5 Q135 482 152 502 Q156 506 163 514 Q170 522 177.5 530 Q185 538 191.5 545 Q198 552 201 555 Q185 560 168 561 Q151 562 134 563 Q113 564 91.5 562 Q70 560 49 557 Q45 556 43.5 560.5 Q42 565 47 566 Q70 569 92.5 571.5 Q115 574 138 572 Q152 571 166.5 570 Q181 569 195 566 Q200 564 205 563 Q210 562 214 560 Q218 558 223 556 Z " />
<glyph glyph-name="eight" unicode="8" horiz-adv-x="199" d="M203 565 Q213 555 214 541.5 Q215 528 212 516 Q205 488 185 469 Q165 450 141 437 L141 436 Q158 419 165.5 394.5 Q173 370 169 343 Q165 316 150 290.5 Q135 265 107 246 Q107 244 105 244 Q92 234 77.5 226 Q63 218 46 218 Q26 218 15 229 Q9 235 5 242 Q1 249 -2 257 Q-8 277 -4.5 297 Q-1 317 9 335 Q30 373 60 399 Q71 407 82.5 414.5 Q94 422 106 429 L105 430 Q105 431 104.5 431 Q104 431 104 432 L103 432 Q83 460 80.5 481 Q78 502 81 513 Q81 513 82 514 Q84 520 85 522 L86 524 Q92 536 104.5 550.5 Q117 565 140 573 L141 573 Q141 573 143 571 Q143 567 141 567 Q135 563 133 561 Q118 549 111 535 Q107 528 105 521 Q102 511 104 500 Q106 489 112 475 Q118 461 135 443 Q156 454 174.5 471 Q193 488 201 511 Q205 521 206 534.5 Q207 548 199 557 Q189 566 179 567 Q171 569 164.5 567.5 Q158 566 151 564 Q147 563 145.5 567 Q144 571 149 573 Q157 575 165 576.5 Q173 578 181 576 Q187 574 192.5 572 Q198 570 203 565 Z M144 350 Q144 362 140.5 377 Q137 392 125 405 Q121 409 118 413 Q115 417 111 422 Q111 422 109 421 Q92 411 76 399 Q60 387 46 372 Q38 364 32 355.5 Q26 347 21 338 Q16 329 11.5 319.5 Q7 310 5 300 Q0 279 8 258 Q10 250 14.5 243 Q19 236 26 232 Q35 226 45 226.5 Q55 227 65 230.5 Q75 234 83.5 240 Q92 246 100 252 L103 252 Q115 264 126 282 Q137 300 142 329 L142 330 Q142 332 143 334 Q145 341 144 350 Z " />
<glyph glyph-name="nine" unicode="9" horiz-adv-x="210" d="M170 578 Q199 578 208.5 560.5 Q218 543 217.5 520.5 Q217 498 211 478 Q205 458 203 452 Q202 448 196.5 433 Q191 418 181.5 396.5 Q172 375 159 350 Q146 325 129 301.5 Q112 278 92 258.5 Q72 239 49 230 Q47 229 44 228 Q41 227 39 226 Q30 223 19.5 222 Q9 221 0 223 Q-18 226 -23 242 Q-27 253 -24.5 263 Q-22 273 -17 282 Q-15 287 -11.5 284.5 Q-8 282 -10 278 Q-13 270 -15.5 260.5 Q-18 251 -14 243 Q-12 238 -6.5 235 Q-1 232 5 231 L11 231 Q28 231 43 241.5 Q58 252 65 258 Q73 267 82.5 277.5 Q92 288 100 299 Q101 300 101 300.5 Q101 301 102 302 Q115 318 125 334 Q138 353 145.5 367.5 Q153 382 158 391 Q160 394 161 398.5 Q162 403 164 407 L168 417 Q170 425 173.5 433.5 Q177 442 180 451 Q167 438 153.5 426.5 Q140 415 126 405 Q117 399 107.5 393.5 Q98 388 87 386 Q78 383 68 383 Q58 383 51 389 Q38 400 39 419 Q40 438 43 454 Q48 474 57 493.5 Q66 513 80 530 Q105 558 140 572 Q147 574 154.5 576 Q162 578 170 578 Z M186 469 Q191 487 194.5 504.5 Q198 522 196.5 536 Q195 550 187.5 558.5 Q180 567 164 567 Q160 567 158 566 L157 566 Q152 566 149 565 Q142 564 137 561 Q118 553 102 540 Q69 510 57 471 Q50 448 49 428 Q48 420 49 411.5 Q50 403 55 398 Q63 390 73.5 391.5 Q84 393 94 397 Q115 406 133 421 Q147 432 160 444 Q173 456 186 469 Z " />
<glyph glyph-name="ampersand" unicode="&#x26;" horiz-adv-x="234" d="M210 398 Q219 387 211 374 Q203 361 195 353 Q188 347 180 343 Q172 339 164 335 Q156 331 147 329 Q138 327 130 325 Q137 309 138 292 Q139 275 133 260 Q120 232 92 215 Q78 206 62 199.5 Q46 193 29 191 Q10 188 -7 192 Q-23 197 -34 209 Q-49 228 -49 256 Q-51 293 -28 322 Q-18 336 -4 348 Q10 360 26 368 Q23 375 22 382 Q21 389 20 396 Q18 431 32.5 462 Q47 493 77 511 Q93 521 113 526 Q126 529 141 529 Q156 529 170 521 Q185 510 188.5 491.5 Q192 473 181 458 Q171 445 154 443 Q152 442 148 441.5 Q144 441 142 443 Q140 446 143 449 Q144 451 145.5 450.5 Q147 450 148 450 Q150 451 152.5 451 Q155 451 157 452 Q162 454 166 455.5 Q170 457 172 461 Q180 469 181 480.5 Q182 492 176 502 Q170 512 160.5 516 Q151 520 140 520 Q129 520 118.5 517 Q108 514 99 509 Q67 490 53 454.5 Q39 419 44 383 Q44 383 43 382 Q44 382 44 381 Q44 379 44.5 378 Q45 377 45 376 Q60 381 73 381 Q84 381 89 375 Q97 366 94 356 Q89 344 77 342 Q65 340 54 343 Q48 345 42 348.5 Q36 352 33 357 Q19 347 8 334 Q-3 321 -12 307 Q-18 296 -23 277.5 Q-28 259 -27.5 241.5 Q-27 224 -19 211 Q-11 198 10 198 Q33 198 55 205.5 Q77 213 94 227 Q113 240 123.5 260.5 Q134 281 128 304 Q126 312 125 315 Q124 317 123.5 318.5 Q123 320 122 321 Q121 323 119 322 Q107 319 100 313 Q90 306 84 295 Q84 293 83 290 Q82 287 81 285 Q78 280 77 279 Q72 277 71 281 Q70 284 72 288 Q74 292 75 294 Q80 303 85.5 310.5 Q91 318 99 323 Q108 328 118 330.5 Q128 333 139 336 Q150 338 160.5 342 Q171 346 181 353 Q189 358 196.5 366 Q204 374 206 385 Q206 390 204 393 L202 395 Q202 398 204 398 Q205 400 206.5 400 Q208 400 209 399 L210 398 Z M86 364 Q85 370 80 372 Q75 374 69 373 Q63 372 56.5 370 Q50 368 46 367 Q49 357 60 352 Q65 350 71 350 Q77 350 82 353 Q84 354 86 358 L86 362 L86 364 Z " />
<glyph glyph-name="percent" unicode="&#x25;" horiz-adv-x="274" d="M232 502 Q235 505 237 501 Q239 497 236 494 Q235 493 235 492.5 Q235 492 234 491 Q169 414 105 337.5 Q41 261 -24 183 Q-27 180 -29.5 183 Q-32 186 -28 190 Q-28 192 -27 193 Q37 271 101.5 347.5 Q166 424 232 502 Z M11 369 Q5 376 2 388 Q-1 400 2 417 Q7 437 22.5 456 Q38 475 56 486 Q60 488 66.5 491.5 Q73 495 81 496.5 Q89 498 98 497 Q107 496 115 490 Q123 484 128.5 472.5 Q134 461 130 442 Q125 413 104 393.5 Q83 374 64 364 Q56 361 43 358 Q30 355 18 362 Q14 364 12 369 L11 369 Z M21 388 Q21 385 22.5 376.5 Q24 368 33 367 L36 367 L37 367 Q40 367 42.5 367.5 Q45 368 47 368 Q51 370 53.5 370.5 Q56 371 60 373 Q75 382 82.5 393.5 Q90 405 92 409 Q94 416 97 422.5 Q100 429 102 436 L102 437 L102 441 Q107 460 105 469 Q103 478 102 480 Q101 482 99 485 Q97 488 95 489 Q90 490 82 488 Q80 487 77 485.5 Q74 484 72 483 Q69 481 62 476 Q55 471 47 460 Q47 459 46 459 Q39 447 33.5 436 Q28 425 26 420 Q25 415 23 406.5 Q21 398 21 390 L21 389 L21 388 Z M188 319 Q197 314 202.5 302.5 Q208 291 204 271 Q199 243 178.5 223.5 Q158 204 138 194 Q131 191 117 187.5 Q103 184 92 192 Q90 193 85 198 Q79 206 76 218 Q73 230 78 247 Q81 267 96.5 285.5 Q112 304 130 316 Q133 318 139.5 321.5 Q146 325 154.5 326.5 Q163 328 171.5 327 Q180 326 188 319 Z M177 270 Q181 290 179.5 299 Q178 308 177 310 Q175 312 173 314.5 Q171 317 169 318 Q164 319 156 317 Q154 316 151 315 Q148 314 146 313 Q144 311 136.5 305.5 Q129 300 121 289 L121 288 Q113 276 108 265.5 Q103 255 102 250 Q100 245 98 236.5 Q96 228 95 220 L95 218 Q95 214 96.5 205.5 Q98 197 107 196 L109 196 L110 196 L112 196 Q115 196 117 196.5 Q119 197 121 197 Q124 199 127.5 200 Q131 201 133 204 Q149 212 156.5 223.5 Q164 235 166 239 Q173 252 176 266 L176 267 Q176 269 177 270 Z " />
<glyph glyph-name="numbersign" unicode="&#x23;" horiz-adv-x="301" d="M259 409 Q261 409 259 407 Q258 402 251.5 402 Q245 402 242 402 Q232 402 222.5 401.5 Q213 401 203 401 Q197 380 191 359 Q185 338 178 317 L229 317 Q235 317 233 311 Q232 306 224.5 306.5 Q217 307 215 306 Q205 306 195.5 306 Q186 306 175 305 Q169 286 163 268 Q157 250 151 231 Q150 227 149 223 Q148 219 147 214 Q145 208 140 208 Q135 208 131 212 Q129 214 130 216 Q137 239 144.5 261 Q152 283 159 305 L63 305 Q58 286 52 267.5 Q46 249 40 231 Q38 227 37.5 223 Q37 219 35 214 Q33 208 28.5 208 Q24 208 19 212 Q19 213 18.5 213.5 Q18 214 19 216 Q26 239 33 261 Q40 283 47 305 L8 305 Q5 305 2 307 Q-1 309 1 314 Q3 320 7 320 Q18 319 29.5 319 Q41 319 52 319 Q58 339 65 360 Q72 381 78 401 L35 401 Q32 401 28.5 403 Q25 405 27 409 Q31 416 34 415 L83 415 Q89 434 95 453 Q101 472 108 492 Q109 495 113 495 Q116 494 116 491 Q116 488 116 486 Q115 481 114 477.5 Q113 474 112 470 Q108 456 104.5 442 Q101 428 97 414 Q121 414 145.5 413.5 Q170 413 193 413 Q200 433 206.5 452.5 Q213 472 219 492 Q220 495 225 495 Q227 494 227.5 491 Q228 488 228 486 Q226 481 225.5 477 Q225 473 223 469 Q219 455 215.5 441 Q212 427 207 413 Q219 412 231.5 412 Q244 412 255 412 Q259 412 259 409 Z M92 401 Q86 380 80 359.5 Q74 339 68 319 Q91 318 115 318 Q139 318 163 317 Q170 338 176.5 359 Q183 380 189 401 L92 401 Z " />
<glyph glyph-name="exclam" unicode="&#x21;" horiz-adv-x="121" d="M90 645 Q102 648 110 648.5 Q118 649 123 648 Q128 647 131 645 Q96 525 68 432 Q56 392 44 354 Q32 316 22 286 Q12 256 5 238 Q-2 220 -5 220 Q-8 220 -5 238.5 Q-2 257 4 287 Q10 317 18.5 355 Q27 393 37 433 Q59 526 90 645 Z M0 160 Q0 155 -3 151 Q-6 147 -14 147 Q-22 147 -24.5 150 Q-27 153 -28 157 Q-29 161 -27 167 Q-25 172 -21.5 173.5 Q-18 175 -14 175 Q-13 175 -7 173 Q-1 171 -1 162 Q0 161 0 160 Z " />
<glyph glyph-name="quotesingle" unicode="&#x27;" horiz-adv-x="86" d="M97 652 Q100 644 97 633 Q94 622 87.5 612 Q81 602 71 595 Q61 588 51 588 Q48 588 47.5 593 Q47 598 52 599 Q56 601 59.5 606 Q63 611 64 616 Q59 619 58.5 626 Q58 633 61 641 Q64 653 76 655.5 Q88 658 97 652 Z " />
<glyph glyph-name="grave" unicode="&#x60;" horiz-adv-x="68" d="M88 611 Q91 609 90.5 606.5 Q90 604 88 603 Q79 598 70.5 604.5 Q62 611 55 616 Q49 623 43.5 632 Q38 641 43 651 Q46 656 51.5 660 Q57 664 64 661 Q71 658 73 653 Q76 645 76 643 Q76 639 75.5 636.5 Q75 634 76 632 Q76 626 79 619.5 Q82 613 88 611 Z " />
<glyph glyph-name="asciicircum" unicode="&#x5e;" horiz-adv-x="129" d="M134 562 Q136 558 132.5 557.5 Q129 557 127 560 Q121 576 117.5 592.5 Q114 609 111 626 Q100 619 91.5 610 Q83 601 74 592 Q63 582 53 572 Q43 562 33 551 Q30 548 25.5 548 Q21 548 18 551 Q12 560 19 568 Q29 579 39 589 Q49 599 60 609 Q73 624 87 636 L88 636 Q88 637 89 638 Q103 649 109 642.5 Q115 636 117 629 Q117 627 117.5 626 Q118 625 118 623 Q121 608 124.5 592.5 Q128 577 134 562 Z " />
<glyph glyph-name="asciitilde" unicode="&#x7e;" horiz-adv-x="254" d="M181 355 Q185 356 189.5 355.5 Q194 355 193 350 Q192 345 187 342.5 Q182 340 179 339 Q165 333 152 333 Q144 332 135.5 332.5 Q127 333 119 336 Q115 338 111 339.5 Q107 341 103 344 Q98 348 90 351 Q76 354 63 348.5 Q50 343 39 336 Q36 334 33.5 332.5 Q31 331 27 333 Q20 335 20 341.5 Q20 348 24 352 Q24 354 26 354 Q34 357 41 359.5 Q48 362 56 364 Q68 366 81 367 Q94 368 105 362 Q109 360 111.5 358 Q114 356 117 354 Q127 350 132 349 Q147 347 161 350 Q170 351 181 355 Z " />
<glyph glyph-name="dollar" unicode="&#x24;" horiz-adv-x="277" d="M177 543 Q180 542 186.5 539.5 Q193 537 199 532.5 Q205 528 210 521 Q215 514 215 504 Q216 500 212 500 Q208 500 206 504 L206 505 L206 507 Q204 516 198 521.5 Q192 527 186 530 Q179 534 171 536 Q166 521 162.5 506 Q159 491 155 476 Q152 467 149.5 458 Q147 449 144 440 Q158 417 172 389.5 Q186 362 195 339 Q198 334 203 313.5 Q208 293 203 273 Q204 270 202 268 L202 267 L202 266 Q198 255 191.5 243 Q185 231 174 220 Q163 208 150 201.5 Q137 195 125.5 192 Q114 189 104.5 188.5 Q95 188 92 188 L91 188 Q81 188 77 189 Q70 166 63.5 143.5 Q57 121 52 98 Q50 93 45.5 94.5 Q41 96 43 100 L67 190 Q52 193 37.5 199 Q23 205 11 214 Q-9 229 -19 253 Q-29 277 -27 302 Q-26 307 -21.5 305.5 Q-17 304 -18 300 Q-20 277 -10.5 254.5 Q-1 232 19 219 Q42 204 70 199 Q72 208 75 217.5 Q78 227 80 236 Q92 279 103.5 321 Q115 363 126 405 Q122 413 118 419.5 Q114 426 110 434 Q107 439 105.5 442.5 Q104 446 102 449 Q94 466 94.5 479.5 Q95 493 98.5 503 Q102 513 108 520 Q114 527 118 531 Q119 531 119 531.5 Q119 532 120 532 L121 533 Q122 534 122.5 534 Q123 534 124 535 Q141 545 159 546 Q162 546 163 545 Q168 563 173 580.5 Q178 598 183 616 Q185 620 189 619 Q193 618 192 613 Q187 596 182 578.5 Q177 561 172 544 L175 544 L177 543 Z M173 312 Q166 330 155.5 350.5 Q145 371 132 394 Q118 344 105 295.5 Q92 247 79 197 Q84 197 89 196.5 Q94 196 99 197 Q113 198 123 203 Q133 208 136 211 Q146 218 152.5 226.5 Q159 235 165 244 Q166 245 166 246 Q166 247 167 248 Q168 250 168 251 Q168 252 169 253 Q174 263 175.5 273 Q177 283 176.5 291 Q176 299 174.5 304.5 Q173 310 173 312 Z M139 454 Q144 475 150 495.5 Q156 516 162 537 Q160 537 158.5 536.5 Q157 536 155 536 Q141 534 129 527 Q126 525 121.5 520.5 Q117 516 116 509 Q116 508 116.5 507.5 Q117 507 117 506 L117 504 Q119 498 122 488 Q125 478 133 464 Q135 462 136 459 Q137 456 139 454 Z " />
<glyph glyph-name="asterisk" unicode="&#x2a;" horiz-adv-x="136" d="M151 602 Q152 600 151 599 Q151 597 148 595.5 Q145 594 143 594 Q134 592 124 592.5 Q114 593 104 594 L97 594 Q102 581 107 565 Q108 562 109.5 554 Q111 546 105 544 Q100 543 97 549.5 Q94 556 92 560 Q90 567 88.5 573 Q87 579 85 585 Q74 570 63 557 Q62 556 59.5 553 Q57 550 54 548 Q51 546 48 545 Q45 544 43 547 Q41 549 42.5 551.5 Q44 554 45 556 Q49 563 55 569 Q64 581 75 592 Q67 592 60 591.5 Q53 591 45 592 Q42 592 33 592.5 Q24 593 26 599 Q26 602 29 603 Q32 604 34 604 Q38 606 41.5 606 Q45 606 48 606 L79 606 Q79 608 78 609 Q76 613 74.5 617 Q73 621 71 625 Q70 630 69 634.5 Q68 639 68 644 Q68 646 68.5 649.5 Q69 653 71 654 Q76 654 80 648 Q85 640 86.5 631 Q88 622 90 614 L90 612 Q90 611 91 611 Q94 616 97 620 Q100 624 104 629 Q109 636 115.5 643 Q122 650 131 654 L132 654 L133 654 Q136 652 135 649 Q134 646 133 644 Q128 634 120.5 626 Q113 618 105 610 Q103 609 103 608 Q103 607 101 606 Q108 607 114 607.5 Q120 608 127 607 Q132 607 139 607 Q146 607 151 602 Z " />
<glyph glyph-name="parenleft" unicode="&#x28;" horiz-adv-x="82" d="M137 619 Q139 617 136 614 Q132 610 129.5 605.5 Q127 601 124 597 Q97 560 76 518 Q55 476 39 431 Q14 358 0 279 Q-5 245 -8 212 Q-11 179 -11 145 Q-11 125 -9.5 105.5 Q-8 86 -6 66 Q-4 60 -3.5 53 Q-3 46 -1 40 Q1 37 -2 35.5 Q-5 34 -6 37 Q-8 40 -9 43 Q-10 46 -11 51 Q-15 61 -18.5 71 Q-22 81 -24 92 Q-29 115 -31 140 Q-33 165 -32 189 Q-33 227 -29 265 Q-25 303 -17 340 Q-6 400 16.5 454 Q39 508 72 554 Q81 568 92 580.5 Q103 593 114 604 Q119 609 123 613 Q127 617 133 620 Q135 623 137 619 Z " />
<glyph glyph-name="parenright" unicode="&#x29;" horiz-adv-x="142" d="M79 568 Q90 510 85 450.5 Q80 391 63 334 Q53 298 40 263 Q27 228 11 196 Q0 173 -13 150.5 Q-26 128 -41 108 Q-58 82 -81 61 Q-89 53 -97 49 Q-99 47 -101 49.5 Q-103 52 -101 55 Q-96 59 -92 64 Q-88 69 -83 74 Q-55 111 -34.5 153 Q-14 195 3 239 Q28 305 43.5 374 Q59 443 63 515 Q63 535 63 554.5 Q63 574 61 594 Q60 601 59 608 Q58 615 56 622 Q54 626 59 626 Q61 628 63 625 L63 624 Q69 611 72.5 596.5 Q76 582 79 568 Z " />
<glyph glyph-name="underscore" unicode="&#x5f;" horiz-adv-x="227" d="M169 233 Q173 233 173 228 Q170 223 169 217 Q167 212 163 212 L93 212 L-52 212 Q-57 212 -55 217 Q-54 223 -51 228 Q-51 229 -50 230 Q-50 233 -46 233 L24 233 L169 233 L169 233 Z " />
<glyph glyph-name="hyphen" unicode="&#x2d;" horiz-adv-x="207" d="M157 353 Q159 353 160.5 352 Q162 351 161 349 L161 340 Q161 336 156 336 L30 336 Q25 336 25 340 Q26 343 26 349 L26 350 Q27 353 31 353 L157 353 L157 353 Z " />
<glyph glyph-name="plus" unicode="&#x2b;" horiz-adv-x="252" d="M194 350 Q199 350 199 346 Q199 344 198 341.5 Q197 339 197 337 Q197 333 193 333 L146 333 L100 333 L73 228 Q71 225 68 225 L60 225 Q57 225 57 231 Q63 253 68.5 274.5 Q74 296 80 318 Q81 322 82 325.5 Q83 329 84 333 L-2 333 Q-4 333 -5.5 334 Q-7 335 -6 337 Q-6 339 -5.5 341.5 Q-5 344 -5 346 Q-5 346 -4 347 Q-4 350 0 350 L46 350 L88 350 Q96 377 102.5 404 Q109 431 116 457 Q119 461 121 461 L129 461 Q134 461 132 455 Q126 433 120.5 411.5 Q115 390 109 367 Q108 363 107 359 Q106 355 105 350 L194 350 L194 350 Z " />
<glyph glyph-name="equal" unicode="&#x3d;" horiz-adv-x="274" d="M207 385 Q211 385 211 380 L211 372 Q209 367 206 367 L160 367 L11 367 Q7 367 7 372 L7 380 Q7 381 7.5 381 Q8 381 8 382 Q8 385 12 385 L58 385 L207 385 Z M194 317 Q199 317 199 312 Q199 310 198.5 308 Q198 306 198 304 Q198 299 194 299 L148 299 L-1 299 Q-2 299 -3 300 Q-6 300 -6 304 Q-5 307 -5 312 Q-5 317 0 317 L45 317 L194 317 Z " />
<glyph glyph-name="braceleft" unicode="&#x7b;" horiz-adv-x="145" d="M149 592 Q149 590 148 589 Q146 587 145 589 Q144 589 144 590 L143 590 Q142 591 141 591 L140 592 L139 592 L137 592 Q133 592 131 590 Q119 585 112 567 Q105 549 100 534 Q94 517 90 498.5 Q86 480 81 463 Q77 448 73 434 Q69 420 63 406 Q55 390 45.5 376 Q36 362 24 352 Q22 350 19.5 348.5 Q17 347 15 345 Q27 336 29.5 315 Q32 294 30 274 Q28 260 25.5 247 Q23 234 20 221 Q15 203 10 185 Q5 167 1 149 Q-9 121 -14 88 Q-19 66 -19 48 Q-17 37 -14.5 27 Q-12 17 -6 12 Q-4 11 -2 11 Q2 9 2 9 L3 9 L5 9 Q7 9 6.5 5 Q6 1 4 1 Q-6 -1 -17.5 4.5 Q-29 10 -37 22 Q-48 38 -48.5 61 Q-49 84 -45 106 Q-38 132 -28.5 157.5 Q-19 183 -10 207 Q-5 219 -1.5 231 Q2 243 6 255 Q9 266 12.5 276 Q16 286 19 297 Q20 305 20 312.5 Q20 320 18 327 Q14 335 9 338.5 Q4 342 -1 344 Q-2 345 -2 348 Q-2 351 -1 352 Q0 353 1.5 354 Q3 355 5 358 Q16 367 24 382 Q38 405 44.5 432 Q51 459 56 487 Q59 502 61.5 516.5 Q64 531 70 545 Q77 566 88 581 Q105 603 128 603 Q132 603 135 602.5 Q138 602 142 600 Q144 600 146.5 598 Q149 596 149 592 Z " />
<glyph glyph-name="braceright" unicode="&#x7d;" horiz-adv-x="187" d="M74 351 Q66 328 63 309 Q62 301 62.5 293.5 Q63 286 67 279 Q72 271 79 268 Q86 265 93 263 Q96 263 95.5 260 Q95 257 93 256 Q93 256 91 254 L90 254 Q89 254 89 253 Q87 252 86.5 251.5 Q86 251 84 250 Q78 245 72.5 238 Q67 231 63 223 Q51 200 44.5 173 Q38 146 36 118 Q34 93 28 68 Q22 43 6 25 Q-13 2 -40 1 Q-49 1 -56 4 Q-58 5 -61 6.5 Q-64 8 -64 12 L-64 14 Q-64 15 -63 15 Q-62 16 -60 15 Q-58 15 -58 14 L-57 14 Q-56 13 -55 13 Q-53 12 -53 12 L-49 12 Q-47 12 -42 15 Q-33 20 -27 31 Q-21 40 -17.5 51 Q-14 62 -10 73 Q-5 90 -3 108.5 Q-1 127 4 144 Q10 173 22 200 Q30 217 39.5 231 Q49 245 61 254 Q64 256 66.5 258 Q69 260 72 261 Q58 271 52.5 293 Q47 315 48 335 Q50 362 57 389 Q60 406 65.5 424 Q71 442 76 460 Q81 475 84 489.5 Q87 504 89 519 Q90 529 90.5 539 Q91 549 89 558 Q86 582 71 591 Q61 595 58 594 Q55 594 55 598 Q55 602 58 602 Q71 604 85 599.5 Q99 595 110 583 Q124 568 126 545 Q128 522 125 501 Q120 474 111.5 449 Q103 424 93 399 Q88 387 83.5 375 Q79 363 74 351 Z " />
<glyph glyph-name="bracketleft" unicode="&#x5b;" horiz-adv-x="142" d="M136 618 Q139 618 139 613 L139 607 Q138 604 136 604 L98 604 Q95 589 91.5 573.5 Q88 558 83 544 Q75 509 67 475.5 Q59 442 51 407 Q40 368 31 328 Q22 288 12 247 Q4 215 -4 181.5 Q-12 148 -20 116 Q-23 103 -26 90.5 Q-29 78 -32 66 L-4 66 Q-1 66 -1 62 L-1 57 Q-1 53 -4 53 L-62 53 Q-64 53 -65 54.5 Q-66 56 -65 57 L-65 60 Q-60 77 -56 95 Q-52 113 -47 131 Q-39 166 -30.5 201 Q-22 236 -13 271 Q-4 309 5.5 349 Q15 389 25 430 Q33 462 41.5 495.5 Q50 529 58 561 Q61 574 63.5 587.5 Q66 601 71 614 Q71 615 71.5 615 Q72 615 72 616 Q72 618 74 618 L136 618 L136 618 Z " />
<glyph glyph-name="bracketright" unicode="&#x5d;" horiz-adv-x="167" d="M142 607 Q146 607 144 602 Q144 601 143.5 601 Q143 601 143 600 Q138 583 134.5 565.5 Q131 548 127 530 Q119 495 110.5 461.5 Q102 428 93 394 Q83 353 74.5 314.5 Q66 276 55 237 Q48 205 40.5 172.5 Q33 140 25 107 Q21 94 17.5 80.5 Q14 67 12 55 Q10 52 10 52 L-54 52 Q-55 52 -55 53 Q-55 56 -55 56 L-55 61 Q-55 62 -54 63 L-16 63 L-16 64 Q-12 78 -8.5 93 Q-5 108 -2 123 Q7 156 14.5 189.5 Q22 223 29 256 Q39 294 48.5 334 Q58 374 68 412 Q76 445 84 477 Q92 509 99 543 Q103 556 105.5 568 Q108 580 111 593 L83 593 Q80 593 80 597 Q80 601 81 602 L81 604 Q84 607 83 607 L142 607 L142 607 Z " />
<glyph glyph-name="bar" unicode="&#x7c;" horiz-adv-x="150" d="M79 697 Q83 697 83 693 L83 692 Q81 672 79 651.5 Q77 631 75 611 Q71 568 67.5 526 Q64 484 60 442 Q55 392 50.5 343.5 Q46 295 41 245 L26 83 Q24 66 23 49 Q22 32 20 15 Q20 10 15 10 L9 10 Q4 10 4 15 L4 16 Q6 36 8 56.5 Q10 77 12 97 Q16 139 20 181.5 Q24 224 28 266 Q33 316 37.5 364.5 Q42 413 47 463 L62 625 Q64 642 65.5 659 Q67 676 69 693 L69 694 Q69 697 73 697 L79 697 L79 697 Z " />
<glyph glyph-name="backslash" unicode="&#x5c;" horiz-adv-x="223" d="M171 28 Q173 22 167 22 L160 22 Q157 22 155 26 L155 28 Q150 48 146 67.5 Q142 87 138 107 Q130 146 122 185 Q114 224 106 263 Q96 308 87 352 Q78 396 69 441 Q62 478 54.5 514 Q47 550 39 588 L27 648 Q27 648 27 650 Q27 653 31 653 L41 653 Q45 653 45 650 Q45 649 46 648 Q51 628 54.5 608.5 Q58 589 62 569 Q70 530 77.5 491.5 Q85 453 93 413 Q103 368 112 324 Q121 280 129 235 Q137 198 144.5 162 Q152 126 159 88 L171 28 L171 28 Z " />
<glyph glyph-name="colon" unicode="&#x3a;" horiz-adv-x="125" d="M57 351 Q55 343 48.5 337.5 Q42 332 34 334 Q15 336 22 352 Q24 359 29 364.5 Q34 370 42 370 Q51 373 56 368 Q61 361 57 351 Z M21 298 Q30 300 34 295 Q39 288 36 278 Q36 278 35 277 Q33 270 27 265 Q21 260 13 261 Q-5 264 1 280 Q3 287 8 292 Q13 297 21 298 Z " />
<glyph glyph-name="semicolon" unicode="&#x3b;" horiz-adv-x="136" d="M44 301 Q45 301 45 300 Q50 296 47.5 289 Q45 282 42 277 Q38 272 34.5 266 Q31 260 27 258 Q22 256 16.5 252.5 Q11 249 8 249 Q4 249 3.5 253 Q3 257 8 258 Q10 259 13 262.5 Q16 266 18 269 Q10 276 13 289 Q18 297 27 301 Q36 305 44 301 Z M70 367 Q71 358 66.5 350.5 Q62 343 54 340 Q48 337 40 339.5 Q32 342 32 350 Q34 366 48 372 Q54 376 62 376 Q70 376 70 368 L70 367 Z " />
<glyph glyph-name="quotedbl" unicode="&#x22;" horiz-adv-x="109" d="M122 645 Q126 638 125 631 Q124 624 120.5 617 Q117 610 111 603.5 Q105 597 101 593 Q96 591 89.5 586.5 Q83 582 77 582 Q73 582 72.5 587 Q72 592 76 592 Q88 597 91 608 Q79 616 84 632 Q88 642 100.5 647.5 Q113 653 122 645 Z M72 645 Q78 632 69 616.5 Q60 601 49 592 Q44 590 38.5 586 Q33 582 27 582 Q22 582 21.5 587 Q21 592 26 592 Q35 597 40 608 Q27 616 34 632 Q36 642 49.5 647.5 Q63 653 72 645 Z " />
<glyph glyph-name="less" unicode="&#x3c;" horiz-adv-x="195" d="M146 419 Q150 416 151.5 410.5 Q153 405 148 400 Q146 398 144 396.5 Q142 395 140 393 Q132 385 123.5 377 Q115 369 107 361 Q95 349 82.5 337 Q70 325 57 313 Q64 305 69.5 297.5 Q75 290 81 282 Q90 268 98 252.5 Q106 237 104 220 Q103 215 98 214 Q93 213 92 218 Q90 231 85 242.5 Q80 254 74 264 Q60 287 39 302.5 Q18 318 -9 323 L-11 323 Q-16 325 -15 329 Q-15 333 -12 335 Q26 356 63 377.5 Q100 399 138 420 Q142 423 146 419 Z " />
<glyph glyph-name="greater" unicode="&#x3e;" horiz-adv-x="195" d="M137 332 Q137 328 135 326 Q103 300 73.5 273.5 Q44 247 13 221 Q9 217 7 220 Q3 222 0 227 Q-3 232 2 237 Q4 239 5 241 Q6 243 8 245 Q16 254 24 263 Q32 272 39 281 Q52 295 63.5 308 Q75 321 88 335 Q71 347 59 361 Q47 372 36.5 385.5 Q26 399 25 416 Q25 421 29.5 423.5 Q34 426 36 421 Q47 389 74 367 Q101 345 133 336 Q137 335 137 332 Z " />
<glyph glyph-name="comma" unicode="&#x2c;" horiz-adv-x="133" d="M25 247 Q31 242 27.5 233 Q24 224 21 218 Q16 212 12 206 Q8 200 2 195 Q-3 192 -8.5 189 Q-14 186 -20 187 Q-23 187 -23.5 190.5 Q-24 194 -21 195 Q-15 195 -11 201 Q-7 207 -5 212 Q-12 214 -12 221 Q-14 223 -13.5 227.5 Q-13 232 -12 236 Q-8 244 4 249 Q16 254 24 247 L25 247 L25 247 Z " />
<glyph glyph-name="period" unicode="&#x2e;" horiz-adv-x="129" d="M19 254 Q21 250 21 245 Q21 240 19 235 L19 234 Q13 213 -10 213 Q-27 218 -21 237 Q-14 256 3 259 Q7 259 11.5 259 Q16 259 19 254 Z " />
<glyph glyph-name="question" unicode="&#x3f;" horiz-adv-x="235" d="M17 158 Q21 158 24.5 157.5 Q28 157 30 152 Q32 148 31.5 143.5 Q31 139 31 134 L31 133 Q24 113 8 114 Q1 115 -1.5 121 Q-4 127 -2 135 Q1 143 5.5 149.5 Q10 156 17 158 Z M199 590 Q213 576 219.5 555.5 Q226 535 225 512 Q223 481 210.5 453.5 Q198 426 181 403 Q152 361 117.5 328.5 Q83 296 50 263 Q44 258 38.5 252 Q33 246 29 240 Q27 238 26 235.5 Q25 233 23 230 L21 228 L21 227 Q21 226 20 225 L20 223 Q20 214 25 209.5 Q30 205 37 204 Q44 203 51 204.5 Q58 206 62 208 Q64 209 66 206 Q68 203 66 201 Q64 197 63 196.5 Q62 196 59 195 Q51 193 43.5 193 Q36 193 29 195 Q20 199 14.5 207.5 Q9 216 11 227 Q13 238 18 246.5 Q23 255 28 263 Q45 290 65 313.5 Q85 337 105 360.5 Q125 384 143.5 408.5 Q162 433 177 463 Q184 477 189 491.5 Q194 506 194 523 Q195 535 192.5 546.5 Q190 558 184 567 Q175 579 163.5 584.5 Q152 590 141 591 Q127 592 114 590 Q101 588 89 582 Q72 572 58.5 555 Q45 538 36 517 Q31 507 28 495 Q27 492 27 490 Q25 487 23 486 Q21 485 20 487 Q18 489 18 492 Q18 495 19 497 Q24 521 36 541.5 Q48 562 63 577 Q79 591 97 599.5 Q115 608 135 610 Q152 612 168.5 607.5 Q185 603 199 590 Z " />
<glyph glyph-name="slash" unicode="&#x2f;" horiz-adv-x="145" d="M134 649 Q138 649 138 644 L135 635 Q128 613 120.5 591 Q113 569 105 546 Q93 507 80.5 468.5 Q68 430 55 391 Q42 349 28.5 307 Q15 265 1 222 Q-11 188 -21.5 154 Q-32 120 -43 85 Q-48 71 -53 57.5 Q-58 44 -62 30 Q-63 26 -67 27 Q-71 27 -72 28 Q-74 28 -75 29.5 Q-76 31 -75 32 Q-73 38 -73 41 Q-66 63 -58.5 85 Q-51 107 -44 130 Q-31 168 -18.5 206.5 Q-6 245 6 283 Q19 326 33 368 Q47 410 61 453 Q72 487 83 521 Q94 555 105 590 Q109 604 114 617.5 Q119 631 124 645 Q124 647 125 647 Q125 649 127 649 L134 649 L134 649 Z " />
<glyph glyph-name="at" unicode="&#x40;" horiz-adv-x="312" d="M276 480 Q281 465 279.5 447.5 Q278 430 273 415 Q270 406 267 398 Q264 390 261 381 Q256 370 252 360.5 Q248 351 242 340 Q235 324 226 308.5 Q217 293 208 278 Q207 277 203 270.5 Q199 264 192 256 Q185 248 176.5 240 Q168 232 159 228 Q144 222 137 226 Q130 230 128 234 L127 234 Q118 251 127 284.5 Q136 318 152 353 Q147 345 142 338 Q137 331 132 325 Q115 302 97 284 Q88 273 78 268 Q72 265 67 265 Q51 265 48 275.5 Q45 286 46 297 Q47 306 52.5 320 Q58 334 58 335 Q62 343 67 352.5 Q72 362 77 373 Q97 407 113.5 426 Q130 445 145 456 Q150 461 156.5 463.5 Q163 466 169 468 Q178 471 187 471 Q196 471 205 469 Q210 469 208.5 465 Q207 461 203 462 Q193 463 182 462 L180 462 Q169 460 161.5 454.5 Q154 449 152 446 Q141 435 132.5 420.5 Q124 406 117 393.5 Q110 381 106 372 Q102 363 102 362 Q89 333 83 310 Q77 287 82 285 Q84 283 90 289 Q96 295 104.5 305.5 Q113 316 123 329.5 Q133 343 143 358 Q146 361 148 365 L181 414 Q182 416 182.5 416.5 Q183 417 184 419 Q188 424 192 430.5 Q196 437 204 442 Q207 445 209 446 Q210 446 212 448 Q214 450 216.5 451 Q219 452 221 453 L225 455 L217 441 Q206 424 191 395 Q176 366 164 335.5 Q152 305 147.5 279.5 Q143 254 154 244 Q161 237 170 244 Q179 251 190 265 Q192 270 195 274 Q198 278 201 283 Q205 290 209 297.5 Q213 305 218 313 Q228 331 237 350.5 Q246 370 254 389 Q255 391 255.5 392.5 Q256 394 257 395 Q261 405 263.5 414.5 Q266 424 268 433 Q270 444 270.5 457.5 Q271 471 266 482 Q263 488 259 491 L258 492 Q250 500 235.5 502.5 Q221 505 213 506 L208 506 Q201 506 195 505.5 Q189 505 182 504 Q171 503 161.5 501 Q152 499 143 497 Q117 490 102 481.5 Q87 473 85 472 Q62 455 46 434.5 Q30 414 20.5 392 Q11 370 6.5 349.5 Q2 329 1 314 Q-1 283 8 249.5 Q17 216 43 195 Q46 192 54 188 Q62 184 74 181 Q98 176 120 178 Q182 180 225 220 Q227 222 230.5 219.5 Q234 217 231 214 Q209 192 180 181 Q151 170 119 168 L109 168 Q87 169 73 173 Q59 177 53 180 Q50 181 46 183 Q27 193 11 211 Q-5 229 -13.5 253 Q-22 277 -21.5 308 Q-21 339 -6 375 Q11 420 40 446.5 Q69 473 98.5 488 Q128 503 153 508 Q178 513 187 514 Q190 514 194 514.5 Q198 515 203 515 Q214 515 226.5 514.5 Q239 514 250 509 Q270 500 276 480 Z " />
<glyph glyph-name="A" unicode="A" horiz-adv-x="428" d="M390 347 Q376 290 363.5 238.5 Q351 187 340 145 Q328 97 317 54 Q303 0 289 -42 Q283 -60 276 -77.5 Q269 -95 262 -108.5 Q255 -122 248 -130.5 Q241 -139 235 -140 L234 -140 L233 -140 Q221 -140 220.5 -117.5 Q220 -95 225 -63.5 Q230 -32 239 2 Q248 36 254 59 Q255 60 255 63 Q259 76 261 84 Q266 97 271 111 Q276 125 281 139 Q287 156 293 172 Q298 186 304 201 Q310 216 315 227 Q315 227 316 228 Q316 230 318 232 Q320 237 323 243.5 Q326 250 327 251 Q334 281 341 312.5 Q348 344 354 371 Q355 372 355 374 Q355 377 356 380 Q346 383 337 387 Q328 391 319 396 Q303 404 287 409.5 Q271 415 253 417 L253 416 Q248 406 245 403 Q234 382 210.5 343.5 Q187 305 158 263.5 Q129 222 96.5 187 Q64 152 34 139 Q23 134 10 133 Q-3 132 -10 146 Q-11 148 -11 149 Q-11 150 -12 152 Q-14 160 -14.5 169 Q-15 178 -14 186 Q-12 209 -7 231 Q-2 253 5 275 Q19 315 47 346 Q76 378 116 396 Q156 414 199 422 Q211 424 223.5 425.5 Q236 427 249 427 Q266 459 283 491 Q300 523 319 555 Q336 584 354 611 Q372 638 394 663 Q397 665 399.5 668 Q402 671 404 673 Q409 678 413.5 682 Q418 686 423 690 Q428 694 434 699 Q447 702 457 698 Q465 694 469.5 683 Q474 672 467 648 Q462 630 455 601.5 Q448 573 439 538 Q430 503 419.5 463 Q409 423 399 381 L396 372 Q395 368 394.5 365 Q394 362 393 358 Q391 350 390 347 Z M69 171 Q84 184 100 201.5 Q116 219 131.5 239 Q147 259 161.5 280 Q176 301 188 321 Q217 368 244 418 Q233 417 221.5 416 Q210 415 199 413 Q156 405 116.5 386.5 Q77 368 48 333 Q34 316 24.5 297 Q15 278 9 257 Q6 246 3.5 234.5 Q1 223 -1 212 Q-3 201 -5 189 Q-7 177 -5 165 Q-4 157 0 148.5 Q4 140 12 141 L13 141 Q22 141 31.5 145.5 Q41 150 49 155.5 Q57 161 63 166 Q69 171 69 171 Z M307 163 Q309 169 310.5 178.5 Q312 188 315 200 Q307 180 297.5 155.5 Q288 131 282 113 Q279 104 276 94 Q270 78 265 59 Q263 51 261.5 44 Q260 37 258 29 L258 28 Q249 -3 242 -31 Q235 -59 231 -80.5 Q227 -102 226.5 -115 Q226 -128 230 -129 L231 -129 Q236 -129 245.5 -99.5 Q255 -70 265.5 -26.5 Q276 17 287 68 Q298 119 307 163 Z M383 495 L386 504 Q389 516 391.5 527.5 Q394 539 397 551 L397 552 Q399 562 401.5 572 Q404 582 406 593 Q406 593 407 594 Q409 605 411.5 616 Q414 627 416 638 Q419 649 421.5 661 Q424 673 426 681 Q406 664 389.5 644 Q373 624 359 603 Q342 577 327 551 Q312 525 297 499 Q288 482 279 464.5 Q270 447 260 430 Q258 426 258 426 Q288 421 315 408 Q323 404 331 400 Q339 396 347 393 Q350 391 353 390.5 Q356 390 358 389 Q360 399 362.5 409.5 Q365 420 366 422 Q367 430 369 435 Q370 438 370 440 L373 452 L374 453 Q376 464 378.5 474 Q381 484 384 495 L383 495 Z " />
<glyph glyph-name="B" unicode="B" horiz-adv-x="408" d="M452 694 Q483 685 496.5 659.5 Q510 634 509 610 Q507 580 494 552.5 Q481 525 464 502 Q447 477 427 455 Q407 433 386 411 Q365 390 342.5 370 Q320 350 297 330 Q330 313 337 279 Q344 245 333.5 202 Q323 159 299.5 111.5 Q276 64 247.5 19.5 Q219 -25 190.5 -62 Q162 -99 142 -121 Q138 -125 130.5 -131 Q123 -137 114 -139 Q105 -141 95.5 -136.5 Q86 -132 78 -115 Q74 -106 74 -104 Q67 -79 70 -53 Q75 -18 92.5 13 Q110 44 131 73 Q151 100 174 124 Q197 148 220 173 Q222 177 226 180 Q230 183 233 186 Q234 187 236.5 188.5 Q239 190 241 188 Q242 187 242 182 Q241 180 241 179 Q235 173 232 169 Q208 145 184.5 120 Q161 95 141 68 Q120 40 102 9 Q84 -22 81 -57 Q79 -71 81 -87 Q87 -121 101.5 -123 Q116 -125 138.5 -97.5 Q161 -70 191 -14.5 Q221 41 259 122 Q270 145 277.5 164 Q285 183 290 200 Q295 215 297.5 228.5 Q300 242 301 251 L301 267 L301 269 L301 270 Q300 289 294.5 299.5 Q289 310 281 316 Q278 314 275.5 311.5 Q273 309 269 306 Q256 297 244 287 Q232 277 219 268 Q198 251 177 235 Q159 221 139 208 Q119 195 104 187 L60 16 Q52 18 48 32 Q45 43 45.5 67.5 Q46 92 57 136 L57 137 L67 178 L172 605 Q186 603 197 594.5 Q208 586 203 566 Q214 578 226 589.5 Q238 601 250 612 Q267 627 284 639.5 Q301 652 320 662 Q329 667 338.5 672.5 Q348 678 359 683 Q361 685 364 685.5 Q367 686 370 688 Q377 690 383 691.5 Q389 693 396 695 Q410 698 424 698.5 Q438 699 452 694 Z M108 200 Q130 213 154.5 233.5 Q179 254 200.5 274.5 Q222 295 236 310 Q250 325 251 327 L249 327 Q223 325 202 316.5 Q181 308 162 297 Q151 290 142 282 Q133 274 124 266 L112 220 L108 200 Z M428 535 Q447 564 454 586 Q461 608 459 624 Q459 629 457 637 L457 638 Q451 660 438 670 Q425 681 409 681.5 Q393 682 382 680 Q382 680 381 679 Q373 677 369 676 Q368 674 367 674 Q366 674 365 673 Q363 672 361.5 671.5 Q360 671 358 670 Q348 665 339 661 Q330 657 322 652 Q304 641 288 628.5 Q272 616 255 603 Q240 588 225.5 574 Q211 560 197 545 Q192 525 185 499 Q178 473 170 443 Q169 435 166 424 Q164 415 161 402.5 Q158 390 153 374 L130 285 Q134 289 137.5 292 Q141 295 146 299 Q163 311 184 321 Q205 331 230 334 Q238 335 245.5 335.5 Q253 336 261 336 Q305 380 350.5 432.5 Q396 485 428 535 Z " />
<glyph glyph-name="C" unicode="C" horiz-adv-x="363" d="M448 660 Q450 646 441 629 L441 628 Q440 627 440 626 Q436 620 435 617 Q427 606 420.5 599 Q414 592 408 587 Q408 584 405 587 Q403 589 404 591 Q405 593 406 594 Q428 622 430.5 638 Q433 654 431 661 Q429 663 426 666 Q423 669 416 668 Q414 667 411 667 Q410 666 409 666 Q400 663 387.5 657.5 Q375 652 358 641 Q353 637 328.5 617.5 Q304 598 275 562 Q266 551 256.5 537 Q247 523 237 509 Q231 499 225.5 490 Q220 481 216 471 Q211 462 206 452 Q201 442 196 433 Q179 398 165.5 361.5 Q152 325 139 288 Q131 264 123.5 240 Q116 216 108 192 Q101 169 94 145 Q87 121 80 96 Q75 73 70 50 Q65 27 60 4 Q56 -16 54 -35 Q52 -54 52 -74 Q52 -85 53.5 -98.5 Q55 -112 62 -123 Q67 -130 73.5 -131.5 Q80 -133 86.5 -131.5 Q93 -130 98.5 -127 Q104 -124 107 -121 Q126 -105 142 -84 Q156 -68 170 -52.5 Q184 -37 198 -20 Q228 13 254.5 47.5 Q281 82 307 118 Q316 130 324 142 Q332 154 341 167 L342 168 Q345 171 349 169 Q352 169 351.5 166.5 Q351 164 350 163 Q316 113 280.5 65.5 Q245 18 205 -27 Q191 -44 177 -60 Q163 -76 149 -92 Q145 -98 139 -102 L139 -103 Q135 -106 129 -114 Q116 -125 109 -130 Q100 -136 87.5 -140 Q75 -144 61 -137 Q57 -135 54.5 -133.5 Q52 -132 50 -130 L50 -129 Q37 -117 32 -100.5 Q27 -84 25 -76 Q22 -49 23.5 -11 Q25 27 34.5 78.5 Q44 130 62.5 196.5 Q81 263 113 346 Q159 467 203 537 Q247 607 284 643 Q321 679 348.5 689.5 Q376 700 390 700 Q399 701 407 699 Q414 697 421.5 694 Q429 691 436 685 L438 683 L438 682 Q446 673 448 660 Z " />
<glyph glyph-name="a" unicode="a" horiz-adv-x="184" d="M185 383 Q187 387 190 385 Q193 383 191 379 Q179 352 167 324.5 Q155 297 139 273 Q135 266 128.5 257.5 Q122 249 114 244 Q110 242 101.5 239 Q93 236 83 241 Q75 246 69.5 259.5 Q64 273 72 302 Q58 282 35.5 262 Q13 242 -7.5 234 Q-28 226 -40 236 Q-52 246 -45 285 Q-39 317 -24.5 340.5 Q-10 364 6 380 Q-9 383 -20 387 Q-32 391 -43.5 394 Q-55 397 -66 401 Q-112 415 -157.5 428.5 Q-203 442 -251 451 Q-283 456 -316.5 461 Q-350 466 -383 468 Q-417 470 -452 468.5 Q-487 467 -522 458 Q-537 454 -552.5 447.5 Q-568 441 -582 432 Q-596 423 -609 410.5 Q-622 398 -630 381 Q-646 349 -629 317 Q-621 300 -608 287.5 Q-595 275 -579 264 Q-576 262 -578 257.5 Q-580 253 -584 256 Q-591 261 -597.5 265.5 Q-604 270 -609 276 Q-622 288 -632 302.5 Q-642 317 -645 334 Q-651 366 -632 398 Q-612 426 -582 443 Q-552 460 -520 468 Q-485 476 -450.5 477.5 Q-416 479 -381 477 Q-348 475 -315 470 Q-282 465 -250 460 Q-202 451 -156.5 437.5 Q-111 424 -65 411 Q-54 407 -42.5 403.5 Q-31 400 -19 397 Q-11 395 -3 392 Q5 389 13 387 Q29 403 46 411 Q48 413 60.5 418 Q73 423 87 425 L88 425 Q101 426 101 420 Q101 414 100 413 Q100 411 99 409.5 Q98 408 97 406 Q95 404 94.5 403 Q94 402 93 400 Q80 387 62.5 380.5 Q45 374 27 376 Q17 362 8 341 Q-1 320 -8 293 Q-15 267 -13.5 256.5 Q-12 246 -5.5 246 Q1 246 12 254 Q23 262 35 273.5 Q47 285 58 297.5 Q69 310 77 319 Q85 348 92 363 Q94 368 94.5 371 Q95 374 97 376 L105 395 Q115 394 121 389 Q126 384 128 375.5 Q130 367 123 350 Q121 345 119 341 Q117 337 115 334 Q113 329 108.5 317 Q104 305 100 291 Q96 277 94 265 Q92 253 97 249 L97 248 L98 248 L99 248 Q103 246 106.5 248.5 Q110 251 113 253 Q113 252 115 256 Q123 263 128 271 Q133 279 138 287 Q152 310 163 334.5 Q174 359 185 383 Z M50 403 Q46 399 41.5 395 Q37 391 33 385 Q50 385 65.5 392 Q81 399 91 413 Q96 418 88 418 Q74 418 64.5 413 Q55 408 50 403 Z " />
<glyph glyph-name="b" unicode="b" horiz-adv-x="173" d="M173 379 Q176 382 179.5 380 Q183 378 181 375 Q169 359 156 345.5 Q143 332 127 321 L118 315 Q105 285 85 259 Q65 233 44 224 Q39 222 33 221 Q27 220 19 220 L18 221 Q-6 224 -14 242.5 Q-22 261 -22 284 Q-22 307 -17 328 Q-12 349 -10 357 Q-6 368 -3 378.5 Q0 389 4 400 Q-16 392 -37 388 Q-58 384 -79 384 Q-114 384 -146.5 391.5 Q-179 399 -211 410 Q-256 427 -299.5 447 Q-343 467 -388 484 Q-432 501 -480.5 510 Q-529 519 -575 505 Q-579 503 -580.5 507.5 Q-582 512 -577 513 Q-545 524 -512 522 Q-479 520 -447 512 Q-415 504 -384 492.5 Q-353 481 -323 467 Q-279 447 -235 428.5 Q-191 410 -143 400 Q-120 395 -95.5 393 Q-71 391 -47 395 Q-19 399 8 412 Q24 459 39 498.5 Q54 538 62 560 Q71 583 80.5 597 Q90 611 99 619 Q108 627 116 630 Q124 633 130 633 L134 633 Q136 633 138.5 633 Q141 633 143 632 L144 632 L144 631 Q148 629 151 627 Q156 622 156.5 614.5 Q157 607 155 600 Q152 581 142 559 Q125 519 100 484 Q75 449 44 419 Q43 417 42 414 Q41 411 40 408 Q74 421 94 418.5 Q114 416 123 403 Q132 390 131 370 Q130 350 123 328 Q125 330 127 331 Q141 341 152 353 Q163 365 173 379 Z M85 531 Q75 508 66.5 484.5 Q58 461 50 438 Q56 444 59 448 Q88 478 111 517 Q124 538 132 557 Q137 567 140.5 577.5 Q144 588 146 599 Q147 600 147 603 L147 607 L147 616 Q147 619 146 620 Q144 626 140 625 Q136 624 132 621 Q129 619 125 613 Q123 611 122.5 609 Q122 607 120 605 Q109 588 101 569 Q93 550 85 531 Z M24 227 Q38 227 54 249 Q70 271 84 301 Q76 299 68 298 Q60 297 52 296 Q44 295 34.5 296 Q25 297 17 302 Q12 305 9 310 Q6 300 3.5 289 Q1 278 0 270 L0 268 L0 267 Q-2 252 2.5 239.5 Q7 227 24 227 Z M105 368 Q109 394 101 403 Q93 412 81 411.5 Q69 411 55.5 405 Q42 399 36 395 L17 334 L15 329 Q15 329 14 327 Q14 324 13 323 Q16 310 27 307 Q35 304 43 304 Q51 304 59 305 Q75 307 88 311 Q100 342 105 368 Z " />
<glyph glyph-name="c" unicode="c" horiz-adv-x="130" d="M131 382 Q133 386 136.5 383.5 Q140 381 138 378 Q124 355 110 333.5 Q96 312 80 292 Q72 282 64.5 272.5 Q57 263 49 254 Q46 251 42 247 Q38 243 33 238 Q31 236 28.5 234.5 Q26 233 23 231 Q19 229 11 225.5 Q3 222 -7 222 Q-20 222 -30 228.5 Q-40 235 -44 249 Q-48 263 -44.5 285 Q-41 307 -26 338 Q-18 356 -11 367 Q-32 368 -53.5 370.5 Q-75 373 -96 377 Q-114 380 -131.5 383.5 Q-149 387 -167 389 Q-211 396 -254 399.5 Q-297 403 -342 403 Q-364 403 -385.5 402 Q-407 401 -429 399 Q-448 397 -467.5 394 Q-487 391 -505 385 Q-518 380 -530.5 372 Q-543 364 -551 353 Q-568 330 -568 299 Q-568 294 -572 294 Q-576 294 -576 299 Q-576 315 -572 330 Q-568 345 -558 358 Q-538 384 -506.5 392.5 Q-475 401 -443 405 Q-399 410 -355.5 411 Q-312 412 -268 409 Q-235 407 -201.5 403 Q-168 399 -135 392 Q-115 388 -96.5 385 Q-78 382 -59 379 Q-45 377 -32 376 Q-19 375 -5 375 Q17 406 36 412.5 Q55 419 60 419 L61 419 Q63 418 66.5 417.5 Q70 417 74 415 Q77 413 79.5 407.5 Q82 402 77 392 Q74 385 68 381 Q55 372 38 369 Q33 368 29.5 368 Q26 368 21 367 Q16 359 11.5 350.5 Q7 342 3 333 L2 333 L2 331 Q-2 326 -3 320 Q-7 310 -11.5 295 Q-16 280 -17.5 266.5 Q-19 253 -15 243 Q-11 233 2 232 Q12 231 22.5 240 Q33 249 38 254 L44 260 Q52 270 60 279.5 Q68 289 76 300 Q90 320 104 340.5 Q118 361 131 382 Z M47 400 Q35 388 27 376 Q28 376 29 376.5 Q30 377 31 377 Q42 379 53.5 383 Q65 387 70 398 Q70 398 71 399 Q72 402 71.5 405.5 Q71 409 64 409 Q59 409 54.5 405.5 Q50 402 47 400 Z " />
<glyph glyph-name="d" unicode="d" horiz-adv-x="160" d="M179 561 Q183 560 181 556 Q181 555 180 554 Q176 544 166.5 520 Q157 496 145 465 Q133 434 120 399.5 Q107 365 97 333.5 Q87 302 80 277 Q73 252 74 240 Q85 254 93 268.5 Q101 283 110 297 Q124 319 137 340.5 Q150 362 162 383 Q164 387 168 385 Q172 383 170 380 Q156 357 143 334.5 Q130 312 116 291 Q102 265 88 245 Q84 240 74.5 230 Q65 220 57 223 Q52 225 50 234 Q48 243 55 265 L55 266 L47 258 Q45 255 41 251 Q37 247 32 242 Q30 240 27.5 239 Q25 238 22 236 Q18 233 10 229.5 Q2 226 -8 226 Q-34 226 -44.5 251 Q-55 276 -32 332 Q-47 334 -62.5 336.5 Q-78 339 -93 343 Q-108 347 -123.5 351.5 Q-139 356 -154 361 Q-176 367 -197 373 Q-218 379 -239 384 Q-281 395 -324.5 401 Q-368 407 -412 402 Q-443 400 -471 393 Q-485 389 -496.5 382.5 Q-508 376 -514 362 Q-516 357 -519.5 359.5 Q-523 362 -521 366 Q-516 378 -506 386 Q-496 394 -483.5 398.5 Q-471 403 -457.5 405 Q-444 407 -432 408 Q-394 413 -356 411 Q-318 409 -280 402 Q-237 394 -195.5 381.5 Q-154 369 -112 356 Q-92 351 -72.5 347 Q-53 343 -33 342 Q-32 341 -28 341 Q-28 342 -27 343 Q-15 369 -2 384.5 Q11 400 22 408 L23 408 Q29 412 31 414 Q42 421 54 421 Q69 421 74.5 413 Q80 405 82 399 Q85 384 81 371 Q75 354 61 346 Q47 337 31 334 Q15 331 -1 331 Q-2 329 -3 327.5 Q-4 326 -5 324 Q-9 314 -13.5 299.5 Q-18 285 -19 271.5 Q-20 258 -16 248 Q-12 238 1 237 Q11 236 21.5 244.5 Q32 253 37 258 Q39 261 43 265 Q48 270 52.5 276 Q57 282 62 289 Q69 308 77.5 334.5 Q86 361 94 384 Q97 390 97 395 Q99 400 100 404 Q101 408 103 411 Q103 412 103.5 412.5 Q104 413 104 414 L104 415 Q106 421 107 423 Q108 425 108 426 Q121 464 132.5 496 Q144 528 149 539 Q149 542 151 546 Q152 548 154 549 Q158 553 164.5 557.5 Q171 562 179 561 Z M22 374 Q10 357 3 340 Q27 340 48 349 Q65 356 71 369 Q75 381 74 392 L74 393 Q74 395 73 399 Q72 403 69.5 406.5 Q67 410 63.5 411 Q60 412 54 409 Q53 409 52 408 L51 408 Q50 408 49 407 Q48 406 47 405.5 Q46 405 45 404 Q31 389 22 374 Z " />
<glyph glyph-name="e" unicode="e" horiz-adv-x="130" d="M132 382 Q134 385 138 383 Q142 381 140 378 Q112 330 81 290 Q73 279 65 269.5 Q57 260 48 251 Q46 248 41.5 243.5 Q37 239 32 234 Q30 232 27.5 231 Q25 230 23 228 Q18 225 9.5 221.5 Q1 218 -9 218 Q-21 218 -30.5 223.5 Q-40 229 -45 241 Q-50 253 -48.5 271.5 Q-47 290 -38 316 Q-58 318 -78.5 325.5 Q-99 333 -119 339 Q-143 347 -168 353 Q-193 359 -218 361 Q-265 368 -310.5 365.5 Q-356 363 -401 355 Q-424 351 -445.5 346.5 Q-467 342 -490 337 Q-510 332 -528 325 Q-546 318 -562 306 Q-566 303 -569 306 Q-572 309 -569 312 Q-550 327 -528 334 Q-506 341 -483 347 Q-457 355 -429 359.5 Q-401 364 -374 368 Q-329 374 -284 374.5 Q-239 375 -194 367 Q-173 362 -151.5 357 Q-130 352 -108 345 Q-91 339 -72.5 332.5 Q-54 326 -34 324 Q-32 329 -28 337 Q-15 366 -1 382.5 Q13 399 25.5 407.5 Q38 416 47.5 418 Q57 420 60 420 L61 420 L64 420 Q66 419 69 418 Q72 417 75 415 Q81 411 84 403 Q91 389 79 372 Q74 364 68 356.5 Q62 349 54 343 Q28 320 -7 312 Q-12 301 -16 286.5 Q-20 272 -20.5 259 Q-21 246 -16.5 237.5 Q-12 229 1 229 Q11 228 22 237 Q33 246 38 251 L44 257 Q52 268 60 277.5 Q68 287 76 298 Q91 318 105 339 Q119 360 132 382 Z M1 330 Q-1 328 -1.5 326 Q-2 324 -3 322 Q21 329 44 345 Q51 351 57 356.5 Q63 362 67 370 Q72 378 76 385.5 Q80 393 76 401 Q75 402 69.5 407.5 Q64 413 54 405 Q52 404 50 403 Q48 402 46 401 Q40 394 34 386 Q28 378 23 370 Q17 362 11.5 352.5 Q6 343 2 332 L1 332 L1 330 Z " />
<glyph glyph-name="f" unicode="f" horiz-adv-x="66" d="M143 550 Q145 546 140 544 Q134 541 132 546 Q130 548 130 550 Q128 551 123 551 Q118 551 111 545.5 Q104 540 94.5 527 Q85 514 73 489 Q71 485 69.5 481.5 Q68 478 66 474 Q93 475 114 492 Q117 495 119.5 492.5 Q122 490 120 487 Q108 476 93.5 471.5 Q79 467 63 465 Q61 462 60 459 Q59 456 57 451 Q56 451 53.5 443 Q51 435 51 433 Q49 428 47 423.5 Q45 419 44 413 Q34 386 26.5 358 Q19 330 10 301 Q9 299 9 297 Q9 295 8 293 Q23 315 37.5 337.5 Q52 360 67 383 Q69 386 72.5 384 Q76 382 74 378 Q71 374 68 370 Q65 366 62 361 Q48 338 32.5 315 Q17 292 1 269 Q0 268 0 266 Q-3 260 -3 258 Q-29 183 -57.5 135.5 Q-86 88 -113 59.5 Q-140 31 -162.5 18.5 Q-185 6 -198 3 Q-203 1 -210.5 2 Q-218 3 -222 11 Q-222 11 -223 13 Q-226 25 -220 36 Q-215 48 -205.5 59 Q-196 70 -186 81 Q-182 85 -178 88.5 Q-174 92 -169 97 Q-167 98 -163 102.5 Q-159 107 -154 112 L-142 124 Q-120 146 -98.5 168 Q-77 190 -56 213 Q-53 221 -50 228.5 Q-47 236 -44 244 Q-42 249 -40.5 254.5 Q-39 260 -37 265 Q-32 279 -28.5 291.5 Q-25 304 -20 316 Q-14 336 -8.5 354.5 Q-3 373 2 392 Q5 401 7.5 409.5 Q10 418 13 427 Q18 439 22 449 Q26 459 29 466 Q13 467 -7 474 Q-18 478 -29.5 482 Q-41 486 -52 491 Q-75 499 -98 507.5 Q-121 516 -144 522 Q-227 545 -313 542 Q-333 540 -352.5 537.5 Q-372 535 -392 531 Q-406 527 -421.5 522.5 Q-437 518 -446 506 Q-449 502 -452 504 Q-455 506 -453 509 Q-442 526 -423.5 531 Q-405 536 -388 540 Q-362 545 -336.5 548 Q-311 551 -285 550 Q-201 550 -120 524 Q-100 517 -80.5 510 Q-61 503 -41 495 Q-23 488 -5 481.5 Q13 475 33 474 L33 475 Q50 512 68.5 529.5 Q87 547 101 554 Q118 562 133 559 Q139 558 143 550 Z M-95 131 Q-80 159 -65 191 Q-82 173 -100.5 155 Q-119 137 -136 118 L-146 108 Q-150 104 -154.5 100 Q-159 96 -162 93 Q-168 87 -174.5 81 Q-181 75 -187 68 Q-192 61 -197.5 55 Q-203 49 -208 41 Q-211 36 -214 30 Q-217 24 -215 19 Q-215 17 -214.5 16 Q-214 15 -214 14 Q-212 12 -209 9.5 Q-206 7 -199 9 L-198 9 Q-198 9 -197 10 Q-197 10 -191 12 Q-168 20 -144 51 Q-120 82 -96 127 Q-95 129 -95 131 Z " />
<glyph glyph-name="g" unicode="g" horiz-adv-x="176" d="M176 380 Q178 384 182 383 Q186 382 184 377 Q176 357 162.5 339.5 Q149 322 135 305 Q128 297 121.5 290 Q115 283 107 275 Q104 264 100.5 253 Q97 242 95 235 Q82 199 66.5 162.5 Q51 126 32.5 94 Q14 62 -7 38.5 Q-28 15 -52 6 Q-54 5 -62 3 Q-70 1 -74.5 1.5 Q-79 2 -83 4 Q-93 7 -98 15 Q-103 23 -104.5 32.5 Q-106 42 -105 53 Q-104 64 -102 73 Q-94 102 -77 127.5 Q-60 153 -39 174 Q-16 197 11 215.5 Q38 234 66 252 Q71 267 75 281 Q79 295 83 309 Q78 303 73.5 296 Q69 289 63 283 Q49 266 29.5 249 Q10 232 -10 232 Q-21 232 -27.5 236.5 Q-34 241 -38.5 247 Q-43 253 -45 258.5 Q-47 264 -47 265 Q-50 280 -46 299 Q-42 318 -27 343 Q-24 351 -19 358 Q-21 358 -22 359 Q-69 364 -115.5 372 Q-162 380 -209 387 Q-247 392 -284.5 398 Q-322 404 -360 406 Q-398 408 -436.5 403 Q-475 398 -509 381 Q-523 374 -534.5 365.5 Q-546 357 -555 345 Q-565 334 -569.5 320 Q-574 306 -564 292 Q-562 289 -565.5 286.5 Q-569 284 -572 288 Q-585 307 -576 326.5 Q-567 346 -553 361 Q-536 377 -516.5 387 Q-497 397 -476 404 Q-438 414 -399.5 414.5 Q-361 415 -323 412 Q-304 410 -285.5 407 Q-267 404 -248 401 Q-228 397 -207 394 Q-186 391 -166 388 Q-142 385 -118.5 381.5 Q-95 378 -72 374 Q-57 372 -42 370 Q-27 368 -13 366 Q3 389 19.5 401.5 Q36 414 49.5 419.5 Q63 425 71.5 426 Q80 427 82 427 L85 427 L86 427 L88 427 L89 427 Q90 427 90 426.5 Q90 426 91 426 Q106 422 110.5 411 Q115 400 116 393 L116 389 Q120 389 125 386.5 Q130 384 133.5 379 Q137 374 137 365 Q137 356 131 341 Q129 337 129 337 Q125 328 122 319 Q119 311 117 304 Q115 297 113 293 Q118 297 121 301 Q124 305 128 310 Q135 318 142 326.5 Q149 335 154 343 Q161 352 166.5 360.5 Q172 369 176 380 Z M-49 18 Q-33 30 -18 54 Q-3 78 11.5 108.5 Q26 139 38.5 173 Q51 207 62 239 Q50 231 38 223.5 Q26 216 15 208 Q-17 185 -42.5 157.5 Q-68 130 -84 96 Q-88 87 -92.5 73.5 Q-97 60 -97.5 46.5 Q-98 33 -93 23 Q-88 13 -74 10 Q-66 9 -59 12 Q-52 15 -49 18 Z M90 331 Q93 339 94.5 345 Q96 351 98 356 Q87 349 71 349 Q50 349 29 352 Q25 353 22 353.5 Q19 354 15 354 Q4 338 -4.5 321 Q-13 304 -17 289 Q-21 274 -19 263 Q-17 252 -6 248 Q-3 246 3 246 Q9 246 18 251 Q28 258 45 274 Q62 290 88 325 Q90 331 90 331 Z M102 369 Q107 375 107.5 381.5 Q108 388 107 394 Q106 400 102 408 Q98 416 86 416 Q75 416 66 410 Q57 404 55 403 Q47 395 38 384.5 Q29 374 21 363 Q35 361 49.5 359 Q64 357 78 359 Q85 360 91.5 362 Q98 364 102 369 Z " />
<glyph glyph-name="h" unicode="h" horiz-adv-x="172" d="M173 383 Q175 387 179 384.5 Q183 382 181 378 Q173 363 165 348.5 Q157 334 149 320 Q133 290 114 263 Q114 263 113 261 Q111 258 109.5 256 Q108 254 106 251 Q101 243 93 236 Q85 229 77 229 Q72 230 69 234.5 Q66 239 65 253 Q66 274 76.5 300.5 Q87 327 97.5 352 Q108 377 114 394.5 Q120 412 112 415 Q104 418 91.5 407.5 Q79 397 65.5 381.5 Q52 366 39.5 348.5 Q27 331 18 319 Q16 315 15 310 Q13 305 12.5 299.5 Q12 294 10 288 Q8 282 5 267.5 Q2 253 -1 242 Q-2 238 -4.5 231.5 Q-7 225 -12 219.5 Q-17 214 -24.5 210.5 Q-32 207 -44 210 Q-44 210 -46 211 L-16 316 Q-15 319 -14.5 321.5 Q-14 324 -13 327 Q-11 338 -7.5 350.5 Q-4 363 1 377 L17 425 Q-16 421 -49.5 422.5 Q-83 424 -116.5 428.5 Q-150 433 -183 438.5 Q-216 444 -249 449 Q-284 453 -320.5 454 Q-357 455 -393 450 Q-469 436 -523 385 Q-526 382 -529.5 385 Q-533 388 -530 391 L-527 394 Q-500 418 -467.5 434.5 Q-435 451 -397 457 Q-362 464 -326 463 Q-290 462 -255 457 Q-221 453 -186.5 447.5 Q-152 442 -117.5 437.5 Q-83 433 -48.5 431.5 Q-14 430 21 435 Q43 495 62 526 Q81 557 95 570 Q99 574 108.5 580.5 Q118 587 128 581 Q129 581 129 580.5 Q129 580 130 580 Q136 574 138 563 Q140 551 135.5 539 Q131 527 125 516 Q112 491 94.5 469 Q77 447 54 430 Q40 388 28 349 Q54 391 80.5 408 Q107 425 124 422 Q127 422 131 419 Q135 416 137 408 Q139 400 137 386 Q135 372 125 349 Q116 327 109 308 Q103 291 98.5 275.5 Q94 260 94 252 L94 249 Q96 251 97 253 Q102 261 107.5 269 Q113 277 118 285 Q126 296 132.5 308.5 Q139 321 146 334 Q153 345 159.5 357.5 Q166 370 173 383 Z M110 557 Q99 543 86.5 513 Q74 483 60 447 Q93 475 113 512 Q118 522 123.5 533.5 Q129 545 129 557 L129 558 L129 559 Q129 567 126 567.5 Q123 568 119.5 566 Q116 564 113 560.5 Q110 557 110 557 Z " />
<glyph glyph-name="i" unicode="i" horiz-adv-x="95" d="M34 416 Q26 416 22.5 419 Q19 422 17 426 Q15 430 15 437 L15 438 Q16 446 22 452 Q28 458 36 458 Q44 458 50.5 451 Q57 444 57 435 Q57 426 50.5 419 Q44 412 36 412 Q33 412 29 414 L31 414 Q32 414 34 416 Z M98 386 Q100 391 103.5 388.5 Q107 386 105 382 Q91 350 77.5 319 Q64 288 45 259 Q41 253 33.5 244 Q26 235 18 229 Q14 226 6.5 223.5 Q-1 221 -9 223 Q-10 223 -11 224 Q-14 224 -16 226 L-17 226 Q-28 232 -30 247.5 Q-32 263 -29.5 280 Q-27 297 -23 313 Q-19 329 -16 337 Q-13 345 -11 351.5 Q-9 358 -7 363 Q-3 373 -1 378 L4 391 Q-4 393 -13 393 Q-22 393 -29 393 Q-46 392 -62.5 389.5 Q-79 387 -95 382 Q-113 375 -129 366 Q-145 357 -161 346 Q-176 335 -191 324.5 Q-206 314 -222 303 Q-252 283 -285 270 Q-320 255 -357.5 246 Q-395 237 -433 235 Q-452 234 -470.5 236 Q-489 238 -506 243 Q-522 248 -538 257 Q-554 266 -559 283 Q-560 288 -555.5 289 Q-551 290 -550 286 Q-548 277 -541.5 271.5 Q-535 266 -527 261 Q-513 255 -497 250 Q-459 240 -420.5 244 Q-382 248 -345 259 Q-309 268 -276 283 Q-259 291 -243.5 300 Q-228 309 -213 320 Q-183 341 -152 362.5 Q-121 384 -85 394 Q-71 399 -55.5 400.5 Q-40 402 -25 402 L-10 402 Q-4 401 3 400 Q10 399 17 397 Q19 396 20.5 395.5 Q22 395 24 393 Q27 391 29 388 Q33 383 33.5 373 Q34 363 27 348 Q25 343 23 338 Q21 333 19 329 Q17 324 12 310.5 Q7 297 2.5 281.5 Q-2 266 -4 252 Q-6 238 -1 234 Q-1 234 0 233 L1 233 Q5 231 9 233.5 Q13 236 16 239 Q18 241 19 241 Q27 249 33.5 258 Q40 267 45 276 Q61 302 73 330 Q85 358 98 386 Z " />
<glyph glyph-name="j" unicode="j" horiz-adv-x="74" d="M28 409 Q20 409 16.5 412.5 Q13 416 11 420 Q9 424 9 430 L9 431 Q10 439 16 445 Q22 451 30 451 Q38 451 44.5 444.5 Q51 438 51 428 Q51 419 44.5 412 Q38 405 30 405 Q28 405 22 407 Q24 408 25 408 Q27 408 28 409 Z M75 383 Q77 387 81.5 386 Q86 385 84 380 Q76 359 61.5 340.5 Q47 322 33 305 Q26 297 19 289.5 Q12 282 4 274 Q0 262 -3.5 251 Q-7 240 -10 232 Q-23 195 -39 157 Q-55 119 -74 86 Q-93 53 -115 28 Q-137 3 -161 -6 Q-164 -7 -166.5 -7.5 Q-169 -8 -172 -9 Q-185 -12 -194 -8 Q-204 -4 -209.5 4.5 Q-215 13 -217 23 Q-219 33 -218 44 Q-217 55 -214 64 Q-206 93 -188 120 Q-170 147 -148 169 Q-124 193 -96 212 Q-68 231 -39 250 Q-38 254 -37 257.5 Q-36 261 -35 265 Q-30 282 -20.5 310.5 Q-11 339 -5 358 Q-4 361 -2.5 365 Q-1 369 1 374 L5 384 L5 385 Q-7 389 -23 389 Q-40 390 -56 387.5 Q-72 385 -88 380 Q-126 367 -160.5 348 Q-195 329 -230 312 Q-271 292 -312.5 278.5 Q-354 265 -399 258 Q-421 254 -443 253.5 Q-465 253 -486 259 Q-503 264 -517 275 Q-531 286 -536 304 Q-537 309 -532.5 310 Q-528 311 -527 307 Q-523 290 -508.5 280 Q-494 270 -478 267 Q-458 262 -438 262.5 Q-418 263 -398 267 Q-319 281 -246 314 Q-226 323 -207 333 Q-188 343 -169 353 Q-149 364 -129 373 Q-109 382 -89 389 Q-56 400 -20 398 L-15 398 Q-9 398 0 396 Q9 394 17 390.5 Q25 387 30.5 380.5 Q36 374 35 364 Q35 363 34.5 362 Q34 361 34 359 Q34 357 33 356 Q31 348 29 343 Q27 339 27 338 Q24 328 20 319 Q17 311 14 304 Q11 297 10 293 Q14 297 18 301 Q22 305 26 310 Q33 319 39.5 327.5 Q46 336 53 345 Q60 354 65.5 363 Q71 372 75 383 Z M-158 7 Q-142 20 -126.5 44.5 Q-111 69 -96 100.5 Q-81 132 -68 167.5 Q-55 203 -44 237 Q-56 229 -68.5 220.5 Q-81 212 -93 204 Q-125 181 -151.5 152.5 Q-178 124 -195 88 Q-200 79 -204 64.5 Q-208 50 -209 36.5 Q-210 23 -204.5 12 Q-199 1 -184 -2 Q-176 -3 -169.5 0.5 Q-163 4 -158 7 Z " />
<glyph glyph-name="k" unicode="k" horiz-adv-x="172" d="M173 384 Q174 387 178.5 386.5 Q183 386 181 381 Q154 312 120 247 Q118 242 115 238 Q113 234 111 230.5 Q109 227 107 225 L107 224 Q102 214 96 205 Q90 196 85 186 Q85 185 84.5 185 Q84 185 84 184 Q81 182 77 176 Q72 168 64 160.5 Q56 153 48 154 Q43 155 40.5 160 Q38 165 37 178 Q38 187 41 199 Q44 211 49 225 Q51 232 54 240 Q54 242 56 246 Q57 246 57 247 Q69 277 73.5 295.5 Q78 314 77.5 324.5 Q77 335 74 339 Q71 343 70 344 L69 344 Q61 341 54.5 338.5 Q48 336 43 334 Q37 332 32 331 Q30 330 30 333 Q30 334 31 335 L32 336 Q53 342 66.5 349 Q80 356 88 364 Q105 378 108 391 Q111 404 110 409 Q110 412 109 413 L106 416 Q98 419 86 409 Q74 399 61 384 Q48 369 35.5 352.5 Q23 336 16 324 Q15 319 14 315 Q13 311 11.5 305.5 Q10 300 9 295 Q7 289 3.5 275 Q0 261 -2 250 Q-3 247 -5.5 241 Q-8 235 -12.5 229.5 Q-17 224 -24.5 220.5 Q-32 217 -43 220 Q-44 220 -45 221 L-18 321 Q-17 324 -16.5 326 Q-16 328 -15 331 Q-12 342 -8.5 354 Q-5 366 0 379 Q3 390 6.5 399.5 Q10 409 12 418 Q-5 411 -22.5 407 Q-40 403 -57 400 Q-77 397 -96.5 395.5 Q-116 394 -136 396 Q-177 401 -213.5 414 Q-250 427 -286 443 Q-299 448 -312 454.5 Q-325 461 -339 466 Q-365 474 -397 481 Q-423 485 -452.5 483 Q-482 481 -500 459 Q-503 455 -506 458.5 Q-509 462 -506 465 Q-501 470 -496.5 474 Q-492 478 -486 481 Q-460 494 -430.5 492.5 Q-401 491 -374 485 Q-360 482 -346.5 477.5 Q-333 473 -320 468 Q-304 461 -289.5 454 Q-275 447 -259 440 Q-223 425 -185 414 Q-147 403 -105 404 Q-85 405 -65.5 407.5 Q-46 410 -28 414 Q-6 419 16 429 Q39 489 57 520 Q75 551 88 564 Q92 568 102 574 Q112 580 121 574 Q121 574 123 573 Q127 571 128.5 566.5 Q130 562 131 558 Q132 546 127.5 534.5 Q123 523 118 512 Q93 464 50 430 Q43 411 36.5 391.5 Q30 372 25 353 Q51 393 75.5 409.5 Q100 426 116 423 Q120 422 125 418 Q130 414 131 401 Q131 396 128 385.5 Q125 375 111 365 Q105 361 102 360 Q101 359 100.5 359 Q100 359 99 358 Q94 355 88.5 352.5 Q83 350 77 348 L79 346 Q82 344 86 340 Q90 336 92.5 327 Q95 318 95.5 304.5 Q96 291 91 272 Q89 267 88.5 263.5 Q88 260 87 256 Q86 255 86 254 Q77 232 72 214 Q67 199 64.5 186.5 Q62 174 65 174 L68 177 Q73 184 78 191.5 Q83 199 88 207 Q93 217 98.5 226.5 Q104 236 110 246 Q127 280 143 314 Q159 348 173 384 Z M103 552 Q92 538 80 509.5 Q68 481 55 446 Q71 460 83.5 476 Q96 492 107 509 Q112 518 116.5 529 Q121 540 122 552 L122 553 Q122 560 119 561 Q116 562 112.5 560 Q109 558 106 555 Q103 552 103 552 Z " />
<glyph glyph-name="l" unicode="l" horiz-adv-x="130" d="M135 389 Q137 393 140.5 390.5 Q144 388 142 384 Q127 359 112.5 334 Q98 309 81 283 Q73 270 64.5 258 Q56 246 48 234 Q43 226 37.5 219.5 Q32 213 27 207 Q22 202 16 197 Q10 192 2 188 Q-2 186 -5 185 Q-8 184 -12 184 L-13 184 Q-13 183 -14 183 L-17 183 Q-20 183 -24 185 Q-25 185 -26 186 L-26 187 L-27 187 Q-27 188 -29 190 Q-29 191 -31 193 Q-35 200 -35 211 Q-37 227 -33.5 247.5 Q-30 268 -25 286 Q-20 307 -13 329 Q-13 331 -11 335 Q-8 346 -5 357.5 Q-2 369 3 383 Q7 394 10 404.5 Q13 415 16 424 Q8 420 -0.5 417.5 Q-9 415 -18 413 Q-36 409 -54 408 Q-72 407 -90 409 Q-128 412 -164.5 422 Q-201 432 -237 443 Q-269 454 -301 462.5 Q-333 471 -366 476 Q-396 481 -429 479 Q-462 477 -488 457 Q-490 454 -493.5 456.5 Q-497 459 -493 462 Q-472 479 -445 484 Q-418 489 -391 487 Q-362 485 -334.5 479 Q-307 473 -280 465 Q-240 454 -201.5 441.5 Q-163 429 -123 421 Q-101 418 -79 416.5 Q-57 415 -35 418 Q-9 422 20 435 Q43 496 61.5 527 Q80 558 94 571 Q97 575 107 581 Q117 587 126 581 Q127 581 127 580.5 Q127 580 128 580 Q132 578 133.5 573.5 Q135 569 135 564 Q137 552 133 541 Q129 530 123 519 Q111 494 93.5 473 Q76 452 55 435 Q50 421 45 406.5 Q40 392 35 378 Q33 370 30 361 Q28 353 24.5 344 Q21 335 19 327 Q18 326 18 324 Q18 322 17.5 321 Q17 320 17 318 Q16 318 16 316 Q16 314 14 310 Q14 304 12 297 Q10 290 8 282 Q7 277 6 271.5 Q5 266 4 261 Q2 254 0.5 244 Q-1 234 -1.5 224 Q-2 214 -1 207 Q0 200 4 200 Q6 200 8.5 201.5 Q11 203 13 205 Q22 213 29 222 Q36 231 42 240 Q51 253 59 265 Q67 277 75 289 Q90 313 105 338.5 Q120 364 135 389 Z M109 559 Q98 544 85.5 515 Q73 486 60 451 Q91 479 112 515 Q117 524 122 535 Q127 546 127 558 L127 559 Q127 567 124.5 568 Q122 569 118.5 567 Q115 565 112 562 Q109 559 109 559 Z " />
<glyph glyph-name="m" unicode="m" horiz-adv-x="264" d="M265 379 Q267 383 270.5 380.5 Q274 378 272 374 Q264 359 255.5 344.5 Q247 330 239 315 Q231 300 223 285.5 Q215 271 205 257 Q205 257 204 255 Q202 252 200.5 250 Q199 248 197 245 Q191 238 182.5 230 Q174 222 166 222 Q161 223 158.5 228 Q156 233 155 247 Q155 268 165.5 295.5 Q176 323 187 348 Q198 373 204.5 391 Q211 409 203 412 Q195 414 184 406 Q173 398 161 384 Q137 356 119 327 Q103 302 91 273.5 Q79 245 81 220 Q72 221 67 227 Q62 232 61 244 Q60 256 67 279 Q67 283 70 288 Q76 309 85.5 330 Q95 351 102 368.5 Q109 386 112 398 Q115 410 109 412 Q99 415 84 402 Q69 389 54 369 Q45 357 35 342 Q27 329 17 312.5 Q7 296 -1 276 Q-4 268 -7 259.5 Q-10 251 -12 243 Q-14 237 -14 235 Q-22 235 -26 242 Q-30 248 -30.5 260.5 Q-31 273 -23 298 Q-12 330 -1.5 363.5 Q9 397 14 413 Q4 415 -5 413 Q-24 412 -41.5 408 Q-59 404 -76 395 Q-94 386 -110 374.5 Q-126 363 -143 350 Q-175 325 -209 301.5 Q-243 278 -281 261 Q-321 242 -360 236 Q-379 234 -398 233.5 Q-417 233 -435 238 Q-466 245 -485 266 Q-505 289 -508 322 Q-509 327 -504.5 327 Q-500 327 -499 322 Q-497 299 -485 280 Q-475 265 -460.5 257 Q-446 249 -429.5 245.5 Q-413 242 -395.5 242.5 Q-378 243 -362 245 Q-320 252 -282.5 270.5 Q-245 289 -210 312 Q-193 323 -177 335.5 Q-161 348 -144 360 Q-128 373 -112 384.5 Q-96 396 -77 404 Q-44 421 -7 422 Q-2 422 2.5 422.5 Q7 423 12 422 L15 422 L18 422 L19 422 Q36 420 40 409.5 Q44 399 43 391 Q42 387 41 382.5 Q40 378 38 373 L34 362 Q59 395 82 408.5 Q105 422 120 419 Q123 419 126.5 416.5 Q130 414 132.5 409 Q135 404 135 394.5 Q135 385 131 370 L131 369 Q129 365 128 362 Q153 395 176 408.5 Q199 422 214 419 Q217 419 221.5 416 Q226 413 228 405 Q230 397 227.5 382.5 Q225 368 216 345 Q206 322 199 303 Q193 286 188 270 Q183 254 183 246 Q184 245 184 243 Q186 245 187 247 Q192 255 197.5 263 Q203 271 208 279 Q216 291 222.5 303.5 Q229 316 237 329 Q244 341 251 353.5 Q258 366 265 379 Z " />
<glyph glyph-name="n" unicode="n" horiz-adv-x="172" d="M172 379 Q174 383 178 380.5 Q182 378 180 374 Q172 359 163.5 344.5 Q155 330 147 315 Q139 300 130.5 285.5 Q122 271 113 257 Q113 257 111 255 Q109 252 107.5 250 Q106 248 104 245 Q99 238 90.5 230 Q82 222 74 222 Q69 223 66 228 Q63 233 63 247 Q63 268 73.5 295.5 Q84 323 95 348 Q106 373 112 391 Q118 409 111 412 Q104 414 94.5 407.5 Q85 401 74.5 390.5 Q64 380 53 366 Q42 352 32 339 Q31 339 31 338 Q30 337 30 336.5 Q30 336 29 335 Q16 313 7 292 Q-1 274 -6 254 Q-11 234 -7 219 Q-20 217 -26 228 Q-31 237 -30.5 258 Q-30 279 -16 324 Q-16 326 -15 327 L-15 330 L-14 330 Q-13 334 -12 337.5 Q-11 341 -10 343 Q-1 371 5 386 Q7 391 8 395 Q9 399 10 401 L14 411 Q5 416 -6 417.5 Q-17 419 -27 420 Q-58 421 -88 414 Q-110 409 -131 400 Q-152 391 -172 382 Q-193 374 -214.5 365.5 Q-236 357 -258 350 Q-287 340 -317 334 Q-347 328 -377 323 Q-398 320 -425 318 Q-452 316 -477.5 320.5 Q-503 325 -522.5 339 Q-542 353 -546 381 Q-547 386 -542.5 387 Q-538 388 -537 383 Q-531 348 -496 335 Q-471 326 -444.5 326 Q-418 326 -392 330 Q-364 333 -336 338.5 Q-308 344 -281 352 Q-259 359 -237.5 366.5 Q-216 374 -195 383 Q-174 391 -153 400 Q-132 409 -111 417 Q-77 429 -39 429 Q-30 429 -19 428 Q-10 427 0.5 426 Q11 425 20 423 Q28 420 36.5 414 Q45 408 45 394 Q45 384 39 371 Q39 370 38.5 370 Q38 370 38 369 Q37 368 37 367 Q37 366 36.5 365 Q36 364 36 362 Q60 395 83.5 408.5 Q107 422 122 419 Q125 419 129 416 Q133 413 135 405 Q137 397 135 382.5 Q133 368 124 345 Q114 322 107 303 Q101 286 96 270 Q91 254 91 246 L91 243 Q93 245 94 247 Q100 255 105.5 263 Q111 271 116 279 Q124 291 130.5 303.5 Q137 316 145 329 Q152 341 159 353.5 Q166 366 172 379 Z " />
<glyph glyph-name="o" unicode="o" horiz-adv-x="190" d="M191 379 Q193 383 196.5 380.5 Q200 378 198 374 Q184 353 166.5 334 Q149 315 126 301 Q125 299 124.5 297.5 Q124 296 123 294 Q101 253 77 235 Q53 217 26 216 L23 216 L22 216 Q5 216 -3.5 227 Q-12 238 -14.5 254.5 Q-17 271 -15.5 290 Q-14 309 -11 326 L-11 327 Q-10 331 -10 334 Q-10 337 -9 340 Q-7 347 -5.5 353.5 Q-4 360 -2 365 Q-1 367 -1 368 Q-1 369 0 371 Q0 371 1 373 Q3 378 4.5 383 Q6 388 8 392 L7 392 Q-1 394 -8 396 Q-15 398 -22 399 Q-55 405 -88 399 Q-120 394 -150.5 383 Q-181 372 -211 361 Q-256 345 -301 334.5 Q-346 324 -393 320 Q-404 319 -416 318.5 Q-428 318 -440 318 Q-449 319 -458.5 319 Q-468 319 -478 320 Q-496 322 -513 328 Q-530 334 -544 348 Q-547 351 -543.5 354 Q-540 357 -537 354 Q-517 334 -488 330.5 Q-459 327 -432 327 Q-366 328 -298 344 Q-275 350 -253 357 Q-231 364 -208 372 Q-187 380 -165.5 388 Q-144 396 -122 401 Q-100 407 -78 409.5 Q-56 412 -34 410 Q-23 408 -13 406.5 Q-3 405 8 401 Q15 399 21.5 395.5 Q28 392 33 387 Q41 398 54.5 410.5 Q68 423 87 425 Q98 427 107 422 Q124 414 133 396.5 Q142 379 140 355 Q140 343 136 327 Q135 325 134.5 322 Q134 319 132 316 Q150 329 164.5 345 Q179 361 191 379 Z M78 280 Q78 282 79 282 Q66 280 52.5 279.5 Q39 279 28 285 Q15 292 12 304 Q1 272 3 248 Q5 224 23 224 Q36 224 51 241 Q66 258 78 280 Z M99 332 Q102 344 104 361.5 Q106 379 103.5 392.5 Q101 406 92.5 412 Q84 418 67 408 Q65 407 51.5 395.5 Q38 384 31 364 Q29 355 28 349 Q27 345 26 343 Q24 338 23 334 Q22 330 20 327 Q19 322 18.5 317.5 Q18 313 20 308 Q24 293 40 290 Q51 288 62 289 Q73 290 84 293 Q91 306 95 319 Q96 322 97 324.5 Q98 327 99 329 L99 332 Z " />
<glyph glyph-name="p" unicode="p" horiz-adv-x="176" d="M176 379 Q178 383 181.5 380.5 Q185 378 183 374 Q175 359 166.5 344.5 Q158 330 150 315 Q142 300 134 285.5 Q126 271 116 257 Q115 257 115 255 Q113 252 111.5 250 Q110 248 108 245 Q102 238 93.5 230 Q85 222 77 222 Q72 223 69 228 Q66 233 66 247 Q66 268 76.5 295.5 Q87 323 98 348 Q109 373 115.5 391 Q122 409 114 412 Q112 412 110 411.5 Q108 411 106 411 Q100 409 97 407 Q92 404 87.5 400 Q83 396 78 391 Q71 383 64 375 Q57 367 50 359 Q33 339 22 315 Q22 315 14.5 294 Q7 273 0 238 Q-7 203 -9.5 157.5 Q-12 112 -2 61 Q-13 62 -22 72 Q-30 80 -36 97.5 Q-42 115 -41 147 Q-41 169 -39 192 Q-37 215 -34 234 Q-31 253 -28.5 265.5 Q-26 278 -26 278 Q-24 283 -23.5 288 Q-23 293 -21 298 Q-18 309 -14.5 320.5 Q-11 332 -7 343 Q-5 351 -3 355 Q0 364 3 373 Q6 382 10 391 Q12 397 14.5 402.5 Q17 408 19 413 Q16 414 10 414 Q3 414 -3 413.5 Q-9 413 -15 412 Q-52 409 -86 400 Q-122 392 -156.5 380.5 Q-191 369 -225 356 Q-267 339 -308 323 Q-349 307 -393 297 Q-414 292 -435.5 289 Q-457 286 -478 288 Q-486 289 -493.5 291 Q-501 293 -507 298 Q-518 306 -523 323 Q-524 328 -519.5 329 Q-515 330 -514 326 Q-508 300 -481 297 Q-465 295 -449 296.5 Q-433 298 -418 301 Q-385 307 -354 317.5 Q-323 328 -292 340 Q-248 357 -205.5 373 Q-163 389 -118 401 Q-95 408 -72 412.5 Q-49 417 -26 420 Q-18 421 -9 422 Q0 423 8 423 Q12 423 16 423 Q20 423 24 422 Q27 422 33 420 Q39 418 43.5 412.5 Q48 407 48.5 397 Q49 387 42 371 Q42 370 41 369 Q40 368 40 367 Q40 366 39.5 365 Q39 364 39 362 Q64 395 87 408.5 Q110 422 125 419 Q128 419 132 416 Q136 413 138 405 Q140 397 138 382.5 Q136 368 127 345 Q117 322 110 303 Q104 286 99 270 Q94 254 94 246 Q94 245 94.5 244.5 Q95 244 95 243 Q97 245 97 247 Q103 255 108.5 263 Q114 271 119 279 Q127 291 133.5 303.5 Q140 316 148 329 Q155 341 162 353.5 Q169 366 176 379 Z " />
<glyph glyph-name="q" unicode="q" horiz-adv-x="189" d="M192 384 Q194 387 197.5 384 Q201 381 198 378 Q175 347 152.5 315 Q130 283 107 252 Q99 224 90.5 197 Q82 170 77 148 L77 146 L77 144 Q80 131 82 118.5 Q84 106 86 93 Q88 82 89 68.5 Q90 55 87 44 Q85 39 81 32.5 Q77 26 68 26 Q46 26 42 58 Q40 77 42 102 Q44 127 49 156 Q38 168 24 176 Q10 184 -4 192 Q-24 201 -44.5 208 Q-65 215 -87 220 Q-131 229 -174.5 229.5 Q-218 230 -262 228 Q-305 226 -347 222 Q-389 218 -432 220 Q-453 221 -474 223.5 Q-495 226 -515 233 Q-531 238 -548 245 Q-565 252 -573 269 Q-575 273 -571 275.5 Q-567 278 -565 273 Q-560 262 -552 257 Q-544 252 -535.5 249 Q-527 246 -519 243 Q-508 240 -498.5 237.5 Q-489 235 -478 233 Q-457 230 -435.5 229 Q-414 228 -392 229 Q-349 231 -307 234 Q-265 237 -222 239 Q-178 240 -135 237 Q-92 234 -50 220 Q-12 208 23 188 Q31 183 38 178 Q45 173 51 167 Q52 174 54.5 184 Q57 194 59 203.5 Q61 213 62.5 220 Q64 227 64 229 Q66 236 67.5 242.5 Q69 249 71 256 L76 276 Q65 258 48.5 244 Q32 230 11 230 Q-4 230 -12.5 236.5 Q-21 243 -25.5 254 Q-30 265 -30.5 279 Q-31 293 -29 307 Q-27 319 -23 331 Q-19 343 -18 344 Q-14 353 -7.5 364.5 Q-1 376 8 385 Q8 387 10 387 Q22 399 36 410 Q50 421 64 425 Q78 429 90.5 424 Q103 419 111 399 Q117 407 124 412 Q129 417 136 420 Q143 423 150 420 L150 418 Q150 417 149.5 416.5 Q149 416 149 414 L147 406 Q146 403 145.5 400 Q145 397 144 395 Q141 384 136 365.5 Q131 347 128 336 Q126 325 122.5 311 Q119 297 114 277 Q134 304 153 331 Q172 358 192 384 Z M77 95 Q76 103 75 110 Q74 117 73 125 Q68 93 70 71 Q72 49 75 38 Q78 43 79 49 Q80 55 80 61 Q81 69 80 77.5 Q79 86 77 95 Z M108 390 Q106 395 102.5 401.5 Q99 408 91 413 Q81 419 73 414.5 Q65 410 61 406 Q48 392 32.5 366 Q17 340 7.5 313.5 Q-2 287 -1 268 Q0 249 20 249 Q40 249 55.5 263 Q71 277 82 295 L104 374 L108 390 Z " />
<glyph glyph-name="r" unicode="r" horiz-adv-x="162" d="M164 383 Q166 386 170 384 Q174 382 172 379 Q158 357 144.5 336 Q131 315 117 294 Q111 284 104.5 274 Q98 264 91 255 Q84 241 70 227 Q67 224 59.5 220 Q52 216 43 223 L43 224 Q38 231 38 233 L38 236 Q36 249 40 261 Q44 273 48 285 Q53 298 56.5 311 Q60 324 65 338 Q71 357 77.5 376 Q84 395 91 414 Q84 405 76 398 Q61 383 40 375 Q32 372 24 372 Q21 372 19 372.5 Q17 373 15 374 Q-23 321 -87 310 Q-116 305 -146.5 307.5 Q-177 310 -205 318 Q-234 327 -261.5 338.5 Q-289 350 -315 366 Q-341 381 -366.5 396.5 Q-392 412 -420 421 Q-434 427 -448.5 430.5 Q-463 434 -479 433 Q-508 432 -530 411 Q-533 409 -536 411 Q-539 413 -536 416 Q-514 439 -481 441 Q-464 442 -448.5 439 Q-433 436 -419 431 Q-390 420 -364.5 405.5 Q-339 391 -314 375 Q-288 360 -260.5 347.5 Q-233 335 -204 327 Q-176 319 -145.5 316 Q-115 313 -86 319 Q-57 325 -33.5 339.5 Q-10 354 7 378 Q5 379 2 382 Q-8 393 -10 406 Q-12 419 -10 433 Q-8 448 -3 461.5 Q2 475 8 489 Q10 492 11.5 495.5 Q13 499 15 503 Q20 513 24.5 518.5 Q29 524 29 525 Q42 537 50 532.5 Q58 528 63 522 Q63 521 65 516.5 Q67 512 68 504 L68 502 L68 501 Q69 482 61 459 Q57 449 52.5 440 Q48 431 43 421 Q43 420 41 416 Q39 412 36 407.5 Q33 403 30.5 399 Q28 395 27 394 Q32 394 39 396 Q44 398 52 400.5 Q60 403 70 410 Q80 415 90 425 L91 425 Q91 427 92 427 L94 429 L95 430 Q95 430 96 431 Q99 433 109.5 439 Q120 445 134 440 Q124 413 114.5 385 Q105 357 95 330 Q91 317 87.5 303.5 Q84 290 79 277 Q77 271 74.5 265.5 Q72 260 70 254 Q69 251 68 247 Q67 243 67 235 Q72 242 77 248.5 Q82 255 87 261 Q92 271 99 281 Q106 291 113 301 Q126 321 138.5 341.5 Q151 362 164 383 Z M19 398 Q21 399 24 403.5 Q27 408 30 413 Q34 419 38 426 Q42 434 45.5 442.5 Q49 451 53 460 Q57 471 60 483.5 Q63 496 60 508 Q59 510 59 512 Q59 514 57 516 L57 515 Q46 497 39 479 Q37 477 36.5 474 Q36 471 34 469 Q34 467 33 466 Q26 449 23 436 Q20 423 19 415 Q18 405 19 398 Z " />
<glyph glyph-name="s" unicode="s" horiz-adv-x="125" d="M125 379 Q127 384 131.5 382.5 Q136 381 134 377 Q110 322 71 276 Q63 267 54.5 259 Q46 251 35 244 Q28 231 15 219 Q6 210 -2 206 Q-11 201 -21 199.5 Q-31 198 -41 200 Q-46 200 -54 202 Q-67 207 -76 217 Q-77 217 -77.5 219 Q-78 221 -75 224 Q-74 225 -71 225 Q-70 225 -69 224 Q-66 220 -62 218.5 Q-58 217 -54 215 Q-50 213 -40 213 Q-27 214 -17 222 Q-7 230 -2 241 Q8 260 10 284 Q11 289 11 294.5 Q11 300 11 305 Q10 321 6 336 Q2 351 2 367 Q1 372 1.5 376.5 Q2 381 2 386 Q-6 386 -15 386.5 Q-24 387 -32 388 Q-81 392 -128 402.5 Q-175 413 -223 422 Q-271 432 -318.5 438 Q-366 444 -414 448 Q-437 450 -458.5 449 Q-480 448 -502 442 Q-514 439 -529 432 Q-544 425 -543 410 Q-543 405 -547.5 405 Q-552 405 -552 410 Q-552 415 -551 418 Q-547 432 -534 439 Q-521 446 -508 450 Q-487 456 -466 457.5 Q-445 459 -424 458 Q-412 457 -400 456 Q-388 455 -377 453 Q-365 452 -353 451.5 Q-341 451 -328 449 Q-305 446 -281 442 Q-257 438 -234 433 Q-210 428 -186 423.5 Q-162 419 -138 414 Q-114 409 -90 404.5 Q-66 400 -42 398 Q-33 397 -23.5 396.5 Q-14 396 -5 395 L5 395 Q10 414 21 425 Q26 430 32 433 Q36 436 41 438.5 Q46 441 51 442 Q56 443 62 442 Q64 442 70.5 438.5 Q77 435 79 424 Q79 423 79.5 422 Q80 421 80 420 Q79 403 65.5 395.5 Q52 388 37 386 L37 384 Q37 368 40 352 Q42 347 42.5 341.5 Q43 336 44 331 Q45 327 45.5 324 Q46 321 46 317 Q49 292 43 267 Q42 266 42 263 Q42 260 40 259 Q54 269 66 284 Q103 328 125 379 Z M39 409 Q37 401 37 395 L40 395 Q40 395 41 396 Q57 398 65.5 406.5 Q74 415 69 425 Q64 436 57 436 Q56 435 54 435 Q53 434 52 434 Q49 432 45.5 426.5 Q42 421 39 409 Z " />
<glyph glyph-name="t" unicode="t" horiz-adv-x="136" d="M136 379 Q138 383 142 380.5 Q146 378 144 374 Q128 348 112.5 321 Q97 294 80 268 Q72 254 63 241.5 Q54 229 45 216 Q40 208 34.5 201 Q29 194 23 188 Q18 183 11 177.5 Q4 172 -4 168 Q-12 164 -18 164 L-19 164 Q-19 163 -20 163 L-23 163 Q-25 163 -31 165 L-32 166 Q-33 166 -33 167 L-34 167 Q-35 168 -35 168.5 Q-35 169 -36 170 Q-37 171 -37 171.5 Q-37 172 -38 173 Q-42 181 -42 192 Q-44 209 -40.5 230.5 Q-37 252 -32 271 Q-27 293 -19 316 Q-19 318 -18.5 319 Q-18 320 -18 322 L-17 322 Q-11 344 -2 373 Q1 383 4 391.5 Q7 400 9 408 Q12 416 15.5 424.5 Q19 433 22 441 Q12 444 3 447.5 Q-6 451 -16 454 Q-30 459 -44.5 462.5 Q-59 466 -74 468 Q-104 473 -134.5 473.5 Q-165 474 -195 468 Q-219 464 -242.5 458.5 Q-266 453 -290 448 Q-336 439 -385 433 Q-405 431 -424.5 429 Q-444 427 -464 427 Q-481 427 -497.5 430 Q-514 433 -526 445 Q-529 448 -526 451 Q-523 454 -520 451 Q-505 437 -483 436 Q-461 435 -441 437 Q-414 439 -386.5 442 Q-359 445 -332 450 Q-309 454 -285 459 Q-261 464 -238 469 Q-214 474 -190.5 478 Q-167 482 -142 482 Q-118 483 -94 480 Q-70 477 -47 472 Q-28 467 -10.5 461 Q7 455 25 450 Q32 466 32 466 Q37 477 41 487 Q45 497 46 498 Q60 527 71.5 544 Q83 561 93 570 Q97 574 107 580.5 Q117 587 127 581 Q128 581 128 580.5 Q128 580 129 580 Q133 577 134.5 572.5 Q136 568 137 563 Q139 550 134.5 538 Q130 526 124 515 Q118 502 110 490 Q102 478 93 467 Q91 466 82 456 Q73 446 64 438 Q81 437 96.5 441 Q112 445 125 456 Q128 459 131.5 455.5 Q135 452 131 450 Q115 436 95 431.5 Q75 427 55 429 Q54 429 52 427 Q47 412 42 397 Q37 382 32 367 Q29 358 26 349 Q24 341 20.5 332 Q17 323 15 314 Q14 313 14 311 Q14 309 13.5 308 Q13 307 13 305 Q12 304 12 302 Q11 300 11 299 Q11 298 10 296 Q9 290 7 282.5 Q5 275 3 267 Q2 258 -2 245 Q-4 238 -5.5 227 Q-7 216 -8 206 Q-9 196 -7.5 188.5 Q-6 181 -1 181 Q1 181 3.5 182.5 Q6 184 8 186 Q17 194 24.5 203.5 Q32 213 39 223 Q48 236 56.5 248.5 Q65 261 73 274 Q90 300 105 326.5 Q120 353 136 379 Z M65 463 Q62 456 59.5 450 Q57 444 57 442 L74 459 Q75 460 75.5 461 Q76 462 77 463 Q88 474 96 486 Q104 498 112 511 Q117 521 122.5 532.5 Q128 544 128 556 L128 558 Q128 566 125 567 Q122 568 118 566 Q114 563 109 557 Q100 545 90.5 524 Q81 503 70 476 Q66 469 65 463 Z " />
<glyph glyph-name="u" unicode="u" horiz-adv-x="194" d="M201 377 Q204 377 204.5 375.5 Q205 374 204 373 Q204 371 203 370 Q191 340 179 310 Q167 280 150 252 Q145 244 137.5 234 Q130 224 121 216 Q117 213 109.5 210 Q102 207 93 210 L91 210 L85 213 Q71 222 70 245 Q69 268 74 291 L53 252 Q48 244 40.5 234 Q33 224 24 216 Q20 213 12.5 210 Q5 207 -4 210 L-6 210 L-12 213 Q-23 220 -25.5 237.5 Q-28 255 -26 275.5 Q-24 296 -19 314.5 Q-14 333 -11 342 Q-9 352 -6.5 359.5 Q-4 367 -2 372 Q0 378 1.5 382.5 Q3 387 4 389 L8 401 Q4 404 -2 406 Q-8 408 -14 409 Q-20 410 -24 410.5 Q-28 411 -29 411 Q-33 411 -34 410 Q-64 409 -96 399 Q-110 394 -124.5 389.5 Q-139 385 -153 380 Q-167 375 -181.5 371 Q-196 367 -210 363 Q-255 352 -300.5 344.5 Q-346 337 -393 339 Q-413 340 -433 342.5 Q-453 345 -471 353 Q-503 368 -525 399 Q-527 402 -523 404.5 Q-519 407 -517 403 Q-514 398 -510.5 394 Q-507 390 -503 385 Q-477 359 -440 353 Q-418 348 -395.5 347.5 Q-373 347 -351 349 Q-327 351 -304 354 Q-281 357 -258 362 Q-238 366 -218 370.5 Q-198 375 -178 381 Q-150 390 -123 400 Q-96 410 -67 415 Q-56 417 -45 418.5 Q-34 420 -23 419 L-20 419 L-19 419 Q1 418 11 412 Q21 406 25 402 L28 399 Q33 392 36 380 Q39 368 32 350 Q32 348 31 347 Q31 346 30.5 345.5 Q30 345 30 344 Q28 341 27.5 338 Q27 335 26 333 Q24 328 18.5 312 Q13 296 8 278 Q3 260 1 244 Q-1 228 4 222 L5 222 L6 221 L7 221 Q11 219 15 222 Q19 225 23 228 Q24 229 24 229.5 Q24 230 25 231 Q33 240 40 250 Q47 260 53 271 Q63 290 71.5 310 Q80 330 88 350 Q90 357 91.5 362 Q93 367 95 372 Q97 378 98.5 382.5 Q100 387 101 389 L110 414 Q122 412 129 406 Q135 400 137 388.5 Q139 377 131 355 Q127 343 123 333 Q121 328 115.5 312 Q110 296 105 278 Q100 260 98 244 Q96 228 101 222 L102 222 L103 221 L104 221 Q108 219 112 222 Q116 225 120 228 Q121 229 121 229.5 Q121 230 122 231 Q130 240 137 250 Q144 260 150 271 Q163 296 173.5 321.5 Q184 347 194 373 Q199 378 201 377 Z " />
<glyph glyph-name="v" unicode="v" horiz-adv-x="182" d="M182 378 Q184 382 188 379.5 Q192 377 190 373 L157 319 Q141 293 124 272 Q116 263 106.5 255.5 Q97 248 85 243 L76 240 L65 229 L60 224 Q59 224 59 223 Q39 208 24 208 Q4 208 -3 231.5 Q-10 255 -9 286 Q-8 317 -3 348.5 Q2 380 5 395 Q0 398 -7 399 Q-14 400 -17 401 Q-37 403 -56 401.5 Q-75 400 -94 396 Q-125 390 -154.5 379.5 Q-184 369 -213 357 Q-255 341 -297.5 325.5 Q-340 310 -385 303 Q-404 300 -423.5 299 Q-443 298 -462 300 Q-479 302 -492 310 Q-505 318 -512 333 Q-514 337 -510 339.5 Q-506 342 -504 338 Q-499 326 -489 319.5 Q-479 313 -467.5 310.5 Q-456 308 -443 308 Q-430 308 -419 309 Q-386 311 -354 319 Q-322 327 -290 338 Q-249 352 -209.5 369 Q-170 386 -128 397 Q-95 406 -60.5 410 Q-26 414 7 405 Q14 403 23.5 397.5 Q33 392 37 378 Q39 372 37 364 Q32 342 27 316 Q22 290 19.5 267 Q17 244 17.5 229 Q18 214 24 215 Q29 215 39 227.5 Q49 240 60 259 Q59 262 59 268 Q59 291 65.5 317.5 Q72 344 82.5 365 Q93 386 106 398 Q119 410 133 405 Q142 402 141.5 385.5 Q141 369 134 346.5 Q127 324 114 299 Q101 274 86 253 Q90 255 90 255 Q101 261 109 269.5 Q117 278 125 288 Q133 299 140 310 Q147 321 154 332 Q161 343 168 354.5 Q175 366 182 378 Z M69 275 Q79 293 88.5 312 Q98 331 105 347.5 Q112 364 115.5 375 Q119 386 117 388 Q116 389 112 384.5 Q108 380 102.5 371.5 Q97 363 90.5 351 Q84 339 79 326 Q79 325 78.5 324.5 Q78 324 78 323 Q76 319 76 317 Q72 303 70 289 Q69 282 69 275 Z " />
<glyph glyph-name="w" unicode="w" horiz-adv-x="266" d="M269 386 Q271 390 275 388 Q279 386 277 381 L244 327 Q236 315 228.5 303.5 Q221 292 211 281 Q203 272 193.5 264 Q184 256 173 251 Q167 249 163 249 Q153 238 143 229 Q134 221 124 215 Q114 209 103 209 L102 209 Q97 209 95 210 L93 210 L87 213 Q73 222 72 245 Q71 268 76 291 L55 252 Q50 244 42.5 234 Q35 224 26 216 Q22 213 14.5 210 Q7 207 -2 210 L-4 210 L-10 213 Q-21 220 -23.5 237.5 Q-26 255 -24 275.5 Q-22 296 -17 314.5 Q-12 333 -9 342 Q-3 361 0 372 Q2 378 3.5 382.5 Q5 387 6 389 L9 396 Q4 400 -5 403.5 Q-14 407 -18 408 Q-47 418 -76 419 Q-118 422 -158 415 Q-198 408 -238 396 Q-266 388 -293 377.5 Q-320 367 -349 358 Q-377 348 -406 340 Q-435 332 -465 330 Q-488 328 -513.5 331.5 Q-539 335 -554 356 Q-557 360 -553 362 Q-549 364 -547 361 Q-539 350 -526.5 345 Q-514 340 -502 338 Q-473 335 -443.5 341 Q-414 347 -386 355 Q-361 363 -337 371.5 Q-313 380 -288 389 Q-253 401 -215.5 411.5 Q-178 422 -140 426.5 Q-102 431 -64 427.5 Q-26 424 9 408 Q11 407 16.5 403.5 Q22 400 28 395 Q34 390 38 383 Q42 376 40 369 L40 367 L40 365 Q39 365 39 364 Q39 363 38.5 362.5 Q38 362 38 360 Q37 359 37 358 Q37 357 36 355 Q32 343 28 333 Q26 328 20.5 312 Q15 296 10 278 Q5 260 3 244 Q1 228 6 222 L7 222 L8 221 L9 221 Q13 219 17 222 Q21 225 25 228 Q26 229 26 229.5 Q26 230 27 231 Q35 240 42 250 Q49 260 55 271 Q65 290 73.5 310 Q82 330 90 350 Q92 357 93.5 362 Q95 367 97 372 Q99 378 100.5 382.5 Q102 387 103 389 L112 414 Q124 412 131 406 Q137 400 139 388.5 Q141 377 133 355 Q129 343 125 333 Q123 328 118.5 315.5 Q114 303 109.5 287 Q105 271 102 255.5 Q99 240 100 231 Q101 223 106 221 L107 221 Q111 219 118 226 L124 232 Q129 238 135.5 247 Q142 256 147 267 Q147 269 146.5 271.5 Q146 274 146 276 Q146 299 152.5 325.5 Q159 352 169.5 373 Q180 394 193.5 406 Q207 418 220 413 Q229 410 228.5 393.5 Q228 377 221 354.5 Q214 332 201.5 307 Q189 282 173 261 Q177 263 177 263 Q197 276 212 296 Q220 307 227 318 Q234 329 241 340 Q249 351 255.5 363 Q262 375 269 386 Z M156 283 Q166 301 175.5 320 Q185 339 192 355.5 Q199 372 202.5 383 Q206 394 204 396 Q202 399 189.5 380 Q177 361 166 334 Q166 332 165 331 Q164 329 164 328 Q164 327 163 325 Q161 318 159.5 310.5 Q158 303 157 297 Q156 290 156 283 Z " />
<glyph glyph-name="x" unicode="x" horiz-adv-x="190" d="M191 378 Q193 382 197 380 Q201 378 199 373 Q190 356 180 339.5 Q170 323 159 306 Q141 276 123 258 Q108 241 91 233 Q74 225 62 239 L61 240 Q58 244 57 248.5 Q56 253 56 257 Q56 261 57 266 Q56 260 52 255 Q33 228 13.5 221 Q-6 214 -19 219 L-25 222 Q-25 223 -26 223 L-32 229 Q-36 235 -37.5 242.5 Q-39 250 -40 257 Q-45 259 -50 260 Q-55 261 -60 263 Q-80 271 -99.5 279.5 Q-119 288 -139 296 Q-161 305 -182.5 312.5 Q-204 320 -227 327 Q-265 338 -305.5 344 Q-346 350 -388 346 Q-421 342 -453 329 Q-485 316 -504 287 Q-506 283 -510 285 Q-514 287 -512 291 Q-492 321 -458 337 Q-426 352 -390 355 Q-354 358 -319 354 Q-274 349 -230.5 337 Q-187 325 -145 308 Q-125 300 -105 291.5 Q-85 283 -65 275 Q-59 273 -53 270.5 Q-47 268 -41 267 Q-41 272 -41 277.5 Q-41 283 -40 288 Q-38 296 -34 304 Q-30 312 -20 310 Q-6 306 -4 293 Q-2 280 -9 269 Q-15 258 -25 257 L-31 257 Q-31 253 -30 249 Q-30 248 -29.5 247 Q-29 246 -29 245 Q-27 237 -22.5 231.5 Q-18 226 -10 227 Q-8 228 -5.5 228 Q-3 228 -1 230 Q9 235 25 255.5 Q41 276 62 327 Q69 343 72 357 Q74 369 73 381.5 Q72 394 61 400 Q61 401 59 401 Q51 404 44.5 402.5 Q38 401 33 397.5 Q28 394 25 390.5 Q22 387 22 386 Q14 373 11 363 Q8 357 7 351 Q-3 354 -7 359 Q-7 360 -8 360 Q-8 361 -8.5 361.5 Q-9 362 -9 364 Q-10 368 -8 375.5 Q-6 383 4 394 Q9 399 15 403 Q15 403 17 404 Q26 410 34 412 Q38 413 46 413 Q59 413 70 406 Q78 400 84.5 386 Q91 372 87 346 Q103 370 116.5 382 Q130 394 139 399 Q150 405 158 405 Q164 405 167 400 Q170 395 169 389 Q168 384 164 385.5 Q160 387 160 391 Q161 394 159 396 L157 396 L156 396 Q153 394 145 387 Q137 380 123 360 Q117 351 107.5 333 Q98 315 89 289 Q84 273 83 260 Q82 247 93 247 Q98 247 109 256 Q120 266 129.5 279 Q139 292 145 301 Q157 320 168.5 339 Q180 358 191 378 Z M-31 266 L-27 266 Q-25 266 -24 267 Q-19 269 -14 277 Q-12 282 -12 289 Q-12 296 -17 299 Q-26 304 -29 295 Q-32 287 -32 278 L-32 266 L-31 266 Z " />
<glyph glyph-name="y" unicode="y" horiz-adv-x="177" d="M177 378 Q179 382 183 381 Q187 380 185 375 Q177 354 163 335.5 Q149 317 135 300 Q127 292 120.5 284.5 Q114 277 106 269 Q102 257 98 246 Q94 235 92 227 Q79 190 62.5 152 Q46 114 27 81 Q8 48 -14 23 Q-36 -2 -60 -11 Q-63 -12 -71 -14 Q-84 -17 -93 -13 Q-103 -9 -108.5 -1 Q-114 7 -115.5 17 Q-117 27 -116 38 Q-115 49 -113 59 Q-105 88 -87 115 Q-69 142 -47 164 Q-22 188 7 209 Q3 209 1 210 L-1 210 L-7 213 Q-18 220 -20.5 237.5 Q-23 255 -21 275.5 Q-19 296 -14 314.5 Q-9 333 -6 342 Q0 361 3 372 Q5 378 6.5 382.5 Q8 387 9 389 L15 406 Q13 407 11 407.5 Q9 408 7 409 Q-10 415 -27 415 Q-47 416 -67 412 Q-87 408 -106 402 Q-126 396 -145 389 Q-164 382 -184 377 Q-202 372 -220 368 Q-238 364 -257 360 Q-295 354 -335.5 352.5 Q-376 351 -414 361 Q-431 366 -447 373.5 Q-463 381 -477 392 Q-489 403 -499 418 Q-509 433 -504 450 Q-502 455 -497.5 453.5 Q-493 452 -495 448 Q-497 439 -494.5 431 Q-492 423 -487 416 Q-482 409 -475 403 Q-468 397 -462 393 Q-448 383 -431.5 377 Q-415 371 -398 367 Q-360 359 -321.5 361.5 Q-283 364 -245 372 Q-207 378 -171 390 Q-151 397 -131 404 Q-111 411 -91 416 Q-73 421 -54.5 423.5 Q-36 426 -18 424 L-17 424 Q-11 423 0 421 Q11 419 21.5 414.5 Q32 410 39.5 402 Q47 394 46 381 Q46 379 44 371 Q43 367 42 363.5 Q41 360 39 355 Q35 343 31 333 Q29 328 23.5 312 Q18 296 13 278 Q8 260 6 244 Q4 228 9 222 L10 222 L11 221 L12 221 Q16 219 20 222 Q24 225 28 228 Q29 229 29 229.5 Q29 230 30 231 Q38 240 45 250 Q52 260 58 271 Q68 290 76.5 310 Q85 330 93 350 Q95 357 96.5 362 Q98 367 100 372 Q102 378 103.5 382.5 Q105 387 106 389 L115 414 Q126 412 133 407 Q139 402 142 392 Q145 382 139 363 Q138 361 138 360.5 Q138 360 137 358 Q135 353 133.5 348.5 Q132 344 130 339 Q128 334 126.5 328.5 Q125 323 123 318 L120 312 Q118 307 116.5 302 Q115 297 113 292 Q112 291 112 290 L112 288 Q116 292 119.5 296 Q123 300 127 305 Q135 314 141.5 322.5 Q148 331 154 340 Q161 349 166.5 358 Q172 367 177 378 Z M-57 2 Q-41 15 -25 39.5 Q-9 64 5.5 95.5 Q20 127 33.5 162.5 Q47 198 58 232 Q45 224 33 215.5 Q21 207 9 199 Q-23 176 -50 147.5 Q-77 119 -94 83 Q-98 74 -102.5 59.5 Q-107 45 -107.5 31.5 Q-108 18 -103 7 Q-98 -4 -83 -7 Q-75 -8 -68 -4.5 Q-61 -1 -57 2 Z M66 259 Q68 264 69.5 269 Q71 274 73 280 Q69 273 65.5 266 Q62 259 58 252 Q56 248 53 244 Q50 240 47 235 Q51 238 54.5 240.5 Q58 243 62 245 Q63 249 64 252.5 Q65 256 66 259 Z " />
<glyph glyph-name="z" unicode="z" horiz-adv-x="146" d="M146 378 Q148 382 152 381 Q156 380 154 375 Q146 354 132 335.5 Q118 317 103 300 Q98 295 93 289 Q88 283 83 278 Q82 276 74 268 L73 268 Q67 262 63 259 Q60 256 56.5 252.5 Q53 249 49 246 Q50 229 46.5 204 Q43 179 29 146 Q28 144 27 141.5 Q26 139 25 137 Q24 135 24 134.5 Q24 134 23 132 Q0 81 -29 41.5 Q-58 2 -91 -11 Q-94 -12 -102 -14 Q-115 -17 -124 -13 Q-134 -9 -139.5 -1 Q-145 7 -146.5 17 Q-148 27 -147 38 Q-146 49 -144 59 Q-136 88 -118 115 Q-100 142 -78 164 Q-54 188 -26 207 Q2 226 31 245 Q31 247 32 248 Q33 253 34 263 Q35 273 30 281 Q26 286 25.5 287.5 Q25 289 25 291 L26 292 Q28 294 31 294 Q39 294 51.5 301.5 Q64 309 76 335 Q84 353 85 367 Q86 381 83 390.5 Q80 400 74.5 405.5 Q69 411 64 412 Q56 414 50 412 Q44 410 39.5 407 Q35 404 32 400.5 Q29 397 29 396 Q26 391 24 386.5 Q22 382 20 378 Q18 372 17 369 Q13 362 12 356 Q10 354 7 357 Q-5 369 -20 377 Q-35 385 -51 391 Q-68 398 -86 404.5 Q-104 411 -121 416 Q-157 427 -193.5 433 Q-230 439 -268 440 Q-306 441 -345 434.5 Q-384 428 -419 412 Q-437 404 -454 394 Q-471 384 -486 371 Q-500 359 -513.5 343 Q-527 327 -528 307 Q-528 302 -532.5 302 Q-537 302 -537 307 Q-536 325 -525.5 339.5 Q-515 354 -503 367 Q-479 391 -448 408 Q-417 425 -383.5 434.5 Q-350 444 -315 447 Q-272 452 -229 447 Q-186 442 -144 431 Q-121 425 -99.5 418 Q-78 411 -57 403 Q-43 398 -28.5 391 Q-14 384 -2 376 Q-2 380 0.5 387 Q3 394 12 403 Q15 406 17.5 408.5 Q20 411 23 413 L24 414 Q33 419 42 421 Q45 422 47.5 422.5 Q50 423 54 423 Q65 422 74 418 Q82 413 88.5 404 Q95 395 96 377 L96 370 Q96 369 95 361.5 Q94 354 92 346 Q92 345 91.5 344.5 Q91 344 91 342 Q91 342 90 341 Q87 334 83 325 Q79 316 72.5 307.5 Q66 299 57.5 293.5 Q49 288 38 287 Q39 286 40 283 Q41 281 42 278 Q43 275 45 271 Q45 270 46 265 Q47 260 47 257 Q53 263 60 269 Q65 274 71.5 279.5 Q78 285 83 290 L83 291 Q84 291 84 291.5 Q84 292 85 292 Q86 293 86 294 Q88 297 91 299.5 Q94 302 96 305 Q103 314 110 322.5 Q117 331 123 340 Q130 349 135.5 358 Q141 367 146 378 Z M-88 2 Q-72 15 -56 39.5 Q-40 64 -25.5 95.5 Q-11 127 2.5 162.5 Q16 198 27 232 Q14 224 2 215.5 Q-10 207 -22 199 Q-54 176 -81 147.5 Q-108 119 -125 83 Q-129 74 -133.5 59.5 Q-138 45 -138.5 31.5 Q-139 18 -134 7 Q-129 -4 -114 -7 Q-106 -8 -99 -4.5 Q-92 -1 -88 2 Z " />
</font>
</svg>
