<?xml version="1.0" encoding="UTF-8"?>
<svg xmlns="http://www.w3.org/2000/svg" xmlns:xlink="http://www.w3.org/1999/xlink" version="1.2" >
<font id="Morning Wishes">
<font-face  font-family="Morning Wishes" units-per-em="1000" ascent="750" descent="-250" font-style="normal" font-weight="400" font-stretch="normal" cap-height="700" x-height="500" underline-position="-75" underline-thickness="50" />
<missing-glyph  horiz-adv-x="161" d="" />
<glyph glyph-name="NULL" d="" />
<glyph glyph-name="CR" unicode="&#xd;" horiz-adv-x="161" d="" />
<glyph glyph-name="space" unicode="&#x20;" horiz-adv-x="150" d="" />
<glyph glyph-name="exclam" unicode="&#x21;" horiz-adv-x="121" d="M90 645 C90 645 -19 221 -5 220 C9 219 131 645 131 645 C131 645 123 654 90 645 L90 645 Z M0 160 C0 161 0 161 -1 162 C-1 174 -13 175 -14 175 C-19 175 -24 174 -27 167 C-27 167 -35 147 -14 147 C-4 147 0 154 0 160 C0 160 0 160 0 160 L0 160 Z " />
<glyph glyph-name="quotedbl" unicode="&#x22;" horiz-adv-x="109" d="M122 645 C110 655 89 645 84 632 C81 623 83 613 91 608 C89 601 83 595 76 592 C71 592 72 582 77 582 C85 582 95 590 101 593 C113 605 134 627 122 645 L122 645 Z M72 645 C60 655 37 645 34 632 C30 623 32 613 40 608 C37 601 32 595 26 592 C19 592 20 582 27 582 C35 582 43 589 49 592 C64 604 80 628 72 645 L72 645 Z " />
<glyph glyph-name="numbersign" unicode="&#x23;" horiz-adv-x="301" d="M259 409 C259 410 257 412 255 412 C240 412 223 412 207 413 C213 432 218 450 223 469 C225 474 226 480 228 486 C228 489 228 494 225 495 C222 495 220 494 219 492 C211 465 202 439 193 413 C162 413 129 414 97 414 C102 433 107 451 112 470 C113 475 115 480 116 486 C116 488 117 494 113 495 C110 495 109 494 108 492 C99 466 91 440 83 415 C67 415 50 415 34 415 C31 416 29 413 27 409 C25 404 31 401 35 401 C49 401 64 401 78 401 C70 374 60 346 52 319 C37 319 22 319 7 320 C4 320 2 317 1 314 C-1 308 4 305 8 305 C21 305 34 305 47 305 C38 276 28 246 19 216 C18 214 19 213 19 212 C25 207 32 206 35 214 C37 220 38 226 40 231 C48 255 56 280 63 305 C95 305 127 305 159 305 C150 276 139 246 130 216 C129 214 130 213 131 212 C136 207 144 206 147 214 C148 220 150 226 151 231 C159 256 167 280 175 305 C189 306 202 306 215 306 C218 307 232 305 233 311 C234 314 232 317 229 317 C212 317 195 317 178 317 C187 345 195 373 203 401 C216 401 229 402 242 402 C246 402 258 401 259 407 C260 408 260 409 259 409 L259 409 Z M92 401 C124 401 157 401 189 401 C181 373 172 345 163 317 C131 318 99 318 68 319 C76 346 84 373 92 401 L92 401 Z " />
<glyph glyph-name="dollar" unicode="&#x24;" horiz-adv-x="277" d="M177 543 C175 544 175 544 175 544 C173 544 172 544 172 544 C179 567 185 590 192 613 C193 619 185 621 183 616 C176 592 170 569 163 545 C162 546 161 546 159 546 C147 545 135 541 124 535 L124 535 C124 535 124 535 124 535 C123 534 122 534 121 533 C121 533 120 532 118 531 C107 521 82 494 102 449 C102 449 102 449 102 449 C104 445 106 440 110 434 C115 424 121 415 126 405 C111 349 96 293 80 236 C77 224 73 211 70 199 C52 202 34 209 19 219 C-7 236 -21 270 -18 300 C-17 305 -26 308 -27 302 C-30 269 -16 234 11 214 C27 202 47 194 67 190 C59 160 51 130 43 100 C41 95 50 92 52 98 C59 128 68 158 77 189 C81 188 86 188 91 188 C91 188 91 188 91 188 C91 188 92 188 92 188 C101 188 145 189 174 220 C188 234 197 251 202 266 C202 266 202 267 202 267 C202 267 202 267 202 268 C203 269 204 271 203 273 C210 300 199 332 195 339 C183 370 162 409 144 440 C148 452 151 464 155 476 C160 496 165 516 171 536 C171 536 200 531 206 507 C206 507 206 506 206 505 C206 505 206 505 206 505 C206 505 206 504 206 504 C208 499 216 499 215 504 C214 531 186 541 177 543 L177 543 Z M173 312 C174 307 182 280 169 253 C168 252 168 250 167 248 C166 247 166 245 165 244 C157 232 149 220 136 211 C132 207 118 198 99 197 C92 196 85 197 79 197 C96 263 114 328 132 394 C149 364 164 336 173 312 L173 312 Z M139 454 C137 457 135 461 133 464 C122 483 119 496 117 504 C117 505 117 505 117 506 C117 507 116 508 116 509 C117 518 125 524 129 527 C137 532 146 535 155 536 C157 536 159 537 162 537 C154 509 146 482 139 454 L139 454 Z " />
<glyph glyph-name="percent" unicode="&#x25;" horiz-adv-x="274" d="M232 502 C145 399 58 296 -27 193 C-28 192 -28 191 -28 190 C-33 185 -28 179 -24 183 C62 286 148 389 234 491 C235 492 235 493 236 494 C240 498 236 506 232 502 L232 502 Z M12 369 C13 366 16 363 18 362 C34 353 54 360 64 364 C89 377 123 404 130 442 C135 467 125 482 115 490 C93 507 66 492 56 486 C32 471 8 444 2 417 C-2 394 3 378 11 369 C11 369 12 369 12 369 L12 369 Z M21 389 L21 390 C21 401 25 414 26 420 C29 427 37 443 46 459 C46 459 47 459 47 460 C57 475 68 481 72 483 C75 484 79 487 82 488 C86 489 90 490 95 489 C98 488 101 483 102 480 C103 478 108 466 102 441 C102 439 102 438 102 437 C102 437 102 436 102 436 C99 427 95 418 92 409 C90 404 80 385 60 373 C55 371 52 370 47 368 C44 368 41 367 37 367 C37 367 36 367 36 367 C36 367 36 367 36 367 C35 367 34 367 33 367 C21 368 21 384 21 388 C21 389 21 389 21 389 L21 389 Z M188 319 C167 337 139 322 130 316 C106 300 82 273 78 247 C72 224 77 208 85 198 C85 198 85 198 85 198 C88 195 90 193 92 192 C107 182 129 190 138 194 C165 207 198 234 204 271 C209 297 200 312 188 319 L188 319 Z M177 270 C176 269 176 268 176 267 C176 267 176 266 176 266 C174 256 171 248 166 239 C164 234 154 214 133 204 C130 200 125 199 121 197 C119 197 116 196 112 196 C111 196 110 196 110 196 C110 196 109 196 109 196 C108 196 108 196 107 196 C95 197 95 213 95 218 C95 219 95 219 95 220 L95 220 C96 230 99 243 102 250 C103 256 111 272 121 288 C121 288 121 288 121 289 C132 304 143 311 146 313 C149 314 153 316 156 317 C160 318 164 319 169 318 C172 317 175 313 177 310 C178 308 182 296 177 270 L177 270 Z " />
<glyph glyph-name="ampersand" unicode="&#x26;" horiz-adv-x="234" d="M210 398 C210 398 209 399 209 399 C208 400 205 401 204 398 C203 398 202 396 202 395 C203 394 203 394 204 393 C206 390 206 388 206 385 C204 371 192 360 181 353 C168 344 154 339 139 336 C125 332 111 330 99 323 C88 317 81 306 75 294 C74 291 70 285 71 281 C72 278 75 278 77 279 C79 280 80 283 81 285 C82 288 84 292 84 295 C88 302 93 308 100 313 C105 317 112 320 119 322 C121 323 121 324 122 321 C123 320 124 317 125 315 C126 312 127 308 128 304 C136 273 119 244 94 227 C71 209 40 198 10 198 C-46 199 -27 277 -12 307 C0 326 15 344 33 357 C37 350 46 345 54 343 C68 339 88 340 94 356 C96 362 94 370 89 375 C85 380 79 381 73 381 C64 381 54 379 45 376 C45 377 44 379 44 381 C44 382 45 383 43 382 C44 382 44 383 44 383 C38 431 57 484 99 509 C122 522 160 529 176 502 C184 489 182 472 172 461 C169 456 163 454 157 452 C154 451 151 451 148 450 C147 450 144 451 143 449 C142 448 141 445 142 443 C145 440 151 442 154 443 C165 444 175 450 181 458 C195 478 190 507 170 521 C170 521 170 521 170 521 C152 532 130 530 113 526 C100 523 88 518 77 511 C37 487 17 443 20 396 C21 387 22 377 26 368 C5 357 -15 341 -28 322 C-43 303 -50 280 -49 256 C-49 239 -44 222 -34 209 C-27 201 -17 195 -7 192 C5 189 17 189 29 191 C51 194 73 203 92 215 C110 226 124 241 133 260 C141 280 139 304 130 325 C141 327 153 330 164 335 C175 340 186 345 195 353 C206 363 222 383 210 398 L210 398 Z M86 363 C86 363 86 363 86 364 C86 363 86 363 86 363 C86 363 86 363 86 363 L86 363 Z M86 364 C86 364 86 364 86 364 C86 364 86 364 86 364 C86 364 86 364 86 364 C86 364 86 364 86 364 C86 364 86 364 86 364 C86 363 86 363 86 362 C86 361 86 359 86 358 C85 356 84 354 82 353 C76 349 66 349 60 352 C54 355 48 361 46 367 C57 371 83 380 86 364 C86 364 86 364 86 364 C86 364 86 364 86 364 C86 364 86 364 86 364 L86 364 Z M86 364 C86 364 86 364 86 364 C86 364 86 364 86 364 C86 364 86 364 86 364 C86 364 86 364 86 364 L86 364 Z " />
<glyph glyph-name="quotesingle" unicode="&#x27;" horiz-adv-x="86" d="M97 652 C85 660 65 657 61 641 C57 631 57 620 64 616 C63 609 57 602 52 599 C45 598 47 588 51 588 C78 588 106 630 97 652 L97 652 Z " />
<glyph glyph-name="parenleft" unicode="&#x28;" horiz-adv-x="82" d="M137 619 C136 621 134 622 133 620 C125 616 120 610 114 604 C99 589 84 572 72 554 C28 493 -2 419 -17 340 C-27 291 -33 240 -32 189 C-33 157 -31 123 -24 92 C-21 77 -16 64 -11 51 C-10 45 -8 41 -6 37 C-5 33 1 36 -1 40 C-3 48 -4 58 -6 66 C-9 92 -11 118 -11 145 C-11 190 -7 234 0 279 C9 331 22 382 39 431 C60 491 88 548 124 597 C128 602 131 609 136 614 C136 614 136 614 136 614 C138 616 138 618 137 619 L137 619 Z " />
<glyph glyph-name="parenright" unicode="&#x29;" horiz-adv-x="142" d="M79 568 C75 586 71 607 63 624 C63 625 63 625 63 625 C62 627 60 627 59 626 C57 626 55 624 56 622 C59 613 60 603 61 594 C63 568 63 542 63 515 C58 419 36 327 3 239 C-19 181 -46 123 -83 74 C-90 67 -94 60 -101 55 C-104 51 -100 46 -97 49 C-91 52 -85 57 -81 61 C-66 75 -53 90 -41 108 C-21 135 -4 165 11 196 C32 239 50 286 63 334 C85 409 93 491 79 568 L79 568 Z " />
<glyph glyph-name="asterisk" unicode="&#x2a;" horiz-adv-x="136" d="M151 602 C144 608 134 607 127 607 C118 608 110 607 101 606 C103 607 103 609 105 610 C105 610 105 610 105 610 C115 620 126 631 133 644 C134 646 137 651 133 654 C133 654 131 655 131 654 C119 649 111 638 104 629 C99 623 95 617 91 611 C91 611 90 612 90 614 C88 625 86 638 80 648 C78 651 75 654 71 654 C68 653 68 646 68 644 C68 638 70 631 71 625 C74 620 76 614 78 609 C79 608 79 607 79 606 C69 606 59 606 48 606 C44 606 39 606 34 604 C31 604 26 603 26 599 C24 591 41 592 45 592 C55 591 65 592 75 592 C68 585 61 577 55 569 C51 565 48 561 45 556 C44 554 41 549 43 547 C48 539 60 554 63 557 C71 566 78 575 85 585 C87 577 89 569 92 560 C94 555 98 543 105 544 C113 546 108 561 107 565 C104 575 101 584 97 594 C99 594 102 594 104 594 C104 594 104 594 104 594 C117 593 131 592 143 594 C146 594 151 596 151 599 C152 600 152 601 151 602 L151 602 Z M146 602 C146 602 146 602 146 602 L146 602 L146 602 Z " />
<glyph glyph-name="plus" unicode="&#x2b;" horiz-adv-x="252" d="M194 350 C164 350 135 350 105 350 C106 356 108 362 109 367 C117 397 124 426 132 455 C133 458 132 461 129 461 C126 461 124 461 121 461 C121 461 121 461 121 461 C119 461 118 460 116 457 C107 422 98 386 88 350 C74 350 60 350 46 350 C31 350 15 350 0 350 C-3 350 -4 349 -4 347 C-5 347 -5 346 -5 346 C-5 343 -6 340 -6 337 C-7 335 -4 333 -2 333 C27 333 55 333 84 333 C83 328 81 323 80 318 C72 289 65 260 57 231 C57 228 57 225 60 225 C63 225 65 225 68 225 C70 225 72 226 73 228 C82 263 91 298 100 333 C116 333 131 333 146 333 C162 333 177 333 193 333 C195 333 197 335 197 337 C197 340 199 343 199 346 C199 348 197 350 194 350 L194 350 Z " />
<glyph glyph-name="comma" unicode="&#x2c;" horiz-adv-x="133" d="M25 247 C25 247 25 247 25 247 C25 247 24 247 24 247 C13 256 -7 247 -12 236 C-13 231 -14 224 -12 221 C-12 215 -9 213 -5 212 C-8 206 -13 195 -21 195 C-25 194 -24 187 -20 187 C-12 186 -5 191 2 195 C10 202 15 210 21 218 C25 226 33 240 25 247 L25 247 Z " />
<glyph glyph-name="hyphen" unicode="&#x2d;" horiz-adv-x="207" d="M157 353 C115 353 73 353 31 353 C28 353 27 352 26 350 C26 350 26 349 26 349 C26 346 26 343 25 340 C25 338 28 336 30 336 C72 336 114 336 156 336 C159 336 161 338 161 340 C161 343 161 346 161 349 C162 351 159 353 157 353 L157 353 Z " />
<glyph glyph-name="period" unicode="&#x2e;" horiz-adv-x="129" d="M19 254 C15 260 8 259 3 259 C-10 257 -17 248 -21 237 C-25 225 -21 216 -10 213 C5 213 15 221 19 234 C19 234 19 235 19 235 C21 241 22 249 19 254 L19 254 Z " />
<glyph glyph-name="slash" unicode="&#x2f;" horiz-adv-x="145" d="M134 649 C132 649 129 649 127 649 C126 649 125 648 125 647 C124 647 124 646 124 645 C118 627 110 609 105 590 C90 544 76 498 61 453 C43 396 23 340 6 283 C-10 232 -27 181 -44 130 C-53 100 -64 70 -73 41 C-73 38 -74 35 -75 32 C-76 31 -74 28 -72 28 C-71 27 -69 27 -67 27 C-64 26 -63 27 -62 30 C-57 49 -49 66 -43 85 C-29 131 -15 177 1 222 C19 279 38 335 55 391 C72 443 89 494 105 546 C115 576 126 606 135 635 C136 638 137 641 138 644 C138 646 136 649 134 649 L134 649 Z " />
<glyph glyph-name="zero" unicode="0" horiz-adv-x="230" d="M233 509 C232 524 228 542 215 552 C200 565 180 562 163 554 C148 546 133 532 132 514 C132 508 141 508 142 514 C142 535 168 549 186 551 C203 553 215 543 220 528 C226 511 225 492 224 474 C223 458 220 442 216 426 C202 372 177 322 144 278 C130 261 115 244 94 236 C94 236 94 236 94 236 C92 235 91 235 90 234 C88 234 86 233 83 232 C58 226 48 239 45 246 C30 278 33 338 64 416 C94 491 123 531 147 552 C148 553 163 565 180 567 C182 567 183 567 185 567 C186 567 187 567 188 567 C194 567 201 567 208 566 C214 565 216 574 210 575 C197 577 184 577 171 575 C132 572 71 545 31 427 C21 393 15 357 15 325 C14 298 18 251 43 230 C51 224 62 219 79 222 C79 222 80 222 80 222 C82 222 83 223 84 223 C84 223 84 223 84 223 C103 228 120 238 134 252 C153 271 169 295 183 319 C198 346 210 375 219 404 C229 437 237 474 233 509 L233 509 Z " />
<glyph glyph-name="one" unicode="1" horiz-adv-x="107" d="M136 573 L104 557 C97 553 91 550 85 546 C78 542 55 528 69 519 C74 516 78 523 74 527 C75 528 77 530 78 531 C83 535 89 539 95 542 C96 542 97 543 97 543 L87 510 C78 484 64 441 51 396 L-2 227 C-7 227 -12 227 -17 227 C-23 227 -23 218 -17 218 C1 218 19 218 38 218 C43 218 43 227 38 227 C33 227 28 227 23 227 L67 361 C100 458 135 570 136 573 L136 573 Z " />
<glyph glyph-name="two" unicode="2" horiz-adv-x="223" d="M157 226 C106 226 54 226 2 226 L89 310 C90 311 90 312 91 313 L92 313 L92 313 C120 340 150 372 177 404 C200 433 229 476 235 516 C240 559 205 569 187 572 C183 572 179 572 176 572 L176 572 L176 572 C167 573 161 572 159 572 C141 570 123 563 109 550 C98 542 90 530 83 518 C75 506 70 492 69 477 C68 471 77 471 78 477 C80 502 96 526 114 543 C127 555 143 561 160 563 C164 563 179 565 189 558 C231 531 181 418 13 256 C13 256 13 256 13 256 C10 253 -10 234 -10 234 C-18 226 -27 217 -27 217 L-23 217 L-8 217 C-7 217 -6 217 -5 217 C49 217 103 217 157 217 C163 217 163 226 157 226 L157 226 Z " />
<glyph glyph-name="three" unicode="3" horiz-adv-x="199" d="M184 566 L184 566 C184 566 184 566 184 566 C179 569 173 570 167 571 C155 573 144 573 135 572 C133 571 122 570 110 566 C105 564 100 562 94 560 C94 560 94 560 94 560 C69 549 48 531 32 508 C28 503 36 498 39 504 C56 527 78 544 103 554 C108 556 120 559 135 559 C225 558 153 415 65 383 L65 383 L65 379 L65 379 C85 375 124 361 118 305 C116 282 98 260 74 243 C61 235 38 223 15 227 C4 229 -5 234 -12 244 C-15 249 -23 245 -19 240 C-12 228 0 221 13 219 C13 219 14 219 15 218 C15 218 15 218 15 218 C19 218 24 217 28 217 C31 217 115 219 143 291 C171 364 93 384 76 384 C76 384 200 411 211 513 C214 541 203 558 184 566 L184 566 Z " />
<glyph glyph-name="four" unicode="4" horiz-adv-x="227" d="M181 227 C170 227 158 227 147 227 L168 312 C169 312 171 312 172 312 C178 312 178 321 172 321 C171 321 171 321 170 321 L204 459 C201 466 196 471 187 471 C187 471 175 424 162 370 L156 345 L155 344 L150 321 C145 321 141 321 137 321 C132 321 128 321 123 321 C119 321 115 321 110 321 C106 321 102 321 97 321 C93 321 89 321 84 321 C79 321 73 321 68 321 C62 321 57 321 51 321 C48 321 45 321 41 321 L71 372 C91 410 119 467 133 511 C133 511 133 512 133 513 C134 516 135 520 136 523 C139 537 137 548 136 553 C135 557 133 562 129 567 C127 568 125 570 122 571 C115 575 106 575 98 574 C92 573 92 565 98 565 C105 566 112 567 119 563 C121 561 123 559 125 556 C126 554 129 547 127 537 C127 536 126 535 126 534 C126 534 126 534 126 533 C122 518 114 496 96 466 C32 356 -7 315 23 312 C23 312 23 312 24 312 C24 312 25 312 25 312 C26 312 26 312 27 312 C29 312 33 312 36 312 L36 312 C52 312 68 312 84 312 C84 312 85 312 85 312 C106 312 127 312 148 312 L143 293 L127 227 C122 227 117 227 111 227 C106 227 106 218 111 218 C134 218 158 218 181 218 C187 218 187 227 181 227 L181 227 Z " />
<glyph glyph-name="five" unicode="5" horiz-adv-x="227" d="M227 570 C225 558 219 548 209 542 C200 536 190 534 179 533 C159 531 137 532 116 536 C108 538 99 540 89 543 L45 409 C45 409 170 425 165 315 C164 292 155 273 143 258 C138 252 117 231 81 228 C80 228 79 228 78 228 C78 228 77 228 77 228 C76 228 75 227 74 227 C74 227 73 227 72 227 C70 227 68 227 66 227 C50 228 21 233 24 255 C25 261 16 261 15 255 C12 228 43 220 64 219 C66 218 68 218 70 218 L70 218 C70 218 70 218 70 218 C81 218 91 219 101 222 C161 237 184 292 184 292 C189 303 192 315 193 329 C196 397 108 417 75 417 C75 417 102 486 112 517 L112 517 C112 518 113 519 113 520 L115 527 C138 523 162 522 185 525 C197 526 208 530 217 537 C227 544 233 555 235 568 C236 573 228 576 227 570 L227 570 Z " />
<glyph glyph-name="six" unicode="6" horiz-adv-x="235" d="M257 560 C233 583 198 578 168 565 C167 565 165 564 163 563 C154 559 137 550 119 535 C86 507 62 468 45 434 C33 409 9 350 14 283 C15 276 16 269 18 262 C18 261 18 261 18 260 C20 256 21 252 23 248 C43 206 98 224 111 229 C111 229 112 230 112 230 C112 230 113 230 113 230 C142 242 167 265 182 294 C191 311 197 330 200 349 C203 367 202 387 191 402 C182 416 166 425 150 425 C131 425 112 416 96 406 C81 397 67 386 53 375 C56 383 59 391 62 400 C66 411 70 422 75 432 C92 471 110 501 129 522 C130 523 130 524 131 525 C132 525 132 525 132 525 C132 525 132 526 132 526 C134 528 136 530 138 532 C162 556 190 563 196 565 C215 569 236 568 250 553 C254 549 261 555 257 560 L257 560 Z M67 374 C84 388 102 402 122 410 C142 418 163 419 178 404 C192 391 193 371 192 354 C189 328 179 302 164 281 C147 258 123 241 96 233 C89 231 82 230 75 230 C73 230 71 230 68 231 C65 231 63 232 60 234 C33 249 40 303 40 303 C40 318 43 335 48 357 C54 363 60 369 67 374 L67 374 Z " />
<glyph glyph-name="seven" unicode="7" horiz-adv-x="170" d="M223 556 C223 556 208 563 195 566 C195 566 195 566 195 566 C177 570 157 571 138 572 C108 574 77 570 47 566 C41 565 44 556 49 557 C77 561 106 564 134 563 C156 562 180 562 201 555 C194 548 162 513 152 502 C152 502 152 502 152 502 C129 475 107 443 87 410 C73 410 57 410 44 404 C39 402 41 394 46 396 C57 400 70 401 82 401 C30 312 -5 221 -5 221 C-8 212 22 221 22 221 C46 285 79 347 111 400 C122 399 132 397 143 394 C148 392 151 401 145 402 C136 405 126 407 117 408 C161 479 203 531 215 546 C215 546 224 556 223 556 L223 556 Z " />
<glyph glyph-name="eight" unicode="8" horiz-adv-x="199" d="M203 565 C197 571 189 574 181 576 C170 579 160 576 149 573 C143 571 146 563 151 564 C160 567 169 569 179 567 C186 566 193 562 199 557 C209 545 206 524 201 511 C191 480 163 458 135 443 C92 491 105 521 105 521 C105 521 113 545 133 561 L133 561 C133 561 133 561 133 561 C135 563 138 565 141 567 C141 567 141 567 141 567 C142 567 143 569 143 571 C142 573 140 573 140 573 C109 562 94 540 86 524 C86 524 84 521 82 514 C82 513 81 513 81 513 C81 513 81 513 81 513 C77 498 76 469 103 432 C103 432 104 432 104 432 C104 432 104 432 104 432 C104 432 104 432 104 432 C104 432 104 432 104 432 C104 431 105 431 105 430 C105 430 105 430 105 430 C105 430 106 429 106 429 C90 420 74 410 60 399 C39 381 22 359 9 335 C-4 311 -10 284 -2 257 C2 247 7 237 15 229 C23 221 34 218 46 218 C68 218 88 231 105 244 C106 244 107 245 107 246 C182 296 186 392 141 436 C141 437 141 437 141 437 C173 454 203 479 212 516 C216 532 216 552 203 565 L203 565 Z M144 350 C145 344 144 337 143 334 C142 331 142 329 142 329 C135 291 119 268 103 252 C102 252 101 252 100 252 C80 237 51 217 26 232 C17 237 11 248 8 258 C3 272 2 286 5 300 C8 313 14 326 21 338 C28 350 36 362 46 372 C64 392 86 408 109 421 C110 421 111 422 111 422 C116 416 120 410 125 405 C141 388 144 366 144 350 L144 350 Z " />
<glyph glyph-name="nine" unicode="9" horiz-adv-x="210" d="M170 578 C159 578 149 575 140 572 C117 563 97 549 80 530 C61 508 49 481 43 454 C39 433 34 404 51 389 C60 381 75 382 87 386 C101 389 114 397 126 405 C145 418 163 434 180 451 C176 439 171 427 168 417 L168 417 C168 417 162 400 158 391 C158 391 158 391 158 391 C152 379 142 359 125 334 C118 323 110 312 102 302 C101 301 101 300 100 299 C89 284 76 270 65 258 C56 250 34 231 11 231 C11 231 11 231 11 231 C9 231 7 231 5 231 C-3 232 -11 236 -14 243 C-19 254 -14 268 -10 278 C-7 283 -15 288 -17 282 C-23 270 -28 256 -23 242 C-20 232 -11 225 0 223 C12 220 27 222 39 226 C42 227 46 229 49 230 C141 268 199 437 203 452 C208 467 247 578 170 578 L170 578 Z M186 469 C169 452 152 436 133 421 C121 411 108 403 94 397 C81 392 65 388 55 398 C48 405 48 417 49 428 C50 442 53 457 57 471 C65 497 81 521 102 540 C113 549 125 556 137 561 C139 562 144 564 149 565 C152 566 154 566 157 566 C157 566 158 566 158 566 C160 567 162 567 164 567 C207 567 200 517 186 469 L186 469 Z " />
<glyph glyph-name="colon" unicode="&#x3a;" horiz-adv-x="125" d="M57 351 C59 356 60 363 56 368 C52 372 47 372 42 370 C32 370 25 361 22 352 C18 343 23 335 34 334 C45 332 54 340 57 351 C57 351 57 351 57 351 C57 351 57 351 57 351 L57 351 Z M21 298 C11 297 4 289 1 280 C-3 270 2 263 13 261 C23 260 32 268 35 277 C36 277 36 278 36 278 C38 284 38 290 34 295 C31 299 26 299 21 298 L21 298 Z " />
<glyph glyph-name="semicolon" unicode="&#x3b;" horiz-adv-x="136" d="M44 301 C34 306 19 300 13 289 C11 281 12 274 18 269 C15 265 11 259 8 258 C2 257 3 249 8 249 C12 249 21 255 27 258 C32 261 37 271 42 277 C46 284 51 295 45 300 C45 300 45 301 44 301 L44 301 Z M70 367 C70 367 70 367 70 367 C70 367 70 368 70 368 C70 378 56 377 48 372 C39 368 33 360 32 350 C32 339 46 336 54 340 C65 344 71 355 70 367 L70 367 Z " />
<glyph glyph-name="less" unicode="&#x3c;" horiz-adv-x="195" d="M146 419 C144 421 141 422 138 420 C88 392 38 363 -12 335 C-15 333 -15 331 -15 329 C-16 326 -14 324 -11 323 C-10 323 -10 323 -9 323 C27 316 55 295 74 264 C82 251 89 235 92 218 C93 211 103 213 104 220 C106 243 93 264 81 282 C73 293 66 303 57 313 C74 329 91 345 107 361 C118 372 130 382 140 393 C143 395 146 398 148 400 C154 406 151 415 146 419 L146 419 Z " />
<glyph glyph-name="equal" unicode="&#x3d;" horiz-adv-x="274" d="M207 385 C157 385 108 385 58 385 C43 385 27 385 12 385 C10 385 8 383 8 382 C8 381 7 381 7 380 C7 377 7 375 7 372 C7 369 9 367 11 367 C61 367 110 367 160 367 C175 367 191 367 206 367 C209 367 210 369 211 372 C211 375 211 377 211 380 C211 383 209 385 207 385 L207 385 Z M194 317 C145 317 95 317 45 317 C30 317 15 317 0 317 C-3 317 -5 315 -5 312 C-5 309 -5 307 -6 304 C-6 302 -5 300 -3 300 C-3 300 -2 299 -1 299 C49 299 98 299 148 299 C163 299 178 299 194 299 C196 299 198 301 198 304 C198 307 199 309 199 312 C199 315 197 317 194 317 L194 317 Z " />
<glyph glyph-name="greater" unicode="&#x3e;" horiz-adv-x="195" d="M137 332 C137 334 136 335 133 336 C90 348 51 379 36 421 C34 427 25 422 25 416 C26 393 43 375 59 361 C67 352 77 343 88 335 C71 317 56 299 39 281 C30 269 18 257 8 245 C6 242 4 240 2 237 C-5 230 2 223 7 220 C8 218 11 219 13 221 C54 256 93 291 135 326 C137 328 137 330 137 332 L137 332 Z " />
<glyph glyph-name="question" unicode="&#x3f;" horiz-adv-x="235" d="M17 158 C8 156 2 146 -2 135 C-4 125 -1 115 8 114 C19 113 27 121 31 133 C31 133 31 134 31 134 C31 140 33 147 30 152 C28 159 22 158 17 158 L17 158 Z M199 590 C181 607 157 612 135 610 C109 608 84 595 63 577 C43 557 25 529 19 497 C18 495 17 490 20 487 C21 484 25 486 27 490 C27 491 27 492 28 495 C30 503 32 509 36 517 C48 545 66 569 89 582 C105 590 123 592 141 591 C156 590 172 583 184 567 C192 555 195 539 194 523 C194 501 186 481 177 463 C138 383 73 336 28 263 C21 253 13 241 11 227 C9 213 17 200 29 195 C38 192 49 193 59 195 C63 196 63 196 66 201 C68 204 65 209 62 208 C51 203 20 198 20 223 C20 224 20 224 20 225 C20 225 20 225 20 225 C21 226 21 226 21 227 C21 227 21 227 21 228 C22 229 22 229 23 230 C25 234 26 237 29 240 C34 248 42 256 50 263 C94 307 143 348 181 403 C203 433 222 471 225 512 C226 543 218 571 199 590 L199 590 Z " />
<glyph glyph-name="at" unicode="&#x40;" horiz-adv-x="312" d="M276 480 C272 494 263 503 250 509 C235 515 218 515 203 515 C197 515 191 514 187 514 C163 511 40 494 -6 375 C-45 278 -5 211 46 183 L46 183 C46 183 46 183 46 183 C48 182 50 181 53 180 C61 176 80 169 109 168 C113 168 116 168 119 168 C161 170 202 185 231 214 C235 218 228 223 225 220 C196 193 160 179 120 178 C106 177 90 178 74 181 C58 185 47 191 43 195 C9 223 -1 273 1 314 C3 355 23 428 85 472 C88 473 109 488 143 497 C155 499 168 503 182 504 C191 505 199 506 208 506 L208 506 C210 506 211 506 213 506 C223 505 247 503 258 492 C258 492 258 492 258 492 C258 492 259 491 259 491 C262 489 264 486 266 482 C272 467 270 448 268 433 C265 421 262 408 257 395 C256 394 255 391 254 389 C254 389 254 389 254 389 L254 389 C243 364 231 337 218 313 C212 303 206 292 201 283 C197 277 193 271 190 265 C176 246 163 235 154 244 C125 270 188 397 217 441 L225 455 C225 455 219 452 212 448 C211 447 210 446 209 446 C207 445 205 443 204 442 C194 435 189 426 184 419 C183 417 182 416 181 414 L148 365 L148 365 C147 363 145 360 143 358 L143 358 L143 358 C116 319 87 281 82 285 C75 288 85 324 102 362 C103 364 124 416 152 446 C154 450 166 460 180 462 C180 462 181 462 182 462 C182 462 182 462 182 462 C190 463 196 463 203 462 C208 461 211 469 205 469 C193 471 181 472 169 468 C161 465 152 462 145 456 C125 442 103 418 77 373 C70 359 63 346 58 335 C58 334 47 309 46 297 C46 297 46 297 46 297 C45 283 46 265 67 265 C70 265 74 266 78 268 C86 272 92 278 97 284 C109 296 121 310 132 325 C139 333 145 343 152 353 C131 307 115 256 127 234 C127 234 127 234 127 234 C128 234 128 234 128 234 C131 229 139 220 159 228 C184 240 206 275 208 278 C208 278 208 278 208 278 C208 278 208 278 208 278 C220 298 233 319 242 340 C250 354 255 367 261 381 C265 393 269 403 273 415 C279 435 282 460 276 480 L276 480 Z " />
<glyph glyph-name="A" unicode="A" horiz-adv-x="428" d="M390 347 C391 350 392 354 393 358 C394 363 395 367 396 372 C396 372 396 372 396 372 C397 375 398 378 399 381 C399 381 399 381 399 381 C427 492 454 600 467 648 C485 713 434 699 434 699 C434 699 416 685 404 673 C401 670 398 666 394 663 C394 663 394 663 394 663 L394 663 C365 630 341 593 319 555 C294 513 272 470 249 427 C232 427 215 424 199 422 C142 412 86 389 47 346 C28 325 14 301 5 275 C-4 246 -11 216 -14 186 C-15 175 -15 163 -12 152 C-12 152 -12 152 -12 152 C-11 150 -11 148 -10 146 C-1 127 20 132 34 139 C113 174 215 348 245 403 C247 405 250 410 253 416 C253 417 253 417 253 417 C277 415 298 407 319 396 C331 390 343 384 356 380 C355 375 354 371 354 371 C346 335 336 291 327 251 C326 250 321 239 318 232 C317 231 316 229 316 228 C316 227 315 227 315 227 L315 227 C302 198 281 139 281 139 C274 120 267 101 261 84 C260 79 258 72 255 63 C255 63 255 63 255 63 C255 61 255 60 254 59 C237 -2 201 -140 233 -140 C234 -140 234 -140 234 -140 C234 -140 234 -140 235 -140 C270 -136 317 54 317 54 C317 54 353 198 390 347 L390 347 L390 347 Z M69 171 C68 170 36 141 13 141 C13 141 13 141 13 141 C12 141 12 141 12 141 C12 141 12 141 12 141 C1 140 -4 154 -5 165 C-7 181 -4 197 -1 212 C1 227 5 242 9 257 C17 285 29 311 48 333 C86 379 142 402 199 413 C214 415 229 417 244 418 C244 418 152 242 69 171 L69 171 Z M307 163 C307 163 307 163 307 163 C283 47 245 -129 231 -129 C231 -129 231 -129 230 -129 C230 -129 230 -129 230 -129 C230 -129 230 -129 230 -129 C219 -127 235 -54 258 28 C258 28 258 29 258 29 C260 39 263 49 265 59 C271 81 282 113 282 113 C290 137 304 173 315 200 C311 184 309 171 307 163 L307 163 Z M384 495 C380 481 377 467 374 453 L373 452 L373 452 C372 448 371 444 370 440 L370 440 C370 440 369 434 366 422 C366 422 366 422 366 422 C365 419 361 402 358 389 C355 390 351 391 347 393 C336 397 326 403 315 408 C297 417 278 423 258 426 C259 427 259 428 260 430 C273 453 285 476 297 499 C317 534 337 569 359 603 C378 631 400 658 426 681 C423 670 420 653 416 638 C413 623 410 609 407 594 C407 593 406 593 406 593 L406 593 C403 579 400 565 397 552 L397 552 L397 551 C393 535 390 520 386 504 C386 504 386 504 386 504 L383 495 C384 495 384 495 384 495 L384 495 Z " />
<glyph glyph-name="B" unicode="B" horiz-adv-x="408" d="M452 694 C433 701 414 699 396 695 C387 693 379 690 370 688 C366 686 362 685 359 683 C344 677 332 669 320 662 C295 649 273 632 250 612 C234 598 218 582 203 566 C210 593 191 602 172 605 L67 178 L67 178 L57 137 C57 137 57 137 57 136 C29 20 60 16 60 16 L104 187 C145 208 219 268 219 268 L219 268 C236 280 252 294 269 306 C274 310 277 313 281 316 C291 308 300 295 301 270 L301 270 C301 270 301 269 301 269 C301 269 301 269 301 269 C301 268 301 268 301 267 C301 262 301 257 301 251 C300 239 297 220 290 200 C290 200 290 200 290 200 C283 177 274 152 259 122 C159 -94 96 -178 81 -87 C80 -77 80 -66 81 -57 C85 -10 113 31 141 68 C168 104 200 137 232 169 C235 173 238 176 241 179 L241 179 C241 179 245 184 241 188 C238 191 234 187 233 186 C229 182 223 178 220 173 C190 140 158 109 131 73 C103 35 77 -6 70 -53 C68 -70 69 -86 74 -104 C74 -105 75 -108 78 -115 C99 -159 131 -132 142 -121 C223 -34 430 262 297 330 C328 356 358 383 386 411 C414 440 441 469 464 502 C486 533 507 570 509 610 C510 642 493 682 452 694 L452 694 Z M108 200 L112 220 L124 266 C136 276 148 288 162 297 C187 312 215 324 249 327 C249 327 249 327 249 327 C249 327 250 327 251 327 C249 323 166 234 108 200 L108 200 Z M428 535 C386 469 319 394 261 336 C250 336 240 335 230 334 C197 330 169 315 146 299 C140 294 135 290 130 285 L153 374 C165 416 170 443 170 443 C181 483 191 519 197 545 C215 565 235 583 255 603 C277 620 298 638 322 652 C333 659 345 664 358 670 C360 671 363 672 365 673 L365 673 C366 674 368 674 369 676 C372 677 376 678 381 679 C382 679 382 680 382 680 C397 683 421 685 438 670 C447 663 453 653 457 638 C457 638 457 637 457 637 C458 633 459 629 459 624 C459 624 459 624 459 624 L459 624 C461 603 453 574 428 535 L428 535 Z " />
<glyph glyph-name="C" unicode="C" horiz-adv-x="363" d="M448 660 C447 669 443 677 438 682 C438 682 438 683 436 685 C419 702 390 700 390 700 C353 699 237 668 113 346 C29 124 16 -5 25 -76 C27 -87 33 -113 50 -129 C50 -130 50 -130 50 -130 C53 -132 56 -135 61 -137 C79 -146 97 -138 109 -130 C115 -126 121 -121 129 -114 C132 -110 135 -106 139 -103 C139 -103 139 -103 139 -102 C143 -99 146 -96 149 -92 C167 -71 187 -49 205 -27 C258 32 305 97 350 163 C351 164 353 169 349 169 C346 171 343 169 342 168 C342 168 341 167 341 167 C341 167 341 167 341 167 C329 150 319 134 307 118 C272 70 238 24 198 -20 C180 -42 161 -63 142 -84 C132 -97 120 -110 107 -121 C98 -128 76 -141 62 -123 C53 -109 52 -89 52 -74 C52 -48 55 -22 60 4 C66 34 73 65 80 96 C89 129 99 161 108 192 C118 224 129 256 139 288 C156 337 174 386 196 433 C202 445 209 459 216 471 C221 484 229 496 237 509 C250 528 263 547 275 562 C314 610 352 636 358 641 C380 655 397 662 409 666 C409 666 410 666 411 667 C412 667 414 667 416 668 C425 669 429 664 431 661 C434 652 435 631 406 594 C406 594 406 594 406 594 C405 593 402 589 405 587 C406 586 408 586 408 587 C416 593 425 602 435 617 C436 620 438 623 440 626 C440 626 440 626 440 626 C440 627 440 627 441 628 C441 628 441 629 441 629 C441 629 441 629 441 629 C447 641 449 651 448 660 C448 660 448 660 448 660 L448 660 Z " />
<glyph glyph-name="D" unicode="D" horiz-adv-x="447" d="M422 699 L422 699 C417 699 412 699 408 698 C394 695 380 691 367 685 C358 681 350 677 341 673 C341 673 341 672 340 672 C300 649 262 621 227 588 C229 599 232 609 232 610 C235 631 217 639 201 641 L96 218 L96 218 L85 177 C85 177 85 177 85 176 C58 60 89 57 89 57 L133 227 C133 227 133 227 133 227 C134 231 135 235 136 240 C136 240 136 240 136 240 L141 259 L153 305 C154 305 154 305 154 305 C155 312 157 319 159 325 C159 325 159 325 159 325 L164 344 C165 346 181 412 196 468 C198 477 199 481 199 481 C202 492 205 502 208 512 C213 530 216 544 217 548 C218 549 218 549 218 550 C219 555 221 564 223 573 C260 608 301 640 345 665 C346 665 346 665 347 665 C365 675 383 683 403 687 C410 689 427 690 437 672 C439 666 441 659 443 650 C443 646 443 644 444 641 C449 594 438 506 371 338 C336 315 304 287 274 257 C233 215 197 169 164 122 L164 122 C163 121 162 120 161 119 C160 117 125 68 108 33 C97 9 86 -16 78 -41 C72 -65 66 -90 71 -115 C72 -120 76 -139 94 -139 C194 -139 420 336 482 520 C544 702 422 699 422 699 L422 699 Z M90 -127 C90 -127 90 -127 90 -127 C84 -127 81 -123 79 -118 C73 -105 79 -75 79 -75 L79 -75 C83 -50 93 -24 103 -1 C109 13 116 27 123 40 C132 59 142 77 151 89 C200 158 251 226 314 281 C329 296 347 310 365 323 C356 303 347 281 337 259 C267 101 212 7 171 -48 C171 -48 171 -48 171 -48 C124 -111 102 -127 90 -127 L90 -127 Z " />
<glyph glyph-name="E" unicode="E" horiz-adv-x="298" d="M398 693 C366 706 332 700 292 673 C283 667 274 660 264 650 C264 650 264 650 264 650 C220 612 166 545 108 425 C108 425 108 425 108 425 C107 424 107 422 106 420 C88 382 74 344 64 309 C54 269 43 194 101 167 C85 145 69 119 51 89 C50 87 14 17 2 -22 C2 -23 1 -25 1 -26 C1 -26 1 -26 1 -26 C1 -26 1 -27 1 -27 C-2 -37 -3 -49 -5 -59 C-5 -59 -5 -59 -5 -59 C-12 -126 21 -137 35 -139 C37 -140 39 -140 42 -140 C64 -139 88 -122 102 -110 C104 -108 107 -106 109 -104 C129 -87 147 -65 163 -46 C182 -23 200 -1 218 22 C226 32 233 42 241 53 C242 54 244 58 241 61 C238 64 234 58 234 58 L234 58 C232 56 231 54 230 53 C214 30 195 7 178 -16 C160 -37 142 -59 122 -80 C113 -89 104 -98 94 -106 C83 -115 72 -124 61 -129 C56 -131 50 -132 44 -132 C36 -130 34 -123 32 -116 C31 -110 31 -103 30 -96 C29 -89 29 -82 30 -73 C32 -45 38 -16 48 11 C54 24 61 36 67 50 C74 62 80 75 88 87 C97 100 104 111 113 121 C121 134 129 144 137 155 C137 156 138 156 138 156 C168 158 193 183 193 183 C207 194 221 208 230 223 C232 228 234 233 231 238 C228 247 207 249 189 241 C169 234 146 218 115 183 C115 183 24 224 174 454 C174 454 174 454 174 454 C181 466 189 477 196 487 C196 487 196 487 196 487 C210 509 225 528 238 546 C309 633 356 659 382 665 C389 665 403 667 408 660 C408 660 408 659 408 659 C412 649 413 629 386 593 C386 593 386 593 386 593 C385 592 383 588 385 586 C387 585 389 585 390 586 C396 592 405 600 413 614 C415 618 418 621 419 624 C420 624 420 624 420 625 C421 628 423 631 424 633 C425 635 425 637 426 639 L426 639 C426 639 437 677 398 693 L398 693 Z M181 211 C191 220 204 233 220 235 C220 235 221 235 221 235 C222 235 222 235 222 235 C226 235 225 233 223 229 C217 218 209 209 199 200 C199 200 198 199 198 199 C197 198 197 198 197 198 C180 182 163 176 150 175 C160 187 169 199 181 211 L181 211 Z " />
<glyph glyph-name="F" unicode="F" horiz-adv-x="355" d="M708 681 C685 692 659 696 634 698 C607 699 580 699 554 698 C493 695 434 685 374 674 C336 667 297 660 258 658 C242 656 224 656 207 660 C194 662 178 667 170 679 C167 684 160 679 163 675 C172 661 189 654 205 651 C224 647 244 647 264 649 C281 650 298 653 315 656 C320 657 325 658 330 658 C265 610 229 398 229 398 C219 388 208 378 198 368 C181 349 165 331 149 312 C90 235 46 146 20 49 C13 26 8 2 4 -22 C2 -37 0 -52 -1 -67 C-1 -69 -1 -71 -1 -72 L-1 -72 C-1 -72 -5 -121 35 -136 C36 -136 36 -137 37 -137 C37 -137 37 -137 37 -137 C62 -145 82 -137 91 -132 C193 -71 247 269 270 412 C272 413 275 415 277 416 C290 422 302 427 315 431 C329 435 343 436 359 431 C364 430 364 438 359 440 C344 444 330 445 317 442 C304 439 291 433 279 427 C277 426 274 425 272 423 C273 427 273 430 274 434 C298 579 376 665 376 665 C378 666 402 670 402 670 L402 670 C403 670 404 670 405 671 C459 680 512 687 566 689 C589 690 612 690 636 688 C659 687 683 684 704 673 C709 671 713 678 708 681 L708 681 Z M214 332 C207 299 200 264 193 230 C181 180 171 129 157 79 C143 29 123 -19 98 -62 C92 -71 88 -79 83 -87 C78 -93 74 -100 70 -106 L70 -106 C70 -106 69 -107 68 -109 C68 -109 68 -109 68 -109 C67 -109 66 -110 65 -112 C45 -137 26 -124 21 -120 C21 -119 20 -118 19 -117 C8 -107 7 -91 7 -79 C7 -63 9 -49 12 -34 C16 -12 20 12 26 33 C50 132 94 221 152 299 C174 327 198 355 224 380 C220 364 217 348 214 332 L214 332 Z " />
<glyph glyph-name="G" unicode="G" horiz-adv-x="444" d="M435 700 C429 700 421 700 414 700 C414 700 414 700 414 700 C412 700 409 700 408 699 C383 697 307 678 226 553 C127 402 -37 157 111 110 C114 109 117 108 119 108 C154 103 182 119 203 131 C228 145 250 162 268 179 C294 203 315 230 334 258 C325 230 318 210 318 210 C300 161 280 111 260 63 C250 35 238 7 224 -19 C218 -31 211 -42 204 -54 L204 -54 C204 -54 204 -54 204 -55 C204 -56 203 -57 202 -59 C202 -61 201 -62 200 -64 C191 -78 176 -101 158 -116 C134 -134 117 -128 110 -124 C95 -115 91 -98 91 -85 C90 -70 95 -57 99 -43 C108 -17 122 8 135 32 C142 42 149 53 154 64 L154 64 C154 64 154 64 154 64 C155 64 155 64 155 65 C156 67 158 70 153 71 C149 72 144 67 143 65 C136 53 129 42 123 30 C108 6 96 -18 87 -45 C79 -68 72 -101 97 -124 C101 -129 106 -132 112 -134 C278 -203 413 401 413 401 L426 403 L426 403 C427 403 428 403 429 403 L429 403 C429 403 434 404 434 408 C434 413 432 413 429 412 C376 403 324 394 274 380 C272 379 269 377 269 375 C270 371 274 371 277 372 C277 372 278 372 278 372 C279 372 279 372 279 372 L279 372 C304 378 330 384 356 390 C356 390 356 390 357 390 C368 393 376 394 380 395 C376 383 365 351 354 316 C345 299 334 281 324 264 C295 222 260 182 215 151 C203 144 192 136 178 129 C173 127 167 124 161 122 C150 119 141 117 133 117 L133 117 C133 117 133 117 133 117 C128 117 124 117 122 118 C48 127 84 235 147 352 C147 352 147 352 147 352 C147 352 147 352 147 352 C152 364 328 691 429 691 C432 691 435 691 439 691 C447 690 442 699 435 700 L435 700 Z " />
<glyph glyph-name="H" unicode="H" horiz-adv-x="454" d="M484 697 C484 697 452 708 429 629 C428 627 428 626 427 625 L427 625 C427 625 427 625 427 625 L424 612 C424 612 424 612 424 612 C424 612 424 612 424 612 L360 354 C307 359 255 362 203 351 C202 350 200 350 199 350 L251 551 L251 551 L273 636 C273 636 273 636 273 636 L278 653 C278 653 246 664 223 585 C222 583 222 582 221 581 L221 581 C221 581 221 581 221 581 L218 568 C218 568 218 568 218 568 C218 568 218 568 218 568 L160 338 C122 321 88 297 60 268 C40 248 23 226 8 202 C-6 176 -16 148 -22 120 C-37 62 -35 -2 -21 -61 C-17 -74 -13 -89 -8 -102 C-3 -114 2 -126 12 -134 C17 -138 22 -140 27 -139 C83 -139 117 33 117 33 L197 340 C211 344 224 346 239 348 C279 352 318 349 358 345 L353 325 L353 325 L339 272 L267 -19 C299 -19 307 11 307 11 L458 595 L458 595 L479 680 C479 680 479 680 479 680 L484 697 L484 697 Z M146 281 L146 281 L133 228 L97 85 L97 85 C97 85 96 81 94 74 L93 71 C87 44 81 21 75 1 C70 -15 65 -30 60 -45 L60 -45 C60 -45 37 -128 23 -128 C23 -128 23 -128 23 -128 C15 -130 8 -118 8 -118 L8 -118 C7 -116 6 -113 5 -110 C5 -109 4 -108 4 -107 C1 -101 -1 -96 -3 -90 C-4 -86 -5 -82 -7 -78 C-7 -78 -7 -77 -7 -76 C-7 -76 -7 -75 -8 -75 C-8 -72 -9 -70 -10 -66 C-10 -66 -10 -66 -10 -66 L-10 -66 C-12 -59 -14 -52 -15 -45 C-28 14 -26 78 -9 137 C7 193 41 240 85 279 C105 298 129 313 154 325 C155 326 156 326 158 327 L146 281 L146 281 Z " />
<glyph glyph-name="I" unicode="I" horiz-adv-x="266" d="M39 -140 C107 -140 285 700 285 700 C284 700 284 699 283 699 C254 685 215 641 215 641 L215 641 C208 633 201 626 196 618 C182 601 169 583 162 562 C162 562 160 556 164 556 C169 556 170 559 171 562 C171 562 171 562 171 562 C184 590 203 614 225 637 C228 640 231 643 233 646 C233 646 164 362 156 324 C149 296 141 264 134 236 C133 235 128 225 125 218 C125 217 124 215 123 213 C123 213 123 213 123 213 L123 213 C109 185 88 127 88 127 C81 110 74 91 68 75 C67 71 64 63 62 54 C62 54 62 54 62 54 C61 53 61 52 61 52 C59 46 57 39 56 32 C55 29 47 3 43 -14 C28 -74 17 -140 39 -140 L39 -140 Z M57 -7 C57 -7 57 -7 57 -7 C60 10 67 35 67 35 L67 35 C69 40 70 46 72 52 C78 73 89 103 89 103 C97 126 111 161 122 188 C119 172 116 159 114 152 C114 152 114 152 114 152 C105 112 94 64 84 19 L84 19 C83 17 83 15 82 13 C82 11 81 10 81 9 C81 9 81 9 81 9 C80 6 80 3 79 0 C79 0 79 0 79 0 C78 -3 78 -6 77 -8 C77 -9 77 -9 77 -9 L77 -9 C60 -75 44 -128 36 -128 C36 -128 36 -128 36 -128 C36 -128 36 -128 36 -128 C36 -128 36 -128 36 -128 C26 -127 38 -73 57 -7 L57 -7 Z " />
<glyph glyph-name="J" unicode="J" horiz-adv-x="337" d="M502 699 C419 690 335 673 252 667 C247 667 247 659 252 659 C275 660 299 662 322 666 C322 666 194 -132 -25 -132 L-25 -132 C-30 -132 -36 -132 -42 -130 C-51 -128 -60 -123 -66 -114 C-72 -106 -74 -95 -74 -85 C-75 -56 -65 -28 -56 -3 C-45 25 -32 51 -18 78 C-4 104 11 130 29 153 C54 189 85 221 116 248 C116 248 116 248 116 248 C118 249 121 255 120 258 C119 261 114 257 114 256 C67 216 26 168 -8 112 C-20 90 -32 68 -43 46 C-56 18 -67 -10 -76 -41 C-81 -63 -85 -91 -75 -114 C-65 -133 -46 -139 -28 -140 C-28 -140 -26 -140 -24 -140 C-12 -140 0 -138 10 -135 C250 -69 359 671 359 671 L392 675 C429 681 466 687 502 691 C507 692 507 700 502 699 L502 699 Z " />
<glyph glyph-name="K" unicode="K" horiz-adv-x="369" d="M580 63 C580 63 578 64 575 61 C572 57 570 53 570 53 C567 48 564 42 564 42 L564 42 C538 -11 502 -60 452 -93 C450 -94 448 -96 446 -97 C443 -98 415 -116 383 -125 C382 -125 381 -125 380 -126 C380 -126 380 -126 380 -126 C379 -126 377 -126 376 -126 C376 -126 376 -126 375 -126 C359 -130 343 -132 326 -129 C309 -126 294 -119 283 -106 C279 -101 276 -97 273 -92 C273 -92 273 -92 273 -92 C269 -83 265 -70 262 -60 C262 -60 262 -60 262 -60 C262 -60 262 -59 262 -59 C262 -58 262 -57 261 -57 C261 -53 260 -49 259 -46 C258 -39 258 -36 258 -36 L258 -36 C256 -21 256 -6 256 8 C257 36 261 63 268 89 C273 116 282 141 291 167 C298 186 306 204 312 223 C317 239 320 256 316 274 C313 291 303 307 289 317 C271 331 249 339 228 342 C222 343 215 343 211 343 C212 346 212 348 213 350 C213 351 214 352 214 353 C225 364 235 375 244 387 C263 410 281 433 300 456 C340 506 382 553 423 600 C427 604 430 608 434 612 C438 616 431 622 427 618 C386 570 344 523 303 475 C284 452 266 427 247 404 C238 393 228 381 218 369 C217 369 217 368 216 367 C260 544 293 699 293 699 C292 699 291 698 290 698 C261 685 223 640 223 640 L223 640 C216 632 210 626 203 618 C189 600 178 583 170 562 C169 562 167 556 172 556 C178 556 179 559 180 562 C180 562 180 562 180 562 C191 590 212 614 233 636 C236 639 239 642 242 645 C242 645 173 363 163 325 C156 297 149 266 142 238 C142 237 136 226 133 220 C132 219 131 217 131 215 C131 215 131 215 131 215 L131 215 C118 187 96 130 96 130 C89 112 82 94 77 77 C75 74 73 66 70 57 C70 57 70 57 70 57 C70 56 69 55 69 54 C68 48 66 42 64 35 C64 32 56 6 52 -10 C37 -70 25 -136 47 -136 C84 -136 154 110 209 336 C223 336 239 333 253 328 C257 326 267 322 271 313 C271 311 271 310 272 308 C272 308 272 307 272 307 C276 290 274 259 249 202 C222 140 195 31 215 -47 C215 -47 215 -47 215 -47 C219 -60 223 -69 224 -71 C242 -113 278 -140 341 -139 L341 -139 C353 -139 365 -137 377 -135 C387 -132 397 -129 406 -126 C415 -124 422 -120 430 -116 C439 -111 447 -106 453 -102 C461 -98 468 -93 470 -93 C477 -86 485 -79 493 -72 C527 -41 553 -5 572 37 L572 37 C572 37 584 59 580 63 L580 63 Z M122 154 C122 154 122 154 122 154 C113 114 102 67 92 22 L92 22 C92 20 91 18 91 16 C90 14 90 13 90 12 C90 12 90 12 90 12 C89 9 88 6 88 3 C88 3 88 3 88 3 C87 0 86 -3 85 -5 C85 -6 85 -6 85 -6 L85 -6 C68 -71 53 -125 45 -125 C45 -125 45 -125 44 -125 C44 -125 44 -125 44 -125 C44 -125 44 -125 44 -125 C36 -124 46 -69 65 -4 C65 -4 65 -4 65 -4 C69 13 76 38 76 38 L76 38 C77 43 79 48 80 54 C86 76 97 106 97 106 C105 129 119 164 130 190 C126 174 124 162 122 154 L122 154 Z " />
<glyph glyph-name="L" unicode="L" horiz-adv-x="278" d="M735 -111 C718 -114 701 -115 685 -115 C685 -115 685 -115 684 -115 C680 -116 674 -116 667 -115 C667 -115 667 -115 667 -115 C640 -115 605 -108 605 -108 L605 -108 C588 -105 571 -101 554 -96 C552 -96 549 -95 547 -94 C547 -94 547 -94 546 -94 C546 -94 545 -94 545 -94 C544 -94 543 -93 542 -93 C524 -88 506 -81 488 -75 C488 -75 488 -75 488 -75 C453 -62 390 -33 390 -33 C362 -22 342 -13 339 -11 C328 -6 316 -1 303 3 C277 13 255 19 247 22 C244 22 240 23 237 24 C237 24 237 24 237 24 C232 25 227 26 224 27 C178 35 132 33 88 11 C85 10 83 9 80 7 C160 220 246 593 246 593 C262 609 278 627 292 646 C303 660 313 677 318 695 C318 695 319 696 319 696 C319 697 319 699 320 700 C321 705 321 710 321 713 L321 713 L321 713 C320 718 319 722 316 725 L316 725 L316 725 C311 731 302 732 299 733 C298 733 298 733 297 733 C297 733 297 733 297 733 L297 733 C296 733 294 733 293 732 C278 730 230 710 186 540 C140 360 50 61 29 -8 C28 -13 26 -18 25 -23 C13 -39 2 -55 -7 -72 C-10 -77 -12 -83 -14 -88 L-14 -88 C-14 -88 -32 -137 -8 -137 C16 -137 45 -84 75 -7 C114 19 157 25 200 21 L200 21 C200 21 204 21 213 19 C213 19 259 13 319 -12 C319 -12 319 -12 319 -12 C325 -15 331 -17 337 -20 C337 -20 337 -20 337 -20 C338 -20 339 -21 341 -21 C349 -25 356 -28 364 -32 C380 -39 396 -46 412 -54 C412 -54 412 -54 412 -54 C435 -64 478 -81 479 -81 C495 -87 512 -93 528 -99 C559 -107 591 -116 626 -121 C654 -124 682 -126 711 -123 C720 -122 729 -121 738 -120 C744 -119 741 -110 735 -111 L735 -111 Z M261 636 C268 654 276 672 285 690 C288 697 293 706 299 713 C299 713 309 722 310 716 C311 712 311 705 309 696 C308 693 306 689 305 686 C304 685 304 684 304 684 C298 671 291 660 283 650 C274 637 264 625 253 614 C256 622 258 629 261 636 L261 636 Z M22 -46 C22 -46 -1 -117 -10 -117 C-14 -117 -9 -101 -2 -84 C6 -60 25 -36 25 -36 L22 -46 C22 -46 22 -46 22 -46 L22 -46 Z " />
<glyph glyph-name="M" unicode="M" horiz-adv-x="678" d="M711 630 C710 631 710 632 710 633 C709 651 705 664 699 674 C675 714 642 696 621 677 C611 667 601 657 593 646 C551 595 518 536 485 480 C465 446 444 414 426 379 C401 332 377 283 354 232 C337 195 320 159 303 121 L303 121 C374 324 393 423 398 463 C398 463 399 463 399 463 C399 463 399 463 399 463 C399 464 399 465 399 466 C400 470 400 475 400 479 C400 481 400 481 400 481 L400 481 C401 506 396 521 388 531 C388 531 388 531 387 532 C387 532 387 532 387 532 C370 553 334 539 324 535 C315 531 310 527 310 527 L310 527 C250 497 204 446 165 392 C146 367 128 340 111 313 C121 346 138 404 139 407 C140 409 141 412 142 416 C147 431 150 450 151 468 C156 538 112 535 104 534 C104 534 103 534 103 534 C103 534 103 534 103 534 C87 531 71 526 61 522 C57 521 54 519 54 516 C55 513 59 513 61 514 C62 514 62 514 62 514 C63 514 63 514 64 515 C64 515 64 515 64 515 L64 515 C75 517 95 519 100 501 C101 499 101 497 102 494 C102 493 102 492 102 491 C102 487 102 482 102 477 L102 477 C102 467 100 455 97 440 C95 421 90 394 80 360 C78 348 74 336 70 322 C70 320 69 318 69 316 L69 316 C69 316 69 316 69 316 C68 314 68 312 67 310 C62 295 52 252 60 246 C61 245 61 245 62 245 C62 245 62 245 62 245 C62 245 62 245 62 245 C76 244 104 285 104 285 L104 285 C115 302 125 318 135 336 C181 404 231 473 303 514 C313 519 324 524 335 528 C335 528 335 528 335 528 C337 529 338 529 339 530 C340 530 340 530 340 530 L340 530 C342 530 343 531 344 531 C345 531 346 531 346 530 C348 530 348 529 348 529 L348 529 C349 528 349 526 350 523 L350 523 C350 523 350 523 350 523 C353 515 353 498 352 486 C351 453 347 398 322 324 C322 324 322 324 322 324 C312 286 299 248 288 212 C276 175 263 139 252 103 C252 103 240 60 249 51 C251 50 252 49 253 49 C269 50 292 87 301 103 C308 115 313 125 317 133 C328 154 335 170 338 176 C339 177 339 178 340 179 C340 180 340 180 340 180 C381 270 422 360 474 445 C505 496 534 549 567 598 C575 607 582 617 589 626 C589 626 709 778 660 568 C629 433 526 210 495 85 L495 85 C495 85 451 -47 475 -110 L475 -110 C475 -110 486 -140 513 -140 C516 -140 519 -140 522 -139 C522 -139 522 -139 522 -139 L522 -139 C527 -138 531 -135 535 -131 C537 -130 539 -128 541 -126 C542 -126 542 -125 542 -125 C548 -117 553 -110 558 -101 C562 -96 565 -91 568 -85 C570 -82 573 -78 570 -74 C568 -69 565 -76 565 -76 L565 -76 C563 -78 561 -80 560 -83 C552 -95 545 -107 536 -118 C535 -118 535 -119 535 -119 C535 -119 535 -119 535 -119 C534 -120 533 -121 533 -121 C528 -127 520 -133 514 -130 C513 -129 512 -129 512 -128 C512 -128 510 -128 510 -128 C473 -88 599 246 599 246 L599 246 C608 271 618 297 627 322 C647 370 666 419 681 470 C689 495 698 520 704 547 C704 548 704 548 705 549 C707 561 709 573 709 584 C710 587 710 589 710 592 L710 592 L710 592 C711 605 711 617 711 630 L711 630 Z " />
<glyph glyph-name="N" unicode="N" horiz-adv-x="506" d="M534 630 C534 631 534 632 534 633 C532 651 527 664 521 674 C498 714 465 696 444 677 C435 667 425 657 417 647 C374 595 343 537 309 480 C290 447 269 415 251 380 C227 333 203 283 180 233 C164 196 146 159 130 123 C130 123 129 122 129 121 C145 170 168 242 188 313 C188 313 188 313 188 313 C195 335 200 358 205 378 C208 392 211 406 213 419 C214 421 214 423 215 425 C216 430 216 434 218 437 C219 439 219 441 220 445 C221 452 222 458 223 464 C223 464 223 464 223 464 C226 477 227 489 228 500 C228 554 195 551 186 549 C184 549 183 548 182 548 C182 548 182 548 182 548 L182 548 C159 542 135 527 135 527 L135 527 C123 522 110 514 100 507 C97 505 91 500 92 497 C94 493 101 496 105 499 C105 499 105 499 105 499 C112 505 120 509 128 514 C138 520 148 525 161 528 C161 528 161 528 161 528 C161 529 162 529 164 530 C164 530 164 530 164 530 L165 530 C166 530 167 531 168 531 C169 531 170 531 171 530 C172 530 172 529 172 529 L172 529 C174 528 175 526 176 524 L176 524 C176 524 176 524 176 524 C178 515 178 498 178 487 C177 454 172 399 148 325 C148 325 148 325 148 325 C138 287 126 249 114 213 C102 174 89 134 77 95 C73 83 70 69 68 55 C64 34 66 24 71 24 C72 24 73 24 75 25 C81 29 89 38 97 49 C124 88 158 160 165 177 C165 178 166 179 166 180 C166 181 166 181 166 181 C207 271 247 361 299 446 C329 496 358 549 391 598 C398 608 405 617 412 627 C412 627 531 778 484 568 C454 434 352 210 322 87 L322 87 C322 87 280 -46 303 -107 L303 -107 C303 -107 315 -139 341 -139 C345 -139 348 -139 351 -138 C351 -138 351 -138 351 -138 L351 -138 C355 -137 360 -134 364 -130 C366 -128 368 -126 370 -124 C370 -124 370 -123 370 -123 C376 -116 382 -107 387 -100 C390 -94 393 -88 397 -83 C399 -80 402 -74 398 -72 C395 -70 390 -77 390 -77 L391 -77 C389 -78 388 -80 387 -82 C380 -93 373 -105 364 -117 C364 -117 364 -118 363 -118 C363 -118 363 -118 363 -118 C359 -122 356 -125 353 -127 C353 -127 353 -127 353 -127 C350 -131 345 -131 342 -129 C341 -128 338 -127 337 -125 C337 -125 337 -125 337 -125 L337 -125 C317 -93 373 91 408 196 C408 198 409 198 409 198 C417 223 424 246 434 271 C434 272 434 272 434 272 L434 272 C439 289 446 305 453 323 C472 370 491 420 506 471 C513 495 522 521 527 547 C528 548 528 548 528 549 C530 561 532 574 533 584 C534 587 534 590 534 593 L534 593 L534 593 C535 605 535 617 534 630 L534 630 Z " />
<glyph glyph-name="O" unicode="O" horiz-adv-x="560" d="M412 699 C380 692 347 678 318 663 C317 663 316 662 315 662 C305 657 295 651 286 646 C263 632 244 617 231 606 C231 606 227 603 223 600 C218 596 215 593 215 593 C215 593 214 592 214 592 C206 585 197 576 190 568 C190 568 190 568 190 568 C160 534 107 458 101 346 C95 333 88 318 83 307 C72 278 62 249 52 218 C50 210 30 136 29 59 L29 59 C28 45 29 29 30 15 C35 -24 49 -78 93 -111 C107 -122 121 -128 134 -132 C142 -135 151 -137 160 -138 C194 -143 223 -133 243 -125 C416 -41 540 358 540 542 C540 704 450 705 412 699 L412 699 Z M117 393 C124 424 133 453 147 482 C158 503 170 524 185 544 L185 544 C227 603 306 646 306 646 L306 646 C307 647 307 647 307 647 C262 619 219 562 197 528 C197 528 197 528 197 528 C197 528 197 528 197 528 C176 495 156 459 136 422 C134 419 125 398 113 373 C114 380 116 386 117 393 L117 393 Z M402 107 C384 65 366 31 351 4 C278 -116 209 -130 176 -123 C166 -120 158 -116 149 -111 C130 -99 115 -80 106 -58 C89 -11 93 39 97 87 C101 141 113 194 129 247 C141 227 157 210 175 197 C210 173 252 171 292 179 C307 182 323 186 337 191 C338 192 343 193 342 197 C342 200 338 200 336 199 C335 199 335 199 335 199 C335 199 335 199 335 199 L335 199 C314 193 294 187 274 185 C253 183 233 184 213 189 C192 194 175 206 160 222 C149 232 140 245 132 258 C145 299 160 338 176 376 L176 376 C176 376 192 422 220 479 L220 479 C222 483 224 486 226 490 C246 527 306 634 381 668 C390 672 438 692 469 662 C471 661 474 658 476 655 C476 655 476 655 476 655 C477 654 477 654 478 653 C505 615 523 523 466 303 C446 224 424 160 402 107 L402 107 Z " />
<glyph glyph-name="P" unicode="P" horiz-adv-x="444" d="M500 660 C478 688 441 697 408 698 C380 699 353 694 326 686 L326 686 C326 686 326 686 326 686 C315 684 303 680 291 676 C262 664 232 650 208 627 C204 624 210 618 215 622 C235 640 260 654 288 664 C288 664 288 664 288 664 C288 665 290 665 291 666 C306 671 348 685 387 688 C387 688 387 688 387 688 C451 693 511 667 438 518 C415 471 389 423 361 379 L361 379 C361 379 360 379 360 378 C357 373 354 368 351 364 C351 364 351 364 351 364 C349 361 347 357 345 354 C345 354 345 354 345 354 C340 348 336 341 331 334 C328 329 324 324 322 321 C322 321 322 321 322 321 C235 196 143 102 104 103 C104 103 103 103 103 103 C103 103 103 103 102 103 C102 103 102 103 102 103 C102 103 101 103 101 103 C101 103 101 103 101 103 C100 103 100 103 100 103 C100 103 100 103 99 103 C99 103 99 103 99 104 C75 111 90 163 90 163 C90 164 90 165 91 166 C101 196 114 226 134 252 C167 296 215 322 266 337 L266 337 C266 337 271 338 271 343 C271 347 265 346 264 346 C231 335 199 322 171 300 C152 286 135 268 121 249 C119 246 103 217 89 186 L164 474 L164 474 L186 559 C186 559 186 559 186 559 L190 577 C190 577 159 588 135 507 C135 506 134 505 134 504 L134 504 C134 504 134 504 134 504 L131 492 C131 492 131 492 131 492 C131 492 130 492 130 491 L66 232 L66 232 L63 223 L63 223 L58 204 L58 204 L52 177 L45 150 L-28 -142 C4 -142 13 -111 13 -111 L75 128 C75 122 75 118 77 114 C79 103 87 95 99 92 C116 89 134 99 148 108 C164 117 177 129 191 140 C199 147 209 153 218 160 C228 169 239 177 250 187 C309 236 361 294 407 355 C407 355 407 355 408 355 C408 355 408 356 408 356 C421 375 449 417 452 421 C455 425 457 429 459 433 C478 465 497 498 509 534 C509 535 509 535 509 535 C510 538 511 541 512 543 C513 546 515 556 517 564 C518 565 518 567 518 569 C518 570 519 570 519 571 C520 577 520 581 520 583 C523 611 518 638 500 660 L500 660 Z " />
<glyph glyph-name="Q" unicode="Q" horiz-adv-x="524" d="M604 69 C609 41 593 16 578 -5 C562 -27 542 -46 521 -63 C477 -100 423 -121 366 -126 C337 -129 307 -128 278 -124 C263 -121 250 -118 236 -114 C222 -111 208 -106 196 -100 C170 -86 144 -70 119 -56 C110 -51 101 -47 91 -42 C196 -13 299 96 360 171 C419 239 468 325 505 441 C552 592 525 655 491 681 C491 681 491 681 491 681 C490 682 489 682 489 682 C437 720 368 690 349 681 C331 671 289 643 235 575 C220 555 206 534 191 511 C187 503 182 495 176 487 C176 485 175 483 174 481 C110 369 23 199 52 133 C55 125 58 120 64 115 C71 110 80 107 90 107 C90 107 91 107 92 107 C93 106 93 106 93 106 C106 106 119 109 130 113 C140 115 150 119 159 123 C190 137 219 156 247 177 C273 198 298 220 320 246 C337 267 352 289 356 317 C358 329 355 339 343 344 C342 344 341 345 340 345 C340 345 340 345 339 345 C339 345 338 345 337 346 C335 346 333 346 332 346 C330 346 329 345 328 344 C326 341 332 338 336 337 C337 337 338 337 339 336 C339 336 339 336 339 336 L339 336 C342 336 344 335 345 333 C349 329 348 324 348 318 C348 311 346 304 343 297 C333 273 314 251 296 232 C272 207 245 185 216 166 C189 147 160 131 129 121 C93 113 86 141 85 160 C84 201 103 280 185 431 C205 468 224 500 241 527 C243 531 246 534 249 539 C257 553 266 564 274 576 C312 628 344 656 370 672 L370 672 C370 672 372 673 378 676 C386 681 393 683 399 686 C416 692 437 695 455 686 C462 682 470 675 477 661 C479 654 481 648 482 642 C489 607 485 543 449 435 C415 306 320 144 83 -13 C83 -13 83 -13 83 -13 C74 -18 65 -23 56 -27 C51 -25 47 -24 42 -23 C27 -19 8 -17 -3 -29 C-12 -38 -1 -43 8 -46 C31 -50 55 -50 78 -45 C101 -55 122 -68 144 -80 C168 -94 193 -111 220 -119 C248 -127 276 -133 305 -135 C361 -140 419 -132 471 -106 C519 -82 560 -45 592 1 C606 21 617 46 612 70 C610 76 603 74 604 69 L604 69 Z M15 -36 C13 -36 1 -36 7 -32 C13 -28 19 -28 26 -28 C31 -29 36 -30 42 -31 C34 -34 25 -36 15 -36 L15 -36 Z " />
<glyph glyph-name="R" unicode="R" horiz-adv-x="439" d="M498 -26 C488 -38 478 -49 465 -61 L465 -61 C465 -61 462 -64 457 -69 C457 -69 457 -69 456 -70 C456 -70 456 -71 455 -72 C455 -72 454 -72 454 -72 C444 -80 430 -92 416 -99 C416 -99 416 -100 416 -100 C387 -119 356 -131 327 -131 C326 -131 325 -131 324 -131 C324 -131 324 -131 324 -131 C322 -131 321 -131 320 -131 C300 -128 292 -118 290 -114 C264 -69 290 54 309 142 C335 268 311 308 311 308 C313 309 314 311 316 313 C316 313 317 314 317 314 L317 314 C348 346 378 381 405 417 C405 417 405 417 405 417 C407 420 409 423 411 425 C411 425 411 425 410 425 C423 441 433 459 444 476 C462 506 479 537 489 571 C498 603 500 639 479 667 C460 689 429 697 402 698 C378 698 355 695 333 688 L333 688 C333 688 333 688 333 688 C323 685 314 683 304 679 C279 669 254 657 234 639 C231 635 236 630 240 633 C256 650 278 661 300 670 C300 670 300 670 300 670 C301 670 302 671 304 671 C316 676 350 687 383 690 C383 690 383 690 383 690 C437 694 487 672 427 548 C412 518 397 489 379 460 L379 460 C379 460 351 412 321 371 C321 371 321 371 321 371 C312 357 301 343 292 331 C292 331 292 331 292 332 C290 333 288 333 287 334 C287 334 286 334 286 334 C283 336 279 338 275 340 C275 340 275 340 275 340 C275 340 275 340 275 340 C261 346 248 348 241 348 C241 348 241 348 241 348 C238 348 237 347 237 347 L237 347 C214 346 192 333 177 318 C169 311 162 305 156 296 L202 474 L202 474 L223 559 C223 559 223 559 223 559 L228 577 C228 577 196 588 172 508 C172 507 172 506 171 504 L171 504 C171 504 171 504 171 504 L168 493 C168 493 168 493 168 493 C168 493 168 493 168 492 L104 233 C104 233 104 233 104 233 L102 225 L97 205 L97 205 L90 179 L83 152 L10 -139 C43 -139 51 -108 51 -108 L112 130 L128 188 L128 188 L130 198 C133 195 137 192 142 191 C144 191 145 191 146 191 L146 191 C147 191 147 191 147 191 C156 190 163 193 171 197 C206 211 249 249 280 278 C282 253 279 219 268 172 C227 -10 232 -53 232 -53 C232 -59 232 -64 233 -68 C233 -69 233 -70 233 -71 C233 -71 233 -71 233 -71 C233 -71 233 -71 233 -72 C241 -108 267 -138 324 -140 C326 -140 327 -140 329 -140 C329 -140 329 -140 329 -140 L329 -140 C331 -140 332 -140 334 -140 C369 -138 404 -120 435 -98 C446 -89 460 -76 464 -73 C479 -61 492 -46 505 -31 C509 -26 502 -21 498 -26 L498 -26 Z M146 199 C146 199 146 199 146 199 C145 199 145 199 145 199 C145 199 145 199 145 199 C144 199 144 199 144 199 C144 199 144 199 144 199 C143 199 143 199 143 199 C143 199 143 199 143 199 C142 200 142 200 142 200 C137 201 134 204 133 209 L150 273 C161 293 178 310 196 323 C205 329 214 333 224 336 C238 339 262 338 273 307 C220 243 171 199 146 199 L146 199 Z " />
<glyph glyph-name="S" unicode="S" horiz-adv-x="341" d="M168 380 L168 380 C178 396 188 413 202 432 C316 594 418 653 459 663 C460 664 461 664 461 664 C463 664 465 665 466 665 C475 666 479 661 480 658 C482 649 482 628 449 593 C449 593 448 593 448 592 C448 592 445 588 447 586 C448 585 450 585 451 586 C459 592 468 600 480 615 C482 618 484 621 486 624 C486 624 486 624 487 625 C489 627 491 630 492 633 C508 666 487 683 481 687 C376 753 208 550 123 378 L123 378 C123 378 123 378 123 378 C118 368 113 358 108 348 C89 301 65 213 127 172 L127 172 C127 172 147 156 180 149 C180 149 180 149 180 149 C181 149 182 148 183 148 C183 148 184 148 184 148 C185 148 185 148 185 148 C208 141 215 127 216 122 C221 103 212 74 176 24 C131 -40 99 -84 79 -107 C69 -120 55 -134 50 -126 C50 -126 50 -126 49 -125 C49 -125 49 -125 49 -125 C49 -125 49 -124 49 -123 C48 -113 49 -102 52 -93 C59 -64 71 -35 83 -8 C101 31 119 69 140 106 L140 106 C140 106 152 125 147 126 C147 126 147 126 147 126 C147 126 147 126 147 126 C147 126 147 126 147 126 C140 127 133 111 130 104 L130 104 C110 70 94 36 78 1 C66 -26 53 -55 46 -84 C43 -96 40 -107 40 -119 C41 -126 43 -135 50 -139 C51 -140 53 -140 55 -140 C95 -140 171 -44 219 24 C223 29 225 33 228 37 C228 38 229 39 230 39 C232 42 234 46 236 49 C246 69 248 84 248 86 C251 112 240 141 185 156 C181 157 177 158 173 159 C157 164 141 172 129 182 C110 200 99 233 124 294 C140 340 168 380 168 380 L168 380 Z " />
<glyph glyph-name="T" unicode="T" horiz-adv-x="336" d="M748 689 C746 689 745 689 744 690 C744 690 744 690 744 690 L744 690 C696 698 595 708 333 693 C330 693 11 670 -64 601 L-64 601 C-64 601 -82 588 -76 572 C-75 570 -73 566 -69 568 C-66 569 -66 574 -67 576 C-67 577 -67 578 -68 578 C-68 578 -68 578 -68 578 C-68 581 -68 584 -66 587 C-33 637 153 665 246 676 C252 676 258 677 264 678 L264 678 C264 678 264 678 264 678 C275 679 286 680 298 681 C298 681 298 681 298 681 L298 681 C309 683 322 684 337 685 L321 619 C321 619 321 618 320 618 L320 618 C320 618 320 618 320 618 L317 604 C317 604 317 604 317 604 C317 604 317 604 317 604 L299 535 L299 535 L299 535 L256 362 C216 345 182 319 151 289 C130 268 112 244 96 219 C82 193 71 163 64 134 C50 72 51 5 66 -57 C70 -71 74 -86 79 -100 C84 -113 90 -126 101 -134 C106 -138 111 -140 116 -139 C175 -139 211 42 211 42 L266 252 C266 252 266 252 266 252 C266 254 267 255 267 255 L295 365 C295 365 295 365 295 365 C296 368 297 372 297 375 C297 375 297 375 297 375 L352 586 L352 586 L372 666 L372 666 L375 675 L375 675 L377 687 C382 687 388 688 393 688 C483 692 758 704 763 668 C763 668 763 668 763 668 C763 667 763 664 763 662 C763 662 763 662 763 662 C763 662 763 662 763 662 C763 662 763 660 764 659 C764 657 768 656 771 663 C771 663 771 664 772 664 C772 665 772 666 773 667 C776 680 757 687 748 689 L748 689 Z M242 302 L227 246 L190 96 C190 96 189 92 188 85 L187 82 C180 54 173 29 166 8 C161 -8 156 -24 151 -41 L151 -41 C151 -41 127 -128 112 -128 C112 -128 112 -128 112 -128 C104 -130 98 -117 98 -117 L98 -117 C95 -115 94 -112 93 -109 C92 -108 91 -107 91 -106 C88 -99 86 -93 84 -87 C83 -83 82 -79 81 -75 C81 -75 80 -74 80 -73 C80 -73 80 -72 80 -72 C79 -69 78 -66 77 -62 C77 -62 77 -62 77 -62 L77 -62 C75 -55 73 -48 72 -41 C58 22 60 89 78 151 C95 210 131 260 177 300 C198 320 223 337 250 349 C251 350 253 350 254 351 L242 302 L242 302 Z " />
<glyph glyph-name="U" unicode="U" horiz-adv-x="441" d="M463 532 L443 522 L443 522 L440 521 C435 518 424 509 414 482 C397 431 362 320 334 206 C334 206 329 186 324 156 C318 146 312 137 306 127 C290 103 274 80 256 58 C248 46 239 35 229 24 C221 14 210 4 201 -7 C183 -26 162 -41 139 -53 C133 -56 128 -58 122 -59 C120 -60 119 -61 117 -61 C111 -63 105 -64 101 -64 L101 -64 C101 -64 101 -64 101 -64 C100 -64 100 -64 99 -64 C99 -64 98 -64 98 -64 C98 -64 98 -64 98 -64 C81 -63 70 -53 64 -40 C62 -38 61 -35 60 -34 C54 -18 53 -4 53 -4 C51 11 51 27 52 45 C52 48 52 50 52 50 L52 50 C62 245 204 627 224 675 C239 713 211 701 187 685 C187 685 -5 167 35 -13 C46 -42 64 -71 95 -73 C97 -73 98 -73 99 -73 C108 -73 119 -70 125 -68 C130 -66 133 -64 137 -62 C149 -58 160 -51 170 -44 C181 -36 191 -29 201 -19 C210 -10 220 0 228 11 C262 48 291 88 319 131 C316 118 313 106 311 92 L311 92 C311 92 311 92 311 92 C310 90 310 89 310 88 C304 57 269 -139 337 -139 C354 -139 372 -132 380 -127 C389 -122 395 -118 395 -118 L395 -118 C398 -117 399 -115 402 -113 C405 -112 407 -109 406 -106 C193 -263 463 532 463 532 L463 532 L463 532 Z " />
<glyph glyph-name="V" unicode="V" horiz-adv-x="385" d="M323 360 C356 406 397 455 425 483 C426 485 429 488 431 490 C431 490 431 491 432 492 C434 494 436 496 438 498 C446 506 451 510 451 510 L451 510 C487 548 524 581 564 611 C595 637 629 658 664 673 C693 686 725 691 751 682 C770 675 783 659 794 640 C795 635 803 642 800 646 C786 675 764 692 735 696 C706 700 674 688 643 673 C609 656 574 631 542 605 C509 578 478 550 449 521 C442 514 436 507 430 501 C425 495 382 448 352 410 C352 410 352 410 352 410 C316 366 283 319 252 271 C185 166 127 54 71 -58 C63 -71 57 -84 50 -98 C52 -87 54 -78 55 -68 C55 -67 55 -67 55 -66 C56 -58 58 -49 60 -40 C60 -39 60 -39 60 -39 L60 -39 C62 -31 64 -23 66 -14 C74 20 82 56 90 91 C107 161 126 232 146 302 C173 395 201 489 232 581 C232 582 232 582 233 582 C236 593 235 595 233 596 C230 596 224 593 224 593 C218 589 201 576 184 562 C184 562 168 548 157 511 C157 511 157 511 157 511 C117 368 -24 -140 21 -140 C33 -140 44 -125 56 -102 L58 -97 C58 -97 58 -97 58 -97 C58 -97 58 -97 58 -97 L60 -94 C70 -76 79 -58 88 -38 C116 17 145 72 174 127 C221 207 268 287 322 359 C322 359 322 360 323 360 L323 360 Z " />
<glyph glyph-name="W" unicode="W" horiz-adv-x="706" d="M705 695 C702 700 697 696 699 692 C708 672 709 649 709 626 C709 604 707 580 704 558 C698 511 690 464 676 418 C651 321 610 231 563 149 C514 67 458 -5 396 -65 C383 -77 370 -88 357 -99 C342 -111 327 -122 311 -128 C307 -129 302 -130 295 -131 C295 -131 295 -131 295 -131 C220 -131 346 363 354 390 C365 418 324 398 324 398 L324 398 C317 394 311 389 306 381 C281 332 258 283 233 236 C221 215 210 191 199 170 C183 140 167 110 150 81 C135 55 117 29 96 9 C89 2 80 -4 71 -6 C57 -6 -5 -24 120 290 C157 382 173 440 178 480 C182 522 172 539 166 545 C164 546 162 547 159 547 L159 547 C147 551 131 544 131 544 C114 536 99 524 99 524 L99 524 C90 518 80 511 71 503 C69 501 65 498 66 495 C67 492 71 494 74 497 C74 497 74 497 74 497 C81 501 87 506 94 511 C101 516 109 521 117 525 C117 525 117 525 117 525 C118 526 119 526 120 527 C120 527 120 527 120 527 L120 527 C122 527 122 528 123 528 C124 528 124 527 125 527 C149 527 104 378 104 378 L104 378 C100 362 94 343 88 323 C88 323 88 323 88 323 C79 294 69 266 59 237 L59 237 C59 237 59 237 59 237 C57 229 54 222 52 214 C51 213 51 212 51 211 C34 157 0 34 40 -5 C40 -5 40 -5 40 -5 C41 -6 42 -6 42 -7 C43 -7 43 -7 43 -8 C43 -8 44 -8 44 -8 C50 -13 58 -16 65 -16 C74 -15 83 -11 92 -4 C112 11 130 36 146 61 C164 89 180 119 196 149 C207 173 219 195 230 218 C240 239 253 258 262 278 C274 300 285 323 295 345 C286 313 277 280 271 245 C239 104 198 -138 290 -138 C306 -140 321 -133 335 -125 C349 -115 365 -102 378 -90 C407 -64 437 -35 463 -3 C521 64 572 145 615 234 C655 319 687 413 703 510 C709 541 712 572 714 604 C717 635 716 669 705 695 L705 695 Z " />
<glyph glyph-name="X" unicode="X" horiz-adv-x="290" d="M561 96 C557 96 552 91 552 91 L552 91 C539 75 525 61 511 47 C458 -9 395 -62 318 -95 C301 -102 287 -107 274 -111 C274 -111 274 -111 274 -111 C106 -163 112 -4 112 -4 L112 -4 C110 64 160 230 196 367 C223 403 250 439 277 473 C338 548 400 621 468 689 C472 694 466 700 462 696 C377 610 300 517 226 421 C218 411 210 400 202 390 C202 392 202 393 203 396 C261 627 151 636 115 634 C105 633 98 631 90 630 C79 627 50 617 21 592 C21 592 21 592 21 592 C21 591 19 590 18 589 C18 589 17 589 17 589 C17 589 17 589 17 589 L17 589 C17 589 16 589 16 588 C16 588 16 588 16 588 C15 588 15 587 14 586 C14 586 14 586 14 585 C14 585 14 585 14 585 C14 585 14 585 14 585 C14 585 14 585 14 585 C14 585 14 585 14 585 C14 585 14 585 14 585 C14 585 14 585 14 585 C14 585 14 584 14 584 C14 584 14 584 14 584 C14 584 14 584 14 584 C14 584 14 584 14 584 C14 584 14 584 14 584 C14 584 14 584 14 583 C14 583 14 583 14 583 C14 583 14 583 14 583 C14 583 14 583 14 583 C14 583 14 583 15 583 C16 581 19 583 20 583 C23 585 29 589 29 589 L29 589 C57 611 103 637 139 615 C158 604 168 583 173 564 C177 543 177 521 175 499 C169 456 154 414 143 370 C134 336 123 301 111 268 C84 232 56 196 31 160 C6 124 -18 88 -38 49 C-56 14 -72 -24 -81 -63 C-82 -69 -73 -71 -72 -65 C-62 -16 -40 29 -15 72 C12 120 44 164 76 207 C84 219 93 230 103 242 C103 242 -20 -124 156 -136 C159 -136 161 -136 164 -136 C165 -136 165 -136 166 -136 C168 -136 170 -136 172 -136 C177 -136 182 -136 187 -136 C285 -129 373 -84 442 -28 C487 7 526 47 562 88 C563 90 565 95 561 96 L561 96 Z " />
<glyph glyph-name="Y" unicode="Y" horiz-adv-x="502" d="M534 699 L534 699 C534 699 534 699 534 699 L534 699 L534 699 Z M390 298 C388 294 387 291 386 287 C347 253 311 216 281 175 C247 129 219 78 207 22 C201 -7 197 -37 198 -67 C199 -89 203 -113 221 -131 C244 -151 266 -132 273 -124 C375 0 534 699 534 699 C484 684 470 623 470 623 L437 481 C426 438 414 387 399 334 L399 334 C399 332 398 331 398 329 C398 329 398 329 398 329 L394 317 C389 313 384 308 380 304 C355 285 328 268 296 257 C278 252 258 249 238 250 C68 262 191 511 244 624 C251 638 257 662 232 655 C202 648 183 628 168 597 C165 590 161 583 160 575 C159 574 159 573 159 572 C108 449 53 244 243 241 C244 241 245 241 247 241 C247 241 247 241 247 241 C251 241 255 241 259 242 C309 245 353 270 390 300 L390 298 L390 298 L390 298 Z M243 -127 C243 -127 242 -127 242 -127 C241 -128 241 -128 240 -129 C236 -131 231 -128 230 -126 C230 -126 230 -126 230 -126 C230 -126 230 -126 230 -126 C222 -119 217 -111 214 -102 C208 -88 208 -72 209 -57 C208 -42 210 -27 212 -12 C219 47 243 100 275 148 C304 192 341 231 380 268 C331 88 272 -97 243 -127 L243 -127 Z " />
<glyph glyph-name="Z" unicode="Z" horiz-adv-x="407" d="M558 690 C550 698 541 699 531 699 C522 698 467 689 381 605 C370 614 360 626 351 637 C337 652 324 670 307 681 C290 694 270 697 252 693 C219 686 189 660 165 632 C161 628 166 622 169 625 C198 659 239 692 278 685 C299 681 314 666 330 649 C344 634 356 617 371 603 C372 601 374 600 375 599 C315 539 238 440 150 282 C108 207 74 147 45 97 L42 91 C41 91 39 91 38 91 C30 92 18 87 15 85 C11 84 8 81 4 79 C4 79 3 79 3 78 L3 79 C3 78 2 78 2 77 C-17 66 -34 47 -49 29 C-64 9 -78 -12 -90 -35 C-101 -56 -109 -79 -116 -103 C-118 -111 -121 -124 -119 -131 L-119 -131 C-119 -131 -119 -131 -119 -132 C-119 -132 -119 -132 -119 -132 C-119 -132 -119 -132 -119 -133 C-118 -134 -118 -134 -117 -135 C-114 -140 -105 -147 -84 -137 C-84 -137 -84 -137 -84 -137 C-84 -137 -84 -137 -84 -137 L-84 -137 C-39 -117 24 -24 79 70 C99 58 117 41 134 23 C162 -7 186 -42 215 -72 C228 -86 243 -99 260 -110 C275 -120 294 -126 312 -131 C352 -143 397 -144 437 -133 C474 -125 508 -104 531 -75 C535 -71 528 -64 524 -69 C496 -104 454 -125 409 -130 C367 -135 325 -129 287 -114 C250 -99 222 -68 197 -39 C171 -7 146 27 115 54 C105 63 94 71 84 77 C84 78 84 79 85 79 L85 79 C86 82 88 85 89 87 C101 109 113 131 124 152 C189 266 271 399 271 400 C328 479 373 538 410 580 C426 576 442 577 458 581 C460 582 462 582 464 583 C516 598 549 641 552 645 C552 645 553 646 553 646 C558 653 563 662 564 671 C565 679 562 686 558 690 L558 690 Z M34 76 L34 76 C-84 -129 -94 -130 -109 -130 C-109 -130 -110 -130 -110 -130 C-119 -129 -106 -91 -104 -86 C-96 -62 -85 -39 -73 -18 C-59 4 -44 24 -27 42 C-18 52 -9 61 1 68 C1 68 1 68 1 68 C1 68 2 68 2 68 C22 83 38 83 38 83 C38 83 34 77 34 76 L34 76 Z M556 668 C556 667 556 666 555 665 C555 665 555 665 555 665 C555 664 555 663 554 663 C554 662 553 661 553 660 C548 651 543 644 537 639 C507 607 468 587 431 587 C426 587 421 587 417 588 C474 654 509 678 529 684 C540 687 547 685 550 683 C554 681 559 677 556 668 L556 668 Z " />
<glyph glyph-name="bracketleft" unicode="&#x5b;" horiz-adv-x="142" d="M136 618 C115 618 94 618 74 618 C72 618 72 617 72 616 C72 615 71 615 71 614 C65 597 62 578 58 561 C47 518 36 473 25 430 C12 376 -1 322 -13 271 C-25 224 -37 177 -47 131 C-53 107 -59 82 -65 60 C-65 59 -65 58 -65 57 C-66 56 -64 53 -62 53 C-42 53 -23 53 -4 53 C-3 53 -1 55 -1 57 C-1 58 -1 60 -1 62 C-1 64 -2 66 -4 66 C-13 66 -23 66 -32 66 C-28 82 -24 99 -20 116 C-9 159 1 204 12 247 C25 301 37 355 51 407 C62 453 73 498 83 544 C89 563 94 584 98 604 C112 604 123 604 136 604 C138 604 138 604 139 607 C139 609 139 612 139 613 C139 616 138 618 136 618 L136 618 Z " />
<glyph glyph-name="backslash" unicode="&#x5c;" horiz-adv-x="223" d="M171 28 C167 48 163 68 159 88 C150 138 139 186 129 235 C118 295 106 354 93 413 C83 466 73 517 62 569 C57 595 52 622 46 648 C45 649 45 649 45 650 C45 652 43 653 41 653 C38 653 34 653 31 653 C29 653 27 652 27 650 C27 649 26 648 27 648 C31 628 35 608 39 588 C49 538 60 490 69 441 C81 382 93 322 106 263 C117 211 127 159 138 107 C143 81 149 54 155 28 C155 27 155 26 155 26 C156 24 158 22 160 22 C162 22 165 22 167 22 C170 22 172 25 171 28 L171 28 Z " />
<glyph glyph-name="bracketright" unicode="&#x5d;" horiz-adv-x="167" d="M142 607 C122 607 104 607 83 607 C82 607 82 605 81 604 C81 603 81 603 81 602 C80 601 80 598 80 597 C80 595 82 593 83 593 C93 593 103 593 111 593 C107 576 104 560 99 543 C90 498 78 456 68 412 C55 361 42 307 29 256 C20 212 10 167 -2 123 C-6 103 -11 83 -16 64 C-16 63 -16 63 -16 63 C-29 63 -40 63 -54 63 C-54 63 -55 62 -55 61 C-55 59 -55 57 -55 56 C-56 54 -54 52 -54 52 C-33 52 -12 52 10 52 C11 52 11 53 12 55 C15 71 20 90 25 107 C35 151 46 195 55 237 C69 289 80 340 93 394 C105 439 116 484 127 530 C132 554 137 577 143 600 C143 601 144 601 144 602 C145 604 143 607 142 607 L142 607 Z " />
<glyph glyph-name="asciicircum" unicode="&#x5e;" horiz-adv-x="129" d="M134 562 C126 582 122 603 118 623 L118 623 C118 623 118 623 118 623 C118 626 117 627 117 629 C115 638 108 653 89 638 C88 637 88 637 88 636 C88 636 88 636 87 636 C78 628 69 619 60 609 C46 596 32 583 19 568 C15 563 14 557 18 551 C22 547 29 547 33 551 C46 566 60 579 74 592 C86 604 97 617 111 626 C115 603 119 581 127 560 C129 556 136 557 134 562 L134 562 Z " />
<glyph glyph-name="underscore" unicode="&#x5f;" horiz-adv-x="227" d="M169 233 C121 233 73 233 24 233 C1 233 -22 233 -46 233 C-48 233 -50 231 -50 230 C-51 229 -51 229 -51 228 C-53 224 -54 221 -55 217 C-56 214 -54 212 -52 212 C-3 212 45 212 93 212 C117 212 140 212 163 212 C166 212 168 214 169 217 C170 221 171 224 173 228 C173 231 172 233 169 233 L169 233 Z " />
<glyph glyph-name="grave" unicode="&#x60;" horiz-adv-x="68" d="M88 611 C80 614 76 624 76 632 C75 635 76 638 76 643 C76 646 75 648 73 653 C72 656 69 659 64 661 C55 665 47 658 43 651 C36 638 47 625 55 616 C64 609 76 597 88 603 C91 604 92 609 88 611 L88 611 Z " />
<glyph glyph-name="a" unicode="a" horiz-adv-x="171" d="M182 380 C166 347 151 314 133 284 C126 273 118 261 109 253 C108 252 107 251 106 250 C102 247 96 243 92 245 C92 245 92 245 92 245 C92 245 92 245 92 245 C91 245 91 245 91 245 C91 245 91 245 91 246 C91 246 91 246 90 246 C90 246 90 246 90 246 C78 256 107 319 111 331 C112 336 114 341 117 348 C117 348 117 348 117 348 C139 394 102 394 102 394 L93 376 C92 373 90 368 87 362 L87 362 L87 362 C83 352 79 338 71 318 C41 283 -45 189 -14 292 C3 351 24 386 47 403 C53 408 70 419 92 416 C98 415 102 414 102 414 C103 420 100 423 94 424 C74 427 47 412 42 411 C9 394 -33 358 -49 284 C-74 179 27 248 65 300 C55 260 64 244 76 239 C76 239 76 239 76 239 C89 231 101 238 107 240 C117 248 127 261 132 269 C154 303 171 340 188 379 C191 381 184 387 182 380 L182 380 Z " />
<glyph glyph-name="b" unicode="b" horiz-adv-x="172" d="M178 380 C164 361 149 344 131 331 C130 330 129 329 128 328 C148 387 135 442 45 408 C46 412 47 416 48 419 C89 460 124 506 146 559 C152 572 158 586 160 600 C162 609 161 619 155 627 C155 627 155 627 155 627 C153 629 151 630 149 632 C148 632 148 632 148 632 C148 632 148 632 148 632 C148 632 147 632 147 632 C141 634 134 633 134 633 L134 633 C120 632 89 620 66 561 C52 522 20 437 -6 356 C-12 335 -41 228 23 220 C23 220 24 220 24 220 C24 220 24 220 24 220 C34 219 43 222 48 224 C76 237 106 275 122 315 C126 317 129 319 132 321 C153 334 169 354 185 375 C189 380 181 383 178 380 L178 380 Z M89 530 C100 556 111 582 125 605 C126 608 128 611 130 612 L130 612 C130 612 130 612 130 612 C132 615 133 618 136 620 C141 625 147 628 150 620 C151 618 151 617 152 616 C152 616 152 616 152 616 L152 616 C153 611 151 603 151 603 L151 603 C151 602 151 600 151 599 C148 585 142 570 136 557 C130 543 123 530 116 518 C101 492 83 469 63 448 C61 444 58 441 55 438 C65 469 76 500 89 530 L89 530 Z M28 227 C28 227 28 227 28 227 C28 227 28 227 28 227 C6 227 2 247 4 267 C4 267 4 267 4 267 C4 268 4 269 4 270 C5 280 10 296 14 310 C16 307 18 304 21 302 C31 294 45 295 57 295 C67 296 77 298 88 301 C71 261 47 227 28 227 L28 227 Z M110 369 C107 351 101 331 92 312 C83 308 73 306 63 305 C53 304 41 303 31 307 C24 309 19 316 18 323 C18 324 18 325 19 326 C19 328 20 328 20 329 C20 329 20 329 20 329 L21 334 L40 395 C58 405 120 438 110 369 L110 369 Z " />
<glyph glyph-name="c" unicode="c" horiz-adv-x="131" d="M137 380 C120 353 100 324 82 299 C71 284 60 272 48 259 C47 257 45 255 43 253 C36 246 19 230 6 231 C-28 234 -9 294 1 321 C2 324 3 328 5 332 C6 334 6 335 6 335 L6 335 C12 348 19 360 27 372 C34 382 42 393 51 401 C57 407 68 415 77 406 C81 402 85 408 82 412 C81 412 81 413 80 414 C75 418 68 419 65 419 C65 419 65 419 64 419 C56 420 12 416 -23 340 C-60 257 -38 223 -4 222 C11 221 22 227 28 230 C32 232 35 235 38 237 C45 243 50 248 54 252 C66 264 75 277 85 290 C106 318 125 346 144 375 C147 380 139 385 137 380 L137 380 Z " />
<glyph glyph-name="d" unicode="d" horiz-adv-x="167" d="M187 560 C177 561 167 553 162 548 C162 548 158 543 156 539 C150 523 134 476 116 425 C116 425 111 412 105 394 C102 399 98 404 94 408 C91 411 88 412 84 414 C80 416 61 425 39 412 C36 411 34 411 31 409 C30 408 30 408 30 408 C14 396 -3 376 -21 341 C-59 258 -36 225 -1 225 C12 225 24 230 30 234 C34 237 38 239 40 241 C46 247 51 252 55 256 C58 259 59 262 62 265 C62 265 62 264 62 264 C54 234 58 223 64 221 C64 221 64 221 64 221 C76 218 90 236 95 243 C105 258 115 273 124 289 C141 319 160 348 178 378 C180 383 174 387 171 382 C153 353 136 325 119 295 C106 277 96 256 82 239 C80 285 173 513 188 553 L188 553 C189 554 189 555 189 555 C190 557 190 560 187 560 L187 560 Z M70 287 C63 279 57 270 49 263 C48 261 47 259 45 257 C38 249 21 234 7 235 C-27 237 -7 295 3 323 C5 326 6 329 7 333 C8 335 8 336 8 336 L8 336 C15 350 21 362 29 372 C37 384 44 394 53 403 C54 404 56 405 57 406 L57 406 C57 406 58 407 59 408 C59 408 59 408 59 408 C59 408 59 408 59 408 C59 409 60 409 62 410 C63 411 65 411 67 411 C67 411 68 411 68 411 C70 411 73 411 76 410 C80 409 84 406 88 403 C93 398 99 390 101 383 C91 352 79 312 70 287 L70 287 Z " />
<glyph glyph-name="e" unicode="e" horiz-adv-x="132" d="M136 382 C119 354 100 325 80 299 C69 284 59 271 47 258 C46 256 44 254 42 252 C34 245 18 228 4 229 C-28 230 -14 283 -3 312 C19 319 40 328 58 343 C67 352 76 361 82 372 C89 382 92 392 87 403 L87 403 C85 409 82 412 79 414 C75 417 70 418 67 419 C65 419 64 419 64 419 C64 419 64 419 64 419 C55 419 11 414 -24 337 C-63 253 -40 219 -5 219 C9 219 21 225 27 228 C30 231 34 234 36 236 C43 242 48 247 52 251 C64 264 74 277 83 290 C105 319 125 347 143 377 C146 382 138 387 136 382 L136 382 Z M4 330 C5 332 5 333 5 333 L5 333 C11 346 19 358 27 370 C33 381 42 392 50 400 C52 402 55 404 57 406 C71 415 79 402 80 400 C84 391 78 379 71 370 C64 360 57 353 47 345 C33 335 17 327 1 322 C2 325 3 328 4 330 L4 330 Z " />
<glyph glyph-name="f" unicode="f" horiz-adv-x="64" d="M147 551 C145 556 142 558 138 559 C138 559 85 575 37 476 C27 477 18 480 8 482 C-33 491 -77 508 -117 488 C-122 486 -118 478 -114 481 C-72 500 -26 481 15 472 C22 471 28 469 34 468 C33 468 33 468 33 468 C23 444 14 419 7 393 C-1 368 -8 343 -16 317 C-21 300 -27 284 -33 266 C-34 259 -37 253 -40 245 C-44 234 -47 224 -52 214 C-79 183 -108 154 -137 124 L-137 124 C-137 124 -161 101 -165 98 C-165 98 -165 98 -165 98 C-170 92 -176 87 -182 82 C-195 68 -208 53 -215 37 C-219 30 -220 20 -218 14 C-218 13 -218 12 -218 12 C-212 1 -200 2 -193 4 C-157 13 -68 60 1 259 C1 260 2 263 3 267 C4 268 4 269 4 270 C27 300 47 331 67 362 C71 368 74 374 78 380 C81 384 74 389 72 384 C52 354 33 323 13 294 C14 297 14 300 15 302 C27 340 35 378 48 415 C50 422 52 428 55 434 C56 436 61 452 62 452 C62 452 62 452 62 452 C64 457 66 462 67 466 C88 468 108 474 124 488 C128 491 122 497 119 493 C105 482 88 476 71 475 C73 480 75 486 78 490 C110 558 129 554 134 551 C134 551 137 542 145 546 C147 546 149 549 147 551 L147 551 Z M-90 132 C-91 131 -91 130 -91 128 C-124 68 -156 23 -187 13 C-187 13 -187 13 -187 13 C-189 12 -191 11 -193 11 C-193 11 -193 10 -194 10 C-194 10 -194 10 -195 10 C-203 8 -207 12 -208 16 C-209 17 -209 18 -210 19 C-211 27 -207 35 -203 42 C-198 52 -190 60 -182 69 C-173 78 -166 86 -157 94 C-157 94 -157 94 -157 94 C-149 102 -131 119 -131 119 L-131 119 C-107 144 -84 168 -61 192 C-70 171 -79 151 -90 132 L-90 132 Z " />
<glyph glyph-name="g" unicode="g" horiz-adv-x="172" d="M177 379 C172 365 164 354 156 341 C148 330 139 319 129 309 C125 303 120 297 115 292 C118 302 130 335 130 335 L130 335 C131 337 132 338 132 339 C132 339 132 339 132 339 C153 389 113 389 113 389 L105 369 C104 366 102 362 100 355 L100 355 L100 355 C98 348 95 339 91 329 C91 328 90 326 89 323 C56 279 32 259 19 250 C8 244 0 245 -4 247 C-45 264 16 365 58 401 C59 402 76 416 91 414 C112 412 107 390 113 390 C119 392 116 399 116 399 C112 417 100 425 83 426 C79 426 21 425 -25 341 C-44 309 -48 284 -44 264 C-44 262 -36 231 -8 231 C17 231 47 259 66 282 C73 291 79 300 84 308 C84 308 84 308 84 308 C79 290 74 271 67 251 C30 228 -5 204 -37 174 C-65 145 -90 111 -100 73 C-106 48 -106 14 -80 4 C-76 2 -70 1 -59 3 C-56 4 -52 5 -49 6 C-49 6 -49 6 -49 6 C12 30 64 139 96 234 C100 243 104 259 109 274 C119 284 128 293 137 304 C155 325 175 350 186 376 C188 382 179 384 177 379 L177 379 Z M-46 18 C-51 14 -62 9 -72 10 C-110 17 -93 72 -82 96 C-61 141 -24 178 16 207 C31 217 48 228 64 238 C34 153 -5 50 -46 18 L-46 18 Z " />
<glyph glyph-name="h" unicode="h" horiz-adv-x="170" d="M177 382 C168 365 158 349 149 332 C141 316 131 299 121 283 C115 272 107 261 100 251 C99 249 98 248 97 247 C97 248 97 249 97 250 C96 270 129 348 129 348 L129 348 C154 409 136 420 127 422 C105 425 67 403 30 348 C39 375 48 402 58 429 C86 453 112 482 129 516 C137 531 144 546 142 563 C141 569 139 576 134 580 C133 580 133 581 132 581 C119 589 103 576 98 570 C76 548 42 497 4 376 C-2 357 -6 340 -11 325 L-11 325 L-11 325 C-12 321 -13 318 -14 315 L-43 209 C-42 209 -42 208 -41 208 C-41 208 -41 208 -41 208 C-10 201 0 231 2 240 C5 254 11 279 13 288 C17 304 21 317 21 317 C44 350 94 421 116 414 C137 407 71 307 69 251 C70 234 73 228 79 227 C79 227 79 227 79 227 C90 227 102 240 110 249 C112 253 114 255 117 259 L117 259 C117 260 118 261 118 261 C131 280 142 299 151 318 C162 338 174 357 184 377 C187 382 179 387 177 382 L177 382 Z M114 557 C114 557 133 580 133 558 C133 558 133 558 133 558 C133 557 133 557 133 557 L133 557 C133 556 133 556 133 556 C133 541 124 525 117 512 C103 487 84 465 63 446 C80 494 99 538 114 557 L114 557 Z " />
<glyph glyph-name="i" unicode="i" horiz-adv-x="95" d="M102 387 C86 350 71 310 49 274 C41 263 33 250 23 238 C22 238 21 237 20 236 C15 232 9 229 4 231 C4 231 4 231 4 231 C4 231 4 231 4 231 C3 231 3 231 3 231 C3 231 3 231 3 232 C3 232 3 232 3 232 C3 232 3 232 3 232 C-11 244 17 317 23 328 C25 334 28 341 31 349 C31 349 31 349 31 349 C54 401 10 401 10 401 L3 379 C0 376 -1 371 -4 363 L-4 363 L-4 363 C-6 357 -9 349 -13 337 C-21 316 -43 240 -14 223 C-14 223 -14 223 -14 223 C-14 223 -14 223 -13 223 C-12 222 -10 221 -8 221 C-8 221 -7 220 -7 220 C5 217 15 222 22 227 C33 234 43 249 49 258 C75 297 92 341 111 384 C114 388 106 393 102 387 L102 387 Z M38 418 C37 415 32 415 32 415 C34 415 37 414 40 414 C51 414 62 425 62 438 C62 449 51 461 40 461 C29 461 20 451 19 441 C19 441 19 440 19 440 L19 440 C19 440 16 418 38 418 L38 418 Z " />
<glyph glyph-name="j" unicode="j" horiz-adv-x="71" d="M73 382 C67 368 59 356 50 344 C42 332 33 321 23 309 C18 303 13 297 8 292 C11 302 24 337 24 337 L24 337 C25 339 26 340 26 342 C26 342 26 342 26 342 C48 393 6 393 6 393 L2 383 C2 383 -4 365 -7 357 C-7 357 -7 357 -7 357 C-15 332 -30 286 -37 264 L-37 264 C-39 259 -40 254 -42 249 C-80 225 -118 200 -151 168 C-180 139 -206 103 -216 63 C-223 38 -223 2 -197 -9 C-192 -11 -184 -12 -175 -10 C-171 -9 -167 -8 -164 -7 C-164 -7 -164 -7 -164 -7 C-99 18 -46 133 -12 231 C-9 241 -3 257 2 273 C12 283 21 293 31 304 C50 327 70 352 81 379 C84 385 75 387 73 382 L73 382 Z M-161 6 C-166 2 -176 -4 -187 -3 C-227 5 -209 62 -198 87 C-176 135 -137 172 -95 203 C-79 214 -63 225 -46 236 C-76 146 -118 40 -161 6 L-161 6 Z M25 408 C25 407 20 406 20 406 C22 405 24 405 27 405 C38 405 48 415 48 427 C48 440 38 450 27 450 C17 450 8 442 6 431 C6 430 6 430 6 429 L6 429 C6 429 5 409 25 408 L25 408 Z " />
<glyph glyph-name="k" unicode="k" horiz-adv-x="169" d="M176 384 C158 335 137 290 113 245 C106 231 99 218 91 206 C84 195 77 186 70 175 C69 174 68 173 67 172 C61 172 88 254 88 254 L88 254 C88 254 88 254 89 255 C89 255 89 255 89 255 C90 260 92 265 94 271 C107 323 88 341 82 344 C81 345 81 345 80 346 C87 349 96 353 103 357 C104 358 105 358 106 359 C108 360 111 362 114 364 C132 378 134 395 134 401 C133 417 125 421 120 423 C99 426 62 405 27 352 C36 378 44 404 53 430 C81 453 106 480 122 513 C129 527 136 543 134 558 C133 564 131 571 127 574 C126 574 125 575 125 575 C112 583 97 571 91 565 C71 545 39 495 2 379 C-4 361 -7 344 -12 331 L-12 331 L-12 331 C-13 327 -14 324 -15 321 L-43 219 C-42 219 -42 218 -41 218 C-41 218 -41 218 -41 218 C-11 211 -2 240 0 250 C3 262 9 286 11 295 C15 310 18 323 18 323 C39 354 88 422 109 415 C110 414 111 413 112 412 L112 412 C112 412 112 412 112 412 C113 412 113 410 113 409 C114 402 114 382 90 363 C90 363 90 363 90 363 C80 353 63 343 36 335 C36 335 34 334 34 332 C34 331 34 330 36 331 C36 331 53 335 71 343 C72 343 72 343 72 343 C77 340 93 326 61 246 L61 246 C61 246 61 246 61 246 C61 245 61 244 60 244 C60 244 60 244 60 244 C60 242 58 239 58 238 C56 233 54 228 52 223 C52 223 52 223 52 223 L52 223 C45 206 41 188 40 176 C41 159 45 153 51 152 L51 152 C62 152 72 164 80 174 C82 177 84 180 86 184 L86 184 C86 185 87 185 87 186 C96 197 104 209 110 222 C110 223 110 223 111 223 C114 230 124 246 124 246 L124 246 C146 290 167 334 185 381 C187 387 178 389 176 384 L176 384 Z M107 552 C107 552 126 574 126 553 C126 553 126 553 126 553 C126 552 126 552 126 552 L126 552 C126 551 126 551 126 551 C126 537 117 522 110 509 C97 485 79 464 59 446 C75 492 93 534 107 552 L107 552 Z " />
<glyph glyph-name="l" unicode="l" horiz-adv-x="128" d="M138 389 C119 356 99 322 79 289 C68 273 56 256 46 241 C37 228 28 215 16 205 C14 204 10 201 6 201 C6 201 6 201 6 201 C-5 203 3 244 6 262 C8 268 9 276 11 283 C11 283 11 283 11 283 C14 293 16 302 18 310 C19 312 19 314 20 316 C20 316 20 316 20 316 C20 317 20 318 20 319 C22 325 23 327 23 327 C23 327 23 327 23 327 C29 350 38 379 38 379 L38 379 C45 397 50 416 57 435 C86 458 111 487 127 520 C133 533 141 549 139 566 C138 570 136 577 131 581 C130 581 129 582 129 582 C118 590 102 577 96 571 C76 551 43 501 6 384 C0 366 -5 349 -9 335 L-9 335 L-9 335 C-9 333 -9 331 -9 329 L-9 329 C-9 329 -34 253 -32 210 C-32 205 -31 199 -28 193 C-28 192 -27 191 -26 190 C-25 189 -25 188 -24 187 C-24 187 -24 187 -24 187 C-24 187 -24 187 -23 187 C-23 187 -23 186 -22 186 C-22 186 -22 186 -22 186 C-22 186 -21 185 -21 185 C-21 185 -21 185 -21 185 C-19 184 -16 183 -13 183 C-12 183 -11 183 -10 183 C-10 184 -10 184 -9 184 L-9 184 C-9 184 -9 184 -9 184 C-9 184 -9 184 -9 184 C-4 184 1 186 5 188 C15 193 25 201 31 206 C38 214 45 224 51 234 C63 250 74 266 85 284 C106 317 126 351 146 385 C149 389 141 394 138 389 L138 389 Z M112 560 C113 560 130 581 130 561 C130 561 130 561 130 561 C130 560 130 560 130 560 L130 560 C130 559 130 559 130 559 C129 543 123 528 116 516 C102 491 84 470 63 451 C81 498 97 540 112 560 L112 560 Z " />
<glyph glyph-name="m" unicode="m" horiz-adv-x="262" d="M267 379 C258 362 248 346 239 329 C229 312 220 295 210 279 C204 268 196 257 189 247 C188 245 187 244 186 243 C186 244 186 245 185 246 C185 266 218 345 218 345 L218 345 C243 407 225 418 216 420 C196 423 163 406 130 362 C131 365 132 367 133 370 C133 370 133 370 133 370 L133 370 C144 410 129 418 122 420 C102 423 69 406 36 362 L40 373 C60 422 19 422 19 422 C19 422 -4 352 -21 298 C-21 298 -21 298 -21 298 C-42 233 -12 235 -12 235 C-12 237 -11 240 -10 243 C-7 254 -3 265 1 276 C1 276 1 276 1 276 L1 276 C23 329 56 369 56 370 C76 395 98 416 111 412 C127 406 89 343 72 288 C70 285 69 282 69 279 L69 279 C51 219 83 220 83 220 C77 287 163 384 163 384 L163 384 C179 402 195 415 205 412 C226 405 158 303 157 247 C158 229 162 223 168 222 L168 222 C179 222 191 236 199 245 C201 249 203 251 206 255 L206 255 C206 256 207 257 207 257 C220 276 230 295 241 315 C252 335 264 354 274 374 C277 379 269 384 267 379 L267 379 Z " />
<glyph glyph-name="n" unicode="n" horiz-adv-x="166" d="M172 380 C163 363 154 347 144 330 C135 313 126 296 116 280 C109 269 102 258 94 248 C93 246 92 245 91 244 C91 245 91 246 91 247 C91 267 123 346 123 346 L123 346 C149 408 130 419 122 421 C102 424 68 407 35 363 C37 367 38 370 38 370 L38 370 C38 371 38 371 39 372 C39 372 39 372 39 372 C60 423 18 423 18 423 L10 402 C9 399 7 394 4 387 L4 387 L4 387 C1 378 -4 364 -11 344 C-12 341 -13 336 -15 331 L-15 331 C-15 331 -15 331 -15 331 C-15 330 -15 329 -15 328 C-16 327 -16 326 -16 325 L-16 325 C-54 208 -8 220 -8 220 C-17 261 29 336 29 336 C31 339 32 340 32 340 L32 340 C57 375 93 418 110 413 C131 406 64 304 63 248 C63 230 68 224 74 223 L74 223 C84 223 97 237 104 246 C107 250 108 252 111 256 L111 256 C112 257 112 258 113 258 C125 277 136 296 147 316 C158 336 170 355 180 375 C182 380 175 385 172 380 L172 380 Z " />
<glyph glyph-name="o" unicode="o" horiz-adv-x="175" d="M186 388 C170 364 151 342 126 325 C128 329 129 333 131 336 C134 348 135 357 135 364 C137 395 126 420 104 431 C98 434 91 435 84 434 C56 431 36 406 26 391 C24 399 18 406 7 406 C7 406 1 394 -2 382 C-2 382 -2 382 -2 382 C-3 381 -3 380 -3 380 C-3 380 -3 380 -3 380 C-4 378 -4 376 -5 374 C-5 374 -5 374 -5 374 C-8 367 -11 358 -13 349 C-14 345 -14 341 -15 336 C-15 336 -16 335 -16 335 C-25 290 -30 225 14 225 C14 225 15 225 15 225 C16 225 17 225 18 225 C54 226 86 249 117 303 C118 305 119 308 120 310 C150 328 175 355 194 383 C197 388 190 392 186 388 L186 388 Z M71 289 C54 260 32 233 15 233 C-8 233 -8 270 6 313 C8 305 15 298 21 294 C36 286 55 288 72 291 C71 291 71 290 71 289 L71 289 Z M94 341 C94 341 94 341 94 341 C94 340 94 339 94 338 C93 335 90 332 89 328 C87 320 83 311 78 302 C64 298 47 296 34 299 C24 301 17 307 14 317 C12 323 13 329 15 336 C15 336 15 336 15 336 C15 336 15 336 15 336 L15 336 C17 340 19 346 21 351 C21 352 25 362 27 373 C36 400 62 416 64 417 C109 445 104 373 94 341 L94 341 L94 341 Z " />
<glyph glyph-name="p" unicode="p" horiz-adv-x="157" d="M170 379 C160 362 150 345 140 329 C130 312 120 295 110 279 C102 268 95 257 87 247 C86 245 85 244 84 243 C84 244 84 245 84 246 C84 266 120 345 120 345 C148 407 129 418 121 419 C101 423 67 406 32 361 C33 364 34 366 35 368 C35 370 36 371 37 373 C37 374 38 375 38 376 C38 377 38 377 38 377 C56 421 18 422 18 422 L-106 81 C-106 81 -94 76 -73 111 C-71 114 -69 118 -67 122 C-67 122 -67 122 -67 122 C-53 147 -41 175 -31 202 C-27 211 -23 221 -20 231 C-13 250 -6 269 2 288 C7 298 11 309 17 319 C21 326 25 334 30 341 C31 343 32 345 34 347 C47 364 62 381 78 396 C83 400 87 404 92 407 C95 409 98 410 101 411 C103 411 107 412 109 412 C130 405 59 303 55 247 C55 229 60 223 65 222 C76 222 89 235 97 245 C99 249 101 251 104 255 C105 256 105 257 106 257 C119 276 130 295 142 315 C154 334 166 354 177 374 C180 379 173 384 170 379 L170 379 Z " />
<glyph glyph-name="q" unicode="q" horiz-adv-x="183" d="M190 384 C163 349 139 313 113 277 C119 303 123 322 127 336 C127 336 127 336 127 336 C130 350 139 380 143 395 C144 401 148 414 148 414 C148 418 149 420 149 420 C130 428 109 399 109 399 C88 452 39 420 8 387 C8 387 7 386 6 385 C6 385 6 385 6 385 C-5 373 -14 356 -20 344 C-20 343 -28 323 -30 307 C-35 270 -29 229 10 230 C38 230 60 252 75 276 L69 256 C67 247 65 238 63 229 C62 224 53 183 49 165 C42 123 37 84 40 58 C43 35 51 26 67 26 C79 26 84 38 85 44 C90 59 87 78 85 93 C82 110 80 127 76 144 C76 144 75 145 75 146 C75 147 76 148 76 148 C82 177 94 215 105 252 C137 293 165 337 197 378 C200 382 194 388 190 384 L190 384 Z M76 95 C78 83 79 72 79 61 C79 53 78 44 73 38 C69 53 65 82 71 125 C73 115 74 105 76 95 L76 95 Z M103 374 L80 295 C66 271 46 249 19 249 C-34 248 25 370 60 406 C65 412 76 421 89 413 C99 407 105 396 107 390 L103 374 L103 374 Z " />
<glyph glyph-name="r" unicode="r" horiz-adv-x="159" d="M162 379 C145 352 127 326 109 299 C101 285 93 273 84 259 C78 250 72 241 65 233 C65 240 69 251 69 251 L69 251 C71 260 73 268 76 275 C82 292 88 310 94 327 C104 364 118 400 130 437 C112 443 99 431 94 427 C94 427 94 427 94 427 C94 427 93 426 93 426 C93 426 93 426 93 426 L93 426 C93 425 92 425 92 425 C91 424 91 424 90 424 C90 424 89 423 88 422 C88 422 88 422 88 422 C80 416 73 411 68 407 C68 407 68 407 68 407 C68 407 68 407 68 407 C42 390 25 391 25 391 C26 393 40 416 42 419 C49 430 54 443 58 456 C63 469 67 483 67 498 C67 499 67 499 66 499 C66 500 66 500 66 500 C65 511 61 518 60 518 C55 526 44 537 26 521 C26 520 19 513 12 500 C10 495 8 490 6 485 C-1 468 -9 450 -11 430 C-14 412 -13 393 0 378 C5 375 11 370 22 370 C27 370 32 371 37 373 C37 373 37 373 37 373 C65 381 89 412 89 412 C79 386 71 361 62 335 C56 318 52 299 46 282 C40 268 33 250 35 234 C35 233 35 232 35 231 L35 231 C35 231 35 231 35 231 C35 231 35 231 35 231 C36 229 37 226 40 223 C41 223 41 223 41 223 C41 223 41 223 41 222 C52 212 64 222 68 225 C76 234 83 243 90 253 C98 266 105 279 114 292 C133 320 150 348 169 375 C172 379 164 384 162 379 L162 379 Z M17 395 C17 395 12 419 30 463 C31 463 31 463 31 463 C31 464 31 465 32 466 C33 469 34 472 36 474 C42 487 49 500 55 512 C55 512 55 513 56 513 C56 510 57 507 57 505 C61 489 56 471 50 457 C47 445 41 434 35 423 L35 423 C35 423 22 397 17 395 L17 395 Z " />
<glyph glyph-name="s" unicode="s" horiz-adv-x="122" d="M126 377 C111 343 91 311 67 282 C59 272 51 264 41 257 C43 258 43 264 44 265 C48 281 49 298 47 315 C47 320 46 324 45 329 C44 336 43 343 41 350 C39 361 37 371 38 382 C38 391 38 399 40 407 C43 422 49 429 53 432 C53 432 59 436 65 431 C67 429 69 427 71 425 C74 422 79 424 79 429 C79 432 76 434 74 435 C67 440 60 442 52 440 C45 439 38 435 33 431 C29 429 25 426 22 423 C13 414 8 402 5 390 C3 382 2 374 2 365 C3 344 11 324 12 303 C12 296 12 289 11 282 C10 267 6 252 -1 239 C-9 225 -22 212 -39 211 C-44 211 -49 211 -53 213 C-58 215 -64 217 -68 222 L-68 222 C-68 222 -71 225 -74 221 C-78 218 -76 215 -75 215 C-69 208 -61 203 -53 200 C-49 199 -45 198 -41 198 C-28 196 -13 197 -1 204 C5 207 11 212 16 217 C24 224 31 232 36 242 C50 251 61 262 72 274 C98 305 119 339 135 375 C137 380 129 383 126 377 L126 377 Z " />
<glyph glyph-name="t" unicode="t" horiz-adv-x="120" d="M134 379 C114 345 94 311 72 278 C62 261 51 245 39 228 C31 216 22 202 9 192 C7 190 4 187 1 187 C1 187 1 187 1 187 C-11 188 -3 231 1 249 C2 256 4 264 5 270 C5 270 5 270 5 270 C7 281 10 291 11 299 C12 301 13 303 13 305 C13 305 13 305 13 305 C13 306 13 307 14 308 C15 313 16 316 16 316 C16 316 16 316 16 316 C23 340 33 368 33 368 L33 368 C39 387 45 407 52 426 C53 427 54 428 55 428 C81 426 108 430 130 448 C134 451 128 458 123 454 C106 440 85 436 64 437 C75 447 90 464 92 465 C103 479 114 495 122 511 C130 526 136 541 134 558 C134 564 132 569 127 574 C126 574 126 575 125 575 C112 583 97 569 92 565 C80 553 65 532 46 495 C45 494 31 461 24 443 C24 443 24 442 24 442 C22 442 21 442 20 443 C-19 452 -60 468 -99 448 C-104 446 -99 439 -94 440 C-57 459 -17 443 20 434 C20 432 19 430 18 429 C12 412 7 394 0 374 C-6 355 -11 339 -15 324 L-15 324 L-15 324 C-16 322 -16 320 -17 318 L-17 318 C-17 318 -42 241 -39 198 C-39 191 -38 186 -35 180 C-34 179 -33 178 -33 177 C-32 176 -31 175 -31 174 C-30 174 -30 174 -30 174 C-30 174 -30 174 -30 174 C-30 173 -29 173 -29 173 C-29 173 -29 173 -29 173 C-28 172 -28 172 -27 172 C-27 172 -27 172 -27 172 C-25 171 -24 170 -21 170 C-20 170 -19 170 -18 170 C-18 170 -17 170 -17 170 L-17 170 C-17 170 -16 171 -16 171 C-16 171 -16 171 -16 171 C-11 171 -6 173 -1 175 C9 180 18 187 24 194 C33 202 39 212 45 221 C57 238 69 254 79 272 C102 305 121 341 141 375 C144 379 136 384 134 379 L134 379 Z M65 461 C66 465 68 470 70 473 C70 473 70 473 70 473 L70 473 C83 508 96 536 107 551 C108 552 126 574 126 553 C126 553 126 553 126 552 C126 552 126 552 126 551 L126 551 C126 551 126 551 126 551 C126 535 117 520 110 507 C102 491 90 475 76 461 C76 461 76 461 76 461 C76 461 76 461 76 461 C75 459 74 458 73 457 C73 457 73 457 73 457 C68 451 57 440 57 440 C58 442 61 452 65 461 C65 461 65 461 65 461 L65 461 Z " />
<glyph glyph-name="u" unicode="u" horiz-adv-x="195" d="M207 370 L207 370 C207 371 207 372 207 373 C208 375 208 377 204 377 C201 378 199 375 198 373 C184 339 170 304 153 271 C145 257 137 243 125 231 C125 230 124 229 123 228 C118 224 112 219 107 221 C107 221 107 221 107 221 C107 221 106 221 106 221 C106 221 106 221 106 222 C106 222 106 222 106 222 C105 222 105 222 105 222 C105 222 105 222 105 223 C91 237 121 319 126 333 C128 338 131 346 134 355 C134 355 134 355 134 355 C157 414 113 414 113 414 L104 389 C103 386 101 381 98 372 L98 372 L98 372 C96 366 94 359 91 350 C80 323 69 297 56 271 C48 257 40 243 28 231 C28 230 27 229 26 228 C21 224 15 219 10 221 C10 221 10 221 10 221 C9 221 9 221 9 221 C9 221 9 221 9 222 C9 222 9 222 8 222 C8 222 8 222 8 222 C8 222 8 222 8 223 C-6 237 24 319 29 333 C31 338 34 346 37 355 C37 355 37 355 37 355 C60 414 16 414 16 414 L7 389 C6 386 4 381 1 372 L1 372 L1 372 C-1 365 -4 355 -8 342 C-16 318 -39 232 -9 213 C-9 213 -9 213 -9 213 C-9 213 -9 213 -9 213 C-7 212 -5 211 -3 210 C-2 210 -2 210 -1 210 C11 206 22 212 27 217 C39 226 50 242 56 252 C64 265 70 278 77 291 C71 260 70 225 88 213 C88 213 88 213 88 213 C88 213 88 213 89 213 C90 212 92 211 94 210 C95 210 95 210 96 210 C108 206 119 212 124 217 C136 226 147 242 153 252 C175 289 191 330 207 370 L207 370 L207 370 Z " />
<glyph glyph-name="v" unicode="v" horiz-adv-x="181" d="M184 378 C175 362 165 347 156 332 C147 317 137 302 127 288 C117 276 106 263 92 255 C91 255 89 254 88 253 C129 308 158 396 134 405 C99 419 59 330 61 268 C61 265 61 262 62 259 C47 234 33 215 26 215 C9 213 26 306 38 364 C38 364 38 364 38 364 C44 390 21 402 9 405 C9 405 -37 208 25 208 C37 208 49 214 61 224 C61 224 61 224 61 224 C63 226 65 227 67 229 C71 233 75 237 78 240 C81 241 84 242 87 243 C102 249 115 260 125 272 C138 287 148 303 158 319 C170 337 181 355 191 373 C194 378 187 383 184 378 L184 378 Z M71 275 C71 275 71 298 77 317 C78 319 79 321 80 323 C80 324 80 325 81 326 C95 361 116 392 119 388 C123 383 97 323 71 275 L71 275 Z " />
<glyph glyph-name="w" unicode="w" horiz-adv-x="265" d="M270 386 C261 371 251 355 242 340 C233 325 223 310 213 296 C203 284 192 272 178 264 C177 263 175 262 174 261 C215 317 244 404 220 414 C185 427 145 338 147 277 C147 273 147 270 148 267 C142 253 131 240 124 232 C124 232 124 232 124 232 C122 230 120 228 118 226 C118 226 118 226 118 226 L118 226 C114 222 111 220 108 221 C108 221 108 221 107 221 C107 221 107 221 107 221 C107 221 107 221 107 221 C104 222 102 225 101 231 C97 256 121 321 125 333 C127 338 131 346 134 355 C134 355 134 355 134 355 C156 414 112 414 112 414 L104 389 C102 386 100 381 98 372 L98 372 L98 372 C96 366 93 359 91 350 C80 323 69 297 55 271 C47 257 39 243 28 231 C27 230 26 229 25 228 C21 224 14 219 9 221 C9 221 9 221 9 221 C9 221 9 221 9 221 C8 221 8 221 8 222 C8 222 8 222 8 222 C8 222 7 222 7 222 C7 222 7 222 7 223 C-7 237 23 319 28 333 C30 338 34 346 36 355 C36 355 36 355 36 355 C59 414 15 414 15 414 L7 389 C5 386 3 381 1 372 L1 372 L1 372 C-2 365 -5 355 -9 342 C-16 318 -39 232 -10 213 C-10 213 -9 213 -9 213 C-9 213 -9 213 -9 213 C-7 212 -5 211 -4 210 C-3 210 -2 210 -2 210 C11 206 21 212 27 217 C39 226 49 242 55 252 C63 265 70 278 76 291 C71 260 70 225 87 213 C87 213 88 213 88 213 C88 213 88 213 88 213 C90 212 92 211 94 210 C94 210 95 210 95 210 C98 209 100 209 103 209 C103 209 103 209 103 209 C103 209 103 209 104 209 C104 209 104 209 104 209 C132 210 164 249 164 249 C167 249 170 250 173 251 C188 257 201 269 211 281 C224 295 234 311 244 327 C256 345 267 363 277 382 C280 387 273 391 270 386 L270 386 Z M157 283 C157 283 157 307 163 325 C164 327 165 329 166 331 C166 332 166 333 167 334 C181 370 202 400 205 397 C209 391 183 331 157 283 L157 283 Z " />
<glyph glyph-name="x" unicode="x" horiz-adv-x="189" d="M192 378 C178 351 162 326 145 301 C138 289 123 269 110 256 C103 250 97 247 94 247 L94 247 C80 247 83 268 90 289 C102 324 115 348 123 360 C142 387 152 394 157 396 C157 396 159 397 160 396 C161 395 161 394 161 391 C160 386 169 383 170 389 C171 397 167 405 159 405 C159 405 131 410 88 346 C98 416 47 413 47 413 L47 413 C43 413 39 413 35 412 C30 411 24 408 17 404 C17 404 16 403 16 403 L16 403 C12 401 9 398 5 394 C-9 380 -9 369 -8 364 C-8 362 -8 361 -7 360 C-7 360 -7 360 -7 359 C-7 359 -7 359 -7 359 C-7 359 -7 359 -7 359 L-7 359 C-5 356 0 353 7 351 C7 351 12 371 22 386 C23 388 39 410 60 401 C61 401 61 401 62 400 C90 384 63 327 63 327 C35 259 13 237 0 230 C-3 228 -6 228 -9 227 C-28 225 -30 252 -31 264 C-31 265 -31 267 -31 268 C-31 274 -40 274 -40 268 C-40 256 -39 240 -31 229 L-31 229 C-31 229 -31 229 -31 229 C-30 227 -28 225 -25 223 C-25 223 -25 223 -25 222 C-23 221 -21 220 -18 219 C-1 212 27 219 53 255 C55 258 57 262 58 266 C58 266 54 250 62 240 L62 240 C62 240 62 240 62 240 C62 239 63 239 63 239 L63 239 L63 239 C95 201 159 306 159 306 L159 306 C174 328 187 350 200 373 C202 379 194 383 192 378 L192 378 Z " />
<glyph glyph-name="y" unicode="y" horiz-adv-x="169" d="M175 378 C170 364 162 352 153 340 C144 328 135 317 126 305 C121 299 115 293 110 288 C111 289 111 291 111 292 C114 299 116 305 119 312 C120 314 120 316 121 318 C124 325 126 332 129 339 C131 345 134 352 136 359 C136 360 137 361 138 363 C153 414 114 414 114 414 L105 389 C104 386 102 381 99 372 C97 366 95 359 92 350 C81 323 70 297 56 271 C48 257 40 243 29 231 C28 230 27 229 26 228 C22 224 15 219 10 221 C10 221 10 221 10 221 C10 221 10 221 10 221 C10 221 9 221 9 222 C9 222 9 222 9 222 C9 222 9 222 8 222 C8 222 8 222 8 223 C-6 237 24 319 30 333 C31 338 35 346 38 355 C60 414 17 414 17 414 L8 389 C6 386 5 381 2 372 C-1 365 -4 355 -8 342 C-15 318 -38 232 -9 213 C-9 213 -8 213 -8 213 C-8 213 -8 213 -8 213 C-6 212 -4 211 -2 210 C-2 210 -1 210 -1 210 C2 209 4 209 6 209 C-13 195 -31 180 -48 164 C-77 135 -103 99 -114 59 C-121 34 -121 -2 -94 -13 C-89 -15 -82 -16 -72 -14 C-68 -13 -65 -12 -61 -11 C-61 -11 -61 -11 -61 -11 C4 14 56 129 90 227 C94 237 99 253 104 269 C114 279 124 289 133 300 C152 323 173 348 184 375 C186 381 177 383 175 378 L175 378 Z M-58 2 C-64 -2 -74 -8 -84 -7 C-124 1 -107 58 -95 83 C-73 131 -35 168 7 199 C23 210 40 221 56 232 C27 142 -16 36 -58 2 L-58 2 Z M65 260 L65 260 C64 255 62 250 61 245 C55 242 50 239 45 235 C50 241 54 247 56 252 C62 261 67 271 72 280 C69 272 67 265 65 260 L65 260 Z " />
<glyph glyph-name="z" unicode="z" horiz-adv-x="137" d="M143 381 C138 367 129 355 121 343 C112 331 103 320 93 308 C90 305 87 301 84 297 L84 297 C84 297 83 296 82 296 C82 295 81 294 81 294 C80 294 80 294 80 293 C69 280 45 261 45 261 C45 264 42 273 42 274 C39 285 35 290 35 290 C64 292 81 325 88 344 C88 344 88 345 88 345 C89 347 89 348 90 349 C93 359 94 372 94 373 C94 377 94 380 94 380 L94 380 C91 428 51 426 51 426 L51 426 C47 426 43 425 39 425 C35 423 28 421 22 417 C21 416 20 416 20 416 L20 416 C17 414 13 410 9 407 C-4 392 -5 382 -4 376 C-4 375 -3 374 -3 373 C-3 373 -3 372 -2 372 C-2 372 -2 372 -2 372 C-2 372 -2 372 -2 372 L-2 372 C0 369 4 366 12 364 C12 364 17 384 27 399 C28 401 42 421 61 415 L61 415 C76 413 95 386 73 338 C58 303 38 297 29 297 C29 297 29 297 29 297 C29 297 29 297 28 297 C28 297 28 297 28 297 C23 297 23 294 23 294 C23 292 23 291 27 284 C35 273 31 257 29 251 C29 250 29 249 28 248 C-10 224 -48 199 -80 167 C-109 138 -136 102 -146 62 C-153 37 -153 1 -126 -10 C-121 -12 -114 -13 -104 -11 C-101 -10 -97 -9 -93 -8 C-93 -8 -93 -8 -93 -8 C-49 9 -11 68 20 135 C21 137 22 139 23 140 C24 143 25 146 27 149 C44 193 48 226 46 249 C51 253 56 258 61 262 C64 265 68 268 71 271 C71 271 71 271 71 271 C75 275 79 279 81 281 C88 288 94 296 101 303 C120 326 140 351 152 378 C154 384 145 386 143 381 L143 381 Z M-90 5 C-96 1 -106 -5 -116 -4 C-157 4 -139 61 -128 86 C-105 134 -67 171 -25 202 C-9 213 7 224 24 235 C-6 145 -48 39 -90 5 L-90 5 Z " />
<glyph glyph-name="braceleft" unicode="&#x7b;" horiz-adv-x="145" d="M149 592 C149 597 144 600 142 600 C137 603 133 603 128 603 C113 603 99 595 88 581 C81 571 75 559 70 545 C62 527 60 507 56 487 C50 450 42 413 24 382 C19 373 12 364 5 358 C2 354 0 353 -1 352 C-2 351 -2 345 -1 344 C5 342 13 338 18 327 C21 318 20 307 19 297 C15 282 10 269 6 255 C1 239 -3 223 -10 207 C-22 175 -36 141 -45 106 C-50 77 -52 43 -37 22 C-27 6 -9 -1 4 1 C7 1 8 9 5 9 C5 9 5 9 5 9 C4 9 3 9 3 9 C3 9 3 9 3 9 C3 9 3 9 3 9 C2 9 2 9 2 9 C1 9 0 10 -2 11 C-4 11 -4 11 -6 12 C-14 19 -17 33 -19 48 C-19 61 -17 75 -14 88 C-11 109 -6 130 1 149 C6 173 13 197 20 221 C24 238 28 256 30 274 C33 300 31 333 15 345 C18 347 21 350 24 352 C40 365 52 385 63 406 C71 424 76 443 81 463 C88 486 92 511 100 534 C106 554 115 583 131 590 C133 592 135 592 137 592 C137 592 138 592 139 592 C139 592 140 592 140 592 C140 592 141 591 141 591 C142 591 142 591 143 590 C143 590 143 590 143 590 C143 590 143 590 144 590 C144 589 144 589 145 589 C146 587 147 588 148 589 C149 590 149 591 149 592 L149 592 Z " />
<glyph glyph-name="bar" unicode="&#x7c;" horiz-adv-x="150" d="M79 697 C77 697 75 697 73 697 C71 697 69 696 69 694 C69 694 69 693 69 693 C67 670 64 648 62 625 C57 571 52 517 47 463 C41 397 34 332 28 266 C23 210 17 153 12 97 C10 70 7 43 4 16 C4 16 4 15 4 15 C4 12 7 10 9 10 C11 10 13 10 15 10 C18 10 20 12 20 15 C22 37 24 60 26 83 C31 137 36 191 41 245 C47 311 53 376 60 442 C65 498 70 554 75 611 C78 638 80 665 83 692 C83 692 83 693 83 693 C83 695 81 697 79 697 L79 697 Z " />
<glyph glyph-name="braceright" unicode="&#x7d;" horiz-adv-x="187" d="M74 351 C80 367 86 383 93 399 C106 432 119 465 125 501 C129 529 128 563 110 583 C96 599 75 605 58 602 C54 602 54 594 58 594 C61 595 66 593 71 591 C81 585 87 573 89 558 C91 546 90 532 89 519 C87 499 82 480 76 460 C69 436 61 412 57 389 C52 371 49 352 48 335 C47 308 53 274 72 261 C68 260 65 257 61 254 C45 242 32 222 22 200 C14 182 8 163 4 144 C-2 121 -4 96 -10 73 C-15 58 -19 43 -27 31 C-31 24 -37 18 -42 15 C-45 13 -47 12 -49 12 C-51 12 -51 12 -53 12 C-54 12 -53 12 -55 13 C-56 13 -56 13 -57 14 C-57 14 -58 14 -58 14 C-58 15 -59 15 -60 15 C-61 16 -62 16 -63 15 C-63 15 -64 13 -64 12 C-64 7 -59 5 -56 4 C-51 2 -45 1 -40 1 C-22 2 -6 11 6 25 C27 49 33 85 36 118 C39 155 47 193 63 223 C68 234 76 243 84 250 C86 251 87 252 89 253 C89 254 89 254 90 254 C90 254 91 254 91 254 C92 255 93 255 93 256 C96 257 97 263 93 263 C84 265 73 269 67 279 C62 288 62 299 63 309 C65 323 69 337 74 351 L74 351 Z " />
<glyph glyph-name="asciitilde" unicode="&#x7e;" horiz-adv-x="254" d="M181 355 C175 353 168 351 161 350 C151 348 141 348 132 349 C127 350 122 352 117 354 C113 357 110 360 105 362 C91 370 72 367 56 364 C46 362 36 358 26 354 C25 354 24 353 24 352 C19 347 18 335 27 333 C32 331 35 334 39 336 C54 345 72 355 90 351 C95 349 99 347 103 344 C108 340 114 338 119 336 C130 332 141 332 152 333 C161 333 170 335 179 339 C183 340 192 344 193 350 C194 357 186 356 181 355 L181 355 Z " />
</font>
</svg>
