<?xml version="1.0" encoding="UTF-8"?>
<svg xmlns="http://www.w3.org/2000/svg" xmlns:xlink="http://www.w3.org/1999/xlink" version="1.2" >
<font id="Red Hair Sensual">
<font-face  font-family="Red Hair Sensual" units-per-em="1000" ascent="750" descent="-250" font-style="normal" font-weight="400" font-stretch="normal" cap-height="700" x-height="500" underline-position="-75" underline-thickness="50" />
<missing-glyph  horiz-adv-x="99" d="" />
<glyph glyph-name="NULL" d="" />
<glyph glyph-name="CR" unicode="&#xd;" horiz-adv-x="99" d="" />
<glyph glyph-name="space" unicode="&#x20;" horiz-adv-x="99" d="" />
<glyph glyph-name="exclam" unicode="&#x21;" horiz-adv-x="81" d="M33 -52 C38 -54 39 -50 40 -46 C41 -42 41 -32 41 -27 C40 72 45 171 47 270 C50 370 52 470 56 570 C57 582 62 673 62 699 C62 701 57 704 53 701 C49 696 44 562 44 551 C40 450 38 349 35 248 C34 198 33 147 32 96 C32 58 30 18 30 -20 C30 -31 30 -51 33 -52 L33 -52 Z M48 -168 C51 -164 52 -154 48 -151 C45 -147 40 -148 38 -150 C32 -153 31 -164 35 -169 C39 -173 45 -172 48 -168 L48 -168 Z " />
<glyph glyph-name="quotedbl" unicode="&#x22;" horiz-adv-x="119" d="M68 697 C66 694 65 682 64 670 C64 661 62 645 68 644 C74 644 75 646 76 652 C77 660 77 668 77 673 C78 683 78 685 78 692 C77 698 74 699 68 697 L68 697 Z M47 693 C41 693 40 688 40 679 C40 675 40 660 40 656 C41 653 40 642 46 642 C53 642 51 647 52 653 C52 658 53 678 53 685 C53 688 52 693 47 693 L47 693 Z " />
<glyph glyph-name="numbersign" unicode="&#x23;" horiz-adv-x="237" d="M96 284 C86 283 76 281 67 280 C60 279 43 278 42 270 C41 268 41 264 43 263 C44 263 48 265 49 265 C54 266 60 268 65 269 C75 271 85 273 95 274 C95 260 92 245 91 230 C91 226 88 217 92 215 C95 213 97 216 98 218 C99 220 99 223 99 225 C100 234 104 263 106 276 C111 277 118 278 122 278 C129 279 136 280 143 281 C142 261 141 241 141 222 C140 218 140 209 147 210 C151 211 149 217 149 221 C149 225 150 230 150 234 C151 242 152 267 153 282 C164 283 181 284 184 284 C187 284 192 283 195 282 C198 281 201 285 200 288 C198 295 164 292 154 291 C155 301 155 308 156 318 C165 318 177 321 187 319 C191 318 192 319 193 320 C194 321 196 323 196 324 C197 327 193 328 186 329 C176 330 166 328 156 328 C157 341 157 339 158 355 C159 367 159 373 159 377 C159 380 153 380 151 378 C149 377 149 372 149 370 C148 357 148 341 146 327 C133 324 123 325 111 323 C113 338 114 346 115 358 C115 363 117 373 116 375 C114 379 108 378 106 373 C103 355 103 341 101 322 C92 321 61 319 57 319 C54 317 54 309 57 307 C60 305 67 307 70 307 C80 308 90 309 100 311 C99 302 97 293 96 284 L96 284 Z M144 290 C132 289 119 287 106 286 C107 295 108 306 110 312 C116 314 138 315 146 317 C145 308 145 299 144 290 L144 290 Z " />
<glyph glyph-name="dollar" unicode="&#x24;" horiz-adv-x="195" d="M24 -16 C30 -18 36 -9 39 -5 C43 0 47 7 51 13 C76 54 98 93 120 136 C143 180 169 235 148 285 C138 307 115 333 90 358 C94 401 102 502 111 559 C113 561 125 564 130 565 C142 567 155 566 163 557 C176 538 163 506 156 484 C153 472 145 449 151 448 C154 447 156 449 158 451 C159 452 161 460 162 463 C165 471 167 479 170 487 C175 509 191 559 158 573 C143 579 128 575 113 571 C114 580 115 589 117 595 C118 597 120 600 120 602 C120 604 115 606 112 605 C108 603 104 586 103 581 C102 576 101 572 100 565 C96 561 86 557 77 548 C50 524 29 487 26 450 C25 424 35 397 55 377 C62 369 71 358 78 351 C75 327 67 200 64 150 C64 140 62 123 64 121 C68 121 71 122 72 125 C73 128 73 136 73 139 C76 171 83 308 88 343 C99 334 109 322 117 311 C125 299 132 287 135 273 C142 247 135 219 127 195 C118 169 106 145 94 121 C78 86 58 49 37 16 C34 11 31 5 27 0 C26 -2 24 -4 23 -7 C21 -10 22 -15 24 -16 L24 -16 Z M98 551 C90 490 85 429 79 367 C66 381 53 395 44 411 C35 428 35 447 39 465 C47 499 69 531 98 551 L98 551 Z " />
<glyph glyph-name="percent" unicode="&#x25;" horiz-adv-x="192" d="M110 439 C113 440 120 440 124 441 C127 441 160 447 163 441 C167 434 157 418 154 411 C144 386 132 361 119 338 C106 313 94 288 82 263 C65 228 49 193 32 151 C30 144 30 136 32 133 C31 131 28 130 27 128 C26 126 28 122 33 123 C41 128 56 147 66 159 C80 175 92 190 106 206 C106 201 109 195 114 194 C130 190 149 207 155 217 C162 227 161 245 153 251 C150 254 142 256 138 253 C134 251 130 243 136 240 C139 239 143 244 146 242 C150 239 150 235 149 230 C147 223 142 215 137 210 C132 204 121 199 116 203 C111 207 115 217 119 223 C121 226 125 231 126 234 C127 239 121 239 118 239 C113 239 108 226 105 223 C90 201 73 180 56 160 C51 154 46 147 40 142 C38 143 46 164 53 177 C72 212 87 249 105 285 C126 328 149 369 167 413 C170 422 176 433 174 443 C172 452 160 453 153 453 C141 453 130 450 118 449 C113 448 107 449 101 450 C98 450 96 451 95 447 C95 441 97 437 98 432 C99 428 97 420 94 417 C90 412 74 403 69 412 C66 417 64 422 68 430 C70 434 72 436 78 436 C82 438 86 442 81 444 C77 446 74 446 68 443 C58 438 57 425 58 417 C59 409 67 399 78 399 C94 400 114 420 110 439 L110 439 Z " />
<glyph glyph-name="ampersand" unicode="&#x26;" horiz-adv-x="213" d="M124 -78 C127 -77 131 -76 132 -73 C133 -69 130 -65 129 -61 C122 1 136 75 143 137 C145 154 146 171 147 188 C147 202 147 220 131 224 C113 230 75 210 62 218 C49 226 77 271 82 280 C86 287 90 295 88 303 C86 309 79 313 74 316 C62 324 48 331 49 347 C49 375 90 401 111 415 C125 424 139 432 153 440 C158 444 166 445 166 452 C166 456 164 460 164 464 C164 485 169 504 173 526 C184 571 198 617 204 663 C204 667 202 668 198 669 C194 670 193 669 190 665 C185 657 174 641 180 638 C185 635 188 645 191 649 C185 615 176 582 168 549 C161 523 152 479 155 462 C156 458 159 452 149 447 C139 441 95 416 81 405 C59 387 32 365 39 337 C43 323 56 314 68 306 C71 304 76 302 78 298 C80 293 68 277 65 272 C56 256 37 229 49 212 C61 196 93 211 110 214 C130 218 131 209 133 194 C134 164 129 134 127 105 C123 52 111 -7 118 -60 C119 -66 120 -79 124 -78 L124 -78 Z " />
<glyph glyph-name="quotesingle" unicode="&#x27;" horiz-adv-x="93" d="M57 694 C56 684 55 676 54 665 C54 655 52 643 55 640 C60 639 64 638 64 644 C65 651 66 658 66 665 C67 672 67 680 68 687 C68 689 68 690 68 692 C68 694 69 696 66 697 C64 698 57 698 57 694 L57 694 Z " />
<glyph glyph-name="parenleft" unicode="&#x28;" horiz-adv-x="236" d="M123 -194 C126 -194 138 -189 135 -184 C135 -183 129 -183 128 -183 C125 -181 124 -179 122 -176 C115 -164 111 -149 107 -135 C103 -121 99 -105 96 -90 C90 -60 84 -29 80 2 C76 33 72 64 70 95 C68 126 68 157 69 187 C71 249 78 310 88 370 C99 433 113 496 131 557 C140 587 150 616 161 645 C166 659 172 673 179 687 C181 691 182 692 185 695 C187 696 190 699 189 701 C188 704 177 705 174 704 C172 702 170 696 169 693 C167 690 166 686 165 683 C162 676 159 668 156 661 C150 647 145 632 139 617 C128 588 119 558 110 528 C93 468 80 407 69 345 C59 284 52 222 53 160 C53 97 61 35 71 -26 C76 -57 82 -89 90 -119 C94 -133 97 -148 103 -162 C107 -174 112 -187 123 -194 L123 -194 Z " />
<glyph glyph-name="parenright" unicode="&#x29;" horiz-adv-x="198" d="M43 -187 C49 -183 53 -180 55 -173 C58 -165 60 -158 63 -150 C67 -133 70 -116 74 -99 C80 -65 87 -30 93 4 C114 128 134 252 139 377 C142 440 141 504 130 566 C125 597 117 628 106 656 C100 671 93 685 85 699 C81 706 76 713 72 720 C70 722 69 725 66 727 C64 728 60 727 57 727 C57 724 57 720 59 716 C60 713 63 710 65 707 C69 700 72 693 76 686 C83 671 90 655 95 640 C107 608 113 575 118 542 C126 479 125 416 122 353 C118 292 111 231 103 170 C96 109 86 49 76 -12 C71 -42 66 -72 60 -103 C57 -117 54 -131 51 -145 C49 -152 48 -159 46 -166 C43 -174 41 -178 43 -187 L43 -187 Z " />
<glyph glyph-name="asterisk" unicode="&#x2a;" horiz-adv-x="192" d="M98 645 C82 623 63 605 45 584 C40 579 29 565 35 562 C38 560 45 571 50 576 C66 595 83 612 100 631 C99 613 97 595 98 576 C104 571 105 580 106 586 C106 604 109 621 110 639 C127 632 143 624 160 618 C164 617 169 615 173 618 C178 623 174 624 170 625 C153 631 134 639 117 647 C125 648 136 649 145 649 C151 649 165 650 170 649 C173 649 173 649 176 652 C179 658 156 657 153 657 C141 656 135 656 124 655 C134 670 141 673 154 689 C156 692 158 697 154 698 C145 700 140 689 133 682 C125 674 120 668 113 660 C113 670 114 675 115 684 C115 687 117 695 116 697 C114 699 110 699 108 699 C104 698 104 669 102 662 C102 662 74 685 71 686 C66 688 51 693 51 685 C51 680 56 680 59 679 C63 678 67 675 70 673 C78 667 85 661 92 655 C80 653 69 652 57 650 C50 649 36 650 37 641 C38 634 62 640 69 641 C80 643 88 644 98 645 L98 645 Z " />
<glyph glyph-name="plus" unicode="&#x2b;" horiz-adv-x="186" d="M99 307 C115 309 136 307 152 308 C157 309 161 309 161 313 C161 318 152 317 148 317 C142 317 106 318 100 318 C99 331 100 362 100 372 C100 378 100 386 99 392 C98 395 98 397 94 397 C91 397 89 395 89 391 C89 372 90 339 90 317 C78 316 59 317 48 317 C43 316 40 310 44 308 C47 306 76 307 90 307 C90 290 90 273 90 256 C90 251 90 243 93 243 C98 243 99 246 99 253 C99 277 100 290 99 307 L99 307 Z " />
<glyph glyph-name="comma" unicode="&#x2c;" horiz-adv-x="59" d="M30 241 C27 231 27 227 25 217 C25 211 23 204 23 199 C22 194 21 185 25 185 C32 184 33 190 35 196 C37 203 38 210 39 217 C40 224 42 231 43 238 C43 241 43 242 40 243 C37 244 33 245 30 241 L30 241 Z " />
<glyph glyph-name="hyphen" unicode="&#x2d;" horiz-adv-x="117" d="M21 294 C27 292 79 296 95 296 C101 297 104 296 104 302 C104 309 99 308 92 308 C81 308 48 306 22 306 C15 305 17 295 21 294 L21 294 Z " />
<glyph glyph-name="period" unicode="&#x2e;" horiz-adv-x="47" d="M17 204 C17 200 18 194 23 194 C30 193 34 201 34 206 C34 208 30 211 26 211 C24 211 19 211 17 204 L17 204 Z " />
<glyph glyph-name="slash" unicode="&#x2f;" horiz-adv-x="377" d="M23 -167 C31 -172 42 -150 46 -139 C122 57 272 442 354 643 C360 658 368 680 368 687 C368 694 363 695 358 693 C354 691 349 677 348 673 C338 643 81 -12 34 -127 C29 -140 16 -165 23 -167 L23 -167 Z " />
<glyph glyph-name="zero" unicode="0" horiz-adv-x="184" d="M92 396 C99 393 106 388 113 383 C127 374 137 361 144 345 C151 329 155 310 154 293 C151 260 130 222 99 209 C91 206 82 203 74 205 C67 208 61 214 57 221 C47 235 44 252 43 269 C41 287 42 305 45 323 C47 340 51 359 60 375 C61 377 64 382 66 383 C69 384 71 381 75 382 C82 385 84 392 75 395 C68 397 61 397 55 391 C49 385 42 368 39 360 C32 341 28 305 31 261 C33 230 45 185 85 192 C100 194 115 204 127 214 C139 224 148 238 155 252 C170 283 171 319 159 351 C155 359 146 375 127 388 C120 393 111 398 103 402 C101 403 95 405 93 404 C90 403 91 399 92 396 L92 396 Z " />
<glyph glyph-name="one" unicode="1" horiz-adv-x="121" d="M35 378 C37 377 42 383 44 384 C46 386 49 389 51 388 C55 387 53 381 54 378 C54 374 50 328 49 309 C47 276 46 242 49 208 C50 204 50 199 51 194 C52 192 52 188 55 188 C57 187 62 192 63 194 C65 197 63 199 62 202 C61 210 61 219 61 227 C61 235 62 243 62 251 C63 284 66 317 67 351 C67 359 67 367 67 375 C66 381 67 391 63 396 C60 398 56 399 53 399 C49 399 46 398 44 396 C41 393 38 391 36 388 C33 385 31 381 35 378 L35 378 Z " />
<glyph glyph-name="two" unicode="2" horiz-adv-x="176" d="M39 340 C41 339 44 341 46 343 C48 346 50 353 52 356 C56 361 60 367 67 369 C74 372 81 370 85 364 C90 357 89 347 87 339 C81 307 68 276 50 249 C46 242 39 234 36 227 C33 221 34 215 40 213 C44 212 49 213 53 214 C58 214 62 215 67 215 C96 219 126 216 142 212 C145 211 154 206 156 208 C162 214 153 219 148 220 C132 224 117 226 100 226 C91 226 79 226 70 225 C62 225 55 224 47 224 C52 234 59 242 65 251 C70 261 75 270 79 280 C88 300 95 320 98 341 C100 352 100 363 95 372 C91 380 81 382 72 382 C53 381 33 360 39 340 L39 340 Z " />
<glyph glyph-name="three" unicode="3" horiz-adv-x="137" d="M18 220 C15 218 16 214 19 212 C33 202 81 211 95 218 C117 230 131 256 118 279 C105 302 81 304 84 322 C85 328 88 334 90 340 C95 352 103 367 101 380 C99 393 82 393 73 389 C50 379 28 354 35 328 C36 325 40 327 41 329 C43 332 42 337 43 340 C44 346 47 351 50 356 C56 365 66 375 77 380 C84 383 89 381 90 377 C92 367 75 340 73 327 C71 317 71 306 80 299 C88 292 98 288 104 279 C120 259 107 236 86 227 C76 222 52 216 32 218 C27 219 21 222 18 220 L18 220 Z " />
<glyph glyph-name="four" unicode="4" horiz-adv-x="135" d="M100 377 C98 364 90 258 90 226 C90 213 89 200 92 187 C92 180 104 180 104 186 C103 201 102 244 103 259 C105 289 108 319 112 350 C113 364 116 379 116 393 C116 396 116 399 112 400 C111 401 106 402 104 402 C99 401 95 390 93 386 C86 374 78 362 70 350 C62 340 54 326 43 319 C37 315 31 314 28 321 C22 335 31 362 42 380 C45 385 49 389 53 394 C56 400 46 399 43 397 C37 392 24 371 21 359 C18 346 15 331 19 317 C24 302 43 308 46 311 C53 315 67 330 75 341 C84 353 92 365 100 377 L100 377 Z " />
<glyph glyph-name="five" unicode="5" horiz-adv-x="125" d="M28 317 C30 326 32 335 35 343 C36 348 38 352 40 357 C42 362 43 362 49 362 C57 363 66 364 75 365 C82 366 93 366 96 374 C98 379 85 379 81 379 C73 380 65 380 56 380 C49 380 38 378 32 373 C28 368 26 360 24 355 C21 346 18 337 17 328 C15 321 13 309 18 305 C23 302 30 305 33 307 C41 311 48 315 56 316 C70 319 82 311 87 298 C92 283 84 267 78 254 C71 239 64 224 57 210 C53 201 49 193 45 185 C43 182 42 179 39 175 C38 172 36 167 40 165 C45 162 52 176 57 185 C62 194 68 203 73 213 C82 231 92 248 97 268 C102 286 103 310 85 321 C67 333 46 324 28 317 L28 317 Z " />
<glyph glyph-name="six" unicode="6" horiz-adv-x="155" d="M64 225 C57 222 51 230 49 236 C45 243 44 251 43 259 C40 317 63 369 79 394 C80 396 85 400 84 402 C84 405 79 405 77 405 C71 404 68 397 65 393 C57 380 51 366 46 352 C36 324 28 293 28 263 C29 250 31 217 51 211 C65 207 84 213 107 246 C116 259 123 277 125 293 C127 304 125 312 119 314 C106 317 89 292 78 271 C71 255 67 239 64 225 L64 225 Z M78 232 C82 248 86 258 92 271 C95 278 112 305 116 304 C118 303 113 281 104 262 C100 256 88 240 78 232 L78 232 Z " />
<glyph glyph-name="seven" unicode="7" horiz-adv-x="172" d="M93 315 C98 330 103 346 107 362 C109 373 114 387 101 396 C93 402 73 400 60 398 C53 397 46 395 39 394 C36 394 29 393 27 392 C26 391 26 389 26 388 C27 383 27 382 32 383 C36 383 39 384 42 384 C49 385 55 386 61 387 C70 389 91 393 96 386 C99 381 95 370 94 366 C92 359 78 317 77 314 C74 313 42 310 36 308 C31 307 31 303 31 302 C32 298 35 299 39 299 C40 300 58 302 74 303 C66 279 57 255 50 230 C47 221 43 208 45 198 C47 194 52 196 55 201 C57 203 58 207 59 213 C59 218 61 224 63 228 C65 233 66 239 68 244 C72 255 81 279 89 301 C90 305 90 305 94 305 C105 306 122 308 133 309 C135 309 138 310 136 315 C136 318 128 317 125 317 C115 316 104 316 93 315 L93 315 Z " />
<glyph glyph-name="eight" unicode="8" horiz-adv-x="130" d="M74 305 C86 324 96 348 99 371 C101 382 100 394 94 404 C89 413 79 416 68 416 C50 415 35 393 31 376 C25 356 30 334 42 318 C44 315 45 313 47 312 C48 310 51 308 52 306 C53 303 49 297 47 295 C43 285 38 275 34 265 C18 230 13 212 16 197 C19 176 41 171 50 171 C68 169 88 181 98 197 C110 214 116 231 106 254 C101 268 87 289 74 305 L74 305 Z M61 297 C75 282 90 265 95 245 C98 228 90 207 78 195 C68 185 48 179 36 190 C21 202 32 226 38 240 C44 259 51 278 61 297 L61 297 Z M66 313 C55 327 41 342 42 362 C42 371 45 380 50 388 C54 394 60 402 68 404 C90 407 90 378 87 365 C83 347 76 329 66 313 L66 313 Z " />
<glyph glyph-name="nine" unicode="9" horiz-adv-x="153" d="M79 371 C84 371 86 379 84 383 C82 388 75 391 64 387 C49 381 36 362 30 347 C24 331 27 318 31 312 C40 298 56 303 66 310 C82 322 92 333 109 352 C111 354 113 357 116 356 C121 354 123 342 124 337 C129 306 119 272 107 253 C92 231 72 211 46 201 C44 200 42 197 43 193 C44 188 52 190 54 191 C63 194 69 198 76 202 C112 224 137 266 139 311 C140 323 135 362 119 366 C111 368 108 365 103 360 C93 349 83 337 72 327 C64 319 45 306 40 317 C34 330 45 349 51 358 C55 364 66 377 73 377 C76 377 76 371 79 371 L79 371 Z " />
<glyph glyph-name="colon" unicode="&#x3a;" horiz-adv-x="72" d="M40 315 C45 312 51 314 54 318 C57 321 55 329 52 331 C50 333 44 336 39 331 C36 328 35 318 40 315 L40 315 Z M42 271 C46 270 48 272 50 275 C51 276 53 282 49 284 C46 286 41 285 39 282 C38 279 38 273 42 271 L42 271 Z " />
<glyph glyph-name="semicolon" unicode="&#x3b;" horiz-adv-x="70" d="M31 280 C29 274 29 268 28 261 C26 252 26 244 30 242 C35 241 38 245 39 250 C41 257 42 271 43 280 C43 284 32 284 31 280 L31 280 Z M33 317 C38 314 44 317 47 320 C50 323 48 331 45 334 C43 336 37 338 32 334 C28 330 28 321 33 317 L33 317 Z " />
<glyph glyph-name="less" unicode="&#x3c;" horiz-adv-x="140" d="M113 219 C116 217 121 222 121 225 C122 229 119 231 115 234 C108 240 100 246 92 252 C79 263 71 268 59 281 C49 292 47 298 45 303 C48 309 55 314 59 318 C71 329 97 347 107 355 C108 356 110 366 102 365 C95 364 81 352 74 347 C61 338 43 323 36 315 C27 305 29 296 38 283 C47 271 61 258 73 249 C86 239 100 229 113 219 L113 219 Z " />
<glyph glyph-name="equal" unicode="&#x3d;" horiz-adv-x="133" d="M104 320 C103 324 88 322 81 322 C65 321 50 320 33 319 C31 319 20 320 20 315 C20 308 23 309 31 310 C50 310 68 312 87 312 C91 312 106 311 104 320 L104 320 Z M89 291 C89 296 70 295 65 295 C49 294 35 293 30 293 C29 293 20 294 20 287 C20 284 23 283 26 283 C29 283 38 284 40 284 C46 284 67 286 73 286 C81 286 89 285 89 291 L89 291 Z " />
<glyph glyph-name="greater" unicode="&#x3e;" horiz-adv-x="186" d="M47 216 C51 214 74 237 87 249 C99 260 113 272 124 285 C128 290 134 297 134 305 C134 311 130 317 125 321 C115 332 103 342 91 351 C85 355 79 359 72 362 C69 364 57 369 55 365 C54 364 54 359 55 357 C56 355 61 352 63 351 C69 347 75 343 81 339 C92 332 104 323 113 313 C115 311 120 306 120 303 C120 301 106 286 102 282 C91 271 80 260 69 250 C63 244 58 239 52 234 C46 228 42 218 47 216 L47 216 Z " />
<glyph glyph-name="question" unicode="&#x3f;" horiz-adv-x="309" d="M128 -55 C135 -57 138 -50 138 -42 C138 -33 138 -24 139 -15 C149 60 167 132 185 204 C212 313 250 418 277 530 C289 582 315 683 239 709 C209 719 178 712 149 700 C122 688 93 670 72 644 C57 626 45 605 45 578 C45 571 48 566 53 571 C58 576 57 587 60 594 C69 616 84 633 102 650 C124 670 150 686 178 693 C205 700 239 699 260 674 C293 634 260 521 243 467 C214 372 184 278 157 160 C145 106 132 51 126 -4 C125 -14 121 -54 128 -55 L128 -55 Z M120 -181 C125 -184 130 -181 132 -176 C135 -169 135 -162 129 -161 C125 -160 120 -161 118 -166 C116 -172 117 -179 120 -181 L120 -181 Z " />
<glyph glyph-name="at" unicode="&#x40;" horiz-adv-x="229" d="M137 318 C139 308 138 297 145 288 C161 268 188 299 194 313 C204 335 204 362 192 382 C179 402 149 409 126 408 C74 405 35 354 24 307 C19 282 19 253 28 229 C37 204 59 187 86 186 C111 185 135 195 154 214 C164 224 172 233 181 243 C186 249 191 254 195 259 C196 260 199 264 199 265 C198 268 193 270 189 266 C184 262 147 221 137 214 C90 176 38 199 33 264 C29 312 54 373 102 391 C123 400 153 400 172 386 C192 372 194 343 187 322 C184 311 177 301 168 295 C155 287 151 297 149 309 C148 316 148 323 148 329 C148 335 144 336 139 336 C134 336 128 323 125 319 C112 299 105 290 92 278 C90 276 80 268 78 275 C77 278 78 286 79 291 C82 303 88 315 95 324 C101 331 115 339 121 327 C124 324 128 330 128 334 C128 338 122 342 118 343 C109 345 101 343 93 337 C78 326 68 304 67 286 C66 278 68 267 75 264 C83 261 92 265 97 270 C113 283 125 301 137 318 L137 318 Z " />
<glyph glyph-name="A" unicode="A" horiz-adv-x="305" d="M213 218 C197 222 159 219 137 217 C108 215 82 212 55 209 C70 311 89 412 115 511 C127 563 142 616 168 672 C173 679 178 692 186 696 C195 699 202 687 204 681 C230 626 230 476 230 375 C230 281 227 187 226 92 C226 63 227 -67 228 -153 C228 -163 228 -184 232 -185 C239 -186 240 -181 240 -177 C240 -174 240 -170 240 -158 C243 -51 243 56 244 164 C245 268 249 373 247 481 C246 545 245 611 227 674 C222 694 210 713 188 713 C132 713 80 459 68 400 C53 335 44 272 34 206 C26 205 17 204 8 202 C-1 200 -13 201 -9 192 C-7 188 -4 189 -1 189 C11 190 22 194 33 194 C29 181 14 -92 20 -138 C21 -145 22 -155 26 -156 C30 -157 34 -154 34 -147 C34 -141 31 -135 31 -128 C31 -110 46 104 49 161 C50 176 51 184 53 197 C61 199 132 207 142 208 C165 210 187 212 204 211 C207 211 212 210 215 212 C216 213 217 217 213 218 L213 218 Z " />
<glyph glyph-name="B" unicode="B" horiz-adv-x="344" d="M365 623 C364 645 359 668 341 680 C323 694 296 698 275 694 C228 687 185 655 153 620 C135 602 119 579 105 557 C109 600 114 641 114 680 C114 684 111 687 110 687 C105 688 103 685 102 681 C99 659 98 634 95 611 C93 592 91 575 89 557 C88 548 87 540 87 531 C87 521 84 516 80 507 C66 476 57 443 50 407 C33 335 34 260 40 187 C43 150 50 113 54 77 C58 41 62 4 66 -32 C68 -41 75 -103 86 -101 C87 -101 91 -99 93 -97 C95 -95 93 -91 92 -87 C85 -52 87 -10 87 25 C85 98 87 170 90 243 C93 317 96 390 99 465 C100 474 100 482 101 491 C101 500 100 510 104 519 C110 535 120 551 128 564 C146 593 168 619 194 642 C220 663 251 683 286 683 C302 683 321 678 332 666 C343 656 349 640 350 625 C351 608 348 590 343 573 C338 556 332 539 325 523 C309 491 291 459 272 429 C253 399 236 368 219 336 C205 306 191 275 187 239 C185 222 186 205 192 189 C197 172 206 158 216 144 C235 115 255 87 265 53 C276 19 273 -14 258 -48 C245 -79 222 -108 194 -127 C166 -148 134 -165 100 -173 C85 -176 65 -180 48 -176 C34 -174 22 -162 17 -149 C7 -123 13 -75 26 -52 C28 -48 39 -44 36 -39 C31 -34 23 -41 19 -46 C-5 -77 -15 -155 22 -181 C51 -202 91 -197 122 -187 C186 -167 245 -122 273 -60 C288 -27 292 8 285 44 C278 77 260 108 241 137 C220 164 198 192 201 228 C204 263 223 295 240 326 C275 389 315 452 342 520 C354 553 366 589 365 623 L365 623 Z M71 78 C65 127 61 176 58 226 C54 276 57 328 63 377 C67 403 72 432 82 457 L71 78 Z " />
<glyph glyph-name="C" unicode="C" horiz-adv-x="350" d="M323 609 C315 682 256 750 180 688 C139 656 116 604 96 555 C75 505 59 453 46 400 C20 292 7 179 16 68 C20 15 30 -39 53 -88 C72 -130 106 -180 157 -185 C210 -190 248 -145 267 -102 C281 -71 292 -23 295 -3 C297 12 300 19 291 20 C285 21 284 7 283 -1 C276 -27 269 -54 259 -79 C250 -102 240 -127 221 -144 C203 -161 176 -173 152 -165 C128 -156 108 -139 94 -119 C63 -76 48 -21 42 30 C34 84 32 139 36 193 C44 303 62 413 99 516 C117 565 137 616 170 657 C184 674 203 694 227 699 C308 711 316 577 304 514 C300 487 293 461 288 434 C287 429 282 412 287 410 C296 407 299 424 300 427 C302 433 304 440 305 446 C320 498 328 556 323 609 L323 609 Z " />
<glyph glyph-name="D" unicode="D" horiz-adv-x="470" d="M326 5 C398 138 420 306 405 456 C399 518 387 587 349 641 C332 667 308 682 277 687 C245 691 218 679 191 662 C192 682 194 704 194 724 C194 734 192 736 187 736 C183 736 182 731 182 727 C182 709 180 693 179 673 C179 667 178 660 177 654 C157 637 126 600 121 593 C87 547 63 493 49 437 C34 378 26 317 24 257 C23 196 25 134 39 75 C46 38 87 -56 128 -53 C139 -52 148 -46 149 -36 C150 -28 148 -19 148 -11 C148 -4 148 4 148 10 C148 101 150 193 158 284 C164 345 170 406 174 468 C179 526 183 568 187 628 C187 634 187 639 192 643 C211 661 239 673 265 673 C291 672 314 655 330 635 C364 592 376 529 384 469 C390 410 389 349 384 290 C373 173 340 60 273 -37 C242 -83 200 -123 147 -144 C121 -155 92 -158 64 -153 C51 -150 55 -147 51 -143 C50 -142 47 -140 43 -142 C40 -143 39 -148 40 -152 C41 -159 55 -168 64 -170 C120 -181 174 -163 222 -125 C266 -91 299 -45 326 5 L326 5 Z M137 -38 C132 -40 119 -37 113 -29 C81 -1 67 44 57 85 C46 129 44 176 44 221 C45 313 57 408 90 494 C110 544 137 591 174 629 C170 593 165 557 162 521 C154 429 143 338 138 245 C134 174 135 102 135 30 C135 8 137 -15 137 -38 L137 -38 Z " />
<glyph glyph-name="E" unicode="E" horiz-adv-x="365" d="M58 240 C64 292 71 343 77 393 C88 482 98 565 117 670 C130 674 170 682 173 683 C214 690 255 697 300 699 C311 699 336 699 343 695 C346 693 346 689 348 688 C352 686 354 691 355 695 C356 700 350 703 348 704 C344 706 328 709 317 709 C296 709 274 707 252 704 C208 700 163 692 119 683 C121 690 120 693 113 692 C107 691 106 685 105 680 C105 680 26 656 15 650 C11 648 7 647 7 642 C7 639 9 635 11 636 C25 642 91 665 104 668 C97 628 90 589 85 550 C74 479 64 408 56 336 C52 300 48 275 44 237 C31 231 27 231 16 227 C10 225 5 223 1 218 C-1 215 3 211 5 211 C8 211 17 215 24 217 C33 220 34 220 43 223 C41 208 40 194 40 180 C35 119 33 59 40 1 C47 -52 65 -110 111 -137 C160 -167 223 -151 279 -142 C299 -139 323 -134 344 -129 C355 -126 356 -126 362 -124 C364 -122 364 -121 364 -119 C363 -117 356 -119 354 -119 C333 -122 316 -126 295 -130 C267 -135 239 -140 212 -142 C185 -144 156 -145 132 -133 C82 -110 62 -54 55 -1 C47 55 49 115 53 172 C54 191 56 210 58 228 C70 231 83 234 85 235 C113 244 142 251 171 259 C200 266 229 274 258 280 C259 280 275 283 274 287 C273 291 267 290 265 290 C251 288 237 284 224 281 C169 268 113 256 58 240 L58 240 Z " />
<glyph glyph-name="F" unicode="F" horiz-adv-x="404" d="M406 697 C375 697 344 698 314 696 C259 694 205 687 152 679 C125 675 98 670 71 664 C58 663 17 654 11 652 C7 651 8 646 8 645 C9 642 9 640 23 644 C30 645 71 653 85 655 C113 660 141 664 169 668 C162 623 157 581 151 538 C141 459 134 387 128 307 C125 278 123 240 120 211 C113 209 59 196 40 191 C30 188 -3 182 -21 176 C-32 173 -23 165 -20 165 C-18 165 7 171 14 173 C25 176 32 178 45 181 C69 188 94 193 120 199 C119 176 110 -23 109 -68 C109 -88 108 -149 109 -158 C109 -167 109 -180 112 -183 C116 -186 123 -180 122 -175 C121 -167 122 -110 122 -91 C124 -16 128 61 134 137 C136 157 137 203 137 203 C179 211 275 228 303 226 C309 226 321 225 322 226 C324 226 326 227 327 228 C333 235 316 236 313 236 C295 236 271 235 252 233 C214 229 177 222 139 215 C142 276 148 336 153 396 C158 450 163 503 169 555 C173 581 181 647 181 655 C182 658 182 670 182 670 C199 673 218 675 225 675 C277 682 329 684 382 685 C406 686 431 686 456 684 C470 683 483 682 496 680 C503 679 510 678 516 675 C519 673 521 669 524 669 C528 668 531 671 530 677 C530 682 524 685 520 686 C509 690 496 691 484 693 C458 696 431 695 406 697 L406 697 Z " />
<glyph glyph-name="G" unicode="G" horiz-adv-x="385" d="M315 15 C298 -13 278 -42 257 -67 C245 -82 194 -139 147 -129 C69 -112 45 -10 36 37 C19 129 34 229 53 328 C76 435 122 583 189 671 C202 690 221 707 245 710 C299 718 314 647 317 610 C320 571 313 535 304 497 C302 488 295 471 302 470 C306 469 308 470 312 478 C314 485 316 490 318 497 C334 545 340 600 328 650 C316 695 281 745 222 718 C154 686 99 549 70 464 C36 369 12 239 8 156 C6 105 6 5 47 -68 C68 -107 91 -139 147 -147 C214 -156 266 -86 280 -66 C288 -54 312 -22 325 3 C331 -20 329 -44 328 -67 C327 -95 322 -128 326 -129 C328 -131 332 -131 334 -128 C336 -125 338 -118 338 -114 C340 -98 345 -61 345 -31 C344 -15 344 3 336 17 C329 30 313 34 299 35 C269 38 236 24 209 11 C201 8 180 -3 179 -5 C177 -9 180 -18 189 -13 C192 -11 215 -1 222 3 C238 9 253 15 270 18 C283 21 304 26 315 15 L315 15 Z " />
<glyph glyph-name="H" unicode="H" horiz-adv-x="429" d="M416 692 C412 696 406 697 401 693 C398 689 393 680 391 675 C384 654 382 632 376 612 C370 592 353 572 342 556 C307 508 267 464 226 422 C213 409 179 372 154 347 C153 363 161 517 164 552 C167 593 171 643 174 688 C174 692 177 697 172 699 C168 700 163 700 162 695 C156 665 151 600 149 566 C147 532 145 498 143 463 C141 417 139 374 136 327 C132 324 128 320 124 315 C85 276 52 242 23 205 C4 180 -15 152 -17 121 C-18 105 -13 92 -4 79 C5 67 19 56 31 48 C58 31 85 14 105 -11 C109 -16 113 -22 116 -29 C120 -35 120 -42 120 -50 C120 -60 117 -87 131 -87 C148 -87 147 -68 143 -54 C142 -45 138 -38 136 -31 C134 -24 136 -15 136 -8 C138 60 143 129 146 197 C147 240 150 274 153 318 C173 348 286 458 338 529 C348 542 358 556 367 570 C364 531 361 525 358 491 C354 463 351 437 349 410 C345 354 339 300 337 244 C332 136 339 27 347 -81 C349 -108 351 -135 357 -162 C359 -167 362 -180 367 -180 C369 -180 377 -179 375 -171 C370 -161 368 -150 367 -145 C359 -90 357 -34 355 20 C353 75 352 129 354 185 C356 238 360 292 364 347 C367 401 372 455 379 509 C382 536 386 562 390 588 C393 600 395 613 400 624 C406 636 412 647 415 660 C417 665 423 689 416 692 L416 692 Z M124 146 C121 97 121 47 119 -2 C102 17 83 34 62 49 C41 66 19 76 7 102 C-2 124 9 149 21 169 C34 192 52 213 69 233 C91 257 111 280 134 303 C131 259 126 197 124 146 L124 146 Z " />
<glyph glyph-name="I" unicode="I" horiz-adv-x="100" d="M44 -197 C42 -186 40 -169 40 -156 C45 32 61 409 62 654 C62 669 63 682 63 696 C63 700 60 702 54 702 C51 701 51 697 51 694 C51 686 51 682 50 674 C49 620 29 8 28 -145 C28 -166 28 -188 31 -200 C31 -201 34 -206 39 -205 C42 -204 45 -201 44 -197 L44 -197 Z " />
<glyph glyph-name="J" unicode="J" horiz-adv-x="450" d="M370 140 C395 242 394 354 357 465 C344 506 325 546 299 580 C250 649 171 701 86 682 C50 674 8 650 -5 612 C-8 601 -8 590 -6 578 C-4 572 -1 572 1 574 C5 576 5 579 4 583 C0 603 11 622 24 636 C51 666 94 678 132 674 C173 670 211 649 242 621 C305 563 343 476 360 391 C377 302 373 206 346 119 C321 37 277 -43 214 -101 C172 -142 109 -181 47 -175 C-24 -169 -47 -89 -28 -26 C-16 14 8 49 39 77 C97 130 180 145 244 145 C250 145 274 128 274 145 C274 149 270 152 266 153 C248 161 225 161 205 159 C146 155 83 138 33 95 C3 69 -24 36 -40 -2 C-55 -40 -59 -87 -44 -126 C-29 -166 7 -192 47 -195 C163 -202 273 -87 325 17 C344 56 360 97 370 140 L370 140 Z " />
<glyph glyph-name="K" unicode="K" horiz-adv-x="307" d="M94 -182 C98 -183 101 -182 103 -180 C105 -178 105 -173 105 -170 C105 -162 105 -156 105 -144 C120 -145 133 -146 148 -147 C200 -152 250 -154 307 -153 C312 -153 320 -154 320 -151 C320 -144 317 -144 313 -144 C254 -141 206 -140 154 -135 C145 -134 118 -132 106 -129 C106 -83 108 -40 111 6 C115 69 118 134 122 197 C123 235 124 275 127 315 C174 389 226 457 283 528 C331 586 386 659 441 709 C442 710 447 715 442 720 C439 723 428 713 426 711 C360 647 297 565 239 494 C209 457 180 420 153 380 C147 374 135 357 128 348 C130 406 131 465 133 523 C134 570 137 618 137 665 C137 687 138 697 137 718 C137 725 134 725 131 725 C127 725 127 724 127 716 C127 699 126 679 126 665 C125 617 123 570 122 523 C118 457 117 393 112 325 C99 304 81 274 68 253 C44 214 21 172 4 128 C-20 71 -46 -7 -20 -68 C-4 -106 31 -126 68 -136 C74 -138 84 -140 92 -142 C91 -159 91 -181 94 -182 L94 -182 Z M111 292 C109 266 108 231 106 200 C103 145 100 90 99 35 C96 -19 95 -73 92 -127 C61 -121 27 -108 7 -81 C-34 -29 -12 49 12 108 C37 172 73 237 111 292 L111 292 Z " />
<glyph glyph-name="L" unicode="L" horiz-adv-x="239" d="M79 716 C78 701 76 685 74 667 C57 516 35 367 22 215 C15 140 10 64 17 -12 C20 -48 24 -86 38 -120 C43 -135 51 -151 62 -161 C74 -171 89 -174 104 -172 C137 -168 167 -149 195 -132 C217 -119 241 -105 263 -90 C265 -88 269 -86 269 -82 C269 -80 266 -76 261 -79 C242 -87 195 -117 173 -127 C157 -135 107 -165 82 -152 C68 -146 59 -129 53 -114 C38 -75 34 14 34 50 C32 126 39 202 45 278 C51 354 60 430 69 506 C78 572 85 640 91 709 C91 712 92 716 90 718 C88 720 80 723 79 716 L79 716 Z " />
<glyph glyph-name="M" unicode="M" horiz-adv-x="589" d="M30 687 C29 680 31 675 31 669 C30 662 29 656 29 651 C21 541 23 432 20 322 C19 212 15 102 18 -8 C19 -35 20 -62 23 -89 C24 -102 26 -116 28 -128 C29 -135 31 -161 40 -159 C48 -158 54 -149 57 -143 C61 -130 62 -117 64 -104 C67 -78 70 -52 73 -26 C82 82 92 190 108 295 C116 348 124 401 133 454 C138 481 143 506 147 533 C152 558 154 586 163 610 C169 591 169 569 171 550 C171 529 173 506 174 485 C177 443 181 401 185 359 C190 321 194 285 200 248 C207 214 216 175 234 144 C242 131 252 118 268 116 C284 114 299 125 310 136 C334 158 350 192 364 223 C394 290 416 362 437 433 C448 470 459 506 470 542 C475 560 481 579 487 598 C492 613 496 631 505 645 C511 634 513 620 515 607 C517 594 519 580 520 567 C529 450 516 332 510 215 C506 155 504 95 503 36 C503 6 503 -24 503 -52 C503 -68 503 -82 504 -98 C504 -105 504 -113 505 -121 C506 -126 506 -134 509 -139 C510 -143 511 -142 514 -140 C516 -139 517 -138 518 -137 C521 -133 520 -130 519 -125 C517 -111 518 -96 517 -81 C517 -52 518 -22 519 9 C520 66 524 123 528 181 C535 300 544 418 539 537 C537 566 535 596 530 624 C529 634 527 654 517 659 C513 661 505 664 501 662 C496 661 493 653 492 650 C485 637 481 624 476 610 C472 597 467 582 463 569 C454 541 445 514 438 486 C422 431 406 374 386 320 C376 292 366 264 355 237 C345 212 333 187 317 165 C310 155 302 145 291 139 C286 136 280 133 275 133 C269 133 265 137 261 141 C243 159 234 189 228 214 C214 269 208 327 202 384 C196 443 191 502 187 560 C185 575 184 589 182 604 C181 611 180 619 178 626 C176 631 172 632 167 633 C161 634 158 635 155 629 C152 623 151 616 150 609 C146 595 143 579 141 565 C118 449 96 332 83 215 C76 156 71 97 66 39 C63 10 60 -20 58 -50 C56 -64 55 -78 53 -93 C52 -100 51 -107 49 -115 C48 -120 48 -127 45 -132 C39 -103 39 -75 38 -45 C37 -14 36 17 36 47 C36 156 39 264 39 373 C39 428 39 482 39 537 C39 564 40 592 41 619 C41 632 41 647 42 660 C42 667 43 675 42 681 C41 687 36 687 30 687 L30 687 Z " />
<glyph glyph-name="N" unicode="N" horiz-adv-x="489" d="M55 689 C52 654 50 619 47 585 C34 444 28 301 31 160 C32 87 34 15 44 -56 C47 -74 50 -92 54 -109 C56 -118 58 -127 61 -136 C62 -141 65 -152 71 -154 C77 -155 85 -146 88 -143 C93 -136 96 -128 98 -119 C103 -102 107 -85 109 -67 C123 3 133 74 146 145 C159 216 175 286 193 356 C210 425 230 494 260 559 C273 588 289 619 312 641 C324 651 338 657 353 649 C366 641 374 627 380 613 C395 581 400 545 402 511 C405 475 406 439 406 403 C406 331 402 259 402 186 C402 115 405 44 408 -27 C410 -63 411 -98 415 -134 C416 -143 417 -152 419 -162 C420 -163 421 -170 423 -170 C425 -171 428 -168 430 -166 C435 -163 431 -156 430 -150 C429 -142 428 -134 427 -126 C422 -56 422 15 421 86 C421 120 423 156 423 192 C424 228 425 264 425 300 C425 371 425 442 419 514 C415 548 409 582 397 615 C391 629 383 644 372 654 C360 665 342 668 328 664 C313 658 301 645 292 633 C282 619 272 605 265 590 C247 560 234 527 221 494 C197 427 178 357 162 287 C147 216 133 144 120 72 C114 37 108 2 102 -34 C99 -51 95 -69 91 -87 C89 -96 87 -104 85 -113 C84 -120 82 -129 76 -135 C69 -123 67 -107 64 -93 C62 -78 60 -62 59 -47 C56 -16 54 15 53 45 C50 100 48 154 48 208 C48 264 48 320 51 376 C53 431 56 485 59 540 C61 567 62 595 64 622 C65 635 66 649 66 664 C66 667 67 671 67 675 C67 678 68 682 67 685 C66 690 59 690 55 689 L55 689 Z " />
<glyph glyph-name="O" unicode="O" horiz-adv-x="467" d="M96 707 C89 692 83 677 78 662 C67 629 62 594 55 560 C50 526 44 493 39 460 C30 390 23 320 20 250 C16 181 18 111 29 41 C34 8 42 -25 55 -56 C67 -84 83 -114 107 -132 C161 -175 225 -132 265 -90 C310 -42 342 21 364 83 C387 147 402 214 410 282 C417 349 419 418 408 485 C398 547 379 618 332 664 C309 686 278 697 246 693 C230 692 213 686 198 681 C188 677 164 672 172 657 C178 660 183 663 189 665 C197 667 204 669 211 672 C240 680 271 682 299 666 C323 651 341 625 353 599 C382 542 393 475 397 411 C400 345 396 278 383 213 C376 180 370 148 359 117 C349 88 338 59 324 31 C310 2 294 -26 275 -51 C257 -75 238 -97 212 -114 C200 -122 186 -129 171 -132 C156 -135 143 -132 130 -125 C104 -109 85 -80 74 -52 C49 7 41 75 38 140 C35 205 37 271 42 336 C48 402 56 468 66 532 C72 564 77 595 84 628 C87 644 90 660 95 676 C98 683 100 691 103 698 C104 699 106 703 105 705 C104 707 98 707 96 707 L96 707 Z " />
<glyph glyph-name="P" unicode="P" horiz-adv-x="384" d="M388 525 C388 564 383 605 369 642 C357 675 335 705 300 713 C230 731 182 660 153 603 C121 539 105 468 92 398 C79 326 70 254 63 181 C55 101 54 50 49 -37 C35 116 37 270 41 424 C41 486 42 548 45 611 C46 643 47 675 49 706 C49 708 53 726 51 728 C50 730 48 730 46 730 C40 729 38 693 36 680 C31 617 30 553 28 489 C26 427 24 363 23 300 C21 176 27 51 40 -73 C43 -104 45 -121 47 -151 C47 -160 49 -173 58 -167 C64 -164 61 -154 61 -149 C62 -134 62 -119 62 -104 C63 -41 65 22 69 84 C79 206 90 330 119 449 C132 507 149 565 177 617 C201 659 242 715 295 697 C348 679 365 609 368 559 C374 499 361 437 333 384 C319 360 302 338 280 320 C245 291 194 268 149 263 C145 262 136 263 136 253 C137 245 141 243 149 244 C221 252 297 293 339 357 C371 409 388 471 388 525 L388 525 Z " />
<glyph glyph-name="Q" unicode="Q" horiz-adv-x="502" d="M94 288 C65 285 40 261 24 237 C6 214 -5 183 -11 154 C-34 46 4 -86 100 -143 C121 -156 145 -164 170 -164 C196 -165 223 -157 246 -144 C270 -131 291 -114 310 -95 C329 -74 346 -51 360 -26 C368 -38 375 -50 382 -62 C397 -86 413 -111 428 -133 C432 -138 447 -160 453 -156 C457 -153 460 -149 456 -143 C451 -138 449 -135 446 -130 C431 -106 417 -83 403 -58 C396 -46 380 -19 373 -5 C401 49 421 108 434 168 C444 224 449 281 447 337 C441 447 420 562 358 653 C329 696 287 734 233 730 C180 727 148 669 131 623 C111 571 100 515 94 459 C88 402 90 345 94 288 L94 288 Z M214 245 C195 262 173 276 148 284 C138 286 122 289 111 289 C108 305 107 314 107 330 C102 412 109 500 131 580 C139 606 147 633 161 658 C174 679 190 702 213 711 C266 732 313 685 340 643 C371 597 389 544 403 490 C417 434 424 377 426 320 C428 265 422 208 411 154 C405 129 398 103 389 78 C384 64 373 36 361 16 C355 28 349 40 343 52 C319 99 255 208 214 245 L214 245 Z M96 272 C101 220 110 150 121 119 C126 107 132 90 140 96 C141 98 146 102 142 106 C139 111 135 121 132 135 C123 174 116 227 111 272 C146 270 170 255 194 229 C225 197 250 160 272 121 C283 104 338 16 348 -10 C331 -39 312 -65 287 -89 C272 -102 257 -116 238 -125 C218 -136 197 -143 175 -144 C130 -146 88 -116 60 -82 C32 -46 13 -3 5 43 C-3 89 -3 137 11 180 C24 222 52 264 96 272 L96 272 Z " />
<glyph glyph-name="R" unicode="R" horiz-adv-x="509" d="M149 728 C147 692 146 666 147 650 C148 642 147 606 148 597 C135 577 116 554 101 531 C68 479 44 421 29 360 C22 328 20 296 19 264 C18 248 18 231 22 217 C23 213 24 208 27 206 C29 204 30 206 33 208 C34 209 38 211 39 213 C39 217 37 217 35 219 C31 225 31 235 30 241 C29 250 30 258 30 266 C31 282 33 297 35 312 C40 345 47 376 58 406 C69 436 82 467 97 495 C112 522 129 550 149 574 C150 550 151 525 152 501 C154 401 153 302 152 202 C152 178 153 153 153 129 C153 116 153 103 153 92 C153 85 153 78 153 71 C153 67 152 65 148 61 C137 46 125 30 116 13 C106 -6 78 -52 100 -81 C109 -93 131 -101 156 -104 C157 -124 158 -153 160 -174 C161 -176 161 -179 164 -180 C165 -180 169 -178 170 -176 C173 -171 173 -167 172 -163 C171 -144 170 -122 170 -105 C173 -105 187 -107 198 -108 C248 -112 270 -115 313 -122 C359 -131 404 -138 449 -150 C454 -152 460 -153 465 -155 C468 -156 470 -157 472 -158 C476 -159 475 -160 478 -158 C482 -157 486 -153 482 -149 C479 -147 473 -145 469 -143 C447 -134 424 -131 401 -125 C356 -115 309 -105 263 -98 C240 -95 217 -92 195 -89 C189 -89 170 -86 170 -86 C169 -85 170 -55 169 -43 C169 -19 169 5 169 30 C169 36 168 43 169 49 C171 54 177 58 179 63 C187 72 195 81 203 90 C264 161 328 229 387 303 C445 377 506 455 530 550 C542 596 534 645 506 682 C477 719 431 735 387 735 C324 735 262 701 209 657 C192 642 176 628 161 611 C159 634 160 658 159 681 C159 696 158 711 158 726 C158 729 158 731 154 732 C152 732 149 732 149 728 L149 728 Z M274 211 C267 202 226 157 223 155 C223 153 206 134 200 127 C198 124 175 95 170 89 C170 103 170 116 170 129 C171 237 170 345 166 453 C166 480 165 507 164 533 C163 546 163 560 162 574 C162 580 160 587 165 592 C168 597 173 601 176 606 C211 643 251 677 297 698 C343 720 396 729 446 706 C492 687 522 636 517 586 C514 559 505 534 495 509 C478 463 432 399 425 390 C413 372 400 358 387 342 C381 334 365 315 349 296 C346 292 280 219 274 211 L274 211 Z M154 31 C154 -8 155 -46 155 -84 C143 -81 129 -79 120 -71 C109 -62 109 -50 112 -37 C116 -23 123 -12 130 -1 C135 5 138 11 142 15 C146 21 149 26 154 31 L154 31 Z " />
<glyph glyph-name="S" unicode="S" horiz-adv-x="389" d="M320 122 C283 172 224 203 178 239 C116 287 50 345 28 426 C7 508 28 602 87 663 C115 692 151 715 192 714 C212 714 232 706 247 692 C262 678 273 660 280 640 C295 599 296 552 299 508 C301 463 302 419 304 373 C305 363 305 344 307 343 C311 339 316 345 317 349 C319 354 318 380 317 384 C317 439 316 443 316 466 C314 511 316 556 309 601 C303 642 288 686 252 710 C216 734 171 730 133 711 C56 671 8 585 3 498 C1 454 7 410 26 370 C42 332 68 300 96 271 C151 215 235 167 272 133 C301 106 334 70 325 27 C318 -14 289 -52 259 -78 C203 -128 103 -185 30 -151 C13 -143 -2 -129 -8 -111 C-16 -91 -14 -69 -10 -49 C-8 -43 1 -24 -10 -25 C-17 -26 -17 -31 -17 -37 C-19 -45 -21 -54 -22 -62 C-24 -82 -24 -105 -17 -124 C-8 -142 7 -155 25 -163 C100 -199 207 -143 262 -95 C295 -68 325 -34 341 7 C356 49 345 89 320 122 L320 122 Z " />
<glyph glyph-name="T" unicode="T" horiz-adv-x="299" d="M205 671 C202 632 198 593 194 554 C190 485 187 416 183 346 C181 311 179 277 177 242 C176 224 175 207 174 188 C173 171 173 153 172 136 C168 148 165 162 162 175 C158 188 155 201 151 214 C136 273 117 330 89 384 C62 436 31 484 -3 531 C-17 551 -39 576 -39 603 C-39 652 67 663 103 669 C132 673 162 676 193 679 C222 681 252 684 281 686 C310 688 339 688 368 690 C397 691 428 692 458 692 C486 692 549 691 586 690 C599 690 614 690 627 686 C630 685 634 682 636 683 C638 683 641 686 642 687 C646 693 637 694 634 695 C619 699 604 700 590 701 C529 706 469 704 409 703 C348 702 287 701 226 697 C166 694 106 687 46 674 C20 669 -5 660 -28 647 C-52 631 -60 602 -51 574 C-44 548 -27 523 -11 501 C5 478 23 456 39 433 C73 384 101 332 119 275 C137 216 149 157 162 97 C165 82 170 68 169 51 C168 36 168 21 168 5 C168 -30 162 -97 177 -134 C185 -149 196 -132 200 -123 C213 -96 210 -63 208 -34 C205 -4 197 24 192 53 C190 61 188 68 187 75 C185 82 186 89 187 95 C187 169 193 244 197 323 C200 382 202 441 205 501 C207 532 209 561 211 592 C212 607 214 654 214 662 C214 669 213 672 205 671 L205 671 Z M183 7 C188 -16 194 -41 194 -64 C195 -75 195 -86 194 -97 C194 -107 192 -121 186 -129 C182 -119 182 -108 181 -97 C180 -86 180 -74 180 -63 C180 -57 182 3 183 7 L183 7 Z " />
<glyph glyph-name="U" unicode="U" horiz-adv-x="455" d="M407 -167 C411 -172 418 -165 418 -161 C418 -156 410 -132 409 -117 C403 -74 399 -29 396 14 C393 59 389 102 389 147 C386 236 389 325 393 414 C396 501 402 589 407 676 C408 681 409 693 408 703 C408 710 405 712 400 712 C393 714 389 709 389 707 C383 687 380 666 373 646 C362 604 356 561 347 519 C338 477 330 433 322 391 C313 348 302 308 291 267 C281 224 269 184 259 143 C248 100 236 59 221 18 C207 -21 195 -63 167 -95 C159 -103 151 -111 139 -115 C129 -118 121 -110 113 -103 C98 -88 89 -67 82 -48 C66 -6 59 39 54 83 C49 126 47 168 47 212 C44 301 50 391 60 480 C66 544 77 633 80 678 C80 685 74 696 66 693 C60 692 59 685 60 681 C61 679 62 674 66 674 C61 637 56 599 49 558 C39 492 29 406 26 323 C24 268 24 213 26 158 C28 103 34 48 47 -5 C53 -29 61 -54 71 -79 C80 -99 95 -125 119 -133 C132 -137 144 -133 155 -127 C167 -120 177 -113 184 -103 C201 -82 213 -58 223 -34 C246 15 259 67 274 118 C288 171 301 223 312 276 C336 381 361 484 383 590 C382 561 379 522 377 508 C375 481 374 453 372 426 C370 375 367 325 367 274 C366 223 367 173 371 122 C374 74 379 25 383 -24 C386 -50 393 -151 407 -167 L407 -167 Z " />
<glyph glyph-name="V" unicode="V" horiz-adv-x="369" d="M365 724 C357 698 354 670 350 643 C340 593 278 236 253 117 C240 62 227 5 204 -51 C200 -65 172 -146 146 -134 C129 -127 119 -104 111 -80 C92 -25 87 34 83 90 C78 156 78 201 75 262 C71 375 66 507 59 613 C58 627 53 670 47 693 C46 696 40 696 37 696 C31 696 31 692 32 687 C34 667 36 642 37 626 C45 507 51 392 52 274 C52 217 53 157 57 100 C63 41 69 -18 87 -75 C96 -98 109 -127 130 -142 C154 -158 173 -148 199 -111 C218 -84 227 -56 236 -28 C246 2 254 30 262 59 C277 110 343 454 363 577 C368 605 372 634 377 664 C379 679 380 693 383 708 C383 710 385 722 383 724 C380 729 370 728 365 724 L365 724 Z " />
<glyph glyph-name="W" unicode="W" horiz-adv-x="569" d="M104 736 C101 735 99 717 97 707 C81 614 66 537 51 447 C31 316 16 186 16 53 C16 3 28 -100 55 -102 C98 -106 131 64 136 84 C144 127 151 169 160 211 C164 233 168 255 171 276 C176 297 180 323 187 338 C209 317 210 280 218 249 C236 140 257 -74 347 -140 C361 -150 378 -158 398 -154 C447 -145 476 -92 491 -43 C512 23 517 93 518 161 C519 230 513 305 508 374 C500 476 487 580 471 677 C470 682 470 693 463 696 C462 697 457 697 455 696 C451 693 453 688 453 686 C457 666 460 652 461 635 C476 495 489 352 496 211 C498 141 494 70 480 0 C471 -45 452 -109 408 -133 C393 -139 374 -137 360 -127 C272 -68 256 149 237 249 C232 278 228 322 207 346 C201 351 194 354 186 354 C168 352 164 318 157 293 C142 229 132 163 118 98 C107 47 98 -7 79 -55 C77 -60 65 -90 57 -87 C49 -85 37 -8 36 25 C33 129 41 232 54 335 C63 405 73 473 84 542 C94 595 103 647 108 700 C109 709 110 717 111 726 C112 733 113 738 104 736 L104 736 Z " />
<glyph glyph-name="X" unicode="X" horiz-adv-x="485" d="M484 704 C480 704 479 703 477 699 C476 697 475 695 474 693 C467 677 458 656 451 638 C417 549 386 464 354 375 C350 389 347 404 343 418 C328 475 300 550 283 586 C272 610 255 636 233 652 C222 660 207 663 193 663 C178 663 165 655 155 644 C135 624 121 595 110 568 C97 539 86 508 76 478 C41 357 14 228 6 104 C2 40 2 -25 16 -87 C21 -116 30 -144 45 -169 C59 -191 82 -214 111 -206 C139 -198 161 -176 177 -154 C195 -128 209 -101 222 -72 C251 -10 311 157 350 294 C359 257 369 211 372 194 C385 135 396 76 410 17 C417 -12 425 -42 432 -71 C437 -87 440 -101 444 -116 C449 -130 454 -141 457 -146 C464 -156 472 -148 474 -144 C476 -141 470 -130 469 -129 C461 -115 459 -98 455 -82 C447 -49 441 -16 432 17 C419 78 406 137 392 197 C387 226 381 254 375 284 C372 299 369 314 364 328 C364 337 365 341 366 350 C369 356 372 364 374 371 C402 460 432 548 463 636 C469 652 475 672 485 691 C486 694 487 694 489 696 C494 701 490 703 484 704 L484 704 Z M37 -104 C18 -31 21 45 24 125 C28 188 42 251 55 313 C67 374 81 436 101 496 C109 525 120 555 134 582 C141 596 147 610 157 622 C165 632 175 644 189 645 C216 648 236 620 247 599 C261 574 272 547 283 521 C305 464 323 406 338 347 C339 343 341 338 341 335 C339 302 248 31 226 -13 C215 -39 204 -67 190 -93 C177 -120 163 -148 141 -169 C132 -179 121 -187 108 -190 C94 -193 83 -186 75 -176 C54 -157 45 -129 37 -104 L37 -104 Z " />
<glyph glyph-name="Y" unicode="Y" horiz-adv-x="374" d="M82 692 C77 690 75 674 73 665 C65 621 55 577 49 533 C43 488 38 444 35 399 C31 356 31 312 33 268 C35 225 40 180 52 138 C58 119 65 98 75 81 C84 65 96 45 115 41 C133 38 152 54 162 67 C174 82 182 102 191 121 C208 161 220 203 231 246 C241 288 251 331 261 374 C270 418 279 463 287 507 C290 529 294 550 297 572 C299 583 302 617 303 622 C303 626 303 631 305 634 C310 610 311 584 312 560 C317 454 312 348 300 243 C294 191 284 139 267 90 C260 67 250 35 239 13 C197 -73 119 -139 101 -152 C97 -155 98 -167 106 -161 C136 -142 173 -108 190 -90 C258 -16 293 81 310 180 C329 281 334 385 332 488 C331 539 329 590 320 640 C319 646 319 662 306 663 C295 664 293 656 292 651 C286 628 283 602 280 577 C254 400 210 214 175 127 C167 105 155 79 136 65 C132 62 126 59 122 60 C116 60 112 64 108 68 C100 76 94 85 88 95 C66 138 57 191 55 239 C51 292 50 345 54 398 C57 450 63 503 70 555 C74 582 78 608 82 634 C85 648 85 661 88 673 C89 678 94 683 91 687 C90 690 85 693 82 692 L82 692 Z " />
<glyph glyph-name="Z" unicode="Z" horiz-adv-x="340" d="M319 -99 C307 -94 296 -98 284 -100 C234 -110 183 -124 133 -136 C107 -142 83 -148 57 -155 C32 -160 7 -167 -18 -169 C-47 -171 -35 -131 -29 -114 C-20 -91 -8 -67 5 -46 C32 1 61 46 90 92 C147 183 205 274 255 368 C280 414 302 461 318 511 C331 557 342 615 310 654 C279 692 222 699 179 696 C153 694 129 690 104 683 C91 680 80 677 68 674 C66 672 63 672 62 668 C61 665 62 659 64 656 C75 661 86 664 98 667 C145 680 199 688 248 674 C269 668 291 656 304 636 C318 614 318 587 313 562 C303 510 279 462 257 416 C245 393 232 370 220 347 C207 324 194 302 180 280 C167 258 152 235 138 214 C133 204 69 105 62 93 C47 71 33 47 19 24 C5 2 -9 -20 -20 -44 C-32 -67 -43 -91 -51 -116 C-55 -129 -68 -171 -45 -186 C-35 -193 -23 -191 -11 -190 C1 -189 13 -185 25 -183 C76 -170 127 -154 177 -140 C203 -134 228 -127 253 -121 C266 -118 279 -114 292 -111 C300 -109 316 -110 319 -99 L319 -99 Z " />
<glyph glyph-name="bracketleft" unicode="&#x5b;" horiz-adv-x="190" d="M141 695 C140 700 116 698 104 694 C91 689 85 682 82 670 C73 633 69 569 66 520 C63 464 57 59 55 -76 C55 -107 54 -147 58 -175 C59 -181 64 -187 70 -190 C81 -197 99 -200 112 -202 C124 -204 129 -200 130 -196 C131 -192 126 -191 118 -190 C102 -188 76 -183 72 -175 C70 -167 69 -161 69 -155 C68 -126 68 -88 70 -56 C70 2 70 405 80 542 C83 583 86 632 94 668 C95 674 102 680 108 682 C116 685 124 687 131 686 C139 685 142 689 141 695 L141 695 Z " />
<glyph glyph-name="backslash" unicode="&#x5c;" horiz-adv-x="229" d="M182 -184 C185 -187 188 -183 189 -180 C190 -175 187 -162 186 -157 C173 -86 83 463 59 595 C57 606 54 621 50 643 C48 655 46 663 43 664 C40 665 36 665 36 657 C36 643 39 632 42 616 C45 601 47 587 49 572 C54 535 146 -5 172 -145 C175 -158 177 -171 182 -184 L182 -184 Z " />
<glyph glyph-name="bracketright" unicode="&#x5d;" horiz-adv-x="174" d="M20 695 C19 689 23 685 32 686 C41 687 52 687 62 683 C69 680 77 674 78 668 C88 632 91 583 95 542 C107 405 107 2 107 -56 C110 -88 110 -126 108 -155 C108 -161 107 -167 105 -175 C100 -183 68 -188 48 -190 C39 -191 32 -192 34 -196 C35 -200 41 -204 56 -202 C72 -200 94 -197 107 -190 C115 -187 121 -181 122 -175 C127 -147 126 -107 126 -76 C123 59 116 464 112 520 C108 569 104 633 92 670 C89 682 81 689 66 694 C51 698 21 700 20 695 L20 695 Z " />
<glyph glyph-name="asciicircum" unicode="&#x5e;" horiz-adv-x="142" d="M31 613 C33 612 36 612 38 616 C39 619 40 622 41 625 C45 632 49 639 54 645 C63 658 73 670 85 680 C89 684 95 688 97 679 C99 673 99 666 99 660 C100 645 101 630 104 615 C105 612 105 607 107 604 C107 603 108 598 112 599 C121 602 117 607 115 612 C112 626 111 641 110 656 C110 663 110 671 109 678 C108 683 108 690 104 693 C99 697 91 696 86 693 C81 690 76 685 72 681 C62 671 52 659 43 647 C35 636 26 615 31 613 L31 613 Z " />
<glyph glyph-name="underscore" unicode="&#x5f;" horiz-adv-x="182" d="M22 203 C47 203 109 203 153 203 C157 203 162 202 165 204 C168 207 166 212 162 212 C155 213 143 213 134 213 C108 213 63 213 22 213 C18 213 17 212 16 209 C16 207 15 203 22 203 L22 203 Z " />
<glyph glyph-name="grave" unicode="&#x60;" horiz-adv-x="63" d="M42 645 C46 642 52 645 51 650 C49 659 46 666 43 675 C41 680 40 686 37 689 C35 691 29 691 29 686 C29 681 30 679 32 671 C35 661 38 655 42 645 L42 645 Z " />
<glyph glyph-name="a" unicode="a" horiz-adv-x="237" d="M90 343 C88 325 87 315 86 299 C85 284 86 268 89 253 C94 230 110 202 138 207 C162 212 181 233 199 249 C209 258 237 287 241 292 C244 295 242 298 237 300 C237 300 217 281 213 277 C196 260 177 240 156 227 C148 222 135 214 124 220 C104 232 100 265 99 286 C98 300 100 326 103 347 C104 354 99 355 95 356 C90 357 86 352 82 347 C69 331 60 312 47 295 C33 275 21 256 1 243 C-4 263 -1 288 22 306 C26 309 30 311 26 314 C23 316 17 316 13 314 C-6 304 -12 270 -12 253 C-12 245 -8 235 3 235 C15 235 39 266 50 283 C65 303 76 322 90 343 L90 343 Z " />
<glyph glyph-name="b" unicode="b" horiz-adv-x="234" d="M234 300 C234 300 167 267 121 250 C126 270 131 289 128 309 C126 326 120 344 102 351 C63 365 35 321 14 294 C15 309 14 324 14 328 C16 376 32 602 38 662 C39 673 38 676 38 678 C37 682 30 684 27 681 C24 678 23 650 22 644 C21 619 5 473 2 371 C1 345 0 323 0 298 C0 291 0 284 1 278 C2 272 12 270 29 293 C40 307 56 333 75 341 C99 349 111 332 115 303 C117 285 112 267 106 250 C103 244 102 243 95 241 C71 233 47 227 23 220 C3 215 -26 208 -38 190 C-44 181 -43 168 -38 159 C-32 151 -22 145 -13 144 C17 140 49 156 72 176 C82 185 91 195 99 207 C103 213 107 219 110 225 C112 228 113 232 115 235 C117 238 119 238 122 239 C152 250 215 277 234 287 C238 289 243 295 234 300 L234 300 Z M45 173 C34 166 21 160 9 157 C-2 155 -16 153 -24 162 C-45 184 3 203 18 207 C45 215 68 221 97 230 C83 208 67 187 45 173 L45 173 Z " />
<glyph glyph-name="c" unicode="c" horiz-adv-x="187" d="M62 324 C66 324 71 326 67 335 C65 339 59 345 54 347 C41 353 25 342 15 328 C-11 292 -12 253 -13 235 C-13 211 -5 181 29 188 C50 193 80 218 104 235 C138 260 156 268 188 288 C195 292 194 296 187 300 C153 280 114 258 83 235 C71 227 59 218 47 211 C38 206 19 192 10 202 C1 212 0 242 2 254 C3 262 5 290 29 325 C45 348 59 329 62 324 L62 324 Z " />
<glyph glyph-name="d" unicode="d" horiz-adv-x="257" d="M257 300 C257 300 235 258 225 241 C214 224 203 206 190 190 C178 175 164 159 146 152 C127 145 118 172 115 186 C110 207 109 228 108 250 C107 291 108 333 111 374 C112 395 113 416 116 437 C120 458 124 479 128 500 C135 541 142 582 148 624 C150 645 151 665 153 686 C153 689 155 696 153 699 C152 701 145 702 143 701 C138 699 137 685 136 680 C128 639 123 598 117 557 C112 517 106 477 103 437 C101 416 95 395 90 375 C85 355 80 336 74 317 C68 297 60 278 52 258 C46 241 37 224 26 209 C21 202 15 194 6 189 C-1 185 -7 186 -11 194 C-18 205 -14 235 -9 252 C-4 272 5 291 17 307 C22 313 27 321 36 324 C40 326 44 326 49 324 C51 323 55 318 57 318 C60 318 67 324 67 327 C67 330 65 334 62 336 C56 340 45 341 38 339 C20 335 7 315 -1 300 C-10 283 -18 265 -23 246 C-27 227 -29 202 -22 187 C-18 180 -10 174 -1 175 C8 175 14 179 21 184 C35 196 45 213 53 229 C72 266 85 306 96 345 C98 345 95 319 95 316 C94 306 94 297 94 287 C94 266 94 244 96 223 C97 203 100 182 107 162 C114 145 129 133 149 139 C164 143 179 158 191 172 C219 202 244 250 262 286 C265 292 265 297 257 300 L257 300 Z " />
<glyph glyph-name="e" unicode="e" horiz-adv-x="164" d="M168 286 C174 292 170 298 164 300 C164 300 118 258 110 251 C95 237 57 205 29 209 C20 210 12 218 8 225 C-3 244 1 266 5 286 C11 268 30 268 42 275 C56 283 65 298 65 314 C65 330 55 340 39 339 C24 338 11 323 4 311 C-11 285 -18 247 -3 219 C4 205 17 196 33 196 C71 196 103 230 116 240 C123 246 159 278 168 286 L168 286 Z M13 303 C19 312 27 326 39 327 C52 329 54 313 51 303 C48 289 27 268 15 288 C14 290 13 293 13 295 C13 298 15 301 13 303 L13 303 Z " />
<glyph glyph-name="f" unicode="f" horiz-adv-x="234" d="M234 300 C234 300 178 242 153 218 C102 169 57 120 9 69 C8 115 9 169 12 220 C17 310 27 401 46 490 C55 535 66 580 81 623 C89 644 96 665 105 685 C110 696 115 706 120 716 C124 725 133 737 129 739 C122 742 119 744 115 737 C111 731 107 722 103 715 C42 586 14 448 1 307 C-6 236 -9 166 -9 95 C-9 24 -4 -62 11 -119 C18 -148 31 -183 56 -202 C83 -221 113 -197 127 -174 C156 -128 162 -45 111 0 C87 22 55 30 25 41 C20 43 14 45 15 51 C17 58 23 64 27 70 C38 83 50 96 62 108 C112 160 187 233 238 287 C244 293 239 299 234 300 L234 300 Z M69 7 C85 -1 102 -11 113 -26 C144 -66 140 -138 106 -178 C100 -184 94 -190 85 -193 C77 -196 71 -192 65 -187 C52 -176 43 -159 38 -143 C24 -106 20 -70 14 -30 C12 -11 10 10 10 30 C33 22 60 12 69 7 L69 7 Z " />
<glyph glyph-name="g" unicode="g" horiz-adv-x="257" d="M257 300 C257 300 214 244 188 210 C162 175 135 145 110 122 C114 145 116 162 118 182 C121 203 123 225 125 246 C126 267 128 287 129 308 C129 316 129 319 120 320 C116 321 114 321 111 317 C108 313 106 309 103 304 C86 274 69 243 47 216 C36 203 23 190 6 185 C-16 177 -13 208 -12 220 C-10 237 -4 255 4 271 C10 286 19 301 29 314 C34 319 40 326 47 328 C55 330 60 323 67 323 C74 323 80 332 77 338 C75 344 65 345 59 346 C26 350 5 309 -7 285 C-15 270 -21 253 -24 236 C-27 220 -29 197 -22 185 C-4 151 40 192 54 210 C76 238 96 270 116 301 C116 294 115 272 114 268 C113 243 112 219 109 195 C106 170 102 146 97 122 C96 116 96 110 93 106 C90 101 85 98 81 94 C72 86 63 78 54 70 C36 54 18 38 1 22 C-33 -10 -70 -42 -90 -84 C-100 -105 -106 -129 -105 -152 C-104 -169 -99 -193 -77 -196 C-57 -198 -36 -178 -28 -170 C-11 -155 3 -137 15 -118 C41 -79 61 -37 77 7 C86 29 93 52 99 75 C101 85 102 98 110 106 C118 114 127 122 135 131 C169 166 203 210 228 243 C235 253 255 278 262 288 C264 290 268 297 257 300 L257 300 Z M78 49 C74 37 70 25 66 13 C57 -10 47 -32 36 -54 C15 -93 -10 -131 -41 -162 C-48 -169 -56 -176 -65 -180 C-69 -181 -74 -185 -78 -182 C-82 -180 -85 -174 -87 -171 C-95 -152 -90 -127 -83 -109 C-70 -68 -40 -36 -11 -7 C6 9 22 25 39 41 C55 55 72 72 89 86 C86 73 82 60 78 49 L78 49 Z " />
<glyph glyph-name="h" unicode="h" horiz-adv-x="296" d="M61 741 C59 740 56 723 51 701 C37 630 30 583 20 512 C10 442 0 371 -1 300 C-1 282 -1 265 1 248 C2 232 5 200 17 192 C36 179 61 228 68 242 C87 275 111 316 123 326 C140 340 147 318 150 305 C153 290 154 273 160 259 C167 244 178 235 194 236 C211 238 225 247 239 255 C254 264 280 280 295 288 C303 293 303 297 296 300 C296 300 273 287 265 282 C250 273 236 264 220 257 C208 251 191 242 179 253 C168 265 167 284 164 299 C162 311 160 332 147 339 C132 347 120 337 111 326 C88 300 72 267 55 237 C48 225 40 208 28 200 C17 192 14 232 13 241 C9 276 11 313 13 349 C18 420 27 492 37 563 C45 616 51 644 60 697 C62 706 66 730 68 736 C69 741 66 741 61 741 L61 741 Z " />
<glyph glyph-name="i" unicode="i" horiz-adv-x="161" d="M8 348 C6 341 5 336 3 324 C0 303 -3 286 -6 259 C-8 238 -10 190 6 175 C24 159 50 176 65 188 C85 203 103 221 121 240 C136 255 152 275 165 291 C166 293 170 297 161 300 C133 262 97 227 60 197 C50 190 39 183 28 181 C17 179 12 191 9 201 C4 219 7 256 11 282 C13 296 16 310 18 324 C19 331 20 338 20 344 C20 348 20 350 17 351 C15 352 9 352 8 348 L8 348 Z M16 445 C21 442 25 445 26 447 C28 451 27 455 24 457 C20 460 15 457 14 454 C12 451 13 447 16 445 L16 445 Z " />
<glyph glyph-name="j" unicode="j" horiz-adv-x="126" d="M131 286 C136 294 133 299 126 300 C126 300 108 270 103 260 C92 240 81 220 69 199 C48 162 22 123 -6 87 C-4 105 -3 112 -2 124 C4 178 8 232 11 286 C12 305 12 315 12 326 C12 335 14 359 3 359 C-4 359 -2 348 -1 346 C2 326 0 306 0 285 C-3 207 -10 154 -17 86 C-18 80 -18 73 -21 68 C-38 44 -64 16 -86 -6 C-123 -43 -165 -74 -200 -113 C-217 -132 -232 -153 -228 -180 C-226 -189 -215 -212 -181 -206 C-135 -197 -96 -160 -72 -121 C-45 -77 -30 -27 -19 23 C-16 36 -11 61 -11 61 C-2 74 8 86 11 91 C27 112 42 134 56 156 C70 179 84 201 97 224 C109 248 122 270 131 286 L131 286 Z M-24 46 C-35 -2 -48 -53 -72 -97 C-90 -132 -116 -164 -152 -182 C-166 -189 -192 -201 -207 -190 C-223 -178 -215 -155 -206 -141 C-195 -124 -180 -110 -165 -96 C-149 -81 -132 -65 -115 -50 C-91 -26 -67 -3 -44 23 C-42 26 -32 37 -24 46 L-24 46 Z M9 459 C7 463 3 464 -2 460 C-6 458 -6 451 -4 449 C-1 445 4 446 8 448 C11 451 12 455 9 459 L9 459 Z " />
<glyph glyph-name="k" unicode="k" horiz-adv-x="256" d="M256 300 C256 300 237 281 229 273 C211 256 195 239 177 221 C164 207 148 191 130 184 C111 175 95 187 81 200 C66 214 50 236 51 242 C51 249 66 257 74 262 C82 268 93 276 100 283 C113 295 131 321 118 331 C110 338 96 332 89 327 C81 322 74 315 68 308 C42 276 27 237 13 199 C10 243 12 288 15 333 C19 380 23 426 28 473 C37 556 49 637 64 719 C66 730 67 733 69 743 C70 747 65 752 61 748 C57 745 54 731 53 724 C44 676 36 626 29 577 C17 496 8 414 2 333 C-1 291 -2 249 0 207 C0 198 1 185 4 178 C7 172 14 174 16 177 C21 184 25 198 29 207 C33 215 35 225 40 233 C49 211 72 190 91 176 C111 161 139 171 158 188 C180 207 202 231 219 248 C230 259 248 278 258 288 C261 292 263 298 256 300 L256 300 Z M78 302 C81 306 104 331 110 323 C115 319 99 297 86 287 C79 281 63 269 54 263 C61 276 69 290 78 302 L78 302 Z " />
<glyph glyph-name="l" unicode="l" horiz-adv-x="174" d="M71 739 C47 632 20 528 7 418 C0 368 -4 316 2 266 C5 243 9 218 22 198 C37 176 60 180 80 193 C100 205 116 224 133 242 C141 251 166 277 174 286 C178 289 182 296 174 300 C174 300 125 246 117 238 C101 222 85 205 64 196 C15 176 14 282 13 308 C12 358 18 408 25 457 C32 508 41 558 51 608 C57 633 70 687 79 722 C79 725 82 737 81 739 C79 742 74 743 71 739 L71 739 Z " />
<glyph glyph-name="m" unicode="m" horiz-adv-x="318" d="M11 344 C3 318 -2 293 -6 267 C-8 253 -11 238 -11 224 C-11 217 -6 216 -2 217 C1 218 5 223 8 227 C23 252 36 277 53 300 C63 312 68 322 70 305 C71 292 71 279 75 266 C78 256 87 245 100 247 C107 248 115 257 121 265 C136 284 149 306 163 326 C167 332 181 351 184 349 C189 346 190 321 190 314 C191 288 189 281 190 257 C191 233 194 213 202 204 C212 193 225 199 231 203 C243 211 265 232 281 249 C291 259 313 282 321 291 C322 293 324 299 318 300 C318 300 279 260 265 247 C256 238 239 223 231 216 C226 212 215 202 209 217 C204 228 204 270 204 294 C204 308 203 321 202 334 C201 343 198 355 190 359 C179 364 171 354 164 345 C149 324 137 304 122 283 C116 275 104 256 98 255 C89 254 87 267 85 279 C83 289 82 309 81 315 C79 325 73 329 63 324 C56 320 44 305 39 298 C25 278 14 258 0 236 C2 249 10 293 12 300 C14 311 22 342 21 343 C20 346 13 348 11 344 L11 344 Z " />
<glyph glyph-name="n" unicode="n" horiz-adv-x="223" d="M1 212 C-1 228 3 255 6 274 C8 286 10 297 11 308 C12 313 15 331 12 334 C11 336 7 336 6 333 C4 329 -1 297 -3 286 C-7 265 -10 244 -10 223 C-10 218 -10 203 -3 200 C3 198 10 206 12 209 C21 219 34 238 45 253 C56 269 70 286 81 300 C86 306 103 322 108 321 C112 320 113 302 113 290 C113 280 114 265 115 255 C117 242 121 221 136 216 C152 210 170 227 180 237 C196 253 214 273 224 287 C228 293 230 297 223 300 C223 300 215 290 211 286 C199 272 186 258 173 245 C162 235 145 218 134 237 C126 252 127 271 126 288 C126 301 127 327 114 331 C96 335 83 316 73 305 C48 276 25 241 1 212 L1 212 Z " />
<glyph glyph-name="o" unicode="o" horiz-adv-x="185" d="M12 175 C28 173 43 187 51 197 C63 212 72 229 77 247 C80 257 81 267 81 277 C81 283 81 282 86 281 C108 277 131 277 159 284 C163 285 176 288 184 291 C190 293 189 297 185 300 C174 297 150 291 136 289 C118 286 101 287 84 294 C72 300 73 319 57 322 C38 325 54 299 61 294 C68 288 70 284 71 275 C72 266 71 258 69 250 C64 234 56 220 47 207 C40 196 22 179 10 187 C-3 196 -3 221 -2 235 C-1 253 3 271 9 288 C14 304 21 320 29 335 C30 337 42 353 41 355 C41 357 34 358 33 357 C30 357 28 354 26 351 C6 324 -6 291 -12 262 C-17 236 -19 179 12 175 L12 175 Z " />
<glyph glyph-name="p" unicode="p" horiz-adv-x="234" d="M59 224 C52 220 53 209 55 207 C57 205 64 207 67 207 C78 208 87 211 97 213 C117 219 135 228 153 238 C186 257 220 279 232 287 C240 292 240 297 234 300 C234 300 132 233 82 222 C87 226 100 237 107 245 C115 253 122 262 128 272 C141 293 152 317 156 341 C162 380 135 381 128 379 C105 373 88 344 82 334 C57 294 43 249 32 205 C9 115 0 22 -8 -70 C-9 -61 -8 -50 -8 -40 C-8 -30 -8 -20 -7 -10 C-7 10 -6 30 -6 50 C-4 89 -2 128 1 168 C4 204 5 239 8 275 C11 310 16 345 20 380 C21 388 23 402 22 404 C21 405 17 407 15 406 C13 405 12 397 11 391 C8 374 6 357 4 340 C0 304 -2 269 -5 233 C-11 163 -16 94 -18 24 C-19 -12 -20 -49 -19 -85 C-19 -103 -19 -121 -18 -139 C-17 -156 -16 -193 -9 -192 C-4 -191 -3 -191 -1 -188 C2 -183 1 -167 1 -161 C0 -146 1 -131 1 -115 C2 -86 4 -57 7 -29 C11 25 18 79 28 132 C38 185 51 238 71 288 C81 311 93 334 110 353 C116 360 130 373 140 369 C150 364 145 346 143 337 C137 312 125 289 111 268 C97 246 81 235 59 224 L59 224 Z " />
<glyph glyph-name="q" unicode="q" horiz-adv-x="234" d="M79 304 C79 304 75 275 74 272 C65 214 56 169 47 110 C36 102 3 77 -9 67 C-12 64 -23 56 -24 49 C-26 39 -19 32 -10 26 C0 20 11 13 20 6 C22 4 26 1 27 -1 C26 -8 24 -21 24 -29 C23 -43 21 -67 22 -93 C23 -117 25 -149 34 -169 C38 -178 46 -189 57 -189 C65 -189 77 -183 83 -175 C98 -157 103 -130 101 -107 C99 -81 92 -57 80 -35 C71 -20 58 -5 48 5 C44 9 47 14 47 18 C52 46 55 75 61 103 C65 107 73 114 78 118 C87 126 97 135 106 144 C151 187 193 232 237 284 C238 285 247 294 234 300 C210 273 148 205 119 174 C101 155 83 138 64 122 C69 159 77 198 83 235 C90 273 97 310 102 348 C104 357 105 366 107 374 C107 379 108 383 109 387 C109 389 111 395 103 395 C97 396 95 391 95 390 C93 382 92 374 90 366 C86 350 79 334 73 319 C67 304 60 290 52 275 C45 262 37 248 27 236 C24 233 16 225 12 225 C7 226 5 244 5 251 C4 267 8 284 14 299 C19 314 27 329 38 341 C42 345 48 352 54 351 C57 351 59 347 62 347 C66 347 69 351 70 353 C74 359 62 362 58 363 C50 364 43 361 38 357 C26 350 17 336 11 324 C3 310 -2 294 -5 278 C-8 262 -9 244 -3 229 C6 206 24 218 28 221 C40 231 49 245 56 258 C65 273 72 289 79 304 L79 304 Z M44 -15 C62 -35 76 -58 83 -83 C89 -106 90 -128 82 -151 C78 -160 71 -170 62 -175 C53 -179 48 -163 46 -157 C38 -134 38 -109 38 -86 C38 -63 41 -38 44 -15 L44 -15 Z M41 86 C37 64 34 42 31 20 C23 25 15 30 7 35 C3 37 -2 40 -6 42 C-10 45 -12 47 -7 51 C12 67 17 68 41 86 L41 86 Z " />
<glyph glyph-name="r" unicode="r" horiz-adv-x="252" d="M34 430 C48 429 56 421 58 411 C67 377 27 321 10 299 C17 292 23 287 31 279 C40 270 51 262 59 252 C75 232 82 208 82 181 C81 154 78 132 76 105 C72 61 77 47 82 47 C107 44 135 82 149 102 C164 123 175 146 187 169 C200 193 211 218 224 242 C229 253 252 300 252 300 C262 298 262 293 259 287 C256 280 242 250 236 238 C229 223 202 169 189 145 C175 121 162 98 145 76 C131 58 99 27 77 34 C58 40 58 66 58 85 C59 112 63 142 66 169 C68 195 68 216 52 238 C45 248 36 257 27 265 C17 273 -6 295 -7 296 C-23 312 -31 335 -31 357 C-30 392 -5 430 34 430 L34 430 Z M2 307 C9 314 13 322 19 330 C29 346 38 363 45 381 C59 418 31 431 4 407 C-8 395 -16 381 -18 365 C-22 342 -11 324 2 307 L2 307 Z " />
<glyph glyph-name="s" unicode="s" horiz-adv-x="216" d="M43 325 C47 322 50 328 51 332 C52 336 53 354 32 355 C23 355 16 352 10 346 C-3 331 -3 309 1 291 C5 272 14 253 22 235 C32 207 41 177 41 147 C41 143 42 136 39 133 C24 120 -1 98 -15 85 C-29 72 -43 58 -54 42 C-64 27 -74 4 -63 -10 C-55 -20 -32 -18 -20 -11 C-4 -2 9 10 19 26 C30 42 38 60 44 78 C47 88 50 98 51 108 C53 116 51 128 57 133 C103 174 146 217 190 261 C198 268 205 275 212 283 C215 285 227 295 216 300 C178 263 138 223 99 187 C85 173 70 159 54 146 C53 166 50 186 45 205 C41 222 35 239 28 255 C22 271 14 287 11 304 C9 317 11 337 24 343 C29 345 34 344 38 341 C45 335 40 326 43 325 L43 325 Z M38 116 C35 93 27 69 16 48 C7 31 -6 13 -23 3 C-30 -1 -47 -6 -52 -1 C-59 6 -53 17 -49 25 C-40 44 -25 59 -10 73 C5 88 21 103 38 116 L38 116 Z " />
<glyph glyph-name="t" unicode="t" horiz-adv-x="197" d="M197 300 C197 300 181 280 177 276 C169 267 162 258 154 249 C125 218 96 189 71 191 C36 193 24 236 19 264 C9 314 11 365 14 414 C17 465 26 522 33 572 C33 572 49 572 54 572 C97 573 130 575 144 572 C147 571 157 567 161 572 C167 581 150 585 143 586 C131 587 118 587 106 587 C82 586 58 587 34 586 C39 620 42 637 48 664 C53 687 59 712 63 727 C65 736 68 744 67 746 C66 748 64 749 63 749 C58 749 58 746 57 742 C45 703 27 609 24 586 C24 586 -3 586 -22 585 C-28 585 -39 584 -45 584 C-52 584 -60 585 -64 582 C-67 580 -67 574 -64 572 C-61 569 -52 570 -49 570 C-24 571 -5 572 21 572 C19 559 18 549 16 538 C8 488 2 437 -1 386 C-3 337 -3 284 12 236 C18 216 30 193 50 184 C73 173 97 183 114 196 C133 210 151 229 166 247 C174 256 196 282 201 287 C203 290 207 296 197 300 L197 300 Z " />
<glyph glyph-name="u" unicode="u" horiz-adv-x="270" d="M121 307 C121 297 119 283 119 280 C116 257 113 235 114 213 C115 196 117 169 134 160 C152 151 173 169 185 180 C199 193 216 213 230 230 C237 238 264 274 273 288 C275 292 279 298 270 300 C270 300 232 248 225 240 C211 223 159 159 141 169 C125 176 127 220 128 240 C128 251 129 261 130 272 C131 282 132 294 132 305 C132 310 131 315 127 317 C118 322 104 303 97 293 C85 276 73 259 60 243 C53 235 30 205 15 214 C5 221 5 256 8 274 C10 287 12 304 16 322 C17 325 19 333 18 335 C17 336 17 337 14 337 C10 337 9 335 8 332 C3 314 0 302 -2 284 C-5 263 -12 209 16 202 C41 195 71 238 82 253 C89 262 95 271 101 280 C107 289 114 299 121 307 L121 307 Z " />
<glyph glyph-name="v" unicode="v" horiz-adv-x="285" d="M119 271 C130 257 151 243 176 240 C229 234 265 267 283 284 C285 285 295 296 285 300 C285 300 237 247 183 251 C157 253 137 274 132 280 C130 283 128 285 129 289 C130 293 133 297 135 301 C148 329 164 365 166 397 C167 410 165 430 152 437 C119 454 99 412 97 386 C94 353 96 316 110 287 C112 282 114 281 112 276 C106 266 98 255 92 246 C82 233 46 185 23 190 C10 193 6 222 6 241 C6 256 9 285 11 310 C12 314 13 324 13 325 C13 329 8 330 5 328 C1 305 -1 293 -4 261 C-6 241 -7 191 18 181 C27 177 40 180 47 185 C77 203 100 238 119 271 L119 271 Z M123 296 C114 318 108 340 108 364 C108 383 111 404 122 420 C127 426 134 431 143 429 C170 422 152 367 147 352 C140 333 133 313 123 296 L123 296 Z " />
<glyph glyph-name="w" unicode="w" horiz-adv-x="437" d="M434 286 C443 291 442 295 437 300 C437 300 402 279 357 282 C332 283 319 294 305 304 C294 312 282 320 272 317 C265 315 262 308 261 302 C259 293 253 273 250 264 C237 225 182 162 147 190 C134 200 132 218 132 235 C132 253 133 271 132 290 C132 293 131 298 128 301 C125 304 119 303 117 302 C113 301 107 295 100 286 C89 271 41 205 23 214 C7 221 9 290 13 309 C14 314 15 318 16 323 C17 327 16 331 13 332 C8 334 6 332 5 329 C4 326 3 320 2 315 C-1 297 -10 238 7 210 C10 204 18 200 27 201 C48 203 71 232 82 245 C94 259 105 275 118 289 C116 272 116 258 116 251 C116 228 117 183 153 173 C194 162 235 199 254 239 C264 260 273 280 277 303 C299 287 321 271 357 270 C379 269 415 277 434 286 L434 286 Z " />
<glyph glyph-name="x" unicode="x" horiz-adv-x="301" d="M116 240 C124 219 135 188 160 185 C191 181 239 227 263 249 C273 258 295 280 303 289 C308 294 307 298 301 300 C301 300 260 260 250 251 C238 240 180 187 157 198 C147 204 140 216 135 226 C132 233 126 245 126 253 C126 256 128 259 129 261 C151 291 181 332 199 362 C200 363 202 367 201 369 C200 371 198 372 195 371 C193 370 187 363 186 361 C163 327 143 304 121 272 C117 292 114 312 110 332 C108 341 106 349 100 356 C94 363 85 365 76 363 C67 361 58 356 51 351 C37 341 23 328 10 314 C4 308 -7 296 0 292 C4 290 9 296 17 306 C31 323 48 340 68 351 C73 353 80 357 86 354 C91 352 94 346 96 341 C99 331 100 325 102 312 C105 292 107 280 111 259 C111 259 108 253 106 250 C94 232 39 145 27 113 C22 103 15 77 21 74 C24 71 29 76 30 79 C31 82 30 86 31 90 C32 94 36 105 39 111 C53 141 71 170 89 198 C98 212 103 221 116 240 L116 240 Z " />
<glyph glyph-name="y" unicode="y" horiz-adv-x="327" d="M-19 -202 C9 -202 39 -184 62 -162 C85 -140 103 -113 117 -84 C130 -57 140 -28 148 1 C150 9 155 33 155 33 C225 106 303 215 335 289 C338 296 334 299 327 300 C327 300 259 167 160 58 C170 128 173 198 167 269 C165 285 160 321 154 340 C152 347 150 349 142 350 C133 351 130 344 126 338 C113 317 102 299 87 281 C78 270 39 221 20 233 C11 239 10 263 10 275 C10 291 12 306 15 322 C16 329 18 336 20 343 C21 347 13 350 10 345 C6 340 1 309 0 302 C-2 285 -7 233 18 223 C38 215 70 242 86 262 C107 286 123 313 141 338 C145 332 152 281 153 268 C158 200 153 134 146 63 C145 53 145 41 137 33 C115 11 92 -12 68 -33 C36 -61 1 -86 -28 -117 C-41 -131 -51 -148 -52 -168 C-53 -184 -41 -202 -19 -202 L-19 -202 Z M138 17 C128 -24 114 -65 94 -102 C76 -135 50 -163 17 -180 C3 -187 -20 -196 -33 -184 C-47 -171 -40 -152 -30 -139 C-19 -124 -6 -111 8 -99 C23 -86 37 -74 52 -61 C75 -41 96 -24 117 -3 C120 -1 131 10 138 17 L138 17 Z " />
<glyph glyph-name="z" unicode="z" horiz-adv-x="236" d="M50 256 C44 248 37 236 30 225 C21 209 3 183 1 164 C-1 149 6 138 18 136 C34 134 48 141 62 147 C115 175 160 215 203 255 C209 260 237 286 240 290 C243 293 244 298 236 300 C236 300 224 287 208 273 C189 256 163 233 139 215 C116 197 93 179 68 165 C56 158 41 150 28 148 C6 144 15 169 20 179 C30 201 51 234 68 257 C68 257 75 258 98 260 C105 261 107 262 106 265 C106 268 104 271 96 270 C89 269 83 269 76 269 C88 287 103 310 111 325 C116 334 119 344 116 351 C112 360 100 361 92 360 C72 357 52 344 36 333 C28 328 13 315 6 308 C0 302 -6 296 0 292 C3 289 18 306 26 312 C45 328 56 336 76 345 C81 347 99 354 104 347 C110 340 73 289 67 281 C64 277 58 268 58 268 C58 268 53 268 43 267 C38 266 30 266 27 263 C25 261 26 255 29 255 C36 254 42 255 50 256 L50 256 Z " />
<glyph glyph-name="braceleft" unicode="&#x7b;" horiz-adv-x="251" d="M164 -162 C157 -158 148 -150 140 -132 C114 -77 97 -15 90 57 C86 89 86 122 82 155 C81 170 78 185 69 199 C61 212 49 222 49 238 C50 253 57 267 63 281 C69 296 75 311 82 326 C104 387 117 447 127 513 C132 545 135 576 144 606 C152 633 165 663 191 677 C197 680 204 682 212 682 C215 681 225 682 223 688 C221 692 206 692 202 692 C196 691 189 688 183 685 C159 671 145 644 137 617 C128 587 123 554 119 523 C114 491 110 459 103 427 C97 396 88 366 76 337 C71 322 64 308 57 293 C52 279 43 264 41 249 C38 236 39 222 47 210 C50 204 56 199 60 192 C64 186 66 181 67 174 C75 144 74 111 76 78 C80 13 92 -46 117 -113 C124 -128 131 -143 138 -156 C141 -161 147 -170 154 -170 C158 -171 165 -167 164 -162 L164 -162 Z " />
<glyph glyph-name="bar" unicode="&#x7c;" horiz-adv-x="108" d="M49 704 C48 695 49 676 49 664 C51 590 41 -32 51 -155 C51 -170 51 -183 53 -198 C53 -202 54 -207 60 -207 C65 -207 64 -203 64 -197 C64 -180 63 -168 63 -154 C55 214 61 445 59 671 C59 678 58 686 58 694 C58 700 57 707 49 704 L49 704 Z " />
<glyph glyph-name="braceright" unicode="&#x7d;" horiz-adv-x="195" d="M96 703 C109 699 122 698 126 680 C129 667 128 647 128 628 C128 592 123 555 120 519 C117 487 114 455 112 423 C111 393 112 360 126 333 C133 320 143 310 152 298 C156 293 164 285 162 278 C160 272 154 266 150 262 C140 250 131 239 126 225 C121 211 119 196 118 181 C113 116 119 51 112 -14 C108 -46 99 -76 87 -106 C78 -129 68 -151 57 -173 C54 -179 48 -186 53 -190 C56 -193 64 -180 69 -172 C79 -155 93 -121 103 -97 C118 -62 125 -26 128 11 C131 62 127 113 130 166 C131 181 131 197 135 212 C139 227 146 240 155 252 C163 262 178 276 172 290 C169 297 163 302 158 307 C153 313 148 319 144 325 C136 338 131 352 128 367 C121 399 123 433 126 466 C130 500 134 534 137 568 C139 602 142 637 139 671 C137 684 134 698 122 706 C114 711 101 716 95 713 C93 712 91 706 96 703 L96 703 Z " />
<glyph glyph-name="asciitilde" unicode="&#x7e;" horiz-adv-x="163" d="M9 295 C8 292 8 288 10 288 C13 288 16 292 19 297 C24 305 27 309 33 315 C38 320 45 325 51 319 C55 315 59 304 63 297 C70 285 79 275 94 276 C108 278 121 288 131 298 C137 303 143 309 149 314 C151 316 161 323 159 326 C158 328 153 328 151 327 C145 325 134 314 126 307 C116 299 105 288 91 288 C85 288 82 294 76 304 C72 310 69 317 65 323 C62 328 57 332 52 333 C48 334 40 333 34 328 C24 320 11 303 9 295 L9 295 Z " />
</font>
</svg>
